  0
SECTION
  2
HEADER
  9
$ACADVER
  1
AC1015
  9
$ACADMAINTVER
 70
     6
  9
$DWGCODEPAGE
  3
ANSI_1252
  9
$INSBASE
 10
0.0
 20
0.0
 30
0.0
  9
$EXTMIN
 10
-189.0
 20
-876.5552291085951
 30
0.0
  9
$EXTMAX
 10
265.271894496913
 20
225.3291095505701
 30
0.0
  9
$LIMMIN
 10
0.0
 20
0.0
  9
$LIMMAX
 10
12.0
 20
9.0
  9
$ORTHOMODE
 70
     0
  9
$REGENMODE
 70
     1
  9
$FILLMODE
 70
     1
  9
$QTEXTMODE
 70
     0
  9
$MIRRTEXT
 70
     1
  9
$LTSCALE
 40
1.0
  9
$ATTMODE
 70
     1
  9
$TEXTSIZE
 40
0.2
  9
$TRACEWID
 40
0.05
  9
$TEXTSTYLE
  7
Standard
  9
$CLAYER
  8
0
  9
$CELTYPE
  6
ByLayer
  9
$CECOLOR
 62
   256
  9
$CELTSCALE
 40
1.0
  9
$DISPSILH
 70
     0
  9
$DIMSCALE
 40
1.0
  9
$DIMASZ
 40
0.18
  9
$DIMEXO
 40
0.0625
  9
$DIMDLI
 40
0.38
  9
$DIMRND
 40
0.0
  9
$DIMDLE
 40
0.0
  9
$DIMEXE
 40
0.18
  9
$DIMTP
 40
0.0
  9
$DIMTM
 40
0.0
  9
$DIMTXT
 40
0.18
  9
$DIMCEN
 40
0.09
  9
$DIMTSZ
 40
0.0
  9
$DIMTOL
 70
     0
  9
$DIMLIM
 70
     0
  9
$DIMTIH
 70
     1
  9
$DIMTOH
 70
     1
  9
$DIMSE1
 70
     0
  9
$DIMSE2
 70
     0
  9
$DIMTAD
 70
     0
  9
$DIMZIN
 70
     0
  9
$DIMBLK
  1

  9
$DIMASO
 70
     1
  9
$DIMSHO
 70
     1
  9
$DIMPOST
  1

  9
$DIMAPOST
  1

  9
$DIMALT
 70
     0
  9
$DIMALTD
 70
     2
  9
$DIMALTF
 40
25.4
  9
$DIMLFAC
 40
1.0
  9
$DIMTOFL
 70
     0
  9
$DIMTVP
 40
0.0
  9
$DIMTIX
 70
     0
  9
$DIMSOXD
 70
     0
  9
$DIMSAH
 70
     0
  9
$DIMBLK1
  1

  9
$DIMBLK2
  1

  9
$DIMSTYLE
  2
Standard
  9
$DIMCLRD
 70
     0
  9
$DIMCLRE
 70
     0
  9
$DIMCLRT
 70
     0
  9
$DIMTFAC
 40
1.0
  9
$DIMGAP
 40
0.09
  9
$DIMJUST
 70
     0
  9
$DIMSD1
 70
     0
  9
$DIMSD2
 70
     0
  9
$DIMTOLJ
 70
     1
  9
$DIMTZIN
 70
     0
  9
$DIMALTZ
 70
     0
  9
$DIMALTTZ
 70
     0
  9
$DIMUPT
 70
     0
  9
$DIMDEC
 70
     4
  9
$DIMTDEC
 70
     4
  9
$DIMALTU
 70
     2
  9
$DIMALTTD
 70
     2
  9
$DIMTXSTY
  7
Standard
  9
$DIMAUNIT
 70
     0
  9
$DIMADEC
 70
     0
  9
$DIMALTRND
 40
0.0
  9
$DIMAZIN
 70
     0
  9
$DIMDSEP
 70
    46
  9
$DIMATFIT
 70
     3
  9
$DIMFRAC
 70
     0
  9
$DIMLDRBLK
  1

  9
$DIMLUNIT
 70
     2
  9
$DIMLWD
 70
    -2
  9
$DIMLWE
 70
    -2
  9
$DIMTMOVE
 70
     0
  9
$LUNITS
 70
     2
  9
$LUPREC
 70
     4
  9
$SKETCHINC
 40
0.1
  9
$FILLETRAD
 40
0.5
  9
$AUNITS
 70
     0
  9
$AUPREC
 70
     0
  9
$MENU
  1
.
  9
$ELEVATION
 40
0.0
  9
$PELEVATION
 40
0.0
  9
$THICKNESS
 40
0.0
  9
$LIMCHECK
 70
     0
  9
$CHAMFERA
 40
0.5
  9
$CHAMFERB
 40
0.5
  9
$CHAMFERC
 40
1.0
  9
$CHAMFERD
 40
0.0
  9
$SKPOLY
 70
     0
  9
$TDCREATE
 40
2454727.316195915
  9
$TDUCREATE
 40
2454727.232862581
  9
$TDUPDATE
 40
2454727.316195926
  9
$TDUUPDATE
 40
2454727.232862593
  9
$TDINDWG
 40
0.0000000116
  9
$TDUSRTIMER
 40
0.0000000116
  9
$USRTIMER
 70
     1
  9
$ANGBASE
 50
0.0
  9
$ANGDIR
 70
     0
  9
$PDMODE
 70
     0
  9
$PDSIZE
 40
0.0
  9
$PLINEWID
 40
0.0
  9
$SPLFRAME
 70
     0
  9
$SPLINETYPE
 70
     6
  9
$SPLINESEGS
 70
     8
  9
$HANDSEED
  5
397
  9
$SURFTAB1
 70
     6
  9
$SURFTAB2
 70
     6
  9
$SURFTYPE
 70
     6
  9
$SURFU
 70
     6
  9
$SURFV
 70
     6
  9
$UCSBASE
  2

  9
$UCSNAME
  2

  9
$UCSORG
 10
0.0
 20
0.0
 30
0.0
  9
$UCSXDIR
 10
1.0
 20
0.0
 30
0.0
  9
$UCSYDIR
 10
0.0
 20
1.0
 30
0.0
  9
$UCSORTHOREF
  2

  9
$UCSORTHOVIEW
 70
     0
  9
$UCSORGTOP
 10
0.0
 20
0.0
 30
0.0
  9
$UCSORGBOTTOM
 10
0.0
 20
0.0
 30
0.0
  9
$UCSORGLEFT
 10
0.0
 20
0.0
 30
0.0
  9
$UCSORGRIGHT
 10
0.0
 20
0.0
 30
0.0
  9
$UCSORGFRONT
 10
0.0
 20
0.0
 30
0.0
  9
$UCSORGBACK
 10
0.0
 20
0.0
 30
0.0
  9
$PUCSBASE
  2

  9
$PUCSNAME
  2

  9
$PUCSORG
 10
0.0
 20
0.0
 30
0.0
  9
$PUCSXDIR
 10
1.0
 20
0.0
 30
0.0
  9
$PUCSYDIR
 10
0.0
 20
1.0
 30
0.0
  9
$PUCSORTHOREF
  2

  9
$PUCSORTHOVIEW
 70
     0
  9
$PUCSORGTOP
 10
0.0
 20
0.0
 30
0.0
  9
$PUCSORGBOTTOM
 10
0.0
 20
0.0
 30
0.0
  9
$PUCSORGLEFT
 10
0.0
 20
0.0
 30
0.0
  9
$PUCSORGRIGHT
 10
0.0
 20
0.0
 30
0.0
  9
$PUCSORGFRONT
 10
0.0
 20
0.0
 30
0.0
  9
$PUCSORGBACK
 10
0.0
 20
0.0
 30
0.0
  9
$USERI1
 70
     0
  9
$USERI2
 70
     0
  9
$USERI3
 70
     0
  9
$USERI4
 70
     0
  9
$USERI5
 70
     0
  9
$USERR1
 40
15.5
  9
$USERR2
 40
0.0
  9
$USERR3
 40
0.0
  9
$USERR4
 40
0.0
  9
$USERR5
 40
0.0
  9
$WORLDVIEW
 70
     1
  9
$SHADEDGE
 70
     3
  9
$SHADEDIF
 70
    70
  9
$TILEMODE
 70
     1
  9
$MAXACTVP
 70
    64
  9
$PINSBASE
 10
0.0
 20
0.0
 30
0.0
  9
$PLIMCHECK
 70
     0
  9
$PEXTMIN
 10
1.00000000000000E+20
 20
1.00000000000000E+20
 30
1.00000000000000E+20
  9
$PEXTMAX
 10
-1.00000000000000E+20
 20
-1.00000000000000E+20
 30
-1.00000000000000E+20
  9
$PLIMMIN
 10
0.0
 20
0.0
  9
$PLIMMAX
 10
12.0
 20
9.0
  9
$UNITMODE
 70
     0
  9
$VISRETAIN
 70
     1
  9
$PLINEGEN
 70
     0
  9
$PSLTSCALE
 70
     1
  9
$TREEDEPTH
 70
  3020
  9
$CMLSTYLE
  2
Standard
  9
$CMLJUST
 70
     0
  9
$CMLSCALE
 40
1.0
  9
$PROXYGRAPHICS
 70
     1
  9
$MEASUREMENT
 70
     1
  9
$CELWEIGHT
370
    -1
  9
$ENDCAPS
280
     0
  9
$JOINSTYLE
280
     0
  9
$LWDISPLAY
290
     0
  9
$INSUNITS
 70
     1
  9
$HYPERLINKBASE
  1

  9
$STYLESHEET
  1

  9
$XEDIT
290
     1
  9
$CEPSNTYPE
380
     0
  9
$PSTYLEMODE
290
     1
  9
$FINGERPRINTGUID
  2
{B281A540-B5DE-4170-85FD-512C61537E64}
  9
$VERSIONGUID
  2
{FAEB1C32-E019-11D5-929B-00C0DF256EC4}
  9
$EXTNAMES
290
     1
  9
$PSVPSCALE
 40
0.0
  9
$OLESTARTUP
290
     0
  0
ENDSEC
  0
SECTION
  2
CLASSES
  0
CLASS
  1
ACDBDICTIONARYWDFLT
  2
AcDbDictionaryWithDefault
  3
ObjectDBX Classes
 90
        0
280
     0
281
     0
  0
CLASS
  1
VISUALSTYLE
  2
AcDbVisualStyle
  3
ObjectDBX Classes
 90
     4095
280
     0
281
     0
  0
CLASS
  1

  2
exOdDbCircle
  3

 90
        0
280
     0
281
     1
  0
CLASS
  1
ACDBPLACEHOLDER
  2
AcDbPlaceHolder
  3
ObjectDBX Classes
 90
        0
280
     0
281
     0
  0
CLASS
  1
LAYOUT
  2
AcDbLayout
  3
ObjectDBX Classes
 90
        0
280
     0
281
     0
  0
ENDSEC
  0
SECTION
  2
TABLES
  0
TABLE
  2
VPORT
  5
8
330
0
100
AcDbSymbolTable
 70
     1
  0
VPORT
  5
29
330
8
100
AcDbSymbolTableRecord
100
AcDbViewportTableRecord
  2
*Active
 70
     0
 10
0.0
 20
0.0
 11
1.0
 21
1.0
 12
38.13594724845649
 22
-325.6130597790125
 13
0.0
 23
0.0
 14
0.5
 24
0.5
 15
0.5
 25
0.5
 16
0.0
 26
0.0
 36
1.0
 17
0.0
 27
0.0
 37
0.0
 40
1212.072772525082
 41
1.60267857142857
 42
50.0
 43
0.0
 44
0.0
 50
0.0
 51
0.0
 71
     0
 72
   100
 73
     1
 74
     3
 75
     0
 76
     0
 77
     0
 78
     0
281
     0
 65
     1
110
0.0
120
0.0
130
0.0
111
1.0
121
0.0
131
0.0
112
0.0
122
1.0
132
0.0
 79
     0
146
0.0
  0
ENDTAB
  0
TABLE
  2
LTYPE
  5
5
330
0
100
AcDbSymbolTable
 70
     9
  0
LTYPE
  5
14
330
5
100
AcDbSymbolTableRecord
100
AcDbLinetypeTableRecord
  2
ByBlock
 70
     0
  3

 72
    65
 73
     0
 40
0.0
  0
LTYPE
  5
15
330
5
100
AcDbSymbolTableRecord
100
AcDbLinetypeTableRecord
  2
ByLayer
 70
     0
  3

 72
    65
 73
     0
 40
0.0
  0
LTYPE
  5
16
330
5
100
AcDbSymbolTableRecord
100
AcDbLinetypeTableRecord
  2
Continuous
 70
     0
  3
Solid line
 72
    65
 73
     0
 40
0.0
  0
LTYPE
  5
3B
330
5
100
AcDbSymbolTableRecord
100
AcDbLinetypeTableRecord
  2
DASHED
 70
     0
  3
Dashed
 72
    65
 73
     2
 40
15.0
 49
7.0
 74
     0
 49
-8.0
 74
     0
  0
LTYPE
  5
3C
330
5
100
AcDbSymbolTableRecord
100
AcDbLinetypeTableRecord
  2
DOTTED
 70
     0
  3
Dotted
 72
    65
 73
     2
 40
1.0
 49
0.0
 74
     0
 49
-1.0
 74
     0
  0
LTYPE
  5
3D
330
5
100
AcDbSymbolTableRecord
100
AcDbLinetypeTableRecord
  2
DOT_CENTER
 70
     0
  3
Dot_Center
 72
    65
 73
     4
 40
14.0
 49
12.0
 74
     0
 49
-1.0
 74
     0
 49
0.0
 74
     0
 49
-1.0
 74
     0
  0
LTYPE
  5
3E
330
5
100
AcDbSymbolTableRecord
100
AcDbLinetypeTableRecord
  2
LONG_DASHED
 70
     0
  3
Long_Dashed
 72
    65
 73
     2
 40
15.0
 49
10.0
 74
     0
 49
-5.0
 74
     0
  0
LTYPE
  5
3F
330
5
100
AcDbSymbolTableRecord
100
AcDbLinetypeTableRecord
  2
DASH_CENTER
 70
     0
  3
Dash_Center
 72
    65
 73
     4
 40
14.0
 49
11.0
 74
     0
 49
-1.0
 74
     0
 49
1.0
 74
     0
 49
-1.0
 74
     0
  0
LTYPE
  5
40
330
5
100
AcDbSymbolTableRecord
100
AcDbLinetypeTableRecord
  2
PHANTOM
 70
     0
  3
Phantom
 72
    65
 73
     6
 40
13.0
 49
10.0
 74
     0
 49
-1.0
 74
     0
 49
0.0
 74
     0
 49
-1.0
 74
     0
 49
0.0
 74
     0
 49
-1.0
 74
     0
  0
LTYPE
  5
41
330
5
100
AcDbSymbolTableRecord
100
AcDbLinetypeTableRecord
  2
CENTER_DASH_DASH
 70
     0
  3
Center_Dash_Dash
 72
    65
 73
     6
 40
14.0
 49
9.0
 74
     0
 49
-1.0
 74
     0
 49
1.0
 74
     0
 49
-1.0
 74
     0
 49
1.0
 74
     0
 49
-1.0
 74
     0
  0
LTYPE
  5
42
330
5
100
AcDbSymbolTableRecord
100
AcDbLinetypeTableRecord
  2
DASHDOT
 70
     0
  3
DASHDOT
 72
    65
 73
     4
 40
16.0
 49
10.0
 74
     0
 49
-3.0
 74
     0
 49
0.0
 74
     0
 49
-3.0
 74
     0
  0
ENDTAB
  0
TABLE
  2
LAYER
  5
2
330
0
100
AcDbSymbolTable
 70
    11
  0
LAYER
  5
10
330
2
100
AcDbSymbolTableRecord
100
AcDbLayerTableRecord
  2
0
 70
     0
 62
     7
  6
Continuous
370
    -3
390
F
  0
LAYER
  5
43
330
2
100
AcDbSymbolTableRecord
100
AcDbLayerTableRecord
  2
1
 70
     0
 62
     7
  6
Continuous
370
    -3
390
F
  0
LAYER
  5
44
330
2
100
AcDbSymbolTableRecord
100
AcDbLayerTableRecord
  2
LC-001-002-----0
 70
     0
 62
     7
  6
Continuous
370
    -3
390
F
  0
LAYER
  5
45
330
2
100
AcDbSymbolTableRecord
100
AcDbLayerTableRecord
  2
LC-001-003-----0
 70
     0
 62
     7
  6
Continuous
370
    -3
390
F
  0
LAYER
  5
46
330
2
100
AcDbSymbolTableRecord
100
AcDbLayerTableRecord
  2
LC-002-002-RND-0
 70
     0
 62
     7
  6
Continuous
370
    -3
390
F
  0
LAYER
  5
47
330
2
100
AcDbSymbolTableRecord
100
AcDbLayerTableRecord
  2
LC-004-002-RND-0
 70
     0
 62
     7
  6
Continuous
370
    -3
390
F
  0
LAYER
  5
48
330
2
100
AcDbSymbolTableRecord
100
AcDbLayerTableRecord
  2
LC-005-002-----0
 70
     0
 62
     7
  6
Continuous
370
    -3
390
F
  0
LAYER
  5
49
330
2
100
AcDbSymbolTableRecord
100
AcDbLayerTableRecord
  2
LC-006-002-----0
 70
     0
 62
     7
  6
Continuous
370
    -3
390
F
  0
LAYER
  5
4A
330
2
100
AcDbSymbolTableRecord
100
AcDbLayerTableRecord
  2
LC-007-007-KH--0
 70
     0
 62
     7
  6
Continuous
370
    -3
390
F
  0
LAYER
  5
4B
330
2
100
AcDbSymbolTableRecord
100
AcDbLayerTableRecord
  2
LC-010-006-MLN-0
 70
     0
 62
     7
  6
Continuous
370
    -3
390
F
  0
LAYER
  5
4C
330
2
100
AcDbSymbolTableRecord
100
AcDbLayerTableRecord
  2
LC-013-200-----0
 70
     0
 62
     7
  6
Continuous
370
    -3
390
F
  0
ENDTAB
  0
TABLE
  2
STYLE
  5
3
330
0
100
AcDbSymbolTable
 70
     2
  0
STYLE
  5
11
330
3
100
AcDbSymbolTableRecord
100
AcDbTextStyleTableRecord
  2
Standard
 70
     0
 40
0.0
 41
1.0
 50
0.0
 71
     0
 42
0.2
  3
txt
  4

  0
STYLE
  5
343
330
3
100
AcDbSymbolTableRecord
100
AcDbTextStyleTableRecord
  2
CONVERTER_11
 70
     0
 40
0.0
 41
0.9
 50
0.0
 71
     0
 42
0.2
  3
txt.shx
  4

  0
ENDTAB
  0
TABLE
  2
VIEW
  5
6
330
0
100
AcDbSymbolTable
 70
     0
  0
ENDTAB
  0
TABLE
  2
UCS
  5
7
330
0
100
AcDbSymbolTable
 70
     0
  0
ENDTAB
  0
TABLE
  2
APPID
  5
9
330
0
100
AcDbSymbolTable
 70
     1
  0
APPID
  5
12
330
9
100
AcDbSymbolTableRecord
100
AcDbRegAppTableRecord
  2
ACAD
 70
     0
  0
ENDTAB
  0
TABLE
  2
DIMSTYLE
  5
A
330
0
100
AcDbSymbolTable
 70
     9
100
AcDbDimStyleTable
  0
DIMSTYLE
105
27
330
A
100
AcDbSymbolTableRecord
100
AcDbDimStyleTableRecord
  2
Standard
 70
     0
340
11
  0
DIMSTYLE
105
347
102
{ACAD_REACTORS
330
348
102
}
330
A
100
AcDbSymbolTableRecord
100
AcDbDimStyleTableRecord
  2
ME10_DIM_10
 70
     0
  3
Ø<>
 41
12.0
 42
0.0
 44
2.0
 73
     0
 74
     0
 77
     1
 78
     8
140
12.0
147
2.0
172
     1
173
     1
176
     4
177
     4
178
     1
271
     2
340
343
  0
DIMSTYLE
105
352
102
{ACAD_REACTORS
330
353
102
}
330
A
100
AcDbSymbolTableRecord
100
AcDbDimStyleTableRecord
  2
ME10_DIM_11
 70
     0
  3
378x<>
 41
12.0
 42
0.0
 44
2.0
 73
     0
 74
     0
 77
     1
 78
     8
140
12.0
147
2.0
172
     1
173
     1
176
     4
177
     4
178
     1
271
     2
340
343
  0
DIMSTYLE
105
35D
102
{ACAD_REACTORS
330
35E
102
}
330
A
100
AcDbSymbolTableRecord
100
AcDbDimStyleTableRecord
  2
ME10_DIM_12
 70
     0
  3
284x<>
 41
12.0
 42
0.0
 44
2.0
 73
     0
 74
     0
 77
     1
 78
     8
140
12.0
147
2.0
172
     1
173
     1
176
     4
177
     4
178
     1
271
     2
340
343
  0
DIMSTYLE
105
368
102
{ACAD_REACTORS
330
369
102
}
330
A
100
AcDbSymbolTableRecord
100
AcDbDimStyleTableRecord
  2
ME10_DIM_13
 70
     0
 41
12.0
 42
0.0
 44
2.0
 73
     0
 74
     0
 77
     1
 78
     8
140
12.0
147
2.0
172
     1
173
     1
176
     4
177
     4
178
     1
271
     2
340
343
  0
DIMSTYLE
105
373
102
{ACAD_REACTORS
330
374
102
}
330
A
100
AcDbSymbolTableRecord
100
AcDbDimStyleTableRecord
  2
ME10_DIM_14
 70
     0
  3
(<>)
 41
12.0
 42
0.0
 44
2.0
 73
     0
 74
     0
 77
     1
 78
     8
140
12.0
147
2.0
172
     1
173
     1
176
     4
177
     4
178
     1
271
     2
340
343
  0
DIMSTYLE
105
37E
102
{ACAD_REACTORS
330
37F
102
}
330
A
100
AcDbSymbolTableRecord
100
AcDbDimStyleTableRecord
  2
ME10_DIM_15
 70
     0
  3
DN<>
 41
12.0
 42
0.0
 44
2.0
 73
     0
 74
     0
 77
     1
 78
     8
140
12.0
147
2.0
172
     1
173
     1
176
     4
177
     4
178
     1
271
     2
340
343
  0
DIMSTYLE
105
389
102
{ACAD_REACTORS
330
38A
102
}
330
A
100
AcDbSymbolTableRecord
100
AcDbDimStyleTableRecord
  2
ME10_DIM_16
 70
     0
  3
Ø<>
 41
12.0
 42
0.0
 44
2.0
 73
     0
 74
     0
 77
     1
 78
     8
140
12.0
147
2.0
172
     1
173
     1
176
     4
177
     4
178
     1
271
     2
340
343
  0
DIMSTYLE
105
394
102
{ACAD_REACTORS
330
395
102
}
330
A
100
AcDbSymbolTableRecord
100
AcDbDimStyleTableRecord
  2
ME10_DIM_17
 70
     0
 41
12.0
 42
0.0
 44
2.0
 73
     0
 74
     0
 77
     1
 78
     8
140
12.0
147
2.0
172
     1
173
     1
176
     4
177
     4
178
     1
271
     2
340
343
  0
ENDTAB
  0
TABLE
  2
BLOCK_RECORD
  5
1
330
0
100
AcDbSymbolTable
 70
    16
  0
BLOCK_RECORD
  5
1F
330
1
100
AcDbSymbolTableRecord
100
AcDbBlockTableRecord
  2
*Model_Space
340
22
  0
BLOCK_RECORD
  5
1B
330
1
100
AcDbSymbolTableRecord
100
AcDbBlockTableRecord
  2
*Paper_Space
340
1E
  0
BLOCK_RECORD
  5
23
330
1
100
AcDbSymbolTableRecord
100
AcDbBlockTableRecord
  2
*Paper_Space0
340
26
  0
BLOCK_RECORD
  5
4D
330
1
100
AcDbSymbolTableRecord
100
AcDbBlockTableRecord
  2
Senkschraube_M_6x25_DIN_965
340
0
102
{BLKREFS
331
63
102
}
  0
BLOCK_RECORD
  5
50
330
1
100
AcDbSymbolTableRecord
100
AcDbBlockTableRecord
  2
Außenansicht
340
0
102
{BLKREFS
331
54
102
}
  0
BLOCK_RECORD
  5
53
330
1
100
AcDbSymbolTableRecord
100
AcDbBlockTableRecord
  2
HL_61_7_Flachdachablauf
340
0
102
{BLKREFS
331
64
102
}
  0
BLOCK_RECORD
  5
57
330
1
100
AcDbSymbolTableRecord
100
AcDbBlockTableRecord
  2
060_1E_Laubfangkorb
340
0
102
{BLKREFS
331
65
102
}
  0
BLOCK_RECORD
  5
5A
330
1
100
AcDbSymbolTableRecord
100
AcDbBlockTableRecord
  2
PVC_Manschette
340
0
102
{BLKREFS
331
66
102
}
  0
BLOCK_RECORD
  5
5D
330
1
100
AcDbSymbolTableRecord
100
AcDbBlockTableRecord
  2
Bauschutz_062_9E
340
0
102
{BLKREFS
331
67
102
}
  0
BLOCK_RECORD
  5
60
330
1
100
AcDbSymbolTableRecord
100
AcDbBlockTableRecord
  2
Körper
340
0
102
{BLKREFS
331
68
102
}
  0
BLOCK_RECORD
  5
33D
330
1
100
AcDbSymbolTableRecord
100
AcDbBlockTableRecord
  2
*D8
340
0
  0
BLOCK_RECORD
  5
349
330
1
100
AcDbSymbolTableRecord
100
AcDbBlockTableRecord
  2
*D9
340
0
  0
BLOCK_RECORD
  5
354
330
1
100
AcDbSymbolTableRecord
100
AcDbBlockTableRecord
  2
*D10
340
0
  0
BLOCK_RECORD
  5
35F
330
1
100
AcDbSymbolTableRecord
100
AcDbBlockTableRecord
  2
*D11
340
0
  0
BLOCK_RECORD
  5
36A
330
1
100
AcDbSymbolTableRecord
100
AcDbBlockTableRecord
  2
*D12
340
0
  0
BLOCK_RECORD
  5
375
330
1
100
AcDbSymbolTableRecord
100
AcDbBlockTableRecord
  2
*D13
340
0
  0
BLOCK_RECORD
  5
380
330
1
100
AcDbSymbolTableRecord
100
AcDbBlockTableRecord
  2
*D14
340
0
  0
BLOCK_RECORD
  5
38B
330
1
100
AcDbSymbolTableRecord
100
AcDbBlockTableRecord
  2
*D15
340
0
  0
ENDTAB
  0
ENDSEC
  0
SECTION
  2
BLOCKS
  0
BLOCK
  5
20
330
1F
100
AcDbEntity
  8
0
100
AcDbBlockBegin
  2
*Model_Space
 70
     0
 71
     0
 10
0.0
 20
0.0
 30
0.0
  3
*Model_Space
  1

  0
ENDBLK
  5
21
330
1F
100
AcDbEntity
  8
0
100
AcDbBlockEnd
  0
BLOCK
  5
1C
330
1B
100
AcDbEntity
 67
     1
  8
0
100
AcDbBlockBegin
  2
*Paper_Space
 70
     0
 71
     0
 10
0.0
 20
0.0
 30
0.0
  3
*Paper_Space
  1

  0
ENDBLK
  5
1D
330
1B
100
AcDbEntity
 67
     1
  8
0
100
AcDbBlockEnd
  0
BLOCK
  5
24
330
23
100
AcDbEntity
  8
0
100
AcDbBlockBegin
  2
*Paper_Space0
 70
     0
 71
     0
 10
0.0
 20
0.0
 30
0.0
  3
*Paper_Space0
  1

  0
ENDBLK
  5
25
330
23
100
AcDbEntity
  8
0
100
AcDbBlockEnd
  0
BLOCK
  5
4E
330
4D
100
AcDbEntity
  8
0
100
AcDbBlockBegin
  2
Senkschraube_M_6x25_DIN_965
 70
     0
 71
     0
 10
-36.04893710713077
 20
-787.6044551085943
 30
0.0
  3
Senkschraube_M_6x25_DIN_965
  1

  0
LINE
  5
69
330
4D
100
AcDbEntity
  8
1
  6
PHANTOM
 62
     2
100
AcDbLine
 10
-76.16642402788216
 20
-731.5296311101149
 30
0.0
 11
-86.64533141367258
 21
-737.5796311101142
 31
0.0
  0
LINE
  5
6A
330
4D
100
AcDbEntity
  8
1
  6
PHANTOM
 62
     2
100
AcDbLine
 10
-78.38087772077768
 20
-739.7940848030097
 30
0.0
 11
-84.43087772077695
 21
-729.3151774172193
 31
0.0
  0
LINE
  5
6B
330
4D
100
AcDbEntity
  8
1
  6
Continuous
 62
     7
100
AcDbLine
 10
-80.17875943098716
 20
-735.460062334927
 30
0.0
 11
-79.35260222446868
 21
-736.8910085916561
 31
0.0
  0
LINE
  5
6C
330
4D
100
AcDbEntity
  8
1
  6
Continuous
 62
     7
100
AcDbLine
 10
-79.35260222446868
 20
-736.8910085916561
 30
0.0
 11
-80.40915321708667
 21
-737.5010085916567
 31
0.0
  0
LINE
  5
6D
330
4D
100
AcDbEntity
  8
1
  6
Continuous
 62
     7
100
AcDbLine
 10
-80.40915321708667
 20
-737.5010085916567
 30
0.0
 11
-81.23531042360514
 21
-736.0700623349276
 31
0.0
  0
LINE
  5
6E
330
4D
100
AcDbEntity
  8
1
  6
Continuous
 62
     7
100
AcDbLine
 10
-78.45950023923513
 20
-733.5579066064238
 30
0.0
 11
-79.89044649596428
 21
-734.3840638129423
 31
0.0
  0
LINE
  5
6F
330
4D
100
AcDbEntity
  8
1
  6
Continuous
 62
     7
100
AcDbLine
 10
-79.06950023923571
 20
-732.5013556138058
 30
0.0
 11
-78.45950023923513
 21
-733.5579066064238
 31
0.0
  0
LINE
  5
70
330
4D
100
AcDbEntity
  8
1
  6
Continuous
 62
     7
100
AcDbLine
 10
-80.50044649596487
 20
-733.3275128203243
 30
0.0
 11
-79.06950023923571
 21
-732.5013556138058
 31
0.0
  0
LINE
  5
71
330
4D
100
AcDbEntity
  8
1
  6
Continuous
 62
     7
100
AcDbLine
 10
-82.40260222446796
 20
-731.6082536285722
 30
0.0
 11
-81.57644501794948
 21
-733.0391998853015
 31
0.0
  0
LINE
  5
72
330
4D
100
AcDbEntity
  8
1
  6
Continuous
 62
     7
100
AcDbLine
 10
-83.45915321708594
 20
-732.2182536285728
 30
0.0
 11
-82.40260222446796
 21
-731.6082536285722
 31
0.0
  0
LINE
  5
73
330
4D
100
AcDbEntity
  8
1
  6
Continuous
 62
     7
100
AcDbLine
 10
-82.63299601056747
 20
-733.6491998853021
 30
0.0
 11
-83.45915321708594
 21
-732.2182536285728
 31
0.0
  0
LINE
  5
74
330
4D
100
AcDbEntity
  8
1
  6
Continuous
 62
     7
100
AcDbLine
 10
-84.3522552023195
 20
-735.5513556138051
 30
0.0
 11
-82.92130894559034
 21
-734.7251984072866
 31
0.0
  0
LINE
  5
75
330
4D
100
AcDbEntity
  8
1
  6
Continuous
 62
     7
100
AcDbLine
 10
-83.74225520231892
 20
-736.6079066064231
 30
0.0
 11
-84.3522552023195
 21
-735.5513556138051
 31
0.0
  0
LINE
  5
76
330
4D
100
AcDbEntity
  8
1
  6
Continuous
 62
     7
100
AcDbLine
 10
-82.31130894558976
 20
-735.7817493999046
 30
0.0
 11
-83.74225520231892
 21
-736.6079066064231
 31
0.0
  0
LINE
  5
77
330
4D
100
AcDbEntity
  8
1
  6
PHANTOM
 62
     2
100
AcDbLine
 10
-76.16662725693175
 20
-643.5796311101133
 30
0.0
 11
-86.64553464272217
 21
-637.529631110114
 31
0.0
  0
LINE
  5
78
330
4D
100
AcDbEntity
  8
1
  6
PHANTOM
 62
     2
100
AcDbLine
 10
-84.43108094982665
 20
-645.7940848030089
 30
0.0
 11
-78.38108094982738
 21
-635.3151774172184
 31
0.0
  0
LINE
  5
79
330
4D
100
AcDbEntity
  8
1
  6
Continuous
 62
     7
100
AcDbLine
 10
-81.57664824699918
 20
-642.0700623349267
 30
0.0
 11
-82.40280545351766
 21
-643.5010085916558
 31
0.0
  0
LINE
  5
7A
330
4D
100
AcDbEntity
  8
1
  6
Continuous
 62
     7
100
AcDbLine
 10
-82.40280545351766
 20
-643.5010085916558
 30
0.0
 11
-83.45935644613564
 21
-642.8910085916552
 31
0.0
  0
LINE
  5
7B
330
4D
100
AcDbEntity
  8
1
  6
Continuous
 62
     7
100
AcDbLine
 10
-83.45935644613564
 20
-642.8910085916552
 30
0.0
 11
-82.63319923961717
 21
-641.4600623349261
 31
0.0
  0
LINE
  5
7C
330
4D
100
AcDbEntity
  8
1
  6
Continuous
 62
     7
100
AcDbLine
 10
-79.06970346828541
 20
-642.6079066064224
 30
0.0
 11
-80.50064972501457
 21
-641.7817493999039
 31
0.0
  0
LINE
  5
7D
330
4D
100
AcDbEntity
  8
1
  6
Continuous
 62
     7
100
AcDbLine
 10
-78.45970346828483
 20
-641.5513556138043
 30
0.0
 11
-79.06970346828541
 21
-642.6079066064224
 31
0.0
  0
LINE
  5
7E
330
4D
100
AcDbEntity
  8
1
  6
Continuous
 62
     7
100
AcDbLine
 10
-79.89064972501399
 20
-640.7251984072858
 30
0.0
 11
-78.45970346828483
 21
-641.5513556138043
 31
0.0
  0
LINE
  5
7F
330
4D
100
AcDbEntity
  8
1
  6
Continuous
 62
     7
100
AcDbLine
 10
-79.35280545351839
 20
-638.218253628572
 30
0.0
 11
-80.17896266003686
 21
-639.6491998853012
 31
0.0
  0
LINE
  5
80
330
4D
100
AcDbEntity
  8
1
  6
Continuous
 62
     7
100
AcDbLine
 10
-80.40935644613637
 20
-637.6082536285714
 30
0.0
 11
-79.35280545351839
 21
-638.218253628572
 31
0.0
  0
LINE
  5
81
330
4D
100
AcDbEntity
  8
1
  6
Continuous
 62
     7
100
AcDbLine
 10
-81.23551365265484
 20
-639.0391998853006
 30
0.0
 11
-80.40935644613637
 21
-637.6082536285714
 31
0.0
  0
LINE
  5
82
330
4D
100
AcDbEntity
  8
1
  6
Continuous
 62
     7
100
AcDbLine
 10
-83.74245843136862
 20
-638.501355613805
 30
0.0
 11
-82.31151217463946
 21
-639.3275128203235
 31
0.0
  0
LINE
  5
83
330
4D
100
AcDbEntity
  8
1
  6
Continuous
 62
     7
100
AcDbLine
 10
-84.3524584313692
 20
-639.5579066064231
 30
0.0
 11
-83.74245843136862
 21
-638.501355613805
 31
0.0
  0
LINE
  5
84
330
4D
100
AcDbEntity
  8
1
  6
Continuous
 62
     7
100
AcDbLine
 10
-82.92151217464004
 20
-640.3840638129416
 30
0.0
 11
-84.3524584313692
 21
-639.5579066064231
 31
0.0
  0
LINE
  5
85
330
4D
100
AcDbEntity
  8
1
  6
PHANTOM
 62
     2
100
AcDbLine
 10
0.00020539138594
 20
-599.6044551085924
 30
0.0
 11
0.00020539138594
 21
-587.5044551085939
 31
0.0
  0
LINE
  5
86
330
4D
100
AcDbEntity
  8
1
  6
PHANTOM
 62
     2
100
AcDbLine
 10
-6.04979460861333
 20
-593.5544551085932
 30
0.0
 11
6.05020539138521
 21
-593.5544551085932
 31
0.0
  0
LINE
  5
87
330
4D
100
AcDbEntity
  8
1
  6
Continuous
 62
     7
100
AcDbLine
 10
-1.39748019557639
 20
-594.1644551085938
 30
0.0
 11
-3.04979460861334
 21
-594.1644551085938
 31
0.0
  0
LINE
  5
88
330
4D
100
AcDbEntity
  8
1
  6
Continuous
 62
     7
100
AcDbLine
 10
-3.04979460861334
 20
-594.1644551085938
 30
0.0
 11
-3.04979460861333
 21
-592.9444551085926
 31
0.0
  0
LINE
  5
89
330
4D
100
AcDbEntity
  8
1
  6
Continuous
 62
     7
100
AcDbLine
 10
-3.04979460861333
 20
-592.9444551085926
 30
0.0
 11
-1.39748019557639
 21
-592.9444551085926
 31
0.0
  0
LINE
  5
8A
330
4D
100
AcDbEntity
  8
1
  6
Continuous
 62
     7
100
AcDbLine
 10
-0.60979460861465
 20
-596.6044551085924
 30
0.0
 11
-0.60979460861464
 21
-594.9521406955555
 31
0.0
  0
LINE
  5
8B
330
4D
100
AcDbEntity
  8
1
  6
Continuous
 62
     7
100
AcDbLine
 10
0.61020539138652
 20
-596.6044551085924
 30
0.0
 11
-0.60979460861465
 21
-596.6044551085924
 31
0.0
  0
LINE
  5
8C
330
4D
100
AcDbEntity
  8
1
  6
Continuous
 62
     7
100
AcDbLine
 10
0.61020539138652
 20
-594.9521406955555
 30
0.0
 11
0.61020539138652
 21
-596.6044551085924
 31
0.0
  0
LINE
  5
8D
330
4D
100
AcDbEntity
  8
1
  6
Continuous
 62
     7
100
AcDbLine
 10
3.05020539138521
 20
-594.1644551085938
 30
0.0
 11
1.39789097834826
 21
-594.1644551085938
 31
0.0
  0
LINE
  5
8E
330
4D
100
AcDbEntity
  8
1
  6
Continuous
 62
     7
100
AcDbLine
 10
3.05020539138521
 20
-592.9444551085926
 30
0.0
 11
3.05020539138521
 21
-594.1644551085938
 31
0.0
  0
LINE
  5
8F
330
4D
100
AcDbEntity
  8
1
  6
Continuous
 62
     7
100
AcDbLine
 10
1.39789097834826
 20
-592.9444551085926
 30
0.0
 11
3.05020539138521
 21
-592.9444551085926
 31
0.0
  0
LINE
  5
90
330
4D
100
AcDbEntity
  8
1
  6
Continuous
 62
     7
100
AcDbLine
 10
0.61020539138652
 20
-590.5044551085939
 30
0.0
 11
0.61020539138652
 21
-592.1567695216308
 31
0.0
  0
LINE
  5
91
330
4D
100
AcDbEntity
  8
1
  6
Continuous
 62
     7
100
AcDbLine
 10
-0.60979460861464
 20
-590.5044551085939
 30
0.0
 11
0.61020539138652
 21
-590.5044551085939
 31
0.0
  0
LINE
  5
92
330
4D
100
AcDbEntity
  8
1
  6
Continuous
 62
     7
100
AcDbLine
 10
-0.60979460861464
 20
-592.1567695216308
 30
0.0
 11
-0.60979460861464
 21
-590.5044551085939
 31
0.0
  0
LINE
  5
93
330
4D
100
AcDbEntity
  8
1
  6
PHANTOM
 62
     2
100
AcDbLine
 10
76.16724126875363
 20
-643.5792791070733
 30
0.0
 11
86.64614865454405
 21
-637.529279107074
 31
0.0
  0
LINE
  5
94
330
4D
100
AcDbEntity
  8
1
  6
PHANTOM
 62
     2
100
AcDbLine
 10
78.38169496164926
 20
-635.3148254141784
 30
0.0
 11
84.43169496164853
 21
-645.7937327999689
 31
0.0
  0
LINE
  5
95
330
4D
100
AcDbEntity
  8
1
  6
Continuous
 62
     7
100
AcDbLine
 10
80.17957667185874
 20
-639.6488478822612
 30
0.0
 11
79.35341946534027
 21
-638.217901625532
 31
0.0
  0
LINE
  5
96
330
4D
100
AcDbEntity
  8
1
  6
Continuous
 62
     7
100
AcDbLine
 10
79.35341946534027
 20
-638.217901625532
 30
0.0
 11
80.40997045795825
 21
-637.6079016255314
 31
0.0
  0
LINE
  5
97
330
4D
100
AcDbEntity
  8
1
  6
Continuous
 62
     7
100
AcDbLine
 10
80.40997045795825
 20
-637.6079016255314
 30
0.0
 11
81.23612766447673
 21
-639.0388478822606
 31
0.0
  0
LINE
  5
98
330
4D
100
AcDbEntity
  8
1
  6
Continuous
 62
     7
100
AcDbLine
 10
78.46031748010671
 20
-641.5510036107643
 30
0.0
 11
79.89126373683587
 21
-640.7248464042458
 31
0.0
  0
LINE
  5
99
330
4D
100
AcDbEntity
  8
1
  6
Continuous
 62
     7
100
AcDbLine
 10
79.07031748010729
 20
-642.6075546033824
 30
0.0
 11
78.46031748010671
 21
-641.5510036107643
 31
0.0
  0
LINE
  5
9A
330
4D
100
AcDbEntity
  8
1
  6
Continuous
 62
     7
100
AcDbLine
 10
80.50126373683645
 20
-641.7813973968639
 30
0.0
 11
79.07031748010729
 21
-642.6075546033824
 31
0.0
  0
LINE
  5
9B
330
4D
100
AcDbEntity
  8
1
  6
Continuous
 62
     7
100
AcDbLine
 10
82.40341946533954
 20
-643.5006565886158
 30
0.0
 11
81.57726225882107
 21
-642.0697103318867
 31
0.0
  0
LINE
  5
9C
330
4D
100
AcDbEntity
  8
1
  6
Continuous
 62
     7
100
AcDbLine
 10
83.45997045795752
 20
-642.8906565886152
 30
0.0
 11
82.40341946533954
 21
-643.5006565886158
 31
0.0
  0
LINE
  5
9D
330
4D
100
AcDbEntity
  8
1
  6
Continuous
 62
     7
100
AcDbLine
 10
82.63381325143905
 20
-641.4597103318861
 30
0.0
 11
83.45997045795752
 21
-642.8906565886152
 31
0.0
  0
LINE
  5
9E
330
4D
100
AcDbEntity
  8
1
  6
Continuous
 62
     7
100
AcDbLine
 10
84.35307244319108
 20
-639.5575546033831
 30
0.0
 11
82.92212618646192
 21
-640.3837118099016
 31
0.0
  0
LINE
  5
9F
330
4D
100
AcDbEntity
  8
1
  6
Continuous
 62
     7
100
AcDbLine
 10
83.7430724431905
 20
-638.501003610765
 30
0.0
 11
84.35307244319108
 21
-639.5575546033831
 31
0.0
  0
LINE
  5
A0
330
4D
100
AcDbEntity
  8
1
  6
Continuous
 62
     7
100
AcDbLine
 10
82.31212618646134
 20
-639.3271608172835
 30
0.0
 11
83.7430724431905
 21
-638.501003610765
 31
0.0
  0
LINE
  5
A1
330
4D
100
AcDbEntity
  8
1
  6
PHANTOM
 62
     2
100
AcDbLine
 10
76.16744449780356
 20
-731.5292791070749
 30
0.0
 11
86.64635188359398
 21
-737.5792791070742
 31
0.0
  0
LINE
  5
A2
330
4D
100
AcDbEntity
  8
1
  6
PHANTOM
 62
     2
100
AcDbLine
 10
84.43189819069835
 20
-729.3148254141794
 30
0.0
 11
78.38189819069908
 21
-739.7937327999698
 31
0.0
  0
LINE
  5
A3
330
4D
100
AcDbEntity
  8
1
  6
Continuous
 62
     7
100
AcDbLine
 10
81.57746548787088
 20
-733.0388478822615
 30
0.0
 11
82.40362269438936
 21
-731.6079016255323
 31
0.0
  0
LINE
  5
A4
330
4D
100
AcDbEntity
  8
1
  6
Continuous
 62
     7
100
AcDbLine
 10
82.40362269438936
 20
-731.6079016255323
 30
0.0
 11
83.46017368700734
 21
-732.2179016255329
 31
0.0
  0
LINE
  5
A5
330
4D
100
AcDbEntity
  8
1
  6
Continuous
 62
     7
100
AcDbLine
 10
83.46017368700734
 20
-732.2179016255329
 30
0.0
 11
82.63401648048887
 21
-733.6488478822621
 31
0.0
  0
LINE
  5
A6
330
4D
100
AcDbEntity
  8
1
  6
Continuous
 62
     7
100
AcDbLine
 10
79.07052070915711
 20
-732.501003610766
 30
0.0
 11
80.50146696588627
 21
-733.3271608172845
 31
0.0
  0
LINE
  5
A7
330
4D
100
AcDbEntity
  8
1
  6
Continuous
 62
     7
100
AcDbLine
 10
78.46052070915653
 20
-733.557554603384
 30
0.0
 11
79.07052070915711
 21
-732.501003610766
 31
0.0
  0
LINE
  5
A8
330
4D
100
AcDbEntity
  8
1
  6
Continuous
 62
     7
100
AcDbLine
 10
79.89146696588568
 20
-734.3837118099025
 30
0.0
 11
78.46052070915653
 21
-733.557554603384
 31
0.0
  0
LINE
  5
A9
330
4D
100
AcDbEntity
  8
1
  6
Continuous
 62
     7
100
AcDbLine
 10
79.35362269439008
 20
-736.8906565886163
 30
0.0
 11
80.17977990090856
 21
-735.459710331887
 31
0.0
  0
LINE
  5
AA
330
4D
100
AcDbEntity
  8
1
  6
Continuous
 62
     7
100
AcDbLine
 10
80.41017368700807
 20
-737.5006565886168
 30
0.0
 11
79.35362269439008
 21
-736.8906565886163
 31
0.0
  0
LINE
  5
AB
330
4D
100
AcDbEntity
  8
1
  6
Continuous
 62
     7
100
AcDbLine
 10
81.23633089352654
 20
-736.0697103318876
 30
0.0
 11
80.41017368700807
 21
-737.5006565886168
 31
0.0
  0
LINE
  5
AC
330
4D
100
AcDbEntity
  8
1
  6
Continuous
 62
     7
100
AcDbLine
 10
83.74327567224032
 20
-736.6075546033833
 30
0.0
 11
82.31232941551116
 21
-735.7813973968648
 31
0.0
  0
LINE
  5
AD
330
4D
100
AcDbEntity
  8
1
  6
Continuous
 62
     7
100
AcDbLine
 10
84.3532756722409
 20
-735.5510036107653
 30
0.0
 11
83.74327567224032
 21
-736.6075546033833
 31
0.0
  0
LINE
  5
AE
330
4D
100
AcDbEntity
  8
1
  6
Continuous
 62
     7
100
AcDbLine
 10
82.92232941551174
 20
-734.7248464042468
 30
0.0
 11
84.3532756722409
 21
-735.5510036107653
 31
0.0
  0
LINE
  5
AF
330
4D
100
AcDbEntity
  8
1
  6
PHANTOM
 62
     2
100
AcDbLine
 10
0.00061184948572
 20
-775.5044551085957
 30
0.0
 11
0.00061184948572
 21
-787.6044551085943
 31
0.0
  0
LINE
  5
B0
330
4D
100
AcDbEntity
  8
1
  6
PHANTOM
 62
     2
100
AcDbLine
 10
6.05061184948499
 20
-781.554455108595
 30
0.0
 11
-6.04938815051355
 21
-781.554455108595
 31
0.0
  0
LINE
  5
B1
330
4D
100
AcDbEntity
  8
1
  6
Continuous
 62
     7
100
AcDbLine
 10
0.6106118494863
 20
-782.9521406955573
 30
0.0
 11
0.6106118494863
 21
-784.6044551085943
 31
0.0
  0
LINE
  5
B2
330
4D
100
AcDbEntity
  8
1
  6
Continuous
 62
     7
100
AcDbLine
 10
0.6106118494863
 20
-784.6044551085943
 30
0.0
 11
-0.60938815051486
 21
-784.6044551085943
 31
0.0
  0
LINE
  5
B3
330
4D
100
AcDbEntity
  8
1
  6
Continuous
 62
     7
100
AcDbLine
 10
-0.60938815051486
 20
-784.6044551085943
 30
0.0
 11
-0.60938815051486
 21
-782.9521406955573
 31
0.0
  0
LINE
  5
B4
330
4D
100
AcDbEntity
  8
1
  6
Continuous
 62
     7
100
AcDbLine
 10
-1.3970737374766
 20
-782.1644551085956
 30
0.0
 11
-3.04938815051355
 21
-782.1644551085956
 31
0.0
  0
LINE
  5
B5
330
4D
100
AcDbEntity
  8
1
  6
Continuous
 62
     7
100
AcDbLine
 10
-3.04938815051355
 20
-782.1644551085956
 30
0.0
 11
-3.04938815051355
 21
-780.9444551085944
 31
0.0
  0
LINE
  5
B6
330
4D
100
AcDbEntity
  8
1
  6
Continuous
 62
     7
100
AcDbLine
 10
-3.04938815051355
 20
-780.9444551085944
 30
0.0
 11
-1.3970737374766
 21
-780.9444551085944
 31
0.0
  0
LINE
  5
B7
330
4D
100
AcDbEntity
  8
1
  6
Continuous
 62
     7
100
AcDbLine
 10
-0.60938815051486
 20
-780.1567695216327
 30
0.0
 11
-0.60938815051486
 21
-778.5044551085957
 31
0.0
  0
LINE
  5
B8
330
4D
100
AcDbEntity
  8
1
  6
Continuous
 62
     7
100
AcDbLine
 10
-0.60938815051486
 20
-778.5044551085957
 30
0.0
 11
0.6106118494863
 21
-778.5044551085957
 31
0.0
  0
LINE
  5
B9
330
4D
100
AcDbEntity
  8
1
  6
Continuous
 62
     7
100
AcDbLine
 10
0.6106118494863
 20
-778.5044551085957
 30
0.0
 11
0.6106118494863
 21
-780.1567695216327
 31
0.0
  0
LINE
  5
BA
330
4D
100
AcDbEntity
  8
1
  6
Continuous
 62
     7
100
AcDbLine
 10
3.05061184948499
 20
-782.1644551085956
 30
0.0
 11
1.39829743644805
 21
-782.1644551085956
 31
0.0
  0
LINE
  5
BB
330
4D
100
AcDbEntity
  8
1
  6
Continuous
 62
     7
100
AcDbLine
 10
3.05061184948499
 20
-780.9444551085944
 30
0.0
 11
3.05061184948499
 21
-782.1644551085956
 31
0.0
  0
LINE
  5
BC
330
4D
100
AcDbEntity
  8
1
  6
Continuous
 62
     7
100
AcDbLine
 10
1.39829743644805
 20
-780.9444551085944
 30
0.0
 11
3.05061184948499
 21
-780.9444551085944
 31
0.0
  0
CIRCLE
  5
BD
330
4D
100
AcDbEntity
  8
1
  6
Continuous
 62
     7
100
AcDbCircle
 10
-81.40587772077731
 20
-734.5546311101145
 30
0.0
 40
5.499999999999959
  0
CIRCLE
  5
BE
330
4D
100
AcDbEntity
  8
1
  6
Continuous
 62
     7
100
AcDbCircle
 10
-81.40587772077731
 20
-734.5546311101145
 30
0.0
 40
1.524999999997797
  0
CIRCLE
  5
BF
330
4D
100
AcDbEntity
  8
1
  6
Continuous
 62
     7
100
AcDbCircle
 10
-81.40608094982701
 20
-640.5546311101136
 30
0.0
 40
5.500000000000058
  0
CIRCLE
  5
C0
330
4D
100
AcDbEntity
  8
1
  6
Continuous
 62
     7
100
AcDbCircle
 10
-81.40608094982701
 20
-640.5546311101136
 30
0.0
 40
1.524999999997797
  0
CIRCLE
  5
C1
330
4D
100
AcDbEntity
  8
1
  6
Continuous
 62
     7
100
AcDbCircle
 10
0.00020539138594
 20
-593.5544551085932
 30
0.0
 40
5.5
  0
CIRCLE
  5
C2
330
4D
100
AcDbEntity
  8
1
  6
Continuous
 62
     7
100
AcDbCircle
 10
0.00020539138594
 20
-593.5544551085932
 30
0.0
 40
1.524999999997817
  0
CIRCLE
  5
C3
330
4D
100
AcDbEntity
  8
1
  6
Continuous
 62
     7
100
AcDbCircle
 10
81.4066949616489
 20
-640.5542791070736
 30
0.0
 40
5.499999999999959
  0
CIRCLE
  5
C4
330
4D
100
AcDbEntity
  8
1
  6
Continuous
 62
     7
100
AcDbCircle
 10
81.4066949616489
 20
-640.5542791070736
 30
0.0
 40
1.524999999997797
  0
CIRCLE
  5
C5
330
4D
100
AcDbEntity
  8
1
  6
Continuous
 62
     7
100
AcDbCircle
 10
81.40689819069871
 20
-734.5542791070745
 30
0.0
 40
5.499999999999861
  0
CIRCLE
  5
C6
330
4D
100
AcDbEntity
  8
1
  6
Continuous
 62
     7
100
AcDbCircle
 10
81.40689819069871
 20
-734.5542791070745
 30
0.0
 40
1.524999999997797
  0
CIRCLE
  5
C7
330
4D
100
AcDbEntity
  8
1
  6
Continuous
 62
     7
100
AcDbCircle
 10
0.00061184948572
 20
-781.554455108595
 30
0.0
 40
1.524999999997817
  0
CIRCLE
  5
C8
330
4D
100
AcDbEntity
  8
1
  6
Continuous
 62
     7
100
AcDbCircle
 10
0.00061184948572
 20
-781.554455108595
 30
0.0
 40
5.5
  0
ENDBLK
  5
4F
330
4D
100
AcDbEntity
  8
0
100
AcDbBlockEnd
  0
BLOCK
  5
51
330
50
100
AcDbEntity
  8
0
100
AcDbBlockBegin
  2
Außenansicht
 70
     0
 71
     0
 10
-29.52887217687611
 20
291.212402601397
 30
0.0
  3
Außenansicht
  1

  0
POINT
  5
C9
330
50
100
AcDbEntity
  8
LC-001-003-----0
 62
     7
100
AcDbPoint
 10
179.9999460000001
 20
-0.00326499999983
 30
0.0
  0
POINT
  5
CA
330
50
100
AcDbEntity
  8
LC-001-003-----0
 62
     7
100
AcDbPoint
 10
187.0
 20
-100.0030258481043
 30
0.0
  0
POINT
  5
CB
330
50
100
AcDbEntity
  8
LC-001-003-----0
 62
     7
100
AcDbPoint
 10
180.0000000000001
 20
-0.00326499999983
 30
0.0
  0
POINT
  5
CC
330
50
100
AcDbEntity
  8
LC-001-003-----0
 62
     7
100
AcDbPoint
 10
-180.0000000000001
 20
-0.00326499999983
 30
0.0
  0
POINT
  5
CD
330
50
100
AcDbEntity
  8
LC-001-003-----0
 62
     7
100
AcDbPoint
 10
189.0
 20
-102.5030258481043
 30
0.0
  0
POINT
  5
CE
330
50
100
AcDbEntity
  8
LC-001-003-----0
 62
     7
100
AcDbPoint
 10
-189.0
 20
-102.5030258481043
 30
0.0
  0
POINT
  5
CF
330
50
100
AcDbEntity
  8
LC-001-003-----0
 62
     7
100
AcDbPoint
 10
85.5
 20
-268.0016768481044
 30
0.0
  0
POINT
  5
D0
330
50
100
AcDbEntity
  8
LC-001-003-----0
 62
     7
100
AcDbPoint
 10
-85.50007099999993
 20
-268.0016768481044
 30
0.0
  0
POINT
  5
D1
330
50
100
AcDbEntity
  8
LC-001-003-----0
 62
     7
100
AcDbPoint
 10
189.0
 20
-102.5030258481043
 30
0.0
  0
POINT
  5
D2
330
50
100
AcDbEntity
  8
LC-001-003-----0
 62
     7
100
AcDbPoint
 10
77.5
 20
-273.0016768481044
 30
0.0
  0
POINT
  5
D3
330
50
100
AcDbEntity
  8
LC-001-003-----0
 62
     7
100
AcDbPoint
 10
142.0501750000002
 20
2.79268300000013
 30
0.0
  0
POINT
  5
D4
330
50
100
AcDbEntity
  8
LC-001-003-----0
 62
     7
100
AcDbPoint
 10
-142.050174
 20
2.79268300000013
 30
0.0
  0
POINT
  5
D5
330
50
100
AcDbEntity
  8
LC-001-003-----0
 62
     7
100
AcDbPoint
 10
37.5
 20
-338.0009058481044
 30
0.0
  0
POINT
  5
D6
330
50
100
AcDbEntity
  8
LC-001-003-----0
 62
     7
100
AcDbPoint
 10
-37.49999999999999
 20
-338.0009058481044
 30
0.0
  0
LINE
  5
D7
330
50
100
AcDbEntity
  8
1
  6
PHANTOM
 62
     2
100
AcDbLine
 10
-0.00000000000006
 20
2.99956287106922
 30
0.0
 11
0.00000000000001
 21
-348.5543056453103
 31
0.0
  0
LINE
  5
D8
330
50
100
AcDbEntity
  8
LC-005-002-----0
  6
Continuous
 62
     7
100
AcDbLine
 10
-37.49999999999999
 20
-338.0009058481044
 30
0.0
 11
37.5
 21
-338.0009058481044
 31
0.0
  0
LINE
  5
D9
330
50
100
AcDbEntity
  8
LC-005-002-----0
  6
Continuous
 62
     7
100
AcDbLine
 10
0.0
 20
0.0
 30
0.0
 11
-179.9999450000003
 21
-0.00326500000006
 31
0.0
  0
LINE
  5
DA
330
50
100
AcDbEntity
  8
LC-005-002-----0
  6
Continuous
 62
     7
100
AcDbLine
 10
-180.0000000000001
 20
0.99677100000008
 30
0.0
 11
-180.0000000000001
 21
-0.00326499999983
 31
0.0
  0
LINE
  5
DB
330
50
100
AcDbEntity
  8
LC-005-002-----0
  6
Continuous
 62
     7
100
AcDbLine
 10
0.0
 20
0.0
 30
0.0
 11
179.9999460000001
 21
-0.00326499999983
 31
0.0
  0
LINE
  5
DC
330
50
100
AcDbEntity
  8
LC-005-002-----0
  6
Continuous
 62
     7
100
AcDbLine
 10
180.0000000000001
 20
0.99677100000008
 30
0.0
 11
180.0000000000001
 21
-0.00326499999983
 31
0.0
  0
LINE
  5
DD
330
50
100
AcDbEntity
  8
LC-005-002-----0
  6
Continuous
 62
     7
100
AcDbLine
 10
0.0
 20
3.0
 30
0.0
 11
178.0000369999998
 21
2.99677100000008
 31
0.0
  0
LINE
  5
DE
330
50
100
AcDbEntity
  8
LC-005-002-----0
  6
Continuous
 62
     7
100
AcDbLine
 10
36.29422900000009
 20
-342.5009068481043
 30
0.0
 11
37.5
 21
-338.0009058481044
 31
0.0
  0
LINE
  5
DF
330
50
100
AcDbEntity
  8
LC-005-002-----0
  6
Continuous
 62
     7
100
AcDbLine
 10
37.5
 20
-277.5009048481043
 30
0.0
 11
37.5
 21
-338.0009058481044
 31
0.0
  0
LINE
  5
E0
330
50
100
AcDbEntity
  8
LC-005-002-----0
  6
Continuous
 62
     7
100
AcDbLine
 10
-189.0
 20
-102.0030258481043
 30
0.0
 11
-189.0
 21
-102.5030258481043
 31
0.0
  0
LINE
  5
E1
330
50
100
AcDbEntity
  8
LC-005-002-----0
  6
Continuous
 62
     7
100
AcDbLine
 10
63.10000000000014
 20
-270.5016768481045
 30
0.0
 11
63.00000000000001
 21
-270.5016768481045
 31
0.0
  0
LINE
  5
E2
330
50
100
AcDbEntity
  8
LC-005-002-----0
  6
Continuous
 62
     7
100
AcDbLine
 10
83.65000000000009
 20
-268.0016768481044
 30
0.0
 11
85.5
 21
-268.0016768481044
 31
0.0
  0
LINE
  5
E3
330
50
100
AcDbEntity
  8
LC-005-002-----0
  6
Continuous
 62
     7
100
AcDbLine
 10
-62.99999999999999
 20
-270.5016768481045
 30
0.0
 11
-63.0999999999999
 21
-270.5016768481045
 31
0.0
  0
LINE
  5
E4
330
50
100
AcDbEntity
  8
LC-005-002-----0
  6
Continuous
 62
     7
100
AcDbLine
 10
-77.5
 20
-270.5016768481045
 30
0.0
 11
-69.5
 21
-270.5016768481045
 31
0.0
  0
LINE
  5
E5
330
50
100
AcDbEntity
  8
LC-005-002-----0
  6
Continuous
 62
     7
100
AcDbLine
 10
-77.5
 20
-270.5016768481045
 30
0.0
 11
-83.0
 21
-270.5016768481045
 31
0.0
  0
LINE
  5
E6
330
50
100
AcDbEntity
  8
LC-005-002-----0
  6
Continuous
 62
     7
100
AcDbLine
 10
77.5
 20
-270.5016768481045
 30
0.0
 11
83.0
 21
-270.5016768481045
 31
0.0
  0
LINE
  5
E7
330
50
100
AcDbEntity
  8
LC-005-002-----0
  6
Continuous
 62
     7
100
AcDbLine
 10
77.5
 20
-273.0016768481044
 30
0.0
 11
77.5
 21
-270.5016768481045
 31
0.0
  0
LINE
  5
E8
330
50
100
AcDbEntity
  8
LC-005-002-----0
  6
Continuous
 62
     7
100
AcDbLine
 10
69.5
 20
-273.0016768481044
 30
0.0
 11
77.5
 21
-273.0016768481044
 31
0.0
  0
LINE
  5
E9
330
50
100
AcDbEntity
  8
LC-005-002-----0
  6
Continuous
 62
     7
100
AcDbLine
 10
69.5
 20
-270.5016768481045
 30
0.0
 11
69.5
 21
-273.0016768481044
 31
0.0
  0
LINE
  5
EA
330
50
100
AcDbEntity
  8
LC-005-002-----0
  6
Continuous
 62
     7
100
AcDbLine
 10
62.50073999999996
 20
-270.5016768481045
 30
0.0
 11
69.5
 21
-270.5016768481045
 31
0.0
  0
LINE
  5
EB
330
50
100
AcDbEntity
  8
LC-005-002-----0
  6
Continuous
 62
     7
100
AcDbLine
 10
-69.5
 20
-270.5016768481045
 30
0.0
 11
63.10000000000014
 21
-270.5016768481045
 31
0.0
  0
LINE
  5
EC
330
50
100
AcDbEntity
  8
LC-005-002-----0
  6
Continuous
 62
     7
100
AcDbLine
 10
-69.5
 20
-273.0016768481044
 30
0.0
 11
-69.5
 21
-270.5016768481045
 31
0.0
  0
LINE
  5
ED
330
50
100
AcDbEntity
  8
LC-005-002-----0
  6
Continuous
 62
     7
100
AcDbLine
 10
-77.5
 20
-273.0016768481044
 30
0.0
 11
-69.5
 21
-273.0016768481044
 31
0.0
  0
LINE
  5
EE
330
50
100
AcDbEntity
  8
LC-005-002-----0
  6
Continuous
 62
     7
100
AcDbLine
 10
-77.5
 20
-270.5016768481045
 30
0.0
 11
-77.5
 21
-273.0016768481044
 31
0.0
  0
LINE
  5
EF
330
50
100
AcDbEntity
  8
LC-005-002-----0
  6
Continuous
 62
     7
100
AcDbLine
 10
69.5
 20
-270.5016768481045
 30
0.0
 11
77.5
 21
-270.5016768481045
 31
0.0
  0
LINE
  5
F0
330
50
100
AcDbEntity
  8
LC-005-002-----0
  6
Continuous
 62
     7
100
AcDbLine
 10
85.49992900000007
 20
-268.0016768481044
 30
0.0
 11
85.49992900000007
 21
-102.5030258481043
 31
0.0
  0
LINE
  5
F1
330
50
100
AcDbEntity
  8
LC-005-002-----0
  6
Continuous
 62
     7
100
AcDbLine
 10
-85.50007099999993
 20
-268.0016768481044
 30
0.0
 11
-85.50293600000009
 21
-102.5030258481043
 31
0.0
  0
LINE
  5
F2
330
50
100
AcDbEntity
  8
LC-005-002-----0
  6
Continuous
 62
     7
100
AcDbLine
 10
-85.50007099999993
 20
-268.0016768481044
 30
0.0
 11
85.49992900000007
 21
-268.0016768481044
 31
0.0
  0
LINE
  5
F3
330
50
100
AcDbEntity
  8
LC-005-002-----0
  6
Continuous
 62
     7
100
AcDbLine
 10
-189.0
 20
-102.5030258481043
 30
0.0
 11
0.0
 21
-102.5030258481043
 31
0.0
  0
LINE
  5
F4
330
50
100
AcDbEntity
  8
LC-005-002-----0
  6
Continuous
 62
     7
100
AcDbLine
 10
55.000002
 20
-277.5009048481043
 30
0.0
 11
62.50067300000002
 21
-277.5009048481043
 31
0.0
  0
LINE
  5
F5
330
50
100
AcDbEntity
  8
LC-005-002-----0
  6
Continuous
 62
     7
100
AcDbLine
 10
62.50069400000007
 20
-277.5009048481043
 30
0.0
 11
37.5
 21
-277.5009048481043
 31
0.0
  0
LINE
  5
F6
330
50
100
AcDbEntity
  8
LC-005-002-----0
  6
Continuous
 62
     7
100
AcDbLine
 10
37.5
 20
-277.5009048481043
 30
0.0
 11
-62.50067199999991
 21
-277.5009048481043
 31
0.0
  0
LINE
  5
F7
330
50
100
AcDbEntity
  8
LC-005-002-----0
  6
Continuous
 62
     7
100
AcDbLine
 10
0.0
 20
-100.0030258481043
 30
0.0
 11
-187.0
 21
-100.0030258481043
 31
0.0
  0
LINE
  5
F8
330
50
100
AcDbEntity
  8
LC-005-002-----0
  6
Continuous
 62
     7
100
AcDbLine
 10
62.50073999999996
 20
-270.5016718481044
 30
0.0
 11
62.50067300000002
 21
-277.5009048481043
 31
0.0
  0
LINE
  5
F9
330
50
100
AcDbEntity
  8
LC-005-002-----0
  6
Continuous
 62
     7
100
AcDbLine
 10
142.0501750000002
 20
-0.00259599999981
 30
0.0
 11
142.0501750000002
 21
-84.5030278481043
 31
0.0
  0
LINE
  5
FA
330
50
100
AcDbEntity
  8
LC-005-002-----0
  6
Continuous
 62
     7
100
AcDbLine
 10
-37.49999999999999
 20
-277.5009048481043
 30
0.0
 11
-37.49999999999999
 21
-338.0009058481044
 31
0.0
  0
LINE
  5
FB
330
50
100
AcDbEntity
  8
LC-005-002-----0
  6
Continuous
 62
     7
100
AcDbLine
 10
-36.29422799999998
 20
-342.5009068481043
 30
0.0
 11
-37.49999999999999
 21
-338.0009058481044
 31
0.0
  0
LINE
  5
FC
330
50
100
AcDbEntity
  8
LC-005-002-----0
  6
Continuous
 62
     7
100
AcDbLine
 10
-36.29422799999998
 20
-342.5009068481043
 30
0.0
 11
36.29422900000009
 21
-342.5009068481043
 31
0.0
  0
LINE
  5
FD
330
50
100
AcDbEntity
  8
LC-005-002-----0
  6
Continuous
 62
     7
100
AcDbLine
 10
142.0501750000002
 20
-84.5030278481043
 30
0.0
 11
0.0
 21
-84.50328684810444
 31
0.0
  0
LINE
  5
FE
330
50
100
AcDbEntity
  8
LC-005-002-----0
  6
Continuous
 62
     7
100
AcDbLine
 10
-62.50073999999994
 20
-270.5016768481045
 30
0.0
 11
-62.50067199999991
 21
-277.5009048481043
 31
0.0
  0
LINE
  5
FF
330
50
100
AcDbEntity
  8
LC-005-002-----0
  6
Continuous
 62
     7
100
AcDbLine
 10
-142.050174
 20
-0.00259599999981
 30
0.0
 11
-142.050174
 21
-84.5030278481043
 31
0.0
  0
LINE
  5
100
330
50
100
AcDbEntity
  8
LC-005-002-----0
  6
Continuous
 62
     7
100
AcDbLine
 10
-142.050174
 20
-84.5030278481043
 30
0.0
 11
0.0
 21
-84.50328684810444
 31
0.0
  0
LINE
  5
101
330
50
100
AcDbEntity
  8
LC-005-002-----0
  6
Continuous
 62
     7
100
AcDbLine
 10
-137.535703
 20
-84.50303684810439
 30
0.0
 11
-137.535703
 21
-100.0030258481043
 31
0.0
  0
LINE
  5
102
330
50
100
AcDbEntity
  8
LC-005-002-----0
  6
Continuous
 62
     7
100
AcDbLine
 10
0.0
 20
-100.0030258481043
 30
0.0
 11
187.0
 21
-100.0030258481043
 31
0.0
  0
LINE
  5
103
330
50
100
AcDbEntity
  8
LC-005-002-----0
  6
Continuous
 62
     7
100
AcDbLine
 10
137.5357040000002
 20
-84.50303684810439
 30
0.0
 11
137.5357040000002
 21
-100.0030258481043
 31
0.0
  0
LINE
  5
104
330
50
100
AcDbEntity
  8
LC-005-002-----0
  6
Continuous
 62
     7
100
AcDbLine
 10
189.0
 20
-102.5030258481043
 30
0.0
 11
0.0
 21
-102.5030258481043
 31
0.0
  0
LINE
  5
105
330
50
100
AcDbEntity
  8
LC-005-002-----0
  6
Continuous
 62
     7
100
AcDbLine
 10
189.0
 20
-102.0030258481043
 30
0.0
 11
189.0
 21
-102.5030258481043
 31
0.0
  0
LINE
  5
106
330
50
100
AcDbEntity
  8
LC-005-002-----0
  6
Continuous
 62
     7
100
AcDbLine
 10
0.0
 20
3.0
 30
0.0
 11
-178.000036
 21
2.99677100000008
 31
0.0
  0
ARC
  5
107
330
50
100
AcDbEntity
  8
LC-004-002-RND-0
  6
Continuous
 62
     7
100
AcDbCircle
 10
-178.0000000000001
 20
0.99677100000008
 30
0.0
 40
1.999999999999913
100
AcDbArc
 50
90.00104700000708
 51
180.0
  0
ARC
  5
108
330
50
100
AcDbEntity
  8
LC-004-002-RND-0
  6
Continuous
 62
     7
100
AcDbCircle
 10
178.0000000000001
 20
0.99677100000008
 30
0.0
 40
2.0
100
AcDbArc
 50
0.0
 51
89.99895299998724
  0
ARC
  5
109
330
50
100
AcDbEntity
  8
LC-004-002-RND-0
  6
Continuous
 62
     7
100
AcDbCircle
 10
-187.0
 20
-102.0030258481043
 30
0.0
 40
2.0
100
AcDbArc
 50
90.0
 51
180.0
  0
ARC
  5
10A
330
50
100
AcDbEntity
  8
LC-004-002-RND-0
  6
Continuous
 62
     7
100
AcDbCircle
 10
83.0
 20
-268.0016768481044
 30
0.0
 40
2.500000000000114
100
AcDbArc
 50
-90.0
 51
0.0
  0
ARC
  5
10B
330
50
100
AcDbEntity
  8
LC-004-002-RND-0
  6
Continuous
 62
     7
100
AcDbCircle
 10
-83.0
 20
-268.0016768481044
 30
0.0
 40
2.5
100
AcDbArc
 50
180.0
 51
-90.0
  0
ARC
  5
10C
330
50
100
AcDbEntity
  8
LC-004-002-RND-0
  6
Continuous
 62
     7
100
AcDbCircle
 10
187.0
 20
-102.0030258481043
 30
0.0
 40
2.0
100
AcDbArc
 50
0.0
 51
90.0
  0
ENDBLK
  5
52
330
50
100
AcDbEntity
  8
0
100
AcDbBlockEnd
  0
BLOCK
  5
55
330
53
100
AcDbEntity
  8
0
100
AcDbBlockBegin
  2
HL_61_7_Flachdachablauf
 70
     0
 71
     0
 10
-29.52887217687611
 20
450.9721299999999
 30
0.0
  3
HL_61_7_Flachdachablauf
  1

  0
INSERT
  5
54
330
53
100
AcDbEntity
  8
1
100
AcDbBlockReference
  2
Außenansicht
 10
-29.52887217687611
 20
291.212402601397
 30
0.0
  0
ENDBLK
  5
56
330
53
100
AcDbEntity
  8
0
100
AcDbBlockEnd
  0
BLOCK
  5
58
330
57
100
AcDbEntity
  8
0
100
AcDbBlockBegin
  2
060_1E_Laubfangkorb
 70
     0
 71
     0
 10
17.77195867930641
 20
-740.7796983749759
 30
0.0
  3
060_1E_Laubfangkorb
  1

  0
LINE
  5
10D
330
57
100
AcDbEntity
  8
1
  6
Continuous
 62
     7
100
AcDbLine
 10
47.56149637750284
 20
78.49704064119504
 30
0.0
 11
48.44845069535085
 21
78.49704064119504
 31
0.0
  0
LINE
  5
10E
330
57
100
AcDbEntity
  8
LC-001-002-----0
  6
Continuous
 62
     7
100
AcDbLine
 10
67.56203829286054
 20
5.49801984176401
 30
0.0
 11
54.12187137750377
 21
38.13474064119437
 31
0.0
  0
LINE
  5
10F
330
57
100
AcDbEntity
  8
LC-001-002-----0
  6
Continuous
 62
     7
100
AcDbLine
 10
66.96675460217605
 20
5.49801984176401
 30
0.0
 11
53.52658737750105
 21
38.13473964119402
 31
0.0
  0
LINE
  5
110
330
57
100
AcDbEntity
  8
LC-001-002-----0
  6
Continuous
 62
     7
100
AcDbLine
 10
52.20187837750061
 20
42.79705364119509
 30
0.0
 11
43.59503237750185
 21
63.69703564119408
 31
0.0
  0
LINE
  5
111
330
57
100
AcDbEntity
  8
LC-001-002-----0
  6
Continuous
 62
     7
100
AcDbLine
 10
51.60659537750187
 20
42.79705164119441
 30
0.0
 11
42.99974837750276
 21
63.69703464119375
 31
0.0
  0
LINE
  5
112
330
57
100
AcDbEntity
  8
LC-001-002-----0
  6
Continuous
 62
     7
100
AcDbLine
 10
51.60659537750187
 20
42.79705164119441
 30
0.0
 11
42.99974837750276
 21
63.69703464119375
 31
0.0
  0
LINE
  5
113
330
57
100
AcDbEntity
  8
LC-001-002-----0
  6
Continuous
 62
     7
100
AcDbLine
 10
47.11102337750206
 20
42.79703964119399
 30
0.0
 11
39.39432837750291
 21
63.69702964119568
 31
0.0
  0
LINE
  5
114
330
57
100
AcDbEntity
  8
LC-001-002-----0
  6
Continuous
 62
     7
100
AcDbLine
 10
45.96102437750095
 20
42.79703664119661
 30
0.0
 11
38.24432837750143
 21
63.69702764119501
 31
0.0
  0
LINE
  5
115
330
57
100
AcDbEntity
  8
LC-001-002-----0
  6
Continuous
 62
     7
100
AcDbLine
 10
60.88256880918915
 20
5.49801984176401
 30
0.0
 11
48.83244237750339
 21
38.13472664119326
 31
0.0
  0
LINE
  5
116
330
57
100
AcDbEntity
  8
LC-001-002-----0
  6
Continuous
 62
     7
100
AcDbLine
 10
59.7325676094403
 20
5.49801984176401
 30
0.0
 11
47.68244337750227
 21
38.13472364119589
 31
0.0
  0
LINE
  5
117
330
57
100
AcDbEntity
  8
LC-001-002-----0
  6
Continuous
 62
     7
100
AcDbLine
 10
50.05426952169476
 20
5.49722305267368
 30
0.0
 11
40.21513637750329
 21
38.13470264119605
 31
0.0
  0
LINE
  5
118
330
57
100
AcDbEntity
  8
LC-001-002-----0
  6
Continuous
 62
     7
100
AcDbLine
 10
48.42686940753054
 20
5.49722305267368
 30
0.0
 11
38.57056537750257
 21
38.1346986411947
 31
0.0
  0
LINE
  5
119
330
57
100
AcDbEntity
  8
LC-001-002-----0
  6
Continuous
 62
     7
100
AcDbLine
 10
33.8225114708687
 20
5.49801984176401
 30
0.0
 11
26.86534937750046
 21
38.13466664119478
 31
0.0
  0
LINE
  5
11A
330
57
100
AcDbEntity
  8
LC-001-002-----0
  6
Continuous
 62
     7
100
AcDbLine
 10
35.81437147894907
 20
5.49801984176401
 30
0.0
 11
28.85720737750169
 21
38.13467164119647
 31
0.0
  0
LINE
  5
11B
330
57
100
AcDbEntity
  8
LC-001-002-----0
  6
Continuous
 62
     7
100
AcDbLine
 10
38.8096013775016
 20
42.79701664119349
 30
0.0
 11
32.50893437750207
 21
63.69701964119595
 31
0.0
  0
LINE
  5
11C
330
57
100
AcDbEntity
  8
LC-001-002-----0
  6
Continuous
 62
     7
100
AcDbLine
 10
37.16257637750321
 20
42.79701264119576
 30
0.0
 11
30.85091137750212
 21
63.69701764119527
 31
0.0
  0
LINE
  5
11D
330
57
100
AcDbEntity
  8
LC-001-002-----0
  6
Continuous
 62
     7
100
AcDbLine
 10
27.86334037750064
 20
42.79698664119423
 30
0.0
 11
23.40807737750081
 21
63.69700764119552
 31
0.0
  0
LINE
  5
11E
330
57
100
AcDbEntity
  8
LC-001-002-----0
  6
Continuous
 62
     7
100
AcDbLine
 10
25.87148237750305
 20
42.79698164119618
 30
0.0
 11
21.41621937750323
 21
63.69700464119451
 31
0.0
  0
LINE
  5
11F
330
57
100
AcDbEntity
  8
LC-001-002-----0
  6
Continuous
 62
     7
100
AcDbLine
 10
15.01820837750208
 20
42.7969516411933
 30
0.0
 11
12.71196637750334
 21
63.69699264119408
 31
0.0
  0
LINE
  5
120
330
57
100
AcDbEntity
  8
LC-001-002-----0
  6
Continuous
 62
     7
100
AcDbLine
 10
12.79657937750242
 20
42.79694564119491
 30
0.0
 11
10.49033637750333
 21
63.69698964119307
 31
0.0
  0
LINE
  5
121
330
57
100
AcDbEntity
  8
LC-001-002-----0
  6
Continuous
 62
     7
100
AcDbLine
 10
19.1340081857018
 20
5.49801984176401
 30
0.0
 11
15.53267837750398
 21
38.1346356411952
 31
0.0
  0
LINE
  5
122
330
57
100
AcDbEntity
  8
LC-001-002-----0
  6
Continuous
 62
     7
100
AcDbLine
 10
16.91237801477065
 20
5.49801984176401
 30
0.0
 11
13.31104937750067
 21
38.13462864119646
 31
0.0
  0
LINE
  5
123
330
57
100
AcDbEntity
  8
LC-001-002-----0
  6
Continuous
 62
     7
100
AcDbLine
 10
-12.79678962249957
 20
42.79691064119397
 30
0.0
 11
-10.49060462249829
 21
63.69696064119416
 31
0.0
  0
LINE
  5
124
330
57
100
AcDbEntity
  8
LC-001-002-----0
  6
Continuous
 62
     7
100
AcDbLine
 10
-15.01841962249957
 20
42.79691064119397
 30
0.0
 11
-12.71223362249797
 21
63.69695764119315
 31
0.0
  0
LINE
  5
125
330
57
100
AcDbEntity
  8
LC-001-002-----0
  6
Continuous
 62
     7
100
AcDbLine
 10
-25.87169262249656
 20
42.79691064119397
 30
0.0
 11
-21.41648662249784
 21
63.69694564119636
 31
0.0
  0
LINE
  5
126
330
57
100
AcDbEntity
  8
LC-001-002-----0
  6
Continuous
 62
     7
100
AcDbLine
 10
-27.86355062249779
 20
42.79691064119397
 30
0.0
 11
-23.4083456224994
 21
63.69694364119569
 31
0.0
  0
LINE
  5
127
330
57
100
AcDbEntity
  8
LC-001-002-----0
  6
Continuous
 62
     7
100
AcDbLine
 10
-37.16278762249706
 20
42.79691064119397
 30
0.0
 11
-30.85117862249674
 21
63.6969326411956
 31
0.0
  0
LINE
  5
128
330
57
100
AcDbEntity
  8
LC-001-002-----0
  6
Continuous
 62
     7
100
AcDbLine
 10
-38.80981262249909
 20
42.79691064119397
 30
0.0
 11
-32.50920262249704
 21
63.69693064119492
 31
0.0
  0
LINE
  5
129
330
57
100
AcDbEntity
  8
LC-001-002-----0
  6
Continuous
 62
     7
100
AcDbLine
 10
-67.56206943243106
 20
5.49801984176401
 30
0.0
 11
-54.12206862249653
 21
38.13459264119518
 31
0.0
  0
LINE
  5
12A
330
57
100
AcDbEntity
  8
LC-001-002-----0
  6
Continuous
 62
     7
100
AcDbLine
 10
-66.96678718353942
 20
5.49801984176401
 30
0.0
 11
-53.52678462249745
 21
38.13459264119518
 31
0.0
  0
LINE
  5
12B
330
57
100
AcDbEntity
  8
LC-001-002-----0
  6
Continuous
 62
     7
100
AcDbLine
 10
-45.96123462249809
 20
42.79691064119397
 30
0.0
 11
-38.2445966224964
 21
63.69692264119585
 31
0.0
  0
LINE
  5
12C
330
57
100
AcDbEntity
  8
LC-001-002-----0
  6
Continuous
 62
     7
100
AcDbLine
 10
-47.11123362249921
 20
42.79691064119397
 30
0.0
 11
-39.39459662249785
 21
63.69692164119551
 31
0.0
  0
LINE
  5
12D
330
57
100
AcDbEntity
  8
LC-001-002-----0
  6
Continuous
 62
     7
100
AcDbLine
 10
-50.05433682355294
 20
5.49722305267368
 30
0.0
 11
-40.21533462249638
 21
38.13459264119518
 31
0.0
  0
LINE
  5
12E
330
57
100
AcDbEntity
  8
LC-001-002-----0
  6
Continuous
 62
     7
100
AcDbLine
 10
-48.42693834779028
 20
5.49722305267368
 30
0.0
 11
-38.57076262249894
 21
38.13459264119518
 31
0.0
  0
LINE
  5
12F
330
57
100
AcDbEntity
  8
LC-001-002-----0
  6
Continuous
 62
     7
100
AcDbLine
 10
-52.20208862249777
 20
42.79691064119397
 30
0.0
 11
-43.59529962249646
 21
63.69691564119348
 31
0.0
  0
LINE
  5
130
330
57
100
AcDbEntity
  8
LC-001-002-----0
  6
Continuous
 62
     7
100
AcDbLine
 10
-60.88261440350535
 20
5.49801984176401
 30
0.0
 11
-48.83264062249648
 21
38.13459264119518
 31
0.0
  0
LINE
  5
131
330
57
100
AcDbEntity
  8
LC-001-002-----0
  6
Continuous
 62
     7
100
AcDbLine
 10
-16.91248193263586
 20
5.49801984176401
 30
0.0
 11
-13.31124662249706
 21
38.13459264119518
 31
0.0
  0
LINE
  5
132
330
57
100
AcDbEntity
  8
LC-001-002-----0
  6
Continuous
 62
     7
100
AcDbLine
 10
-19.13411093263552
 20
5.49801984176401
 30
0.0
 11
-15.53287562249673
 21
38.13459264119518
 31
0.0
  0
LINE
  5
133
330
57
100
AcDbEntity
  8
LC-001-002-----0
  6
Continuous
 62
     7
100
AcDbLine
 10
-35.81445835479812
 20
5.49801984176401
 30
0.0
 11
-28.85740462249807
 21
38.13459264119518
 31
0.0
  0
LINE
  5
134
330
57
100
AcDbEntity
  8
LC-001-002-----0
  6
Continuous
 62
     7
100
AcDbLine
 10
-33.82260035479689
 20
5.49801984176401
 30
0.0
 11
-26.86554662249684
 21
38.13459264119518
 31
0.0
  0
LINE
  5
135
330
57
100
AcDbEntity
  8
LC-001-002-----0
  6
Continuous
 62
     7
100
AcDbLine
 10
-59.73261419733824
 20
5.49801984176401
 30
0.0
 11
-47.68264062249866
 21
38.13459264119518
 31
0.0
  0
LINE
  5
136
330
57
100
AcDbEntity
  8
LC-001-002-----0
  6
Continuous
 62
     7
100
AcDbLine
 10
-51.60680562249902
 20
42.79691064119397
 30
0.0
 11
-43.00001562249738
 21
63.69691664119382
 31
0.0
  0
LINE
  5
137
330
57
100
AcDbEntity
  8
LC-001-002-----0
  6
Continuous
 62
     7
100
AcDbLine
 10
1.15020937750385
 20
38.13459264119518
 30
0.0
 11
1.15020937750385
 21
5.49801984176401
 31
0.0
  0
LINE
  5
138
330
57
100
AcDbEntity
  8
LC-001-002-----0
  6
Continuous
 62
     7
100
AcDbLine
 10
-1.14979062249906
 20
38.13459264119518
 30
0.0
 11
-1.14979062249906
 21
5.49801984176401
 31
0.0
  0
LINE
  5
139
330
57
100
AcDbEntity
  8
LC-001-002-----0
  6
Continuous
 62
     7
100
AcDbLine
 10
-57.89270262249694
 20
38.13459264119518
 30
0.0
 11
57.89250537750056
 21
38.13459264119518
 31
0.0
  0
LINE
  5
13A
330
57
100
AcDbEntity
  8
LC-001-002-----0
  6
Continuous
 62
     7
100
AcDbLine
 10
-56.19575762249726
 20
42.79691064119397
 30
0.0
 11
56.19554737750376
 21
42.79691064119397
 31
0.0
  0
LINE
  5
13B
330
57
100
AcDbEntity
  8
LC-001-002-----0
  6
Continuous
 62
     7
100
AcDbLine
 10
-48.5887806224978
 20
63.69690864119475
 30
0.0
 11
48.58851337750318
 21
63.69704164119612
 31
0.0
  0
LINE
  5
13C
330
57
100
AcDbEntity
  8
LC-001-002-----0
  6
Continuous
 62
     7
100
AcDbLine
 10
-57.89270262249694
 20
38.13459264119518
 30
0.0
 11
-56.19575762249726
 21
38.43380964119498
 31
0.0
  0
LINE
  5
13D
330
57
100
AcDbEntity
  8
LC-001-002-----0
  6
Continuous
 62
     7
100
AcDbLine
 10
-56.19575762249726
 20
42.79691064119397
 30
0.0
 11
-56.19575762249726
 21
38.43380964119498
 31
0.0
  0
LINE
  5
13E
330
57
100
AcDbEntity
  8
LC-001-002-----0
  6
Continuous
 62
     7
100
AcDbLine
 10
-1.14979062249906
 20
63.69697364119493
 30
0.0
 11
-1.14979062249906
 21
42.79691064119397
 31
0.0
  0
LINE
  5
13F
330
57
100
AcDbEntity
  8
LC-001-002-----0
  6
Continuous
 62
     7
100
AcDbLine
 10
1.15020937750385
 20
63.69697664119594
 30
0.0
 11
1.15020937750385
 21
42.79691064119397
 31
0.0
  0
LINE
  5
140
330
57
100
AcDbEntity
  8
LC-001-002-----0
  6
Continuous
 62
     7
100
AcDbLine
 10
57.99199037750303
 20
38.11720964119667
 30
0.0
 11
56.19555937750054
 21
38.43396364119617
 31
0.0
  0
LINE
  5
141
330
57
100
AcDbEntity
  8
LC-001-002-----0
  6
Continuous
 62
     7
100
AcDbLine
 10
56.19554737750376
 20
42.79706464119516
 30
0.0
 11
56.19555937750054
 21
38.43396364119617
 31
0.0
  0
LINE
  5
142
330
57
100
AcDbEntity
  8
LC-001-002-----0
  6
Continuous
 62
     7
100
AcDbLine
 10
-44.83988662249751
 20
73.99691064119469
 30
0.0
 11
-42.48702162249676
 21
74.41178364119622
 31
0.0
  0
LINE
  5
143
330
57
100
AcDbEntity
  8
LC-001-002-----0
  6
Continuous
 62
     7
100
AcDbLine
 10
-42.48702162249676
 20
74.41178364119622
 30
0.0
 11
-41.00015462249714
 21
78.4969196411941
 31
0.0
  0
LINE
  5
144
330
57
100
AcDbEntity
  8
LC-001-002-----0
  6
Continuous
 62
     7
100
AcDbLine
 10
-69.77144418492142
 20
5.49801984176401
 30
0.0
 11
-43.20201862249952
 21
78.49691664119308
 31
0.0
  0
LINE
  5
145
330
57
100
AcDbEntity
  8
LC-001-002-----0
  6
Continuous
 62
     7
100
AcDbLine
 10
44.83959037750399
 20
73.99703364119631
 30
0.0
 11
42.4867243775029
 21
74.41190064119581
 31
0.0
  0
LINE
  5
146
330
57
100
AcDbEntity
  8
LC-001-002-----0
  6
Continuous
 62
     7
100
AcDbLine
 10
42.4867243775029
 20
74.41190064119581
 30
0.0
 11
40.99984537750287
 21
78.49703164119563
 31
0.0
  0
LINE
  5
147
330
57
100
AcDbEntity
  8
LC-001-002-----0
  6
Continuous
 62
     7
100
AcDbLine
 10
69.77140537234791
 20
5.49801984176401
 30
0.0
 11
43.20171037750195
 21
78.49703464119301
 31
0.0
  0
LINE
  5
148
330
57
100
AcDbEntity
  8
LC-001-002-----0
  6
Continuous
 62
     7
100
AcDbLine
 10
-48.44875962249855
 20
78.49690864119401
 30
0.0
 11
47.56149637750284
 21
78.49704064119504
 31
0.0
  0
LINE
  5
149
330
57
100
AcDbEntity
  8
LC-001-002-----0
  6
Continuous
 62
     7
100
AcDbLine
 10
85.52125244724144
 20
5.49801984176401
 30
0.0
 11
62.54384737750159
 21
68.62738264119542
 31
0.0
  0
LINE
  5
14A
330
57
100
AcDbEntity
  8
LC-001-002-----0
  6
Continuous
 62
     7
100
AcDbLine
 10
-85.52127507241107
 20
5.49801984176401
 30
0.0
 11
-62.5441286224973
 21
68.62721164119574
 31
0.0
  0
LINE
  5
14B
330
57
100
AcDbEntity
  8
LC-001-002-----0
  6
Continuous
 62
     7
100
AcDbLine
 10
3.30519937750294
 20
63.69697964119332
 30
0.0
 11
3.30515937750395
 21
78.49697964119622
 31
0.0
  0
LINE
  5
14C
330
57
100
AcDbEntity
  8
LC-001-002-----0
  6
Continuous
 62
     7
100
AcDbLine
 10
-3.30546762249789
 20
63.69697064119391
 30
0.0
 11
-3.30546762249789
 21
78.49697064119317
 31
0.0
  0
LINE
  5
14D
330
57
100
AcDbEntity
  8
1
  6
PHANTOM
 62
     2
100
AcDbLine
 10
-0.00000000000139
 20
-33.86599806490704
 30
0.0
 11
-0.00016028713937
 21
82.83903938336442
 31
0.0
  0
ARC
  5
14E
330
57
100
AcDbEntity
  8
LC-002-002-RND-0
  6
Continuous
 62
     7
100
AcDbCircle
 10
-48.44873862249873
 20
63.49690864119402
 30
0.0
 40
14.9999999999997
100
AcDbArc
 50
90.00007899999221
 51
159.9999999999947
  0
ARC
  5
14F
330
57
100
AcDbEntity
  8
LC-002-002-RND-0
  6
Continuous
 62
     7
100
AcDbCircle
 10
48.44847137750045
 20
63.49704164119539
 30
0.0
 40
14.99999999999947
100
AcDbArc
 50
20.00015699999172
 51
90.00007899999221
  0
ENDBLK
  5
59
330
57
100
AcDbEntity
  8
0
100
AcDbBlockEnd
  0
BLOCK
  5
5B
330
5A
100
AcDbEntity
  8
0
100
AcDbBlockBegin
  2
PVC_Manschette
 70
     0
 71
     0
 10
-1177.0
 20
-75.17215613556982
 30
0.0
  3
PVC_Manschette
  1

  0
LINE
  5
150
330
5A
100
AcDbEntity
  8
1
  6
Continuous
 62
     7
100
AcDbLine
 10
-0.00000000000005
 20
5.49722305267369
 30
0.0
 11
-175.0
 21
5.49722305267368
 31
0.0
  0
LINE
  5
151
330
5A
100
AcDbEntity
  8
1
  6
Continuous
 62
     7
100
AcDbLine
 10
-177.0
 20
2.99722305267368
 30
0.0
 11
-177.0
 21
3.49722305267368
 31
0.0
  0
LINE
  5
152
330
5A
100
AcDbEntity
  8
1
  6
Continuous
 62
     7
100
AcDbLine
 10
-177.0
 20
2.99722305267368
 30
0.0
 11
-0.00000000000006
 21
2.99722305267368
 31
0.0
  0
LINE
  5
153
330
5A
100
AcDbEntity
  8
1
  6
Continuous
 62
     7
100
AcDbLine
 10
-0.00000000000006
 20
2.99722305267368
 30
0.0
 11
177.0
 21
2.99722305267368
 31
0.0
  0
LINE
  5
154
330
5A
100
AcDbEntity
  8
1
  6
Continuous
 62
     7
100
AcDbLine
 10
177.0
 20
3.49722305267368
 30
0.0
 11
177.0
 21
2.99722305267368
 31
0.0
  0
LINE
  5
155
330
5A
100
AcDbEntity
  8
1
  6
Continuous
 62
     7
100
AcDbLine
 10
175.0
 20
5.49722305267368
 30
0.0
 11
-0.00000000000005
 21
5.49722305267369
 31
0.0
  0
ARC
  5
156
330
5A
100
AcDbEntity
  8
1
  6
Continuous
 62
     7
100
AcDbCircle
 10
-175.0
 20
3.49722305267368
 30
0.0
 40
1.999999999999999
100
AcDbArc
 50
90.0
 51
180.0
  0
ARC
  5
157
330
5A
100
AcDbEntity
  8
1
  6
Continuous
 62
     7
100
AcDbCircle
 10
175.0
 20
3.49722305267368
 30
0.0
 40
2.0
100
AcDbArc
 50
0.0
 51
90.0
  0
ENDBLK
  5
5C
330
5A
100
AcDbEntity
  8
0
100
AcDbBlockEnd
  0
BLOCK
  5
5E
330
5D
100
AcDbEntity
  8
0
100
AcDbBlockBegin
  2
Bauschutz_062_9E
 70
     0
 71
     0
 10
-646.596795999998
 20
-249.6651535240562
 30
0.0
  3
Bauschutz_062_9E
  1

  0
LINE
  5
158
330
5D
100
AcDbEntity
  8
1
  6
PHANTOM
 62
     2
100
AcDbLine
 10
0.0
 20
202.0355120626737
 30
0.0
 11
0.0
 21
225.3291095505701
 31
0.0
  0
LINE
  5
159
330
5D
100
AcDbEntity
  8
1
  6
Continuous
 62
     7
100
AcDbLine
 10
66.25
 20
223.3928464759447
 30
0.0
 11
0.0
 21
223.3928464759447
 31
0.0
  0
LINE
  5
15A
330
5D
100
AcDbEntity
  8
1
  6
Continuous
 62
     7
100
AcDbLine
 10
-66.25
 20
223.3928464759447
 30
0.0
 11
0.0
 21
223.3928464759447
 31
0.0
  0
LINE
  5
15B
330
5D
100
AcDbEntity
  8
LC-006-002-----0
  6
Continuous
 62
     7
100
AcDbLine
 10
-68.0
 20
221.3928464759447
 30
0.0
 11
-66.25
 21
223.3928464759447
 31
0.0
  0
LINE
  5
15C
330
5D
100
AcDbEntity
  8
LC-006-002-----0
  6
Continuous
 62
     7
100
AcDbLine
 10
68.0
 20
221.3928464759447
 30
0.0
 11
66.25
 21
223.3928464759447
 31
0.0
  0
LINE
  5
15D
330
5D
100
AcDbEntity
  8
LC-006-002-----0
  6
Continuous
 62
     7
100
AcDbLine
 10
-78.75
 20
204.8928464759447
 30
0.0
 11
-78.75
 21
219.3928464759447
 31
0.0
  0
LINE
  5
15E
330
5D
100
AcDbEntity
  8
LC-006-002-----0
  6
Continuous
 62
     7
100
AcDbLine
 10
-78.75
 20
204.8928464759447
 30
0.0
 11
0.0
 21
204.8928464759447
 31
0.0
  0
LINE
  5
15F
330
5D
100
AcDbEntity
  8
LC-006-002-----0
  6
Continuous
 62
     7
100
AcDbLine
 10
-111.5
 20
219.3928464759447
 30
0.0
 11
-78.75
 21
219.3928464759447
 31
0.0
  0
LINE
  5
160
330
5D
100
AcDbEntity
  8
LC-006-002-----0
  6
Continuous
 62
     7
100
AcDbLine
 10
-111.5
 20
221.3928464759447
 30
0.0
 11
-68.0
 21
221.3928464759447
 31
0.0
  0
LINE
  5
161
330
5D
100
AcDbEntity
  8
LC-006-002-----0
  6
Continuous
 62
     7
100
AcDbLine
 10
-111.5
 20
221.3928464759447
 30
0.0
 11
-111.5
 21
219.3928464759447
 31
0.0
  0
LINE
  5
162
330
5D
100
AcDbEntity
  8
LC-006-002-----0
  6
Continuous
 62
     7
100
AcDbLine
 10
78.75
 20
204.8928464759447
 30
0.0
 11
78.75
 21
219.3928464759447
 31
0.0
  0
LINE
  5
163
330
5D
100
AcDbEntity
  8
LC-006-002-----0
  6
Continuous
 62
     7
100
AcDbLine
 10
78.75
 20
204.8928464759447
 30
0.0
 11
0.0
 21
204.8928464759447
 31
0.0
  0
LINE
  5
164
330
5D
100
AcDbEntity
  8
LC-006-002-----0
  6
Continuous
 62
     7
100
AcDbLine
 10
111.5
 20
219.3928464759447
 30
0.0
 11
78.75
 21
219.3928464759447
 31
0.0
  0
LINE
  5
165
330
5D
100
AcDbEntity
  8
LC-006-002-----0
  6
Continuous
 62
     7
100
AcDbLine
 10
111.5
 20
221.3928464759447
 30
0.0
 11
68.0
 21
221.3928464759447
 31
0.0
  0
LINE
  5
166
330
5D
100
AcDbEntity
  8
LC-006-002-----0
  6
Continuous
 62
     7
100
AcDbLine
 10
111.5
 20
221.3928464759447
 30
0.0
 11
111.5
 21
219.3928464759447
 31
0.0
  0
LINE
  5
167
330
5D
100
AcDbEntity
  8
1
  6
Continuous
 62
     7
100
AcDbLine
 10
-78.75
 20
219.3928464759447
 30
0.0
 11
78.75
 21
219.3928464759447
 31
0.0
  0
LINE
  5
168
330
5D
100
AcDbEntity
  8
1
  6
Continuous
 62
     7
100
AcDbLine
 10
68.0
 20
221.3928464759447
 30
0.0
 11
-68.0
 21
221.3928464759447
 31
0.0
  0
ENDBLK
  5
5F
330
5D
100
AcDbEntity
  8
0
100
AcDbBlockEnd
  0
BLOCK
  5
61
330
60
100
AcDbEntity
  8
0
100
AcDbBlockBegin
  2
Körper
 70
     0
 71
     0
 10
-268.7961463795655
 20
-427.206460026031
 30
0.0
  3
Körper
  1

  0
POINT
  5
169
330
60
100
AcDbEntity
  8
0
 62
     7
100
AcDbPoint
 10
189.0000216204353
 20
-508.5536591085947
 30
0.0
  0
POINT
  5
16A
330
60
100
AcDbEntity
  8
0
 62
     7
100
AcDbPoint
 10
-188.9999783795647
 20
-508.5552511085953
 30
0.0
  0
POINT
  5
16B
330
60
100
AcDbEntity
  8
0
 62
     7
100
AcDbPoint
 10
-179.9995963795664
 20
-530.5540441085941
 30
0.0
  0
POINT
  5
16C
330
60
100
AcDbEntity
  8
LC-013-200-----0
 62
     7
100
AcDbPoint
 10
129.5004086204353
 20
-817.0540531085935
 30
0.0
  0
POINT
  5
16D
330
60
100
AcDbEntity
  8
LC-013-200-----0
 62
     7
100
AcDbPoint
 10
-129.4995913795647
 20
-817.0540531085935
 30
0.0
  0
POINT
  5
16E
330
60
100
AcDbEntity
  8
LC-013-200-----0
 62
     7
100
AcDbPoint
 10
129.5004086204353
 20
-558.0540441085941
 30
0.0
  0
POINT
  5
16F
330
60
100
AcDbEntity
  8
LC-013-200-----0
 62
     7
100
AcDbPoint
 10
-129.4995913795647
 20
-558.0540481085955
 30
0.0
  0
LINE
  5
170
330
60
100
AcDbEntity
  8
1
  6
Continuous
 62
     7
100
AcDbLine
 10
-169.9988629290237
 20
-867.5540531085935
 30
0.0
 11
170.0004126204367
 21
-867.5540531085935
 31
0.0
  0
LINE
  5
171
330
60
100
AcDbEntity
  8
1
  6
Continuous
 62
     7
100
AcDbLine
 10
-169.9988629290237
 20
-507.5540441085941
 30
0.0
 11
71.64826262043425
 21
-507.5540441085941
 31
0.0
  0
LINE
  5
172
330
60
100
AcDbEntity
  8
1
  6
Continuous
 62
     7
100
AcDbLine
 10
-179.9988629290237
 20
-857.5540531085935
 30
0.0
 11
-179.9988629290237
 21
-517.5540441085941
 31
0.0
  0
LINE
  5
173
330
60
100
AcDbEntity
  8
1
  6
Continuous
 62
     7
100
AcDbLine
 10
180.0004126204367
 20
-517.5540441085941
 30
0.0
 11
180.0004126204367
 21
-857.5540531085935
 31
0.0
  0
LINE
  5
174
330
60
100
AcDbEntity
  8
LC-001-002-----0
  6
Continuous
 62
     7
100
AcDbLine
 10
170.0004126204367
 20
-507.5540441085941
 30
0.0
 11
71.64826262043425
 21
-507.5540441085941
 31
0.0
  0
LINE
  5
175
330
60
100
AcDbEntity
  8
LC-010-006-MLN-0
  6
DASHDOT
 62
     2
100
AcDbLine
 10
-114.7495913795647
 20
-817.0540531085935
 30
0.0
 11
-144.2495913795647
 21
-817.0540531085935
 31
0.0
  0
LINE
  5
176
330
60
100
AcDbEntity
  8
LC-001-002-----0
  6
DASHDOT
 62
     2
100
AcDbLine
 10
0.00040862043534
 20
-565.5540481085955
 30
0.0
 11
0.00040862043534
 21
-565.5540481085955
 31
0.0
  0
LINE
  5
177
330
60
100
AcDbEntity
  8
LC-001-002-----0
  6
DASHDOT
 62
     3
100
AcDbLine
 10
0.00040862043534
 20
-809.5540481085955
 30
0.0
 11
0.00040862043534
 21
-809.5540481085955
 31
0.0
  0
LINE
  5
178
330
60
100
AcDbEntity
  8
LC-010-006-MLN-0
  6
DASHDOT
 62
     2
100
AcDbLine
 10
129.5004126204367
 20
-830.5540571085949
 30
0.0
 11
129.5004126204367
 21
-803.5540481085955
 31
0.0
  0
LINE
  5
179
330
60
100
AcDbEntity
  8
LC-010-006-MLN-0
  6
DASHDOT
 62
     2
100
AcDbLine
 10
143.0004166204344
 20
-817.0540531085935
 30
0.0
 11
116.0004086204353
 21
-817.0540531085935
 31
0.0
  0
LINE
  5
17A
330
60
100
AcDbEntity
  8
LC-010-006-MLN-0
  6
DASHDOT
 62
     2
100
AcDbLine
 10
-129.4995963795664
 20
-830.5540571085949
 30
0.0
 11
-129.4995963795664
 21
-803.5540481085955
 31
0.0
  0
LINE
  5
17B
330
60
100
AcDbEntity
  8
LC-010-006-MLN-0
  6
DASHDOT
 62
     2
100
AcDbLine
 10
129.5004126204367
 20
-544.5540401085964
 30
0.0
 11
129.5004126204367
 21
-571.5540481085955
 31
0.0
  0
LINE
  5
17C
330
60
100
AcDbEntity
  8
LC-010-006-MLN-0
  6
DASHDOT
 62
     2
100
AcDbLine
 10
143.0004166204344
 20
-558.0540441085941
 30
0.0
 11
116.0004086204353
 21
-558.0540441085941
 31
0.0
  0
LINE
  5
17D
330
60
100
AcDbEntity
  8
LC-010-006-MLN-0
  6
DASHDOT
 62
     2
100
AcDbLine
 10
-129.4995963795664
 20
-544.5540401085964
 30
0.0
 11
-129.4995963795664
 21
-571.5540481085955
 31
0.0
  0
LINE
  5
17E
330
60
100
AcDbEntity
  8
LC-010-006-MLN-0
  6
DASHDOT
 62
     2
100
AcDbLine
 10
-142.9996003795641
 20
-558.0540441085941
 30
0.0
 11
-115.9995913795647
 21
-558.0540441085941
 31
0.0
  0
LINE
  5
17F
330
60
100
AcDbEntity
  8
1
  6
PHANTOM
 62
     2
100
AcDbLine
 10
0.0
 20
-498.5543056453098
 30
0.0
 11
0.00081724015763
 21
-876.5542743217084
 31
0.0
  0
LINE
  5
180
330
60
100
AcDbEntity
  8
1
  6
PHANTOM
 62
     2
100
AcDbLine
 10
-188.9996780762958
 20
-687.5552723491928
 30
0.0
 11
189.0003434563914
 21
-687.553637868652
 31
0.0
  0
LINE
  5
181
330
60
100
AcDbEntity
  8
LC-007-007-KH--0
  6
DASHDOT
 62
     7
100
AcDbLine
 10
75.77742762043636
 20
-731.3052571085937
 30
0.0
 11
75.77742762043636
 21
-731.3052571085937
 31
0.0
  0
LINE
  5
182
330
60
100
AcDbEntity
  8
LC-007-007-KH--0
  6
DASHDOT
 62
     7
100
AcDbLine
 10
75.77742762043636
 20
-731.3052571085937
 30
0.0
 11
75.77742762043636
 21
-731.3052571085937
 31
0.0
  0
LINE
  5
183
330
60
100
AcDbEntity
  8
LC-007-007-KH--0
  6
DASHDOT
 62
     7
100
AcDbLine
 10
75.77742762043636
 20
-731.3052571085937
 30
0.0
 11
75.77742762043636
 21
-731.3052571085937
 31
0.0
  0
LINE
  5
184
330
60
100
AcDbEntity
  8
LC-007-007-KH--0
  6
DASHDOT
 62
     7
100
AcDbLine
 10
75.77742762043636
 20
-731.3052571085937
 30
0.0
 11
75.77742762043636
 21
-731.3052571085937
 31
0.0
  0
LINE
  5
185
330
60
100
AcDbEntity
  8
LC-001-002-----0
  6
Continuous
 62
     7
100
AcDbLine
 10
-39.94200337956499
 20
-688.7044551085964
 30
0.0
 11
-3.30550337956447
 21
-688.7044551085964
 31
0.0
  0
LINE
  5
186
330
60
100
AcDbEntity
  8
LC-001-002-----0
  6
Continuous
 62
     7
100
AcDbLine
 10
134.2504086204353
 20
-819.7964661085934
 30
0.0
 11
134.2504086204353
 21
-814.3116391085932
 31
0.0
  0
LINE
  5
187
330
60
100
AcDbEntity
  8
LC-001-002-----0
  6
Continuous
 62
     7
100
AcDbLine
 10
129.5004086204353
 20
-822.5388801085937
 30
0.0
 11
134.2504086204353
 21
-819.7964661085934
 31
0.0
  0
LINE
  5
188
330
60
100
AcDbEntity
  8
LC-001-002-----0
  6
Continuous
 62
     7
100
AcDbLine
 10
124.7504086204353
 20
-819.7964661085934
 30
0.0
 11
129.5004086204353
 21
-822.5388801085937
 31
0.0
  0
LINE
  5
189
330
60
100
AcDbEntity
  8
LC-001-002-----0
  6
Continuous
 62
     7
100
AcDbLine
 10
124.7504086204353
 20
-814.3116391085932
 30
0.0
 11
124.7504086204353
 21
-819.7964661085934
 31
0.0
  0
LINE
  5
18A
330
60
100
AcDbEntity
  8
LC-001-002-----0
  6
Continuous
 62
     7
100
AcDbLine
 10
129.5004086204353
 20
-811.5692251085966
 30
0.0
 11
124.7504086204353
 21
-814.3116391085932
 31
0.0
  0
LINE
  5
18B
330
60
100
AcDbEntity
  8
LC-001-002-----0
  6
Continuous
 62
     7
100
AcDbLine
 10
134.2504086204353
 20
-814.3116391085932
 30
0.0
 11
129.5004086204353
 21
-811.5692251085966
 31
0.0
  0
LINE
  5
18C
330
60
100
AcDbEntity
  8
LC-001-002-----0
  6
Continuous
 62
     7
100
AcDbLine
 10
-124.7495913795647
 20
-819.7964661085934
 30
0.0
 11
-124.7495913795647
 21
-814.3116391085932
 31
0.0
  0
LINE
  5
18D
330
60
100
AcDbEntity
  8
LC-001-002-----0
  6
Continuous
 62
     7
100
AcDbLine
 10
-129.4995913795647
 20
-822.5388801085937
 30
0.0
 11
-124.7495913795647
 21
-819.7964661085934
 31
0.0
  0
LINE
  5
18E
330
60
100
AcDbEntity
  8
LC-001-002-----0
  6
Continuous
 62
     7
100
AcDbLine
 10
-134.2495913795647
 20
-819.7964661085934
 30
0.0
 11
-129.4995913795647
 21
-822.5388801085937
 31
0.0
  0
LINE
  5
18F
330
60
100
AcDbEntity
  8
LC-001-002-----0
  6
Continuous
 62
     7
100
AcDbLine
 10
-134.2495913795647
 20
-814.3116391085932
 30
0.0
 11
-134.2495913795647
 21
-819.7964661085934
 31
0.0
  0
LINE
  5
190
330
60
100
AcDbEntity
  8
LC-001-002-----0
  6
Continuous
 62
     7
100
AcDbLine
 10
-129.4995913795647
 20
-811.5692251085966
 30
0.0
 11
-134.2495913795647
 21
-814.3116391085932
 31
0.0
  0
LINE
  5
191
330
60
100
AcDbEntity
  8
LC-001-002-----0
  6
Continuous
 62
     7
100
AcDbLine
 10
-124.7495913795647
 20
-814.3116391085932
 30
0.0
 11
-129.4995913795647
 21
-811.5692251085966
 31
0.0
  0
LINE
  5
192
330
60
100
AcDbEntity
  8
LC-001-002-----0
  6
Continuous
 62
     7
100
AcDbLine
 10
134.2504086204353
 20
-560.7964581085944
 30
0.0
 11
134.2504086204353
 21
-555.3116311085942
 31
0.0
  0
LINE
  5
193
330
60
100
AcDbEntity
  8
LC-001-002-----0
  6
Continuous
 62
     7
100
AcDbLine
 10
129.5004086204353
 20
-563.5388721085947
 30
0.0
 11
134.2504086204353
 21
-560.7964581085944
 31
0.0
  0
LINE
  5
194
330
60
100
AcDbEntity
  8
LC-001-002-----0
  6
Continuous
 62
     7
100
AcDbLine
 10
124.7504086204353
 20
-560.7964581085944
 30
0.0
 11
129.5004086204353
 21
-563.5388721085947
 31
0.0
  0
LINE
  5
195
330
60
100
AcDbEntity
  8
LC-001-002-----0
  6
Continuous
 62
     7
100
AcDbLine
 10
124.7504086204353
 20
-555.3116311085942
 30
0.0
 11
124.7504086204353
 21
-560.7964581085944
 31
0.0
  0
LINE
  5
196
330
60
100
AcDbEntity
  8
LC-001-002-----0
  6
Continuous
 62
     7
100
AcDbLine
 10
129.5004086204353
 20
-552.5692171085939
 30
0.0
 11
124.7504086204353
 21
-555.3116311085942
 31
0.0
  0
LINE
  5
197
330
60
100
AcDbEntity
  8
LC-001-002-----0
  6
Continuous
 62
     7
100
AcDbLine
 10
134.2504086204353
 20
-555.3116311085942
 30
0.0
 11
129.5004086204353
 21
-552.5692171085939
 31
0.0
  0
LINE
  5
198
330
60
100
AcDbEntity
  8
LC-001-002-----0
  6
Continuous
 62
     7
100
AcDbLine
 10
-124.7495913795647
 20
-560.7964621085957
 30
0.0
 11
-124.7495913795647
 21
-555.3116351085955
 31
0.0
  0
LINE
  5
199
330
60
100
AcDbEntity
  8
LC-001-002-----0
  6
Continuous
 62
     7
100
AcDbLine
 10
-129.4995913795647
 20
-563.538876108596
 30
0.0
 11
-124.7495913795647
 21
-560.7964621085957
 31
0.0
  0
LINE
  5
19A
330
60
100
AcDbEntity
  8
LC-001-002-----0
  6
Continuous
 62
     7
100
AcDbLine
 10
-134.2495913795647
 20
-560.7964621085957
 30
0.0
 11
-129.4995913795647
 21
-563.538876108596
 31
0.0
  0
LINE
  5
19B
330
60
100
AcDbEntity
  8
LC-001-002-----0
  6
Continuous
 62
     7
100
AcDbLine
 10
-134.2495913795647
 20
-555.3116351085955
 30
0.0
 11
-134.2495913795647
 21
-560.7964621085957
 31
0.0
  0
LINE
  5
19C
330
60
100
AcDbEntity
  8
LC-001-002-----0
  6
Continuous
 62
     7
100
AcDbLine
 10
-129.4995913795647
 20
-552.5692211085952
 30
0.0
 11
-134.2495913795647
 21
-555.3116351085955
 31
0.0
  0
LINE
  5
19D
330
60
100
AcDbEntity
  8
LC-001-002-----0
  6
Continuous
 62
     7
100
AcDbLine
 10
-124.7495913795647
 20
-555.3116351085955
 30
0.0
 11
-129.4995913795647
 21
-552.5692211085952
 31
0.0
  0
LINE
  5
19E
330
60
100
AcDbEntity
  8
LC-001-002-----0
  6
Continuous
 62
     7
100
AcDbLine
 10
1.15017362043363
 20
-601.9621801085959
 30
0.0
 11
1.15017362043363
 21
-644.3697641085964
 31
0.0
  0
LINE
  5
19F
330
60
100
AcDbEntity
  8
LC-001-002-----0
  6
Continuous
 62
     7
100
AcDbLine
 10
-1.14982637956564
 20
-601.9621801085959
 30
0.0
 11
-1.14982637956564
 21
-644.3697641085964
 31
0.0
  0
LINE
  5
1A0
330
60
100
AcDbEntity
  8
LC-001-002-----0
  6
Continuous
 62
     7
100
AcDbLine
 10
11.80017362043509
 20
-761.6207711085954
 30
0.0
 11
11.80017362043509
 21
-759.5944441085958
 31
0.0
  0
LINE
  5
1A1
330
60
100
AcDbEntity
  8
LC-001-002-----0
  6
Continuous
 62
     7
100
AcDbLine
 10
-11.79982637956346
 20
-761.6206961085954
 30
0.0
 11
-11.79982637956346
 21
-759.5944441085958
 31
0.0
  0
LINE
  5
1A2
330
60
100
AcDbEntity
  8
LC-001-002-----0
  6
Continuous
 62
     7
100
AcDbLine
 10
74.06668662043376
 20
-675.7544551085957
 30
0.0
 11
72.0401626204366
 21
-675.7544551085957
 31
0.0
  0
LINE
  5
1A3
330
60
100
AcDbEntity
  8
LC-001-002-----0
  6
Continuous
 62
     7
100
AcDbLine
 10
74.06668662043376
 20
-699.3544551085943
 30
0.0
 11
72.0401626204366
 21
-699.3544551085943
 31
0.0
  0
LINE
  5
1A4
330
60
100
AcDbEntity
  8
LC-001-002-----0
  6
Continuous
 62
     7
100
AcDbLine
 10
-11.79982637956346
 20
-613.4882141085945
 30
0.0
 11
-11.79982637956346
 21
-615.5144661085942
 31
0.0
  0
LINE
  5
1A5
330
60
100
AcDbEntity
  8
LC-001-002-----0
  6
Continuous
 62
     7
100
AcDbLine
 10
11.80017362043509
 20
-613.4881391085946
 30
0.0
 11
11.80017362043509
 21
-615.5144661085942
 31
0.0
  0
LINE
  5
1A6
330
60
100
AcDbEntity
  8
LC-001-002-----0
  6
Continuous
 62
     7
100
AcDbLine
 10
-74.06587037956342
 20
-699.3544551085943
 30
0.0
 11
-72.03981537956497
 21
-699.3544551085943
 31
0.0
  0
LINE
  5
1A7
330
60
100
AcDbEntity
  8
LC-001-002-----0
  6
Continuous
 62
     7
100
AcDbLine
 10
-74.06587037956342
 20
-675.7544551085957
 30
0.0
 11
-72.03981537956497
 21
-675.7544551085957
 31
0.0
  0
LINE
  5
1A8
330
60
100
AcDbEntity
  8
LC-001-002-----0
  6
Continuous
 62
     7
100
AcDbLine
 10
1.15017362043363
 20
-695.5383241085947
 30
0.0
 11
1.15017362043363
 21
-690.8601321085953
 31
0.0
  0
LINE
  5
1A9
330
60
100
AcDbEntity
  8
LC-001-002-----0
  6
Continuous
 62
     7
100
AcDbLine
 10
-1.14982637956564
 20
-695.5383241085947
 30
0.0
 11
-1.14982637956564
 21
-690.8601321085953
 31
0.0
  0
LINE
  5
1AA
330
60
100
AcDbEntity
  8
LC-001-002-----0
  6
Continuous
 62
     7
100
AcDbLine
 10
1.20017362043654
 20
-695.5383241085947
 30
0.0
 11
1.15017362043363
 21
-695.5383241085947
 31
0.0
  0
LINE
  5
1AB
330
60
100
AcDbEntity
  8
LC-001-002-----0
  6
Continuous
 62
     7
100
AcDbLine
 10
-1.19982637956491
 20
-695.5383241085947
 30
0.0
 11
-1.14982637956564
 21
-695.5383241085947
 31
0.0
  0
LINE
  5
1AC
330
60
100
AcDbEntity
  8
LC-001-002-----0
  6
Continuous
 62
     7
100
AcDbLine
 10
1.15017362043363
 20
-721.5383241085947
 30
0.0
 11
1.20017362043654
 21
-721.5383241085947
 31
0.0
  0
LINE
  5
1AD
330
60
100
AcDbEntity
  8
LC-001-002-----0
  6
Continuous
 62
     7
100
AcDbLine
 10
-2.19982637956491
 20
-696.5383241085947
 30
0.0
 11
-2.19982637956491
 21
-720.5383241085947
 31
0.0
  0
LINE
  5
1AE
330
60
100
AcDbEntity
  8
LC-001-002-----0
  6
Continuous
 62
     7
100
AcDbLine
 10
-1.19982637956491
 20
-721.5383241085947
 30
0.0
 11
-1.14982637956564
 21
-721.5383241085947
 31
0.0
  0
LINE
  5
1AF
330
60
100
AcDbEntity
  8
LC-001-002-----0
  6
Continuous
 62
     7
100
AcDbLine
 10
2.20017362043654
 20
-696.5383241085947
 30
0.0
 11
2.20017362043654
 21
-720.5383241085947
 31
0.0
  0
LINE
  5
1B0
330
60
100
AcDbEntity
  8
LC-001-002-----0
  6
Continuous
 62
     7
100
AcDbLine
 10
1.15017362043363
 20
-647.3686941085944
 30
0.0
 11
1.15017362043363
 21
-653.5705861085953
 31
0.0
  0
LINE
  5
1B1
330
60
100
AcDbEntity
  8
LC-001-002-----0
  6
Continuous
 62
     7
100
AcDbLine
 10
-1.14982637956564
 20
-679.5705861085953
 30
0.0
 11
-1.14982637956564
 21
-684.2487781085947
 31
0.0
  0
LINE
  5
1B2
330
60
100
AcDbEntity
  8
LC-001-002-----0
  6
Continuous
 62
     7
100
AcDbLine
 10
1.20017362043654
 20
-679.5705861085953
 30
0.0
 11
1.15017362043363
 21
-679.5705861085953
 31
0.0
  0
LINE
  5
1B3
330
60
100
AcDbEntity
  8
LC-001-002-----0
  6
Continuous
 62
     7
100
AcDbLine
 10
-1.19982637956491
 20
-679.5705861085953
 30
0.0
 11
-1.14982637956564
 21
-679.5705861085953
 31
0.0
  0
LINE
  5
1B4
330
60
100
AcDbEntity
  8
LC-001-002-----0
  6
Continuous
 62
     7
100
AcDbLine
 10
1.15017362043363
 20
-653.5705861085953
 30
0.0
 11
1.20017362043654
 21
-653.5705861085953
 31
0.0
  0
LINE
  5
1B5
330
60
100
AcDbEntity
  8
LC-001-002-----0
  6
Continuous
 62
     7
100
AcDbLine
 10
-2.19982637956491
 20
-678.5705861085953
 30
0.0
 11
-2.19982637956491
 21
-654.5705861085953
 31
0.0
  0
LINE
  5
1B6
330
60
100
AcDbEntity
  8
LC-001-002-----0
  6
Continuous
 62
     7
100
AcDbLine
 10
-1.19982637956491
 20
-653.5705861085953
 30
0.0
 11
-1.14982637956564
 21
-653.5705861085953
 31
0.0
  0
LINE
  5
1B7
330
60
100
AcDbEntity
  8
LC-001-002-----0
  6
Continuous
 62
     7
100
AcDbLine
 10
2.20017362043654
 20
-678.5705861085953
 30
0.0
 11
2.20017362043654
 21
-654.5705861085953
 31
0.0
  0
LINE
  5
1B8
330
60
100
AcDbEntity
  8
LC-001-002-----0
  6
Continuous
 62
     7
100
AcDbLine
 10
1.15017362043363
 20
-727.4966321085958
 30
0.0
 11
1.15017362043363
 21
-721.5383241085947
 31
0.0
  0
LINE
  5
1B9
330
60
100
AcDbEntity
  8
LC-001-002-----0
  6
Continuous
 62
     7
100
AcDbLine
 10
-1.14982637956564
 20
-727.4966321085958
 30
0.0
 11
-1.14982637956564
 21
-721.5383241085947
 31
0.0
  0
LINE
  5
1BA
330
60
100
AcDbEntity
  8
LC-001-002-----0
  6
Continuous
 62
     7
100
AcDbLine
 10
29.0567306204357
 20
-714.984666108594
 30
0.0
 11
3.15081262043532
 21
-689.0787491085939
 31
0.0
  0
LINE
  5
1BB
330
60
100
AcDbEntity
  8
LC-001-002-----0
  6
Continuous
 62
     7
100
AcDbLine
 10
27.43038462043478
 20
-716.6110121085949
 30
0.0
 11
1.52446762043473
 21
-690.7050941085945
 31
0.0
  0
LINE
  5
1BC
330
60
100
AcDbEntity
  8
LC-001-002-----0
  6
Continuous
 62
     7
100
AcDbLine
 10
-27.43003837956348
 20
-716.6110121085949
 30
0.0
 11
-1.5241203795631
 21
-690.7050941085945
 31
0.0
  0
LINE
  5
1BD
330
60
100
AcDbEntity
  8
LC-001-002-----0
  6
Continuous
 62
     7
100
AcDbLine
 10
-29.05638337956407
 20
-714.984666108594
 30
0.0
 11
-3.15046537956368
 21
-689.0787491085939
 31
0.0
  0
LINE
  5
1BE
330
60
100
AcDbEntity
  8
LC-001-002-----0
  6
Continuous
 62
     7
100
AcDbLine
 10
73.55025762043442
 20
-731.3465221085935
 30
0.0
 11
36.82421262043499
 21
-710.1427291085965
 31
0.0
  0
LINE
  5
1BF
330
60
100
AcDbEntity
  8
LC-001-002-----0
  6
Continuous
 62
     7
100
AcDbLine
 10
74.70025762043588
 20
-729.3546631085956
 30
0.0
 11
37.97421262043645
 21
-708.1508711085953
 31
0.0
  0
LINE
  5
1C0
330
60
100
AcDbEntity
  8
LC-001-002-----0
  6
Continuous
 62
     7
100
AcDbLine
 10
82.37832062043526
 20
-710.8181801085957
 30
0.0
 11
41.41573962043549
 21
-699.8422901085942
 31
0.0
  0
LINE
  5
1C1
330
60
100
AcDbEntity
  8
LC-001-002-----0
  6
Continuous
 62
     7
100
AcDbLine
 10
82.97360462043434
 20
-708.596551108596
 30
0.0
 11
42.01102362043457
 21
-697.6206611085945
 31
0.0
  0
LINE
  5
1C2
330
60
100
AcDbEntity
  8
LC-001-002-----0
  6
Continuous
 62
     7
100
AcDbLine
 10
61.33622462043422
 20
-747.2641601085961
 30
0.0
 11
31.34953362043598
 21
-717.2774701085946
 31
0.0
  0
LINE
  5
1C3
330
60
100
AcDbEntity
  8
LC-001-002-----0
  6
Continuous
 62
     7
100
AcDbLine
 10
59.70987862043694
 20
-748.8905061085934
 30
0.0
 11
29.72318862043539
 21
-718.9038151085952
 31
0.0
  0
LINE
  5
1C4
330
60
100
AcDbEntity
  8
LC-001-002-----0
  6
Continuous
 62
     7
100
AcDbLine
 10
43.79223962043398
 20
-761.1045391085936
 30
0.0
 11
22.58844762043373
 21
-724.3784941085942
 31
0.0
  0
LINE
  5
1C5
330
60
100
AcDbEntity
  8
LC-001-002-----0
  6
Continuous
 62
     7
100
AcDbLine
 10
41.80038162043638
 20
-762.254539108595
 30
0.0
 11
20.59658962043613
 21
-725.5284941085956
 31
0.0
  0
LINE
  5
1C6
330
60
100
AcDbEntity
  8
LC-001-002-----0
  6
Continuous
 62
     7
100
AcDbLine
 10
21.04226962043686
 20
-770.5278861085935
 30
0.0
 11
10.06637962043533
 21
-729.5653051085937
 31
0.0
  0
LINE
  5
1C7
330
60
100
AcDbEntity
  8
LC-001-002-----0
  6
Continuous
 62
     7
100
AcDbLine
 10
23.26389862043652
 20
-769.9326021085944
 30
0.0
 11
12.28800862043499
 21
-728.9700211085947
 31
0.0
  0
LINE
  5
1C8
330
60
100
AcDbEntity
  8
LC-001-002-----0
  6
Continuous
 62
     7
100
AcDbLine
 10
-1.14982637956564
 20
-773.146730108594
 30
0.0
 11
-1.14982637956564
 21
-730.7391461085936
 31
0.0
  0
LINE
  5
1C9
330
60
100
AcDbEntity
  8
LC-001-002-----0
  6
Continuous
 62
     7
100
AcDbLine
 10
1.15017362043363
 20
-773.146730108594
 30
0.0
 11
1.15017362043363
 21
-730.7391461085936
 31
0.0
  0
LINE
  5
1CA
330
60
100
AcDbEntity
  8
LC-001-002-----0
  6
Continuous
 62
     7
100
AcDbLine
 10
-21.04192237956522
 20
-770.5278861085935
 30
0.0
 11
-10.06603237956369
 21
-729.5653051085937
 31
0.0
  0
LINE
  5
1CB
330
60
100
AcDbEntity
  8
LC-001-002-----0
  6
Continuous
 62
     7
100
AcDbLine
 10
-23.26355237956523
 20
-769.9326021085944
 30
0.0
 11
-12.28766137956336
 21
-728.9700211085947
 31
0.0
  0
LINE
  5
1CC
330
60
100
AcDbEntity
  8
LC-001-002-----0
  6
Continuous
 62
     7
100
AcDbLine
 10
-41.80003437956475
 20
-762.254539108595
 30
0.0
 11
-20.5962423795645
 21
-725.5284941085956
 31
0.0
  0
LINE
  5
1CD
330
60
100
AcDbEntity
  8
LC-001-002-----0
  6
Continuous
 62
     7
100
AcDbLine
 10
-43.79189337956632
 20
-761.1045391085936
 30
0.0
 11
-22.58810137956607
 21
-724.3784941085942
 31
0.0
  0
LINE
  5
1CE
330
60
100
AcDbEntity
  8
LC-001-002-----0
  6
Continuous
 62
     7
100
AcDbLine
 10
-59.70953137956531
 20
-748.8905061085934
 30
0.0
 11
-29.72284137956376
 21
-718.9038151085952
 31
0.0
  0
LINE
  5
1CF
330
60
100
AcDbEntity
  8
LC-001-002-----0
  6
Continuous
 62
     7
100
AcDbLine
 10
-61.33587737956259
 20
-747.2641601085961
 30
0.0
 11
-31.34918637956434
 21
-717.2774701085946
 31
0.0
  0
LINE
  5
1D0
330
60
100
AcDbEntity
  8
LC-001-002-----0
  6
Continuous
 62
     7
100
AcDbLine
 10
-73.54991037956279
 20
-731.3465221085935
 30
0.0
 11
-36.82386537956336
 21
-710.1427291085965
 31
0.0
  0
LINE
  5
1D1
330
60
100
AcDbEntity
  8
LC-001-002-----0
  6
Continuous
 62
     7
100
AcDbLine
 10
-82.37797337956363
 20
-710.8181801085957
 30
0.0
 11
-41.41539237956386
 21
-699.8422901085942
 31
0.0
  0
LINE
  5
1D2
330
60
100
AcDbEntity
  8
LC-001-002-----0
  6
Continuous
 62
     7
100
AcDbLine
 10
-82.97325737956271
 20
-708.596551108596
 30
0.0
 11
-42.01067637956294
 21
-697.6206611085945
 31
0.0
  0
LINE
  5
1D3
330
60
100
AcDbEntity
  8
LC-001-002-----0
  6
Continuous
 62
     7
100
AcDbLine
 10
85.59244862043488
 20
-688.7044551085964
 30
0.0
 11
43.18486362043404
 21
-688.7044551085964
 31
0.0
  0
LINE
  5
1D4
330
60
100
AcDbEntity
  8
LC-001-002-----0
  6
Continuous
 62
     7
100
AcDbLine
 10
85.59244862043488
 20
-686.4044551085935
 30
0.0
 11
43.18486362043404
 21
-686.4044551085935
 31
0.0
  0
LINE
  5
1D5
330
60
100
AcDbEntity
  8
LC-001-002-----0
  6
Continuous
 62
     7
100
AcDbLine
 10
82.97360462043434
 20
-666.512359108594
 30
0.0
 11
42.01102362043457
 21
-677.4882491085955
 31
0.0
  0
LINE
  5
1D6
330
60
100
AcDbEntity
  8
LC-001-002-----0
  6
Continuous
 62
     7
100
AcDbLine
 10
82.37832062043526
 20
-664.290729108594
 30
0.0
 11
41.41573962043549
 21
-675.2666201085958
 31
0.0
  0
LINE
  5
1D7
330
60
100
AcDbEntity
  8
LC-001-002-----0
  6
Continuous
 62
     7
100
AcDbLine
 10
73.55025762043442
 20
-643.7623881085965
 30
0.0
 11
36.82421262043499
 21
-664.9661801085967
 31
0.0
  0
LINE
  5
1D8
330
60
100
AcDbEntity
  8
LC-001-002-----0
  6
Continuous
 62
     7
100
AcDbLine
 10
74.70025762043588
 20
-645.7542471085944
 30
0.0
 11
37.97421262043645
 21
-666.9580391085947
 31
0.0
  0
LINE
  5
1D9
330
60
100
AcDbEntity
  8
LC-001-002-----0
  6
Continuous
 62
     7
100
AcDbLine
 10
61.33622462043422
 20
-627.8447501085939
 30
0.0
 11
31.34953362043598
 21
-657.8314401085954
 31
0.0
  0
LINE
  5
1DA
330
60
100
AcDbEntity
  8
LC-001-002-----0
  6
Continuous
 62
     7
100
AcDbLine
 10
59.70987862043694
 20
-626.2184041085966
 30
0.0
 11
29.72318862043539
 21
-656.2050951085948
 31
0.0
  0
LINE
  5
1DB
330
60
100
AcDbEntity
  8
LC-001-002-----0
  6
Continuous
 62
     7
100
AcDbLine
 10
43.79223962043398
 20
-614.0043711085964
 30
0.0
 11
22.58844762043373
 21
-650.7304161085958
 31
0.0
  0
LINE
  5
1DC
330
60
100
AcDbEntity
  8
LC-001-002-----0
  6
Continuous
 62
     7
100
AcDbLine
 10
41.80038162043638
 20
-612.8543711085949
 30
0.0
 11
20.59658962043613
 21
-649.5804161085944
 31
0.0
  0
LINE
  5
1DD
330
60
100
AcDbEntity
  8
LC-001-002-----0
  6
Continuous
 62
     7
100
AcDbLine
 10
23.26389862043652
 20
-605.1763081085955
 30
0.0
 11
12.28800862043499
 21
-646.1388891085953
 31
0.0
  0
LINE
  5
1DE
330
60
100
AcDbEntity
  8
LC-001-002-----0
  6
Continuous
 62
     7
100
AcDbLine
 10
21.04226962043686
 20
-604.5810241085965
 30
0.0
 11
10.06637962043533
 21
-645.5436051085962
 31
0.0
  0
LINE
  5
1DF
330
60
100
AcDbEntity
  8
LC-001-002-----0
  6
Continuous
 62
     7
100
AcDbLine
 10
39.94235062043663
 20
-686.4044551085935
 30
0.0
 11
3.3058506204361
 21
-686.4044551085935
 31
0.0
  0
LINE
  5
1E0
330
60
100
AcDbEntity
  8
LC-001-002-----0
  6
Continuous
 62
     7
100
AcDbLine
 10
39.94235062043663
 20
-688.7044551085964
 30
0.0
 11
3.3058506204361
 21
-688.7044551085964
 31
0.0
  0
LINE
  5
1E1
330
60
100
AcDbEntity
  8
LC-001-002-----0
  6
Continuous
 62
     7
100
AcDbLine
 10
-74.69991037956424
 20
-729.3546631085956
 30
0.0
 11
-37.97386537956481
 21
-708.1508711085953
 31
0.0
  0
LINE
  5
1E2
330
60
100
AcDbEntity
  8
LC-001-002-----0
  6
Continuous
 62
     7
100
AcDbLine
 10
27.43038462043478
 20
-658.4978981085951
 30
0.0
 11
1.52446762043473
 21
-684.4038161085955
 31
0.0
  0
LINE
  5
1E3
330
60
100
AcDbEntity
  8
LC-001-002-----0
  6
Continuous
 62
     7
100
AcDbLine
 10
29.0567306204357
 20
-660.124244108596
 30
0.0
 11
3.15081262043532
 21
-686.0301611085961
 31
0.0
  0
LINE
  5
1E4
330
60
100
AcDbEntity
  8
LC-001-002-----0
  6
Continuous
 62
     7
100
AcDbLine
 10
-1.14982637956564
 20
-647.3686941085944
 30
0.0
 11
-1.14982637956564
 21
-653.5705861085953
 31
0.0
  0
LINE
  5
1E5
330
60
100
AcDbEntity
  8
LC-001-002-----0
  6
Continuous
 62
     7
100
AcDbLine
 10
1.15017362043363
 20
-679.5705861085953
 30
0.0
 11
1.15017362043363
 21
-684.2487781085947
 31
0.0
  0
LINE
  5
1E6
330
60
100
AcDbEntity
  8
LC-001-002-----0
  6
Continuous
 62
     7
100
AcDbLine
 10
-29.05638337956407
 20
-660.124244108596
 30
0.0
 11
-3.15046537956368
 21
-686.0301611085961
 31
0.0
  0
LINE
  5
1E7
330
60
100
AcDbEntity
  8
LC-001-002-----0
  6
Continuous
 62
     7
100
AcDbLine
 10
-27.43003837956348
 20
-658.4978981085951
 30
0.0
 11
-1.5241203795631
 21
-684.4038161085955
 31
0.0
  0
LINE
  5
1E8
330
60
100
AcDbEntity
  8
LC-001-002-----0
  6
Continuous
 62
     7
100
AcDbLine
 10
-21.04192237956522
 20
-604.5810241085965
 30
0.0
 11
-10.06603237956369
 21
-645.5436051085962
 31
0.0
  0
LINE
  5
1E9
330
60
100
AcDbEntity
  8
LC-001-002-----0
  6
Continuous
 62
     7
100
AcDbLine
 10
-23.26355237956523
 20
-605.1763081085955
 30
0.0
 11
-12.28766137956336
 21
-646.1388891085953
 31
0.0
  0
LINE
  5
1EA
330
60
100
AcDbEntity
  8
LC-001-002-----0
  6
Continuous
 62
     7
100
AcDbLine
 10
-43.79189337956632
 20
-614.0043711085964
 30
0.0
 11
-22.58810137956607
 21
-650.7304161085958
 31
0.0
  0
LINE
  5
1EB
330
60
100
AcDbEntity
  8
LC-001-002-----0
  6
Continuous
 62
     7
100
AcDbLine
 10
-41.80003437956475
 20
-612.8543711085949
 30
0.0
 11
-20.5962423795645
 21
-649.5804161085944
 31
0.0
  0
LINE
  5
1EC
330
60
100
AcDbEntity
  8
LC-001-002-----0
  6
Continuous
 62
     7
100
AcDbLine
 10
-61.33587737956259
 20
-627.8447501085939
 30
0.0
 11
-31.34918637956434
 21
-657.8314401085954
 31
0.0
  0
LINE
  5
1ED
330
60
100
AcDbEntity
  8
LC-001-002-----0
  6
Continuous
 62
     7
100
AcDbLine
 10
-59.70953137956531
 20
-626.2184041085966
 30
0.0
 11
-29.72284137956376
 21
-656.2050951085948
 31
0.0
  0
LINE
  5
1EE
330
60
100
AcDbEntity
  8
LC-001-002-----0
  6
Continuous
 62
     7
100
AcDbLine
 10
-73.54991037956279
 20
-643.7623881085965
 30
0.0
 11
-36.82386537956336
 21
-664.9661801085967
 31
0.0
  0
LINE
  5
1EF
330
60
100
AcDbEntity
  8
LC-001-002-----0
  6
Continuous
 62
     7
100
AcDbLine
 10
-74.69991037956424
 20
-645.7542471085944
 30
0.0
 11
-37.97386537956481
 21
-666.9580391085947
 31
0.0
  0
LINE
  5
1F0
330
60
100
AcDbEntity
  8
LC-001-002-----0
  6
Continuous
 62
     7
100
AcDbLine
 10
-82.97325737956271
 20
-666.512359108594
 30
0.0
 11
-42.01067637956294
 21
-677.4882491085955
 31
0.0
  0
LINE
  5
1F1
330
60
100
AcDbEntity
  8
LC-001-002-----0
  6
Continuous
 62
     7
100
AcDbLine
 10
-82.37797337956363
 20
-664.290729108594
 30
0.0
 11
-41.41539237956386
 21
-675.2666201085958
 31
0.0
  0
LINE
  5
1F2
330
60
100
AcDbEntity
  8
LC-001-002-----0
  6
Continuous
 62
     7
100
AcDbLine
 10
-39.94200337956499
 20
-686.4044551085935
 30
0.0
 11
-3.30550337956447
 21
-686.4044551085935
 31
0.0
  0
LINE
  5
1F3
330
60
100
AcDbEntity
  8
LC-001-002-----0
  6
Continuous
 62
     7
100
AcDbLine
 10
-63.36284837956555
 20
-688.7044551085964
 30
0.0
 11
-43.18451737956275
 21
-688.7044551085964
 31
0.0
  0
LINE
  5
1F4
330
60
100
AcDbEntity
  8
LC-001-002-----0
  6
Continuous
 62
     7
100
AcDbLine
 10
-85.59210137956325
 20
-688.7044551085964
 30
0.0
 11
-43.18451737956275
 21
-688.7044551085964
 31
0.0
  0
LINE
  5
1F5
330
60
100
AcDbEntity
  8
LC-001-002-----0
  6
Continuous
 62
     7
100
AcDbLine
 10
-85.59210137956325
 20
-686.4044551085935
 30
0.0
 11
-43.18451737956275
 21
-686.4044551085935
 31
0.0
  0
LINE
  5
1F6
330
60
100
AcDbEntity
  8
LC-001-002-----0
  6
Continuous
 62
     7
100
AcDbLine
 10
-188.9999783795647
 20
-508.5552511085953
 30
0.0
 11
-188.9992043795646
 21
-866.5552511085953
 31
0.0
  0
LINE
  5
1F7
330
60
100
AcDbEntity
  8
LC-001-002-----0
  6
Continuous
 62
     7
100
AcDbLine
 10
-179.0000223795651
 20
-498.5552291085951
 30
0.0
 11
178.999977620435
 21
-498.5536811085949
 31
0.0
  0
LINE
  5
1F8
330
60
100
AcDbEntity
  8
LC-007-007-KH--0
  6
DASHDOT
 62
     7
100
AcDbLine
 10
75.7778346204359
 20
-731.3052571085937
 30
0.0
 11
75.7778346204359
 21
-731.3052571085937
 31
0.0
  0
LINE
  5
1F9
330
60
100
AcDbEntity
  8
LC-007-007-KH--0
  6
DASHDOT
 62
     7
100
AcDbLine
 10
0.0002046204354
 20
-600.0552571085937
 30
0.0
 11
0.0002046204354
 21
-600.0552571085937
 31
0.0
  0
LINE
  5
1FA
330
60
100
AcDbEntity
  8
LC-001-002-----0
  6
Continuous
 62
     7
100
AcDbLine
 10
189.0000216204353
 20
-508.5536591085947
 30
0.0
 11
189.0007956204354
 21
-866.5536591085947
 31
0.0
  0
LINE
  5
1FB
330
60
100
AcDbEntity
  8
LC-001-002-----0
  6
Continuous
 62
     7
100
AcDbLine
 10
-178.9991613795646
 20
-876.5552291085951
 30
0.0
 11
179.0008386204354
 21
-876.5536811085949
 31
0.0
  0
LINE
  5
1FC
330
60
100
AcDbEntity
  8
LC-007-007-KH--0
  6
DASHDOT
 62
     7
100
AcDbLine
 10
0.00037062043702
 20
-775.0525241085961
 30
0.0
 11
0.00037062043702
 21
-775.0525241085961
 31
0.0
  0
ARC
  5
1FD
330
60
100
AcDbEntity
  8
LC-002-002-RND-0
  6
Continuous
 62
     7
100
AcDbCircle
 10
-169.9988629290237
 20
-517.5540441085941
 30
0.0
 40
10.0
100
AcDbArc
 50
90.0
 51
180.0
  0
ARC
  5
1FE
330
60
100
AcDbEntity
  8
LC-002-002-RND-0
  6
Continuous
 62
     7
100
AcDbCircle
 10
-169.9988629290237
 20
-857.5540531085935
 30
0.0
 40
10.0
100
AcDbArc
 50
180.0
 51
-90.0
  0
ARC
  5
1FF
330
60
100
AcDbEntity
  8
LC-002-002-RND-0
  6
Continuous
 62
     7
100
AcDbCircle
 10
170.0004126204367
 20
-857.5540531085935
 30
0.0
 40
10.0
100
AcDbArc
 50
-90.0
 51
0.0
  0
ARC
  5
200
330
60
100
AcDbEntity
  8
LC-002-002-RND-0
  6
Continuous
 62
     7
100
AcDbCircle
 10
170.0004126204367
 20
-517.5540441085941
 30
0.0
 40
10.0
100
AcDbArc
 50
0.0
 51
90.0
  0
ARC
  5
201
330
60
100
AcDbEntity
  8
LC-002-002-RND-0
  6
Continuous
 62
     7
100
AcDbCircle
 10
170.0004126204367
 20
-517.5540441085941
 30
0.0
 40
10.0
100
AcDbArc
 50
0.0
 51
90.0
  0
ARC
  5
202
330
60
100
AcDbEntity
  8
LC-001-002-----0
  6
Continuous
 62
     7
100
AcDbCircle
 10
0.0002046204354
 20
-687.5552571085937
 30
0.0
 40
85.59999999999923
100
AcDbArc
 50
149.2302319999992
 51
150.769768000001
  0
ARC
  5
203
330
60
100
AcDbEntity
  8
LC-001-002-----0
  6
Continuous
 62
     7
100
AcDbCircle
 10
129.5004086204353
 20
-817.0540531085935
 30
0.0
 40
8.000000000000263
100
AcDbArc
 50
174.0618800000003
 51
95.9387429999759
  0
ARC
  5
204
330
60
100
AcDbEntity
  8
LC-001-002-----0
  6
Continuous
 62
     7
100
AcDbCircle
 10
-129.4995913795647
 20
-817.0540531085935
 30
0.0
 40
7.999999999999933
100
AcDbArc
 50
84.06450300000724
 51
5.93505399998409
  0
ARC
  5
205
330
60
100
AcDbEntity
  8
LC-001-002-----0
  6
Continuous
 62
     7
100
AcDbCircle
 10
129.5004086204353
 20
-558.0540441085941
 30
0.0
 40
7.99999999999944
100
AcDbArc
 50
-95.9569820000219
 51
-174.0425719999874
  0
ARC
  5
206
330
60
100
AcDbEntity
  8
LC-001-002-----0
  6
Continuous
 62
     7
100
AcDbCircle
 10
-129.4995913795647
 20
-558.0540481085955
 30
0.0
 40
8.000000000000288
100
AcDbArc
 50
-5.95432800000738
 51
-84.04629700000358
  0
ARC
  5
207
330
60
100
AcDbEntity
  8
LC-001-002-----0
  6
Continuous
 62
     7
100
AcDbCircle
 10
129.5004126204367
 20
-817.0540481085955
 30
0.0
 40
9.00000000000042
100
AcDbArc
 50
-179.0549479999894
 51
89.05557500004242
  0
ARC
  5
208
330
60
100
AcDbEntity
  8
LC-001-002-----0
  6
Continuous
 62
     7
100
AcDbCircle
 10
-129.4995963795664
 20
-817.0540481085955
 30
0.0
 40
9.000000000000824
100
AcDbArc
 50
90.94697399999764
 51
-0.94742100000244
  0
ARC
  5
209
330
60
100
AcDbEntity
  8
LC-001-002-----0
  6
Continuous
 62
     7
100
AcDbCircle
 10
129.5004126204367
 20
-558.0540481085955
 30
0.0
 40
8.99999999999969
100
AcDbArc
 50
-89.06966700001537
 51
179.0701099999933
  0
ARC
  5
20A
330
60
100
AcDbEntity
  8
LC-001-002-----0
  6
Continuous
 62
     7
100
AcDbCircle
 10
-129.4995963795664
 20
-558.0540481085955
 30
0.0
 40
9.00000000000321
100
AcDbArc
 50
0.93225900001165
 51
-90.93288199999127
  0
ARC
  5
20B
330
60
100
AcDbEntity
  8
LC-001-002-----0
  6
Continuous
 62
     7
100
AcDbCircle
 10
0.00040862043534
 20
-687.5540481085955
 30
0.0
 40
59.50050099999886
100
AcDbArc
 50
-178.8921510000019
 51
-166.1071370000016
  0
ARC
  5
20C
330
60
100
AcDbEntity
  8
LC-001-002-----0
  6
Continuous
 62
     7
100
AcDbCircle
 10
0.00040862043534
 20
-687.5540481085955
 30
0.0
 40
63.00057099999841
100
AcDbArc
 50
-178.9537059999984
 51
-166.0456220000011
  0
ARC
  5
20D
330
60
100
AcDbEntity
  8
LC-001-002-----0
  6
Continuous
 62
     7
100
AcDbCircle
 10
0.00040862043534
 20
-687.554455108595
 30
0.0
 40
75.00035699999906
100
AcDbArc
 50
-179.1214339999993
 51
-165.8786119999988
  0
ARC
  5
20E
330
60
100
AcDbEntity
  8
LC-001-002-----0
  6
Continuous
 62
     7
100
AcDbCircle
 10
0.00040862043534
 20
-687.554455108595
 30
0.0
 40
79.00004900000089
100
AcDbArc
 50
-179.1659190000003
 51
-165.8341250000002
  0
ARC
  5
20F
330
60
100
AcDbEntity
  8
LC-001-002-----0
  6
Continuous
 62
     7
100
AcDbCircle
 10
0.00040862043534
 20
-687.554455108595
 30
0.0
 40
79.00004899999877
100
AcDbArc
 50
-164.1659629999999
 51
-150.8341670000005
  0
ARC
  5
210
330
60
100
AcDbEntity
  8
LC-001-002-----0
  6
Continuous
 62
     7
100
AcDbCircle
 10
0.00040862043534
 20
-687.554455108595
 30
0.0
 40
75.00035700000164
100
AcDbArc
 50
-164.1214809999986
 51
-150.8786549999995
  0
ARC
  5
211
330
60
100
AcDbEntity
  8
LC-001-002-----0
  6
Continuous
 62
     7
100
AcDbCircle
 10
0.00040862043534
 20
-687.5540481085955
 30
0.0
 40
63.00057099999914
100
AcDbArc
 50
-163.953774
 51
-151.0457100000007
  0
ARC
  5
212
330
60
100
AcDbEntity
  8
LC-001-002-----0
  6
Continuous
 62
     7
100
AcDbCircle
 10
0.00040862043534
 20
-687.5540481085955
 30
0.0
 40
59.50050100000082
100
AcDbArc
 50
-163.8922230000004
 51
-151.1072309999998
  0
ARC
  5
213
330
60
100
AcDbEntity
  8
LC-001-002-----0
  6
Continuous
 62
     7
100
AcDbCircle
 10
0.00040862043534
 20
-687.5540481085955
 30
0.0
 40
59.50050099999848
100
AcDbArc
 50
-148.8923170000017
 51
-136.107339999998
  0
ARC
  5
214
330
60
100
AcDbEntity
  8
LC-001-002-----0
  6
Continuous
 62
     7
100
AcDbCircle
 10
0.00040862043534
 20
-687.5540481085955
 30
0.0
 40
63.00057099999853
100
AcDbArc
 50
-148.9538629999998
 51
-136.0458129999997
  0
ARC
  5
215
330
60
100
AcDbEntity
  8
LC-001-002-----0
  6
Continuous
 62
     7
100
AcDbCircle
 10
0.00040862043534
 20
-687.554455108595
 30
0.0
 40
75.00035699999897
100
AcDbArc
 50
-149.1215239999985
 51
-135.8786920000017
  0
ARC
  5
216
330
60
100
AcDbEntity
  8
LC-001-002-----0
  6
Continuous
 62
     7
100
AcDbCircle
 10
0.00040862043534
 20
-687.554455108595
 30
0.0
 40
79.0000490000008
100
AcDbArc
 50
-149.1660039999998
 51
-135.8342019999999
  0
ARC
  5
217
330
60
100
AcDbEntity
  8
LC-001-002-----0
  6
Continuous
 62
     7
100
AcDbCircle
 10
0.00040862043534
 20
-687.5540481085955
 30
0.0
 40
59.50050099999755
100
AcDbArc
 50
-133.8924260000007
 51
-121.1074569999998
  0
ARC
  5
218
330
60
100
AcDbEntity
  8
LC-001-002-----0
  6
Continuous
 62
     7
100
AcDbCircle
 10
0.00040862043534
 20
-687.5540481085955
 30
0.0
 40
63.00057100000074
100
AcDbArc
 50
-133.9539660000017
 51
-121.0459239999993
  0
ARC
  5
219
330
60
100
AcDbEntity
  8
LC-001-002-----0
  6
Continuous
 62
     7
100
AcDbCircle
 10
0.00040862043534
 20
-687.554455108595
 30
0.0
 40
75.00035699999817
100
AcDbArc
 50
-134.1215609999997
 51
-120.8787209999988
  0
ARC
  5
21A
330
60
100
AcDbEntity
  8
LC-001-002-----0
  6
Continuous
 62
     7
100
AcDbCircle
 10
0.00040862043534
 20
-687.554455108595
 30
0.0
 40
79.00004900000005
100
AcDbArc
 50
-119.1660660000005
 51
-105.8342460000009
  0
ARC
  5
21B
330
60
100
AcDbEntity
  8
LC-001-002-----0
  6
Continuous
 62
     7
100
AcDbCircle
 10
0.00040862043534
 20
-687.554455108595
 30
0.0
 40
75.00035700000015
100
AcDbArc
 50
-119.1215899999991
 51
-105.8787389999992
  0
ARC
  5
21C
330
60
100
AcDbEntity
  8
LC-001-002-----0
  6
Continuous
 62
     7
100
AcDbCircle
 10
0.00040862043534
 20
-687.5540481085955
 30
0.0
 40
63.00057100000047
100
AcDbArc
 50
-118.9540760000001
 51
-106.0460339999991
  0
ARC
  5
21D
330
60
100
AcDbEntity
  8
LC-001-002-----0
  6
Continuous
 62
     7
100
AcDbCircle
 10
0.00040862043534
 20
-687.5540481085955
 30
0.0
 40
59.50050099999992
100
AcDbArc
 50
-118.8925430000009
 51
-106.1075739999995
  0
ARC
  5
21E
330
60
100
AcDbEntity
  8
LC-001-002-----0
  6
Continuous
 62
     7
100
AcDbCircle
 10
0.00040862043534
 20
-687.5540481085955
 30
0.0
 40
63.0005710000008
100
AcDbArc
 50
-103.9541870000003
 51
-91.04613699999946
  0
ARC
  5
21F
330
60
100
AcDbEntity
  8
LC-001-002-----0
  6
Continuous
 62
     7
100
AcDbCircle
 10
0.00040862043534
 20
-687.554455108595
 30
0.0
 40
79.00004900000097
100
AcDbArc
 50
-89.16608899999859
 51
-75.83424599999877
  0
ARC
  5
220
330
60
100
AcDbEntity
  8
LC-001-002-----0
  6
Continuous
 62
     7
100
AcDbCircle
 10
0.00040862043534
 20
-687.554455108595
 30
0.0
 40
75.0003570000013
100
AcDbArc
 50
-89.1216140000001
 51
-75.87873899999963
  0
ARC
  5
221
330
60
100
AcDbEntity
  8
LC-001-002-----0
  6
Continuous
 62
     7
100
AcDbCircle
 10
0.00040862043534
 20
-687.5540481085955
 30
0.0
 40
63.00057099999886
100
AcDbArc
 50
-88.95428999999852
 51
-76.04622599999885
  0
ARC
  5
222
330
60
100
AcDbEntity
  8
LC-001-002-----0
  6
Continuous
 62
     7
100
AcDbCircle
 10
0.00040862043534
 20
-687.5540481085955
 30
0.0
 40
59.50050099999883
100
AcDbArc
 50
-88.89276899999922
 51
-76.10777700000088
  0
ARC
  5
223
330
60
100
AcDbEntity
  8
LC-001-002-----0
  6
Continuous
 62
     7
100
AcDbCircle
 10
0.00040862043534
 20
-687.5540481085955
 30
0.0
 40
59.50050099999825
100
AcDbArc
 50
-73.89286299999807
 51
-61.10784899999987
  0
ARC
  5
224
330
60
100
AcDbEntity
  8
LC-001-002-----0
  6
Continuous
 62
     7
100
AcDbCircle
 10
0.00040862043534
 20
-687.5540481085955
 30
0.0
 40
63.00057099999862
100
AcDbArc
 50
-73.9543779999999
 51
-61.04629399999838
  0
ARC
  5
225
330
60
100
AcDbEntity
  8
LC-001-002-----0
  6
Continuous
 62
     7
100
AcDbCircle
 10
0.00040862043534
 20
-687.554455108595
 30
0.0
 40
79.0000489999999
100
AcDbArc
 50
-74.16608300000124
 51
-60.8342290000008
  0
ARC
  5
226
330
60
100
AcDbEntity
  8
LC-001-002-----0
  6
Continuous
 62
     7
100
AcDbCircle
 10
0.00040862043534
 20
-687.554455108595
 30
0.0
 40
79.00004899999944
100
AcDbArc
 50
-59.16606599999837
 51
-45.83420199999994
  0
ARC
  5
227
330
60
100
AcDbEntity
  8
LC-001-002-----0
  6
Continuous
 62
     7
100
AcDbCircle
 10
0.00040862043534
 20
-687.554455108595
 30
0.0
 40
75.00035699999893
100
AcDbArc
 50
-59.12158999999937
 51
-45.87869199999975
  0
ARC
  5
228
330
60
100
AcDbEntity
  8
LC-001-002-----0
  6
Continuous
 62
     7
100
AcDbCircle
 10
0.00040862043534
 20
-687.554455108595
 30
0.0
 40
79.00004900000265
100
AcDbArc
 50
-44.16603900000045
 51
-30.83416699999897
  0
ARC
  5
229
330
60
100
AcDbEntity
  8
LC-001-002-----0
  6
Continuous
 62
     7
100
AcDbCircle
 10
0.00040862043534
 20
-687.554455108595
 30
0.0
 40
75.0003570000007
100
AcDbArc
 50
-44.12156100000164
 51
-30.87865500000029
  0
ARC
  5
22A
330
60
100
AcDbEntity
  8
LC-001-002-----0
  6
Continuous
 62
     7
100
AcDbCircle
 10
0.00040862043534
 20
-687.5540481085955
 30
0.0
 40
63.0005710000002
100
AcDbArc
 50
-43.95448800000053
 51
-31.0463510000001
  0
ARC
  5
22B
330
60
100
AcDbEntity
  8
LC-001-002-----0
  6
Continuous
 62
     7
100
AcDbCircle
 10
0.00040862043534
 20
-687.5540481085955
 30
0.0
 40
59.50050099999965
100
AcDbArc
 50
-43.89298000000021
 51
-31.10790899999854
  0
ARC
  5
22C
330
60
100
AcDbEntity
  8
LC-001-002-----0
  6
Continuous
 62
     7
100
AcDbCircle
 10
0.00040862043534
 20
-687.554455108595
 30
0.0
 40
79.00004900000027
100
AcDbArc
 50
-29.16600400000039
 51
-15.83412500000057
  0
ARC
  5
22D
330
60
100
AcDbEntity
  8
LC-001-002-----0
  6
Continuous
 62
     7
100
AcDbCircle
 10
0.00040862043534
 20
-687.554455108595
 30
0.0
 40
75.00035699999871
100
AcDbArc
 50
-29.12152399999994
 51
-15.87861199999984
  0
ARC
  5
22E
330
60
100
AcDbEntity
  8
LC-001-002-----0
  6
Continuous
 62
     7
100
AcDbCircle
 10
0.00040862043534
 20
-687.5540481085955
 30
0.0
 40
63.0005709999995
100
AcDbArc
 50
-28.95450300000046
 51
-16.04633599999919
  0
ARC
  5
22F
330
60
100
AcDbEntity
  8
LC-001-002-----0
  6
Continuous
 62
     7
100
AcDbCircle
 10
0.00040862043534
 20
-687.5540481085955
 30
0.0
 40
59.50050099999812
100
AcDbArc
 50
-28.89299499999966
 51
-16.10789400000082
  0
ARC
  5
230
330
60
100
AcDbEntity
  8
LC-001-002-----0
  6
Continuous
 62
     7
100
AcDbCircle
 10
0.00040862043534
 20
-687.5540481085955
 30
0.0
 40
59.50050100000147
100
AcDbArc
 50
-13.89297999999847
 51
-1.10784899999811
  0
ARC
  5
231
330
60
100
AcDbEntity
  8
LC-001-002-----0
  6
Continuous
 62
     7
100
AcDbCircle
 10
0.00040862043534
 20
-687.5540481085955
 30
0.0
 40
63.00057099999995
100
AcDbArc
 50
-13.95448800000052
 51
-1.04629400000162
  0
ARC
  5
232
330
60
100
AcDbEntity
  8
LC-001-002-----0
  6
Continuous
 62
     7
100
AcDbCircle
 10
0.00040862043534
 20
-687.554455108595
 30
0.0
 40
75.00035699999994
100
AcDbArc
 50
-14.12148100000056
 51
-0.87856600000067
  0
ARC
  5
233
330
60
100
AcDbEntity
  8
LC-001-002-----0
  6
Continuous
 62
     7
100
AcDbCircle
 10
0.00040862043534
 20
-687.554455108595
 30
0.0
 40
79.00004900000089
100
AcDbArc
 50
0.83408099999965
 51
14.16596300000062
  0
ARC
  5
234
330
60
100
AcDbEntity
  8
LC-001-002-----0
  6
Continuous
 62
     7
100
AcDbCircle
 10
0.00040862043534
 20
-687.554455108595
 30
0.0
 40
75.00035699999906
100
AcDbArc
 50
0.87856600000067
 51
14.12148100000056
  0
ARC
  5
235
330
60
100
AcDbEntity
  8
LC-001-002-----0
  6
Continuous
 62
     7
100
AcDbCircle
 10
0.00040862043534
 20
-687.5540481085955
 30
0.0
 40
63.00057099999999
100
AcDbArc
 50
1.04555400000056
 51
13.95377400000114
  0
ARC
  5
236
330
60
100
AcDbEntity
  8
LC-001-002-----0
  6
Continuous
 62
     7
100
AcDbCircle
 10
0.00040862043534
 20
-687.5540481085955
 30
0.0
 40
59.50050100000003
100
AcDbArc
 50
1.10706600000208
 51
13.89222299999911
  0
ARC
  5
237
330
60
100
AcDbEntity
  8
LC-001-002-----0
  6
Continuous
 62
     7
100
AcDbCircle
 10
0.00040862043534
 20
-687.5540481085955
 30
0.0
 40
59.50050100000176
100
AcDbArc
 50
16.10713700000095
 51
28.89231700000187
  0
ARC
  5
238
330
60
100
AcDbEntity
  8
LC-001-002-----0
  6
Continuous
 62
     7
100
AcDbCircle
 10
0.00040862043534
 20
-687.5540481085955
 30
0.0
 40
63.00057099999863
100
AcDbArc
 50
16.0456220000001
 51
28.95386299999996
  0
ARC
  5
239
330
60
100
AcDbEntity
  8
LC-001-002-----0
  6
Continuous
 62
     7
100
AcDbCircle
 10
0.00040862043534
 20
-687.554455108595
 30
0.0
 40
75.000357
100
AcDbArc
 50
15.87861199999984
 51
29.12152399999994
  0
ARC
  5
23A
330
60
100
AcDbEntity
  8
LC-001-002-----0
  6
Continuous
 62
     7
100
AcDbCircle
 10
0.00040862043534
 20
-687.554455108595
 30
0.0
 40
79.00004900000064
100
AcDbArc
 50
15.83412500000057
 51
29.16600400000039
  0
ARC
  5
23B
330
60
100
AcDbEntity
  8
LC-001-002-----0
  6
Continuous
 62
     7
100
AcDbCircle
 10
0.00040862043534
 20
-687.554455108595
 30
0.0
 40
79.00004900000006
100
AcDbArc
 50
30.83416699999897
 51
44.16603899999856
  0
ARC
  5
23C
330
60
100
AcDbEntity
  8
LC-001-002-----0
  6
Continuous
 62
     7
100
AcDbCircle
 10
0.00040862043534
 20
-687.554455108595
 30
0.0
 40
75.00035700000126
100
AcDbArc
 50
30.87865500000029
 51
44.12156099999965
  0
ARC
  5
23D
330
60
100
AcDbEntity
  8
LC-001-002-----0
  6
Continuous
 62
     7
100
AcDbCircle
 10
0.00040862043534
 20
-687.5540481085955
 30
0.0
 40
63.00057099999923
100
AcDbArc
 50
31.04570999999935
 51
43.95396600000173
  0
ARC
  5
23E
330
60
100
AcDbEntity
  8
LC-001-002-----0
  6
Continuous
 62
     7
100
AcDbCircle
 10
0.00040862043534
 20
-687.5540481085955
 30
0.0
 40
59.50050099999824
100
AcDbArc
 50
31.10723099999982
 51
43.89242599999822
  0
ARC
  5
23F
330
60
100
AcDbEntity
  8
LC-001-002-----0
  6
Continuous
 62
     7
100
AcDbCircle
 10
0.00040862043534
 20
-687.5540481085955
 30
0.0
 40
63.0005709999984
100
AcDbArc
 50
46.04581299999967
 51
58.95407600000072
  0
ARC
  5
240
330
60
100
AcDbEntity
  8
LC-001-002-----0
  6
Continuous
 62
     7
100
AcDbCircle
 10
0.00040862043534
 20
-687.5540481085955
 30
0.0
 40
59.50050099999956
100
AcDbArc
 50
46.10733999999803
 51
58.89254300000024
  0
ARC
  5
241
330
60
100
AcDbEntity
  8
LC-001-002-----0
  6
Continuous
 62
     7
100
AcDbCircle
 10
0.00040862043534
 20
-687.554455108595
 30
0.0
 40
75.00035700000187
100
AcDbArc
 50
45.87869199999975
 51
59.12158999999937
  0
ARC
  5
242
330
60
100
AcDbEntity
  8
LC-001-002-----0
  6
Continuous
 62
     7
100
AcDbCircle
 10
0.00040862043534
 20
-687.554455108595
 30
0.0
 40
79.00004899999875
100
AcDbArc
 50
45.83420199999994
 51
59.16606599999837
  0
ARC
  5
243
330
60
100
AcDbEntity
  8
LC-001-002-----0
  6
Continuous
 62
     7
100
AcDbCircle
 10
0.00040862043534
 20
-687.5540481085955
 30
0.0
 40
59.50050099999992
100
AcDbArc
 50
61.10745699999907
 51
73.89266000000146
  0
ARC
  5
244
330
60
100
AcDbEntity
  8
LC-001-002-----0
  6
Continuous
 62
     7
100
AcDbCircle
 10
0.00040862043534
 20
-687.5540481085955
 30
0.0
 40
63.00057100000047
100
AcDbArc
 50
61.04592399999994
 51
73.95418699999843
  0
ARC
  5
245
330
60
100
AcDbEntity
  8
LC-001-002-----0
  6
Continuous
 62
     7
100
AcDbCircle
 10
0.00040862043534
 20
-687.554455108595
 30
0.0
 40
75.00035700000028
100
AcDbArc
 50
60.878721000001
 51
74.1216080000005
  0
ARC
  5
246
330
60
100
AcDbEntity
  8
LC-001-002-----0
  6
Continuous
 62
     7
100
AcDbCircle
 10
0.00040862043534
 20
-687.554455108595
 30
0.0
 40
79.00004899999857
100
AcDbArc
 50
60.8342290000008
 51
74.16608300000124
  0
ARC
  5
247
330
60
100
AcDbEntity
  8
LC-001-002-----0
  6
Continuous
 62
     7
100
AcDbCircle
 10
0.00040862043534
 20
-687.554455108595
 30
0.0
 40
79.00004900000104
100
AcDbArc
 50
75.83424599999877
 51
89.16608899999859
  0
ARC
  5
248
330
60
100
AcDbEntity
  8
LC-001-002-----0
  6
Continuous
 62
     7
100
AcDbCircle
 10
0.00040862043534
 20
-687.554455108595
 30
0.0
 40
75.0003569999987
100
AcDbArc
 50
75.87873899999963
 51
89.1216140000001
  0
ARC
  5
249
330
60
100
AcDbEntity
  8
LC-001-002-----0
  6
Continuous
 62
     7
100
AcDbCircle
 10
0.00040862043534
 20
-687.5540481085955
 30
0.0
 40
59.50050099999928
100
AcDbArc
 50
91.10768299999926
 51
103.8928629999985
  0
ARC
  5
24A
330
60
100
AcDbEntity
  8
LC-001-002-----0
  6
Continuous
 62
     7
100
AcDbCircle
 10
0.00040862043534
 20
-687.5540481085955
 30
0.0
 40
63.00057100000027
100
AcDbArc
 50
91.04613699999946
 51
103.9543780000021
  0
ARC
  5
24B
330
60
100
AcDbEntity
  8
LC-001-002-----0
  6
Continuous
 62
     7
100
AcDbCircle
 10
0.00040862043534
 20
-687.554455108595
 30
0.0
 40
75.00035700000105
100
AcDbArc
 50
90.87874500000096
 51
104.1216080000015
  0
ARC
  5
24C
330
60
100
AcDbEntity
  8
LC-001-002-----0
  6
Continuous
 62
     7
100
AcDbCircle
 10
0.00040862043534
 20
-687.554455108595
 30
0.0
 40
79.00004899999874
100
AcDbArc
 50
90.83425199999867
 51
104.1660829999998
  0
ARC
  5
24D
330
60
100
AcDbEntity
  8
LC-001-002-----0
  6
Continuous
 62
     7
100
AcDbCircle
 10
0.00040862043534
 20
-687.554455108595
 30
0.0
 40
79.00004900000019
100
AcDbArc
 50
105.8342460000009
 51
119.1660660000005
  0
ARC
  5
24E
330
60
100
AcDbEntity
  8
LC-001-002-----0
  6
Continuous
 62
     7
100
AcDbCircle
 10
0.00040862043534
 20
-687.554455108595
 30
0.0
 40
75.00035699999866
100
AcDbArc
 50
105.8787389999992
 51
119.1215899999991
  0
ARC
  5
24F
330
60
100
AcDbEntity
  8
LC-001-002-----0
  6
Continuous
 62
     7
100
AcDbCircle
 10
0.00040862043534
 20
-687.5540481085955
 30
0.0
 40
59.50050100000082
100
AcDbArc
 50
106.1077769999996
 51
118.8929339999998
  0
ARC
  5
250
330
60
100
AcDbEntity
  8
LC-001-002-----0
  6
Continuous
 62
     7
100
AcDbCircle
 10
0.00040862043534
 20
-687.5540481085955
 30
0.0
 40
63.00057099999914
100
AcDbArc
 50
106.0462260000001
 51
118.954446000002
  0
ARC
  5
251
330
60
100
AcDbEntity
  8
LC-001-002-----0
  6
Continuous
 62
     7
100
AcDbCircle
 10
0.00040862043534
 20
-687.5540481085955
 30
0.0
 40
59.50050100000081
100
AcDbArc
 50
121.1078489999984
 51
133.8929800000002
  0
ARC
  5
252
330
60
100
AcDbEntity
  8
LC-001-002-----0
  6
Continuous
 62
     7
100
AcDbCircle
 10
0.00040862043534
 20
-687.5540481085955
 30
0.0
 40
63.00057100000068
100
AcDbArc
 50
121.0462940000005
 51
133.9544880000005
  0
ARC
  5
253
330
60
100
AcDbEntity
  8
LC-001-002-----0
  6
Continuous
 62
     7
100
AcDbCircle
 10
0.00040862043534
 20
-687.554455108595
 30
0.0
 40
75.00035700000012
100
AcDbArc
 50
120.8787209999988
 51
134.1215609999997
  0
ARC
  5
254
330
60
100
AcDbEntity
  8
LC-001-002-----0
  6
Continuous
 62
     7
100
AcDbCircle
 10
0.00040862043534
 20
-687.554455108595
 30
0.0
 40
79.00004900000029
100
AcDbArc
 50
120.8342290000011
 51
134.1660389999986
  0
ARC
  5
255
330
60
100
AcDbEntity
  8
LC-001-002-----0
  6
Continuous
 62
     7
100
AcDbCircle
 10
0.00040862043534
 20
-687.554455108595
 30
0.0
 40
79.00004899999874
100
AcDbArc
 50
135.8342019999999
 51
149.1660039999998
  0
ARC
  5
256
330
60
100
AcDbEntity
  8
LC-001-002-----0
  6
Continuous
 62
     7
100
AcDbCircle
 10
0.00040862043534
 20
-687.554455108595
 30
0.0
 40
75.00035699999934
100
AcDbArc
 50
135.8786920000017
 51
149.1215239999985
  0
ARC
  5
257
330
60
100
AcDbEntity
  8
LC-001-002-----0
  6
Continuous
 62
     7
100
AcDbCircle
 10
0.00040862043534
 20
-687.5540481085955
 30
0.0
 40
59.50050099999965
100
AcDbArc
 50
136.1078939999979
 51
148.8929950000003
  0
ARC
  5
258
330
60
100
AcDbEntity
  8
LC-001-002-----0
  6
Continuous
 62
     7
100
AcDbCircle
 10
0.00040862043534
 20
-687.5540481085955
 30
0.0
 40
63.00057100000017
100
AcDbArc
 50
136.0463359999989
 51
148.9545030000004
  0
ARC
  5
259
330
60
100
AcDbEntity
  8
LC-001-002-----0
  6
Continuous
 62
     7
100
AcDbCircle
 10
0.00040862043534
 20
-687.554455108595
 30
0.0
 40
79.00004900000086
100
AcDbArc
 50
150.8341670000005
 51
164.1659629999999
  0
ARC
  5
25A
330
60
100
AcDbEntity
  8
LC-001-002-----0
  6
Continuous
 62
     7
100
AcDbCircle
 10
0.00040862043534
 20
-687.554455108595
 30
0.0
 40
75.00035700000049
100
AcDbArc
 50
150.8786549999995
 51
164.1214810000013
  0
ARC
  5
25B
330
60
100
AcDbEntity
  8
LC-001-002-----0
  6
Continuous
 62
     7
100
AcDbCircle
 10
0.00040862043534
 20
-687.5540481085955
 30
0.0
 40
63.00057099999952
100
AcDbArc
 50
151.0463510000008
 51
163.9544880000007
  0
ARC
  5
25C
330
60
100
AcDbEntity
  8
LC-001-002-----0
  6
Continuous
 62
     7
100
AcDbCircle
 10
0.00040862043534
 20
-687.5540481085955
 30
0.0
 40
59.50050100000193
100
AcDbArc
 50
151.1079089999987
 51
163.8929799999978
  0
ARC
  5
25D
330
60
100
AcDbEntity
  8
LC-001-002-----0
  6
Continuous
 62
     7
100
AcDbCircle
 10
0.00040862043534
 20
-687.5540481085955
 30
0.0
 40
63.00057100000063
100
AcDbArc
 50
76.04603400000003
 51
88.95428999999852
  0
ARC
  5
25E
330
60
100
AcDbEntity
  8
LC-001-002-----0
  6
Continuous
 62
     7
100
AcDbCircle
 10
0.00040862043534
 20
-687.5540481085955
 30
0.0
 40
63.00057100000038
100
AcDbArc
 50
-58.95444600000197
 51
-46.04633599999885
  0
ARC
  5
25F
330
60
100
AcDbEntity
  8
LC-001-002-----0
  6
Continuous
 62
     7
100
AcDbCircle
 10
0.00017362043582
 20
-687.554455108595
 30
0.0
 40
57.90000000000146
100
AcDbArc
 50
166.1380740000005
 51
178.8619259999994
  0
ARC
  5
260
330
60
100
AcDbEntity
  8
LC-001-002-----0
  6
Continuous
 62
     7
100
AcDbCircle
 10
0.00017362043582
 20
-687.554455108595
 30
0.0
 40
56.19999999999951
100
AcDbArc
 50
166.1725039999991
 51
178.8274960000015
  0
ARC
  5
261
330
60
100
AcDbEntity
  8
LC-001-002-----0
  6
Continuous
 62
     7
100
AcDbCircle
 10
0.00017362043582
 20
-687.554455108595
 30
0.0
 40
57.90000000000016
100
AcDbArc
 50
-178.8619259999994
 51
-166.1380740000005
  0
ARC
  5
262
330
60
100
AcDbEntity
  8
LC-001-002-----0
  6
Continuous
 62
     7
100
AcDbCircle
 10
0.00017362043582
 20
-687.554455108595
 30
0.0
 40
56.20000000000017
100
AcDbArc
 50
-178.8274960000015
 51
-166.1725039999991
  0
ARC
  5
263
330
60
100
AcDbEntity
  8
LC-001-002-----0
  6
Continuous
 62
     7
100
AcDbCircle
 10
0.00017362043582
 20
-687.554455108595
 30
0.0
 40
57.90000000000004
100
AcDbArc
 50
-163.861925999998
 51
-151.1380739999989
  0
ARC
  5
264
330
60
100
AcDbEntity
  8
LC-001-002-----0
  6
Continuous
 62
     7
100
AcDbCircle
 10
0.00017362043582
 20
-687.554455108595
 30
0.0
 40
56.20000000000155
100
AcDbArc
 50
-163.8274960000012
 51
-151.1725040000006
  0
ARC
  5
265
330
60
100
AcDbEntity
  8
LC-001-002-----0
  6
Continuous
 62
     7
100
AcDbCircle
 10
0.00017362043582
 20
-687.554455108595
 30
0.0
 40
57.90000000000124
100
AcDbArc
 50
-148.8619259999983
 51
-136.138074
  0
ARC
  5
266
330
60
100
AcDbEntity
  8
LC-001-002-----0
  6
Continuous
 62
     7
100
AcDbCircle
 10
0.00017362043582
 20
-687.554455108595
 30
0.0
 40
56.20000000000123
100
AcDbArc
 50
-148.8274959999992
 51
-136.1725040000008
  0
ARC
  5
267
330
60
100
AcDbEntity
  8
LC-001-002-----0
  6
Continuous
 62
     7
100
AcDbCircle
 10
0.00017362043582
 20
-687.554455108595
 30
0.0
 40
57.89999999999949
100
AcDbArc
 50
-133.861926
 51
-121.1380740000017
  0
ARC
  5
268
330
60
100
AcDbEntity
  8
LC-001-002-----0
  6
Continuous
 62
     7
100
AcDbCircle
 10
0.00017362043582
 20
-687.554455108595
 30
0.0
 40
56.20000000000079
100
AcDbArc
 50
-133.8274959999993
 51
-121.1725040000008
  0
ARC
  5
269
330
60
100
AcDbEntity
  8
LC-001-002-----0
  6
Continuous
 62
     7
100
AcDbCircle
 10
0.00017362043582
 20
-687.554455108595
 30
0.0
 40
57.90000000000148
100
AcDbArc
 50
-118.8619260000011
 51
-106.138074000002
  0
ARC
  5
26A
330
60
100
AcDbEntity
  8
LC-001-002-----0
  6
Continuous
 62
     7
100
AcDbCircle
 10
0.00017362043582
 20
-687.554455108595
 30
0.0
 40
56.19999999999881
100
AcDbArc
 50
-118.8274959999994
 51
-106.1725039999998
  0
ARC
  5
26B
330
60
100
AcDbEntity
  8
LC-001-002-----0
  6
Continuous
 62
     7
100
AcDbCircle
 10
0.00017362043582
 20
-687.554455108595
 30
0.0
 40
57.90000000000146
100
AcDbArc
 50
-103.8619259999995
 51
-91.13807400000056
  0
ARC
  5
26C
330
60
100
AcDbEntity
  8
LC-001-002-----0
  6
Continuous
 62
     7
100
AcDbCircle
 10
0.00017362043582
 20
-687.554455108595
 30
0.0
 40
56.19999999999951
100
AcDbArc
 50
-103.8274960000009
 51
-91.17250399999854
  0
ARC
  5
26D
330
60
100
AcDbEntity
  8
LC-001-002-----0
  6
Continuous
 62
     7
100
AcDbCircle
 10
0.00017362043582
 20
-687.554455108595
 30
0.0
 40
57.90000000000016
100
AcDbArc
 50
-88.86192599999944
 51
-76.13807400000053
  0
ARC
  5
26E
330
60
100
AcDbEntity
  8
LC-001-002-----0
  6
Continuous
 62
     7
100
AcDbCircle
 10
0.00017362043582
 20
-687.554455108595
 30
0.0
 40
56.20000000000017
100
AcDbArc
 50
-88.82749600000146
 51
-76.17250399999912
  0
ARC
  5
26F
330
60
100
AcDbEntity
  8
LC-001-002-----0
  6
Continuous
 62
     7
100
AcDbCircle
 10
0.00017362043582
 20
-687.554455108595
 30
0.0
 40
56.19999999999805
100
AcDbArc
 50
-73.82749600000017
 51
-61.1725040000006
  0
ARC
  5
270
330
60
100
AcDbEntity
  8
LC-001-002-----0
  6
Continuous
 62
     7
100
AcDbCircle
 10
0.00017362043582
 20
-687.554455108595
 30
0.0
 40
57.89999999999904
100
AcDbArc
 50
-73.86192600000149
 51
-61.13807400000204
  0
ARC
  5
271
330
60
100
AcDbEntity
  8
LC-001-002-----0
  6
Continuous
 62
     7
100
AcDbCircle
 10
0.00017362043582
 20
-687.554455108595
 30
0.0
 40
56.19999999999934
100
AcDbArc
 50
-58.82749600000241
 51
-46.17250400000076
  0
ARC
  5
272
330
60
100
AcDbEntity
  8
LC-001-002-----0
  6
Continuous
 62
     7
100
AcDbCircle
 10
0.00017362043582
 20
-687.554455108595
 30
0.0
 40
57.89999999999936
100
AcDbArc
 50
-58.86192600000141
 51
-46.13807400000002
  0
ARC
  5
273
330
60
100
AcDbEntity
  8
LC-001-002-----0
  6
Continuous
 62
     7
100
AcDbCircle
 10
0.00017362043582
 20
-687.554455108595
 30
0.0
 40
56.20000000000079
100
AcDbArc
 50
-43.82749599999924
 51
-31.17250400000077
  0
ARC
  5
274
330
60
100
AcDbEntity
  8
LC-001-002-----0
  6
Continuous
 62
     7
100
AcDbCircle
 10
0.00017362043582
 20
-687.554455108595
 30
0.0
 40
57.89999999999949
100
AcDbArc
 50
-43.86192599999998
 51
-31.13807400000168
  0
ARC
  5
275
330
60
100
AcDbEntity
  8
LC-001-002-----0
  6
Continuous
 62
     7
100
AcDbCircle
 10
0.00017362043582
 20
-687.554455108595
 30
0.0
 40
56.19999999999881
100
AcDbArc
 50
-28.82749599999941
 51
-16.17250399999984
  0
ARC
  5
276
330
60
100
AcDbEntity
  8
LC-001-002-----0
  6
Continuous
 62
     7
100
AcDbCircle
 10
0.00017362043582
 20
-687.554455108595
 30
0.0
 40
57.90000000000148
100
AcDbArc
 50
-28.86192600000111
 51
-16.13807400000196
  0
ARC
  5
277
330
60
100
AcDbEntity
  8
LC-001-002-----0
  6
Continuous
 62
     7
100
AcDbCircle
 10
0.00017362043582
 20
-687.554455108595
 30
0.0
 40
57.89999999999792
100
AcDbArc
 50
-13.86192600000035
 51
-1.13807400000056
  0
ARC
  5
278
330
60
100
AcDbEntity
  8
LC-001-002-----0
  6
Continuous
 62
     7
100
AcDbCircle
 10
0.00017362043582
 20
-687.554455108595
 30
0.0
 40
56.19999999999951
100
AcDbArc
 50
-13.82749600000089
 51
-1.17250399999854
  0
ARC
  5
279
330
60
100
AcDbEntity
  8
LC-001-002-----0
  6
Continuous
 62
     7
100
AcDbCircle
 10
0.00017362043582
 20
-687.554455108595
 30
0.0
 40
56.20000000000016
100
AcDbArc
 50
1.17250399999854
 51
13.82749600000089
  0
ARC
  5
27A
330
60
100
AcDbEntity
  8
LC-001-002-----0
  6
Continuous
 62
     7
100
AcDbCircle
 10
0.00017362043582
 20
-687.554455108595
 30
0.0
 40
57.90000000000017
100
AcDbArc
 50
1.13807400000056
 51
13.86192600000035
  0
ARC
  5
27B
330
60
100
AcDbEntity
  8
LC-001-002-----0
  6
Continuous
 62
     7
100
AcDbCircle
 10
0.00017362043582
 20
-687.554455108595
 30
0.0
 40
56.19999999999805
100
AcDbArc
 50
16.17250399999984
 51
28.82749599999941
  0
ARC
  5
27C
330
60
100
AcDbEntity
  8
LC-001-002-----0
  6
Continuous
 62
     7
100
AcDbCircle
 10
0.00017362043582
 20
-687.554455108595
 30
0.0
 40
57.90000000000005
100
AcDbArc
 50
16.13807400000196
 51
28.86192599999796
  0
ARC
  5
27D
330
60
100
AcDbEntity
  8
LC-001-002-----0
  6
Continuous
 62
     7
100
AcDbCircle
 10
0.00017362043582
 20
-687.554455108595
 30
0.0
 40
56.20000000000123
100
AcDbArc
 50
31.17250400000077
 51
43.82749599999924
  0
ARC
  5
27E
330
60
100
AcDbEntity
  8
LC-001-002-----0
  6
Continuous
 62
     7
100
AcDbCircle
 10
0.00017362043582
 20
-687.554455108595
 30
0.0
 40
57.90000000000124
100
AcDbArc
 50
31.13807400000168
 51
43.86192599999998
  0
ARC
  5
27F
330
60
100
AcDbEntity
  8
LC-001-002-----0
  6
Continuous
 62
     7
100
AcDbCircle
 10
0.00017362043582
 20
-687.554455108595
 30
0.0
 40
56.20000000000078
100
AcDbArc
 50
46.17250400000076
 51
58.82749600000241
  0
ARC
  5
280
330
60
100
AcDbEntity
  8
LC-001-002-----0
  6
Continuous
 62
     7
100
AcDbCircle
 10
0.00040862043534
 20
-687.554455108595
 30
0.0
 40
75.00035700000117
100
AcDbArc
 50
-74.1216080000005
 51
-60.878721000001
  0
ARC
  5
281
330
60
100
AcDbEntity
  8
LC-001-002-----0
  6
Continuous
 62
     7
100
AcDbCircle
 10
0.00040862043534
 20
-687.554455108595
 30
0.0
 40
79.0000489999996
100
AcDbArc
 50
-14.16596300000062
 51
-0.83408099999965
  0
ARC
  5
282
330
60
100
AcDbEntity
  8
LC-001-002-----0
  6
Continuous
 62
     7
100
AcDbCircle
 10
0.00017362043582
 20
-687.554455108595
 30
0.0
 40
57.89999999999949
100
AcDbArc
 50
46.13807400000002
 51
58.03764999999875
  0
ARC
  5
283
330
60
100
AcDbEntity
  8
LC-001-002-----0
  6
Continuous
 62
     7
100
AcDbCircle
 10
0.00017362043582
 20
-687.554455108595
 30
0.0
 40
56.19999999999881
100
AcDbArc
 50
61.1725040000006
 51
73.82749600000017
  0
ARC
  5
284
330
60
100
AcDbEntity
  8
LC-001-002-----0
  6
Continuous
 62
     7
100
AcDbCircle
 10
0.00017362043582
 20
-687.554455108595
 30
0.0
 40
57.89999999999972
100
AcDbArc
 50
61.13807400000204
 51
73.86192600000149
  0
ARC
  5
285
330
60
100
AcDbEntity
  8
LC-001-002-----0
  6
Continuous
 62
     7
100
AcDbCircle
 10
0.00017362043582
 20
-687.554455108595
 30
0.0
 40
57.90000000000146
100
AcDbArc
 50
76.13807400000053
 51
88.86192599999944
  0
ARC
  5
286
330
60
100
AcDbEntity
  8
LC-001-002-----0
  6
Continuous
 62
     7
100
AcDbCircle
 10
0.00017362043582
 20
-687.554455108595
 30
0.0
 40
56.19999999999951
100
AcDbArc
 50
76.17250399999912
 51
88.82749600000146
  0
ARC
  5
287
330
60
100
AcDbEntity
  8
LC-001-002-----0
  6
Continuous
 62
     7
100
AcDbCircle
 10
0.00017362043582
 20
-687.554455108595
 30
0.0
 40
57.90000000000016
100
AcDbArc
 50
91.13807400000056
 51
103.8619259999995
  0
ARC
  5
288
330
60
100
AcDbEntity
  8
LC-001-002-----0
  6
Continuous
 62
     7
100
AcDbCircle
 10
0.00017362043582
 20
-687.554455108595
 30
0.0
 40
56.20000000000017
100
AcDbArc
 50
91.17250399999854
 51
103.8274960000009
  0
ARC
  5
289
330
60
100
AcDbEntity
  8
LC-001-002-----0
  6
Continuous
 62
     7
100
AcDbCircle
 10
0.00017362043582
 20
-687.554455108595
 30
0.0
 40
57.90000000000005
100
AcDbArc
 50
106.138074000002
 51
118.8619260000011
  0
ARC
  5
28A
330
60
100
AcDbEntity
  8
LC-001-002-----0
  6
Continuous
 62
     7
100
AcDbCircle
 10
0.00017362043582
 20
-687.554455108595
 30
0.0
 40
56.19999999999805
100
AcDbArc
 50
106.1725039999998
 51
118.8274959999994
  0
ARC
  5
28B
330
60
100
AcDbEntity
  8
LC-001-002-----0
  6
Continuous
 62
     7
100
AcDbCircle
 10
0.00017362043582
 20
-687.554455108595
 30
0.0
 40
57.90000000000124
100
AcDbArc
 50
121.1380740000017
 51
133.861926
  0
ARC
  5
28C
330
60
100
AcDbEntity
  8
LC-001-002-----0
  6
Continuous
 62
     7
100
AcDbCircle
 10
0.00017362043582
 20
-687.554455108595
 30
0.0
 40
56.20000000000122
100
AcDbArc
 50
121.1725040000008
 51
133.8274959999993
  0
ARC
  5
28D
330
60
100
AcDbEntity
  8
LC-001-002-----0
  6
Continuous
 62
     7
100
AcDbCircle
 10
0.00017362043582
 20
-687.554455108595
 30
0.0
 40
57.89999999999949
100
AcDbArc
 50
136.138074
 51
148.8619259999983
  0
ARC
  5
28E
330
60
100
AcDbEntity
  8
LC-001-002-----0
  6
Continuous
 62
     7
100
AcDbCircle
 10
0.00017362043582
 20
-687.554455108595
 30
0.0
 40
56.20000000000079
100
AcDbArc
 50
136.1725040000008
 51
148.8274959999992
  0
ARC
  5
28F
330
60
100
AcDbEntity
  8
LC-001-002-----0
  6
Continuous
 62
     7
100
AcDbCircle
 10
0.00017362043582
 20
-687.554455108595
 30
0.0
 40
57.89999999999972
100
AcDbArc
 50
151.138074000002
 51
163.861925999998
  0
ARC
  5
290
330
60
100
AcDbEntity
  8
LC-001-002-----0
  6
Continuous
 62
     7
100
AcDbCircle
 10
0.00017362043582
 20
-687.554455108595
 30
0.0
 40
56.19999999999881
100
AcDbArc
 50
151.1725040000006
 51
163.8274960000012
  0
ARC
  5
291
330
60
100
AcDbEntity
  8
LC-001-002-----0
  6
Continuous
 62
     7
100
AcDbCircle
 10
0.00017362043582
 20
-687.554455108595
 30
0.0
 40
70.50000000000071
100
AcDbArc
 50
-164.0653469999999
 51
-150.9346529999987
  0
ARC
  5
292
330
60
100
AcDbEntity
  8
LC-001-002-----0
  6
Continuous
 62
     7
100
AcDbCircle
 10
0.00017362043582
 20
-687.554455108595
 30
0.0
 40
73.00000000000036
100
AcDbArc
 50
-164.0973579999998
 51
-150.9026420000011
  0
ARC
  5
293
330
60
100
AcDbEntity
  8
LC-001-002-----0
  6
Continuous
 62
     7
100
AcDbCircle
 10
0.00017362043582
 20
-687.554455108595
 30
0.0
 40
70.50000000000136
100
AcDbArc
 50
-179.0653469999995
 51
-165.934652999999
  0
ARC
  5
294
330
60
100
AcDbEntity
  8
LC-001-002-----0
  6
Continuous
 62
     7
100
AcDbCircle
 10
0.00017362043582
 20
-687.554455108595
 30
0.0
 40
73.00000000000173
100
AcDbArc
 50
-179.097358000001
 51
-165.9026419999987
  0
ARC
  5
295
330
60
100
AcDbEntity
  8
LC-001-002-----0
  6
Continuous
 62
     7
100
AcDbCircle
 10
0.00017362043582
 20
-687.554455108595
 30
0.0
 40
73.00000000000111
100
AcDbArc
 50
-149.0973580000011
 51
-135.902642000001
  0
ARC
  5
296
330
60
100
AcDbEntity
  8
LC-001-002-----0
  6
Continuous
 62
     7
100
AcDbCircle
 10
0.00017362043582
 20
-687.554455108595
 30
0.0
 40
70.49999999999875
100
AcDbArc
 50
-149.0653469999993
 51
-135.9346529999994
  0
ARC
  5
297
330
60
100
AcDbEntity
  8
LC-001-002-----0
  6
Continuous
 62
     7
100
AcDbCircle
 10
0.00017362043582
 20
-687.554455108595
 30
0.0
 40
72.99999999999895
100
AcDbArc
 50
-134.097358000001
 51
-120.9026420000004
  0
ARC
  5
298
330
60
100
AcDbEntity
  8
LC-001-002-----0
  6
Continuous
 62
     7
100
AcDbCircle
 10
0.00017362043582
 20
-687.554455108595
 30
0.0
 40
70.49999999999962
100
AcDbArc
 50
-134.0653470000006
 51
-120.9346530000007
  0
ARC
  5
299
330
60
100
AcDbEntity
  8
LC-001-002-----0
  6
Continuous
 62
     7
100
AcDbCircle
 10
0.00017362043582
 20
-687.554455108595
 30
0.0
 40
72.99999999999977
100
AcDbArc
 50
-119.097357999999
 51
-105.9026420000002
  0
ARC
  5
29A
330
60
100
AcDbEntity
  8
LC-001-002-----0
  6
Continuous
 62
     7
100
AcDbCircle
 10
0.00017362043582
 20
-687.554455108595
 30
0.0
 40
70.49999999999979
100
AcDbArc
 50
-119.0653470000012
 51
-105.9346530000001
  0
ARC
  5
29B
330
60
100
AcDbEntity
  8
LC-001-002-----0
  6
Continuous
 62
     7
100
AcDbCircle
 10
0.00017362043582
 20
-687.554455108595
 30
0.0
 40
72.9999999999981
100
AcDbArc
 50
-89.09735800000092
 51
-75.90264200000144
  0
ARC
  5
29C
330
60
100
AcDbEntity
  8
LC-001-002-----0
  6
Continuous
 62
     7
100
AcDbCircle
 10
0.00017362043582
 20
-687.554455108595
 30
0.0
 40
70.50000000000136
100
AcDbArc
 50
-89.06534699999953
 51
-75.93465299999899
  0
ARC
  5
29D
330
60
100
AcDbEntity
  8
LC-001-002-----0
  6
Continuous
 62
     7
100
AcDbCircle
 10
0.00017362043582
 20
-687.554455108595
 30
0.0
 40
73.00000000000036
100
AcDbArc
 50
-74.09735799999977
 51
-60.90264200000104
  0
ARC
  5
29E
330
60
100
AcDbEntity
  8
LC-001-002-----0
  6
Continuous
 62
     7
100
AcDbCircle
 10
0.00017362043582
 20
-687.554455108595
 30
0.0
 40
70.50000000000071
100
AcDbArc
 50
-74.06534699999989
 51
-60.93465299999875
  0
ARC
  5
29F
330
60
100
AcDbEntity
  8
LC-001-002-----0
  6
Continuous
 62
     7
100
AcDbCircle
 10
0.00017362043582
 20
-687.554455108595
 30
0.0
 40
72.99999999999798
100
AcDbArc
 50
-59.0973579999996
 51
-45.90264199999902
  0
ARC
  5
2A0
330
60
100
AcDbEntity
  8
LC-001-002-----0
  6
Continuous
 62
     7
100
AcDbCircle
 10
0.00017362043582
 20
-687.554455108595
 30
0.0
 40
70.49999999999874
100
AcDbArc
 50
-59.06534699999928
 51
-45.93465299999941
  0
ARC
  5
2A1
330
60
100
AcDbEntity
  8
LC-001-002-----0
  6
Continuous
 62
     7
100
AcDbCircle
 10
0.00017362043582
 20
-687.554455108595
 30
0.0
 40
72.99999999999895
100
AcDbArc
 50
-44.09735800000098
 51
-30.9026420000004
  0
ARC
  5
2A2
330
60
100
AcDbEntity
  8
LC-001-002-----0
  6
Continuous
 62
     7
100
AcDbCircle
 10
0.00017362043582
 20
-687.554455108595
 30
0.0
 40
70.49999999999962
100
AcDbArc
 50
-44.0653470000006
 51
-30.93465300000073
  0
ARC
  5
2A3
330
60
100
AcDbEntity
  8
LC-001-002-----0
  6
Continuous
 62
     7
100
AcDbCircle
 10
0.00017362043582
 20
-687.554455108595
 30
0.0
 40
72.99999999999977
100
AcDbArc
 50
-29.09735799999895
 51
-15.90264200000022
  0
ARC
  5
2A4
330
60
100
AcDbEntity
  8
LC-001-002-----0
  6
Continuous
 62
     7
100
AcDbCircle
 10
0.00017362043582
 20
-687.554455108595
 30
0.0
 40
70.49999999999979
100
AcDbArc
 50
-29.06534700000125
 51
-15.93465300000012
  0
ARC
  5
2A5
330
60
100
AcDbEntity
  8
LC-001-002-----0
  6
Continuous
 62
     7
100
AcDbCircle
 10
0.00017362043582
 20
-687.554455108595
 30
0.0
 40
72.9999999999981
100
AcDbArc
 50
0.90264199999909
 51
14.09735800000133
  0
ARC
  5
2A6
330
60
100
AcDbEntity
  8
LC-001-002-----0
  6
Continuous
 62
     7
100
AcDbCircle
 10
0.00017362043582
 20
-687.554455108595
 30
0.0
 40
70.50000000000136
100
AcDbArc
 50
0.93465300000046
 51
14.06534700000101
  0
ARC
  5
2A7
330
60
100
AcDbEntity
  8
LC-001-002-----0
  6
Continuous
 62
     7
100
AcDbCircle
 10
0.00017362043582
 20
-687.554455108595
 30
0.0
 40
73.00000000000036
100
AcDbArc
 50
15.90264200000022
 51
29.09735799999895
  0
ARC
  5
2A8
330
60
100
AcDbEntity
  8
LC-001-002-----0
  6
Continuous
 62
     7
100
AcDbCircle
 10
0.00017362043582
 20
-687.554455108595
 30
0.0
 40
70.50000000000071
100
AcDbArc
 50
15.93465300000012
 51
29.06534700000125
  0
ARC
  5
2A9
330
60
100
AcDbEntity
  8
LC-001-002-----0
  6
Continuous
 62
     7
100
AcDbCircle
 10
0.00017362043582
 20
-687.554455108595
 30
0.0
 40
72.99999999999798
100
AcDbArc
 50
30.9026420000004
 51
44.09735800000098
  0
ARC
  5
2AA
330
60
100
AcDbEntity
  8
LC-001-002-----0
  6
Continuous
 62
     7
100
AcDbCircle
 10
0.00017362043582
 20
-687.554455108595
 30
0.0
 40
72.99999999999895
100
AcDbArc
 50
45.90264199999902
 51
59.0973579999996
  0
ARC
  5
2AB
330
60
100
AcDbEntity
  8
LC-001-002-----0
  6
Continuous
 62
     7
100
AcDbCircle
 10
0.00017362043582
 20
-687.554455108595
 30
0.0
 40
72.99999999999977
100
AcDbArc
 50
60.90264200000104
 51
74.09735799999977
  0
ARC
  5
2AC
330
60
100
AcDbEntity
  8
LC-001-002-----0
  6
Continuous
 62
     7
100
AcDbCircle
 10
0.00017362043582
 20
-687.554455108595
 30
0.0
 40
70.49999999999874
100
AcDbArc
 50
30.93465300000073
 51
44.0653470000006
  0
ARC
  5
2AD
330
60
100
AcDbEntity
  8
LC-001-002-----0
  6
Continuous
 62
     7
100
AcDbCircle
 10
0.00017362043582
 20
-687.554455108595
 30
0.0
 40
70.49999999999962
100
AcDbArc
 50
45.93465299999941
 51
59.06534699999928
  0
ARC
  5
2AE
330
60
100
AcDbEntity
  8
LC-001-002-----0
  6
Continuous
 62
     7
100
AcDbCircle
 10
0.00017362043582
 20
-687.554455108595
 30
0.0
 40
70.49999999999977
100
AcDbArc
 50
60.93465299999875
 51
74.06534699999989
  0
ARC
  5
2AF
330
60
100
AcDbEntity
  8
LC-001-002-----0
  6
Continuous
 62
     7
100
AcDbCircle
 10
0.00017362043582
 20
-687.554455108595
 30
0.0
 40
72.9999999999981
100
AcDbArc
 50
90.90264199999909
 51
104.0973580000013
  0
ARC
  5
2B0
330
60
100
AcDbEntity
  8
LC-001-002-----0
  6
Continuous
 62
     7
100
AcDbCircle
 10
0.00017362043582
 20
-687.554455108595
 30
0.0
 40
70.50000000000136
100
AcDbArc
 50
90.93465300000047
 51
104.065347000001
  0
ARC
  5
2B1
330
60
100
AcDbEntity
  8
LC-001-002-----0
  6
Continuous
 62
     7
100
AcDbCircle
 10
0.00017362043582
 20
-687.554455108595
 30
0.0
 40
73.00000000000036
100
AcDbArc
 50
105.9026420000002
 51
119.097357999999
  0
ARC
  5
2B2
330
60
100
AcDbEntity
  8
LC-001-002-----0
  6
Continuous
 62
     7
100
AcDbCircle
 10
0.00017362043582
 20
-687.554455108595
 30
0.0
 40
70.50000000000071
100
AcDbArc
 50
105.9346530000001
 51
119.0653470000012
  0
ARC
  5
2B3
330
60
100
AcDbEntity
  8
LC-001-002-----0
  6
Continuous
 62
     7
100
AcDbCircle
 10
0.00017362043582
 20
-687.554455108595
 30
0.0
 40
72.99999999999798
100
AcDbArc
 50
120.9026420000004
 51
134.097358000001
  0
ARC
  5
2B4
330
60
100
AcDbEntity
  8
LC-001-002-----0
  6
Continuous
 62
     7
100
AcDbCircle
 10
0.00017362043582
 20
-687.554455108595
 30
0.0
 40
70.49999999999875
100
AcDbArc
 50
120.9346530000007
 51
134.0653470000006
  0
ARC
  5
2B5
330
60
100
AcDbEntity
  8
LC-001-002-----0
  6
Continuous
 62
     7
100
AcDbCircle
 10
0.00017362043582
 20
-687.554455108595
 30
0.0
 40
73.00000000000156
100
AcDbArc
 50
135.902642000001
 51
149.0973580000011
  0
ARC
  5
2B6
330
60
100
AcDbEntity
  8
LC-001-002-----0
  6
Continuous
 62
     7
100
AcDbCircle
 10
0.00017362043582
 20
-687.554455108595
 30
0.0
 40
70.49999999999962
100
AcDbArc
 50
135.9346529999994
 51
149.0653469999993
  0
ARC
  5
2B7
330
60
100
AcDbEntity
  8
LC-001-002-----0
  6
Continuous
 62
     7
100
AcDbCircle
 10
0.00017362043582
 20
-687.554455108595
 30
0.0
 40
70.49999999999979
100
AcDbArc
 50
150.9346529999987
 51
164.0653469999999
  0
ARC
  5
2B8
330
60
100
AcDbEntity
  8
LC-001-002-----0
  6
Continuous
 62
     7
100
AcDbCircle
 10
0.00017362043582
 20
-687.554455108595
 30
0.0
 40
72.99999999999977
100
AcDbArc
 50
150.9026420000011
 51
164.0973579999998
  0
ARC
  5
2B9
330
60
100
AcDbEntity
  8
LC-001-002-----0
  6
Continuous
 62
     7
100
AcDbCircle
 10
0.00040862043534
 20
-687.5540481085955
 30
0.0
 40
59.50050100000049
100
AcDbArc
 50
-103.8926600000006
 51
-91.10768299999926
  0
ARC
  5
2BA
330
60
100
AcDbEntity
  8
LC-001-002-----0
  6
Continuous
 62
     7
100
AcDbCircle
 10
0.00040862043534
 20
-687.554455108595
 30
0.0
 40
75.00035699999881
100
AcDbArc
 50
-104.1216080000015
 51
-90.87874500000096
  0
ARC
  5
2BB
330
60
100
AcDbEntity
  8
LC-001-002-----0
  6
Continuous
 62
     7
100
AcDbCircle
 10
0.00040862043534
 20
-687.5540481085955
 30
0.0
 40
63.00057099999933
100
AcDbArc
 50
166.0463360000009
 51
178.9544459999995
  0
ARC
  5
2BC
330
60
100
AcDbEntity
  8
LC-001-002-----0
  6
Continuous
 62
     7
100
AcDbCircle
 10
0.00040862043534
 20
-687.5540481085955
 30
0.0
 40
59.5005009999993
100
AcDbArc
 50
-58.89293400000043
 51
-46.10789399999792
  0
ARC
  5
2BD
330
60
100
AcDbEntity
  8
LC-001-002-----0
  6
Continuous
 62
     7
100
AcDbCircle
 10
0.00040862043534
 20
-687.554455108595
 30
0.0
 40
79.00004900000012
100
AcDbArc
 50
-134.1660389999986
 51
-120.8342290000011
  0
ARC
  5
2BE
330
60
100
AcDbEntity
  8
LC-001-002-----0
  6
Continuous
 62
     7
100
AcDbCircle
 10
0.00017362043582
 20
-687.554455108595
 30
0.0
 40
73.00000000000097
100
AcDbArc
 50
-14.09735800000133
 51
-0.90264199999909
  0
ARC
  5
2BF
330
60
100
AcDbEntity
  8
LC-001-002-----0
  6
Continuous
 62
     7
100
AcDbCircle
 10
0.00017362043582
 20
-687.554455108595
 30
0.0
 40
70.50000000000092
100
AcDbArc
 50
-14.06534700000101
 51
-0.93465300000046
  0
ARC
  5
2C0
330
60
100
AcDbEntity
  8
LC-001-002-----0
  6
Continuous
 62
     7
100
AcDbCircle
 10
0.00017362043582
 20
-687.554455108595
 30
0.0
 40
73.00000000000097
100
AcDbArc
 50
-104.0973580000013
 51
-90.90264199999909
  0
ARC
  5
2C1
330
60
100
AcDbEntity
  8
LC-001-002-----0
  6
Continuous
 62
     7
100
AcDbCircle
 10
0.00017362043582
 20
-687.554455108595
 30
0.0
 40
70.50000000000092
100
AcDbArc
 50
-104.065347000001
 51
-90.93465300000047
  0
ARC
  5
2C2
330
60
100
AcDbEntity
  8
LC-001-002-----0
  6
Continuous
 62
     7
100
AcDbCircle
 10
0.00017362043582
 20
-687.554455108595
 30
0.0
 40
73.90000000000043
100
AcDbArc
 50
-99.18804599999922
 51
-90.89164799999892
  0
ARC
  5
2C3
330
60
100
AcDbEntity
  8
LC-001-002-----0
  6
Continuous
 62
     7
100
AcDbCircle
 10
0.00040862043534
 20
-687.554455108595
 30
0.0
 40
75.00035700000073
100
AcDbArc
 50
165.8786119999988
 51
179.1214339999993
  0
ARC
  5
2C4
330
60
100
AcDbEntity
  8
LC-001-002-----0
  6
Continuous
 62
     7
100
AcDbCircle
 10
0.00017362043582
 20
-687.554455108595
 30
0.0
 40
73.90000000000168
100
AcDbArc
 50
-89.10835200000108
 51
-80.8119540000008
  0
ARC
  5
2C5
330
60
100
AcDbEntity
  8
LC-001-002-----0
  6
Continuous
 62
     7
100
AcDbCircle
 10
0.00040862043534
 20
-687.554455108595
 30
0.0
 40
79.00004899999966
100
AcDbArc
 50
-104.1660829999998
 51
-90.83425199999867
  0
ARC
  5
2C6
330
60
100
AcDbEntity
  8
LC-001-002-----0
  6
Continuous
 62
     7
100
AcDbCircle
 10
0.00017362043582
 20
-687.554455108595
 30
0.0
 40
73.90000000000043
100
AcDbArc
 50
-9.18804599999921
 51
-0.89164799999897
  0
ARC
  5
2C7
330
60
100
AcDbEntity
  8
LC-001-002-----0
  6
Continuous
 62
     7
100
AcDbCircle
 10
0.00040862043534
 20
-687.554455108595
 30
0.0
 40
79.00004900000067
100
AcDbArc
 50
165.8341250000002
 51
179.1659190000003
  0
ARC
  5
2C8
330
60
100
AcDbEntity
  8
LC-001-002-----0
  6
Continuous
 62
     7
100
AcDbCircle
 10
0.00017362043582
 20
-687.554455108595
 30
0.0
 40
73.89999999999803
100
AcDbArc
 50
0.89164799999897
 51
9.18804599999921
  0
ARC
  5
2C9
330
60
100
AcDbEntity
  8
LC-001-002-----0
  6
Continuous
 62
     7
100
AcDbCircle
 10
0.00017362043582
 20
-687.554455108595
 30
0.0
 40
73.90000000000043
100
AcDbArc
 50
80.8119540000008
 51
89.10835200000108
  0
ARC
  5
2CA
330
60
100
AcDbEntity
  8
LC-001-002-----0
  6
Continuous
 62
     7
100
AcDbCircle
 10
0.00040862043534
 20
-687.5540481085955
 30
0.0
 40
59.5005010000021
100
AcDbArc
 50
76.1075740000008
 51
88.89276899999922
  0
ARC
  5
2CB
330
60
100
AcDbEntity
  8
LC-001-002-----0
  6
Continuous
 62
     7
100
AcDbCircle
 10
0.00017362043582
 20
-687.554455108595
 30
0.0
 40
73.90000000000168
100
AcDbArc
 50
90.89164799999892
 51
99.18804599999922
  0
ARC
  5
2CC
330
60
100
AcDbEntity
  8
LC-001-002-----0
  6
Continuous
 62
     7
100
AcDbCircle
 10
0.00040862043534
 20
-687.5540481085955
 30
0.0
 40
59.50050099999905
100
AcDbArc
 50
166.107893999998
 51
178.8929339999979
  0
ARC
  5
2CD
330
60
100
AcDbEntity
  8
LC-001-002-----0
  6
Continuous
 62
     7
100
AcDbCircle
 10
0.00017362043582
 20
-687.554455108595
 30
0.0
 40
73.90000000000043
100
AcDbArc
 50
170.8119540000008
 51
179.1083520000011
  0
ARC
  5
2CE
330
60
100
AcDbEntity
  8
LC-001-002-----0
  6
Continuous
 62
     7
100
AcDbCircle
 10
0.00017362043582
 20
-687.554455108595
 30
0.0
 40
70.50000000000092
100
AcDbArc
 50
75.93465299999899
 51
89.06534699999953
  0
ARC
  5
2CF
330
60
100
AcDbEntity
  8
LC-001-002-----0
  6
Continuous
 62
     7
100
AcDbCircle
 10
0.00017362043582
 20
-687.554455108595
 30
0.0
 40
73.00000000000009
100
AcDbArc
 50
75.90264200000144
 51
89.09735800000092
  0
ARC
  5
2D0
330
60
100
AcDbEntity
  8
LC-001-002-----0
  6
Continuous
 62
     7
100
AcDbCircle
 10
0.00017362043582
 20
-687.554455108595
 30
0.0
 40
73.00000000000097
100
AcDbArc
 50
165.9026419999987
 51
179.097358000001
  0
ARC
  5
2D1
330
60
100
AcDbEntity
  8
LC-001-002-----0
  6
Continuous
 62
     7
100
AcDbCircle
 10
0.00017362043582
 20
-687.554455108595
 30
0.0
 40
73.90000000000168
100
AcDbArc
 50
-179.1083520000011
 51
-170.8119540000008
  0
ARC
  5
2D2
330
60
100
AcDbEntity
  8
LC-001-002-----0
  6
Continuous
 62
     7
100
AcDbCircle
 10
0.00017362043582
 20
-687.554455108595
 30
0.0
 40
70.50000000000092
100
AcDbArc
 50
165.934652999999
 51
179.0653469999995
  0
ARC
  5
2D3
330
60
100
AcDbEntity
  8
LC-002-002-RND-0
  6
Continuous
 62
     7
100
AcDbCircle
 10
1.20017362043654
 20
-696.5383241085947
 30
0.0
 40
0.9999999999999998
100
AcDbArc
 50
0.0
 51
90.0
  0
ARC
  5
2D4
330
60
100
AcDbEntity
  8
LC-002-002-RND-0
  6
Continuous
 62
     7
100
AcDbCircle
 10
-1.19982637956491
 20
-696.5383241085947
 30
0.0
 40
1.0
100
AcDbArc
 50
90.0
 51
180.0
  0
ARC
  5
2D5
330
60
100
AcDbEntity
  8
LC-002-002-RND-0
  6
Continuous
 62
     7
100
AcDbCircle
 10
-1.19982637956491
 20
-720.5383241085947
 30
0.0
 40
1.0
100
AcDbArc
 50
180.0
 51
-90.0
  0
ARC
  5
2D6
330
60
100
AcDbEntity
  8
LC-002-002-RND-0
  6
Continuous
 62
     7
100
AcDbCircle
 10
1.20017362043654
 20
-720.5383241085947
 30
0.0
 40
1.0
100
AcDbArc
 50
-90.0
 51
0.0
  0
ARC
  5
2D7
330
60
100
AcDbEntity
  8
LC-002-002-RND-0
  6
Continuous
 62
     7
100
AcDbCircle
 10
1.20017362043654
 20
-678.5705861085953
 30
0.0
 40
1.0
100
AcDbArc
 50
-90.0
 51
0.0
  0
ARC
  5
2D8
330
60
100
AcDbEntity
  8
LC-002-002-RND-0
  6
Continuous
 62
     7
100
AcDbCircle
 10
-1.19982637956491
 20
-678.5705861085953
 30
0.0
 40
1.0
100
AcDbArc
 50
180.0
 51
-90.0
  0
ARC
  5
2D9
330
60
100
AcDbEntity
  8
LC-002-002-RND-0
  6
Continuous
 62
     7
100
AcDbCircle
 10
-1.19982637956491
 20
-654.5705861085953
 30
0.0
 40
1.0
100
AcDbArc
 50
90.0
 51
180.0
  0
ARC
  5
2DA
330
60
100
AcDbEntity
  8
LC-002-002-RND-0
  6
Continuous
 62
     7
100
AcDbCircle
 10
1.20017362043654
 20
-654.5705861085953
 30
0.0
 40
0.9999999999999998
100
AcDbArc
 50
0.0
 51
90.0
  0
ARC
  5
2DB
330
60
100
AcDbEntity
  8
LC-001-002-----0
  6
Continuous
 62
     7
100
AcDbCircle
 10
0.00017362043582
 20
-687.554455108595
 30
0.0
 40
44.83999999999904
100
AcDbArc
 50
61.46961099999938
 51
73.53038900000053
  0
ARC
  5
2DC
330
60
100
AcDbEntity
  8
LC-001-002-----0
  6
Continuous
 62
     7
100
AcDbCircle
 10
0.00017362043582
 20
-687.554455108595
 30
0.0
 40
44.83999999999953
100
AcDbArc
 50
46.46961099999983
 51
58.53038899999886
  0
ARC
  5
2DD
330
60
100
AcDbEntity
  8
LC-001-002-----0
  6
Continuous
 62
     7
100
AcDbCircle
 10
0.00017362043582
 20
-687.554455108595
 30
0.0
 40
44.84000000000081
100
AcDbArc
 50
31.46961100000113
 51
43.53038900000016
  0
ARC
  5
2DE
330
60
100
AcDbEntity
  8
LC-001-002-----0
  6
Continuous
 62
     7
100
AcDbCircle
 10
0.00017362043582
 20
-687.554455108595
 30
0.0
 40
44.84000000000089
100
AcDbArc
 50
16.46961099999947
 51
28.53038900000061
  0
ARC
  5
2DF
330
60
100
AcDbEntity
  8
LC-001-002-----0
  6
Continuous
 62
     7
100
AcDbCircle
 10
0.00017362043582
 20
-687.554455108595
 30
0.0
 40
44.84000000000112
100
AcDbArc
 50
1.4696109999983
 51
13.53038900000185
  0
ARC
  5
2E0
330
60
100
AcDbEntity
  8
LC-001-002-----0
  6
Continuous
 62
     7
100
AcDbCircle
 10
0.00017362043582
 20
-687.554455108595
 30
0.0
 40
44.83999999999997
100
AcDbArc
 50
-13.53038900000185
 51
-1.4696109999983
  0
ARC
  5
2E1
330
60
100
AcDbEntity
  8
LC-001-002-----0
  6
Continuous
 62
     7
100
AcDbCircle
 10
0.00017362043582
 20
-687.554455108595
 30
0.0
 40
44.83999999999904
100
AcDbArc
 50
-28.53038900000061
 51
-16.46961099999947
  0
ARC
  5
2E2
330
60
100
AcDbEntity
  8
LC-001-002-----0
  6
Continuous
 62
     7
100
AcDbCircle
 10
0.00017362043582
 20
-687.554455108595
 30
0.0
 40
44.83999999999954
100
AcDbArc
 50
-43.53038900000016
 51
-31.46961100000113
  0
ARC
  5
2E3
330
60
100
AcDbEntity
  8
LC-001-002-----0
  6
Continuous
 62
     7
100
AcDbCircle
 10
0.00017362043582
 20
-687.554455108595
 30
0.0
 40
44.84000000000081
100
AcDbArc
 50
-58.53038899999886
 51
-46.46961099999983
  0
ARC
  5
2E4
330
60
100
AcDbEntity
  8
LC-001-002-----0
  6
Continuous
 62
     7
100
AcDbCircle
 10
0.00017362043582
 20
-687.554455108595
 30
0.0
 40
44.84000000000089
100
AcDbArc
 50
-73.53038900000053
 51
-61.46961099999938
  0
ARC
  5
2E5
330
60
100
AcDbEntity
  8
LC-001-002-----0
  6
Continuous
 62
     7
100
AcDbCircle
 10
0.00017362043582
 20
-687.554455108595
 30
0.0
 40
44.84000000000111
100
AcDbArc
 50
-88.5303890000017
 51
-76.46961099999815
  0
ARC
  5
2E6
330
60
100
AcDbEntity
  8
LC-001-002-----0
  6
Continuous
 62
     7
100
AcDbCircle
 10
0.00017362043582
 20
-687.554455108595
 30
0.0
 40
44.83999999999997
100
AcDbArc
 50
-103.5303890000018
 51
-91.46961099999831
  0
ARC
  5
2E7
330
60
100
AcDbEntity
  8
LC-001-002-----0
  6
Continuous
 62
     7
100
AcDbCircle
 10
0.00017362043582
 20
-687.554455108595
 30
0.0
 40
44.83999999999904
100
AcDbArc
 50
-118.5303890000006
 51
-106.4696109999995
  0
ARC
  5
2E8
330
60
100
AcDbEntity
  8
LC-001-002-----0
  6
Continuous
 62
     7
100
AcDbCircle
 10
0.00017362043582
 20
-687.554455108595
 30
0.0
 40
44.83999999999953
100
AcDbArc
 50
-133.5303890000002
 51
-121.4696110000011
  0
ARC
  5
2E9
330
60
100
AcDbEntity
  8
LC-001-002-----0
  6
Continuous
 62
     7
100
AcDbCircle
 10
0.00017362043582
 20
-687.554455108595
 30
0.0
 40
44.84000000000081
100
AcDbArc
 50
-148.5303889999989
 51
-136.4696109999998
  0
ARC
  5
2EA
330
60
100
AcDbEntity
  8
LC-001-002-----0
  6
Continuous
 62
     7
100
AcDbCircle
 10
0.00017362043582
 20
-687.554455108595
 30
0.0
 40
44.8400000000009
100
AcDbArc
 50
-163.5303890000005
 51
-151.4696109999994
  0
ARC
  5
2EB
330
60
100
AcDbEntity
  8
LC-001-002-----0
  6
Continuous
 62
     7
100
AcDbCircle
 10
0.00017362043582
 20
-687.554455108595
 30
0.0
 40
44.84000000000111
100
AcDbArc
 50
-178.5303890000017
 51
-166.4696109999982
  0
ARC
  5
2EC
330
60
100
AcDbEntity
  8
LC-001-002-----0
  6
Continuous
 62
     7
100
AcDbCircle
 10
0.00017362043582
 20
-687.554455108595
 30
0.0
 40
41.00000000000049
100
AcDbArc
 50
-131.9188670000022
 51
-93.08113300000161
  0
ARC
  5
2ED
330
60
100
AcDbEntity
  8
LC-002-002-RND-0
  6
Continuous
 62
     7
100
AcDbCircle
 10
-2.14982637956564
 20
-727.4966321085958
 30
0.0
 40
0.9999999999999203
100
AcDbArc
 50
-93.08113299999174
 51
0.0
  0
ARC
  5
2EE
330
60
100
AcDbEntity
  8
LC-002-002-RND-0
  6
Continuous
 62
     7
100
AcDbCircle
 10
2.15017362043363
 20
-727.4966321085958
 30
0.0
 40
1.0
100
AcDbArc
 50
180.0
 51
-86.91886700000828
  0
ARC
  5
2EF
330
60
100
AcDbEntity
  8
LC-001-002-----0
  6
Continuous
 62
     7
100
AcDbCircle
 10
0.00017362043582
 20
-687.554455108595
 30
0.0
 40
41.00000000000056
100
AcDbArc
 50
-86.91886700000347
 51
-48.08113300000156
  0
ARC
  5
2F0
330
60
100
AcDbEntity
  8
LC-001-002-----0
  6
Continuous
 62
     7
100
AcDbCircle
 10
0.00017362043582
 20
-687.554455108595
 30
0.0
 40
41.00000000000076
100
AcDbArc
 50
-176.9188669999984
 51
-138.0811330000016
  0
ARC
  5
2F1
330
60
100
AcDbEntity
  8
LC-002-002-RND-0
  6
Continuous
 62
     7
100
AcDbCircle
 10
26.72327762043642
 20
-717.3181191085932
 30
0.0
 40
1.000000000000442
100
AcDbArc
 50
-48.081133000191
 51
44.99999999999986
  0
ARC
  5
2F2
330
60
100
AcDbEntity
  8
LC-002-002-RND-0
  6
Continuous
 62
     7
100
AcDbCircle
 10
29.76383762043406
 20
-714.2775601085959
 30
0.0
 40
0.9999999999975989
100
AcDbArc
 50
-135.0000000000001
 51
-41.9188669998093
  0
ARC
  5
2F3
330
60
100
AcDbEntity
  8
LC-002-002-RND-0
  6
Continuous
 62
     7
100
AcDbCircle
 10
-26.72293137956513
 20
-717.3181191085932
 30
0.0
 40
0.9999999999975914
100
AcDbArc
 50
134.9999999999997
 51
-131.918866999809
  0
ARC
  5
2F4
330
60
100
AcDbEntity
  8
LC-002-002-RND-0
  6
Continuous
 62
     7
100
AcDbCircle
 10
-29.76349037956607
 20
-714.2775601085959
 30
0.0
 40
0.999999999997735
100
AcDbArc
 50
-138.0811330000515
 51
-44.99999999985247
  0
ARC
  5
2F5
330
60
100
AcDbEntity
  8
LC-001-002-----0
  6
Continuous
 62
     7
100
AcDbCircle
 10
0.00017362043582
 20
-687.554455108595
 30
0.0
 40
40.99999999999805
100
AcDbArc
 50
-41.91886699999845
 51
-3.08113300000161
  0
ARC
  5
2F6
330
60
100
AcDbEntity
  8
LC-001-002-----0
  6
Continuous
 62
     7
100
AcDbCircle
 10
0.00017362043582
 20
-687.554455108595
 30
0.0
 40
41.00000000000075
100
AcDbArc
 50
3.08113300000161
 51
41.91886699999845
  0
ARC
  5
2F7
330
60
100
AcDbEntity
  8
LC-001-002-----0
  6
Continuous
 62
     7
100
AcDbCircle
 10
0.00017362043582
 20
-687.554455108595
 30
0.0
 40
41.00000000000049
100
AcDbArc
 50
48.08113299999778
 51
86.91886700000347
  0
ARC
  5
2F8
330
60
100
AcDbEntity
  8
LC-001-002-----0
  6
Continuous
 62
     7
100
AcDbCircle
 10
0.00017362043582
 20
-687.554455108595
 30
0.0
 40
41.00000000000076
100
AcDbArc
 50
93.08113300000161
 51
131.9188670000022
  0
ARC
  5
2F9
330
60
100
AcDbEntity
  8
LC-001-002-----0
  6
Continuous
 62
     7
100
AcDbCircle
 10
0.00017362043582
 20
-687.554455108595
 30
0.0
 40
44.83999999999997
100
AcDbArc
 50
76.46961099999815
 51
88.5303890000017
  0
ARC
  5
2FA
330
60
100
AcDbEntity
  8
LC-001-002-----0
  6
Continuous
 62
     7
100
AcDbCircle
 10
0.00017362043582
 20
-687.554455108595
 30
0.0
 40
44.84000000000111
100
AcDbArc
 50
91.46961099999831
 51
103.5303890000018
  0
ARC
  5
2FB
330
60
100
AcDbEntity
  8
LC-001-002-----0
  6
Continuous
 62
     7
100
AcDbCircle
 10
0.00017362043582
 20
-687.554455108595
 30
0.0
 40
44.84000000000089
100
AcDbArc
 50
106.4696109999995
 51
118.5303890000006
  0
ARC
  5
2FC
330
60
100
AcDbEntity
  8
LC-001-002-----0
  6
Continuous
 62
     7
100
AcDbCircle
 10
0.00017362043582
 20
-687.554455108595
 30
0.0
 40
44.84000000000081
100
AcDbArc
 50
121.4696110000011
 51
133.4745849999999
  0
ARC
  5
2FD
330
60
100
AcDbEntity
  8
LC-001-002-----0
  6
Continuous
 62
     7
100
AcDbCircle
 10
0.00017362043582
 20
-687.554455108595
 30
0.0
 40
44.83999999999953
100
AcDbArc
 50
136.4696109999998
 51
148.5303889999989
  0
ARC
  5
2FE
330
60
100
AcDbEntity
  8
LC-001-002-----0
  6
Continuous
 62
     7
100
AcDbCircle
 10
0.00017362043582
 20
-687.554455108595
 30
0.0
 40
44.83999999999904
100
AcDbArc
 50
151.4696109999994
 51
163.5303890000005
  0
ARC
  5
2FF
330
60
100
AcDbEntity
  8
LC-002-002-RND-0
  6
Continuous
 62
     7
100
AcDbCircle
 10
39.94235062043663
 20
-685.4044551085935
 30
0.0
 40
1.0
100
AcDbArc
 50
-90.0
 51
3.08113299978359
  0
ARC
  5
300
330
60
100
AcDbEntity
  8
LC-002-002-RND-0
  6
Continuous
 62
     7
100
AcDbCircle
 10
39.94235062043663
 20
-689.7044551085964
 30
0.0
 40
0.9999999999999203
100
AcDbArc
 50
-3.08113299999173
 51
90.0
  0
ARC
  5
301
330
60
100
AcDbEntity
  8
LC-002-002-RND-0
  6
Continuous
 62
     7
100
AcDbCircle
 10
26.72327762043642
 20
-657.7907911085967
 30
0.0
 40
0.9999999999975989
100
AcDbArc
 50
-44.99999999999986
 51
48.081133000191
  0
ARC
  5
302
330
60
100
AcDbEntity
  8
LC-002-002-RND-0
  6
Continuous
 62
     7
100
AcDbCircle
 10
29.76383762043406
 20
-660.831350108594
 30
0.0
 40
1.000000000000442
100
AcDbArc
 50
41.9188669998093
 51
135.0000000000001
  0
ARC
  5
303
330
60
100
AcDbEntity
  8
LC-002-002-RND-0
  6
Continuous
 62
     7
100
AcDbCircle
 10
-2.14982637956564
 20
-647.6122781085942
 30
0.0
 40
1.0
100
AcDbArc
 50
0.0
 51
93.08113299999174
  0
ARC
  5
304
330
60
100
AcDbEntity
  8
LC-002-002-RND-0
  6
Continuous
 62
     7
100
AcDbCircle
 10
2.15017362043363
 20
-647.6122781085942
 30
0.0
 40
0.9999999999999203
100
AcDbArc
 50
86.91886700000828
 51
180.0
  0
ARC
  5
305
330
60
100
AcDbEntity
  8
LC-002-002-RND-0
  6
Continuous
 62
     7
100
AcDbCircle
 10
-29.76349037956607
 20
-660.831350108594
 30
0.0
 40
1.000000000000171
100
AcDbArc
 50
44.99999999985247
 51
138.0811330000515
  0
ARC
  5
306
330
60
100
AcDbEntity
  8
LC-002-002-RND-0
  6
Continuous
 62
     7
100
AcDbCircle
 10
-26.72293137956513
 20
-657.7907911085967
 30
0.0
 40
1.000000000000442
100
AcDbArc
 50
131.918866999809
 51
-134.9999999999997
  0
ARC
  5
307
330
60
100
AcDbEntity
  8
LC-001-002-----0
  6
Continuous
 62
     7
100
AcDbCircle
 10
0.00017362043582
 20
-687.554455108595
 30
0.0
 40
44.83999999999997
100
AcDbArc
 50
166.4696109999982
 51
178.5303890000017
  0
ARC
  5
308
330
60
100
AcDbEntity
  8
LC-002-002-RND-0
  6
Continuous
 62
     7
100
AcDbCircle
 10
-39.94200337956499
 20
-689.7044551085964
 30
0.0
 40
1.0
100
AcDbArc
 50
90.0
 51
-176.9188670000083
  0
ARC
  5
309
330
60
100
AcDbEntity
  8
LC-002-002-RND-0
  6
Continuous
 62
     7
100
AcDbCircle
 10
-39.94200337956499
 20
-685.4044551085935
 30
0.0
 40
0.9999999999997389
100
AcDbArc
 50
176.9188670002165
 51
-90.0
  0
ARC
  5
30A
330
60
100
AcDbEntity
  8
LC-001-002-----0
  6
Continuous
 62
     7
100
AcDbCircle
 10
0.00017362043582
 20
-687.554455108595
 30
0.0
 40
41.00000000000049
100
AcDbArc
 50
138.0811329999978
 51
176.9188669999984
  0
ARC
  5
30B
330
60
100
AcDbEntity
  8
LC-001-002-----0
  6
Continuous
 62
     7
100
AcDbCircle
 10
0.00017362043582
 20
-687.554455108595
 30
0.0
 40
3.499999999998411
100
AcDbArc
 50
109.1820900000047
 51
115.8179100000039
  0
ARC
  5
30C
330
60
100
AcDbEntity
  8
LC-001-002-----0
  6
Continuous
 62
     7
100
AcDbCircle
 10
0.00017362043582
 20
-687.554455108595
 30
0.0
 40
85.60000000000052
100
AcDbArc
 50
-15.76976800000082
 51
-14.2302319999999
  0
ARC
  5
30D
330
60
100
AcDbEntity
  8
LC-001-002-----0
  6
Continuous
 62
     7
100
AcDbCircle
 10
0.00017362043582
 20
-687.554455108595
 30
0.0
 40
85.59999999999923
100
AcDbArc
 50
-30.76976800000082
 51
-29.23023200000113
  0
ARC
  5
30E
330
60
100
AcDbEntity
  8
LC-001-002-----0
  6
Continuous
 62
     7
100
AcDbCircle
 10
0.00017362043582
 20
-687.554455108595
 30
0.0
 40
85.59999999999947
100
AcDbArc
 50
-45.7697680000006
 51
-44.2302319999994
  0
ARC
  5
30F
330
60
100
AcDbEntity
  8
LC-001-002-----0
  6
Continuous
 62
     7
100
AcDbCircle
 10
0.00017362043582
 20
-687.554455108595
 30
0.0
 40
85.59999999999913
100
AcDbArc
 50
-60.76976800000099
 51
-59.23023199999918
  0
ARC
  5
310
330
60
100
AcDbEntity
  8
LC-001-002-----0
  6
Continuous
 62
     7
100
AcDbCircle
 10
0.00017362043582
 20
-687.554455108595
 30
0.0
 40
85.60000000000028
100
AcDbArc
 50
-75.76976800000011
 51
-74.23023200000154
  0
ARC
  5
311
330
60
100
AcDbEntity
  8
LC-001-002-----0
  6
Continuous
 62
     7
100
AcDbCircle
 10
0.00017362043582
 20
-687.554455108595
 30
0.0
 40
85.59999999999894
100
AcDbArc
 50
-0.76976800000084
 51
0.76976800000084
  0
ARC
  5
312
330
60
100
AcDbEntity
  8
LC-001-002-----0
  6
Continuous
 62
     7
100
AcDbCircle
 10
0.00017362043582
 20
-687.554455108595
 30
0.0
 40
85.60000000000028
100
AcDbArc
 50
14.2302319999999
 51
15.76976800000082
  0
ARC
  5
313
330
60
100
AcDbEntity
  8
LC-001-002-----0
  6
Continuous
 62
     7
100
AcDbCircle
 10
0.00017362043582
 20
-687.554455108595
 30
0.0
 40
85.60000000000089
100
AcDbArc
 50
29.23023200000113
 51
30.76976800000082
  0
ARC
  5
314
330
60
100
AcDbEntity
  8
LC-001-002-----0
  6
Continuous
 62
     7
100
AcDbCircle
 10
0.00017362043582
 20
-687.554455108595
 30
0.0
 40
85.59999999999948
100
AcDbArc
 50
44.2302319999994
 51
45.7697680000006
  0
ARC
  5
315
330
60
100
AcDbEntity
  8
LC-001-002-----0
  6
Continuous
 62
     7
100
AcDbCircle
 10
0.00017362043582
 20
-687.554455108595
 30
0.0
 40
85.59999999999923
100
AcDbArc
 50
59.23023199999918
 51
60.76976800000099
  0
ARC
  5
316
330
60
100
AcDbEntity
  8
LC-001-002-----0
  6
Continuous
 62
     7
100
AcDbCircle
 10
0.00017362043582
 20
-687.554455108595
 30
0.0
 40
85.59999999999954
100
AcDbArc
 50
74.23023200000154
 51
75.76976800000011
  0
ARC
  5
317
330
60
100
AcDbEntity
  8
LC-001-002-----0
  6
Continuous
 62
     7
100
AcDbCircle
 10
0.00017362043582
 20
-687.554455108595
 30
0.0
 40
85.59999999999894
100
AcDbArc
 50
89.23023199999916
 51
90.76976800000084
  0
ARC
  5
318
330
60
100
AcDbEntity
  8
LC-001-002-----0
  6
Continuous
 62
     7
100
AcDbCircle
 10
0.00017362043582
 20
-687.554455108595
 30
0.0
 40
85.60000000000028
100
AcDbArc
 50
104.2302319999999
 51
105.7697680000008
  0
ARC
  5
319
330
60
100
AcDbEntity
  8
LC-001-002-----0
  6
Continuous
 62
     7
100
AcDbCircle
 10
0.00017362043582
 20
-687.554455108595
 30
0.0
 40
85.60000000000089
100
AcDbArc
 50
119.2302320000011
 51
120.7697680000008
  0
ARC
  5
31A
330
60
100
AcDbEntity
  8
LC-001-002-----0
  6
Continuous
 62
     7
100
AcDbCircle
 10
0.00017362043582
 20
-687.554455108595
 30
0.0
 40
85.59999999999947
100
AcDbArc
 50
134.2302319999994
 51
135.7697680000006
  0
ARC
  5
31B
330
60
100
AcDbEntity
  8
LC-001-002-----0
  6
Continuous
 62
     7
100
AcDbCircle
 10
0.00017362043582
 20
-687.554455108595
 30
0.0
 40
85.59999999999894
100
AcDbArc
 50
-90.76976800000084
 51
-89.23023199999916
  0
ARC
  5
31C
330
60
100
AcDbEntity
  8
LC-001-002-----0
  6
Continuous
 62
     7
100
AcDbCircle
 10
0.00017362043582
 20
-687.554455108595
 30
0.0
 40
85.60000000000052
100
AcDbArc
 50
-105.7697680000008
 51
-104.2302319999999
  0
ARC
  5
31D
330
60
100
AcDbEntity
  8
LC-001-002-----0
  6
Continuous
 62
     7
100
AcDbCircle
 10
0.00017362043582
 20
-687.554455108595
 30
0.0
 40
85.59999999999923
100
AcDbArc
 50
-120.7697680000008
 51
-119.2302320000011
  0
ARC
  5
31E
330
60
100
AcDbEntity
  8
LC-001-002-----0
  6
Continuous
 62
     7
100
AcDbCircle
 10
0.00017362043582
 20
-687.554455108595
 30
0.0
 40
85.59999999999947
100
AcDbArc
 50
-135.7697680000006
 51
-134.2302319999994
  0
ARC
  5
31F
330
60
100
AcDbEntity
  8
LC-001-002-----0
  6
Continuous
 62
     7
100
AcDbCircle
 10
0.00017362043582
 20
-687.554455108595
 30
0.0
 40
85.60000000000089
100
AcDbArc
 50
-150.7697679999989
 51
-149.2302320000004
  0
ARC
  5
320
330
60
100
AcDbEntity
  8
LC-001-002-----0
  6
Continuous
 62
     7
100
AcDbCircle
 10
0.00017362043582
 20
-687.554455108595
 30
0.0
 40
85.60000000000028
100
AcDbArc
 50
-165.7697680000001
 51
-164.2302319999992
  0
ARC
  5
321
330
60
100
AcDbEntity
  8
LC-001-002-----0
  6
Continuous
 62
     7
100
AcDbCircle
 10
0.00017362043582
 20
-687.554455108595
 30
0.0
 40
85.59999999999894
100
AcDbArc
 50
179.2302319999991
 51
-179.2302319999991
  0
ARC
  5
322
330
60
100
AcDbEntity
  8
LC-001-002-----0
  6
Continuous
 62
     7
100
AcDbCircle
 10
0.00017362043582
 20
-687.554455108595
 30
0.0
 40
85.60000000000235
100
AcDbArc
 50
149.2302320000004
 51
150.7697679999989
  0
ARC
  5
323
330
60
100
AcDbEntity
  8
LC-001-002-----0
  6
Continuous
 62
     7
100
AcDbCircle
 10
0.00017362043582
 20
-687.554455108595
 30
0.0
 40
85.60000000000052
100
AcDbArc
 50
164.2302319999992
 51
165.7697680000001
  0
ARC
  5
324
330
60
100
AcDbEntity
  8
LC-001-002-----0
  6
Continuous
 62
     7
100
AcDbCircle
 10
0.00017362043582
 20
-687.554455108595
 30
0.0
 40
3.500000000000682
100
AcDbArc
 50
154.1820899999961
 51
160.8179100000148
  0
ARC
  5
325
330
60
100
AcDbEntity
  8
LC-001-002-----0
  6
Continuous
 62
     7
100
AcDbCircle
 10
0.00017362043582
 20
-687.554455108595
 30
0.0
 40
3.500000000001847
100
AcDbArc
 50
-160.8179100000148
 51
-154.1820899999961
  0
ARC
  5
326
330
60
100
AcDbEntity
  8
LC-001-002-----0
  6
Continuous
 62
     7
100
AcDbCircle
 10
0.00017362043582
 20
-687.554455108595
 30
0.0
 40
3.500000000000682
100
AcDbArc
 50
-115.8179100000039
 51
-109.1820900000047
  0
ARC
  5
327
330
60
100
AcDbEntity
  8
LC-001-002-----0
  6
Continuous
 62
     7
100
AcDbCircle
 10
0.00017362043582
 20
-687.554455108595
 30
0.0
 40
3.499999999998411
100
AcDbArc
 50
-70.81790999999527
 51
-64.18208999999611
  0
ARC
  5
328
330
60
100
AcDbEntity
  8
LC-001-002-----0
  6
Continuous
 62
     7
100
AcDbCircle
 10
0.00017362043582
 20
-687.554455108595
 30
0.0
 40
3.500000000000681
100
AcDbArc
 50
-25.81791000000391
 51
-19.18209000000472
  0
ARC
  5
329
330
60
100
AcDbEntity
  8
LC-001-002-----0
  6
Continuous
 62
     7
100
AcDbCircle
 10
0.00017362043582
 20
-687.554455108595
 30
0.0
 40
3.499999999998411
100
AcDbArc
 50
19.18209000000472
 51
25.81791000000391
  0
ARC
  5
32A
330
60
100
AcDbEntity
  8
LC-001-002-----0
  6
Continuous
 62
     7
100
AcDbCircle
 10
0.00017362043582
 20
-687.554455108595
 30
0.0
 40
3.500000000000681
100
AcDbArc
 50
64.18208999999611
 51
70.81790999999527
  0
ARC
  5
32B
330
60
100
AcDbEntity
  8
LC-002-002-RND-0
  6
Continuous
 62
     7
100
AcDbCircle
 10
-178.9992043795646
 20
-866.5552291085951
 30
0.0
 40
10.00000000000162
100
AcDbArc
 50
-179.9998760000084
 51
-89.99975199999638
  0
ARC
  5
32C
330
60
100
AcDbEntity
  8
LC-002-002-RND-0
  6
Continuous
 62
     7
100
AcDbCircle
 10
179.0007956204354
 20
-866.5536811085949
 30
0.0
 40
9.999999999999089
100
AcDbArc
 50
-89.9997519999752
 51
0.00012399999164
  0
ARC
  5
32D
330
60
100
AcDbEntity
  8
LC-002-002-RND-0
  6
Continuous
 62
     7
100
AcDbCircle
 10
179.0000216204353
 20
-508.5536811085949
 30
0.0
 40
10.00000000000162
100
AcDbArc
 50
0.00012399999196
 51
90.0002480000248
  0
ARC
  5
32E
330
60
100
AcDbEntity
  8
LC-002-002-RND-0
  6
Continuous
 62
     7
100
AcDbCircle
 10
-178.9999783795647
 20
-508.5552291085951
 30
0.0
 40
9.999999999999089
100
AcDbArc
 50
90.00024800000429
 51
-179.9998759999875
  0
CIRCLE
  5
32F
330
60
100
AcDbEntity
  8
LC-001-002-----0
  6
Continuous
 62
     7
100
AcDbCircle
 10
0.0002046204354
 20
-687.5552571085937
 30
0.0
 40
177.0
  0
CIRCLE
  5
330
330
60
100
AcDbEntity
  8
LC-001-002-----0
  6
Continuous
 62
     7
100
AcDbCircle
 10
129.5004086204353
 20
-817.0540531085935
 30
0.0
 40
4.75
  0
CIRCLE
  5
331
330
60
100
AcDbEntity
  8
LC-001-002-----0
  6
Continuous
 62
     7
100
AcDbCircle
 10
-129.4995913795647
 20
-817.0540531085935
 30
0.0
 40
4.749999999999986
  0
CIRCLE
  5
332
330
60
100
AcDbEntity
  8
LC-001-002-----0
  6
Continuous
 62
     7
100
AcDbCircle
 10
129.5004086204353
 20
-558.0540441085941
 30
0.0
 40
4.75
  0
CIRCLE
  5
333
330
60
100
AcDbEntity
  8
LC-001-002-----0
  6
Continuous
 62
     7
100
AcDbCircle
 10
-129.4995913795647
 20
-558.0540481085955
 30
0.0
 40
4.749999999999986
  0
CIRCLE
  5
334
330
60
100
AcDbEntity
  8
LC-001-002-----0
  6
Continuous
 62
     7
100
AcDbCircle
 10
129.5004086204353
 20
-817.0540481085955
 30
0.0
 40
2.5
  0
CIRCLE
  5
335
330
60
100
AcDbEntity
  8
LC-001-002-----0
  6
Continuous
 62
     7
100
AcDbCircle
 10
-129.4995913795647
 20
-817.0540481085955
 30
0.0
 40
2.499999999999986
  0
CIRCLE
  5
336
330
60
100
AcDbEntity
  8
LC-001-002-----0
  6
Continuous
 62
     7
100
AcDbCircle
 10
-129.4995913795647
 20
-558.0540481085955
 30
0.0
 40
2.499999999999986
  0
CIRCLE
  5
337
330
60
100
AcDbEntity
  8
LC-001-002-----0
  6
Continuous
 62
     7
100
AcDbCircle
 10
129.5004086204353
 20
-558.0540481085955
 30
0.0
 40
2.5
  0
CIRCLE
  5
338
330
60
100
AcDbEntity
  8
LC-001-002-----0
  6
Continuous
 62
     7
100
AcDbCircle
 10
129.5004126204367
 20
-817.0540531085935
 30
0.0
 40
3.500003999997716
  0
CIRCLE
  5
339
330
60
100
AcDbEntity
  8
LC-001-002-----0
  6
Continuous
 62
     7
100
AcDbCircle
 10
129.5004126204367
 20
-558.0540441085941
 30
0.0
 40
3.500003999997716
  0
CIRCLE
  5
33A
330
60
100
AcDbEntity
  8
LC-001-002-----0
  6
Continuous
 62
     7
100
AcDbCircle
 10
-129.4995963795664
 20
-558.0540441085941
 30
0.0
 40
3.500004000001411
  0
CIRCLE
  5
33B
330
60
100
AcDbEntity
  8
LC-001-002-----0
  6
Continuous
 62
     7
100
AcDbCircle
 10
0.00017362043582
 20
-687.554455108595
 30
0.0
 40
43.20000000000072
  0
CIRCLE
  5
33C
330
60
100
AcDbEntity
  8
LC-001-002-----0
  6
Continuous
 62
     7
100
AcDbCircle
 10
0.0002046204354
 20
-687.5552571085937
 30
0.0
 40
87.5
  0
ENDBLK
  5
62
330
60
100
AcDbEntity
  8
0
100
AcDbBlockEnd
  0
BLOCK
  5
345
330
33D
100
AcDbEntity
  8
0
100
AcDbBlockBegin
  2
*D8
 70
     1
 71
     0
 10
0.0
 20
0.0
 30
0.0
  3
*D8
  1

  0
LINE
  5
33E
330
33D
100
AcDbEntity
  8
1
  6
Continuous
 62
     4
100
AcDbLine
 10
-177.0
 20
126.313293555226
 30
0.0
 11
177.0
 21
126.313293555226
 31
0.0
  0
LINE
  5
33F
330
33D
100
AcDbEntity
  8
1
  6
Continuous
 62
     4
100
AcDbLine
 10
-177.0
 20
3.49722305267372
 30
0.0
 11
-177.0
 21
128.313293555226
 31
0.0
  0
LINE
  5
340
330
33D
100
AcDbEntity
  8
1
  6
Continuous
 62
     4
100
AcDbLine
 10
177.0
 20
3.49722305267372
 30
0.0
 11
177.0
 21
128.313293555226
 31
0.0
  0
SOLID
  5
341
330
33D
100
AcDbEntity
  8
1
 62
     4
100
AcDbTrace
 10
-165.0
 20
127.8931235262748
 30
0.0
 11
-165.0
 21
124.7334635841773
 31
0.0
 12
-177.0
 22
126.313293555226
 32
0.0
 13
-177.0
 23
126.313293555226
 33
0.0
  0
SOLID
  5
342
330
33D
100
AcDbEntity
  8
1
 62
     4
100
AcDbTrace
 10
165.0
 20
124.7334635841773
 30
0.0
 11
165.0
 21
127.8931235262748
 31
0.0
 12
177.0
 22
126.313293555226
 32
0.0
 13
177.0
 23
126.313293555226
 33
0.0
  0
MTEXT
  5
344
330
33D
100
AcDbEntity
  8
1
 62
     1
100
AcDbMText
 10
-10.63599719979278
 20
128.3132458495598
 30
0.0
 40
12.0
 41
0.0
 71
     7
 72
     1
  1
\C1;\U+00d8\C1;354
  7
CONVERTER_11
 11
0.9999999999970619
 21
2.424068405545306E-6
 31
0.0
 73
     1
 44
0.60024009603842
  0
ENDBLK
  5
346
330
33D
100
AcDbEntity
  8
0
100
AcDbBlockEnd
  0
BLOCK
  5
350
330
349
100
AcDbEntity
  8
0
100
AcDbBlockBegin
  2
*D9
 70
     1
 71
     0
 10
0.0
 20
0.0
 30
0.0
  3
*D9
  1

  0
LINE
  5
34A
330
349
100
AcDbEntity
  8
1
  6
Continuous
 62
     4
100
AcDbLine
 10
-189.0
 20
157.14755073116
 30
0.0
 11
189.0
 21
157.14755073116
 31
0.0
  0
LINE
  5
34B
330
349
100
AcDbEntity
  8
1
  6
Continuous
 62
     4
100
AcDbLine
 10
189.0
 20
-102.5030258481043
 30
0.0
 11
189.0
 21
159.14755073116
 31
0.0
  0
LINE
  5
34C
330
349
100
AcDbEntity
  8
1
  6
Continuous
 62
     4
100
AcDbLine
 10
-189.0
 20
-102.5030258481043
 30
0.0
 11
-189.0
 21
159.14755073116
 31
0.0
  0
SOLID
  5
34D
330
349
100
AcDbEntity
  8
1
 62
     4
100
AcDbTrace
 10
-177.0
 20
158.7273807022088
 30
0.0
 11
-177.0
 21
155.5677207601113
 31
0.0
 12
-189.0
 22
157.14755073116
 32
0.0
 13
-189.0
 23
157.14755073116
 33
0.0
  0
SOLID
  5
34E
330
349
100
AcDbEntity
  8
1
 62
     4
100
AcDbTrace
 10
177.0
 20
155.5677207601113
 30
0.0
 11
177.0
 21
158.7273807022088
 31
0.0
 12
189.0
 22
157.14755073116
 32
0.0
 13
189.0
 23
157.14755073116
 33
0.0
  0
MTEXT
  5
34F
330
349
100
AcDbEntity
  8
1
 62
     1
100
AcDbMText
 10
-59.58607436942451
 20
159.1474553198276
 30
0.0
 40
12.0
 41
0.0
 71
     7
 72
     1
  1
\C1;378x\C1;378
  7
CONVERTER_11
 11
0.9999999999970619
 21
2.424068405545306E-6
 31
0.0
 73
     1
 44
0.60024009603842
  0
ENDBLK
  5
351
330
349
100
AcDbEntity
  8
0
100
AcDbBlockEnd
  0
BLOCK
  5
35B
330
354
100
AcDbEntity
  8
0
100
AcDbBlockBegin
  2
*D10
 70
     1
 71
     0
 10
0.0
 20
0.0
 30
0.0
  3
*D10
  1

  0
LINE
  5
355
330
354
100
AcDbEntity
  8
1
  6
Continuous
 62
     4
100
AcDbLine
 10
-142.050174
 20
99.318734950584
 30
0.0
 11
142.050175
 21
99.318734950584
 31
0.0
  0
LINE
  5
356
330
354
100
AcDbEntity
  8
1
  6
Continuous
 62
     4
100
AcDbLine
 10
142.0501750000001
 20
-0.0025959999998
 30
0.0
 11
142.0501750000001
 21
101.318734950584
 31
0.0
  0
LINE
  5
357
330
354
100
AcDbEntity
  8
1
  6
Continuous
 62
     4
100
AcDbLine
 10
-142.050174
 20
-0.0025959999998
 30
0.0
 11
-142.050174
 21
101.318734950584
 31
0.0
  0
SOLID
  5
358
330
354
100
AcDbEntity
  8
1
 62
     4
100
AcDbTrace
 10
-130.050174
 20
100.8985649216328
 30
0.0
 11
-130.050174
 21
97.73890497953525
 31
0.0
 12
-142.050174
 22
99.318734950584
 32
0.0
 13
-142.050174
 23
99.318734950584
 33
0.0
  0
SOLID
  5
359
330
354
100
AcDbEntity
  8
1
 62
     4
100
AcDbTrace
 10
130.050175
 20
97.73890497953525
 30
0.0
 11
130.050175
 21
100.8985649216328
 31
0.0
 12
142.050175
 22
99.318734950584
 32
0.0
 13
142.050175
 23
99.318734950584
 33
0.0
  0
MTEXT
  5
35A
330
354
100
AcDbEntity
  8
1
 62
     1
100
AcDbMText
 10
-59.58607436942417
 20
101.3186395392516
 30
0.0
 40
12.0
 41
0.0
 71
     7
 72
     1
  1
\C1;284x\C1;284
  7
CONVERTER_11
 11
0.9999999999970619
 21
2.424068405545306E-6
 31
0.0
 73
     1
 44
0.60024009603842
  0
ENDBLK
  5
35C
330
354
100
AcDbEntity
  8
0
100
AcDbBlockEnd
  0
BLOCK
  5
366
330
35F
100
AcDbEntity
  8
0
100
AcDbBlockBegin
  2
*D11
 70
     1
 71
     0
 10
0.0
 20
0.0
 30
0.0
  3
*D11
  1

  0
LINE
  5
360
330
35F
100
AcDbEntity
  8
1
  6
Continuous
 62
     4
100
AcDbLine
 10
225.6739113855701
 20
-100.0030258481043
 30
0.0
 11
225.6739113855701
 21
-0.00326499999984
 31
0.0
  0
LINE
  5
361
330
35F
100
AcDbEntity
  8
1
  6
Continuous
 62
     4
100
AcDbLine
 10
179.9999460000001
 20
-0.00326499999984
 30
0.0
 11
227.6739113855701
 21
-0.00326499999984
 31
0.0
  0
LINE
  5
362
330
35F
100
AcDbEntity
  8
1
  6
Continuous
 62
     4
100
AcDbLine
 10
187.0
 20
-100.0030258481043
 30
0.0
 11
227.6739113855701
 21
-100.0030258481043
 31
0.0
  0
SOLID
  5
363
330
35F
100
AcDbEntity
  8
1
 62
     4
100
AcDbTrace
 10
224.0940814145214
 20
-88.00302584810433
 30
0.0
 11
227.2537413566189
 21
-88.00302584810433
 31
0.0
 12
225.6739113855701
 22
-100.0030258481043
 32
0.0
 13
225.6739113855701
 23
-100.0030258481043
 33
0.0
  0
SOLID
  5
364
330
35F
100
AcDbEntity
  8
1
 62
     4
100
AcDbTrace
 10
227.2537413566189
 20
-12.00326499999984
 30
0.0
 11
224.0940814145214
 21
-12.00326499999984
 31
0.0
 12
225.6739113855701
 22
-0.00326499999984
 32
0.0
 13
225.6739113855701
 23
-0.00326499999984
 33
0.0
  0
MTEXT
  5
365
330
35F
100
AcDbEntity
  8
1
 62
     1
100
AcDbMText
 10
223.6739113855701
 20
-80.28055372516631
 30
0.0
 40
12.0
 41
0.0
 71
     7
 72
     1
  1
100-160
  7
CONVERTER_11
 11
0.0
 21
1.0
 31
0.0
 73
     1
 44
0.60024009603842
  0
ENDBLK
  5
367
330
35F
100
AcDbEntity
  8
0
100
AcDbBlockEnd
  0
BLOCK
  5
371
330
36A
100
AcDbEntity
  8
0
100
AcDbBlockBegin
  2
*D12
 70
     1
 71
     0
 10
0.0
 20
0.0
 30
0.0
  3
*D12
  1

  0
LINE
  5
36B
330
36A
100
AcDbEntity
  8
1
  6
Continuous
 62
     4
100
AcDbLine
 10
207.1984407625401
 20
-273.0016768481044
 30
0.0
 11
207.1984407625401
 21
-102.5030258481043
 31
0.0
  0
LINE
  5
36C
330
36A
100
AcDbEntity
  8
1
  6
Continuous
 62
     4
100
AcDbLine
 10
77.49999999999999
 20
-273.0016768481044
 30
0.0
 11
209.1984407625401
 21
-273.0016768481044
 31
0.0
  0
LINE
  5
36D
330
36A
100
AcDbEntity
  8
1
  6
Continuous
 62
     4
100
AcDbLine
 10
188.9999999999999
 20
-102.5030258481043
 30
0.0
 11
209.1984407625401
 21
-102.5030258481043
 31
0.0
  0
SOLID
  5
36E
330
36A
100
AcDbEntity
  8
1
 62
     4
100
AcDbTrace
 10
205.6186107914913
 20
-261.0016768481044
 30
0.0
 11
208.7782707335888
 21
-261.0016768481044
 31
0.0
 12
207.1984407625401
 22
-273.0016768481044
 32
0.0
 13
207.1984407625401
 23
-273.0016768481044
 33
0.0
  0
SOLID
  5
36F
330
36A
100
AcDbEntity
  8
1
 62
     4
100
AcDbTrace
 10
208.7782707335888
 20
-114.5030258481043
 30
0.0
 11
205.6186107914913
 21
-114.5030258481043
 31
0.0
 12
207.1984407625401
 22
-102.5030258481043
 32
0.0
 13
207.1984407625401
 23
-102.5030258481043
 33
0.0
  0
MTEXT
  5
370
330
36A
100
AcDbEntity
  8
1
 62
     1
100
AcDbMText
 10
205.1984407625401
 20
-229.8641264178703
 30
0.0
 40
12.0
 41
0.0
 71
     7
 72
     1
  1
\C1;(\C1;111-171\C1;)
  7
CONVERTER_11
 11
0.0
 21
1.0
 31
0.0
 73
     1
 44
0.60024009603842
  0
ENDBLK
  5
372
330
36A
100
AcDbEntity
  8
0
100
AcDbBlockEnd
  0
BLOCK
  5
37C
330
375
100
AcDbEntity
  8
0
100
AcDbBlockBegin
  2
*D13
 70
     1
 71
     0
 10
0.0
 20
0.0
 30
0.0
  3
*D13
  1

  0
LINE
  5
376
330
375
100
AcDbEntity
  8
1
  6
Continuous
 62
     4
100
AcDbLine
 10
-37.49999999999999
 20
-372.1877013212285
 30
0.0
 11
37.50000000000002
 21
-372.1877013212285
 31
0.0
  0
LINE
  5
377
330
375
100
AcDbEntity
  8
1
  6
Continuous
 62
     4
100
AcDbLine
 10
37.5
 20
-338.0009058481044
 30
0.0
 11
37.5
 21
-374.1877013212285
 31
0.0
  0
LINE
  5
378
330
375
100
AcDbEntity
  8
1
  6
Continuous
 62
     4
100
AcDbLine
 10
-37.49999999999999
 20
-338.0009058481044
 30
0.0
 11
-37.49999999999999
 21
-374.1877013212285
 31
0.0
  0
SOLID
  5
379
330
375
100
AcDbEntity
  8
1
 62
     4
100
AcDbTrace
 10
-25.49999999999999
 20
-370.6078713501797
 30
0.0
 11
-25.49999999999999
 21
-373.7675312922772
 31
0.0
 12
-37.49999999999999
 22
-372.1877013212285
 32
0.0
 13
-37.49999999999999
 23
-372.1877013212285
 33
0.0
  0
SOLID
  5
37A
330
375
100
AcDbEntity
  8
1
 62
     4
100
AcDbTrace
 10
25.50000000000002
 20
-373.7675312922772
 30
0.0
 11
25.50000000000002
 21
-370.6078713501797
 31
0.0
 12
37.50000000000002
 22
-372.1877013212285
 32
0.0
 13
37.50000000000002
 23
-372.1877013212285
 33
0.0
  0
MTEXT
  5
37B
330
375
100
AcDbEntity
  8
1
 62
     1
100
AcDbMText
 10
-15.57009932426164
 20
-370.1877490268947
 30
0.0
 40
12.0
 41
0.0
 71
     7
 72
     1
  1
\C1;DN\C1;75
  7
CONVERTER_11
 11
0.9999999999970619
 21
2.424068405545306E-6
 31
0.0
 73
     1
 44
0.60024009603842
  0
ENDBLK
  5
37D
330
375
100
AcDbEntity
  8
0
100
AcDbBlockEnd
  0
BLOCK
  5
387
330
380
100
AcDbEntity
  8
0
100
AcDbBlockBegin
  2
*D14
 70
     1
 71
     0
 10
0.0
 20
0.0
 30
0.0
  3
*D14
  1

  0
LINE
  5
381
330
380
100
AcDbEntity
  8
1
  6
Continuous
 62
     4
100
AcDbLine
 10
-85.5
 20
-404.6722851203213
 30
0.0
 11
85.5
 21
-404.6722851203213
 31
0.0
  0
LINE
  5
382
330
380
100
AcDbEntity
  8
1
  6
Continuous
 62
     4
100
AcDbLine
 10
85.5
 20
-268.0016768481043
 30
0.0
 11
85.5
 21
-406.6722851203213
 31
0.0
  0
LINE
  5
383
330
380
100
AcDbEntity
  8
1
  6
Continuous
 62
     4
100
AcDbLine
 10
-85.5
 20
-268.0016768481043
 30
0.0
 11
-85.5
 21
-406.6722851203213
 31
0.0
  0
SOLID
  5
384
330
380
100
AcDbEntity
  8
1
 62
     4
100
AcDbTrace
 10
-73.5
 20
-403.0924551492726
 30
0.0
 11
-73.5
 21
-406.2521150913701
 31
0.0
 12
-85.5
 22
-404.6722851203213
 32
0.0
 13
-85.5
 23
-404.6722851203213
 33
0.0
  0
SOLID
  5
385
330
380
100
AcDbEntity
  8
1
 62
     4
100
AcDbTrace
 10
73.5
 20
-406.2521150913701
 30
0.0
 11
73.5
 21
-403.0924551492726
 31
0.0
 12
85.5
 22
-404.6722851203213
 32
0.0
 13
85.5
 23
-404.6722851203213
 33
0.0
  0
MTEXT
  5
386
330
380
100
AcDbEntity
  8
1
 62
     1
100
AcDbMText
 10
-26.55486244181957
 20
-402.6723328259876
 30
0.0
 40
12.0
 41
0.0
 71
     7
 72
     1
  1
\C1;\U+00d8\C1;171
  7
CONVERTER_11
 11
0.9999999999970619
 21
2.424068405545306E-6
 31
0.0
 73
     1
 44
0.60024009603842
  0
ENDBLK
  5
388
330
380
100
AcDbEntity
  8
0
100
AcDbBlockEnd
  0
BLOCK
  5
392
330
38B
100
AcDbEntity
  8
0
100
AcDbBlockBegin
  2
*D15
 70
     1
 71
     0
 10
0.0
 20
0.0
 30
0.0
  3
*D15
  1

  0
LINE
  5
38C
330
38B
100
AcDbEntity
  8
1
  6
Continuous
 62
     4
100
AcDbLine
 10
263.271894496913
 20
-273.0016768481044
 30
0.0
 11
263.271894496913
 21
-0.0032649999998
 31
0.0
  0
LINE
  5
38D
330
38B
100
AcDbEntity
  8
1
  6
Continuous
 62
     4
100
AcDbLine
 10
179.9999460000001
 20
-0.0032649999998
 30
0.0
 11
265.271894496913
 21
-0.0032649999998
 31
0.0
  0
LINE
  5
38E
330
38B
100
AcDbEntity
  8
1
  6
Continuous
 62
     4
100
AcDbLine
 10
77.5
 20
-273.0016768481044
 30
0.0
 11
265.271894496913
 21
-273.0016768481044
 31
0.0
  0
SOLID
  5
38F
330
38B
100
AcDbEntity
  8
1
 62
     4
100
AcDbTrace
 10
261.6920645258642
 20
-261.0016768481044
 30
0.0
 11
264.8517244679617
 21
-261.0016768481044
 31
0.0
 12
263.271894496913
 22
-273.0016768481044
 32
0.0
 13
263.271894496913
 23
-273.0016768481044
 33
0.0
  0
SOLID
  5
390
330
38B
100
AcDbEntity
  8
1
 62
     4
100
AcDbTrace
 10
264.8517244679617
 20
-12.0032649999998
 30
0.0
 11
261.6920645258642
 21
-12.0032649999998
 31
0.0
 12
263.271894496913
 22
-0.0032649999998
 32
0.0
 13
263.271894496913
 23
-0.0032649999998
 33
0.0
  0
MTEXT
  5
391
330
38B
100
AcDbEntity
  8
1
 62
     1
100
AcDbMText
 10
261.271894496913
 20
-151.777842869545
 30
0.0
 40
12.0
 41
0.0
 71
     7
 72
     1
  1
271
  7
CONVERTER_11
 11
0.0
 21
1.0
 31
0.0
 73
     1
 44
0.60024009603842
  0
ENDBLK
  5
393
330
38B
100
AcDbEntity
  8
0
100
AcDbBlockEnd
  0
ENDSEC
  0
SECTION
  2
ENTITIES
  0
INSERT
  5
63
330
1F
100
AcDbEntity
  8
1
100
AcDbBlockReference
  2
Senkschraube_M_6x25_DIN_965
 10
-36.04893710713077
 20
-787.6044551085943
 30
0.0
  0
INSERT
  5
64
330
1F
100
AcDbEntity
  8
0
100
AcDbBlockReference
  2
HL_61_7_Flachdachablauf
 10
-29.52887217687611
 20
450.9721299999999
 30
0.0
  0
INSERT
  5
65
330
1F
100
AcDbEntity
  8
0
100
AcDbBlockReference
  2
060_1E_Laubfangkorb
 10
17.77195867930641
 20
-740.7796983749759
 30
0.0
  0
INSERT
  5
66
330
1F
100
AcDbEntity
  8
1
100
AcDbBlockReference
  2
PVC_Manschette
 10
-1177.0
 20
-75.17215613556982
 30
0.0
  0
INSERT
  5
67
330
1F
100
AcDbEntity
  8
0
100
AcDbBlockReference
  2
Bauschutz_062_9E
 10
-646.596795999998
 20
-249.6651535240562
 30
0.0
  0
INSERT
  5
68
330
1F
100
AcDbEntity
  8
1
100
AcDbBlockReference
  2
Körper
 10
-268.7961463795655
 20
-427.206460026031
 30
0.0
  0
DIMENSION
  5
348
330
1F
100
AcDbEntity
  8
1
100
AcDbDimension
  2
*D8
 10
-177.0
 20
126.313293555226
 30
0.0
 11
16.2440028001494
 21
134.313293555226
 31
0.0
 70
    32
  1
<>
 71
     5
 42
-1.0
 53
0.00013888888889
  3
ME10_DIM_10
100
AcDbAlignedDimension
 13
177.0
 23
3.49722305267368
 33
0.0
 14
-177.0
 24
3.49722305267368
 34
0.0
 50
0.00000000000001
100
AcDbRotatedDimension
  0
DIMENSION
  5
353
330
1F
100
AcDbEntity
  8
1
100
AcDbDimension
  2
*D9
 10
-189.0
 20
157.14755073116
 30
0.0
 11
-28.62607436954016
 21
165.14755073116
 31
0.0
 70
    32
  1
<>
 71
     5
 42
-1.0
 53
0.00013888888889
  3
ME10_DIM_11
100
AcDbAlignedDimension
 13
189.0
 23
-102.5030258481043
 33
0.0
 14
-189.0
 24
-102.5030258481043
 34
0.0
 50
0.00000000000001
100
AcDbRotatedDimension
  0
DIMENSION
  5
35E
330
1F
100
AcDbEntity
  8
1
100
AcDbDimension
  2
*D10
 10
-142.050174
 20
99.318734950584
 30
0.0
 11
-28.62607436953981
 21
107.318734950584
 31
0.0
 70
    32
  1
284x284
 71
     5
 42
-1.0
 53
0.00013888888889
  3
ME10_DIM_12
100
AcDbAlignedDimension
 13
142.0501750000002
 23
-0.00259599999981
 33
0.0
 14
-142.050174
 24
-0.00259599999981
 34
0.0
 50
0.00000000000001
100
AcDbRotatedDimension
  0
DIMENSION
  5
369
330
1F
100
AcDbEntity
  8
1
100
AcDbDimension
  2
*D11
 10
225.6739113855701
 20
-100.0030258481043
 30
0.0
 11
217.6739113855701
 21
-48.48055372516631
 31
0.0
 70
    32
  1
100-160
 71
     5
 42
-1.0
 53
-89.99999999999999
  3
ME10_DIM_13
100
AcDbAlignedDimension
 13
179.9999460000001
 23
-0.00326499999983
 33
0.0
 14
187.0
 24
-100.0030258481043
 34
0.0
 50
-89.99999999999999
100
AcDbRotatedDimension
  0
DIMENSION
  5
374
330
1F
100
AcDbEntity
  8
1
100
AcDbDimension
  2
*D12
 10
207.1984407625401
 20
-273.0016768481044
 30
0.0
 11
199.1984407625401
 21
-193.6241264178703
 31
0.0
 70
    32
  1
(111-171
 71
     5
 42
-1.0
 53
-89.99999999999999
  3
ME10_DIM_14
100
AcDbAlignedDimension
 13
189.0
 23
-102.5030258481043
 33
0.0
 14
77.5
 24
-273.0016768481044
 34
0.0
 50
-89.99999999999999
100
AcDbRotatedDimension
  0
DIMENSION
  5
37F
330
1F
100
AcDbEntity
  8
1
100
AcDbDimension
  2
*D13
 10
-37.49999999999999
 20
-372.1877013212285
 30
0.0
 11
-0.09009932431946
 21
-364.1877013212285
 31
0.0
 70
    32
  1
<>
 71
     5
 42
-1.0
 53
0.00013888888889
  3
ME10_DIM_15
100
AcDbAlignedDimension
 13
37.5
 23
-338.0009058481044
 33
0.0
 14
-37.49999999999999
 24
-338.0009058481044
 34
0.0
 50
0.00000000000001
100
AcDbRotatedDimension
  0
DIMENSION
  5
38A
330
1F
100
AcDbEntity
  8
1
100
AcDbDimension
  2
*D14
 10
-85.5
 20
-404.6722851203213
 30
0.0
 11
-3.27486244187739
 21
-396.6722851203213
 31
0.0
 70
    32
  1
<>
 71
     5
 42
-1.0
 53
0.00013888888889
  3
ME10_DIM_16
100
AcDbAlignedDimension
 13
85.5
 23
-268.0016768481044
 33
0.0
 14
-85.5
 24
-268.0016768481044
 34
0.0
 50
0.00000000000001
100
AcDbRotatedDimension
  0
DIMENSION
  5
395
330
1F
100
AcDbEntity
  8
1
100
AcDbDimension
  2
*D15
 10
263.271894496913
 20
-273.0016768481044
 30
0.0
 11
255.271894496913
 21
-139.177842869545
 31
0.0
 70
    32
  1
271
 71
     5
 42
-1.0
 53
90.0
  3
ME10_DIM_17
100
AcDbAlignedDimension
 13
179.9999460000001
 23
-0.00326499999983
 33
0.0
 14
77.5
 24
-273.0016768481044
 34
0.0
 50
90.0
100
AcDbRotatedDimension
  0
ENDSEC
  0
SECTION
  2
OBJECTS
  0
DICTIONARY
  5
C
330
0
100
AcDbDictionary
281
     1
  3
ACAD_GROUP
350
D
  3
ACAD_LAYOUT
350
1A
  3
ACAD_MLINESTYLE
350
17
  3
ACAD_PLOTSETTINGS
350
19
  3
ACAD_PLOTSTYLENAME
350
E
  3
ACAD_TABLESTYLE
350
396
  3
ACAD_VISUALSTYLE
350
2A
  0
DICTIONARY
  5
D
102
{ACAD_REACTORS
330
C
102
}
330
C
100
AcDbDictionary
281
     1
  0
DICTIONARY
  5
1A
102
{ACAD_REACTORS
330
C
102
}
330
C
100
AcDbDictionary
281
     1
  3
Layout1
350
1E
  3
Layout2
350
26
  3
Model
350
22
  0
DICTIONARY
  5
17
102
{ACAD_REACTORS
330
C
102
}
330
C
100
AcDbDictionary
281
     1
  3
Standard
350
18
  0
DICTIONARY
  5
19
102
{ACAD_REACTORS
330
C
102
}
330
C
100
AcDbDictionary
281
     1
  0
ACDBDICTIONARYWDFLT
  5
E
102
{ACAD_REACTORS
330
C
102
}
330
C
100
AcDbDictionary
281
     1
  3
Normal
350
F
100
AcDbDictionaryWithDefault
340
F
  0
DICTIONARY
  5
396
102
{ACAD_REACTORS
330
C
102
}
330
C
100
AcDbDictionary
281
     1
  0
DICTIONARY
  5
2A
102
{ACAD_REACTORS
330
C
102
}
330
C
100
AcDbDictionary
281
     1
  3
2dWireframe
350
2F
  3
3D Hidden
350
31
  3
3dWireframe
350
30
  3
Basic
350
32
  3
Brighten
350
36
  3
ColorChange
350
3A
  3
Conceptual
350
34
  3
Dim
350
35
  3
Facepattern
350
39
  3
Flat
350
2B
  3
FlatWithEdges
350
2C
  3
Gouraud
350
2D
  3
GouraudWithEdges
350
2E
  3
Linepattern
350
38
  3
Realistic
350
33
  3
Thicken
350
37
  0
LAYOUT
  5
1E
102
{ACAD_REACTORS
330
1A
102
}
330
1A
100
AcDbPlotSettings
  1

  2
none_device
  4

  6

 40
0.0
 41
0.0
 42
0.0
 43
0.0
 44
0.0
 45
0.0
 46
0.0
 47
0.0
 48
0.0
 49
0.0
140
0.0
141
0.0
142
1.0
143
1.0
 70
   688
 72
     0
 73
     0
 74
     5
  7

 75
    16
147
1.0
148
0.0
149
0.0
100
AcDbLayout
  1
Layout1
 70
     1
 71
     1
 10
0.0
 20
0.0
 11
12.0
 21
9.0
 12
0.0
 22
0.0
 32
0.0
 14
1.00000000000000E+20
 24
1.00000000000000E+20
 34
1.00000000000000E+20
 15
-1.00000000000000E+20
 25
-1.00000000000000E+20
 35
-1.00000000000000E+20
146
0.0
 13
0.0
 23
0.0
 33
0.0
 16
1.0
 26
0.0
 36
0.0
 17
0.0
 27
1.0
 37
0.0
 76
     0
330
1B
  0
LAYOUT
  5
26
102
{ACAD_REACTORS
330
1A
102
}
330
1A
100
AcDbPlotSettings
  1

  2
none_device
  4

  6

 40
0.0
 41
0.0
 42
0.0
 43
0.0
 44
0.0
 45
0.0
 46
0.0
 47
0.0
 48
0.0
 49
0.0
140
0.0
141
0.0
142
1.0
143
1.0
 70
   688
 72
     0
 73
     0
 74
     5
  7

 75
    16
147
1.0
148
0.0
149
0.0
100
AcDbLayout
  1
Layout2
 70
     1
 71
     2
 10
0.0
 20
0.0
 11
0.0
 21
0.0
 12
0.0
 22
0.0
 32
0.0
 14
0.0
 24
0.0
 34
0.0
 15
0.0
 25
0.0
 35
0.0
146
0.0
 13
0.0
 23
0.0
 33
0.0
 16
1.0
 26
0.0
 36
0.0
 17
0.0
 27
1.0
 37
0.0
 76
     0
330
23
  0
LAYOUT
  5
22
102
{ACAD_REACTORS
330
1A
102
}
330
1A
100
AcDbPlotSettings
  1

  2
none_device
  4

  6

 40
0.0
 41
0.0
 42
0.0
 43
0.0
 44
0.0
 45
0.0
 46
0.0
 47
0.0
 48
0.0
 49
0.0
140
0.0
141
0.0
142
1.0
143
1.0
 70
  1712
 72
     0
 73
     0
 74
     0
  7

 75
     0
147
1.0
148
0.0
149
0.0
100
AcDbLayout
  1
Model
 70
     1
 71
     0
 10
0.0
 20
0.0
 11
12.0
 21
9.0
 12
0.0
 22
0.0
 32
0.0
 14
-189.0
 24
-876.5552291085951
 34
0.0
 15
265.271894496913
 25
225.3291095505701
 35
0.0
146
0.0
 13
0.0
 23
0.0
 33
0.0
 16
1.0
 26
0.0
 36
0.0
 17
0.0
 27
1.0
 37
0.0
 76
     0
330
1F
331
29
  0
MLINESTYLE
  5
18
102
{ACAD_REACTORS
330
17
102
}
330
17
100
AcDbMlineStyle
  2
Standard
 70
     0
  3

 62
   256
 51
90.0
 52
90.0
 71
     2
 49
0.5
 62
   256
  6
BYLAYER
 49
-0.5
 62
   256
  6
BYLAYER
  0
ACDBPLACEHOLDER
  5
F
102
{ACAD_REACTORS
330
E
102
}
330
E
  0
VISUALSTYLE
  5
2F
102
{ACAD_REACTORS
330
2A
102
}
330
2A
100
AcDbVisualStyle
  2
2dWireframe
 70
     4
 71
     0
 72
     2
 73
     0
 90
        0
 40
-0.6
 41
-30.0
 62
     5
 63
     7
 74
     1
 91
        4
 64
     7
 65
   257
 75
     1
175
     1
 42
1.0
 92
        0
 66
   257
 43
1.0
 76
     1
 77
     6
 78
     2
 67
     7
 79
     5
170
     0
171
     0
290
     0
174
     0
 93
        1
 44
0.0
173
     0
291
     0
 45
0.0
1001
ACAD
1000
AcDbSavedByObjectVersion
1070
     0
  0
VISUALSTYLE
  5
31
102
{ACAD_REACTORS
330
2A
102
}
330
2A
100
AcDbVisualStyle
  2
3D Hidden
 70
     6
 71
     1
 72
     2
 73
     2
 90
        0
 40
-0.6
 41
-30.0
 62
     5
 63
     7
 74
     2
 91
        2
 64
     7
 65
   257
 75
     2
175
     1
 42
40.0
 92
        0
 66
   257
 43
1.0
 76
     1
 77
     6
 78
     2
 67
     7
 79
     3
170
     0
171
     0
290
     0
174
     0
 93
        1
 44
0.0
173
     0
291
     0
 45
0.0
1001
ACAD
1000
AcDbSavedByObjectVersion
1070
     0
  0
VISUALSTYLE
  5
30
102
{ACAD_REACTORS
330
2A
102
}
330
2A
100
AcDbVisualStyle
  2
3dWireframe
 70
     5
 71
     0
 72
     2
 73
     0
 90
        0
 40
-0.6
 41
-30.0
 62
     5
 63
     7
 74
     1
 91
        4
 64
     7
 65
   257
 75
     1
175
     1
 42
1.0
 92
        0
 66
   257
 43
1.0
 76
     1
 77
     6
 78
     2
 67
     7
 79
     5
170
     0
171
     0
290
     0
174
     0
 93
        1
 44
0.0
173
     0
291
     0
 45
0.0
1001
ACAD
1000
AcDbSavedByObjectVersion
1070
     0
  0
VISUALSTYLE
  5
32
102
{ACAD_REACTORS
330
2A
102
}
330
2A
100
AcDbVisualStyle
  2
Basic
 70
     7
 71
     1
 72
     0
 73
     1
 90
        0
 40
-0.6
 41
-30.0
 62
     5
 63
     7
 74
     0
 91
        4
 64
     7
 65
   257
 75
     1
175
     1
 42
1.0
 92
        8
 66
     7
 43
1.0
 76
     1
 77
     6
 78
     2
 67
     7
 79
     5
170
     0
171
     0
290
     0
174
     0
 93
        1
 44
0.0
173
     0
291
     1
 45
0.0
1001
ACAD
1000
AcDbSavedByObjectVersion
1070
     0
  0
VISUALSTYLE
  5
36
102
{ACAD_REACTORS
330
2A
102
}
330
2A
100
AcDbVisualStyle
  2
Brighten
 70
    12
 71
     2
 72
     2
 73
     0
 90
        0
 40
-0.6
 41
-30.0
 62
     5
 63
     7
 74
     1
 91
        4
 64
     7
 65
   257
 75
     1
175
     1
 42
1.0
 92
        8
 66
     7
 43
1.0
 76
     1
 77
     6
 78
     2
 67
     7
 79
     5
170
     0
171
     0
290
     0
174
     0
 93
        1
 44
50.0
173
     0
291
     1
 45
0.0
1001
ACAD
1000
AcDbSavedByObjectVersion
1070
     0
  0
VISUALSTYLE
  5
3A
102
{ACAD_REACTORS
330
2A
102
}
330
2A
100
AcDbVisualStyle
  2
ColorChange
 70
    16
 71
     2
 72
     2
 73
     3
 90
        0
 40
-0.6
 41
-30.0
 62
     5
 63
     8
 74
     1
 91
        4
 64
     7
 65
   257
 75
     1
175
     1
 42
1.0
 92
        8
 66
     8
 43
1.0
 76
     1
 77
     6
 78
     2
 67
     7
 79
     5
170
     0
171
     0
290
     0
174
     0
 93
        1
 44
0.0
173
     0
291
     1
 45
0.0
1001
ACAD
1000
AcDbSavedByObjectVersion
1070
     0
  0
VISUALSTYLE
  5
34
102
{ACAD_REACTORS
330
2A
102
}
330
2A
100
AcDbVisualStyle
  2
Conceptual
 70
     9
 71
     3
 72
     2
 73
     0
 90
        0
 40
-0.6
 41
-30.0
 62
     5
 63
     7
 74
     2
 91
        2
 64
     7
 65
   257
 75
     1
175
     1
 42
40.0
 92
        8
 66
     7
 43
1.0
 76
     1
 77
     6
 78
     2
 67
     7
 79
     3
170
     0
171
     0
290
     0
174
     0
 93
        1
 44
0.0
173
     0
291
     0
 45
0.0
1001
ACAD
1000
AcDbSavedByObjectVersion
1070
     0
  0
VISUALSTYLE
  5
35
102
{ACAD_REACTORS
330
2A
102
}
330
2A
100
AcDbVisualStyle
  2
Dim
 70
    11
 71
     2
 72
     2
 73
     0
 90
        0
 40
-0.6
 41
-30.0
 62
     5
 63
     7
 74
     1
 91
        4
 64
     7
 65
   257
 75
     1
175
     1
 42
1.0
 92
        8
 66
     7
 43
1.0
 76
     1
 77
     6
 78
     2
 67
     7
 79
     5
170
     0
171
     0
290
     0
174
     0
 93
        1
 44
-50.0
173
     0
291
     1
 45
0.0
1001
ACAD
1000
AcDbSavedByObjectVersion
1070
     0
  0
VISUALSTYLE
  5
39
102
{ACAD_REACTORS
330
2A
102
}
330
2A
100
AcDbVisualStyle
  2
Facepattern
 70
    15
 71
     2
 72
     2
 73
     0
 90
        0
 40
-0.6
 41
-30.0
 62
     5
 63
     7
 74
     1
 91
        4
 64
     7
 65
   257
 75
     1
175
     1
 42
1.0
 92
        8
 66
     7
 43
1.0
 76
     1
 77
     6
 78
     2
 67
     7
 79
     5
170
     0
171
     0
290
     0
174
     0
 93
        1
 44
0.0
173
     0
291
     1
 45
0.0
1001
ACAD
1000
AcDbSavedByObjectVersion
1070
     0
  0
VISUALSTYLE
  5
2B
102
{ACAD_REACTORS
330
2A
102
}
330
2A
100
AcDbVisualStyle
  2
Flat
 70
     0
 71
     2
 72
     1
 73
     1
 90
        2
 40
-0.6
 41
30.0
 62
     5
 63
     7
 74
     0
 91
        4
 64
     7
 65
   257
 75
     1
175
     1
 42
1.0
 92
        8
 66
     7
 43
1.0
 76
     1
 77
     6
 78
     2
 67
     7
 79
     5
170
     0
171
     0
290
     0
174
     0
 93
       13
 44
0.0
173
     0
291
     1
 45
0.0
1001
ACAD
1000
AcDbSavedByObjectVersion
1070
     0
  0
VISUALSTYLE
  5
2C
102
{ACAD_REACTORS
330
2A
102
}
330
2A
100
AcDbVisualStyle
  2
FlatWithEdges
 70
     1
 71
     2
 72
     1
 73
     1
 90
        2
 40
-0.6
 41
30.0
 62
     5
 63
     7
 74
     1
 91
        4
 64
     7
 65
   257
 75
     1
175
     1
 42
1.0
 92
        0
 66
   257
 43
1.0
 76
     1
 77
     6
 78
     2
 67
     7
 79
     5
170
     0
171
     0
290
     0
174
     0
 93
       13
 44
0.0
173
     0
291
     1
 45
0.0
1001
ACAD
1000
AcDbSavedByObjectVersion
1070
     0
  0
VISUALSTYLE
  5
2D
102
{ACAD_REACTORS
330
2A
102
}
330
2A
100
AcDbVisualStyle
  2
Gouraud
 70
     2
 71
     2
 72
     2
 73
     1
 90
        2
 40
-0.6
 41
30.0
 62
     5
 63
     7
 74
     0
 91
        4
 64
     7
 65
   257
 75
     1
175
     1
 42
1.0
 92
        0
 66
     7
 43
1.0
 76
     1
 77
     6
 78
     2
 67
     7
 79
     5
170
     0
171
     0
290
     0
174
     0
 93
       13
 44
0.0
173
     0
291
     1
 45
0.0
1001
ACAD
1000
AcDbSavedByObjectVersion
1070
     0
  0
VISUALSTYLE
  5
2E
102
{ACAD_REACTORS
330
2A
102
}
330
2A
100
AcDbVisualStyle
  2
GouraudWithEdges
 70
     3
 71
     2
 72
     2
 73
     1
 90
        2
 40
-0.6
 41
30.0
 62
     5
 63
     7
 74
     1
 91
        4
 64
     7
 65
   257
 75
     1
175
     1
 42
1.0
 92
        0
 66
   257
 43
1.0
 76
     1
 77
     6
 78
     2
 67
     7
 79
     5
170
     0
171
     0
290
     0
174
     0
 93
       13
 44
0.0
173
     0
291
     1
 45
0.0
1001
ACAD
1000
AcDbSavedByObjectVersion
1070
     0
  0
VISUALSTYLE
  5
38
102
{ACAD_REACTORS
330
2A
102
}
330
2A
100
AcDbVisualStyle
  2
Linepattern
 70
    14
 71
     2
 72
     2
 73
     0
 90
        0
 40
-0.6
 41
-30.0
 62
     5
 63
     7
 74
     1
 91
        4
 64
     7
 65
   257
 75
     7
175
     7
 42
1.0
 92
        8
 66
     7
 43
1.0
 76
     1
 77
     6
 78
     2
 67
     7
 79
     5
170
     0
171
     0
290
     0
174
     0
 93
        1
 44
0.0
173
     0
291
     1
 45
0.0
1001
ACAD
1000
AcDbSavedByObjectVersion
1070
     0
  0
VISUALSTYLE
  5
33
102
{ACAD_REACTORS
330
2A
102
}
330
2A
100
AcDbVisualStyle
  2
Realistic
 70
     8
 71
     2
 72
     2
 73
     0
 90
        0
 40
-0.6
 41
-30.0
 62
     5
 63
     7
 74
     1
 91
        0
 64
     7
 65
   257
 75
     1
175
     1
 42
1.0
 92
        8
 66
     8
 43
1.0
 76
     1
 77
     6
 78
     2
 67
     7
 79
     5
170
     0
171
     0
290
     0
174
     0
 93
       13
 44
0.0
173
     0
291
     0
 45
0.0
1001
ACAD
1000
AcDbSavedByObjectVersion
1070
     0
  0
VISUALSTYLE
  5
37
102
{ACAD_REACTORS
330
2A
102
}
330
2A
100
AcDbVisualStyle
  2
Thicken
 70
    13
 71
     2
 72
     2
 73
     0
 90
        0
 40
-0.6
 41
-30.0
 62
     5
 63
     7
 74
     1
 91
        4
 64
     7
 65
   257
 75
     1
175
     1
 42
1.0
 92
       12
 66
     7
 43
1.0
 76
     1
 77
     6
 78
     2
 67
     7
 79
     5
170
     0
171
     0
290
     0
174
     0
 93
        1
 44
0.0
173
     0
291
     1
 45
0.0
1001
ACAD
1000
AcDbSavedByObjectVersion
1070
     0
  0
ENDSEC
  0
EOF
