  0
SECTION
  2
HEADER
  9
$ACADVER
  1
AC1015
  9
$ACADMAINTVER
 70
     6
  9
$DWGCODEPAGE
  3
ANSI_1252
  9
$INSBASE
 10
0.0
 20
0.0
 30
0.0
  9
$EXTMIN
 10
-275.0000445062592
 20
-838.2438330230611
 30
0.0
  9
$EXTMAX
 10
325.9342238763731
 20
43.9213428777137
 30
0.0
  9
$LIMMIN
 10
0.0
 20
0.0
  9
$LIMMAX
 10
12.0
 20
9.0
  9
$ORTHOMODE
 70
     0
  9
$REGENMODE
 70
     1
  9
$FILLMODE
 70
     1
  9
$QTEXTMODE
 70
     0
  9
$MIRRTEXT
 70
     1
  9
$LTSCALE
 40
1.0
  9
$ATTMODE
 70
     1
  9
$TEXTSIZE
 40
0.2
  9
$TRACEWID
 40
0.05
  9
$TEXTSTYLE
  7
Standard
  9
$CLAYER
  8
0
  9
$CELTYPE
  6
ByLayer
  9
$CECOLOR
 62
   256
  9
$CELTSCALE
 40
1.0
  9
$DISPSILH
 70
     0
  9
$DIMSCALE
 40
1.0
  9
$DIMASZ
 40
0.18
  9
$DIMEXO
 40
0.0625
  9
$DIMDLI
 40
0.38
  9
$DIMRND
 40
0.0
  9
$DIMDLE
 40
0.0
  9
$DIMEXE
 40
0.18
  9
$DIMTP
 40
0.0
  9
$DIMTM
 40
0.0
  9
$DIMTXT
 40
0.18
  9
$DIMCEN
 40
0.09
  9
$DIMTSZ
 40
0.0
  9
$DIMTOL
 70
     0
  9
$DIMLIM
 70
     0
  9
$DIMTIH
 70
     1
  9
$DIMTOH
 70
     1
  9
$DIMSE1
 70
     0
  9
$DIMSE2
 70
     0
  9
$DIMTAD
 70
     0
  9
$DIMZIN
 70
     0
  9
$DIMBLK
  1

  9
$DIMASO
 70
     1
  9
$DIMSHO
 70
     1
  9
$DIMPOST
  1

  9
$DIMAPOST
  1

  9
$DIMALT
 70
     0
  9
$DIMALTD
 70
     2
  9
$DIMALTF
 40
25.4
  9
$DIMLFAC
 40
1.0
  9
$DIMTOFL
 70
     0
  9
$DIMTVP
 40
0.0
  9
$DIMTIX
 70
     0
  9
$DIMSOXD
 70
     0
  9
$DIMSAH
 70
     0
  9
$DIMBLK1
  1

  9
$DIMBLK2
  1

  9
$DIMSTYLE
  2
Standard
  9
$DIMCLRD
 70
     0
  9
$DIMCLRE
 70
     0
  9
$DIMCLRT
 70
     0
  9
$DIMTFAC
 40
1.0
  9
$DIMGAP
 40
0.09
  9
$DIMJUST
 70
     0
  9
$DIMSD1
 70
     0
  9
$DIMSD2
 70
     0
  9
$DIMTOLJ
 70
     1
  9
$DIMTZIN
 70
     0
  9
$DIMALTZ
 70
     0
  9
$DIMALTTZ
 70
     0
  9
$DIMUPT
 70
     0
  9
$DIMDEC
 70
     4
  9
$DIMTDEC
 70
     4
  9
$DIMALTU
 70
     2
  9
$DIMALTTD
 70
     2
  9
$DIMTXSTY
  7
Standard
  9
$DIMAUNIT
 70
     0
  9
$DIMADEC
 70
     0
  9
$DIMALTRND
 40
0.0
  9
$DIMAZIN
 70
     0
  9
$DIMDSEP
 70
    46
  9
$DIMATFIT
 70
     3
  9
$DIMFRAC
 70
     0
  9
$DIMLDRBLK
  1

  9
$DIMLUNIT
 70
     2
  9
$DIMLWD
 70
    -2
  9
$DIMLWE
 70
    -2
  9
$DIMTMOVE
 70
     0
  9
$LUNITS
 70
     2
  9
$LUPREC
 70
     4
  9
$SKETCHINC
 40
0.1
  9
$FILLETRAD
 40
0.5
  9
$AUNITS
 70
     0
  9
$AUPREC
 70
     0
  9
$MENU
  1
.
  9
$ELEVATION
 40
0.0
  9
$PELEVATION
 40
0.0
  9
$THICKNESS
 40
0.0
  9
$LIMCHECK
 70
     0
  9
$CHAMFERA
 40
0.0
  9
$CHAMFERB
 40
0.0
  9
$CHAMFERC
 40
0.0
  9
$CHAMFERD
 40
0.0
  9
$SKPOLY
 70
     0
  9
$TDCREATE
 40
2458074.348219861
  9
$TDUCREATE
 40
2458074.306553194
  9
$TDUPDATE
 40
2458074.348220648
  9
$TDUUPDATE
 40
2458074.306553981
  9
$TDINDWG
 40
0.0000000116
  9
$TDUSRTIMER
 40
0.0000000116
  9
$USRTIMER
 70
     1
  9
$ANGBASE
 50
0.0
  9
$ANGDIR
 70
     0
  9
$PDMODE
 70
     0
  9
$PDSIZE
 40
0.0
  9
$PLINEWID
 40
0.0
  9
$SPLFRAME
 70
     0
  9
$SPLINETYPE
 70
     6
  9
$SPLINESEGS
 70
     8
  9
$HANDSEED
  5
417
  9
$SURFTAB1
 70
     6
  9
$SURFTAB2
 70
     6
  9
$SURFTYPE
 70
     6
  9
$SURFU
 70
     6
  9
$SURFV
 70
     6
  9
$UCSBASE
  2

  9
$UCSNAME
  2

  9
$UCSORG
 10
0.0
 20
0.0
 30
0.0
  9
$UCSXDIR
 10
1.0
 20
0.0
 30
0.0
  9
$UCSYDIR
 10
0.0
 20
1.0
 30
0.0
  9
$UCSORTHOREF
  2

  9
$UCSORTHOVIEW
 70
     0
  9
$UCSORGTOP
 10
0.0
 20
0.0
 30
0.0
  9
$UCSORGBOTTOM
 10
0.0
 20
0.0
 30
0.0
  9
$UCSORGLEFT
 10
0.0
 20
0.0
 30
0.0
  9
$UCSORGRIGHT
 10
0.0
 20
0.0
 30
0.0
  9
$UCSORGFRONT
 10
0.0
 20
0.0
 30
0.0
  9
$UCSORGBACK
 10
0.0
 20
0.0
 30
0.0
  9
$PUCSBASE
  2

  9
$PUCSNAME
  2

  9
$PUCSORG
 10
0.0
 20
0.0
 30
0.0
  9
$PUCSXDIR
 10
1.0
 20
0.0
 30
0.0
  9
$PUCSYDIR
 10
0.0
 20
1.0
 30
0.0
  9
$PUCSORTHOREF
  2

  9
$PUCSORTHOVIEW
 70
     0
  9
$PUCSORGTOP
 10
0.0
 20
0.0
 30
0.0
  9
$PUCSORGBOTTOM
 10
0.0
 20
0.0
 30
0.0
  9
$PUCSORGLEFT
 10
0.0
 20
0.0
 30
0.0
  9
$PUCSORGRIGHT
 10
0.0
 20
0.0
 30
0.0
  9
$PUCSORGFRONT
 10
0.0
 20
0.0
 30
0.0
  9
$PUCSORGBACK
 10
0.0
 20
0.0
 30
0.0
  9
$USERI1
 70
     0
  9
$USERI2
 70
     0
  9
$USERI3
 70
     0
  9
$USERI4
 70
     0
  9
$USERI5
 70
     0
  9
$USERR1
 40
20.0
  9
$USERR2
 40
0.0
  9
$USERR3
 40
0.0
  9
$USERR4
 40
0.0
  9
$USERR5
 40
0.0
  9
$WORLDVIEW
 70
     1
  9
$SHADEDGE
 70
     3
  9
$SHADEDIF
 70
    70
  9
$TILEMODE
 70
     1
  9
$MAXACTVP
 70
    64
  9
$PINSBASE
 10
0.0
 20
0.0
 30
0.0
  9
$PLIMCHECK
 70
     0
  9
$PEXTMIN
 10
1.00000000000000E+20
 20
1.00000000000000E+20
 30
1.00000000000000E+20
  9
$PEXTMAX
 10
-1.00000000000000E+20
 20
-1.00000000000000E+20
 30
-1.00000000000000E+20
  9
$PLIMMIN
 10
0.0
 20
0.0
  9
$PLIMMAX
 10
12.0
 20
9.0
  9
$UNITMODE
 70
     0
  9
$VISRETAIN
 70
     1
  9
$PLINEGEN
 70
     0
  9
$PSLTSCALE
 70
     1
  9
$TREEDEPTH
 70
  3020
  9
$CMLSTYLE
  2
Standard
  9
$CMLJUST
 70
     0
  9
$CMLSCALE
 40
1.0
  9
$PROXYGRAPHICS
 70
     1
  9
$MEASUREMENT
 70
     1
  9
$CELWEIGHT
370
    -1
  9
$ENDCAPS
280
     0
  9
$JOINSTYLE
280
     0
  9
$LWDISPLAY
290
     0
  9
$INSUNITS
 70
     4
  9
$HYPERLINKBASE
  1

  9
$STYLESHEET
  1

  9
$XEDIT
290
     1
  9
$CEPSNTYPE
380
     0
  9
$PSTYLEMODE
290
     1
  9
$FINGERPRINTGUID
  2
{47F24EAC-7E8D-454A-A398-FE689D3DB3D4}
  9
$VERSIONGUID
  2
{FAEB1C32-E019-11D5-929B-00C0DF256EC4}
  9
$EXTNAMES
290
     1
  9
$PSVPSCALE
 40
0.0
  9
$OLESTARTUP
290
     0
  0
ENDSEC
  0
SECTION
  2
CLASSES
  0
CLASS
  1
ACDBDICTIONARYWDFLT
  2
AcDbDictionaryWithDefault
  3
ObjectDBX Classes
 90
        0
280
     0
281
     0
  0
CLASS
  1
VISUALSTYLE
  2
AcDbVisualStyle
  3
ObjectDBX Classes
 90
     4095
280
     0
281
     0
  0
CLASS
  1
MATERIAL
  2
AcDbMaterial
  3
ObjectDBX Classes
 90
     1153
280
     0
281
     0
  0
CLASS
  1
SCALE
  2
AcDbScale
  3
ObjectDBX Classes
 90
     1153
280
     0
281
     0
  0
CLASS
  1
TABLESTYLE
  2
AcDbTableStyle
  3
ObjectDBX Classes
 90
     4095
280
     0
281
     0
  0
CLASS
  1
MLEADERSTYLE
  2
AcDbMLeaderStyle
  3
ACDB_MLEADERSTYLE_CLASS
 90
     4095
280
     0
281
     0
  0
CLASS
  1
SUN
  2
AcDbSun
  3
SCENEOE
 90
     1153
280
     0
281
     0
  0
CLASS
  1
DICTIONARYVAR
  2
AcDbDictionaryVar
  3
ObjectDBX Classes
 90
        0
280
     0
281
     0
  0
CLASS
  1
ACDBPLACEHOLDER
  2
AcDbPlaceHolder
  3
ObjectDBX Classes
 90
        0
280
     0
281
     0
  0
CLASS
  1
LAYOUT
  2
AcDbLayout
  3
ObjectDBX Classes
 90
        0
280
     0
281
     0
  0
ENDSEC
  0
SECTION
  2
TABLES
  0
TABLE
  2
VPORT
  5
8
102
{ACAD_XDICTIONARY
360
3DA
102
}
330
0
100
AcDbSymbolTable
 70
     1
  0
VPORT
  5
29
330
8
100
AcDbSymbolTableRecord
100
AcDbViewportTableRecord
  2
*Active
 70
     0
 10
0.0
 20
0.0
 11
1.0
 21
1.0
 12
25.46708968505695
 22
-397.1612450726738
 13
0.0
 23
0.0
 14
0.5
 24
0.5
 15
0.5
 25
0.5
 16
0.0
 26
0.0
 36
1.0
 17
0.0
 27
0.0
 37
0.0
 40
970.3816934908523
 41
1.60267857142857
 42
50.0
 43
0.0
 44
0.0
 50
0.0
 51
0.0
 71
     0
 72
   100
 73
     1
 74
     3
 75
     0
 76
     0
 77
     0
 78
     0
281
     0
 65
     1
110
0.0
120
0.0
130
0.0
111
1.0
121
0.0
131
0.0
112
0.0
122
1.0
132
0.0
 79
     0
146
0.0
  0
ENDTAB
  0
TABLE
  2
LTYPE
  5
5
330
0
100
AcDbSymbolTable
 70
     8
  0
LTYPE
  5
14
330
5
100
AcDbSymbolTableRecord
100
AcDbLinetypeTableRecord
  2
ByBlock
 70
     0
  3

 72
    65
 73
     0
 40
0.0
  0
LTYPE
  5
15
330
5
100
AcDbSymbolTableRecord
100
AcDbLinetypeTableRecord
  2
ByLayer
 70
     0
  3

 72
    65
 73
     0
 40
0.0
  0
LTYPE
  5
16
330
5
100
AcDbSymbolTableRecord
100
AcDbLinetypeTableRecord
  2
Continuous
 70
     0
  3
Solid line
 72
    65
 73
     0
 40
0.0
  0
LTYPE
  5
6E
330
5
100
AcDbSymbolTableRecord
100
AcDbLinetypeTableRecord
  2
DASHED
 70
     0
  3
Dashed
 72
    65
 73
     2
 40
15.0
 49
7.0
 74
     0
 49
-8.0
 74
     0
  0
LTYPE
  5
6F
330
5
100
AcDbSymbolTableRecord
100
AcDbLinetypeTableRecord
  2
DOTTED
 70
     0
  3
Dotted
 72
    65
 73
     2
 40
1.0
 49
0.0
 74
     0
 49
-1.0
 74
     0
  0
LTYPE
  5
70
330
5
100
AcDbSymbolTableRecord
100
AcDbLinetypeTableRecord
  2
DOT_CENTER
 70
     0
  3
Dot_Center
 72
    65
 73
     4
 40
14.0
 49
12.0
 74
     0
 49
-1.0
 74
     0
 49
0.0
 74
     0
 49
-1.0
 74
     0
  0
LTYPE
  5
71
330
5
100
AcDbSymbolTableRecord
100
AcDbLinetypeTableRecord
  2
LONG_DASHED
 70
     0
  3
Long_Dashed
 72
    65
 73
     2
 40
15.0
 49
10.0
 74
     0
 49
-5.0
 74
     0
  0
LTYPE
  5
72
330
5
100
AcDbSymbolTableRecord
100
AcDbLinetypeTableRecord
  2
DASH_CENTER
 70
     0
  3
Dash_Center
 72
    65
 73
     4
 40
14.0
 49
11.0
 74
     0
 49
-1.0
 74
     0
 49
1.0
 74
     0
 49
-1.0
 74
     0
  0
LTYPE
  5
73
330
5
100
AcDbSymbolTableRecord
100
AcDbLinetypeTableRecord
  2
PHANTOM
 70
     0
  3
Phantom
 72
    65
 73
     6
 40
13.0
 49
10.0
 74
     0
 49
-1.0
 74
     0
 49
0.0
 74
     0
 49
-1.0
 74
     0
 49
0.0
 74
     0
 49
-1.0
 74
     0
  0
LTYPE
  5
74
330
5
100
AcDbSymbolTableRecord
100
AcDbLinetypeTableRecord
  2
CENTER_DASH_DASH
 70
     0
  3
Center_Dash_Dash
 72
    65
 73
     6
 40
14.0
 49
9.0
 74
     0
 49
-1.0
 74
     0
 49
1.0
 74
     0
 49
-1.0
 74
     0
 49
1.0
 74
     0
 49
-1.0
 74
     0
  0
ENDTAB
  0
TABLE
  2
LAYER
  5
2
330
0
100
AcDbSymbolTable
 70
     8
  0
LAYER
  5
10
330
2
100
AcDbSymbolTableRecord
100
AcDbLayerTableRecord
  2
0
 70
     0
 62
     7
  6
Continuous
370
    -3
390
F
  0
LAYER
  5
75
330
2
100
AcDbSymbolTableRecord
100
AcDbLayerTableRecord
  2
1
 70
     0
 62
     7
  6
Continuous
370
    -3
390
F
  0
LAYER
  5
76
330
2
100
AcDbSymbolTableRecord
100
AcDbLayerTableRecord
  2
LC-001-002-----0
 70
     0
 62
     7
  6
Continuous
370
    -3
390
F
  0
LAYER
  5
77
330
2
100
AcDbSymbolTableRecord
100
AcDbLayerTableRecord
  2
LC-002-002-----0
 70
     0
 62
     7
  6
Continuous
370
    -3
390
F
  0
LAYER
  5
78
330
2
100
AcDbSymbolTableRecord
100
AcDbLayerTableRecord
  2
LC-003-002-----0
 70
     0
 62
     7
  6
Continuous
370
    -3
390
F
  0
LAYER
  5
79
330
2
100
AcDbSymbolTableRecord
100
AcDbLayerTableRecord
  2
LC-003-002-RND-0
 70
     0
 62
     7
  6
Continuous
370
    -3
390
F
  0
LAYER
  5
7A
330
2
100
AcDbSymbolTableRecord
100
AcDbLayerTableRecord
  2
LC-004-002-RND-0
 70
     0
 62
     7
  6
Continuous
370
    -3
390
F
  0
LAYER
  5
7B
330
2
100
AcDbSymbolTableRecord
100
AcDbLayerTableRecord
  2
LC-009-002-RND-0
 70
     0
 62
     7
  6
Continuous
370
    -3
390
F
  0
ENDTAB
  0
TABLE
  2
STYLE
  5
3
330
0
100
AcDbSymbolTable
 70
     2
  0
STYLE
  5
11
330
3
100
AcDbSymbolTableRecord
100
AcDbTextStyleTableRecord
  2
Standard
 70
     0
 40
0.0
 41
1.0
 50
0.0
 71
     0
 42
0.2
  3
txt
  4

  0
STYLE
  5
1DD
330
3
100
AcDbSymbolTableRecord
100
AcDbTextStyleTableRecord
  2
CONVERTER_11
 70
     0
 40
0.0
 41
0.9
 50
0.0
 71
     0
 42
0.2
  3
txt.shx
  4

  0
ENDTAB
  0
TABLE
  2
VIEW
  5
6
330
0
100
AcDbSymbolTable
 70
     0
  0
ENDTAB
  0
TABLE
  2
UCS
  5
7
330
0
100
AcDbSymbolTable
 70
     0
  0
ENDTAB
  0
TABLE
  2
APPID
  5
9
330
0
100
AcDbSymbolTable
 70
     2
  0
APPID
  5
12
330
9
100
AcDbSymbolTableRecord
100
AcDbRegAppTableRecord
  2
ACAD
 70
     0
  0
APPID
  5
414
330
9
100
AcDbSymbolTableRecord
100
AcDbRegAppTableRecord
  2
ACAD_MLEADERVER
 70
     0
  0
ENDTAB
  0
TABLE
  2
DIMSTYLE
  5
A
330
0
100
AcDbSymbolTable
 70
     7
100
AcDbDimStyleTable
  0
DIMSTYLE
105
27
330
A
100
AcDbSymbolTableRecord
100
AcDbDimStyleTableRecord
  2
Standard
 70
     0
178
     0
340
11
  0
DIMSTYLE
105
1E1
102
{ACAD_REACTORS
330
1E2
102
}
330
A
100
AcDbSymbolTableRecord
100
AcDbDimStyleTableRecord
  2
ME10_DIM_10
 70
     0
  3
DN<>
 41
10.0
 42
0.0
 44
2.0
 73
     0
 74
     0
 77
     1
 78
     8
140
10.0
147
2.0
172
     1
173
     1
174
     1
175
     1
176
     4
177
     4
271
     2
178
     1
271
     2
340
1DD
  0
DIMSTYLE
105
1EC
102
{ACAD_REACTORS
330
1ED
102
}
330
A
100
AcDbSymbolTableRecord
100
AcDbDimStyleTableRecord
  2
ME10_DIM_11
 70
     0
  3
DN<>
 41
10.0
 42
0.0
 44
2.0
 73
     0
 74
     0
 77
     1
 78
     8
140
10.0
147
2.0
172
     1
173
     1
174
     1
175
     1
176
     4
177
     4
271
     2
178
     1
271
     2
340
1DD
  0
DIMSTYLE
105
1F7
102
{ACAD_REACTORS
330
1F8
102
}
330
A
100
AcDbSymbolTableRecord
100
AcDbDimStyleTableRecord
  2
ME10_DIM_12
 70
     0
  3
Ø<>
 41
10.0
 42
0.0
 44
2.0
 73
     0
 74
     0
 77
     1
 78
     8
140
10.0
147
2.0
172
     1
173
     1
174
     1
175
     1
176
     4
177
     4
271
     2
178
     1
271
     2
340
1DD
  0
DIMSTYLE
105
202
102
{ACAD_REACTORS
330
203
102
}
330
A
100
AcDbSymbolTableRecord
100
AcDbDimStyleTableRecord
  2
ME10_DIM_13
 70
     0
  3
150x<>
 41
10.0
 42
0.0
 44
2.0
 73
     0
 74
     0
 77
     1
 78
     8
140
10.0
147
2.0
172
     1
173
     1
174
     1
175
     1
176
     4
177
     4
271
     2
178
     1
271
     2
340
1DD
  0
DIMSTYLE
105
20D
102
{ACAD_REACTORS
330
20E
102
}
330
A
100
AcDbSymbolTableRecord
100
AcDbDimStyleTableRecord
  2
ME10_DIM_14
 70
     0
  3
17-<>
 41
10.0
 42
0.0
 44
2.0
 73
     0
 74
     0
 77
     1
 78
     8
140
10.0
147
2.0
172
     1
173
     1
174
     1
175
     1
176
     4
177
     4
271
     2
178
     1
271
     2
340
1DD
  0
DIMSTYLE
105
218
102
{ACAD_REACTORS
330
219
102
}
330
A
100
AcDbSymbolTableRecord
100
AcDbDimStyleTableRecord
  2
ME10_DIM_15
 70
     0
 41
10.0
 42
0.0
 44
2.0
 73
     0
 74
     0
 77
     1
 78
     8
140
10.0
147
2.0
172
     1
173
     1
174
     1
175
     1
176
     4
177
     4
271
     0
178
     1
271
     0
340
1DD
  0
ENDTAB
  0
TABLE
  2
BLOCK_RECORD
  5
1
330
0
100
AcDbSymbolTable
 70
    33
  0
BLOCK_RECORD
  5
1F
330
1
100
AcDbSymbolTableRecord
100
AcDbBlockTableRecord
  2
*Model_Space
340
22
  0
BLOCK_RECORD
  5
1B
330
1
100
AcDbSymbolTableRecord
100
AcDbBlockTableRecord
  2
*Paper_Space
340
1E
  0
BLOCK_RECORD
  5
23
330
1
100
AcDbSymbolTableRecord
100
AcDbBlockTableRecord
  2
*Paper_Space0
340
26
  0
BLOCK_RECORD
  5
7C
330
1
100
AcDbSymbolTableRecord
100
AcDbBlockTableRecord
  2
0317_4E_Reduktion
340
0
102
{BLKREFS
331
80
102
}
  0
BLOCK_RECORD
  5
7F
330
1
100
AcDbSymbolTableRecord
100
AcDbBlockTableRecord
  2
HL_64_1_Flachdachablauf__1
340
0
102
{BLKREFS
331
84
102
}
  0
BLOCK_RECORD
  5
83
330
1
100
AcDbSymbolTableRecord
100
AcDbBlockTableRecord
  2
HL_64_1_Flachdachablauf__2
340
0
102
{BLKREFS
331
88
102
}
  0
BLOCK_RECORD
  5
87
330
1
100
AcDbSymbolTableRecord
100
AcDbBlockTableRecord
  2
HL_64_Flachdachablauf__3
340
0
102
{BLKREFS
331
9B
102
}
  0
BLOCK_RECORD
  5
8B
330
1
100
AcDbSymbolTableRecord
100
AcDbBlockTableRecord
  2
HL_72_Kellerablauf_DN110
340
0
102
{BLKREFS
331
96
102
}
  0
BLOCK_RECORD
  5
8E
330
1
100
AcDbSymbolTableRecord
100
AcDbBlockTableRecord
  2
HL_64_1B_Flachdachablauf
340
0
102
{BLKREFS
331
92
102
}
  0
BLOCK_RECORD
  5
91
330
1
100
AcDbSymbolTableRecord
100
AcDbBlockTableRecord
  2
HL_64_Flachdachablauf__4
340
0
102
{BLKREFS
331
97
102
}
  0
BLOCK_RECORD
  5
95
330
1
100
AcDbSymbolTableRecord
100
AcDbBlockTableRecord
  2
HL_64_1B_Flachdachablauf_DN75_110__5
340
0
102
{BLKREFS
331
9C
102
}
  0
BLOCK_RECORD
  5
9A
330
1
100
AcDbSymbolTableRecord
100
AcDbBlockTableRecord
  2
HL_64B_Flachdachablauf
340
0
102
{BLKREFS
331
AF
102
}
  0
BLOCK_RECORD
  5
9F
330
1
100
AcDbSymbolTableRecord
100
AcDbBlockTableRecord
  2
Bitumenmanschette
340
0
102
{BLKREFS
331
A3
102
}
  0
BLOCK_RECORD
  5
A2
330
1
100
AcDbSymbolTableRecord
100
AcDbBlockTableRecord
  2
HL62_1H_koerper
340
0
102
{BLKREFS
331
A7
102
}
  0
BLOCK_RECORD
  5
A6
330
1
100
AcDbSymbolTableRecord
100
AcDbBlockTableRecord
  2
HL62B
340
0
102
{BLKREFS
331
AB
102
}
  0
BLOCK_RECORD
  5
AA
330
1
100
AcDbSymbolTableRecord
100
AcDbBlockTableRecord
  2
HL_62BH_1_DN110_Dachablauf
340
0
102
{BLKREFS
331
B0
102
}
  0
BLOCK_RECORD
  5
AE
330
1
100
AcDbSymbolTableRecord
100
AcDbBlockTableRecord
  2
HL_64_1B_Flachdachablauf_DN75_110__6
340
0
102
{BLKREFS
331
D6
102
}
  0
BLOCK_RECORD
  5
B3
330
1
100
AcDbSymbolTableRecord
100
AcDbBlockTableRecord
  2
Reduzierung
340
0
102
{BLKREFS
331
D7
102
}
  0
BLOCK_RECORD
  5
B6
330
1
100
AcDbSymbolTableRecord
100
AcDbBlockTableRecord
  2
HL0317_1E_Einlaufrost
340
0
102
{BLKREFS
331
D8
102
}
  0
BLOCK_RECORD
  5
B9
330
1
100
AcDbSymbolTableRecord
100
AcDbBlockTableRecord
  2
HL062B_2E_Aufsatzrahmen
340
0
102
{BLKREFS
331
D9
102
}
  0
BLOCK_RECORD
  5
BC
330
1
100
AcDbSymbolTableRecord
100
AcDbBlockTableRecord
  2
Metallring
340
0
102
{BLKREFS
331
DA
102
}
  0
BLOCK_RECORD
  5
BF
330
1
100
AcDbSymbolTableRecord
100
AcDbBlockTableRecord
  2
Dichtung_unten
340
0
102
{BLKREFS
331
DB
102
}
  0
BLOCK_RECORD
  5
C2
330
1
100
AcDbSymbolTableRecord
100
AcDbBlockTableRecord
  2
62_1H_Koerper
340
0
102
{BLKREFS
331
DC
102
}
  0
BLOCK_RECORD
  5
C5
330
1
100
AcDbSymbolTableRecord
100
AcDbBlockTableRecord
  2
Dichtring
340
0
102
{BLKREFS
331
DD
102
}
  0
BLOCK_RECORD
  5
C8
330
1
100
AcDbSymbolTableRecord
100
AcDbBlockTableRecord
  2
HL062B_3E_Tragring
340
0
102
{BLKREFS
331
DE
102
}
  0
BLOCK_RECORD
  5
CB
330
1
100
AcDbSymbolTableRecord
100
AcDbBlockTableRecord
  2
HL64H_Körper
340
0
102
{BLKREFS
331
CF
102
}
  0
BLOCK_RECORD
  5
CE
330
1
100
AcDbSymbolTableRecord
100
AcDbBlockTableRecord
  2
HL64BH__7
340
0
102
{BLKREFS
331
D3
102
}
  0
BLOCK_RECORD
  5
D2
330
1
100
AcDbSymbolTableRecord
100
AcDbBlockTableRecord
  2
HL_64_1BH_Flachdachablauf_DN75_110
340
0
102
{BLKREFS
331
DF
102
}
  0
BLOCK_RECORD
  5
1D7
330
1
100
AcDbSymbolTableRecord
100
AcDbBlockTableRecord
  2
*D26
340
0
  0
BLOCK_RECORD
  5
1E3
330
1
100
AcDbSymbolTableRecord
100
AcDbBlockTableRecord
  2
*D27
340
0
  0
BLOCK_RECORD
  5
1EE
330
1
100
AcDbSymbolTableRecord
100
AcDbBlockTableRecord
  2
*D28
340
0
  0
BLOCK_RECORD
  5
1F9
330
1
100
AcDbSymbolTableRecord
100
AcDbBlockTableRecord
  2
*D29
340
0
  0
BLOCK_RECORD
  5
204
330
1
100
AcDbSymbolTableRecord
100
AcDbBlockTableRecord
  2
*D30
340
0
  0
BLOCK_RECORD
  5
20F
330
1
100
AcDbSymbolTableRecord
100
AcDbBlockTableRecord
  2
*D31
340
0
  0
BLOCK_RECORD
  5
21A
330
1
100
AcDbSymbolTableRecord
100
AcDbBlockTableRecord
  2
*D32
340
0
102
{BLKREFS
331
221
102
}
  0
ENDTAB
  0
ENDSEC
  0
SECTION
  2
BLOCKS
  0
BLOCK
  5
20
330
1F
100
AcDbEntity
  8
0
100
AcDbBlockBegin
  2
*Model_Space
 70
     0
 10
0.0
 20
0.0
 30
0.0
  3
*Model_Space
  1

  0
ENDBLK
  5
21
330
1F
100
AcDbEntity
  8
0
100
AcDbBlockEnd
  0
BLOCK
  5
1C
330
1B
100
AcDbEntity
 67
     1
  8
0
100
AcDbBlockBegin
  2
*Paper_Space
 70
     0
 10
0.0
 20
0.0
 30
0.0
  3
*Paper_Space
  1

  0
ENDBLK
  5
1D
330
1B
100
AcDbEntity
 67
     1
  8
0
100
AcDbBlockEnd
  0
BLOCK
  5
24
330
23
100
AcDbEntity
  8
0
100
AcDbBlockBegin
  2
*Paper_Space0
 70
     0
 10
0.0
 20
0.0
 30
0.0
  3
*Paper_Space0
  1

  0
ENDBLK
  5
25
330
23
100
AcDbEntity
  8
0
100
AcDbBlockEnd
  0
BLOCK
  5
7D
330
7C
100
AcDbEntity
  8
0
100
AcDbBlockBegin
  2
0317_4E_Reduktion
 70
     0
 10
251.0377104671869
 20
-183.1987996500062
 30
0.0
  3
0317_4E_Reduktion
  1

  0
LINE
  5
E0
330
7C
100
AcDbEntity
  8
1
  6
PHANTOM
 62
     2
100
AcDbLine
 10
201.6206663035815
 20
-174.2500111359964
 30
0.0
 11
225.0637684376003
 21
-175.4786114381301
 31
0.0
  0
LINE
  5
E1
330
7C
100
AcDbEntity
  8
1
  6
PHANTOM
 62
     2
100
AcDbLine
 10
217.6711915772155
 20
-181.0994179247398
 30
0.0
 11
300.4115909354696
 21
-185.4356584415652
 31
0.0
  0
LINE
  5
E2
330
7C
100
AcDbEntity
  8
1
  6
Continuous
 62
     7
100
AcDbLine
 10
201.6558714671869
 20
-212.3040051500062
 30
0.0
 11
205.6334034671869
 21
-136.4081601500063
 31
0.0
  0
LINE
  5
E3
330
7C
100
AcDbEntity
  8
LC-002-002-----0
  6
Continuous
 62
     7
100
AcDbLine
 10
288.8308584671869
 20
-239.9042171500062
 30
0.0
 11
294.8780044671869
 21
-239.1617201500063
 31
0.0
  0
LINE
  5
E4
330
7C
100
AcDbEntity
  8
LC-002-002-----0
  6
Continuous
 62
     7
100
AcDbLine
 10
220.9240494671869
 20
-236.3453721500062
 30
0.0
 11
288.8308584671869
 21
-239.9042171500062
 31
0.0
  0
LINE
  5
E5
330
7C
100
AcDbEntity
  8
LC-002-002-----0
  6
Continuous
 62
     7
100
AcDbLine
 10
294.5878134671868
 20
-130.0549681500062
 30
0.0
 11
300.524221467187
 21
-131.4254951500063
 31
0.0
  0
LINE
  5
E6
330
7C
100
AcDbEntity
  8
LC-002-002-----0
  6
Continuous
 62
     7
100
AcDbLine
 10
215.5053704671869
 20
-130.9172941500062
 30
0.0
 11
224.4220664671869
 21
-131.3845981500061
 31
0.0
  0
LINE
  5
E7
330
7C
100
AcDbEntity
  8
LC-002-002-----0
  6
Continuous
 62
     7
100
AcDbLine
 10
224.5790734671868
 20
-128.3887101500062
 30
0.0
 11
224.4220664671869
 21
-131.3845981500061
 31
0.0
  0
LINE
  5
E8
330
7C
100
AcDbEntity
  8
LC-002-002-----0
  6
Continuous
 62
     7
100
AcDbLine
 10
294.8780044671869
 20
-239.1617201500063
 30
0.0
 11
297.4917694671869
 21
-189.2881261500062
 31
0.0
  0
LINE
  5
E9
330
7C
100
AcDbEntity
  8
LC-002-002-----0
  6
Continuous
 62
     7
100
AcDbLine
 10
300.524221467187
 20
-131.4254951500063
 30
0.0
 11
297.4917694671869
 21
-189.2881261500062
 31
0.0
  0
LINE
  5
EA
330
7C
100
AcDbEntity
  8
LC-002-002-----0
  6
Continuous
 62
     7
100
AcDbLine
 10
201.5511994671868
 20
-214.3012641500063
 30
0.0
 11
205.046402467187
 21
-214.4844401500062
 31
0.0
  0
LINE
  5
EB
330
7C
100
AcDbEntity
  8
LC-002-002-----0
  6
Continuous
 62
     7
100
AcDbLine
 10
205.046402467187
 20
-214.4844401500062
 30
0.0
 11
207.4457624671869
 21
-217.1491991500062
 31
0.0
  0
LINE
  5
EC
330
7C
100
AcDbEntity
  8
LC-002-002-----0
  6
Continuous
 62
     7
100
AcDbLine
 10
210.8998064671869
 20
-218.7966931500062
 30
0.0
 11
219.8165014671869
 21
-219.2639981500062
 31
0.0
  0
LINE
  5
ED
330
7C
100
AcDbEntity
  8
LC-002-002-----0
  6
Continuous
 62
     7
100
AcDbLine
 10
219.0314624671869
 20
-234.2434411500062
 30
0.0
 11
219.8165014671869
 21
-219.2639981500062
 31
0.0
  0
LINE
  5
EE
330
7C
100
AcDbEntity
  8
LC-002-002-----0
  6
Continuous
 62
     7
100
AcDbLine
 10
201.6558714671869
 20
-212.3040051500062
 30
0.0
 11
201.5511994671868
 21
-214.3012641500063
 31
0.0
  0
LINE
  5
EF
330
7C
100
AcDbEntity
  8
LC-002-002-----0
  6
Continuous
 62
     7
100
AcDbLine
 10
209.2332794671869
 20
-134.5940771500061
 30
0.0
 11
211.8980374671869
 21
-132.1947181500062
 31
0.0
  0
LINE
  5
F0
330
7C
100
AcDbEntity
  8
LC-002-002-----0
  6
Continuous
 62
     7
100
AcDbLine
 10
205.7380754671869
 20
-134.4109011500061
 30
0.0
 11
209.2332794671869
 21
-134.5940771500061
 31
0.0
  0
LINE
  5
F1
330
7C
100
AcDbEntity
  8
LC-002-002-----0
  6
Continuous
 62
     7
100
AcDbLine
 10
205.7380754671869
 20
-134.4109011500061
 30
0.0
 11
205.6334034671869
 21
-136.4081601500063
 31
0.0
  0
LINE
  5
F2
330
7C
100
AcDbEntity
  8
1
  6
Continuous
 62
     7
100
AcDbLine
 10
226.6810053796729
 20
-126.4961230804972
 30
0.0
 11
294.5878134671868
 21
-130.0549681500062
 31
0.0
  0
LINE
  5
F3
330
7C
100
AcDbEntity
  8
1
  6
Continuous
 62
     7
100
AcDbLine
 10
219.8165014671869
 20
-219.2639981500062
 30
0.0
 11
224.4220664671869
 21
-131.3845981500061
 31
0.0
  0
LINE
  5
F4
330
7C
100
AcDbEntity
  8
1
  6
Continuous
 62
     7
100
AcDbLine
 10
288.8308584671869
 20
-239.9042171500062
 30
0.0
 11
294.5878134671868
 21
-130.0549681500062
 31
0.0
  0
LINE
  5
F5
330
7C
100
AcDbEntity
  8
1
  6
Continuous
 62
     7
100
AcDbLine
 10
205.046402467187
 20
-214.4844401500062
 30
0.0
 11
209.2332794671869
 21
-134.5940771500061
 31
0.0
  0
ARC
  5
F6
330
7C
100
AcDbEntity
  8
LC-003-002-RND-0
  6
Continuous
 62
     7
100
AcDbCircle
 10
221.0287214671869
 20
-234.3481121500062
 30
0.0
 40
1.999999999999932
100
AcDbArc
 50
177.0000000000024
 51
266.999999999997
  0
ARC
  5
F7
330
7C
100
AcDbEntity
  8
LC-003-002-RND-0
  6
Continuous
 62
     7
100
AcDbCircle
 10
215.2436904671869
 20
-135.9104421500062
 30
0.0
 40
5.000000000000135
100
AcDbArc
 50
86.99999999999807
 51
131.9999999999982
  0
ARC
  5
F8
330
7C
100
AcDbEntity
  8
LC-003-002-RND-0
  6
Continuous
 62
     7
100
AcDbCircle
 10
226.5763334671869
 20
-128.4933821500061
 30
0.0
 40
1.999999999999772
100
AcDbArc
 50
86.99999999999652
 51
176.9999999999991
  0
ARC
  5
F9
330
7C
100
AcDbEntity
  8
LC-003-002-RND-0
  6
Continuous
 62
     7
100
AcDbCircle
 10
211.1614864671869
 20
-213.8035461500063
 30
0.0
 40
4.999999999999774
100
AcDbArc
 50
221.9999999999965
 51
266.9999999999957
  0
ENDBLK
  5
7E
330
7C
100
AcDbEntity
  8
0
100
AcDbBlockEnd
  0
BLOCK
  5
81
330
7F
100
AcDbEntity
  8
0
100
AcDbBlockBegin
  2
HL_64_1_Flachdachablauf__1
 70
     0
 10
251.0377104671869
 20
-183.1987996500062
 30
0.0
  3
HL_64_1_Flachdachablauf__1
  1

  0
INSERT
  5
80
330
7F
100
AcDbEntity
  8
1
100
AcDbBlockReference
  2
0317_4E_Reduktion
 10
251.0377104671869
 20
-183.1987996500062
 30
0.0
  0
ENDBLK
  5
82
330
7F
100
AcDbEntity
  8
0
100
AcDbBlockEnd
  0
BLOCK
  5
85
330
83
100
AcDbEntity
  8
0
100
AcDbBlockBegin
  2
HL_64_1_Flachdachablauf__2
 70
     0
 10
251.0377104671869
 20
-183.1987996500062
 30
0.0
  3
HL_64_1_Flachdachablauf__2
  1

  0
INSERT
  5
84
330
83
100
AcDbEntity
  8
0
100
AcDbBlockReference
  2
HL_64_1_Flachdachablauf__1
 10
251.0377104671869
 20
-183.1987996500062
 30
0.0
  0
ENDBLK
  5
86
330
83
100
AcDbEntity
  8
0
100
AcDbBlockEnd
  0
BLOCK
  5
89
330
87
100
AcDbEntity
  8
0
100
AcDbBlockBegin
  2
HL_64_Flachdachablauf__3
 70
     0
 10
251.0377104671869
 20
-183.1987996500062
 30
0.0
  3
HL_64_Flachdachablauf__3
  1

  0
INSERT
  5
88
330
87
100
AcDbEntity
  8
0
100
AcDbBlockReference
  2
HL_64_1_Flachdachablauf__2
 10
251.0377104671869
 20
-183.1987996500062
 30
0.0
  0
ENDBLK
  5
8A
330
87
100
AcDbEntity
  8
0
100
AcDbBlockEnd
  0
BLOCK
  5
8C
330
8B
100
AcDbEntity
  8
0
100
AcDbBlockBegin
  2
HL_72_Kellerablauf_DN110
 70
     0
 10
0.00000000000006
 20
-32.5
 30
0.0
  3
HL_72_Kellerablauf_DN110
  1

  0
POINT
  5
FA
330
8B
100
AcDbEntity
  8
0
 62
     7
100
AcDbPoint
 10
73.50000000000011
 20
0.0
 30
0.0
  0
POINT
  5
FB
330
8B
100
AcDbEntity
  8
0
 62
     7
100
AcDbPoint
 10
73.50000000000011
 20
0.0
 30
0.0
  0
POINT
  5
FC
330
8B
100
AcDbEntity
  8
0
 62
     7
100
AcDbPoint
 10
-73.5
 20
0.0
 30
0.0
  0
LINE
  5
FD
330
8B
100
AcDbEntity
  8
LC-003-002-----0
  6
Continuous
 62
     7
100
AcDbLine
 10
72.50000000000011
 20
-14.0
 30
0.0
 11
72.50000000000011
 21
-17.0
 31
0.0
  0
LINE
  5
FE
330
8B
100
AcDbEntity
  8
LC-003-002-----0
  6
Continuous
 62
     7
100
AcDbLine
 10
72.50000000000011
 20
-25.0
 30
0.0
 11
72.50000000000011
 21
-26.0
 31
0.0
  0
LINE
  5
FF
330
8B
100
AcDbEntity
  8
LC-003-002-----0
  6
Continuous
 62
     7
100
AcDbLine
 10
72.50000000000011
 20
-29.5
 30
0.0
 11
72.50000000000011
 21
-30.5
 31
0.0
  0
LINE
  5
100
330
8B
100
AcDbEntity
  8
LC-003-002-----0
  6
Continuous
 62
     7
100
AcDbLine
 10
72.50000000000011
 20
-34.0
 30
0.0
 11
72.50000000000011
 21
-35.0
 31
0.0
  0
LINE
  5
101
330
8B
100
AcDbEntity
  8
LC-003-002-----0
  6
Continuous
 62
     7
100
AcDbLine
 10
72.50000000000011
 20
-38.5
 30
0.0
 11
72.50000000000011
 21
-39.5
 31
0.0
  0
LINE
  5
102
330
8B
100
AcDbEntity
  8
LC-003-002-----0
  6
Continuous
 62
     7
100
AcDbLine
 10
72.50000000000011
 20
-43.0
 30
0.0
 11
72.50000000000011
 21
-44.0
 31
0.0
  0
LINE
  5
103
330
8B
100
AcDbEntity
  8
LC-003-002-----0
  6
Continuous
 62
     7
100
AcDbLine
 10
72.50000000000011
 20
-47.5
 30
0.0
 11
72.50000000000011
 21
-48.5
 31
0.0
  0
LINE
  5
104
330
8B
100
AcDbEntity
  8
LC-003-002-----0
  6
Continuous
 62
     7
100
AcDbLine
 10
72.50000000000011
 20
-52.0
 30
0.0
 11
72.50000000000011
 21
-53.0
 31
0.0
  0
LINE
  5
105
330
8B
100
AcDbEntity
  8
LC-003-002-----0
  6
Continuous
 62
     7
100
AcDbLine
 10
72.50000000000011
 20
-56.5
 30
0.0
 11
72.50000000000011
 21
-57.5
 31
0.0
  0
LINE
  5
106
330
8B
100
AcDbEntity
  8
LC-003-002-----0
  6
Continuous
 62
     7
100
AcDbLine
 10
72.50000000000011
 20
-61.0
 30
0.0
 11
72.50000000000011
 21
-62.0
 31
0.0
  0
LINE
  5
107
330
8B
100
AcDbEntity
  8
LC-003-002-----0
  6
Continuous
 62
     7
100
AcDbLine
 10
72.00000000000011
 20
-24.5
 30
0.0
 11
72.00000000000011
 21
-24.5
 31
0.0
  0
LINE
  5
108
330
8B
100
AcDbEntity
  8
LC-003-002-----0
  6
Continuous
 62
     7
100
AcDbLine
 10
72.00000000000011
 20
-29.0
 30
0.0
 11
72.00000000000011
 21
-29.0
 31
0.0
  0
LINE
  5
109
330
8B
100
AcDbEntity
  8
LC-003-002-----0
  6
Continuous
 62
     7
100
AcDbLine
 10
72.00000000000011
 20
-33.5
 30
0.0
 11
72.00000000000011
 21
-33.5
 31
0.0
  0
LINE
  5
10A
330
8B
100
AcDbEntity
  8
LC-003-002-----0
  6
Continuous
 62
     7
100
AcDbLine
 10
72.00000000000011
 20
-38.0
 30
0.0
 11
72.00000000000011
 21
-38.0
 31
0.0
  0
LINE
  5
10B
330
8B
100
AcDbEntity
  8
LC-003-002-----0
  6
Continuous
 62
     7
100
AcDbLine
 10
72.00000000000011
 20
-42.5
 30
0.0
 11
72.00000000000011
 21
-42.5
 31
0.0
  0
LINE
  5
10C
330
8B
100
AcDbEntity
  8
LC-003-002-----0
  6
Continuous
 62
     7
100
AcDbLine
 10
72.00000000000011
 20
-47.0
 30
0.0
 11
72.00000000000011
 21
-47.0
 31
0.0
  0
LINE
  5
10D
330
8B
100
AcDbEntity
  8
LC-003-002-----0
  6
Continuous
 62
     7
100
AcDbLine
 10
72.00000000000011
 20
-51.5
 30
0.0
 11
72.00000000000011
 21
-51.5
 31
0.0
  0
LINE
  5
10E
330
8B
100
AcDbEntity
  8
LC-003-002-----0
  6
Continuous
 62
     7
100
AcDbLine
 10
72.00000000000011
 20
-56.0
 30
0.0
 11
72.00000000000011
 21
-56.0
 31
0.0
  0
LINE
  5
10F
330
8B
100
AcDbEntity
  8
LC-003-002-----0
  6
Continuous
 62
     7
100
AcDbLine
 10
72.00000000000011
 20
-60.5
 30
0.0
 11
72.00000000000011
 21
-60.5
 31
0.0
  0
LINE
  5
110
330
8B
100
AcDbEntity
  8
LC-003-002-----0
  6
Continuous
 62
     7
100
AcDbLine
 10
72.00000000000011
 20
-22.0
 30
0.0
 11
72.00000000000011
 21
-22.0
 31
0.0
  0
LINE
  5
111
330
8B
100
AcDbEntity
  8
LC-003-002-----0
  6
Continuous
 62
     7
100
AcDbLine
 10
72.00000000000011
 20
-26.5
 30
0.0
 11
72.00000000000011
 21
-26.5
 31
0.0
  0
LINE
  5
112
330
8B
100
AcDbEntity
  8
LC-003-002-----0
  6
Continuous
 62
     7
100
AcDbLine
 10
72.00000000000011
 20
-31.0
 30
0.0
 11
72.00000000000011
 21
-31.0
 31
0.0
  0
LINE
  5
113
330
8B
100
AcDbEntity
  8
LC-003-002-----0
  6
Continuous
 62
     7
100
AcDbLine
 10
72.00000000000011
 20
-35.5
 30
0.0
 11
72.00000000000011
 21
-35.5
 31
0.0
  0
LINE
  5
114
330
8B
100
AcDbEntity
  8
LC-003-002-----0
  6
Continuous
 62
     7
100
AcDbLine
 10
72.00000000000011
 20
-40.0
 30
0.0
 11
72.00000000000011
 21
-40.0
 31
0.0
  0
LINE
  5
115
330
8B
100
AcDbEntity
  8
LC-003-002-----0
  6
Continuous
 62
     7
100
AcDbLine
 10
72.00000000000011
 20
-44.5
 30
0.0
 11
72.00000000000011
 21
-44.5
 31
0.0
  0
LINE
  5
116
330
8B
100
AcDbEntity
  8
LC-003-002-----0
  6
Continuous
 62
     7
100
AcDbLine
 10
72.00000000000011
 20
-49.0
 30
0.0
 11
72.00000000000011
 21
-49.0
 31
0.0
  0
LINE
  5
117
330
8B
100
AcDbEntity
  8
LC-003-002-----0
  6
Continuous
 62
     7
100
AcDbLine
 10
72.00000000000011
 20
-53.5
 30
0.0
 11
72.00000000000011
 21
-53.5
 31
0.0
  0
LINE
  5
118
330
8B
100
AcDbEntity
  8
LC-003-002-----0
  6
Continuous
 62
     7
100
AcDbLine
 10
72.00000000000011
 20
-58.0
 30
0.0
 11
72.00000000000011
 21
-58.0
 31
0.0
  0
LINE
  5
119
330
8B
100
AcDbEntity
  8
LC-003-002-----0
  6
Continuous
 62
     7
100
AcDbLine
 10
72.00000000000011
 20
-62.5
 30
0.0
 11
72.00000000000011
 21
-62.5
 31
0.0
  0
LINE
  5
11A
330
8B
100
AcDbEntity
  8
LC-003-002-----0
  6
Continuous
 62
     7
100
AcDbLine
 10
72.50000000000011
 20
-19.0
 30
0.0
 11
72.50000000000011
 21
-21.5
 31
0.0
  0
LINE
  5
11B
330
8B
100
AcDbEntity
  8
LC-003-002-----0
  6
Continuous
 62
     7
100
AcDbLine
 10
73.00000000000011
 20
-17.0
 30
0.0
 11
73.00000000000011
 21
-19.0
 31
0.0
  0
LINE
  5
11C
330
8B
100
AcDbEntity
  8
LC-003-002-----0
  6
Continuous
 62
     7
100
AcDbLine
 10
73.00000000000011
 20
-19.0
 30
0.0
 11
72.50000000000011
 21
-19.0
 31
0.0
  0
LINE
  5
11D
330
8B
100
AcDbEntity
  8
LC-003-002-----0
  6
Continuous
 62
     7
100
AcDbLine
 10
72.50000000000011
 20
-14.0
 30
0.0
 11
73.50000000000011
 21
-14.0
 31
0.0
  0
LINE
  5
11E
330
8B
100
AcDbEntity
  8
LC-003-002-----0
  6
Continuous
 62
     7
100
AcDbLine
 10
73.00000000000011
 20
-17.0
 30
0.0
 11
72.50000000000011
 21
-17.0
 31
0.0
  0
LINE
  5
11F
330
8B
100
AcDbEntity
  8
LC-003-002-----0
  6
Continuous
 62
     7
100
AcDbLine
 10
73.50000000000011
 20
0.0
 30
0.0
 11
73.50000000000011
 21
-14.0
 31
0.0
  0
LINE
  5
120
330
8B
100
AcDbEntity
  8
LC-003-002-----0
  6
Continuous
 62
     7
100
AcDbLine
 10
-72.5
 20
-14.0
 30
0.0
 11
-72.5
 21
-17.0
 31
0.0
  0
LINE
  5
121
330
8B
100
AcDbEntity
  8
LC-003-002-----0
  6
Continuous
 62
     7
100
AcDbLine
 10
-72.5
 20
-25.0
 30
0.0
 11
-72.5
 21
-26.0
 31
0.0
  0
LINE
  5
122
330
8B
100
AcDbEntity
  8
LC-003-002-----0
  6
Continuous
 62
     7
100
AcDbLine
 10
-72.5
 20
-29.5
 30
0.0
 11
-72.5
 21
-30.5
 31
0.0
  0
LINE
  5
123
330
8B
100
AcDbEntity
  8
LC-003-002-----0
  6
Continuous
 62
     7
100
AcDbLine
 10
-72.5
 20
-34.0
 30
0.0
 11
-72.5
 21
-35.0
 31
0.0
  0
LINE
  5
124
330
8B
100
AcDbEntity
  8
LC-003-002-----0
  6
Continuous
 62
     7
100
AcDbLine
 10
-72.5
 20
-38.5
 30
0.0
 11
-72.5
 21
-39.5
 31
0.0
  0
LINE
  5
125
330
8B
100
AcDbEntity
  8
LC-003-002-----0
  6
Continuous
 62
     7
100
AcDbLine
 10
-72.5
 20
-43.0
 30
0.0
 11
-72.5
 21
-44.0
 31
0.0
  0
LINE
  5
126
330
8B
100
AcDbEntity
  8
LC-003-002-----0
  6
Continuous
 62
     7
100
AcDbLine
 10
-72.5
 20
-47.5
 30
0.0
 11
-72.5
 21
-48.5
 31
0.0
  0
LINE
  5
127
330
8B
100
AcDbEntity
  8
LC-003-002-----0
  6
Continuous
 62
     7
100
AcDbLine
 10
-72.5
 20
-52.0
 30
0.0
 11
-72.5
 21
-53.0
 31
0.0
  0
LINE
  5
128
330
8B
100
AcDbEntity
  8
LC-003-002-----0
  6
Continuous
 62
     7
100
AcDbLine
 10
-72.5
 20
-56.5
 30
0.0
 11
-72.5
 21
-57.5
 31
0.0
  0
LINE
  5
129
330
8B
100
AcDbEntity
  8
LC-003-002-----0
  6
Continuous
 62
     7
100
AcDbLine
 10
-72.5
 20
-61.0
 30
0.0
 11
-72.5
 21
-62.0
 31
0.0
  0
LINE
  5
12A
330
8B
100
AcDbEntity
  8
LC-003-002-----0
  6
Continuous
 62
     7
100
AcDbLine
 10
-72.0
 20
-24.5
 30
0.0
 11
-72.0
 21
-24.5
 31
0.0
  0
LINE
  5
12B
330
8B
100
AcDbEntity
  8
LC-003-002-----0
  6
Continuous
 62
     7
100
AcDbLine
 10
-72.0
 20
-29.0
 30
0.0
 11
-72.0
 21
-29.0
 31
0.0
  0
LINE
  5
12C
330
8B
100
AcDbEntity
  8
LC-003-002-----0
  6
Continuous
 62
     7
100
AcDbLine
 10
-72.0
 20
-33.5
 30
0.0
 11
-72.0
 21
-33.5
 31
0.0
  0
LINE
  5
12D
330
8B
100
AcDbEntity
  8
LC-003-002-----0
  6
Continuous
 62
     7
100
AcDbLine
 10
-72.0
 20
-38.0
 30
0.0
 11
-72.0
 21
-38.0
 31
0.0
  0
LINE
  5
12E
330
8B
100
AcDbEntity
  8
LC-003-002-----0
  6
Continuous
 62
     7
100
AcDbLine
 10
-72.0
 20
-42.5
 30
0.0
 11
-72.0
 21
-42.5
 31
0.0
  0
LINE
  5
12F
330
8B
100
AcDbEntity
  8
LC-003-002-----0
  6
Continuous
 62
     7
100
AcDbLine
 10
-72.0
 20
-47.0
 30
0.0
 11
-72.0
 21
-47.0
 31
0.0
  0
LINE
  5
130
330
8B
100
AcDbEntity
  8
LC-003-002-----0
  6
Continuous
 62
     7
100
AcDbLine
 10
-72.0
 20
-51.5
 30
0.0
 11
-72.0
 21
-51.5
 31
0.0
  0
LINE
  5
131
330
8B
100
AcDbEntity
  8
LC-003-002-----0
  6
Continuous
 62
     7
100
AcDbLine
 10
-72.0
 20
-56.0
 30
0.0
 11
-72.0
 21
-56.0
 31
0.0
  0
LINE
  5
132
330
8B
100
AcDbEntity
  8
LC-003-002-----0
  6
Continuous
 62
     7
100
AcDbLine
 10
-72.0
 20
-60.5
 30
0.0
 11
-72.0
 21
-60.5
 31
0.0
  0
LINE
  5
133
330
8B
100
AcDbEntity
  8
LC-003-002-----0
  6
Continuous
 62
     7
100
AcDbLine
 10
-72.0
 20
-22.0
 30
0.0
 11
-72.0
 21
-22.0
 31
0.0
  0
LINE
  5
134
330
8B
100
AcDbEntity
  8
LC-003-002-----0
  6
Continuous
 62
     7
100
AcDbLine
 10
-72.0
 20
-26.5
 30
0.0
 11
-72.0
 21
-26.5
 31
0.0
  0
LINE
  5
135
330
8B
100
AcDbEntity
  8
LC-003-002-----0
  6
Continuous
 62
     7
100
AcDbLine
 10
-72.0
 20
-31.0
 30
0.0
 11
-72.0
 21
-31.0
 31
0.0
  0
LINE
  5
136
330
8B
100
AcDbEntity
  8
LC-003-002-----0
  6
Continuous
 62
     7
100
AcDbLine
 10
-72.0
 20
-35.5
 30
0.0
 11
-72.0
 21
-35.5
 31
0.0
  0
LINE
  5
137
330
8B
100
AcDbEntity
  8
LC-003-002-----0
  6
Continuous
 62
     7
100
AcDbLine
 10
-72.0
 20
-40.0
 30
0.0
 11
-72.0
 21
-40.0
 31
0.0
  0
LINE
  5
138
330
8B
100
AcDbEntity
  8
LC-003-002-----0
  6
Continuous
 62
     7
100
AcDbLine
 10
-72.0
 20
-44.5
 30
0.0
 11
-72.0
 21
-44.5
 31
0.0
  0
LINE
  5
139
330
8B
100
AcDbEntity
  8
LC-003-002-----0
  6
Continuous
 62
     7
100
AcDbLine
 10
-72.0
 20
-49.0
 30
0.0
 11
-72.0
 21
-49.0
 31
0.0
  0
LINE
  5
13A
330
8B
100
AcDbEntity
  8
LC-003-002-----0
  6
Continuous
 62
     7
100
AcDbLine
 10
-72.0
 20
-53.5
 30
0.0
 11
-72.0
 21
-53.5
 31
0.0
  0
LINE
  5
13B
330
8B
100
AcDbEntity
  8
LC-003-002-----0
  6
Continuous
 62
     7
100
AcDbLine
 10
-72.0
 20
-58.0
 30
0.0
 11
-72.0
 21
-58.0
 31
0.0
  0
LINE
  5
13C
330
8B
100
AcDbEntity
  8
LC-003-002-----0
  6
Continuous
 62
     7
100
AcDbLine
 10
-72.0
 20
-62.5
 30
0.0
 11
-72.0
 21
-62.5
 31
0.0
  0
LINE
  5
13D
330
8B
100
AcDbEntity
  8
LC-003-002-----0
  6
Continuous
 62
     7
100
AcDbLine
 10
-72.5
 20
-19.0
 30
0.0
 11
-72.5
 21
-21.5
 31
0.0
  0
LINE
  5
13E
330
8B
100
AcDbEntity
  8
LC-003-002-----0
  6
Continuous
 62
     7
100
AcDbLine
 10
-73.0
 20
-17.0
 30
0.0
 11
-73.0
 21
-19.0
 31
0.0
  0
LINE
  5
13F
330
8B
100
AcDbEntity
  8
LC-003-002-----0
  6
Continuous
 62
     7
100
AcDbLine
 10
-73.0
 20
-19.0
 30
0.0
 11
-72.5
 21
-19.0
 31
0.0
  0
LINE
  5
140
330
8B
100
AcDbEntity
  8
LC-003-002-----0
  6
Continuous
 62
     7
100
AcDbLine
 10
-72.5
 20
-14.0
 30
0.0
 11
-73.5
 21
-14.0
 31
0.0
  0
LINE
  5
141
330
8B
100
AcDbEntity
  8
LC-003-002-----0
  6
Continuous
 62
     7
100
AcDbLine
 10
-73.0
 20
-17.0
 30
0.0
 11
-72.5
 21
-17.0
 31
0.0
  0
LINE
  5
142
330
8B
100
AcDbEntity
  8
LC-003-002-----0
  6
Continuous
 62
     7
100
AcDbLine
 10
-73.5
 20
0.0
 30
0.0
 11
-73.5
 21
-14.0
 31
0.0
  0
LINE
  5
143
330
8B
100
AcDbEntity
  8
1
  6
Continuous
 62
     7
100
AcDbLine
 10
-72.5
 20
-14.0
 30
0.0
 11
72.50000000000011
 21
-14.0
 31
0.0
  0
LINE
  5
144
330
8B
100
AcDbEntity
  8
1
  6
Continuous
 62
     7
100
AcDbLine
 10
-72.5
 20
-17.0
 30
0.0
 11
72.50000000000011
 21
-17.0
 31
0.0
  0
LINE
  5
145
330
8B
100
AcDbEntity
  8
1
  6
Continuous
 62
     7
100
AcDbLine
 10
-72.5
 20
-19.0
 30
0.0
 11
72.50000000000011
 21
-19.0
 31
0.0
  0
LINE
  5
146
330
8B
100
AcDbEntity
  8
1
  6
Continuous
 62
     7
100
AcDbLine
 10
72.00000000000011
 20
-22.0
 30
0.0
 11
-72.0
 21
-22.0
 31
0.0
  0
LINE
  5
147
330
8B
100
AcDbEntity
  8
1
  6
Continuous
 62
     7
100
AcDbLine
 10
-72.0
 20
-24.5
 30
0.0
 11
72.00000000000011
 21
-24.5
 31
0.0
  0
LINE
  5
148
330
8B
100
AcDbEntity
  8
1
  6
Continuous
 62
     7
100
AcDbLine
 10
-72.0
 20
-26.5
 30
0.0
 11
72.00000000000011
 21
-26.5
 31
0.0
  0
LINE
  5
149
330
8B
100
AcDbEntity
  8
1
  6
Continuous
 62
     7
100
AcDbLine
 10
-72.0
 20
-29.0
 30
0.0
 11
72.00000000000011
 21
-29.0
 31
0.0
  0
LINE
  5
14A
330
8B
100
AcDbEntity
  8
1
  6
Continuous
 62
     7
100
AcDbLine
 10
-72.0
 20
-31.0
 30
0.0
 11
72.00000000000011
 21
-31.0
 31
0.0
  0
LINE
  5
14B
330
8B
100
AcDbEntity
  8
1
  6
Continuous
 62
     7
100
AcDbLine
 10
-72.0
 20
-33.5
 30
0.0
 11
72.00000000000011
 21
-33.5
 31
0.0
  0
LINE
  5
14C
330
8B
100
AcDbEntity
  8
1
  6
Continuous
 62
     7
100
AcDbLine
 10
-72.0
 20
-35.5
 30
0.0
 11
72.00000000000011
 21
-35.5
 31
0.0
  0
LINE
  5
14D
330
8B
100
AcDbEntity
  8
1
  6
Continuous
 62
     7
100
AcDbLine
 10
-72.0
 20
-38.0
 30
0.0
 11
72.00000000000011
 21
-38.0
 31
0.0
  0
LINE
  5
14E
330
8B
100
AcDbEntity
  8
1
  6
Continuous
 62
     7
100
AcDbLine
 10
-72.0
 20
-40.0
 30
0.0
 11
72.00000000000011
 21
-40.0
 31
0.0
  0
LINE
  5
14F
330
8B
100
AcDbEntity
  8
1
  6
Continuous
 62
     7
100
AcDbLine
 10
-72.0
 20
-42.5
 30
0.0
 11
72.00000000000011
 21
-42.5
 31
0.0
  0
LINE
  5
150
330
8B
100
AcDbEntity
  8
1
  6
Continuous
 62
     7
100
AcDbLine
 10
-72.0
 20
-44.5
 30
0.0
 11
72.00000000000011
 21
-44.5
 31
0.0
  0
LINE
  5
151
330
8B
100
AcDbEntity
  8
1
  6
Continuous
 62
     7
100
AcDbLine
 10
-72.0
 20
-47.0
 30
0.0
 11
72.00000000000011
 21
-47.0
 31
0.0
  0
LINE
  5
152
330
8B
100
AcDbEntity
  8
1
  6
Continuous
 62
     7
100
AcDbLine
 10
-72.0
 20
-49.0
 30
0.0
 11
72.00000000000011
 21
-49.0
 31
0.0
  0
LINE
  5
153
330
8B
100
AcDbEntity
  8
1
  6
Continuous
 62
     7
100
AcDbLine
 10
-72.0
 20
-51.5
 30
0.0
 11
72.00000000000011
 21
-51.5
 31
0.0
  0
LINE
  5
154
330
8B
100
AcDbEntity
  8
1
  6
Continuous
 62
     7
100
AcDbLine
 10
-72.0
 20
-53.5
 30
0.0
 11
72.00000000000011
 21
-53.5
 31
0.0
  0
LINE
  5
155
330
8B
100
AcDbEntity
  8
1
  6
Continuous
 62
     7
100
AcDbLine
 10
-72.0
 20
-56.0
 30
0.0
 11
72.00000000000011
 21
-56.0
 31
0.0
  0
LINE
  5
156
330
8B
100
AcDbEntity
  8
1
  6
Continuous
 62
     7
100
AcDbLine
 10
-72.0
 20
-58.0
 30
0.0
 11
72.00000000000011
 21
-58.0
 31
0.0
  0
LINE
  5
157
330
8B
100
AcDbEntity
  8
1
  6
Continuous
 62
     7
100
AcDbLine
 10
-72.0
 20
-60.5
 30
0.0
 11
72.00000000000011
 21
-60.5
 31
0.0
  0
LINE
  5
158
330
8B
100
AcDbEntity
  8
1
  6
Continuous
 62
     7
100
AcDbLine
 10
-72.0
 20
-62.5
 30
0.0
 11
72.00000000000011
 21
-62.5
 31
0.0
  0
LINE
  5
159
330
8B
100
AcDbEntity
  8
1
  6
PHANTOM
 62
     2
100
AcDbLine
 10
0.0
 20
0.0
 30
0.0
 11
0.0
 21
-65.0
 31
0.0
  0
LINE
  5
15A
330
8B
100
AcDbEntity
  8
LC-003-002-----0
  6
Continuous
 62
     7
100
AcDbLine
 10
-73.5
 20
0.0
 30
0.0
 11
73.50000000000011
 21
0.0
 31
0.0
  0
ARC
  5
15B
330
8B
100
AcDbEntity
  8
LC-009-002-RND-0
  6
Continuous
 62
     7
100
AcDbCircle
 10
72.00000000000011
 20
-62.0
 30
0.0
 40
0.5
100
AcDbArc
 50
270.0
 51
0.0
  0
ARC
  5
15C
330
8B
100
AcDbEntity
  8
LC-009-002-RND-0
  6
Continuous
 62
     7
100
AcDbCircle
 10
72.00000000000011
 20
-53.0
 30
0.0
 40
0.5
100
AcDbArc
 50
270.0
 51
0.0
  0
ARC
  5
15D
330
8B
100
AcDbEntity
  8
LC-009-002-RND-0
  6
Continuous
 62
     7
100
AcDbCircle
 10
72.00000000000011
 20
-57.5
 30
0.0
 40
0.5
100
AcDbArc
 50
270.0
 51
0.0
  0
ARC
  5
15E
330
8B
100
AcDbEntity
  8
LC-009-002-RND-0
  6
Continuous
 62
     7
100
AcDbCircle
 10
72.00000000000011
 20
-48.5
 30
0.0
 40
0.5
100
AcDbArc
 50
270.0
 51
0.0
  0
ARC
  5
15F
330
8B
100
AcDbEntity
  8
LC-009-002-RND-0
  6
Continuous
 62
     7
100
AcDbCircle
 10
72.00000000000011
 20
-44.0
 30
0.0
 40
0.5
100
AcDbArc
 50
270.0
 51
0.0
  0
ARC
  5
160
330
8B
100
AcDbEntity
  8
LC-009-002-RND-0
  6
Continuous
 62
     7
100
AcDbCircle
 10
72.00000000000011
 20
-39.5
 30
0.0
 40
0.5
100
AcDbArc
 50
270.0
 51
0.0
  0
ARC
  5
161
330
8B
100
AcDbEntity
  8
LC-009-002-RND-0
  6
Continuous
 62
     7
100
AcDbCircle
 10
72.00000000000011
 20
-35.0
 30
0.0
 40
0.5
100
AcDbArc
 50
270.0
 51
0.0
  0
ARC
  5
162
330
8B
100
AcDbEntity
  8
LC-009-002-RND-0
  6
Continuous
 62
     7
100
AcDbCircle
 10
72.00000000000011
 20
-30.5
 30
0.0
 40
0.5
100
AcDbArc
 50
270.0
 51
0.0
  0
ARC
  5
163
330
8B
100
AcDbEntity
  8
LC-009-002-RND-0
  6
Continuous
 62
     7
100
AcDbCircle
 10
72.00000000000011
 20
-26.0
 30
0.0
 40
0.5
100
AcDbArc
 50
270.0
 51
0.0
  0
ARC
  5
164
330
8B
100
AcDbEntity
  8
LC-009-002-RND-0
  6
Continuous
 62
     7
100
AcDbCircle
 10
72.00000000000011
 20
-21.5
 30
0.0
 40
0.5
100
AcDbArc
 50
270.0
 51
0.0
  0
ARC
  5
165
330
8B
100
AcDbEntity
  8
LC-009-002-RND-0
  6
Continuous
 62
     7
100
AcDbCircle
 10
72.00000000000011
 20
-25.0
 30
0.0
 40
0.5
100
AcDbArc
 50
0.0
 51
90.0
  0
ARC
  5
166
330
8B
100
AcDbEntity
  8
LC-009-002-RND-0
  6
Continuous
 62
     7
100
AcDbCircle
 10
72.00000000000011
 20
-29.5
 30
0.0
 40
0.5
100
AcDbArc
 50
0.0
 51
90.0
  0
ARC
  5
167
330
8B
100
AcDbEntity
  8
LC-009-002-RND-0
  6
Continuous
 62
     7
100
AcDbCircle
 10
72.00000000000011
 20
-34.0
 30
0.0
 40
0.5
100
AcDbArc
 50
0.0
 51
90.0
  0
ARC
  5
168
330
8B
100
AcDbEntity
  8
LC-009-002-RND-0
  6
Continuous
 62
     7
100
AcDbCircle
 10
72.00000000000011
 20
-38.5
 30
0.0
 40
0.5
100
AcDbArc
 50
0.0
 51
90.0
  0
ARC
  5
169
330
8B
100
AcDbEntity
  8
LC-009-002-RND-0
  6
Continuous
 62
     7
100
AcDbCircle
 10
72.00000000000011
 20
-43.0
 30
0.0
 40
0.5
100
AcDbArc
 50
0.0
 51
90.0
  0
ARC
  5
16A
330
8B
100
AcDbEntity
  8
LC-009-002-RND-0
  6
Continuous
 62
     7
100
AcDbCircle
 10
72.00000000000011
 20
-47.5
 30
0.0
 40
0.5
100
AcDbArc
 50
0.0
 51
90.0
  0
ARC
  5
16B
330
8B
100
AcDbEntity
  8
LC-009-002-RND-0
  6
Continuous
 62
     7
100
AcDbCircle
 10
72.00000000000011
 20
-52.0
 30
0.0
 40
0.5
100
AcDbArc
 50
0.0
 51
90.0
  0
ARC
  5
16C
330
8B
100
AcDbEntity
  8
LC-009-002-RND-0
  6
Continuous
 62
     7
100
AcDbCircle
 10
72.00000000000011
 20
-56.5
 30
0.0
 40
0.5
100
AcDbArc
 50
0.0
 51
90.0
  0
ARC
  5
16D
330
8B
100
AcDbEntity
  8
LC-009-002-RND-0
  6
Continuous
 62
     7
100
AcDbCircle
 10
72.00000000000011
 20
-61.0
 30
0.0
 40
0.5
100
AcDbArc
 50
0.0
 51
90.0
  0
ARC
  5
16E
330
8B
100
AcDbEntity
  8
LC-003-002-----0
  6
Continuous
 62
     7
100
AcDbCircle
 10
72.00000000000011
 20
-23.25
 30
0.0
 40
1.25
100
AcDbArc
 50
90.0
 51
270.0
  0
ARC
  5
16F
330
8B
100
AcDbEntity
  8
LC-003-002-----0
  6
Continuous
 62
     7
100
AcDbCircle
 10
72.00000000000011
 20
-27.75
 30
0.0
 40
1.25
100
AcDbArc
 50
90.0
 51
270.0
  0
ARC
  5
170
330
8B
100
AcDbEntity
  8
LC-003-002-----0
  6
Continuous
 62
     7
100
AcDbCircle
 10
72.00000000000011
 20
-32.25
 30
0.0
 40
1.25
100
AcDbArc
 50
90.0
 51
270.0
  0
ARC
  5
171
330
8B
100
AcDbEntity
  8
LC-003-002-----0
  6
Continuous
 62
     7
100
AcDbCircle
 10
72.00000000000011
 20
-36.75
 30
0.0
 40
1.25
100
AcDbArc
 50
90.0
 51
270.0
  0
ARC
  5
172
330
8B
100
AcDbEntity
  8
LC-003-002-----0
  6
Continuous
 62
     7
100
AcDbCircle
 10
72.00000000000011
 20
-41.25
 30
0.0
 40
1.25
100
AcDbArc
 50
90.0
 51
270.0
  0
ARC
  5
173
330
8B
100
AcDbEntity
  8
LC-003-002-----0
  6
Continuous
 62
     7
100
AcDbCircle
 10
72.00000000000011
 20
-45.75
 30
0.0
 40
1.25
100
AcDbArc
 50
90.0
 51
270.0
  0
ARC
  5
174
330
8B
100
AcDbEntity
  8
LC-003-002-----0
  6
Continuous
 62
     7
100
AcDbCircle
 10
72.00000000000011
 20
-50.25
 30
0.0
 40
1.25
100
AcDbArc
 50
90.0
 51
270.0
  0
ARC
  5
175
330
8B
100
AcDbEntity
  8
LC-003-002-----0
  6
Continuous
 62
     7
100
AcDbCircle
 10
72.00000000000011
 20
-54.75
 30
0.0
 40
1.25
100
AcDbArc
 50
90.0
 51
270.0
  0
ARC
  5
176
330
8B
100
AcDbEntity
  8
LC-003-002-----0
  6
Continuous
 62
     7
100
AcDbCircle
 10
72.00000000000011
 20
-59.25
 30
0.0
 40
1.25
100
AcDbArc
 50
90.0
 51
270.0
  0
ARC
  5
177
330
8B
100
AcDbEntity
  8
LC-009-002-RND-0
  6
Continuous
 62
     7
100
AcDbCircle
 10
-72.0
 20
-62.0
 30
0.0
 40
0.5
100
AcDbArc
 50
180.0
 51
270.0
  0
ARC
  5
178
330
8B
100
AcDbEntity
  8
LC-009-002-RND-0
  6
Continuous
 62
     7
100
AcDbCircle
 10
-72.0
 20
-53.0
 30
0.0
 40
0.5
100
AcDbArc
 50
180.0
 51
270.0
  0
ARC
  5
179
330
8B
100
AcDbEntity
  8
LC-009-002-RND-0
  6
Continuous
 62
     7
100
AcDbCircle
 10
-72.0
 20
-57.5
 30
0.0
 40
0.5
100
AcDbArc
 50
180.0
 51
270.0
  0
ARC
  5
17A
330
8B
100
AcDbEntity
  8
LC-009-002-RND-0
  6
Continuous
 62
     7
100
AcDbCircle
 10
-72.0
 20
-48.5
 30
0.0
 40
0.5
100
AcDbArc
 50
180.0
 51
270.0
  0
ARC
  5
17B
330
8B
100
AcDbEntity
  8
LC-009-002-RND-0
  6
Continuous
 62
     7
100
AcDbCircle
 10
-72.0
 20
-44.0
 30
0.0
 40
0.5
100
AcDbArc
 50
180.0
 51
270.0
  0
ARC
  5
17C
330
8B
100
AcDbEntity
  8
LC-009-002-RND-0
  6
Continuous
 62
     7
100
AcDbCircle
 10
-72.0
 20
-39.5
 30
0.0
 40
0.5
100
AcDbArc
 50
180.0
 51
270.0
  0
ARC
  5
17D
330
8B
100
AcDbEntity
  8
LC-009-002-RND-0
  6
Continuous
 62
     7
100
AcDbCircle
 10
-72.0
 20
-35.0
 30
0.0
 40
0.5
100
AcDbArc
 50
180.0
 51
270.0
  0
ARC
  5
17E
330
8B
100
AcDbEntity
  8
LC-009-002-RND-0
  6
Continuous
 62
     7
100
AcDbCircle
 10
-72.0
 20
-30.5
 30
0.0
 40
0.5
100
AcDbArc
 50
180.0
 51
270.0
  0
ARC
  5
17F
330
8B
100
AcDbEntity
  8
LC-009-002-RND-0
  6
Continuous
 62
     7
100
AcDbCircle
 10
-72.0
 20
-26.0
 30
0.0
 40
0.5
100
AcDbArc
 50
180.0
 51
270.0
  0
ARC
  5
180
330
8B
100
AcDbEntity
  8
LC-009-002-RND-0
  6
Continuous
 62
     7
100
AcDbCircle
 10
-72.0
 20
-21.5
 30
0.0
 40
0.5
100
AcDbArc
 50
180.0
 51
270.0
  0
ARC
  5
181
330
8B
100
AcDbEntity
  8
LC-009-002-RND-0
  6
Continuous
 62
     7
100
AcDbCircle
 10
-72.0
 20
-25.0
 30
0.0
 40
0.5
100
AcDbArc
 50
90.0
 51
180.0
  0
ARC
  5
182
330
8B
100
AcDbEntity
  8
LC-009-002-RND-0
  6
Continuous
 62
     7
100
AcDbCircle
 10
-72.0
 20
-29.5
 30
0.0
 40
0.5
100
AcDbArc
 50
90.0
 51
180.0
  0
ARC
  5
183
330
8B
100
AcDbEntity
  8
LC-009-002-RND-0
  6
Continuous
 62
     7
100
AcDbCircle
 10
-72.0
 20
-34.0
 30
0.0
 40
0.5
100
AcDbArc
 50
90.0
 51
180.0
  0
ARC
  5
184
330
8B
100
AcDbEntity
  8
LC-009-002-RND-0
  6
Continuous
 62
     7
100
AcDbCircle
 10
-72.0
 20
-38.5
 30
0.0
 40
0.5
100
AcDbArc
 50
90.0
 51
180.0
  0
ARC
  5
185
330
8B
100
AcDbEntity
  8
LC-009-002-RND-0
  6
Continuous
 62
     7
100
AcDbCircle
 10
-72.0
 20
-43.0
 30
0.0
 40
0.5
100
AcDbArc
 50
90.0
 51
180.0
  0
ARC
  5
186
330
8B
100
AcDbEntity
  8
LC-009-002-RND-0
  6
Continuous
 62
     7
100
AcDbCircle
 10
-72.0
 20
-47.5
 30
0.0
 40
0.5
100
AcDbArc
 50
90.0
 51
180.0
  0
ARC
  5
187
330
8B
100
AcDbEntity
  8
LC-009-002-RND-0
  6
Continuous
 62
     7
100
AcDbCircle
 10
-72.0
 20
-52.0
 30
0.0
 40
0.5
100
AcDbArc
 50
90.0
 51
180.0
  0
ARC
  5
188
330
8B
100
AcDbEntity
  8
LC-009-002-RND-0
  6
Continuous
 62
     7
100
AcDbCircle
 10
-72.0
 20
-56.5
 30
0.0
 40
0.5
100
AcDbArc
 50
90.0
 51
180.0
  0
ARC
  5
189
330
8B
100
AcDbEntity
  8
LC-009-002-RND-0
  6
Continuous
 62
     7
100
AcDbCircle
 10
-72.0
 20
-61.0
 30
0.0
 40
0.5
100
AcDbArc
 50
90.0
 51
180.0
  0
ARC
  5
18A
330
8B
100
AcDbEntity
  8
LC-003-002-----0
  6
Continuous
 62
     7
100
AcDbCircle
 10
-72.0
 20
-23.25
 30
0.0
 40
1.25
100
AcDbArc
 50
270.0
 51
90.0
  0
ARC
  5
18B
330
8B
100
AcDbEntity
  8
LC-003-002-----0
  6
Continuous
 62
     7
100
AcDbCircle
 10
-72.0
 20
-27.75
 30
0.0
 40
1.25
100
AcDbArc
 50
270.0
 51
90.0
  0
ARC
  5
18C
330
8B
100
AcDbEntity
  8
LC-003-002-----0
  6
Continuous
 62
     7
100
AcDbCircle
 10
-72.0
 20
-32.25
 30
0.0
 40
1.25
100
AcDbArc
 50
270.0
 51
90.0
  0
ARC
  5
18D
330
8B
100
AcDbEntity
  8
LC-003-002-----0
  6
Continuous
 62
     7
100
AcDbCircle
 10
-72.0
 20
-36.75
 30
0.0
 40
1.25
100
AcDbArc
 50
270.0
 51
90.0
  0
ARC
  5
18E
330
8B
100
AcDbEntity
  8
LC-003-002-----0
  6
Continuous
 62
     7
100
AcDbCircle
 10
-72.0
 20
-41.25
 30
0.0
 40
1.25
100
AcDbArc
 50
270.0
 51
90.0
  0
ARC
  5
18F
330
8B
100
AcDbEntity
  8
LC-003-002-----0
  6
Continuous
 62
     7
100
AcDbCircle
 10
-72.0
 20
-45.75
 30
0.0
 40
1.25
100
AcDbArc
 50
270.0
 51
90.0
  0
ARC
  5
190
330
8B
100
AcDbEntity
  8
LC-003-002-----0
  6
Continuous
 62
     7
100
AcDbCircle
 10
-72.0
 20
-50.25
 30
0.0
 40
1.25
100
AcDbArc
 50
270.0
 51
90.0
  0
ARC
  5
191
330
8B
100
AcDbEntity
  8
LC-003-002-----0
  6
Continuous
 62
     7
100
AcDbCircle
 10
-72.0
 20
-54.75
 30
0.0
 40
1.25
100
AcDbArc
 50
270.0
 51
90.0
  0
ARC
  5
192
330
8B
100
AcDbEntity
  8
LC-003-002-----0
  6
Continuous
 62
     7
100
AcDbCircle
 10
-72.0
 20
-59.25
 30
0.0
 40
1.25
100
AcDbArc
 50
270.0
 51
90.0
  0
ARC
  5
193
330
8B
100
AcDbEntity
  8
LC-003-002-----0
  6
Continuous
 62
     7
100
AcDbCircle
 10
-72.0
 20
-63.75
 30
0.0
 40
1.249999999999995
100
AcDbArc
 50
348.4363580200115
 51
90.0
  0
ARC
  5
194
330
8B
100
AcDbEntity
  8
LC-003-002-----0
  6
Continuous
 62
     7
100
AcDbCircle
 10
72.00000000000011
 20
-63.75
 30
0.0
 40
1.25
100
AcDbArc
 50
90.0
 51
191.5636419799885
  0
ENDBLK
  5
8D
330
8B
100
AcDbEntity
  8
0
100
AcDbBlockEnd
  0
BLOCK
  5
8F
330
8E
100
AcDbEntity
  8
0
100
AcDbBlockBegin
  2
HL_64_1B_Flachdachablauf
 70
     0
 10
0.00000000000004
 20
-112.120371814741
 30
0.0
  3
HL_64_1B_Flachdachablauf
  1

  0
POINT
  5
195
330
8E
100
AcDbEntity
  8
0
 62
     7
100
AcDbPoint
 10
176.5000040000002
 20
-70.99904452951216
 30
0.0
  0
POINT
  5
196
330
8E
100
AcDbEntity
  8
0
 62
     7
100
AcDbPoint
 10
-177.4999829999999
 20
-71.00854552951216
 30
0.0
  0
POINT
  5
197
330
8E
100
AcDbEntity
  8
0
 62
     7
100
AcDbPoint
 10
-33.306425
 20
-213.3215855295123
 30
0.0
  0
POINT
  5
198
330
8E
100
AcDbEntity
  8
0
 62
     7
100
AcDbPoint
 10
-175.4999939999998
 20
-68.00064752951232
 30
0.0
  0
POINT
  5
199
330
8E
100
AcDbEntity
  8
0
 62
     7
100
AcDbPoint
 10
-104.0
 20
-101.3215855295122
 30
0.0
  0
POINT
  5
19A
330
8E
100
AcDbEntity
  8
0
 62
     7
100
AcDbPoint
 10
159.0395280000001
 20
-136.9214045295123
 30
0.0
  0
LINE
  5
19B
330
8E
100
AcDbEntity
  8
1
  6
Continuous
 62
     7
100
AcDbLine
 10
126.7004340000001
 20
-70.99911552951232
 30
0.0
 11
-127.6967029999998
 21
-70.99911552951232
 31
0.0
  0
LINE
  5
19C
330
8E
100
AcDbEntity
  8
LC-002-002-----0
  6
Continuous
 62
     7
100
AcDbLine
 10
-122.3621684629459
 20
-72.57547652951223
 30
0.0
 11
-126.7004340000001
 21
-70.99911552951232
 31
0.0
  0
LINE
  5
19D
330
8E
100
AcDbEntity
  8
1
  6
PHANTOM
 62
     2
100
AcDbLine
 10
0.0
 20
2.05748356711592
 30
0.0
 11
0.0
 21
-226.298227196598
 31
0.0
  0
LINE
  5
19E
330
8E
100
AcDbEntity
  8
1
  6
Continuous
 62
     7
100
AcDbLine
 10
125.2300660000003
 20
-73.3828075295122
 30
0.0
 11
-125.2300659999999
 21
-73.3828075295122
 31
0.0
  0
LINE
  5
19F
330
8E
100
AcDbEntity
  8
1
  6
Continuous
 62
     7
100
AcDbLine
 10
122.3621684629459
 20
-72.57547652951223
 30
0.0
 11
-124.9362209999999
 21
-72.57547652951223
 31
0.0
  0
LINE
  5
1A0
330
8E
100
AcDbEntity
  8
1
  6
Continuous
 62
     7
100
AcDbLine
 10
104.0000000000001
 20
-80.54952652951226
 30
0.0
 11
-104.0
 21
-80.54952652951226
 31
0.0
  0
LINE
  5
1A1
330
8E
100
AcDbEntity
  8
1
  6
Continuous
 62
     7
100
AcDbLine
 10
-87.0
 20
-101.3215855295122
 30
0.0
 11
87.00000000000011
 21
-101.3215855295122
 31
0.0
  0
LINE
  5
1A2
330
8E
100
AcDbEntity
  8
1
  6
Continuous
 62
     7
100
AcDbLine
 10
124.9362210000002
 20
-72.57547652951223
 30
0.0
 11
122.3621684629459
 21
-72.57547652951223
 31
0.0
  0
LINE
  5
1A3
330
8E
100
AcDbEntity
  8
LC-002-002-----0
  6
Continuous
 62
     7
100
AcDbLine
 10
87.00000000000011
 20
-192.5208838000207
 30
0.0
 11
87.00000000000011
 21
-101.3215855295122
 31
0.0
  0
LINE
  5
1A4
330
8E
100
AcDbEntity
  8
1
  6
Continuous
 62
     7
100
AcDbLine
 10
90.2892230000001
 20
-130.3763055295123
 30
0.0
 11
87.00000000000011
 21
-192.5208838000207
 31
0.0
  0
LINE
  5
1A5
330
8E
100
AcDbEntity
  8
LC-002-002-----0
  6
Continuous
 62
     7
100
AcDbLine
 10
87.00000000000011
 20
-201.3611329991041
 30
0.0
 11
87.00000000000011
 21
-192.5208838000207
 31
0.0
  0
LINE
  5
1A6
330
8E
100
AcDbEntity
  8
1
  6
Continuous
 62
     7
100
AcDbLine
 10
90.73114700000008
 20
-130.8671115295122
 30
0.0
 11
87.00000000000011
 21
-201.3611329991041
 31
0.0
  0
LINE
  5
1A7
330
8E
100
AcDbEntity
  8
LC-002-002-----0
  6
Continuous
 62
     7
100
AcDbLine
 10
87.00000000000011
 20
-130.2021926798051
 30
0.0
 11
90.2892230000001
 21
-130.3763055295123
 31
0.0
  0
LINE
  5
1A8
330
8E
100
AcDbEntity
  8
LC-002-002-----0
  6
Continuous
 62
     7
100
AcDbLine
 10
-177.4999869999999
 20
-70.00065652951218
 30
0.0
 11
-177.4999829999999
 21
-71.00854552951216
 31
0.0
  0
LINE
  5
1A9
330
8E
100
AcDbEntity
  8
LC-002-002-----0
  6
Continuous
 62
     7
100
AcDbLine
 10
-175.4999939999998
 20
-68.00064752951232
 30
0.0
 11
-90.60746728525024
 21
-68.00033440925091
 31
0.0
  0
LINE
  5
1AA
330
8E
100
AcDbEntity
  8
LC-002-002-----0
  6
Continuous
 62
     7
100
AcDbLine
 10
-177.4999819999998
 20
-71.00065452951219
 30
0.0
 11
-127.6967029999998
 21
-71.00047152951231
 31
0.0
  0
LINE
  5
1AB
330
8E
100
AcDbEntity
  8
LC-002-002-----0
  6
Continuous
 62
     7
100
AcDbLine
 10
176.5000040000002
 20
-69.99935452951229
 30
0.0
 11
176.5000040000002
 21
-70.99904452951216
 31
0.0
  0
LINE
  5
1AC
330
8E
100
AcDbEntity
  8
LC-002-002-----0
  6
Continuous
 62
     7
100
AcDbLine
 10
176.4998210000001
 20
-70.99904452951216
 30
0.0
 11
126.7004340000001
 21
-70.99911552951232
 31
0.0
  0
LINE
  5
1AD
330
8E
100
AcDbEntity
  8
LC-002-002-----0
  6
Continuous
 62
     7
100
AcDbLine
 10
90.73114700000008
 20
-130.8671115295122
 30
0.0
 11
90.2892230000001
 21
-130.3763055295123
 31
0.0
  0
LINE
  5
1AE
330
8E
100
AcDbEntity
  8
LC-002-002-----0
  6
Continuous
 62
     7
100
AcDbLine
 10
126.7004340000001
 20
-70.99911552951232
 30
0.0
 11
122.3621684629459
 21
-72.57547652951223
 31
0.0
  0
LINE
  5
1AF
330
8E
100
AcDbEntity
  8
LC-002-002-----0
  6
Continuous
 62
     7
100
AcDbLine
 10
125.2300660000003
 20
-73.3828075295122
 30
0.0
 11
124.9362210000002
 21
-72.57547652951223
 31
0.0
  0
LINE
  5
1B0
330
8E
100
AcDbEntity
  8
LC-002-002-----0
  6
Continuous
 62
     7
100
AcDbLine
 10
104.0000000000001
 20
-80.54952652951226
 30
0.0
 11
105.539668
 21
-80.54952652951226
 31
0.0
  0
LINE
  5
1B1
330
8E
100
AcDbEntity
  8
LC-002-002-----0
  6
Continuous
 62
     7
100
AcDbLine
 10
125.2300660000003
 20
-73.3828075295122
 30
0.0
 11
105.539668
 21
-80.54952652951226
 31
0.0
  0
LINE
  5
1B2
330
8E
100
AcDbEntity
  8
LC-002-002-----0
  6
Continuous
 62
     7
100
AcDbLine
 10
87.00000000000011
 20
-101.3215855295122
 30
0.0
 11
89.25000000000011
 21
-101.3215855295122
 31
0.0
  0
LINE
  5
1B3
330
8E
100
AcDbEntity
  8
LC-002-002-----0
  6
Continuous
 62
     7
100
AcDbLine
 10
-125.2300659999999
 20
-73.3828075295122
 30
0.0
 11
-124.9362209999999
 21
-72.57547652951223
 31
0.0
  0
LINE
  5
1B4
330
8E
100
AcDbEntity
  8
LC-002-002-----0
  6
Continuous
 62
     7
100
AcDbLine
 10
-104.0
 20
-80.54952652951226
 30
0.0
 11
-105.5396679999999
 21
-80.54952652951226
 31
0.0
  0
LINE
  5
1B5
330
8E
100
AcDbEntity
  8
LC-002-002-----0
  6
Continuous
 62
     7
100
AcDbLine
 10
-125.2300659999999
 20
-73.3828075295122
 30
0.0
 11
-105.5396679999999
 21
-80.54952652951226
 31
0.0
  0
LINE
  5
1B6
330
8E
100
AcDbEntity
  8
LC-002-002-----0
  6
Continuous
 62
     7
100
AcDbLine
 10
89.25000000000011
 20
-101.3215855295122
 30
0.0
 11
104.0000000000001
 21
-101.3215855295122
 31
0.0
  0
LINE
  5
1B7
330
8E
100
AcDbEntity
  8
LC-002-002-----0
  6
Continuous
 62
     7
100
AcDbLine
 10
-33.306425
 20
-213.3215855295123
 30
0.0
 11
82.00000000000011
 21
-213.3215855295123
 31
0.0
  0
LINE
  5
1B8
330
8E
100
AcDbEntity
  8
LC-002-002-----0
  6
Continuous
 62
     7
100
AcDbLine
 10
-87.0
 20
-101.3215855295122
 30
0.0
 11
-87.0
 21
-123.9818395295122
 31
0.0
  0
LINE
  5
1B9
330
8E
100
AcDbEntity
  8
LC-002-002-----0
  6
Continuous
 62
     7
100
AcDbLine
 10
-104.0
 20
-80.54952652951226
 30
0.0
 11
-104.0
 21
-101.3215855295122
 31
0.0
  0
LINE
  5
1BA
330
8E
100
AcDbEntity
  8
LC-002-002-----0
  6
Continuous
 62
     7
100
AcDbLine
 10
87.00000000000011
 20
-208.3215855295123
 30
0.0
 11
87.00000000000011
 21
-201.3611329991041
 31
0.0
  0
LINE
  5
1BB
330
8E
100
AcDbEntity
  8
LC-002-002-----0
  6
Continuous
 62
     7
100
AcDbLine
 10
104.0000000000001
 20
-101.3215855295122
 30
0.0
 11
104.0000000000001
 21
-80.54952652951226
 31
0.0
  0
LINE
  5
1BC
330
8E
100
AcDbEntity
  8
LC-002-002-----0
  6
Continuous
 62
     7
100
AcDbLine
 10
-86.33012699999995
 20
-126.4818395295122
 30
0.0
 11
-37.63655199999995
 21
-210.8215855295123
 31
0.0
  0
LINE
  5
1BD
330
8E
100
AcDbEntity
  8
LC-002-002-----0
  6
Continuous
 62
     7
100
AcDbLine
 10
-87.0
 20
-101.3215855295122
 30
0.0
 11
-104.0
 21
-101.3215855295122
 31
0.0
  0
LINE
  5
1BE
330
8E
100
AcDbEntity
  8
LC-002-002-----0
  6
Continuous
 62
     7
100
AcDbLine
 10
91.23114700000002
 20
-130.8671115295123
 30
0.0
 11
154.6753450000001
 21
-134.2251215295123
 31
0.0
  0
LINE
  5
1BF
330
8E
100
AcDbEntity
  8
LC-002-002-----0
  6
Continuous
 62
     7
100
AcDbLine
 10
87.3046950000001
 20
-205.7882765295123
 30
0.0
 11
150.7523470000001
 21
-209.0803875295123
 31
0.0
  0
LINE
  5
1C0
330
8E
100
AcDbEntity
  8
LC-002-002-----0
  6
Continuous
 62
     7
100
AcDbLine
 10
154.6753450000001
 20
-134.2251215295123
 30
0.0
 11
158.61377
 21
-135.5047925295123
 31
0.0
  0
LINE
  5
1C1
330
8E
100
AcDbEntity
  8
LC-002-002-----0
  6
Continuous
 62
     7
100
AcDbLine
 10
158.5395280000001
 20
-136.9214045295123
 30
0.0
 11
158.61377
 21
-135.5047925295123
 31
0.0
  0
LINE
  5
1C2
330
8E
100
AcDbEntity
  8
LC-002-002-----0
  6
Continuous
 62
     7
100
AcDbLine
 10
150.7523470000001
 20
-209.0803875295123
 30
0.0
 11
154.8029590000001
 21
-208.2194025295123
 31
0.0
  0
LINE
  5
1C3
330
8E
100
AcDbEntity
  8
LC-002-002-----0
  6
Continuous
 62
     7
100
AcDbLine
 10
154.8029590000001
 20
-208.2194025295123
 30
0.0
 11
158.5395280000001
 21
-136.9214045295123
 31
0.0
  0
LINE
  5
1C4
330
8E
100
AcDbEntity
  8
1
  6
Continuous
 62
     7
100
AcDbLine
 10
150.7523470000001
 20
-209.0803875295123
 30
0.0
 11
154.6753450000001
 21
-134.2251215295123
 31
0.0
  0
LINE
  5
1C5
330
8E
100
AcDbEntity
  8
1
  6
PHANTOM
 62
     2
100
AcDbLine
 10
89.26792078579652
 20
-168.3276940183717
 30
0.0
 11
160.540814575298
 21
-172.0629486287689
 31
0.0
  0
LINE
  5
1C6
330
8E
100
AcDbEntity
  8
LC-001-002-----0
  6
Continuous
 62
     7
100
AcDbLine
 10
147.5271119999999
 20
-64.00057034302529
 30
0.0
 11
-249.932744
 21
-64.00057034302529
 31
0.0
  0
LINE
  5
1C7
330
8E
100
AcDbEntity
  8
LC-001-002-----0
  6
Continuous
 62
     7
100
AcDbLine
 10
-147.362993
 20
-68.00057034302529
 30
0.0
 11
-249.932736
 21
-68.00057034302529
 31
0.0
  0
LINE
  5
1C8
330
8E
100
AcDbEntity
  8
LC-001-002-----0
  6
Continuous
 62
     7
100
AcDbLine
 10
-249.932744
 20
-64.00057034302529
 30
0.0
 11
-249.932736
 21
-68.00057034302529
 31
0.0
  0
LINE
  5
1C9
330
8E
100
AcDbEntity
  8
LC-002-002-----0
  6
Continuous
 62
     7
100
AcDbLine
 10
-90.60746728525024
 20
-68.00033440925091
 30
0.0
 11
174.4971337374188
 21
-67.99935658911545
 31
0.0
  0
LINE
  5
1CA
330
8E
100
AcDbEntity
  8
LC-001-002-----0
  6
Continuous
 62
     7
100
AcDbLine
 10
249.932736
 20
-68.00057034302529
 30
0.0
 11
249.9327440000001
 21
-64.00057034302529
 31
0.0
  0
LINE
  5
1CB
330
8E
100
AcDbEntity
  8
LC-001-002-----0
  6
Continuous
 62
     7
100
AcDbLine
 10
249.932736
 20
-68.00057034302529
 30
0.0
 11
147.362993
 21
-68.00057034302529
 31
0.0
  0
LINE
  5
1CC
330
8E
100
AcDbEntity
  8
LC-001-002-----0
  6
Continuous
 62
     7
100
AcDbLine
 10
249.9327440000001
 20
-64.00057034302529
 30
0.0
 11
147.5271119999999
 21
-64.00057034302529
 31
0.0
  0
ARC
  5
1CD
330
8E
100
AcDbEntity
  8
LC-004-002-RND-0
  6
Continuous
 62
     7
100
AcDbCircle
 10
174.5000040000002
 20
-69.99935452951229
 30
0.0
 40
2.0
100
AcDbArc
 50
0.0
 51
90.08222699422961
  0
ARC
  5
1CE
330
8E
100
AcDbEntity
  8
LC-002-002-----0
  6
Continuous
 62
     7
100
AcDbCircle
 10
-175.4999869999999
 20
-70.00064752951232
 30
0.0
 40
1.999999999999821
100
AcDbArc
 50
90.00021199999952
 51
180.0002479999963
  0
ARC
  5
1CF
330
8E
100
AcDbEntity
  8
LC-004-002-RND-0
  6
Continuous
 62
     7
100
AcDbCircle
 10
82.00000000000011
 20
-208.3215855295123
 30
0.0
 40
5.0
100
AcDbArc
 50
270.0
 51
0.0
  0
ARC
  5
1D0
330
8E
100
AcDbEntity
  8
LC-004-002-RND-0
  6
Continuous
 62
     7
100
AcDbCircle
 10
-33.306425
 20
-208.3215855295123
 30
0.0
 40
4.99999999999982
100
AcDbArc
 50
210.0000000000012
 51
270.0
  0
ARC
  5
1D1
330
8E
100
AcDbEntity
  8
LC-004-002-RND-0
  6
Continuous
 62
     7
100
AcDbCircle
 10
-82.0
 20
-123.9818395295122
 30
0.0
 40
5.0
100
AcDbArc
 50
180.0
 51
210.0000000000012
  0
ENDBLK
  5
90
330
8E
100
AcDbEntity
  8
0
100
AcDbBlockEnd
  0
BLOCK
  5
93
330
91
100
AcDbEntity
  8
0
100
AcDbBlockBegin
  2
HL_64_Flachdachablauf__4
 70
     0
 10
0.00000000000004
 20
-112.120371814741
 30
0.0
  3
HL_64_Flachdachablauf__4
  1

  0
INSERT
  5
92
330
91
100
AcDbEntity
  8
1
100
AcDbBlockReference
  2
HL_64_1B_Flachdachablauf
 10
0.00000000000004
 20
-112.120371814741
 30
0.0
  0
ENDBLK
  5
94
330
91
100
AcDbEntity
  8
0
100
AcDbBlockEnd
  0
BLOCK
  5
98
330
95
100
AcDbEntity
  8
0
100
AcDbBlockBegin
  2
HL_64_1B_Flachdachablauf_DN75_110__5
 70
     0
 10
0.00000000000004
 20
-112.120371814741
 30
0.0
  3
HL_64_1B_Flachdachablauf_DN75_110__5
  1

  0
INSERT
  5
96
330
95
100
AcDbEntity
  8
1
100
AcDbBlockReference
  2
HL_72_Kellerablauf_DN110
 10
0.00000000000006
 20
-32.5
 30
0.0
  0
INSERT
  5
97
330
95
100
AcDbEntity
  8
0
100
AcDbBlockReference
  2
HL_64_Flachdachablauf__4
 10
0.00000000000004
 20
-112.120371814741
 30
0.0
  0
ENDBLK
  5
99
330
95
100
AcDbEntity
  8
0
100
AcDbBlockEnd
  0
BLOCK
  5
9D
330
9A
100
AcDbEntity
  8
0
100
AcDbBlockBegin
  2
HL_64B_Flachdachablauf
 70
     0
 10
25.29573873359348
 20
-118.9233667914451
 30
0.0
  3
HL_64B_Flachdachablauf
  1

  0
INSERT
  5
9B
330
9A
100
AcDbEntity
  8
0
100
AcDbBlockReference
  2
HL_64_Flachdachablauf__3
 10
251.0377104671869
 20
-183.1987996500062
 30
0.0
  0
INSERT
  5
9C
330
9A
100
AcDbEntity
  8
0
100
AcDbBlockReference
  2
HL_64_1B_Flachdachablauf_DN75_110__5
 10
0.00000000000004
 20
-112.120371814741
 30
0.0
  0
ENDBLK
  5
9E
330
9A
100
AcDbEntity
  8
0
100
AcDbBlockEnd
  0
BLOCK
  5
A0
330
9F
100
AcDbEntity
  8
0
100
AcDbBlockBegin
  2
Bitumenmanschette
 70
     0
 10
20.98327056688589
 20
-563.243833023061
 30
0.0
  3
Bitumenmanschette
  1

  0
LINE
  5
1D2
330
9F
100
AcDbEntity
  8
1
  6
DOT_CENTER
 62
     2
100
AcDbLine
 10
316.966585640031
 20
-563.2438330230611
 30
0.0
 11
-275.0000445062592
 21
-563.2438330230611
 31
0.0
  0
LINE
  5
1D3
330
9F
100
AcDbEntity
  8
1
  6
DOT_CENTER
 62
     2
100
AcDbLine
 10
-0.00004450625923
 20
-288.2438330230609
 30
0.0
 11
-0.00004450625923
 21
-838.2438330230611
 31
0.0
  0
CIRCLE
  5
1D4
330
9F
100
AcDbEntity
  8
0
  6
Continuous
 62
     7
100
AcDbCircle
 10
-0.00004450625923
 20
-563.2438330230611
 30
0.0
 40
250.0000000000002
  0
CIRCLE
  5
1D5
330
9F
100
AcDbEntity
  8
0
  6
Continuous
 62
     7
100
AcDbCircle
 10
-0.00004450625923
 20
-563.2438330230611
 30
0.0
 40
150.7089837213838
  0
CIRCLE
  5
1D6
330
9F
100
AcDbEntity
  8
0
  6
Continuous
 62
     3
100
AcDbCircle
 10
-0.00004450625923
 20
-563.2438330230611
 30
0.0
 40
110.6643171948393
  0
ENDBLK
  5
A1
330
9F
100
AcDbEntity
  8
0
100
AcDbBlockEnd
  0
BLOCK
  5
A4
330
A2
100
AcDbEntity
  8
0
100
AcDbBlockBegin
  2
HL62_1H_koerper
 70
     0
 10
20.98327056688589
 20
-563.243833023061
 30
0.0
  3
HL62_1H_koerper
  1

  0
INSERT
  5
A3
330
A2
100
AcDbEntity
  8
0
100
AcDbBlockReference
  2
Bitumenmanschette
 10
20.98327056688589
 20
-563.243833023061
 30
0.0
  0
ENDBLK
  5
A5
330
A2
100
AcDbEntity
  8
0
100
AcDbBlockEnd
  0
BLOCK
  5
A8
330
A6
100
AcDbEntity
  8
0
100
AcDbBlockBegin
  2
HL62B
 70
     0
 10
20.98327056688589
 20
-563.243833023061
 30
0.0
  3
HL62B
  1

  0
INSERT
  5
A7
330
A6
100
AcDbEntity
  8
0
100
AcDbBlockReference
  2
HL62_1H_koerper
 10
20.98327056688589
 20
-563.243833023061
 30
0.0
  0
ENDBLK
  5
A9
330
A6
100
AcDbEntity
  8
0
100
AcDbBlockEnd
  0
BLOCK
  5
AC
330
AA
100
AcDbEntity
  8
0
100
AcDbBlockBegin
  2
HL_62BH_1_DN110_Dachablauf
 70
     0
 10
20.98327056688589
 20
-563.243833023061
 30
0.0
  3
HL_62BH_1_DN110_Dachablauf
  1

  0
INSERT
  5
AB
330
AA
100
AcDbEntity
  8
0
100
AcDbBlockReference
  2
HL62B
 10
20.98327056688589
 20
-563.243833023061
 30
0.0
  0
ENDBLK
  5
AD
330
AA
100
AcDbEntity
  8
0
100
AcDbBlockEnd
  0
BLOCK
  5
B1
330
AE
100
AcDbEntity
  8
0
100
AcDbBlockBegin
  2
HL_64_1B_Flachdachablauf_DN75_110__6
 70
     0
 10
25.46708968505695
 20
-397.1612450726738
 30
0.0
  3
HL_64_1B_Flachdachablauf_DN75_110__6
  1

  0
INSERT
  5
AF
330
AE
100
AcDbEntity
  8
0
100
AcDbBlockReference
  2
HL_64B_Flachdachablauf
 10
25.29573873359348
 20
-118.9233667914451
 30
0.0
  0
INSERT
  5
B0
330
AE
100
AcDbEntity
  8
0
100
AcDbBlockReference
  2
HL_62BH_1_DN110_Dachablauf
 10
20.98327056688589
 20
-563.243833023061
 30
0.0
  0
DIMENSION
  5
1E2
330
AE
100
AcDbEntity
  8
1
100
AcDbDimension
  2
*D26
 10
323.9369648068744
 20
-131.5930919985111
 30
0.0
 11
314.2393531035104
 21
-182.8832880907577
 31
0.0
 70
    32
  1
<>
 71
     5
 42
-1.0
 53
86.99999999425671
  3
ME10_DIM_10
100
AcDbAlignedDimension
 13
288.8308584671869
 23
-239.9042171500062
 33
0.0
 14
294.5878134671868
 24
-130.0549681500062
 34
0.0
 50
86.99999999425671
100
AcDbRotatedDimension
  0
DIMENSION
  5
1ED
330
AE
100
AcDbEntity
  8
1
100
AcDbDimension
  2
*D27
 10
184.3079085977351
 20
-135.7780985999148
 30
0.0
 11
175.4221677076379
 21
-171.576871758896
 31
0.0
 70
    32
  1
DN75
 71
     5
 42
-1.0
 53
86.99999958006347
  3
ME10_DIM_11
100
AcDbAlignedDimension
 13
150.7523470000001
 23
-209.0803875295123
 33
0.0
 14
154.6753450000001
 24
-134.2251215295123
 34
0.0
 50
86.99999958006347
100
AcDbRotatedDimension
  0
DIMENSION
  5
1F8
330
AE
100
AcDbEntity
  8
1
100
AcDbDimension
  2
*D28
 10
176.5000040000002
 20
31.9213428777137
 30
0.0
 11
11.68859748878822
 21
38.9213428777137
 31
0.0
 70
    32
  1
<>
 71
     5
 42
-1.0
 53
0.00013888888889
  3
ME10_DIM_12
100
AcDbAlignedDimension
 13
-177.4999829999999
 23
-71.00854552951216
 33
0.0
 14
176.5000040000002
 24
-69.99935452951229
 34
0.0
100
AcDbRotatedDimension
  0
DIMENSION
  5
203
330
AE
100
AcDbEntity
  8
1
100
AcDbDimension
  2
*D29
 10
73.50000000000011
 20
10.91040988325403
 30
0.0
 11
-21.73788682057977
 21
17.91040988325403
 31
0.0
 70
    32
  1
150x150
 71
     5
 42
-1.0
 53
0.00013888888889
  3
ME10_DIM_13
100
AcDbAlignedDimension
 13
-73.5
 23
0.0
 33
0.0
 14
73.50000000000011
 24
0.0
 34
0.0
100
AcDbRotatedDimension
  0
DIMENSION
  5
20E
330
AE
100
AcDbEntity
  8
1
100
AcDbDimension
  2
*D30
 10
-192.3757748646486
 20
0.0
 30
0.0
 11
-199.3757748646486
 21
-34.13940139847603
 31
0.0
 70
    32
  1
<>
 71
     5
 42
-1.0
 53
90.0
  3
ME10_DIM_14
100
AcDbAlignedDimension
 13
-175.4999939999998
 23
-68.00064752951232
 33
0.0
 14
-73.5
 24
0.0
 34
0.0
 50
90.0
100
AcDbRotatedDimension
  0
DIMENSION
  5
219
330
AE
100
AcDbEntity
  8
1
100
AcDbDimension
  2
*D31
 10
-192.3757748646486
 20
-213.3215855295123
 30
0.0
 11
-199.3757748646486
 21
-147.311926845907
 31
0.0
 70
    32
  1
<>
 71
     5
 42
-1.0
 53
90.0
  3
ME10_DIM_15
100
AcDbAlignedDimension
 13
-175.4999939999998
 23
-68.00064752951232
 33
0.0
 14
-33.306425
 24
-213.3215855295123
 34
0.0
 50
90.0
100
AcDbRotatedDimension
  0
INSERT
  5
221
330
AE
100
AcDbEntity
  8
1
100
AcDbBlockReference
  2
*D32
 10
0.0
 20
0.0
 30
0.0
  0
ENDBLK
  5
B2
330
AE
100
AcDbEntity
  8
0
100
AcDbBlockEnd
  0
BLOCK
  5
B4
330
B3
100
AcDbEntity
  8
0
100
AcDbBlockBegin
  2
Reduzierung
 70
     0
 10
272.199572463036
 20
-563.2438330230611
 30
0.0
  3
Reduzierung
  1

  0
LINE
  5
222
330
B3
100
AcDbEntity
  8
1
  6
Continuous
 62
     7
100
AcDbLine
 10
243.874923458885
 20
-508.2438330230611
 30
0.0
 11
295.524221467187
 21
-508.2438330230611
 31
0.0
  0
LINE
  5
223
330
B3
100
AcDbEntity
  8
1
  6
Continuous
 62
     7
100
AcDbLine
 10
295.524221467187
 20
-508.2438330230611
 30
0.0
 11
300.524221467187
 21
-509.5835789852168
 31
0.0
  0
LINE
  5
224
330
B3
100
AcDbEntity
  8
1
  6
Continuous
 62
     7
100
AcDbLine
 10
300.524221467187
 20
-509.5835789852168
 30
0.0
 11
300.524221467187
 21
-616.9040870609056
 31
0.0
  0
LINE
  5
225
330
B3
100
AcDbEntity
  8
1
  6
Continuous
 62
     7
100
AcDbLine
 10
300.524221467187
 20
-616.9040870609056
 30
0.0
 11
295.524221467187
 21
-618.2438330230611
 31
0.0
  0
LINE
  5
226
330
B3
100
AcDbEntity
  8
1
  6
Continuous
 62
     7
100
AcDbLine
 10
295.524221467187
 20
-618.2438330230611
 30
0.0
 11
243.874923458885
 21
-618.2438330230611
 31
0.0
  0
LINE
  5
227
330
B3
100
AcDbEntity
  8
1
  6
Continuous
 62
     7
100
AcDbLine
 10
295.524221467187
 20
-618.2438330230611
 30
0.0
 11
295.524221467187
 21
-508.2438330230611
 31
0.0
  0
ENDBLK
  5
B5
330
B3
100
AcDbEntity
  8
0
100
AcDbBlockEnd
  0
BLOCK
  5
B7
330
B6
100
AcDbEntity
  8
0
100
AcDbBlockBegin
  2
HL0317_1E_Einlaufrost
 70
     0
 10
-0.07346280597917
 20
-563.2218330230609
 30
0.0
  3
HL0317_1E_Einlaufrost
  1

  0
LINE
  5
228
330
B6
100
AcDbEntity
  8
0
  6
Continuous
 62
     3
100
AcDbLine
 10
-69.05146280597896
 20
-628.4098330230609
 30
0.0
 11
-66.55146280597927
 21
-628.4098330230609
 31
0.0
  0
LINE
  5
229
330
B6
100
AcDbEntity
  8
0
  6
Continuous
 62
     3
100
AcDbLine
 10
-65.26146280597928
 20
-629.6998330230608
 30
0.0
 11
-65.26146280597928
 21
-632.1998330230608
 31
0.0
  0
LINE
  5
22A
330
B6
100
AcDbEntity
  8
0
  6
Continuous
 62
     3
100
AcDbLine
 10
-66.17363055370987
 20
-629.3220007707914
 30
0.0
 11
-67.94139750667577
 21
-631.0897677237576
 31
0.0
  0
LINE
  5
22B
330
B6
100
AcDbEntity
  8
0
  6
Continuous
 62
     3
100
AcDbLine
 10
66.40453719402092
 20
-628.4098330230609
 30
0.0
 11
68.90453719402093
 21
-628.4098330230609
 31
0.0
  0
LINE
  5
22C
330
B6
100
AcDbEntity
  8
0
  6
Continuous
 62
     3
100
AcDbLine
 10
66.02670494175155
 20
-629.3220007707914
 30
0.0
 11
67.79447189471819
 21
-631.0897677237581
 31
0.0
  0
LINE
  5
22D
330
B6
100
AcDbEntity
  8
0
  6
Continuous
 62
     3
100
AcDbLine
 10
65.11453719402097
 20
-632.1998330230608
 30
0.0
 11
65.11453719402097
 21
-629.6998330230608
 31
0.0
  0
LINE
  5
22E
330
B6
100
AcDbEntity
  8
0
  6
Continuous
 62
     7
100
AcDbLine
 10
59.40453719404844
 20
-603.721833023088
 30
0.0
 11
59.40453719404274
 21
-522.7218330230883
 31
0.0
  0
LINE
  5
22F
330
B6
100
AcDbEntity
  8
0
  6
Continuous
 62
     7
100
AcDbLine
 10
52.40453719404707
 20
-522.7218330230883
 30
0.0
 11
52.40453719404275
 21
-603.721833023088
 31
0.0
  0
LINE
  5
230
330
B6
100
AcDbEntity
  8
0
  6
Continuous
 62
     3
100
AcDbLine
 10
65.11453719402095
 20
-494.2438330230609
 30
0.0
 11
65.11453719402094
 21
-496.7438330230608
 31
0.0
  0
LINE
  5
231
330
B6
100
AcDbEntity
  8
0
  6
Continuous
 62
     3
100
AcDbLine
 10
68.90453719402092
 20
-498.0338330230609
 30
0.0
 11
66.4045371940209
 21
-498.0338330230609
 31
0.0
  0
LINE
  5
232
330
B6
100
AcDbEntity
  8
0
  6
Continuous
 62
     3
100
AcDbLine
 10
66.02670494175152
 20
-497.1216652753302
 30
0.0
 11
67.79447189471796
 21
-495.3538983223639
 31
0.0
  0
LINE
  5
233
330
B6
100
AcDbEntity
  8
0
  6
Continuous
 62
     3
100
AcDbLine
 10
-66.55146280597927
 20
-498.0338330230609
 30
0.0
 11
-69.05146280597927
 21
-498.0338330230609
 31
0.0
  0
LINE
  5
234
330
B6
100
AcDbEntity
  8
0
  6
Continuous
 62
     3
100
AcDbLine
 10
-65.26146280597928
 20
-494.2438330230611
 30
0.0
 11
-65.26146280597928
 21
-496.7438330230608
 31
0.0
  0
LINE
  5
235
330
B6
100
AcDbEntity
  8
0
  6
Continuous
 62
     3
100
AcDbLine
 10
-66.17363055370987
 20
-497.1216652753302
 30
0.0
 11
-67.94139750667577
 21
-495.3538983223643
 31
0.0
  0
LINE
  5
236
330
B6
100
AcDbEntity
  8
0
  6
Continuous
 62
     7
100
AcDbLine
 10
-65.26146280597928
 20
-494.2438330230611
 30
0.0
 11
65.11453719402095
 21
-494.2438330230609
 31
0.0
  0
LINE
  5
237
330
B6
100
AcDbEntity
  8
0
  6
Continuous
 62
     3
100
AcDbLine
 10
-40.57346280597366
 20
-501.2438330230608
 30
0.0
 11
40.42653719402633
 21
-501.2438330230608
 31
0.0
  0
LINE
  5
238
330
B6
100
AcDbEntity
  8
0
  6
Continuous
 62
     7
100
AcDbLine
 10
-40.57346280597366
 20
-510.7438330230607
 30
0.0
 11
40.42653719402633
 21
-510.7438330230607
 31
0.0
  0
LINE
  5
239
330
B6
100
AcDbEntity
  8
0
  6
Continuous
 62
     7
100
AcDbLine
 10
40.42653719402633
 20
-503.7438330230608
 30
0.0
 11
-40.57346280597366
 21
-503.7438330230609
 31
0.0
  0
LINE
  5
23A
330
B6
100
AcDbEntity
  8
0
  6
Continuous
 62
     3
100
AcDbLine
 10
24.4265371940245
 20
-517.2438330230607
 30
0.0
 11
24.4265371940245
 21
-519.7438330230552
 31
0.0
  0
LINE
  5
23B
330
B6
100
AcDbEntity
  8
0
  6
Continuous
 62
     3
100
AcDbLine
 10
40.42653719402633
 20
-501.2438330230608
 30
0.0
 11
40.42653719402633
 21
-503.7438330230608
 31
0.0
  0
LINE
  5
23C
330
B6
100
AcDbEntity
  8
0
  6
Continuous
 62
     3
100
AcDbLine
 10
14.42653719402314
 20
-539.2438330230607
 30
0.0
 11
11.92653719402381
 21
-539.2438330230607
 31
0.0
  0
LINE
  5
23D
330
B6
100
AcDbEntity
  8
0
  6
Continuous
 62
     3
100
AcDbLine
 10
8.42653719402313
 20
-533.2438330230607
 30
0.0
 11
8.42653719402313
 21
-535.7438330230557
 31
0.0
  0
LINE
  5
23E
330
B6
100
AcDbEntity
  8
0
  6
Continuous
 62
     3
100
AcDbLine
 10
-40.57346280597366
 20
-501.2438330230608
 30
0.0
 11
-40.57346280597366
 21
-503.7438330230609
 31
0.0
  0
LINE
  5
23F
330
B6
100
AcDbEntity
  8
0
  6
Continuous
 62
     7
100
AcDbLine
 10
24.4265371940245
 20
-519.7438330230552
 30
0.0
 11
-24.57346280597551
 21
-519.7438330230609
 31
0.0
  0
LINE
  5
240
330
B6
100
AcDbEntity
  8
0
  6
Continuous
 62
     7
100
AcDbLine
 10
8.42653719402313
 20
-535.7438330230557
 30
0.0
 11
-8.57346280597642
 21
-535.7438330230611
 31
0.0
  0
LINE
  5
241
330
B6
100
AcDbEntity
  8
0
  6
Continuous
 62
     3
100
AcDbLine
 10
8.42653719402313
 20
-542.7438330230607
 30
0.0
 11
8.42653719402314
 21
-545.2438330230607
 31
0.0
  0
LINE
  5
242
330
B6
100
AcDbEntity
  8
0
  6
Continuous
 62
     3
100
AcDbLine
 10
-8.57346280597642
 20
-535.7438330230611
 30
0.0
 11
-8.57346280597642
 21
-533.2438330230607
 31
0.0
  0
LINE
  5
243
330
B6
100
AcDbEntity
  8
0
  6
Continuous
 62
     3
100
AcDbLine
 10
30.4265371940245
 20
-523.2438330230607
 30
0.0
 11
27.92653719402496
 21
-523.2438330230607
 31
0.0
  0
LINE
  5
244
330
B6
100
AcDbEntity
  8
0
  6
Continuous
 62
     3
100
AcDbLine
 10
24.42653719402449
 20
-526.7438330230611
 30
0.0
 11
24.4265371940245
 21
-529.2438330230607
 31
0.0
  0
LINE
  5
245
330
B6
100
AcDbEntity
  8
0
  6
Continuous
 62
     3
100
AcDbLine
 10
-24.57346280597551
 20
-517.2438330230607
 30
0.0
 11
24.4265371940245
 21
-517.2438330230607
 31
0.0
  0
LINE
  5
246
330
B6
100
AcDbEntity
  8
0
  6
Continuous
 62
     3
100
AcDbLine
 10
-8.57346280597642
 20
-533.2438330230607
 30
0.0
 11
8.42653719402313
 21
-533.2438330230607
 31
0.0
  0
LINE
  5
247
330
B6
100
AcDbEntity
  8
0
  6
Continuous
 62
     3
100
AcDbLine
 10
-24.57346280597551
 20
-519.7438330230609
 30
0.0
 11
-24.57346280597551
 21
-517.2438330230607
 31
0.0
  0
LINE
  5
248
330
B6
100
AcDbEntity
  8
0
  6
Continuous
 62
     3
100
AcDbLine
 10
-46.57346280597366
 20
-507.2438330230608
 30
0.0
 11
-44.07346280597366
 21
-507.2438330230608
 31
0.0
  0
LINE
  5
249
330
B6
100
AcDbEntity
  8
0
  6
Continuous
 62
     3
100
AcDbLine
 10
46.42653719402633
 20
-507.2438330230608
 30
0.0
 11
43.92653719402633
 21
-507.2438330230608
 31
0.0
  0
LINE
  5
24A
330
B6
100
AcDbEntity
  8
0
  6
Continuous
 62
     3
100
AcDbLine
 10
40.42653719402633
 20
-513.2438330230607
 30
0.0
 11
40.42653719402633
 21
-510.7438330230607
 31
0.0
  0
LINE
  5
24B
330
B6
100
AcDbEntity
  8
0
  6
Continuous
 62
     3
100
AcDbLine
 10
40.42653719402633
 20
-513.2438330230607
 30
0.0
 11
-40.57346280597366
 21
-513.2438330230607
 31
0.0
  0
LINE
  5
24C
330
B6
100
AcDbEntity
  8
0
  6
Continuous
 62
     3
100
AcDbLine
 10
-40.57346280597366
 20
-510.7438330230607
 30
0.0
 11
-40.57346280597366
 21
-513.2438330230607
 31
0.0
  0
LINE
  5
24D
330
B6
100
AcDbEntity
  8
0
  6
Continuous
 62
     7
100
AcDbLine
 10
-24.57346280597551
 20
-526.7438330230611
 30
0.0
 11
24.42653719402449
 21
-526.7438330230611
 31
0.0
  0
LINE
  5
24E
330
B6
100
AcDbEntity
  8
0
  6
Continuous
 62
     3
100
AcDbLine
 10
-30.57346280597546
 20
-523.2438330230607
 30
0.0
 11
-28.07346280597551
 21
-523.2438330230607
 31
0.0
  0
LINE
  5
24F
330
B6
100
AcDbEntity
  8
0
  6
Continuous
 62
     3
100
AcDbLine
 10
17.90453719404276
 20
-554.7218330230853
 30
0.0
 11
20.40453719404139
 21
-554.7218330230853
 31
0.0
  0
LINE
  5
250
330
B6
100
AcDbEntity
  8
0
  6
Continuous
 62
     3
100
AcDbLine
 10
23.90453719404276
 20
-548.7218330230853
 30
0.0
 11
23.90453719404276
 21
-551.2218330230853
 31
0.0
  0
LINE
  5
251
330
B6
100
AcDbEntity
  8
0
  6
Continuous
 62
     3
100
AcDbLine
 10
-66.55146280597927
 20
-498.0338330230609
 30
0.0
 11
-66.55146280597927
 21
-628.4098330230609
 31
0.0
  0
LINE
  5
252
330
B6
100
AcDbEntity
  8
0
  6
Continuous
 62
     7
100
AcDbLine
 10
-69.05146280597896
 20
-628.4098330230609
 30
0.0
 11
-69.05146280597927
 21
-498.0338330230609
 31
0.0
  0
LINE
  5
253
330
B6
100
AcDbEntity
  8
0
  6
Continuous
 62
     3
100
AcDbLine
 10
-50.05146280600128
 20
-603.7218330230771
 30
0.0
 11
-52.55146280600147
 21
-603.7218330230771
 31
0.0
  0
LINE
  5
254
330
B6
100
AcDbEntity
  8
0
  6
Continuous
 62
     3
100
AcDbLine
 10
-62.05146280600128
 20
-603.7218330230771
 30
0.0
 11
-59.55146280600128
 21
-603.7218330230771
 31
0.0
  0
LINE
  5
255
330
B6
100
AcDbEntity
  8
0
  6
Continuous
 62
     3
100
AcDbLine
 10
-56.05146280600128
 20
-609.7218330230771
 30
0.0
 11
-56.05146280600128
 21
-607.2218330230771
 31
0.0
  0
LINE
  5
256
330
B6
100
AcDbEntity
  8
0
  6
Continuous
 62
     3
100
AcDbLine
 10
-24.05146280600104
 20
-577.7218330230799
 30
0.0
 11
-24.05146280600104
 21
-575.2218330230799
 31
0.0
  0
LINE
  5
257
330
B6
100
AcDbEntity
  8
0
  6
Continuous
 62
     3
100
AcDbLine
 10
-62.05146280600128
 20
-522.7218330230771
 30
0.0
 11
-59.55146280600266
 21
-522.7218330230771
 31
0.0
  0
LINE
  5
258
330
B6
100
AcDbEntity
  8
0
  6
Continuous
 62
     3
100
AcDbLine
 10
-52.55146280600147
 20
-522.7218330230771
 30
0.0
 11
-50.05146280600128
 21
-522.7218330230771
 31
0.0
  0
LINE
  5
259
330
B6
100
AcDbEntity
  8
0
  6
Continuous
 62
     3
100
AcDbLine
 10
-56.05146280600128
 20
-516.7218330230776
 30
0.0
 11
-56.05146280600128
 21
-519.2218330230776
 31
0.0
  0
LINE
  5
25A
330
B6
100
AcDbEntity
  8
0
  6
Continuous
 62
     3
100
AcDbLine
 10
-50.05146280600128
 20
-522.7218330230771
 30
0.0
 11
-50.05146280600128
 21
-603.7218330230771
 31
0.0
  0
LINE
  5
25B
330
B6
100
AcDbEntity
  8
0
  6
Continuous
 62
     7
100
AcDbLine
 10
-59.55146280600266
 20
-522.7218330230771
 30
0.0
 11
-59.55146280600128
 21
-603.7218330230771
 31
0.0
  0
LINE
  5
25C
330
B6
100
AcDbEntity
  8
0
  6
Continuous
 62
     3
100
AcDbLine
 10
-62.05146280600128
 20
-603.7218330230771
 30
0.0
 11
-62.05146280600128
 21
-522.7218330230771
 31
0.0
  0
LINE
  5
25D
330
B6
100
AcDbEntity
  8
0
  6
Continuous
 62
     3
100
AcDbLine
 10
-40.05146280600107
 20
-532.721833023079
 30
0.0
 11
-40.05146280600107
 21
-535.221833023079
 31
0.0
  0
LINE
  5
25E
330
B6
100
AcDbEntity
  8
0
  6
Continuous
 62
     3
100
AcDbLine
 10
-46.05146280600128
 20
-587.721833023079
 30
0.0
 11
-46.05146280600107
 21
-538.721833023079
 31
0.0
  0
LINE
  5
25F
330
B6
100
AcDbEntity
  8
0
  6
Continuous
 62
     3
100
AcDbLine
 10
-34.05146280600107
 20
-538.721833023079
 30
0.0
 11
-36.55146280600087
 21
-538.721833023079
 31
0.0
  0
LINE
  5
260
330
B6
100
AcDbEntity
  8
0
  6
Continuous
 62
     3
100
AcDbLine
 10
-30.05146280600107
 20
-554.7218330230799
 30
0.0
 11
-27.5514628059999
 21
-554.7218330230799
 31
0.0
  0
LINE
  5
261
330
B6
100
AcDbEntity
  8
0
  6
Continuous
 62
     3
100
AcDbLine
 10
-24.05146280600104
 20
-548.7218330230799
 30
0.0
 11
-24.05146280600104
 21
-551.2218330230799
 31
0.0
  0
LINE
  5
262
330
B6
100
AcDbEntity
  8
0
  6
Continuous
 62
     7
100
AcDbLine
 10
-43.55146280600467
 20
-538.721833023079
 30
0.0
 11
-43.55146280600107
 21
-587.721833023079
 31
0.0
  0
LINE
  5
263
330
B6
100
AcDbEntity
  8
0
  6
Continuous
 62
     3
100
AcDbLine
 10
-30.05146280600107
 20
-571.7218330230799
 30
0.0
 11
-30.05146280600107
 21
-554.7218330230799
 31
0.0
  0
LINE
  5
264
330
B6
100
AcDbEntity
  8
0
  6
Continuous
 62
     3
100
AcDbLine
 10
-18.05146280600104
 20
-554.7218330230799
 30
0.0
 11
-20.55146280600195
 21
-554.7218330230799
 31
0.0
  0
LINE
  5
265
330
B6
100
AcDbEntity
  8
0
  6
Continuous
 62
     3
100
AcDbLine
 10
-46.05146280600128
 20
-587.721833023079
 30
0.0
 11
-43.55146280600107
 21
-587.721833023079
 31
0.0
  0
LINE
  5
266
330
B6
100
AcDbEntity
  8
0
  6
Continuous
 62
     3
100
AcDbLine
 10
-46.05146280600107
 20
-538.721833023079
 30
0.0
 11
-43.55146280600467
 21
-538.721833023079
 31
0.0
  0
LINE
  5
267
330
B6
100
AcDbEntity
  8
0
  6
Continuous
 62
     7
100
AcDbLine
 10
-52.55146280600147
 20
-603.7218330230771
 30
0.0
 11
-52.55146280600147
 21
-522.7218330230771
 31
0.0
  0
LINE
  5
268
330
B6
100
AcDbEntity
  8
0
  6
Continuous
 62
     3
100
AcDbLine
 10
-30.05146280600107
 20
-571.7218330230799
 30
0.0
 11
-27.55146280600081
 21
-571.7218330230799
 31
0.0
  0
LINE
  5
269
330
B6
100
AcDbEntity
  8
0
  6
Continuous
 62
     7
100
AcDbLine
 10
-27.5514628059999
 20
-554.7218330230799
 30
0.0
 11
-27.55146280600081
 21
-571.7218330230799
 31
0.0
  0
LINE
  5
26A
330
B6
100
AcDbEntity
  8
0
  6
Continuous
 62
     3
100
AcDbLine
 10
-40.05146280600107
 20
-593.7218330230794
 30
0.0
 11
-40.05146280600107
 21
-591.2218330230794
 31
0.0
  0
LINE
  5
26B
330
B6
100
AcDbEntity
  8
0
  6
Continuous
 62
     7
100
AcDbLine
 10
-36.55146280600536
 20
-587.721833023079
 30
0.0
 11
-36.55146280600087
 21
-538.721833023079
 31
0.0
  0
LINE
  5
26C
330
B6
100
AcDbEntity
  8
0
  6
Continuous
 62
     3
100
AcDbLine
 10
-34.05146280600107
 20
-538.721833023079
 30
0.0
 11
-34.05146280600087
 21
-587.721833023079
 31
0.0
  0
LINE
  5
26D
330
B6
100
AcDbEntity
  8
0
  6
Continuous
 62
     3
100
AcDbLine
 10
-34.05146280600087
 20
-587.721833023079
 30
0.0
 11
-36.55146280600536
 21
-587.721833023079
 31
0.0
  0
LINE
  5
26E
330
B6
100
AcDbEntity
  8
0
  6
Continuous
 62
     3
100
AcDbLine
 10
-14.57346280597642
 20
-539.2438330230607
 30
0.0
 11
-12.07346280597642
 21
-539.2438330230607
 31
0.0
  0
LINE
  5
26F
330
B6
100
AcDbEntity
  8
0
  6
Continuous
 62
     3
100
AcDbLine
 10
-8.57346280597642
 20
-545.2438330230607
 30
0.0
 11
-8.57346280597642
 21
-542.7438330230593
 31
0.0
  0
LINE
  5
270
330
B6
100
AcDbEntity
  8
0
  6
Continuous
 62
     7
100
AcDbLine
 10
-20.55146280600195
 20
-571.7218330230799
 30
0.0
 11
-20.55146280600195
 21
-554.7218330230799
 31
0.0
  0
LINE
  5
271
330
B6
100
AcDbEntity
  8
0
  6
Continuous
 62
     3
100
AcDbLine
 10
-18.05146280600104
 20
-554.7218330230799
 30
0.0
 11
-18.05146280600104
 21
-571.7218330230799
 31
0.0
  0
LINE
  5
272
330
B6
100
AcDbEntity
  8
0
  6
Continuous
 62
     3
100
AcDbLine
 10
-18.05146280600104
 20
-571.7218330230799
 30
0.0
 11
-20.55146280600195
 21
-571.7218330230799
 31
0.0
  0
LINE
  5
273
330
B6
100
AcDbEntity
  8
0
  6
Continuous
 62
     3
100
AcDbLine
 10
-24.57346280597551
 20
-529.2438330230607
 30
0.0
 11
-24.57346280597551
 21
-526.7438330230611
 31
0.0
  0
LINE
  5
274
330
B6
100
AcDbEntity
  8
0
  6
Continuous
 62
     7
100
AcDbLine
 10
68.90453719402092
 20
-498.0338330230609
 30
0.0
 11
68.90453719402093
 21
-628.4098330230609
 31
0.0
  0
LINE
  5
275
330
B6
100
AcDbEntity
  8
0
  6
Continuous
 62
     3
100
AcDbLine
 10
49.90453719404275
 20
-603.721833023088
 30
0.0
 11
49.90453719404275
 21
-522.7218330230883
 31
0.0
  0
LINE
  5
276
330
B6
100
AcDbEntity
  8
0
  6
Continuous
 62
     7
100
AcDbLine
 10
36.40453719403775
 20
-538.7218330230862
 30
0.0
 11
36.40453719404276
 21
-587.7218330230862
 31
0.0
  0
LINE
  5
277
330
B6
100
AcDbEntity
  8
0
  6
Continuous
 62
     3
100
AcDbLine
 10
33.90453719404276
 20
-587.7218330230862
 30
0.0
 11
33.90453719404276
 21
-538.7218330230862
 31
0.0
  0
LINE
  5
278
330
B6
100
AcDbEntity
  8
0
  6
Continuous
 62
     3
100
AcDbLine
 10
23.90453719404276
 20
-577.7218330230853
 30
0.0
 11
23.90453719404276
 21
-575.2218330230849
 31
0.0
  0
LINE
  5
279
330
B6
100
AcDbEntity
  8
0
  6
Continuous
 62
     3
100
AcDbLine
 10
17.90453719404276
 20
-571.7218330230853
 30
0.0
 11
20.40453719404276
 21
-571.7218330230853
 31
0.0
  0
LINE
  5
27A
330
B6
100
AcDbEntity
  8
0
  6
Continuous
 62
     7
100
AcDbLine
 10
27.40453719404139
 20
-571.7218330230853
 30
0.0
 11
27.40453719404254
 21
-554.7218330230853
 31
0.0
  0
LINE
  5
27B
330
B6
100
AcDbEntity
  8
0
  6
Continuous
 62
     3
100
AcDbLine
 10
29.90453719404276
 20
-554.7218330230853
 30
0.0
 11
27.40453719404254
 21
-554.7218330230853
 31
0.0
  0
LINE
  5
27C
330
B6
100
AcDbEntity
  8
0
  6
Continuous
 62
     3
100
AcDbLine
 10
29.90453719404276
 20
-571.7218330230853
 30
0.0
 11
27.40453719404139
 21
-571.7218330230853
 31
0.0
  0
LINE
  5
27D
330
B6
100
AcDbEntity
  8
0
  6
Continuous
 62
     3
100
AcDbLine
 10
39.90453719404275
 20
-532.7218330230862
 30
0.0
 11
39.90453719404275
 21
-535.2218330230862
 31
0.0
  0
LINE
  5
27E
330
B6
100
AcDbEntity
  8
0
  6
Continuous
 62
     3
100
AcDbLine
 10
61.90453719404274
 20
-522.7218330230883
 30
0.0
 11
61.90453719404276
 21
-603.721833023088
 31
0.0
  0
LINE
  5
27F
330
B6
100
AcDbEntity
  8
0
  6
Continuous
 62
     3
100
AcDbLine
 10
61.90453719404276
 20
-603.721833023088
 30
0.0
 11
59.40453719404844
 21
-603.721833023088
 31
0.0
  0
LINE
  5
280
330
B6
100
AcDbEntity
  8
0
  6
Continuous
 62
     3
100
AcDbLine
 10
45.90453719404276
 20
-587.7218330230862
 30
0.0
 11
43.40453719404275
 21
-587.7218330230862
 31
0.0
  0
LINE
  5
281
330
B6
100
AcDbEntity
  8
0
  6
Continuous
 62
     7
100
AcDbLine
 10
43.40453719404275
 20
-587.7218330230862
 30
0.0
 11
43.40453719404298
 21
-538.7218330230862
 31
0.0
  0
LINE
  5
282
330
B6
100
AcDbEntity
  8
0
  6
Continuous
 62
     3
100
AcDbLine
 10
45.90453719404275
 20
-538.7218330230862
 30
0.0
 11
45.90453719404276
 21
-587.7218330230862
 31
0.0
  0
LINE
  5
283
330
B6
100
AcDbEntity
  8
0
  6
Continuous
 62
     3
100
AcDbLine
 10
43.40453719404298
 20
-538.7218330230862
 30
0.0
 11
45.90453719404275
 21
-538.7218330230862
 31
0.0
  0
LINE
  5
284
330
B6
100
AcDbEntity
  8
0
  6
Continuous
 62
     3
100
AcDbLine
 10
29.90453719404276
 20
-554.7218330230853
 30
0.0
 11
29.90453719404276
 21
-571.7218330230853
 31
0.0
  0
LINE
  5
285
330
B6
100
AcDbEntity
  8
0
  6
Continuous
 62
     3
100
AcDbLine
 10
59.40453719404274
 20
-522.7218330230883
 30
0.0
 11
61.90453719404274
 21
-522.7218330230883
 31
0.0
  0
LINE
  5
286
330
B6
100
AcDbEntity
  8
0
  6
Continuous
 62
     3
100
AcDbLine
 10
39.90453719404276
 20
-593.7218330230862
 30
0.0
 11
39.90453719404275
 21
-591.2218330230867
 31
0.0
  0
LINE
  5
287
330
B6
100
AcDbEntity
  8
0
  6
Continuous
 62
     3
100
AcDbLine
 10
33.90453719404276
 20
-587.7218330230862
 30
0.0
 11
36.40453719404276
 21
-587.7218330230862
 31
0.0
  0
LINE
  5
288
330
B6
100
AcDbEntity
  8
0
  6
Continuous
 62
     3
100
AcDbLine
 10
49.90453719404275
 20
-603.721833023088
 30
0.0
 11
52.40453719404275
 21
-603.721833023088
 31
0.0
  0
LINE
  5
289
330
B6
100
AcDbEntity
  8
0
  6
Continuous
 62
     3
100
AcDbLine
 10
55.90453719404277
 20
-609.721833023088
 30
0.0
 11
55.90453719404276
 21
-607.2218330230885
 31
0.0
  0
LINE
  5
28A
330
B6
100
AcDbEntity
  8
0
  6
Continuous
 62
     3
100
AcDbLine
 10
8.42653719401813
 20
-581.1998330231045
 30
0.0
 11
8.42653719401813
 21
-583.6998330231045
 31
0.0
  0
LINE
  5
28B
330
B6
100
AcDbEntity
  8
0
  6
Continuous
 62
     3
100
AcDbLine
 10
14.42653719401813
 20
-587.1998330231045
 30
0.0
 11
11.92653719401813
 21
-587.1998330231045
 31
0.0
  0
LINE
  5
28C
330
B6
100
AcDbEntity
  8
0
  6
Continuous
 62
     3
100
AcDbLine
 10
66.40453719402092
 20
-628.4098330230609
 30
0.0
 11
66.4045371940209
 21
-498.0338330230609
 31
0.0
  0
LINE
  5
28D
330
B6
100
AcDbEntity
  8
0
  6
Continuous
 62
     3
100
AcDbLine
 10
55.90453719404276
 20
-516.7218330230883
 30
0.0
 11
55.90453719404276
 21
-519.2218330230883
 31
0.0
  0
LINE
  5
28E
330
B6
100
AcDbEntity
  8
0
  6
Continuous
 62
     3
100
AcDbLine
 10
49.90453719404275
 20
-522.7218330230883
 30
0.0
 11
52.40453719404707
 21
-522.7218330230883
 31
0.0
  0
LINE
  5
28F
330
B6
100
AcDbEntity
  8
0
  6
Continuous
 62
     3
100
AcDbLine
 10
33.90453719404276
 20
-538.7218330230862
 30
0.0
 11
36.40453719403775
 21
-538.7218330230862
 31
0.0
  0
LINE
  5
290
330
B6
100
AcDbEntity
  8
0
  6
Continuous
 62
     3
100
AcDbLine
 10
-40.57346280598456
 20
-613.1998330231045
 30
0.0
 11
40.42653719401542
 21
-613.1998330231045
 31
0.0
  0
LINE
  5
291
330
B6
100
AcDbEntity
  8
0
  6
Continuous
 62
     3
100
AcDbLine
 10
40.42653719401542
 20
-625.1998330231045
 30
0.0
 11
-40.57346280598456
 21
-625.1998330231045
 31
0.0
  0
LINE
  5
292
330
B6
100
AcDbEntity
  8
0
  6
Continuous
 62
     7
100
AcDbLine
 10
24.42653719401678
 20
-599.6998330231104
 30
0.0
 11
-24.57346280598324
 21
-599.6998330231049
 31
0.0
  0
LINE
  5
293
330
B6
100
AcDbEntity
  8
0
  6
Continuous
 62
     7
100
AcDbLine
 10
-24.57346280598324
 20
-606.6998330230899
 30
0.0
 11
24.42653719401678
 21
-606.6998330231049
 31
0.0
  0
LINE
  5
294
330
B6
100
AcDbEntity
  8
0
  6
Continuous
 62
     3
100
AcDbLine
 10
24.42653719401678
 20
-609.1998330231045
 30
0.0
 11
-24.57346280598324
 21
-609.1998330231045
 31
0.0
  0
LINE
  5
295
330
B6
100
AcDbEntity
  8
0
  6
Continuous
 62
     3
100
AcDbLine
 10
-24.57346280598324
 20
-597.1998330231045
 30
0.0
 11
24.42653719401678
 21
-597.1998330231045
 31
0.0
  0
LINE
  5
296
330
B6
100
AcDbEntity
  8
0
  6
Continuous
 62
     7
100
AcDbLine
 10
-8.57346280598188
 20
-590.6998330231045
 30
0.0
 11
8.42653719401813
 21
-590.6998330231045
 31
0.0
  0
LINE
  5
297
330
B6
100
AcDbEntity
  8
0
  6
Continuous
 62
     3
100
AcDbLine
 10
8.42653719401813
 20
-593.1998330231045
 30
0.0
 11
-8.57346280598188
 21
-593.1998330231045
 31
0.0
  0
LINE
  5
298
330
B6
100
AcDbEntity
  8
0
  6
Continuous
 62
     3
100
AcDbLine
 10
8.42653719401813
 20
-590.6998330231045
 30
0.0
 11
8.42653719401813
 21
-593.1998330231045
 31
0.0
  0
LINE
  5
299
330
B6
100
AcDbEntity
  8
0
  6
Continuous
 62
     3
100
AcDbLine
 10
-8.57346280598188
 20
-590.6998330231045
 30
0.0
 11
-8.57346280598188
 21
-593.1998330231045
 31
0.0
  0
LINE
  5
29A
330
B6
100
AcDbEntity
  8
0
  6
Continuous
 62
     3
100
AcDbLine
 10
-14.57346280598187
 20
-587.1998330231045
 30
0.0
 11
-12.07346280598187
 21
-587.1998330231045
 31
0.0
  0
LINE
  5
29B
330
B6
100
AcDbEntity
  8
0
  6
Continuous
 62
     7
100
AcDbLine
 10
8.42653719401813
 20
-583.6998330231045
 30
0.0
 11
-8.57346280598188
 21
-583.6998330231045
 31
0.0
  0
LINE
  5
29C
330
B6
100
AcDbEntity
  8
0
  6
Continuous
 62
     3
100
AcDbLine
 10
-8.57346280598188
 20
-581.1998330231045
 30
0.0
 11
8.42653719401813
 21
-581.1998330231045
 31
0.0
  0
LINE
  5
29D
330
B6
100
AcDbEntity
  8
0
  6
Continuous
 62
     3
100
AcDbLine
 10
-8.57346280598188
 20
-583.6998330231045
 30
0.0
 11
-8.57346280598188
 21
-581.1998330231045
 31
0.0
  0
LINE
  5
29E
330
B6
100
AcDbEntity
  8
0
  6
Continuous
 62
     3
100
AcDbLine
 10
-24.57346280598324
 20
-599.6998330231049
 30
0.0
 11
-24.57346280598324
 21
-597.1998330231045
 31
0.0
  0
LINE
  5
29F
330
B6
100
AcDbEntity
  8
0
  6
Continuous
 62
     3
100
AcDbLine
 10
-30.57346280598327
 20
-603.1998330231045
 30
0.0
 11
-28.07346280598233
 21
-603.1998330231045
 31
0.0
  0
LINE
  5
2A0
330
B6
100
AcDbEntity
  8
0
  6
Continuous
 62
     3
100
AcDbLine
 10
24.42653719401678
 20
-597.1998330231045
 30
0.0
 11
24.42653719401678
 21
-599.6998330231104
 31
0.0
  0
LINE
  5
2A1
330
B6
100
AcDbEntity
  8
0
  6
Continuous
 62
     3
100
AcDbLine
 10
30.42653719401678
 20
-603.1998330231045
 30
0.0
 11
27.92653719401678
 21
-603.1998330231045
 31
0.0
  0
LINE
  5
2A2
330
B6
100
AcDbEntity
  8
0
  6
Continuous
 62
     3
100
AcDbLine
 10
24.42653719401678
 20
-606.6998330231049
 30
0.0
 11
24.42653719401678
 21
-609.1998330231045
 31
0.0
  0
LINE
  5
2A3
330
B6
100
AcDbEntity
  8
0
  6
Continuous
 62
     3
100
AcDbLine
 10
-24.57346280598324
 20
-609.1998330231045
 30
0.0
 11
-24.57346280598324
 21
-606.6998330230899
 31
0.0
  0
LINE
  5
2A4
330
B6
100
AcDbEntity
  8
0
  6
Continuous
 62
     3
100
AcDbLine
 10
24.4265371940245
 20
-529.2438330230607
 30
0.0
 11
-24.57346280597551
 21
-529.2438330230607
 31
0.0
  0
LINE
  5
2A5
330
B6
100
AcDbEntity
  8
0
  6
Continuous
 62
     3
100
AcDbLine
 10
8.42653719402314
 20
-545.2438330230607
 30
0.0
 11
-8.57346280597642
 21
-545.2438330230607
 31
0.0
  0
LINE
  5
2A6
330
B6
100
AcDbEntity
  8
0
  6
Continuous
 62
     7
100
AcDbLine
 10
-8.57346280597642
 20
-542.7438330230593
 30
0.0
 11
8.42653719402313
 21
-542.7438330230607
 31
0.0
  0
LINE
  5
2A7
330
B6
100
AcDbEntity
  8
0
  6
Continuous
 62
     7
100
AcDbLine
 10
20.40453719404139
 20
-554.7218330230853
 30
0.0
 11
20.40453719404276
 21
-571.7218330230853
 31
0.0
  0
LINE
  5
2A8
330
B6
100
AcDbEntity
  8
0
  6
Continuous
 62
     3
100
AcDbLine
 10
17.90453719404276
 20
-571.7218330230853
 30
0.0
 11
17.90453719404276
 21
-554.7218330230853
 31
0.0
  0
LINE
  5
2A9
330
B6
100
AcDbEntity
  8
0
  6
Continuous
 62
     3
100
AcDbLine
 10
46.42653719401541
 20
-619.1998330231045
 30
0.0
 11
43.92653719401541
 21
-619.1998330231045
 31
0.0
  0
LINE
  5
2AA
330
B6
100
AcDbEntity
  8
0
  6
Continuous
 62
     3
100
AcDbLine
 10
40.42653719401542
 20
-613.1998330231045
 30
0.0
 11
40.42653719401542
 21
-615.6998330230949
 31
0.0
  0
LINE
  5
2AB
330
B6
100
AcDbEntity
  8
0
  6
Continuous
 62
     3
100
AcDbLine
 10
40.42653719401542
 20
-622.6998330231049
 30
0.0
 11
40.42653719401542
 21
-625.1998330231045
 31
0.0
  0
LINE
  5
2AC
330
B6
100
AcDbEntity
  8
0
  6
Continuous
 62
     7
100
AcDbLine
 10
40.42653719401542
 20
-615.6998330230949
 30
0.0
 11
-40.57346280598456
 21
-615.6998330231045
 31
0.0
  0
LINE
  5
2AD
330
B6
100
AcDbEntity
  8
0
  6
Continuous
 62
     7
100
AcDbLine
 10
-40.57346280598456
 20
-622.6998330231045
 30
0.0
 11
40.42653719401542
 21
-622.6998330231049
 31
0.0
  0
LINE
  5
2AE
330
B6
100
AcDbEntity
  8
0
  6
Continuous
 62
     3
100
AcDbLine
 10
-40.57346280598456
 20
-615.6998330231045
 30
0.0
 11
-40.57346280598456
 21
-613.1998330231045
 31
0.0
  0
LINE
  5
2AF
330
B6
100
AcDbEntity
  8
0
  6
Continuous
 62
     3
100
AcDbLine
 10
-46.57346280598456
 20
-619.1998330231045
 30
0.0
 11
-44.07346280598506
 21
-619.1998330231045
 31
0.0
  0
LINE
  5
2B0
330
B6
100
AcDbEntity
  8
0
  6
Continuous
 62
     3
100
AcDbLine
 10
-40.57346280598456
 20
-625.1998330231045
 30
0.0
 11
-40.57346280598456
 21
-622.6998330231045
 31
0.0
  0
LINE
  5
2B1
330
B6
100
AcDbEntity
  8
0
  6
Continuous
 62
     3
100
AcDbLine
 10
65.11453719402094
 20
-496.7438330230608
 30
0.0
 11
-65.26146280597928
 21
-496.7438330230608
 31
0.0
  0
LINE
  5
2B2
330
B6
100
AcDbEntity
  8
0
  6
Continuous
 62
     7
100
AcDbLine
 10
65.11453719402097
 20
-632.1998330230608
 30
0.0
 11
-65.26146280597928
 21
-632.1998330230608
 31
0.0
  0
LINE
  5
2B3
330
B6
100
AcDbEntity
  8
0
  6
Continuous
 62
     3
100
AcDbLine
 10
-65.26146280597928
 20
-629.6998330230608
 30
0.0
 11
65.11453719402097
 21
-629.6998330230608
 31
0.0
  0
ARC
  5
2B4
330
B6
100
AcDbEntity
  8
0
  6
Continuous
 62
     3
100
AcDbCircle
 10
-65.26146280597857
 20
-628.4098330230609
 30
0.0
 40
1.290000000000703
100
AcDbArc
 50
180.0
 51
224.9999999999768
  0
ARC
  5
2B5
330
B6
100
AcDbEntity
  8
0
  6
Continuous
 62
     3
100
AcDbCircle
 10
-65.26146280597857
 20
-628.4098330230609
 30
0.0
 40
1.290000000000406
100
AcDbArc
 50
224.9999999999768
 51
269.9999999999685
  0
ARC
  5
2B6
330
B6
100
AcDbEntity
  8
0
  6
Continuous
 62
     7
100
AcDbCircle
 10
-65.26146280597857
 20
-628.4098330230609
 30
0.0
 40
3.789999999999964
100
AcDbArc
 50
224.9999999999955
 51
269.9999999999893
  0
ARC
  5
2B7
330
B6
100
AcDbEntity
  8
0
  6
Continuous
 62
     7
100
AcDbCircle
 10
-65.26146280597857
 20
-628.4098330230609
 30
0.0
 40
3.79000000000039
100
AcDbArc
 50
180.0
 51
224.9999999999955
  0
ARC
  5
2B8
330
B6
100
AcDbEntity
  8
0
  6
Continuous
 62
     7
100
AcDbCircle
 10
65.11453719402073
 20
-628.4098330230604
 30
0.0
 40
3.790000000000788
100
AcDbArc
 50
314.9999999999976
 51
359.9999999999931
  0
ARC
  5
2B9
330
B6
100
AcDbEntity
  8
0
  6
Continuous
 62
     3
100
AcDbCircle
 10
65.11453719402073
 20
-628.4098330230604
 30
0.0
 40
1.290000000000386
100
AcDbArc
 50
314.9999999999937
 51
359.9999999999798
  0
ARC
  5
2BA
330
B6
100
AcDbEntity
  8
0
  6
Continuous
 62
     3
100
AcDbCircle
 10
65.11453719402073
 20
-628.4098330230604
 30
0.0
 40
1.290000000000418
100
AcDbArc
 50
270.0000000000107
 51
314.9999999999937
  0
ARC
  5
2BB
330
B6
100
AcDbEntity
  8
0
  6
Continuous
 62
     7
100
AcDbCircle
 10
65.11453719402073
 20
-628.4098330230604
 30
0.0
 40
3.790000000000418
100
AcDbArc
 50
270.0000000000037
 51
314.9999999999976
  0
ARC
  5
2BC
330
B6
100
AcDbEntity
  8
0
  6
Continuous
 62
     7
100
AcDbCircle
 10
65.11453719401997
 20
-498.0338330230616
 30
0.0
 40
3.7900000000012
100
AcDbArc
 50
44.99999999999741
 51
89.99999999998518
  0
ARC
  5
2BD
330
B6
100
AcDbEntity
  8
0
  6
Continuous
 62
     3
100
AcDbCircle
 10
65.11453719401997
 20
-498.0338330230616
 30
0.0
 40
1.29000000000118
100
AcDbArc
 50
44.99999999999599
 51
89.99999999995708
  0
ARC
  5
2BE
330
B6
100
AcDbEntity
  8
0
  6
Continuous
 62
     7
100
AcDbCircle
 10
65.11453719401997
 20
-498.0338330230616
 30
0.0
 40
3.790000000000944
100
AcDbArc
 50
0.00000000001117
 51
44.99999999999741
  0
ARC
  5
2BF
330
B6
100
AcDbEntity
  8
0
  6
Continuous
 62
     3
100
AcDbCircle
 10
65.11453719401997
 20
-498.0338330230616
 30
0.0
 40
1.29000000000093
100
AcDbArc
 50
0.00000000003282
 51
44.99999999999599
  0
ARC
  5
2C0
330
B6
100
AcDbEntity
  8
0
  6
Continuous
 62
     7
100
AcDbCircle
 10
-65.26146280597948
 20
-498.0338330230612
 30
0.0
 40
3.789999999999441
100
AcDbArc
 50
134.999999999993
 51
179.9999999999949
  0
ARC
  5
2C1
330
B6
100
AcDbEntity
  8
0
  6
Continuous
 62
     3
100
AcDbCircle
 10
-65.26146280597948
 20
-498.0338330230612
 30
0.0
 40
1.290000000000418
100
AcDbArc
 50
89.99999999999116
 51
134.9999999999804
  0
ARC
  5
2C2
330
B6
100
AcDbEntity
  8
0
  6
Continuous
 62
     3
100
AcDbCircle
 10
-65.26146280597948
 20
-498.0338330230612
 30
0.0
 40
1.290000000000084
100
AcDbArc
 50
134.9999999999804
 51
179.9999999999849
  0
ARC
  5
2C3
330
B6
100
AcDbEntity
  8
0
  6
Continuous
 62
     7
100
AcDbCircle
 10
-65.26146280597845
 20
-498.033833023061
 30
0.0
 40
3.789999999999907
100
AcDbArc
 50
90.00000000001248
 51
135.0000000000064
  0
ARC
  5
2C4
330
B6
100
AcDbEntity
  8
0
  6
Continuous
 62
     3
100
AcDbCircle
 10
-24.57346280597551
 20
-523.2438330230607
 30
0.0
 40
6.0
100
AcDbArc
 50
90.0
 51
180.0
  0
ARC
  5
2C5
330
B6
100
AcDbEntity
  8
0
  6
Continuous
 62
     3
100
AcDbCircle
 10
23.90453719404298
 20
-554.7218330230853
 30
0.0
 40
6.0
100
AcDbArc
 50
90.00000000000212
 51
180.0
  0
ARC
  5
2C6
330
B6
100
AcDbEntity
  8
0
  6
Continuous
 62
     3
100
AcDbCircle
 10
-40.57346280597346
 20
-507.2438330230608
 30
0.0
 40
6.000000000000199
100
AcDbArc
 50
180.0
 51
269.9999999999981
  0
ARC
  5
2C7
330
B6
100
AcDbEntity
  8
0
  6
Continuous
 62
     3
100
AcDbCircle
 10
8.42653719402314
 20
-539.2438330230607
 30
0.0
 40
6.0
100
AcDbArc
 50
0.0
 51
90.00000000000009
  0
ARC
  5
2C8
330
B6
100
AcDbEntity
  8
0
  6
Continuous
 62
     7
100
AcDbCircle
 10
8.42653719402087
 20
-539.2438330230584
 30
0.0
 40
3.500000000002936
100
AcDbArc
 50
359.9999999999628
 51
89.99999999996302
  0
ARC
  5
2C9
330
B6
100
AcDbEntity
  8
0
  6
Continuous
 62
     7
100
AcDbCircle
 10
-40.57346280597346
 20
-507.2438330230608
 30
0.0
 40
3.499999999999886
100
AcDbArc
 50
90.00000000000325
 51
180.0
  0
ARC
  5
2CA
330
B6
100
AcDbEntity
  8
0
  6
Continuous
 62
     7
100
AcDbCircle
 10
8.42653719402314
 20
-539.2438330230607
 30
0.0
 40
3.5
100
AcDbArc
 50
269.9999999999999
 51
0.0
  0
ARC
  5
2CB
330
B6
100
AcDbEntity
  8
0
  6
Continuous
 62
     3
100
AcDbCircle
 10
8.42653719402314
 20
-539.2438330230607
 30
0.0
 40
6.0
100
AcDbArc
 50
270.0
 51
0.0
  0
ARC
  5
2CC
330
B6
100
AcDbEntity
  8
0
  6
Continuous
 62
     7
100
AcDbCircle
 10
24.42653719402182
 20
-523.2438330230584
 30
0.0
 40
3.500000000003141
100
AcDbArc
 50
359.9999999999628
 51
89.99999999995609
  0
ARC
  5
2CD
330
B6
100
AcDbEntity
  8
0
  6
Continuous
 62
     7
100
AcDbCircle
 10
24.4265371940245
 20
-523.2438330230607
 30
0.0
 40
3.500000000000455
100
AcDbArc
 50
269.9999999999998
 51
0.0
  0
ARC
  5
2CE
330
B6
100
AcDbEntity
  8
0
  6
Continuous
 62
     3
100
AcDbCircle
 10
24.4265371940245
 20
-523.2438330230607
 30
0.0
 40
6.0
100
AcDbArc
 50
0.0
 51
90.0
  0
ARC
  5
2CF
330
B6
100
AcDbEntity
  8
0
  6
Continuous
 62
     7
100
AcDbCircle
 10
40.42653719402631
 20
-507.2438330230608
 30
0.0
 40
3.500000000000021
100
AcDbArc
 50
0.0
 51
89.99999999999966
  0
ARC
  5
2D0
330
B6
100
AcDbEntity
  8
0
  6
Continuous
 62
     3
100
AcDbCircle
 10
24.4265371940245
 20
-523.2438330230607
 30
0.0
 40
6.0
100
AcDbArc
 50
270.0
 51
0.0
  0
ARC
  5
2D1
330
B6
100
AcDbEntity
  8
0
  6
Continuous
 62
     3
100
AcDbCircle
 10
-40.57346280597346
 20
-507.2438330230608
 30
0.0
 40
6.0
100
AcDbArc
 50
90.0000000000019
 51
180.0
  0
ARC
  5
2D2
330
B6
100
AcDbEntity
  8
0
  6
Continuous
 62
     7
100
AcDbCircle
 10
40.42653719402631
 20
-507.2438330230608
 30
0.0
 40
3.499999999999886
100
AcDbArc
 50
270.0000000000003
 51
0.0
  0
ARC
  5
2D3
330
B6
100
AcDbEntity
  8
0
  6
Continuous
 62
     7
100
AcDbCircle
 10
-40.57346280597346
 20
-507.2438330230608
 30
0.0
 40
3.500000000000199
100
AcDbArc
 50
180.0
 51
269.9999999999968
  0
ARC
  5
2D4
330
B6
100
AcDbEntity
  8
0
  6
Continuous
 62
     3
100
AcDbCircle
 10
40.42653719402631
 20
-507.2438330230608
 30
0.0
 40
6.000000000000021
100
AcDbArc
 50
0.0
 51
89.9999999999998
  0
ARC
  5
2D5
330
B6
100
AcDbEntity
  8
0
  6
Continuous
 62
     3
100
AcDbCircle
 10
40.42653719402631
 20
-507.2438330230608
 30
0.0
 40
5.999999999999886
100
AcDbArc
 50
270.0000000000002
 51
0.0
  0
ARC
  5
2D6
330
B6
100
AcDbEntity
  8
0
  6
Continuous
 62
     7
100
AcDbCircle
 10
-24.57346280597551
 20
-523.2438330230607
 30
0.0
 40
3.5
100
AcDbArc
 50
180.0
 51
270.0
  0
ARC
  5
2D7
330
B6
100
AcDbEntity
  8
0
  6
Continuous
 62
     7
100
AcDbCircle
 10
-24.57346280597551
 20
-523.2438330230607
 30
0.0
 40
3.499999999999773
100
AcDbArc
 50
90.0
 51
180.0
  0
ARC
  5
2D8
330
B6
100
AcDbEntity
  8
0
  6
Continuous
 62
     7
100
AcDbCircle
 10
23.90453719404298
 20
-554.7218330230853
 30
0.0
 40
3.5
100
AcDbArc
 50
90.00000000000362
 51
180.0
  0
ARC
  5
2D9
330
B6
100
AcDbEntity
  8
0
  6
Continuous
 62
     3
100
AcDbCircle
 10
-40.57346280598456
 20
-619.1998330231049
 30
0.0
 40
6.000000000000455
100
AcDbArc
 50
90.0
 51
179.9999999999957
  0
ARC
  5
2DA
330
B6
100
AcDbEntity
  8
0
  6
Continuous
 62
     3
100
AcDbCircle
 10
-40.05146280600057
 20
-587.7218330230794
 30
0.0
 40
6.0
100
AcDbArc
 50
269.9999999999952
 51
0.00000000000434
  0
ARC
  5
2DB
330
B6
100
AcDbEntity
  8
0
  6
Continuous
 62
     3
100
AcDbCircle
 10
-56.05146280600107
 20
-603.7218330230771
 30
0.0
 40
6.0
100
AcDbArc
 50
269.999999999998
 51
0.0
  0
ARC
  5
2DC
330
B6
100
AcDbEntity
  8
0
  6
Continuous
 62
     3
100
AcDbCircle
 10
-56.05146280600107
 20
-603.7218330230771
 30
0.0
 40
6.000000000000213
100
AcDbArc
 50
180.0
 51
269.999999999998
  0
ARC
  5
2DD
330
B6
100
AcDbEntity
  8
0
  6
Continuous
 62
     7
100
AcDbCircle
 10
-56.05146280600107
 20
-603.7218330230771
 30
0.0
 40
3.5
100
AcDbArc
 50
269.9999999999965
 51
0.0
  0
ARC
  5
2DE
330
B6
100
AcDbEntity
  8
0
  6
Continuous
 62
     7
100
AcDbCircle
 10
-56.05146280600107
 20
-603.7218330230771
 30
0.0
 40
3.500000000000213
100
AcDbArc
 50
180.0
 51
269.9999999999965
  0
ARC
  5
2DF
330
B6
100
AcDbEntity
  8
0
  6
Continuous
 62
     3
100
AcDbCircle
 10
-24.05146280600127
 20
-571.7218330230799
 30
0.0
 40
5.999999999999801
100
AcDbArc
 50
180.0
 51
270.0000000000021
  0
ARC
  5
2E0
330
B6
100
AcDbEntity
  8
0
  6
Continuous
 62
     3
100
AcDbCircle
 10
-24.05146280600127
 20
-571.7218330230799
 30
0.0
 40
6.0
100
AcDbArc
 50
270.0000000000021
 51
0.0
  0
ARC
  5
2E1
330
B6
100
AcDbEntity
  8
0
  6
Continuous
 62
     7
100
AcDbCircle
 10
-24.05146280600127
 20
-571.7218330230799
 30
0.0
 40
3.5
100
AcDbArc
 50
270.0000000000037
 51
0.0
  0
ARC
  5
2E2
330
B6
100
AcDbEntity
  8
0
  6
Continuous
 62
     7
100
AcDbCircle
 10
-24.05146280600127
 20
-571.7218330230799
 30
0.0
 40
3.499999999999542
100
AcDbArc
 50
180.0
 51
270.0000000000037
  0
ARC
  5
2E3
330
B6
100
AcDbEntity
  8
0
  6
Continuous
 62
     7
100
AcDbCircle
 10
-56.05146280600128
 20
-522.7218330230776
 30
0.0
 40
3.5
100
AcDbArc
 50
90.0
 51
179.9999999999926
  0
ARC
  5
2E4
330
B6
100
AcDbEntity
  8
0
  6
Continuous
 62
     3
100
AcDbCircle
 10
-56.05146280600128
 20
-522.7218330230776
 30
0.0
 40
6.0
100
AcDbArc
 50
90.0
 51
179.9999999999957
  0
ARC
  5
2E5
330
B6
100
AcDbEntity
  8
0
  6
Continuous
 62
     3
100
AcDbCircle
 10
-56.05146280600128
 20
-522.7218330230776
 30
0.0
 40
6.0
100
AcDbArc
 50
0.00000000000434
 51
90.0
  0
ARC
  5
2E6
330
B6
100
AcDbEntity
  8
0
  6
Continuous
 62
     7
100
AcDbCircle
 10
-56.05146280600128
 20
-522.7218330230776
 30
0.0
 40
3.499999999999815
100
AcDbArc
 50
0.00000000000744
 51
90.0
  0
ARC
  5
2E7
330
B6
100
AcDbEntity
  8
0
  6
Continuous
 62
     3
100
AcDbCircle
 10
-40.05146280600057
 20
-538.721833023079
 30
0.0
 40
5.999999999999503
100
AcDbArc
 50
0.0
 51
90.00000000000476
  0
ARC
  5
2E8
330
B6
100
AcDbEntity
  8
0
  6
Continuous
 62
     3
100
AcDbCircle
 10
-40.05146280600057
 20
-538.721833023079
 30
0.0
 40
6.0
100
AcDbArc
 50
90.00000000000476
 51
180.0
  0
ARC
  5
2E9
330
B6
100
AcDbEntity
  8
0
  6
Continuous
 62
     7
100
AcDbCircle
 10
-40.05146280600276
 20
-538.7218330230812
 30
0.0
 40
3.500000000002274
100
AcDbArc
 50
89.99999999997232
 51
179.9999999999628
  0
ARC
  5
2EA
330
B6
100
AcDbEntity
  8
0
  6
Continuous
 62
     7
100
AcDbCircle
 10
-40.05146280600057
 20
-538.721833023079
 30
0.0
 40
3.499999999999702
100
AcDbArc
 50
0.0
 51
90.00000000000813
  0
ARC
  5
2EB
330
B6
100
AcDbEntity
  8
0
  6
Continuous
 62
     7
100
AcDbCircle
 10
-24.05146280600104
 20
-554.7218330230799
 30
0.0
 40
3.5
100
AcDbArc
 50
90.0
 51
180.0
  0
ARC
  5
2EC
330
B6
100
AcDbEntity
  8
0
  6
Continuous
 62
     7
100
AcDbCircle
 10
-24.05146280600104
 20
-554.7218330230799
 30
0.0
 40
3.499999999999091
100
AcDbArc
 50
0.0
 51
90.0
  0
ARC
  5
2ED
330
B6
100
AcDbEntity
  8
0
  6
Continuous
 62
     3
100
AcDbCircle
 10
-24.05146280600104
 20
-554.7218330230799
 30
0.0
 40
6.0
100
AcDbArc
 50
0.0
 51
90.0
  0
ARC
  5
2EE
330
B6
100
AcDbEntity
  8
0
  6
Continuous
 62
     3
100
AcDbCircle
 10
-24.05146280600104
 20
-554.7218330230799
 30
0.0
 40
6.0
100
AcDbArc
 50
90.0
 51
180.0
  0
ARC
  5
2EF
330
B6
100
AcDbEntity
  8
0
  6
Continuous
 62
     3
100
AcDbCircle
 10
-40.05146280600057
 20
-587.7218330230794
 30
0.0
 40
6.000000000000711
100
AcDbArc
 50
179.9999999999957
 51
269.9999999999952
  0
ARC
  5
2F0
330
B6
100
AcDbEntity
  8
0
  6
Continuous
 62
     7
100
AcDbCircle
 10
-40.05146280600057
 20
-587.7218330230794
 30
0.0
 40
3.500000000000497
100
AcDbArc
 50
179.9999999999926
 51
269.9999999999919
  0
ARC
  5
2F1
330
B6
100
AcDbEntity
  8
0
  6
Continuous
 62
     7
100
AcDbCircle
 10
-40.05146280600307
 20
-587.7218330230817
 30
0.0
 40
3.499999999997726
100
AcDbArc
 50
270.0000000000328
 51
0.00000000004467
  0
ARC
  5
2F2
330
B6
100
AcDbEntity
  8
0
  6
Continuous
 62
     3
100
AcDbCircle
 10
-24.57346280597551
 20
-523.2438330230607
 30
0.0
 40
5.99999999999995
100
AcDbArc
 50
180.0
 51
270.0
  0
ARC
  5
2F3
330
B6
100
AcDbEntity
  8
0
  6
Continuous
 62
     3
100
AcDbCircle
 10
-8.57346280597687
 20
-539.2438330230611
 30
0.0
 40
5.999999999999547
100
AcDbArc
 50
179.9999999999957
 51
270.0000000000043
  0
ARC
  5
2F4
330
B6
100
AcDbEntity
  8
0
  6
Continuous
 62
     7
100
AcDbCircle
 10
-8.57346280597687
 20
-539.2438330230611
 30
0.0
 40
3.499999999999547
100
AcDbArc
 50
179.9999999999926
 51
270.0000000000074
  0
ARC
  5
2F5
330
B6
100
AcDbEntity
  8
0
  6
Continuous
 62
     3
100
AcDbCircle
 10
39.90453719404275
 20
-538.7218330230862
 30
0.0
 40
6.0
100
AcDbArc
 50
0.0
 51
90.0
  0
ARC
  5
2F6
330
B6
100
AcDbEntity
  8
0
  6
Continuous
 62
     7
100
AcDbCircle
 10
39.90453719404275
 20
-538.7218330230862
 30
0.0
 40
3.500000000000227
100
AcDbArc
 50
0.0
 51
90.0
  0
ARC
  5
2F7
330
B6
100
AcDbEntity
  8
0
  6
Continuous
 62
     7
100
AcDbCircle
 10
23.90453719404276
 20
-571.7218330230853
 30
0.0
 40
3.5
100
AcDbArc
 50
180.0
 51
270.0
  0
ARC
  5
2F8
330
B6
100
AcDbEntity
  8
0
  6
Continuous
 62
     7
100
AcDbCircle
 10
23.90453719404276
 20
-571.7218330230853
 30
0.0
 40
3.499999999999545
100
AcDbArc
 50
270.0
 51
0.0
  0
ARC
  5
2F9
330
B6
100
AcDbEntity
  8
0
  6
Continuous
 62
     7
100
AcDbCircle
 10
39.90453719404026
 20
-538.721833023089
 30
0.0
 40
3.500000000002728
100
AcDbArc
 50
89.99999999995917
 51
179.9999999999553
  0
ARC
  5
2FA
330
B6
100
AcDbEntity
  8
0
  6
Continuous
 62
     3
100
AcDbCircle
 10
39.90453719404276
 20
-587.7218330230862
 30
0.0
 40
6.0
100
AcDbArc
 50
180.0
 51
270.0
  0
ARC
  5
2FB
330
B6
100
AcDbEntity
  8
0
  6
Continuous
 62
     3
100
AcDbCircle
 10
55.90453719404282
 20
-603.721833023088
 30
0.0
 40
6.0
100
AcDbArc
 50
269.9999999999995
 51
0.0
  0
ARC
  5
2FC
330
B6
100
AcDbEntity
  8
0
  6
Continuous
 62
     7
100
AcDbCircle
 10
55.90453719404557
 20
-603.7218330230853
 30
0.0
 40
3.500000000003183
100
AcDbArc
 50
269.999999999954
 51
359.9999999999553
  0
ARC
  5
2FD
330
B6
100
AcDbEntity
  8
0
  6
Continuous
 62
     3
100
AcDbCircle
 10
23.90453719404276
 20
-571.7218330230853
 30
0.0
 40
6.0
100
AcDbArc
 50
270.0
 51
0.0
  0
ARC
  5
2FE
330
B6
100
AcDbEntity
  8
0
  6
Continuous
 62
     7
100
AcDbCircle
 10
39.90453719404276
 20
-587.7218330230862
 30
0.0
 40
3.500000000000455
100
AcDbArc
 50
269.9999999999999
 51
0.0
  0
ARC
  5
2FF
330
B6
100
AcDbEntity
  8
0
  6
Continuous
 62
     3
100
AcDbCircle
 10
23.90453719404276
 20
-571.7218330230853
 30
0.0
 40
6.0
100
AcDbArc
 50
180.0
 51
270.0
  0
ARC
  5
300
330
B6
100
AcDbEntity
  8
0
  6
Continuous
 62
     7
100
AcDbCircle
 10
39.90453719404276
 20
-587.7218330230862
 30
0.0
 40
3.5
100
AcDbArc
 50
180.0
 51
269.9999999999999
  0
ARC
  5
301
330
B6
100
AcDbEntity
  8
0
  6
Continuous
 62
     3
100
AcDbCircle
 10
39.90453719404276
 20
-587.7218330230862
 30
0.0
 40
6.0
100
AcDbArc
 50
270.0
 51
0.0
  0
ARC
  5
302
330
B6
100
AcDbEntity
  8
0
  6
Continuous
 62
     7
100
AcDbCircle
 10
55.90453719404277
 20
-522.7218330230883
 30
0.0
 40
3.499999999999972
100
AcDbArc
 50
0.0
 51
90.00000000000011
  0
ARC
  5
303
330
B6
100
AcDbEntity
  8
0
  6
Continuous
 62
     7
100
AcDbCircle
 10
55.90453719404282
 20
-603.721833023088
 30
0.0
 40
3.500000000000064
100
AcDbArc
 50
180.0
 51
269.9999999999991
  0
ARC
  5
304
330
B6
100
AcDbEntity
  8
0
  6
Continuous
 62
     3
100
AcDbCircle
 10
55.90453719404282
 20
-603.721833023088
 30
0.0
 40
6.000000000000064
100
AcDbArc
 50
180.0
 51
269.9999999999995
  0
ARC
  5
305
330
B6
100
AcDbEntity
  8
0
  6
Continuous
 62
     7
100
AcDbCircle
 10
55.90453719404493
 20
-522.7218330230862
 30
0.0
 40
3.499999999997954
100
AcDbArc
 50
90.0000000000355
 51
180.0000000000335
  0
ARC
  5
306
330
B6
100
AcDbEntity
  8
0
  6
Continuous
 62
     3
100
AcDbCircle
 10
8.42653719401813
 20
-587.1998330231045
 30
0.0
 40
5.999999999999998
100
AcDbArc
 50
0.0
 51
90.0
  0
ARC
  5
307
330
B6
100
AcDbEntity
  8
0
  6
Continuous
 62
     7
100
AcDbCircle
 10
8.42653719401813
 20
-587.1998330231045
 30
0.0
 40
3.499999999999998
100
AcDbArc
 50
0.0
 51
90.0
  0
ARC
  5
308
330
B6
100
AcDbEntity
  8
0
  6
Continuous
 62
     3
100
AcDbCircle
 10
55.90453719404277
 20
-522.7218330230883
 30
0.0
 40
5.999999999999972
100
AcDbArc
 50
0.0
 51
90.00000000000009
  0
ARC
  5
309
330
B6
100
AcDbEntity
  8
0
  6
Continuous
 62
     3
100
AcDbCircle
 10
55.90453719404277
 20
-522.7218330230883
 30
0.0
 40
6.0
100
AcDbArc
 50
90.00000000000009
 51
180.0
  0
ARC
  5
30A
330
B6
100
AcDbEntity
  8
0
  6
Continuous
 62
     3
100
AcDbCircle
 10
39.90453719404275
 20
-538.7218330230862
 30
0.0
 40
6.0
100
AcDbArc
 50
90.0
 51
180.0
  0
ARC
  5
30B
330
B6
100
AcDbEntity
  8
0
  6
Continuous
 62
     3
100
AcDbCircle
 10
-8.57346280598165
 20
-587.1998330231045
 30
0.0
 40
6.000000000000222
100
AcDbArc
 50
180.0
 51
269.9999999999978
  0
ARC
  5
30C
330
B6
100
AcDbEntity
  8
0
  6
Continuous
 62
     7
100
AcDbCircle
 10
8.42653719401813
 20
-587.1998330231045
 30
0.0
 40
3.5
100
AcDbArc
 50
270.0
 51
0.0
  0
ARC
  5
30D
330
B6
100
AcDbEntity
  8
0
  6
Continuous
 62
     3
100
AcDbCircle
 10
8.42653719401813
 20
-587.1998330231045
 30
0.0
 40
6.0
100
AcDbArc
 50
270.0
 51
0.0
  0
ARC
  5
30E
330
B6
100
AcDbEntity
  8
0
  6
Continuous
 62
     7
100
AcDbCircle
 10
-8.57346280598165
 20
-587.1998330231045
 30
0.0
 40
3.5
100
AcDbArc
 50
90.00000000000374
 51
180.0
  0
ARC
  5
30F
330
B6
100
AcDbEntity
  8
0
  6
Continuous
 62
     3
100
AcDbCircle
 10
-8.57346280598165
 20
-587.1998330231045
 30
0.0
 40
6.0
100
AcDbArc
 50
90.00000000000217
 51
180.0
  0
ARC
  5
310
330
B6
100
AcDbEntity
  8
0
  6
Continuous
 62
     7
100
AcDbCircle
 10
-8.57346280598165
 20
-587.1998330231045
 30
0.0
 40
3.500000000000222
100
AcDbArc
 50
180.0
 51
269.9999999999963
  0
ARC
  5
311
330
B6
100
AcDbEntity
  8
0
  6
Continuous
 62
     7
100
AcDbCircle
 10
-24.57346280599023
 20
-603.1998330230977
 30
0.0
 40
3.499999999992102
100
AcDbArc
 50
180.0000000001116
 51
270.0000000001144
  0
ARC
  5
312
330
B6
100
AcDbEntity
  8
0
  6
Continuous
 62
     7
100
AcDbCircle
 10
-24.57346280598324
 20
-603.1998330231045
 30
0.0
 40
3.499999999999545
100
AcDbArc
 50
90.0
 51
180.0
  0
ARC
  5
313
330
B6
100
AcDbEntity
  8
0
  6
Continuous
 62
     3
100
AcDbCircle
 10
-24.57346280598324
 20
-603.1998330231045
 30
0.0
 40
6.0
100
AcDbArc
 50
90.0
 51
180.0
  0
ARC
  5
314
330
B6
100
AcDbEntity
  8
0
  6
Continuous
 62
     3
100
AcDbCircle
 10
24.42653719401678
 20
-603.1998330231045
 30
0.0
 40
6.0
100
AcDbArc
 50
270.0
 51
0.0
  0
ARC
  5
315
330
B6
100
AcDbEntity
  8
0
  6
Continuous
 62
     3
100
AcDbCircle
 10
24.42653719401678
 20
-603.1998330231045
 30
0.0
 40
6.0
100
AcDbArc
 50
0.0
 51
90.0
  0
ARC
  5
316
330
B6
100
AcDbEntity
  8
0
  6
Continuous
 62
     7
100
AcDbCircle
 10
24.42653719401964
 20
-603.1998330231072
 30
0.0
 40
3.49999999999714
100
AcDbArc
 50
0.00000000004467
 51
90.00000000004682
  0
ARC
  5
317
330
B6
100
AcDbEntity
  8
0
  6
Continuous
 62
     7
100
AcDbCircle
 10
24.42653719401678
 20
-603.1998330231045
 30
0.0
 40
3.500000000000455
100
AcDbArc
 50
270.0
 51
0.0
  0
ARC
  5
318
330
B6
100
AcDbEntity
  8
0
  6
Continuous
 62
     3
100
AcDbCircle
 10
-8.57346280597687
 20
-539.2438330230611
 30
0.0
 40
6.000000000000455
100
AcDbArc
 50
89.99999999999567
 51
179.9999999999957
  0
ARC
  5
319
330
B6
100
AcDbEntity
  8
0
  6
Continuous
 62
     7
100
AcDbCircle
 10
-8.57346280597687
 20
-539.2438330230611
 30
0.0
 40
3.5
100
AcDbArc
 50
89.99999999999255
 51
179.9999999999926
  0
ARC
  5
31A
330
B6
100
AcDbEntity
  8
0
  6
Continuous
 62
     3
100
AcDbCircle
 10
23.90453719404298
 20
-554.7218330230853
 30
0.0
 40
5.99999999999978
100
AcDbArc
 50
0.0
 51
90.00000000000212
  0
ARC
  5
31B
330
B6
100
AcDbEntity
  8
0
  6
Continuous
 62
     7
100
AcDbCircle
 10
23.90453719404298
 20
-554.7218330230853
 30
0.0
 40
3.499999999999559
100
AcDbArc
 50
0.0
 51
90.00000000000362
  0
ARC
  5
31C
330
B6
100
AcDbEntity
  8
0
  6
Continuous
 62
     3
100
AcDbCircle
 10
-24.57346280598324
 20
-603.1998330231045
 30
0.0
 40
6.000000000000028
100
AcDbArc
 50
180.0
 51
270.0
  0
ARC
  5
31D
330
B6
100
AcDbEntity
  8
0
  6
Continuous
 62
     3
100
AcDbCircle
 10
40.42653719401537
 20
-619.1998330231045
 30
0.0
 40
6.0
100
AcDbArc
 50
270.0000000000005
 51
0.0
  0
ARC
  5
31E
330
B6
100
AcDbEntity
  8
0
  6
Continuous
 62
     7
100
AcDbCircle
 10
40.42653719401537
 20
-619.1998330231045
 30
0.0
 40
3.500000000000455
100
AcDbArc
 50
270.0000000000008
 51
0.0
  0
ARC
  5
31F
330
B6
100
AcDbEntity
  8
0
  6
Continuous
 62
     7
100
AcDbCircle
 10
40.42653719401064
 20
-619.1998330230999
 30
0.0
 40
3.500000000004768
100
AcDbArc
 50
359.9999999999255
 51
89.99999999992183
  0
ARC
  5
320
330
B6
100
AcDbEntity
  8
0
  6
Continuous
 62
     3
100
AcDbCircle
 10
40.42653719401537
 20
-619.1998330231045
 30
0.0
 40
6.000000000000043
100
AcDbArc
 50
0.0
 51
89.99999999999953
  0
ARC
  5
321
330
B6
100
AcDbEntity
  8
0
  6
Continuous
 62
     7
100
AcDbCircle
 10
-40.57346280598456
 20
-619.1998330231049
 30
0.0
 40
3.500000000000455
100
AcDbArc
 50
90.0
 51
179.9999999999926
  0
ARC
  5
322
330
B6
100
AcDbEntity
  8
0
  6
Continuous
 62
     7
100
AcDbCircle
 10
-40.57346280598456
 20
-619.1998330231049
 30
0.0
 40
3.500000000000497
100
AcDbArc
 50
179.9999999999926
 51
270.0
  0
ARC
  5
323
330
B6
100
AcDbEntity
  8
0
  6
Continuous
 62
     3
100
AcDbCircle
 10
-40.57346280598456
 20
-619.1998330231049
 30
0.0
 40
6.0
100
AcDbArc
 50
179.9999999999957
 51
270.0
  0
ENDBLK
  5
B8
330
B6
100
AcDbEntity
  8
0
100
AcDbBlockEnd
  0
BLOCK
  5
BA
330
B9
100
AcDbEntity
  8
0
100
AcDbBlockBegin
  2
HL062B_2E_Aufsatzrahmen
 70
     0
 10
-0.00004450625924
 20
-563.243833023061
 30
0.0
  3
HL062B_2E_Aufsatzrahmen
  1

  0
LINE
  5
324
330
B9
100
AcDbEntity
  8
0
  6
Continuous
 62
     7
100
AcDbLine
 10
-68.50004450625957
 20
-631.7438330230607
 30
0.0
 11
-68.50004450625946
 21
-630.3785098809049
 31
0.0
  0
LINE
  5
325
330
B9
100
AcDbEntity
  8
0
  6
Continuous
 62
     7
100
AcDbLine
 10
-67.06383457673027
 20
-631.7438330230607
 30
0.0
 11
-68.50004450625957
 21
-631.7438330230607
 31
0.0
  0
LINE
  5
326
330
B9
100
AcDbEntity
  8
0
  6
Continuous
 62
     7
100
AcDbLine
 10
68.49995549374076
 20
-630.1136648621587
 30
0.0
 11
68.49995549374077
 21
-631.7438330230611
 31
0.0
  0
LINE
  5
327
330
B9
100
AcDbEntity
  8
0
  6
Continuous
 62
     7
100
AcDbLine
 10
68.49995549374077
 20
-631.7438330230611
 30
0.0
 11
66.91690896477168
 21
-631.7438330230611
 31
0.0
  0
LINE
  5
328
330
B9
100
AcDbEntity
  8
0
  6
Continuous
 62
     7
100
AcDbLine
 10
-74.00004450625926
 20
-637.2438330230611
 30
0.0
 11
73.99995549374079
 21
-637.2438330230611
 31
0.0
  0
LINE
  5
329
330
B9
100
AcDbEntity
  8
0
  6
Continuous
 62
     7
100
AcDbLine
 10
68.49995549374148
 20
-494.7438330230617
 30
0.0
 11
68.49995549374137
 21
-496.3300011839656
 31
0.0
  0
LINE
  5
32A
330
B9
100
AcDbEntity
  8
0
  6
Continuous
 62
     7
100
AcDbLine
 10
-68.50004450625877
 20
-494.7438330230605
 30
0.0
 11
-67.14295157820146
 21
-494.7438330230606
 31
0.0
  0
LINE
  5
32B
330
B9
100
AcDbEntity
  8
0
  6
Continuous
 62
     7
100
AcDbLine
 10
73.99995549374076
 20
-489.2438330230609
 30
0.0
 11
-74.00004450625926
 21
-489.2438330230609
 31
0.0
  0
LINE
  5
32C
330
B9
100
AcDbEntity
  8
0
  6
Continuous
 62
     7
100
AcDbLine
 10
13.99995549374148
 20
-493.2438330230611
 30
0.0
 11
13.99995549374146
 21
-494.2438330230609
 31
0.0
  0
LINE
  5
32D
330
B9
100
AcDbEntity
  8
0
  6
Continuous
 62
     7
100
AcDbLine
 10
-14.00004450625877
 20
-494.2438330230609
 30
0.0
 11
-14.00004450625877
 21
-493.2438330230609
 31
0.0
  0
LINE
  5
32E
330
B9
100
AcDbEntity
  8
0
  6
Continuous
 62
     7
100
AcDbLine
 10
13.99995549374148
 20
-493.2438330230611
 30
0.0
 11
-14.00004450625877
 21
-493.2438330230609
 31
0.0
  0
LINE
  5
32F
330
B9
100
AcDbEntity
  8
0
  6
Continuous
 62
     7
100
AcDbLine
 10
69.99995549374076
 20
-493.2438330230609
 30
0.0
 11
13.99995549374148
 21
-493.2438330230611
 31
0.0
  0
LINE
  5
330
330
B9
100
AcDbEntity
  8
0
  6
Continuous
 62
     7
100
AcDbLine
 10
-70.00004450625926
 20
-577.2438330230607
 30
0.0
 11
-70.00004450625926
 21
-633.2438330230611
 31
0.0
  0
LINE
  5
331
330
B9
100
AcDbEntity
  8
0
  6
Continuous
 62
     7
100
AcDbLine
 10
-70.00004450625926
 20
-493.2438330230609
 30
0.0
 11
-70.00004450625917
 21
-549.2438330230607
 31
0.0
  0
LINE
  5
332
330
B9
100
AcDbEntity
  8
0
  6
Continuous
 62
     7
100
AcDbLine
 10
-68.50004450625877
 20
-496.0651561652169
 30
0.0
 11
-68.50004450625877
 21
-494.7438330230605
 31
0.0
  0
LINE
  5
333
330
B9
100
AcDbEntity
  8
0
  6
Continuous
 62
     7
100
AcDbLine
 10
-70.00004450625917
 20
-549.2438330230607
 30
0.0
 11
-69.05146280597927
 21
-549.2438330230607
 31
0.0
  0
LINE
  5
334
330
B9
100
AcDbEntity
  8
0
  6
Continuous
 62
     7
100
AcDbLine
 10
-70.00004450625917
 20
-549.2438330230607
 30
0.0
 11
-70.00004450625926
 21
-577.2438330230607
 31
0.0
  0
LINE
  5
335
330
B9
100
AcDbEntity
  8
0
  6
Continuous
 62
     7
100
AcDbLine
 10
-69.05146280597927
 20
-577.2438330230607
 30
0.0
 11
-70.00004450625926
 21
-577.2438330230607
 31
0.0
  0
LINE
  5
336
330
B9
100
AcDbEntity
  8
0
  6
Continuous
 62
     7
100
AcDbLine
 10
-74.00004450625926
 20
-489.2438330230609
 30
0.0
 11
-74.00004450625926
 21
-637.2438330230611
 31
0.0
  0
LINE
  5
337
330
B9
100
AcDbEntity
  8
0
  6
Continuous
 62
     7
100
AcDbLine
 10
73.99995549374079
 20
-637.2438330230611
 30
0.0
 11
73.99995549374076
 21
-489.2438330230609
 31
0.0
  0
LINE
  5
338
330
B9
100
AcDbEntity
  8
0
  6
Continuous
 62
     7
100
AcDbLine
 10
69.99995549374076
 20
-577.2438330230611
 30
0.0
 11
68.90453719402093
 21
-577.2438330230611
 31
0.0
  0
LINE
  5
339
330
B9
100
AcDbEntity
  8
0
  6
Continuous
 62
     7
100
AcDbLine
 10
69.99995549374076
 20
-577.2438330230611
 30
0.0
 11
69.99995549374077
 21
-549.2438330230616
 31
0.0
  0
LINE
  5
33A
330
B9
100
AcDbEntity
  8
0
  6
Continuous
 62
     7
100
AcDbLine
 10
69.99995549374076
 20
-633.2438330230611
 30
0.0
 11
69.99995549374076
 21
-577.2438330230611
 31
0.0
  0
LINE
  5
33B
330
B9
100
AcDbEntity
  8
0
  6
Continuous
 62
     7
100
AcDbLine
 10
69.99995549374077
 20
-549.2438330230616
 30
0.0
 11
69.99995549374076
 21
-493.2438330230609
 31
0.0
  0
LINE
  5
33C
330
B9
100
AcDbEntity
  8
0
  6
Continuous
 62
     7
100
AcDbLine
 10
13.99995549374077
 20
-632.1998330230608
 30
0.0
 11
13.99995549374077
 21
-633.2438330230611
 31
0.0
  0
LINE
  5
33D
330
B9
100
AcDbEntity
  8
0
  6
Continuous
 62
     7
100
AcDbLine
 10
13.99995549374077
 20
-633.2438330230611
 30
0.0
 11
69.99995549374076
 21
-633.2438330230611
 31
0.0
  0
LINE
  5
33E
330
B9
100
AcDbEntity
  8
0
  6
Continuous
 62
     7
100
AcDbLine
 10
-14.00004450625948
 20
-633.2438330230611
 30
0.0
 11
13.99995549374077
 21
-633.2438330230611
 31
0.0
  0
LINE
  5
33F
330
B9
100
AcDbEntity
  8
0
  6
Continuous
 62
     7
100
AcDbLine
 10
-14.00004450625948
 20
-633.2438330230611
 30
0.0
 11
-14.00004450625948
 21
-632.1998330230608
 31
0.0
  0
LINE
  5
340
330
B9
100
AcDbEntity
  8
0
  6
Continuous
 62
     7
100
AcDbLine
 10
68.90453719402093
 20
-549.2438330230616
 30
0.0
 11
69.99995549374077
 21
-549.2438330230616
 31
0.0
  0
LINE
  5
341
330
B9
100
AcDbEntity
  8
0
  6
Continuous
 62
     7
100
AcDbLine
 10
66.996025966245
 20
-494.7438330230617
 30
0.0
 11
68.49995549374148
 21
-494.7438330230617
 31
0.0
  0
LINE
  5
342
330
B9
100
AcDbEntity
  8
0
  6
Continuous
 62
     7
100
AcDbLine
 10
-14.00004450625877
 20
-493.2438330230609
 30
0.0
 11
-70.00004450625926
 21
-493.2438330230609
 31
0.0
  0
LINE
  5
343
330
B9
100
AcDbEntity
  8
0
  6
Continuous
 62
     7
100
AcDbLine
 10
-70.00004450625926
 20
-633.2438330230611
 30
0.0
 11
-14.00004450625948
 21
-633.2438330230611
 31
0.0
  0
ARC
  5
344
330
B9
100
AcDbEntity
  8
0
  6
Continuous
 62
     7
100
AcDbCircle
 10
-0.00004450625923
 20
-563.2438330230611
 30
0.0
 40
69.00000000000016
100
AcDbArc
 50
120.4220522795564
 51
128.8248797153379
  0
ARC
  5
345
330
B9
100
AcDbEntity
  8
0
  6
Continuous
 62
     7
100
AcDbCircle
 10
-0.00004450625923
 20
-563.2438330230611
 30
0.0
 40
68.99999999999991
100
AcDbArc
 50
321.1872437352403
 51
329.4218361530089
  0
ARC
  5
346
330
B9
100
AcDbEntity
  8
0
  6
Continuous
 62
     7
100
AcDbCircle
 10
-0.00004450625923
 20
-563.2438330230611
 30
0.0
 40
69.00000000000001
100
AcDbArc
 50
356.9864459710143
 51
3.01355402898611
  0
ARC
  5
347
330
B9
100
AcDbEntity
  8
0
  6
Continuous
 62
     7
100
AcDbCircle
 10
-0.00004450625923
 20
-563.2438330230611
 30
0.0
 40
69.00000000000013
100
AcDbArc
 50
30.57816384699147
 51
38.84158379952699
  0
ARC
  5
348
330
B9
100
AcDbEntity
  8
0
  6
Continuous
 62
     7
100
AcDbCircle
 10
-0.00004450625923
 20
-563.2438330230611
 30
0.0
 40
69.00000000000009
100
AcDbArc
 50
141.2352800978036
 51
149.6623729724114
  0
ARC
  5
349
330
B9
100
AcDbEntity
  8
0
  6
Continuous
 62
     7
100
AcDbCircle
 10
-0.00004450625923
 20
-563.2438330230611
 30
0.0
 40
69.0
100
AcDbArc
 50
270.0
 51
272.046267960218
  0
ARC
  5
34A
330
B9
100
AcDbEntity
  8
0
  6
Continuous
 62
     7
100
AcDbCircle
 10
-0.00004450625923
 20
-563.2438330230611
 30
0.0
 40
69.0000000000001
100
AcDbArc
 50
51.26969904569741
 51
59.57794772044364
  0
ARC
  5
34B
330
B9
100
AcDbEntity
  8
0
  6
Continuous
 62
     7
100
AcDbCircle
 10
-0.00004450625923
 20
-563.2438330230611
 30
0.0
 40
68.99999999999969
100
AcDbArc
 50
300.4941293477998
 51
308.752846881212
  0
ARC
  5
34C
330
B9
100
AcDbEntity
  8
0
  6
Continuous
 62
     7
100
AcDbCircle
 10
-0.00004450625923
 20
-563.2438330230611
 30
0.0
 40
68.99999999999984
100
AcDbArc
 50
267.9537320397819
 51
270.0
  0
ARC
  5
34D
330
B9
100
AcDbEntity
  8
0
  6
Continuous
 62
     7
100
AcDbCircle
 10
-0.00004450625923
 20
-563.2438330230611
 30
0.0
 40
68.99999999999983
100
AcDbArc
 50
231.151825861771
 51
239.5058706522001
  0
ARC
  5
34E
330
B9
100
AcDbEntity
  8
0
  6
Continuous
 62
     7
100
AcDbCircle
 10
-0.00004450625923
 20
-563.2438330230611
 30
0.0
 40
68.99999999999984
100
AcDbArc
 50
210.3376270275883
 51
218.7366409096823
  0
ENDBLK
  5
BB
330
B9
100
AcDbEntity
  8
0
100
AcDbBlockEnd
  0
BLOCK
  5
BD
330
BC
100
AcDbEntity
  8
0
100
AcDbBlockBegin
  2
Metallring
 70
     0
 10
-0.00004450625921
 20
-563.2438330230611
 30
0.0
  3
Metallring
  1

  0
ARC
  5
34F
330
BC
100
AcDbEntity
  8
0
  6
Continuous
 62
     3
100
AcDbCircle
 10
-0.00004450625921
 20
-563.2438330230611
 30
0.0
 40
85.3778331549393
100
AcDbArc
 50
60.08147285557553
 51
119.9185271444246
  0
ARC
  5
350
330
BC
100
AcDbEntity
  8
0
  6
Continuous
 62
     7
100
AcDbCircle
 10
-0.00004450621914
 20
-563.2438330230566
 30
0.0
 40
76.00000000000003
100
AcDbArc
 50
96.23037614072138
 51
96.26137646257327
  0
ARC
  5
351
330
BC
100
AcDbEntity
  8
0
  6
Continuous
 62
     7
100
AcDbCircle
 10
-0.00004450625921
 20
-563.2438330230611
 30
0.0
 40
76.00000000000027
100
AcDbArc
 50
96.26137646254287
 51
103.1735511072589
  0
ARC
  5
352
330
BC
100
AcDbEntity
  8
0
  6
Continuous
 62
     7
100
AcDbCircle
 10
-0.00004450626632
 20
-563.2438330230593
 30
0.0
 40
76.00000000000007
100
AcDbArc
 50
76.82644889273558
 51
79.08024705858675
  0
ARC
  5
353
330
BC
100
AcDbEntity
  8
0
  6
Continuous
 62
     7
100
AcDbCircle
 10
-0.00004450625921
 20
-563.2438330230611
 30
0.0
 40
76.00000000000036
100
AcDbArc
 50
79.08024705859226
 51
84.4297960340631
  0
ARC
  5
354
330
BC
100
AcDbEntity
  8
0
  6
Continuous
 62
     7
100
AcDbCircle
 10
-0.00004450625782
 20
-563.2438330230611
 30
0.0
 40
76.00000000000033
100
AcDbArc
 50
84.42979603406415
 51
96.230376140692
  0
ARC
  5
355
330
BC
100
AcDbEntity
  8
0
  6
Continuous
 62
     7
100
AcDbCircle
 10
-0.00004450625921
 20
-563.2438330230611
 30
0.0
 40
74.8000000000001
100
AcDbArc
 50
83.67034414070964
 51
98.38725134133469
  0
ARC
  5
356
330
BC
100
AcDbEntity
  8
0
  6
Continuous
 62
     7
100
AcDbCircle
 10
-0.00004450626153
 20
-563.2438330230716
 30
0.0
 40
76.00000000000018
100
AcDbArc
 50
166.8264488927329
 51
169.0802470585838
  0
ARC
  5
357
330
BC
100
AcDbEntity
  8
0
  6
Continuous
 62
     7
100
AcDbCircle
 10
-0.00004450625875
 20
-563.2438330230652
 30
0.0
 40
76.0
100
AcDbArc
 50
186.2303761406879
 51
186.2613764625396
  0
ARC
  5
358
330
BC
100
AcDbEntity
  8
0
  6
Continuous
 62
     7
100
AcDbCircle
 10
-0.00004450625921
 20
-563.2438330230593
 30
0.0
 40
76.0000000000003
100
AcDbArc
 50
174.4297960340638
 51
186.2303761406924
  0
ARC
  5
359
330
BC
100
AcDbEntity
  8
0
  6
Continuous
 62
     7
100
AcDbCircle
 10
-0.00004450625921
 20
-563.2438330230611
 30
0.0
 40
76.00000000000003
100
AcDbArc
 50
186.2613764625428
 51
193.1735511072586
  0
ARC
  5
35A
330
BC
100
AcDbEntity
  8
0
  6
Continuous
 62
     7
100
AcDbCircle
 10
-0.00004450625921
 20
-563.2438330230611
 30
0.0
 40
76.00000000000048
100
AcDbArc
 50
169.0802470585919
 51
174.4297960340624
  0
ARC
  5
35B
330
BC
100
AcDbEntity
  8
0
  6
Continuous
 62
     3
100
AcDbCircle
 10
-0.00004450625921
 20
-563.2438330230611
 30
0.0
 40
85.37783315493915
100
AcDbArc
 50
150.0814728555754
 51
209.9185271444246
  0
ARC
  5
35C
330
BC
100
AcDbEntity
  8
0
  6
Continuous
 62
     7
100
AcDbCircle
 10
-0.00004450626693
 20
-563.2438330229902
 30
0.0
 40
76.00000000000001
100
AcDbArc
 50
6.23037614063718
 51
6.26137646248893
  0
ARC
  5
35D
330
BC
100
AcDbEntity
  8
0
  6
Continuous
 62
     7
100
AcDbCircle
 10
-0.00004450625921
 20
-563.2438330230593
 30
0.0
 40
75.99999999999973
100
AcDbArc
 50
354.4297960340617
 51
6.23037614068962
  0
ARC
  5
35E
330
BC
100
AcDbEntity
  8
0
  6
Continuous
 62
     7
100
AcDbCircle
 10
-0.00004450625921
 20
-563.2438330230611
 30
0.0
 40
76.00000000000006
100
AcDbArc
 50
6.26137646254273
 51
13.17355110725898
  0
ARC
  5
35F
330
BC
100
AcDbEntity
  8
0
  6
Continuous
 62
     3
100
AcDbCircle
 10
-0.00004450625921
 20
-563.2438330230611
 30
0.0
 40
85.37783315493913
100
AcDbArc
 50
330.0814728555754
 51
29.91852714442459
  0
ARC
  5
360
330
BC
100
AcDbEntity
  8
0
  6
Continuous
 62
     7
100
AcDbCircle
 10
-0.00004450625921
 20
-563.2438330230611
 30
0.0
 40
75.99999999999955
100
AcDbArc
 50
349.080247058592
 51
354.4297960340631
  0
ARC
  5
361
330
BC
100
AcDbEntity
  8
0
  6
Continuous
 62
     7
100
AcDbCircle
 10
-0.00004450626153
 20
-563.2438330230716
 30
0.0
 40
75.99999999999989
100
AcDbArc
 50
346.8264488927491
 51
349.0802470586001
  0
ARC
  5
362
330
BC
100
AcDbEntity
  8
0
  6
Continuous
 62
     7
100
AcDbCircle
 10
-0.00004450622127
 20
-563.243833023057
 30
0.0
 40
76.00000000000004
100
AcDbArc
 50
276.2303761406618
 51
276.2613764625137
  0
ARC
  5
363
330
BC
100
AcDbEntity
  8
0
  6
Continuous
 62
     7
100
AcDbCircle
 10
-0.00004450625921
 20
-563.2438330230611
 30
0.0
 40
75.99999999999993
100
AcDbArc
 50
276.2613764625424
 51
283.1735511072589
  0
ARC
  5
364
330
BC
100
AcDbEntity
  8
0
  6
Continuous
 62
     7
100
AcDbCircle
 10
-0.00004450625921
 20
-563.2438330230611
 30
0.0
 40
74.79999999999998
100
AcDbArc
 50
353.6703441407097
 51
8.38725134133479
  0
ARC
  5
365
330
BC
100
AcDbEntity
  8
0
  6
Continuous
 62
     7
100
AcDbCircle
 10
-0.00004450625782
 20
-563.2438330230611
 30
0.0
 40
75.99999999999982
100
AcDbArc
 50
264.429796034061
 51
276.2303761406895
  0
ARC
  5
366
330
BC
100
AcDbEntity
  8
0
  6
Continuous
 62
     7
100
AcDbCircle
 10
-0.00004450625921
 20
-563.2438330230611
 30
0.0
 40
75.99999999999947
100
AcDbArc
 50
259.0802470585912
 51
264.4297960340621
  0
ARC
  5
367
330
BC
100
AcDbEntity
  8
0
  6
Continuous
 62
     7
100
AcDbCircle
 10
-0.00004450626632
 20
-563.2438330230593
 30
0.0
 40
76.00000000000016
100
AcDbArc
 50
256.8264488927466
 51
259.0802470585967
  0
ARC
  5
368
330
BC
100
AcDbEntity
  8
0
  6
Continuous
 62
     7
100
AcDbCircle
 10
-0.00004450625921
 20
-563.2438330230611
 30
0.0
 40
74.80000000000011
100
AcDbArc
 50
173.6703441407091
 51
188.3872513413345
  0
ARC
  5
369
330
BC
100
AcDbEntity
  8
0
  6
Continuous
 62
     7
100
AcDbCircle
 10
-0.00004450625921
 20
-563.2438330230611
 30
0.0
 40
74.79999999999978
100
AcDbArc
 50
263.6703441407087
 51
278.3872513413345
  0
ARC
  5
36A
330
BC
100
AcDbEntity
  8
0
  6
Continuous
 62
     3
100
AcDbCircle
 10
-0.00004450625921
 20
-563.2438330230611
 30
0.0
 40
85.37783315493915
100
AcDbArc
 50
240.0814728555754
 51
299.9185271444246
  0
CIRCLE
  5
36B
330
BC
100
AcDbEntity
  8
0
  6
Continuous
 62
     7
100
AcDbCircle
 10
-0.00004450625921
 20
-563.2438330230611
 30
0.0
 40
109.9989998999799
  0
CIRCLE
  5
36C
330
BC
100
AcDbEntity
  8
0
  6
Continuous
 62
     7
100
AcDbCircle
 10
-0.00004450625921
 20
-563.2438330230611
 30
0.0
 40
108.9597979746445
  0
CIRCLE
  5
36D
330
BC
100
AcDbEntity
  8
0
  6
Continuous
 62
     7
100
AcDbCircle
 10
-0.00004450625921
 20
-563.2438330230611
 30
0.0
 40
105.5262389627584
  0
ENDBLK
  5
BE
330
BC
100
AcDbEntity
  8
0
100
AcDbBlockEnd
  0
BLOCK
  5
C0
330
BF
100
AcDbEntity
  8
0
100
AcDbBlockBegin
  2
Dichtung_unten
 70
     0
 10
-0.07346280597711
 20
-563.2218330230826
 30
0.0
  3
Dichtung_unten
  1

  0
ARC
  5
36E
330
BF
100
AcDbEntity
  8
0
  6
Continuous
 62
     7
100
AcDbCircle
 10
-0.0000445062592
 20
-563.2438330230611
 30
0.0
 40
64.75000000015336
100
AcDbArc
 50
54.17522563116216
 51
66.7685434946773
  0
ARC
  5
36F
330
BF
100
AcDbEntity
  8
0
  6
Continuous
 62
     7
100
AcDbCircle
 10
-0.0000445062592
 20
-563.2438330230611
 30
0.0
 40
65.75000000000024
100
AcDbArc
 50
52.98511035927686
 51
64.81560260468704
  0
ARC
  5
370
330
BF
100
AcDbEntity
  8
0
  6
Continuous
 62
     7
100
AcDbCircle
 10
-0.0000445062592
 20
-563.2438330230611
 30
0.0
 40
64.75000000015325
100
AcDbArc
 50
113.2314565053227
 51
125.8247743688378
  0
ARC
  5
371
330
BF
100
AcDbEntity
  8
0
  6
Continuous
 62
     7
100
AcDbCircle
 10
-0.0000445062592
 20
-563.2438330230611
 30
0.0
 40
65.75000000000016
100
AcDbArc
 50
115.1843973953129
 51
127.0148896407231
  0
ARC
  5
372
330
BF
100
AcDbEntity
  8
0
  6
Continuous
 62
     7
100
AcDbCircle
 10
-0.0000445062592
 20
-563.2438330230611
 30
0.0
 40
64.75000000015314
100
AcDbArc
 50
203.1158360099994
 51
215.746966288792
  0
ARC
  5
373
330
BF
100
AcDbEntity
  8
0
  6
Continuous
 62
     7
100
AcDbCircle
 10
-0.0000445062592
 20
-563.2438330230611
 30
0.0
 40
65.7499999999999
100
AcDbArc
 50
205.0788948669022
 51
216.9403981680892
  0
ARC
  5
374
330
BF
100
AcDbEntity
  8
0
  6
Continuous
 62
     7
100
AcDbCircle
 10
-0.0000445062592
 20
-563.2438330230611
 30
0.0
 40
65.74999999999997
100
AcDbArc
 50
143.0596018319108
 51
154.9211051330974
  0
ARC
  5
375
330
BF
100
AcDbEntity
  8
0
  6
Continuous
 62
     7
100
AcDbCircle
 10
-0.0000445062592
 20
-563.2438330230611
 30
0.0
 40
64.75000000015312
100
AcDbArc
 50
144.2530337112076
 51
156.8841639900006
  0
ARC
  5
376
330
BF
100
AcDbEntity
  8
0
  6
Continuous
 62
     7
100
AcDbCircle
 10
-0.0000445062592
 20
-563.2438330230611
 30
0.0
 40
64.75000000015322
100
AcDbArc
 50
23.44458903156778
 51
35.96877848821948
  0
ARC
  5
377
330
BF
100
AcDbEntity
  8
0
  6
Continuous
 62
     7
100
AcDbCircle
 10
-0.0000445062592
 20
-563.2438330230611
 30
0.0
 40
65.74999999999986
100
AcDbArc
 50
322.8472137462343
 51
334.6209053233076
  0
ARC
  5
378
330
BF
100
AcDbEntity
  8
0
  6
Continuous
 62
     7
100
AcDbCircle
 10
-0.0000445062592
 20
-563.2438330230611
 30
0.0
 40
64.75000000015305
100
AcDbArc
 50
324.0312215117809
 51
336.5554109684326
  0
ARC
  5
379
330
BF
100
AcDbEntity
  8
0
  6
Continuous
 62
     7
100
AcDbCircle
 10
-0.0000445062592
 20
-563.2438330230611
 30
0.0
 40
65.74999999999999
100
AcDbArc
 50
25.37909467669248
 51
37.15278625376605
  0
ARC
  5
37A
330
BF
100
AcDbEntity
  8
0
  6
Continuous
 62
     7
100
AcDbCircle
 10
-0.0000445062592
 20
-563.2438330230611
 30
0.0
 40
65.74999999999967
100
AcDbArc
 50
295.2743517533704
 51
307.0785321200962
  0
ARC
  5
37B
330
BF
100
AcDbEntity
  8
0
  6
Continuous
 62
     7
100
AcDbCircle
 10
-0.0000445062592
 20
-563.2438330230611
 30
0.0
 40
64.75000000015278
100
AcDbArc
 50
293.3299661565101
 51
305.8912407634484
  0
ARC
  5
37C
330
BF
100
AcDbEntity
  8
0
  6
Continuous
 62
     7
100
AcDbCircle
 10
-0.0000445062592
 20
-563.2438330230611
 30
0.0
 40
64.75000000015278
100
AcDbArc
 50
234.1087592365516
 51
246.6700338434899
  0
ARC
  5
37D
330
BF
100
AcDbEntity
  8
0
  6
Continuous
 62
     7
100
AcDbCircle
 10
-0.0000445062592
 20
-563.2438330230611
 30
0.0
 40
65.74999999999963
100
AcDbArc
 50
232.9214678799038
 51
244.7256482466297
  0
ENDBLK
  5
C1
330
BF
100
AcDbEntity
  8
0
100
AcDbBlockEnd
  0
BLOCK
  5
C3
330
C2
100
AcDbEntity
  8
0
100
AcDbBlockBegin
  2
62_1H_Koerper
 70
     0
 10
-0.07346280597711
 20
-563.2218330230826
 30
0.0
  3
62_1H_Koerper
  1

  0
ARC
  5
37E
330
C2
100
AcDbEntity
  8
0
  6
Continuous
 62
     3
100
AcDbCircle
 10
-0.00004450625921
 20
-563.2438330230611
 30
0.0
 40
64.11022768434285
100
AcDbArc
 50
54.97504016477772
 51
68.13886482987152
  0
ARC
  5
37F
330
C2
100
AcDbEntity
  8
0
  6
Continuous
 62
     7
100
AcDbCircle
 10
-0.00004450625921
 20
-563.2438330230611
 30
0.0
 40
64.5492929999999
100
AcDbArc
 50
54.42275763732376
 51
67.18714266663483
  0
ARC
  5
380
330
C2
100
AcDbEntity
  8
0
  6
Continuous
 62
     3
100
AcDbCircle
 10
-0.00004450625921
 20
-563.2438330230611
 30
0.0
 40
64.11022768434276
100
AcDbArc
 50
111.8611351701285
 51
121.4489942589844
  0
ARC
  5
381
330
C2
100
AcDbEntity
  8
0
  6
Continuous
 62
     7
100
AcDbCircle
 10
-0.00004450625921
 20
-563.2438330230611
 30
0.0
 40
64.54929299999982
100
AcDbArc
 50
112.8128573333652
 51
125.5772423626762
  0
ARC
  5
382
330
C2
100
AcDbEntity
  8
0
  6
Continuous
 62
     3
100
AcDbCircle
 10
-0.00004450625921
 20
-563.2438330230611
 30
0.0
 40
64.11022768434256
100
AcDbArc
 50
201.7373915597388
 51
214.9448131784453
  0
ARC
  5
383
330
C2
100
AcDbEntity
  8
0
  6
Continuous
 62
     7
100
AcDbCircle
 10
-0.00004450625921
 20
-563.2438330230611
 30
0.0
 40
64.54929299999961
100
AcDbArc
 50
202.6948544127576
 51
215.4987203319995
  0
ARC
  5
384
330
C2
100
AcDbEntity
  8
0
  6
Continuous
 62
     7
100
AcDbCircle
 10
-0.00004450625921
 20
-563.2438330230611
 30
0.0
 40
64.54929299999984
100
AcDbArc
 50
144.5012796680002
 51
157.305145587242
  0
ARC
  5
385
330
C2
100
AcDbEntity
  8
0
  6
Continuous
 62
     3
100
AcDbCircle
 10
-0.00004450625921
 20
-563.2438330230611
 30
0.0
 40
64.11022768434265
100
AcDbArc
 50
145.0551868215548
 51
158.2626084402608
  0
ARC
  5
386
330
C2
100
AcDbEntity
  8
0
  6
Continuous
 62
     3
100
AcDbCircle
 10
-0.00004450625921
 20
-563.2438330230611
 30
0.0
 40
64.1102276843427
100
AcDbArc
 50
22.08902224447146
 51
35.17326792912214
  0
ARC
  5
387
330
C2
100
AcDbEntity
  8
0
  6
Continuous
 62
     3
100
AcDbCircle
 10
-0.00004450625921
 20
-563.2438330230611
 30
0.0
 40
64.11022768434246
100
AcDbArc
 50
324.8267320708782
 51
337.9109777555289
  0
ARC
  5
388
330
C2
100
AcDbEntity
  8
0
  6
Continuous
 62
     7
100
AcDbCircle
 10
-0.00004450625921
 20
-563.2438330230611
 30
0.0
 40
64.54929299999968
100
AcDbArc
 50
23.03032160538341
 51
35.7225606770762
  0
ARC
  5
389
330
C2
100
AcDbEntity
  8
0
  6
Continuous
 62
     7
100
AcDbCircle
 10
-0.00004450625921
 20
-563.2438330230611
 30
0.0
 40
64.54929299999965
100
AcDbArc
 50
324.2774393229238
 51
336.9696783946169
  0
ARC
  5
38A
330
C2
100
AcDbEntity
  8
0
  6
Continuous
 62
     3
100
AcDbCircle
 10
-0.00004450625921
 20
-563.2438330230611
 30
0.0
 40
64.11022768434226
100
AcDbArc
 50
291.9664993529117
 51
305.093416651007
  0
ARC
  5
38B
330
C2
100
AcDbEntity
  8
0
  6
Continuous
 62
     7
100
AcDbCircle
 10
-0.00004450625921
 20
-563.2438330230611
 30
0.0
 40
64.54929299999931
100
AcDbArc
 50
292.9133786850777
 51
301.4489942589845
  0
ARC
  5
38C
330
C2
100
AcDbEntity
  8
0
  6
Continuous
 62
     3
100
AcDbCircle
 10
-0.00004450625921
 20
-563.2438330230611
 30
0.0
 40
64.11022768434228
100
AcDbArc
 50
234.906583348993
 51
248.0335006470883
  0
ARC
  5
38D
330
C2
100
AcDbEntity
  8
0
  6
Continuous
 62
     3
100
AcDbCircle
 10
-0.00004450625921
 20
-563.2438330230611
 30
0.0
 40
64.11022768434277
100
AcDbArc
 50
121.4489942589844
 51
125.0249598352223
  0
ARC
  5
38E
330
C2
100
AcDbEntity
  8
0
  6
Continuous
 62
     7
100
AcDbCircle
 10
-0.00004450625921
 20
-563.2438330230611
 30
0.0
 40
64.54929299999935
100
AcDbArc
 50
234.3556835143135
 51
247.0866213149222
  0
ARC
  5
38F
330
C2
100
AcDbEntity
  8
0
  6
Continuous
 62
     7
100
AcDbCircle
 10
-0.00004450625921
 20
-563.2438330230611
 30
0.0
 40
64.54929299999954
100
AcDbArc
 50
301.4489942589845
 51
305.6443164856865
  0
ENDBLK
  5
C4
330
C2
100
AcDbEntity
  8
0
100
AcDbBlockEnd
  0
BLOCK
  5
C6
330
C5
100
AcDbEntity
  8
0
100
AcDbBlockBegin
  2
Dichtring
 70
     0
 10
-0.07346280597711
 20
-563.2218330230826
 30
0.0
  3
Dichtring
  1

  0
ARC
  5
390
330
C5
100
AcDbEntity
  8
0
  6
Continuous
 62
     7
100
AcDbCircle
 10
-0.0000445062592
 20
-563.2438330230611
 30
0.0
 40
64.75000000015336
100
AcDbArc
 50
54.17522563116216
 51
66.7685434946773
  0
ARC
  5
391
330
C5
100
AcDbEntity
  8
0
  6
Continuous
 62
     7
100
AcDbCircle
 10
-0.0000445062592
 20
-563.2438330230611
 30
0.0
 40
65.75000000000024
100
AcDbArc
 50
52.98511035927686
 51
64.81560260468704
  0
ARC
  5
392
330
C5
100
AcDbEntity
  8
0
  6
Continuous
 62
     7
100
AcDbCircle
 10
-0.0000445062592
 20
-563.2438330230611
 30
0.0
 40
64.75000000015325
100
AcDbArc
 50
113.2314565053227
 51
125.8247743688378
  0
ARC
  5
393
330
C5
100
AcDbEntity
  8
0
  6
Continuous
 62
     7
100
AcDbCircle
 10
-0.0000445062592
 20
-563.2438330230611
 30
0.0
 40
65.75000000000016
100
AcDbArc
 50
115.1843973953129
 51
127.0148896407231
  0
ARC
  5
394
330
C5
100
AcDbEntity
  8
0
  6
Continuous
 62
     7
100
AcDbCircle
 10
-0.0000445062592
 20
-563.2438330230611
 30
0.0
 40
64.75000000015314
100
AcDbArc
 50
203.1158360099994
 51
215.746966288792
  0
ARC
  5
395
330
C5
100
AcDbEntity
  8
0
  6
Continuous
 62
     7
100
AcDbCircle
 10
-0.0000445062592
 20
-563.2438330230611
 30
0.0
 40
65.7499999999999
100
AcDbArc
 50
205.0788948669022
 51
216.9403981680892
  0
ARC
  5
396
330
C5
100
AcDbEntity
  8
0
  6
Continuous
 62
     7
100
AcDbCircle
 10
-0.0000445062592
 20
-563.2438330230611
 30
0.0
 40
65.74999999999997
100
AcDbArc
 50
143.0596018319108
 51
154.9211051330974
  0
ARC
  5
397
330
C5
100
AcDbEntity
  8
0
  6
Continuous
 62
     7
100
AcDbCircle
 10
-0.0000445062592
 20
-563.2438330230611
 30
0.0
 40
64.75000000015312
100
AcDbArc
 50
144.2530337112076
 51
156.8841639900006
  0
ARC
  5
398
330
C5
100
AcDbEntity
  8
0
  6
Continuous
 62
     7
100
AcDbCircle
 10
-0.0000445062592
 20
-563.2438330230611
 30
0.0
 40
64.75000000015322
100
AcDbArc
 50
23.44458903156778
 51
35.96877848821948
  0
ARC
  5
399
330
C5
100
AcDbEntity
  8
0
  6
Continuous
 62
     7
100
AcDbCircle
 10
-0.0000445062592
 20
-563.2438330230611
 30
0.0
 40
65.74999999999986
100
AcDbArc
 50
322.8472137462343
 51
334.6209053233076
  0
ARC
  5
39A
330
C5
100
AcDbEntity
  8
0
  6
Continuous
 62
     7
100
AcDbCircle
 10
-0.0000445062592
 20
-563.2438330230611
 30
0.0
 40
64.75000000015305
100
AcDbArc
 50
324.0312215117809
 51
336.5554109684326
  0
ARC
  5
39B
330
C5
100
AcDbEntity
  8
0
  6
Continuous
 62
     7
100
AcDbCircle
 10
-0.0000445062592
 20
-563.2438330230611
 30
0.0
 40
65.74999999999999
100
AcDbArc
 50
25.37909467669248
 51
37.15278625376605
  0
ARC
  5
39C
330
C5
100
AcDbEntity
  8
0
  6
Continuous
 62
     7
100
AcDbCircle
 10
-0.0000445062592
 20
-563.2438330230611
 30
0.0
 40
65.74999999999967
100
AcDbArc
 50
295.2743517533704
 51
307.0785321200962
  0
ARC
  5
39D
330
C5
100
AcDbEntity
  8
0
  6
Continuous
 62
     7
100
AcDbCircle
 10
-0.0000445062592
 20
-563.2438330230611
 30
0.0
 40
64.75000000015278
100
AcDbArc
 50
293.3299661565101
 51
305.8912407634484
  0
ARC
  5
39E
330
C5
100
AcDbEntity
  8
0
  6
Continuous
 62
     7
100
AcDbCircle
 10
-0.0000445062592
 20
-563.2438330230611
 30
0.0
 40
64.75000000015278
100
AcDbArc
 50
234.1087592365516
 51
246.6700338434899
  0
ARC
  5
39F
330
C5
100
AcDbEntity
  8
0
  6
Continuous
 62
     7
100
AcDbCircle
 10
-0.0000445062592
 20
-563.2438330230611
 30
0.0
 40
65.74999999999963
100
AcDbArc
 50
232.9214678799038
 51
244.7256482466297
  0
ENDBLK
  5
C7
330
C5
100
AcDbEntity
  8
0
100
AcDbBlockEnd
  0
BLOCK
  5
C9
330
C8
100
AcDbEntity
  8
0
100
AcDbBlockBegin
  2
HL062B_3E_Tragring
 70
     0
 10
-0.00004450625946
 20
-563.2438330230606
 30
0.0
  3
HL062B_3E_Tragring
  1

  0
LINE
  5
3A0
330
C8
100
AcDbEntity
  8
0
  6
Continuous
 62
     7
100
AcDbLine
 10
8.26951917480274
 20
-488.7413879858348
 30
0.0
 11
8.19671307226687
 21
-489.2438330230609
 31
0.0
  0
LINE
  5
3A1
330
C8
100
AcDbEntity
  8
0
  6
Continuous
 62
     7
100
AcDbLine
 10
3.25017885971818
 20
-488.51448103824
 30
0.0
 11
3.14449312007036
 21
-489.2438330230609
 31
0.0
  0
LINE
  5
3A2
330
C8
100
AcDbEntity
  8
0
  6
Continuous
 62
     7
100
AcDbLine
 10
38.24667978439011
 20
-506.6421312044715
 30
0.0
 11
42.5449015131418
 21
-510.0299652186859
 31
0.0
  0
LINE
  5
3A3
330
C8
100
AcDbEntity
  8
0
  6
Continuous
 62
     7
100
AcDbLine
 10
-56.60174632484866
 20
-524.9971087324111
 30
0.0
 11
-53.20412838510846
 21
-520.6864739157945
 31
0.0
  0
LINE
  5
3A4
330
C8
100
AcDbEntity
  8
0
  6
Continuous
 62
     7
100
AcDbLine
 10
-74.72939649108005
 20
-559.9936096570818
 30
0.0
 11
-74.00004450625926
 21
-560.0992953967298
 31
0.0
  0
LINE
  5
3A5
330
C8
100
AcDbEntity
  8
0
  6
Continuous
 62
     7
100
AcDbLine
 10
-74.50248954348547
 20
-554.9742693419985
 30
0.0
 11
-74.00004450625917
 21
-555.0470754445346
 31
0.0
  0
LINE
  5
3A6
330
C8
100
AcDbEntity
  8
0
  6
Continuous
 62
     7
100
AcDbLine
 10
74.72930747856171
 20
-566.4940563890386
 30
0.0
 11
73.9999554937408
 21
-566.3883706493907
 31
0.0
  0
LINE
  5
3A7
330
C8
100
AcDbEntity
  8
0
  6
Continuous
 62
     7
100
AcDbLine
 10
74.50240053096618
 20
-571.5133967041234
 30
0.0
 11
73.99995549374079
 21
-571.4405906015872
 31
0.0
  0
LINE
  5
3A8
330
C8
100
AcDbEntity
  8
0
  6
Continuous
 62
     7
100
AcDbLine
 10
56.60165731232921
 20
-601.4905573137107
 30
0.0
 11
53.14553692626712
 21
-605.8754155087186
 31
0.0
  0
LINE
  5
3A9
330
C8
100
AcDbEntity
  8
0
  6
Continuous
 62
     7
100
AcDbLine
 10
-3.25026787223825
 20
-637.973185007882
 30
0.0
 11
-3.14458213259046
 21
-637.2438330230611
 31
0.0
  0
LINE
  5
3AA
330
C8
100
AcDbEntity
  8
0
  6
Continuous
 62
     7
100
AcDbLine
 10
-8.26960818732246
 20
-637.7462780602864
 30
0.0
 11
-8.19680208478655
 21
-637.2438330230611
 31
0.0
  0
LINE
  5
3AB
330
C8
100
AcDbEntity
  8
0
  6
Continuous
 62
     7
100
AcDbLine
 10
-38.24676879690976
 20
-619.8455348416492
 30
0.0
 11
-42.64510749819027
 21
-616.3787891969196
 31
0.0
  0
ARC
  5
3AC
330
C8
100
AcDbEntity
  8
0
  6
Continuous
 62
     3
100
AcDbCircle
 10
-0.0000445062592
 20
-563.2438330230611
 30
0.0
 40
77.00000000000043
100
AcDbArc
 50
73.95376591949818
 51
106.0462340805024
  0
ARC
  5
3AD
330
C8
100
AcDbEntity
  8
0
  6
Continuous
 62
     7
100
AcDbCircle
 10
-0.00004450621914
 20
-563.2438330230566
 30
0.0
 40
76.00000000000003
100
AcDbArc
 50
96.23037614072138
 51
96.26137646257327
  0
ARC
  5
3AE
330
C8
100
AcDbEntity
  8
0
  6
Continuous
 62
     7
100
AcDbCircle
 10
-0.0000445062592
 20
-563.2438330230611
 30
0.0
 40
76.00000000000027
100
AcDbArc
 50
96.26137646254287
 51
103.1735511072589
  0
ARC
  5
3AF
330
C8
100
AcDbEntity
  8
0
  6
Continuous
 62
     7
100
AcDbCircle
 10
-0.00004450626632
 20
-563.2438330230593
 30
0.0
 40
76.00000000000007
100
AcDbArc
 50
76.82644889273558
 51
79.08024705858675
  0
ARC
  5
3B0
330
C8
100
AcDbEntity
  8
0
  6
Continuous
 62
     7
100
AcDbCircle
 10
-0.0000445062592
 20
-563.2438330230611
 30
0.0
 40
76.00000000000036
100
AcDbArc
 50
79.08024705859228
 51
84.42979603406312
  0
ARC
  5
3B1
330
C8
100
AcDbEntity
  8
0
  6
Continuous
 62
     7
100
AcDbCircle
 10
14.20750292924287
 20
-489.6018233012454
 30
0.0
 40
1.000000000000068
100
AcDbArc
 50
79.08024705859081
 51
159.0231766809925
  0
ARC
  5
3B2
330
C8
100
AcDbEntity
  8
0
  6
Continuous
 62
     7
100
AcDbCircle
 10
7.2798552157294
 20
-488.5979820999331
 30
0.0
 40
0.9999999999999845
100
AcDbArc
 50
351.7550215463298
 51
84.4297960340624
  0
ARC
  5
3B3
330
C8
100
AcDbEntity
  8
0
  6
Continuous
 62
     7
100
AcDbCircle
 10
-0.00004450625782
 20
-563.2438330230611
 30
0.0
 40
76.00000000000033
100
AcDbArc
 50
84.42979603406415
 51
96.230376140692
  0
ARC
  5
3B4
330
C8
100
AcDbEntity
  8
0
  6
Continuous
 62
     7
100
AcDbCircle
 10
39.79424258383962
 20
-504.6787032374302
 30
0.0
 40
2.500000000000059
100
AcDbArc
 50
192.7544049108541
 51
231.7550215463266
  0
ARC
  5
3B5
330
C8
100
AcDbEntity
  8
0
  6
Continuous
 62
     7
100
AcDbCircle
 10
-58.56517429188997
 20
-523.4495459329614
 30
0.0
 40
2.500000000000146
100
AcDbArc
 50
282.7544049108636
 51
321.7550215463237
  0
ARC
  5
3B6
330
C8
100
AcDbEntity
  8
0
  6
Continuous
 62
     7
100
AcDbCircle
 10
-0.0000445062615
 20
-563.2438330230716
 30
0.0
 40
76.00000000000021
100
AcDbArc
 50
166.8264488927329
 51
169.0802470585838
  0
ARC
  5
3B7
330
C8
100
AcDbEntity
  8
0
  6
Continuous
 62
     3
100
AcDbCircle
 10
-0.0000445062592
 20
-563.2438330230611
 30
0.0
 40
77.00000000000054
100
AcDbArc
 50
163.9537659194974
 51
196.046234080502
  0
ARC
  5
3B8
330
C8
100
AcDbEntity
  8
0
  6
Continuous
 62
     7
100
AcDbCircle
 10
-0.00004450625873
 20
-563.2438330230652
 30
0.0
 40
76.00000000000003
100
AcDbArc
 50
186.2303761406879
 51
186.2613764625396
  0
ARC
  5
3B9
330
C8
100
AcDbEntity
  8
0
  6
Continuous
 62
     7
100
AcDbCircle
 10
-0.00004450625921
 20
-563.2438330230593
 30
0.0
 40
76.0000000000003
100
AcDbArc
 50
174.4297960340638
 51
186.2303761406924
  0
ARC
  5
3BA
330
C8
100
AcDbEntity
  8
0
  6
Continuous
 62
     7
100
AcDbCircle
 10
-0.0000445062592
 20
-563.2438330230611
 30
0.0
 40
76.00000000000004
100
AcDbArc
 50
186.2613764625428
 51
193.1735511072586
  0
ARC
  5
3BB
330
C8
100
AcDbEntity
  8
0
  6
Continuous
 62
     7
100
AcDbCircle
 10
-0.0000445062592
 20
-563.2438330230611
 30
0.0
 40
76.0000000000005
100
AcDbArc
 50
169.0802470585919
 51
174.4297960340624
  0
ARC
  5
3BC
330
C8
100
AcDbEntity
  8
0
  6
Continuous
 62
     7
100
AcDbCircle
 10
-73.64205422807507
 20
-549.0362855875583
 30
0.0
 40
0.9999999999999175
100
AcDbArc
 50
169.080247058601
 51
249.0231766810165
  0
ARC
  5
3BD
330
C8
100
AcDbEntity
  8
0
  6
Continuous
 62
     7
100
AcDbCircle
 10
-74.64589542938725
 20
-555.9639333010718
 30
0.0
 40
1.000000000000025
100
AcDbArc
 50
81.75502154632518
 51
174.4297960340505
  0
ARC
  5
3BE
330
C8
100
AcDbEntity
  8
0
  6
Continuous
 62
     7
100
AcDbCircle
 10
70.61598920907849
 20
-568.4241316757625
 30
0.0
 40
2.499999999999804
100
AcDbArc
 50
132.75440491084
 51
133.2026488315379
  0
ARC
  5
3BF
330
C8
100
AcDbEntity
  8
0
  6
Continuous
 62
     7
100
AcDbCircle
 10
-0.00004450626693
 20
-563.2438330229902
 30
0.0
 40
76.00000000000001
100
AcDbArc
 50
6.23037614063718
 51
6.26137646248893
  0
ARC
  5
3C0
330
C8
100
AcDbEntity
  8
0
  6
Continuous
 62
     7
100
AcDbCircle
 10
-0.00004450625921
 20
-563.2438330230593
 30
0.0
 40
75.99999999999973
100
AcDbArc
 50
354.4297960340617
 51
6.23037614068962
  0
ARC
  5
3C1
330
C8
100
AcDbEntity
  8
0
  6
Continuous
 62
     7
100
AcDbCircle
 10
-0.0000445062592
 20
-563.2438330230611
 30
0.0
 40
76.00000000000004
100
AcDbArc
 50
6.26137646254273
 51
13.17355110725899
  0
ARC
  5
3C2
330
C8
100
AcDbEntity
  8
0
  6
Continuous
 62
     7
100
AcDbCircle
 10
74.64580641686791
 20
-570.52373274505
 30
0.0
 40
1.000000000000017
100
AcDbArc
 50
261.7550215463284
 51
354.429796034077
  0
ARC
  5
3C3
330
C8
100
AcDbEntity
  8
0
  6
Continuous
 62
     7
100
AcDbCircle
 10
58.56508527937055
 20
-603.03812011316
 30
0.0
 40
2.499999999999851
100
AcDbArc
 50
102.7544049108338
 51
141.7550215463324
  0
ARC
  5
3C4
330
C8
100
AcDbEntity
  8
0
  6
Continuous
 62
     3
100
AcDbCircle
 10
-0.0000445062592
 20
-563.2438330230611
 30
0.0
 40
76.99999999999947
100
AcDbArc
 50
343.9537659195
 51
16.04623408050065
  0
ARC
  5
3C5
330
C8
100
AcDbEntity
  8
0
  6
Continuous
 62
     7
100
AcDbCircle
 10
-0.0000445062592
 20
-563.2438330230611
 30
0.0
 40
75.99999999999953
100
AcDbArc
 50
349.080247058592
 51
354.4297960340631
  0
ARC
  5
3C6
330
C8
100
AcDbEntity
  8
0
  6
Continuous
 62
     7
100
AcDbCircle
 10
73.6419652155557
 20
-577.4513804585631
 30
0.0
 40
1.000000000000073
100
AcDbArc
 50
349.0802470585762
 51
69.02317668095478
  0
ARC
  5
3C7
330
C8
100
AcDbEntity
  8
0
  6
Continuous
 62
     7
100
AcDbCircle
 10
-0.0000445062615
 20
-563.2438330230716
 30
0.0
 40
75.99999999999984
100
AcDbArc
 50
346.8264488927491
 51
349.0802470586001
  0
ARC
  5
3C8
330
C8
100
AcDbEntity
  8
0
  6
Continuous
 62
     7
100
AcDbCircle
 10
-0.00004450622127
 20
-563.243833023057
 30
0.0
 40
76.00000000000004
100
AcDbArc
 50
276.2303761406618
 51
276.2613764625137
  0
ARC
  5
3C9
330
C8
100
AcDbEntity
  8
0
  6
Continuous
 62
     7
100
AcDbCircle
 10
-0.0000445062592
 20
-563.2438330230611
 30
0.0
 40
75.99999999999991
100
AcDbArc
 50
276.2613764625424
 51
283.1735511072588
  0
ARC
  5
3CA
330
C8
100
AcDbEntity
  8
0
  6
Continuous
 62
     7
100
AcDbCircle
 10
-0.00004450625782
 20
-563.2438330230611
 30
0.0
 40
75.99999999999982
100
AcDbArc
 50
264.429796034061
 51
276.2303761406895
  0
ARC
  5
3CB
330
C8
100
AcDbEntity
  8
0
  6
Continuous
 62
     3
100
AcDbCircle
 10
-0.0000445062592
 20
-563.2438330230611
 30
0.0
 40
76.99999999999982
100
AcDbArc
 50
253.9537659194992
 51
286.0462340805003
  0
ARC
  5
3CC
330
C8
100
AcDbEntity
  8
0
  6
Continuous
 62
     7
100
AcDbCircle
 10
-7.27994422824907
 20
-637.8896839461881
 30
0.0
 40
1.000000000000048
100
AcDbArc
 50
171.755021546327
 51
264.4297960340597
  0
ARC
  5
3CD
330
C8
100
AcDbEntity
  8
0
  6
Continuous
 62
     7
100
AcDbCircle
 10
-39.79433159635917
 20
-621.8089628086905
 30
0.0
 40
2.499999999999893
100
AcDbArc
 50
12.75440491084692
 51
51.75502154632846
  0
ARC
  5
3CE
330
C8
100
AcDbEntity
  8
0
  6
Continuous
 62
     7
100
AcDbCircle
 10
-0.0000445062592
 20
-563.2438330230611
 30
0.0
 40
75.99999999999947
100
AcDbArc
 50
259.0802470585912
 51
264.4297960340621
  0
ARC
  5
3CF
330
C8
100
AcDbEntity
  8
0
  6
Continuous
 62
     7
100
AcDbCircle
 10
-14.20759194176258
 20
-636.8858427448758
 30
0.0
 40
0.9999999999999424
100
AcDbArc
 50
259.0802470585936
 51
339.0231766809441
  0
ARC
  5
3D0
330
C8
100
AcDbEntity
  8
0
  6
Continuous
 62
     7
100
AcDbCircle
 10
-0.00004450626632
 20
-563.2438330230593
 30
0.0
 40
76.00000000000016
100
AcDbArc
 50
256.8264488927466
 51
259.0802470585967
  0
ENDBLK
  5
CA
330
C8
100
AcDbEntity
  8
0
100
AcDbBlockEnd
  0
BLOCK
  5
CC
330
CB
100
AcDbEntity
  8
0
100
AcDbBlockBegin
  2
HL64H_Körper
 70
     0
 10
-200.3139355
 20
-67.26963184302528
 30
0.0
  3
HL64H_Körper
  1

  0
POINT
  5
3D1
330
CB
100
AcDbEntity
  8
0
 62
     7
100
AcDbPoint
 10
-150.628033
 20
-67.77225634302528
 30
0.0
  0
LINE
  5
3D2
330
CB
100
AcDbEntity
  8
LC-001-002-----0
  6
Continuous
 62
     7
100
AcDbLine
 10
-249.999838
 20
-66.76700734302528
 30
0.0
 11
-249.999838
 21
-67.76700734302528
 31
0.0
  0
ENDBLK
  5
CD
330
CB
100
AcDbEntity
  8
0
100
AcDbBlockEnd
  0
BLOCK
  5
D0
330
CE
100
AcDbEntity
  8
0
100
AcDbBlockBegin
  2
HL64BH__7
 70
     0
 10
-200.3139355
 20
-67.26963184302528
 30
0.0
  3
HL64BH__7
  1

  0
INSERT
  5
CF
330
CE
100
AcDbEntity
  8
1
100
AcDbBlockReference
  2
HL64H_Körper
 10
-200.3139355
 20
-67.26963184302528
 30
0.0
  0
ENDBLK
  5
D1
330
CE
100
AcDbEntity
  8
0
100
AcDbBlockEnd
  0
BLOCK
  5
D4
330
D2
100
AcDbEntity
  8
0
100
AcDbBlockBegin
  2
HL_64_1BH_Flachdachablauf_DN75_110
 70
     0
 10
-200.3139355
 20
-67.26963184302528
 30
0.0
  3
HL_64_1BH_Flachdachablauf_DN75_110
  1

  0
INSERT
  5
D3
330
D2
100
AcDbEntity
  8
0
100
AcDbBlockReference
  2
HL64BH__7
 10
-200.3139355
 20
-67.26963184302528
 30
0.0
  0
ENDBLK
  5
D5
330
D2
100
AcDbEntity
  8
0
100
AcDbBlockEnd
  0
BLOCK
  5
1DF
330
1D7
100
AcDbEntity
  8
0
100
AcDbBlockBegin
  2
*D26
 70
     1
 10
0.0
 20
0.0
 30
0.0
  3
*D26
  1

  0
LINE
  5
1D8
330
1D7
100
AcDbEntity
  8
1
  6
Continuous
 62
     4
100
AcDbLine
 10
323.9369648068744
 20
-131.5930919985111
 30
0.0
 11
318.1800096004002
 21
-241.4423409876902
 31
0.0
  0
LINE
  5
1D9
330
1D7
100
AcDbEntity
  8
1
  6
Continuous
 62
     4
100
AcDbLine
 10
288.8308584671868
 20
-239.9042171500062
 30
0.0
 11
320.1772686698989
 21
-241.5470129003763
 31
0.0
  0
LINE
  5
1DA
330
1D7
100
AcDbEntity
  8
1
  6
Continuous
 62
     4
100
AcDbLine
 10
294.5878134671867
 20
-130.0549681500062
 30
0.0
 11
325.9342238763731
 21
-131.6977639111972
 31
0.0
  0
SOLID
  5
1DB
330
1D7
100
AcDbEntity
  8
1
 62
     4
100
AcDbTrace
 10
324.728325967587
 20
-141.6482889396663
 30
0.0
 11
322.0988845193012
 21
-141.5104857523426
 31
0.0
 12
323.9369648068744
 22
-131.5930919985111
 32
0.0
 13
323.9369648068744
 23
-131.5930919985111
 33
0.0
  0
SOLID
  5
1DC
330
1D7
100
AcDbEntity
  8
1
 62
     4
100
AcDbTrace
 10
317.3886484396876
 20
-231.3871440465351
 30
0.0
 11
320.0180898879734
 21
-231.5249472338588
 31
0.0
 12
318.1800096004002
 22
-241.4423409876902
 32
0.0
 13
318.1800096004002
 23
-241.4423409876902
 33
0.0
  0
MTEXT
  5
1DE
330
1D7
100
AcDbEntity
  8
1
 62
     1
100
AcDbMText
 10
318.4788630059172
 20
-197.5252331728633
 30
0.0
 40
10.0
 41
0.0
 71
     7
 72
     1
  1
\C1;DN\C1;110
  7
CONVERTER_11
 11
0.05233595634304553
 21
0.9986295347493279
 31
0.0
 73
     1
 44
0.60024009603842
  0
ENDBLK
  5
1E0
330
1D7
100
AcDbEntity
  8
0
100
AcDbBlockEnd
  0
BLOCK
  5
1EA
330
1E3
100
AcDbEntity
  8
0
100
AcDbBlockBegin
  2
*D27
 70
     1
 10
0.0
 20
0.0
 30
0.0
  3
*D27
  1

  0
LINE
  5
1E4
330
1E3
100
AcDbEntity
  8
1
  6
Continuous
 62
     4
100
AcDbLine
 10
184.3079085977351
 20
-135.7780985999148
 30
0.0
 11
180.3849097911075
 21
-210.6333645576412
 31
0.0
  0
LINE
  5
1E5
330
1E3
100
AcDbEntity
  8
1
  6
Continuous
 62
     4
100
AcDbLine
 10
154.6753450000001
 20
-134.2251215295123
 30
0.0
 11
186.305167666477
 21
-135.8827705270392
 31
0.0
  0
LINE
  5
1E6
330
1E3
100
AcDbEntity
  8
1
  6
Continuous
 62
     4
100
AcDbLine
 10
150.7523470000001
 20
-209.0803875295123
 30
0.0
 11
182.3821688598495
 21
-210.7380364847656
 31
0.0
  0
SOLID
  5
1E7
330
1E3
100
AcDbEntity
  8
1
 62
     4
100
AcDbTrace
 10
185.0992696857581
 20
-145.8332955467907
 30
0.0
 11
182.4698282384686
 21
-145.6954923404587
 31
0.0
 12
184.3079085977351
 22
-135.7780985999148
 32
0.0
 13
184.3079085977351
 23
-135.7780985999148
 33
0.0
  0
SOLID
  5
1E8
330
1E3
100
AcDbEntity
  8
1
 62
     4
100
AcDbTrace
 10
179.5935487030844
 20
-200.5781676107653
 30
0.0
 11
182.222990150374
 21
-200.7159708170974
 31
0.0
 12
180.3849097911075
 22
-210.6333645576412
 32
0.0
 13
180.3849097911075
 23
-210.6333645576412
 33
0.0
  0
MTEXT
  5
1E9
330
1E3
100
AcDbEntity
  8
1
 62
     1
100
AcDbMText
 10
179.7401814495408
 20
-184.7208725700926
 30
0.0
 40
10.0
 41
0.0
 71
     7
 72
     1
  1
\C1;DN\C1;75
  7
CONVERTER_11
 11
0.05233596356217441
 21
0.9986295343709892
 31
0.0
 73
     1
 44
0.60024009603842
  0
ENDBLK
  5
1EB
330
1E3
100
AcDbEntity
  8
0
100
AcDbBlockEnd
  0
BLOCK
  5
1F5
330
1EE
100
AcDbEntity
  8
0
100
AcDbBlockBegin
  2
*D28
 70
     1
 10
0.0
 20
0.0
 30
0.0
  3
*D28
  1

  0
LINE
  5
1EF
330
1EE
100
AcDbEntity
  8
1
  6
Continuous
 62
     4
100
AcDbLine
 10
176.5000040000002
 20
31.9213428777137
 30
0.0
 11
-177.4999829999999
 21
31.9213428777137
 31
0.0
  0
LINE
  5
1F0
330
1EE
100
AcDbEntity
  8
1
  6
Continuous
 62
     4
100
AcDbLine
 10
176.5000040000002
 20
-69.9993545295123
 30
0.0
 11
176.5000040000002
 21
33.9213428777137
 31
0.0
  0
LINE
  5
1F1
330
1EE
100
AcDbEntity
  8
1
  6
Continuous
 62
     4
100
AcDbLine
 10
-177.4999829999999
 20
-71.0085455295122
 30
0.0
 11
-177.4999829999999
 21
33.9213428777137
 31
0.0
  0
SOLID
  5
1F2
330
1EE
100
AcDbEntity
  8
1
 62
     4
100
AcDbTrace
 10
166.5000040000002
 20
30.60481790183974
 30
0.0
 11
166.5000040000002
 21
33.23786785358766
 31
0.0
 12
176.5000040000002
 22
31.9213428777137
 32
0.0
 13
176.5000040000002
 23
31.9213428777137
 33
0.0
  0
SOLID
  5
1F3
330
1EE
100
AcDbEntity
  8
1
 62
     4
100
AcDbTrace
 10
-167.4999829999999
 20
33.23786785358766
 30
0.0
 11
-167.4999829999999
 21
30.60481790183974
 31
0.0
 12
-177.4999829999999
 22
31.9213428777137
 32
0.0
 13
-177.4999829999999
 23
31.9213428777137
 33
0.0
  0
MTEXT
  5
1F4
330
1EE
100
AcDbEntity
  8
1
 62
     1
100
AcDbMText
 10
-2.51140251118769
 20
33.92132300035277
 30
0.0
 40
10.0
 41
0.0
 71
     7
 72
     1
  1
\C1;%%c\C1;354
  7
CONVERTER_11
 11
0.9999999999970619
 21
2.424068405545306E-6
 31
0.0
 73
     1
 44
0.60024009603842
  0
ENDBLK
  5
1F6
330
1EE
100
AcDbEntity
  8
0
100
AcDbBlockEnd
  0
BLOCK
  5
200
330
1F9
100
AcDbEntity
  8
0
100
AcDbBlockBegin
  2
*D29
 70
     1
 10
0.0
 20
0.0
 30
0.0
  3
*D29
  1

  0
LINE
  5
1FA
330
1F9
100
AcDbEntity
  8
1
  6
Continuous
 62
     4
100
AcDbLine
 10
73.50000000000011
 20
10.91040988325403
 30
0.0
 11
-73.5
 21
10.91040988325403
 31
0.0
  0
LINE
  5
1FB
330
1F9
100
AcDbEntity
  8
1
  6
Continuous
 62
     4
100
AcDbLine
 10
73.50000000000011
 20
0.0
 30
0.0
 11
73.50000000000011
 21
12.91040988325403
 31
0.0
  0
LINE
  5
1FC
330
1F9
100
AcDbEntity
  8
1
  6
Continuous
 62
     4
100
AcDbLine
 10
-73.5
 20
0.0
 30
0.0
 11
-73.5
 21
12.91040988325403
 31
0.0
  0
SOLID
  5
1FD
330
1F9
100
AcDbEntity
  8
1
 62
     4
100
AcDbTrace
 10
63.50000000000011
 20
9.59388490738007
 30
0.0
 11
63.50000000000011
 21
12.22693485912799
 31
0.0
 12
73.50000000000011
 22
10.91040988325403
 32
0.0
 13
73.50000000000011
 23
10.91040988325403
 33
0.0
  0
SOLID
  5
1FE
330
1F9
100
AcDbEntity
  8
1
 62
     4
100
AcDbTrace
 10
-63.5
 20
12.22693485912799
 30
0.0
 11
-63.5
 21
9.59388490738007
 31
0.0
 12
-73.5
 22
10.91040988325403
 32
0.0
 13
-73.5
 23
10.91040988325403
 33
0.0
  0
MTEXT
  5
1FF
330
1F9
100
AcDbEntity
  8
1
 62
     1
100
AcDbMText
 10
-47.53788682048339
 20
12.91033037381033
 30
0.0
 40
10.0
 41
0.0
 71
     7
 72
     1
  1
\C1;150x\C1;150
  7
CONVERTER_11
 11
0.9999999999970619
 21
2.424068405545306E-6
 31
0.0
 73
     1
 44
0.60024009603842
  0
ENDBLK
  5
201
330
1F9
100
AcDbEntity
  8
0
100
AcDbBlockEnd
  0
BLOCK
  5
20B
330
204
100
AcDbEntity
  8
0
100
AcDbBlockBegin
  2
*D30
 70
     1
 10
0.0
 20
0.0
 30
0.0
  3
*D30
  1

  0
LINE
  5
205
330
204
100
AcDbEntity
  8
1
  6
Continuous
 62
     4
100
AcDbLine
 10
-192.3757748646486
 20
0.0
 30
0.0
 11
-192.3757748646486
 21
-68.00064752951232
 31
0.0
  0
LINE
  5
206
330
204
100
AcDbEntity
  8
1
  6
Continuous
 62
     4
100
AcDbLine
 10
-73.5
 20
0.0
 30
0.0
 11
-194.3757748646486
 21
0.0
 31
0.0
  0
LINE
  5
207
330
204
100
AcDbEntity
  8
1
  6
Continuous
 62
     4
100
AcDbLine
 10
-175.4999939999998
 20
-68.00064752951232
 30
0.0
 11
-194.3757748646486
 21
-68.00064752951232
 31
0.0
  0
SOLID
  5
208
330
204
100
AcDbEntity
  8
1
 62
     4
100
AcDbTrace
 10
-191.0592498887746
 20
-10.0
 30
0.0
 11
-193.6922998405226
 21
-10.0
 31
0.0
 12
-192.3757748646486
 22
0.0
 32
0.0
 13
-192.3757748646486
 23
0.0
 33
0.0
  0
SOLID
  5
209
330
204
100
AcDbEntity
  8
1
 62
     4
100
AcDbTrace
 10
-193.6922998405226
 20
-58.00064752951232
 30
0.0
 11
-191.0592498887746
 21
-58.00064752951232
 31
0.0
 12
-192.3757748646486
 22
-68.00064752951232
 32
0.0
 13
-192.3757748646486
 23
-68.00064752951232
 33
0.0
  0
MTEXT
  5
20A
330
204
100
AcDbEntity
  8
1
 62
     1
100
AcDbMText
 10
-194.3757748646486
 20
-53.73940139847603
 30
0.0
 40
10.0
 41
0.0
 71
     7
 72
     1
  1
\C1;17-\C1;68
  7
CONVERTER_11
 11
0.0
 21
1.0
 31
0.0
 73
     1
 44
0.60024009603842
  0
ENDBLK
  5
20C
330
204
100
AcDbEntity
  8
0
100
AcDbBlockEnd
  0
BLOCK
  5
216
330
20F
100
AcDbEntity
  8
0
100
AcDbBlockBegin
  2
*D31
 70
     1
 10
0.0
 20
0.0
 30
0.0
  3
*D31
  1

  0
LINE
  5
210
330
20F
100
AcDbEntity
  8
1
  6
Continuous
 62
     4
100
AcDbLine
 10
-192.3757748646486
 20
-213.3215855295123
 30
0.0
 11
-192.3757748646486
 21
-68.00064752951232
 31
0.0
  0
LINE
  5
211
330
20F
100
AcDbEntity
  8
1
  6
Continuous
 62
     4
100
AcDbLine
 10
-33.30642500000002
 20
-213.3215855295123
 30
0.0
 11
-194.3757748646486
 21
-213.3215855295123
 31
0.0
  0
LINE
  5
212
330
20F
100
AcDbEntity
  8
1
  6
Continuous
 62
     4
100
AcDbLine
 10
-175.4999939999998
 20
-68.00064752951232
 30
0.0
 11
-194.3757748646486
 21
-68.00064752951232
 31
0.0
  0
SOLID
  5
213
330
20F
100
AcDbEntity
  8
1
 62
     4
100
AcDbTrace
 10
-193.6922998405226
 20
-203.3215855295123
 30
0.0
 11
-191.0592498887746
 21
-203.3215855295123
 31
0.0
 12
-192.3757748646486
 22
-213.3215855295123
 32
0.0
 13
-192.3757748646486
 23
-213.3215855295123
 33
0.0
  0
SOLID
  5
214
330
20F
100
AcDbEntity
  8
1
 62
     4
100
AcDbTrace
 10
-191.0592498887746
 20
-78.00064752951232
 30
0.0
 11
-193.6922998405226
 21
-78.00064752951232
 31
0.0
 12
-192.3757748646486
 22
-68.00064752951232
 32
0.0
 13
-192.3757748646486
 23
-68.00064752951232
 33
0.0
  0
MTEXT
  5
215
330
20F
100
AcDbEntity
  8
1
 62
     1
100
AcDbMText
 10
-194.3757748646486
 20
-157.811926845907
 30
0.0
 40
10.0
 41
0.0
 71
     7
 72
     1
  1
145
  7
CONVERTER_11
 11
0.0
 21
1.0
 31
0.0
 73
     1
 44
0.60024009603842
  0
ENDBLK
  5
217
330
20F
100
AcDbEntity
  8
0
100
AcDbBlockEnd
  0
BLOCK
  5
21F
330
21A
100
AcDbEntity
  8
0
100
AcDbBlockBegin
  2
*D32
 70
     1
 10
0.0
 20
0.0
 30
0.0
  3
*D32
  1

  0
LINE
  5
21B
330
21A
100
AcDbEntity
  8
1
  6
Continuous
 62
     4
100
AcDbLine
 10
-204.6468438455313
 20
-731.602638911532
 30
0.0
 11
230.5071790789888
 21
-373.6101762213159
 31
0.0
  0
SOLID
  5
21C
330
21A
100
AcDbEntity
  8
1
 62
     4
100
AcDbTrace
 10
199.9490847592135
 20
-397.0449192360225
 30
0.0
 11
201.6219041770284
 21
-399.0782975195154
 31
0.0
 12
193.062973738337
 22
-404.4147708641262
 32
0.0
 13
193.062973738337
 23
-404.4147708641262
 33
0.0
  0
SOLID
  5
21D
330
21A
100
AcDbEntity
  8
1
 62
     4
100
AcDbTrace
 10
-199.9491737717319
 20
-729.4427468100998
 30
0.0
 11
-201.6219931895469
 21
-727.4093685266068
 31
0.0
 12
-193.0630627508555
 22
-722.072895181996
 32
0.0
 13
-193.0630627508555
 23
-722.072895181996
 33
0.0
  0
MTEXT
  5
21E
330
21A
100
AcDbEntity
  8
1
 62
     1
100
AcDbMText
 10
210.7024968302361
 20
-387.3132620426168
 30
0.0
 40
10.0
 41
0.0
 71
     7
 72
     1
  1
500
  7
CONVERTER_11
 11
0.7722520729783844
 21
0.6353162486357389
 31
0.0
 73
     1
 44
0.60024009603842
  0
ENDBLK
  5
220
330
21A
100
AcDbEntity
  8
0
100
AcDbBlockEnd
  0
ENDSEC
  0
SECTION
  2
ENTITIES
  0
INSERT
  5
D6
330
1F
100
AcDbEntity
  8
0
100
AcDbBlockReference
  2
HL_64_1B_Flachdachablauf_DN75_110__6
 10
25.46708968505695
 20
-397.1612450726738
 30
0.0
  0
INSERT
  5
D7
330
1F
100
AcDbEntity
  8
1
100
AcDbBlockReference
  2
Reduzierung
 10
272.199572463036
 20
-563.2438330230611
 30
0.0
  0
INSERT
  5
D8
330
1F
100
AcDbEntity
  8
0
100
AcDbBlockReference
  2
HL0317_1E_Einlaufrost
 10
-0.07346280597917
 20
-563.2218330230609
 30
0.0
  0
INSERT
  5
D9
330
1F
100
AcDbEntity
  8
0
100
AcDbBlockReference
  2
HL062B_2E_Aufsatzrahmen
 10
-0.00004450625924
 20
-563.243833023061
 30
0.0
  0
INSERT
  5
DA
330
1F
100
AcDbEntity
  8
0
100
AcDbBlockReference
  2
Metallring
 10
-0.00004450625921
 20
-563.2438330230611
 30
0.0
  0
INSERT
  5
DB
330
1F
100
AcDbEntity
  8
0
100
AcDbBlockReference
  2
Dichtung_unten
 10
-0.07346280597711
 20
-563.2218330230826
 30
0.0
  0
INSERT
  5
DC
330
1F
100
AcDbEntity
  8
0
100
AcDbBlockReference
  2
62_1H_Koerper
 10
-0.07346280597711
 20
-563.2218330230826
 30
0.0
  0
INSERT
  5
DD
330
1F
100
AcDbEntity
  8
0
100
AcDbBlockReference
  2
Dichtring
 10
-0.07346280597711
 20
-563.2218330230826
 30
0.0
  0
INSERT
  5
DE
330
1F
100
AcDbEntity
  8
0
100
AcDbBlockReference
  2
HL062B_3E_Tragring
 10
-0.00004450625946
 20
-563.2438330230606
 30
0.0
  0
INSERT
  5
DF
330
1F
100
AcDbEntity
  8
0
100
AcDbBlockReference
  2
HL_64_1BH_Flachdachablauf_DN75_110
 10
-200.3139355
 20
-67.26963184302528
 30
0.0
  0
ENDSEC
  0
SECTION
  2
OBJECTS
  0
DICTIONARY
  5
C
330
0
100
AcDbDictionary
281
     1
  3
ACAD_GROUP
350
D
  3
ACAD_LAYOUT
350
1A
  3
ACAD_MATERIAL
350
43
  3
ACAD_MLEADERSTYLE
350
6B
  3
ACAD_MLINESTYLE
350
17
  3
ACAD_PLOTSETTINGS
350
19
  3
ACAD_PLOTSTYLENAME
350
E
  3
ACAD_SCALELIST
350
47
  3
ACAD_TABLESTYLE
350
69
  3
ACAD_VISUALSTYLE
350
2A
  3
AcDbVariableDictionary
350
3D3
  0
DICTIONARY
  5
3DA
330
8
100
AcDbDictionary
280
     1
281
     1
  3
ACAD_XREC_ROUNDTRIP
360
3DB
  0
DICTIONARY
  5
D
102
{ACAD_REACTORS
330
C
102
}
330
C
100
AcDbDictionary
281
     1
  0
DICTIONARY
  5
1A
102
{ACAD_REACTORS
330
C
102
}
330
C
100
AcDbDictionary
281
     1
  3
Layout1
350
1E
  3
Layout2
350
26
  3
Model
350
22
  0
DICTIONARY
  5
43
102
{ACAD_REACTORS
330
C
102
}
330
C
100
AcDbDictionary
281
     1
  3
ByBlock
350
45
  3
ByLayer
350
44
  3
Global
350
46
  0
DICTIONARY
  5
6B
102
{ACAD_REACTORS
330
C
102
}
330
C
100
AcDbDictionary
281
     1
  3
Standard
350
6C
  0
DICTIONARY
  5
17
102
{ACAD_REACTORS
330
C
102
}
330
C
100
AcDbDictionary
281
     1
  3
Standard
350
18
  0
DICTIONARY
  5
19
102
{ACAD_REACTORS
330
C
102
}
330
C
100
AcDbDictionary
281
     1
  0
ACDBDICTIONARYWDFLT
  5
E
102
{ACAD_REACTORS
330
C
102
}
330
C
100
AcDbDictionary
281
     1
  3
Normal
350
F
100
AcDbDictionaryWithDefault
340
F
  0
DICTIONARY
  5
47
102
{ACAD_REACTORS
330
C
102
}
330
C
100
AcDbDictionary
281
     1
  3
A0
350
48
  3
A1
350
49
  3
A2
350
4A
  3
A3
350
4B
  3
A4
350
4C
  3
A5
350
4D
  3
A6
350
4E
  3
A7
350
4F
  3
A8
350
50
  3
A9
350
51
  3
B0
350
52
  3
B1
350
53
  3
B2
350
54
  3
B3
350
55
  3
B4
350
56
  3
B5
350
57
  3
B6
350
58
  3
B7
350
59
  3
B8
350
5A
  3
B9
350
5B
  3
C0
350
5C
  3
C1
350
5D
  3
C2
350
5E
  3
C3
350
5F
  3
C4
350
60
  3
C5
350
61
  3
C6
350
62
  3
C7
350
63
  3
C8
350
64
  3
C9
350
65
  3
D0
350
66
  3
D1
350
67
  3
D2
350
68
  0
DICTIONARY
  5
69
102
{ACAD_REACTORS
330
C
102
}
330
C
100
AcDbDictionary
281
     1
  3
Standard
350
6A
  0
DICTIONARY
  5
2A
102
{ACAD_REACTORS
330
C
102
}
330
C
100
AcDbDictionary
281
     1
  3
2dWireframe
350
2F
  3
Basic
350
32
  3
Brighten
350
36
  3
ColorChange
350
3A
  3
Conceptual
350
34
  3
Dim
350
35
  3
EdgeColorOff
350
3D
  3
Facepattern
350
39
  3
Flat
350
2B
  3
FlatWithEdges
350
2C
  3
Gouraud
350
2D
  3
GouraudWithEdges
350
2E
  3
Hidden
350
31
  3
JitterOff
350
3B
  3
Linepattern
350
38
  3
OverhangOff
350
3C
  3
Realistic
350
33
  3
Shaded
350
42
  3
Shaded with edges
350
41
  3
Shades of Gray
350
3E
  3
Sketchy
350
3F
  3
Thicken
350
37
  3
Wireframe
350
30
  3
X-Ray
350
40
  0
DICTIONARY
  5
3D3
102
{ACAD_REACTORS
330
C
102
}
330
C
100
AcDbDictionary
281
     1
  3
CANNOSCALE
350
3DC
  3
CMLEADERSTYLE
350
3D5
  3
CTABLESTYLE
350
3D4
  3
DIMASSOC
350
3D8
  3
HIDETEXT
350
3D9
  3
MSLTSCALE
350
3DD
  0
XRECORD
  5
3DB
102
{ACAD_REACTORS
330
3DA
102
}
330
3DA
100
AcDbXrecord
280
     1
102
VTR_0.000_0.000_1.000_1.000_GRIDDISPLAY
 70
     3
102
VTR_0.000_0.000_1.000_1.000_GRIDMAJOR
 70
     5
102
VTR_0.000_0.000_1.000_1.000_DEFAULTLIGHTING
280
     1
102
VTR_0.000_0.000_1.000_1.000_DEFAULTLIGHTINGTYPE
 70
     1
102
VTR_0.000_0.000_1.000_1.000_BRIGHTNESS
141
0.0
102
VTR_0.000_0.000_1.000_1.000_CONTRAST
142
0.0
  0
LAYOUT
  5
1E
102
{ACAD_REACTORS
330
1A
102
}
330
1A
100
AcDbPlotSettings
  1

  2
none_device
  4

  6

 40
0.0
 41
0.0
 42
0.0
 43
0.0
 44
0.0
 45
0.0
 46
0.0
 47
0.0
 48
0.0
 49
0.0
140
0.0
141
0.0
142
1.0
143
1.0
 70
   688
 72
     0
 73
     0
 74
     5
  7

 75
    16
147
1.0
148
0.0
149
0.0
100
AcDbLayout
  1
Layout1
 70
     1
 71
     1
 10
0.0
 20
0.0
 11
12.0
 21
9.0
 12
0.0
 22
0.0
 32
0.0
 14
1.00000000000000E+20
 24
1.00000000000000E+20
 34
1.00000000000000E+20
 15
-1.00000000000000E+20
 25
-1.00000000000000E+20
 35
-1.00000000000000E+20
146
0.0
 13
0.0
 23
0.0
 33
0.0
 16
1.0
 26
0.0
 36
0.0
 17
0.0
 27
1.0
 37
0.0
 76
     0
330
1B
  0
LAYOUT
  5
26
102
{ACAD_REACTORS
330
1A
102
}
330
1A
100
AcDbPlotSettings
  1

  2
none_device
  4

  6

 40
0.0
 41
0.0
 42
0.0
 43
0.0
 44
0.0
 45
0.0
 46
0.0
 47
0.0
 48
0.0
 49
0.0
140
0.0
141
0.0
142
1.0
143
1.0
 70
   688
 72
     0
 73
     0
 74
     5
  7

 75
    16
147
1.0
148
0.0
149
0.0
100
AcDbLayout
  1
Layout2
 70
     1
 71
     2
 10
0.0
 20
0.0
 11
0.0
 21
0.0
 12
0.0
 22
0.0
 32
0.0
 14
0.0
 24
0.0
 34
0.0
 15
0.0
 25
0.0
 35
0.0
146
0.0
 13
0.0
 23
0.0
 33
0.0
 16
1.0
 26
0.0
 36
0.0
 17
0.0
 27
1.0
 37
0.0
 76
     0
330
23
  0
LAYOUT
  5
22
102
{ACAD_REACTORS
330
1A
102
}
330
1A
100
AcDbPlotSettings
  1

  2
none_device
  4
Letter_(8.50_x_11.00_Inches)
  6

 40
6.35
 41
6.35
 42
6.35000508
 43
6.35000508
 44
215.9
 45
279.4
 46
0.0
 47
0.0
 48
0.0
 49
0.0
140
0.0
141
0.0
142
1.0
143
1.0
 70
  1712
 72
     0
 73
     0
 74
     0
  7

 75
     0
147
1.0
148
0.0
149
0.0
100
AcDbLayout
  1
Model
 70
     1
 71
     0
 10
0.0
 20
0.0
 11
12.0
 21
9.0
 12
0.0
 22
0.0
 32
0.0
 14
-275.0000445062592
 24
-838.2438330230611
 34
0.0
 15
325.9342238763731
 25
43.9213428777137
 35
0.0
146
0.0
 13
0.0
 23
0.0
 33
0.0
 16
1.0
 26
0.0
 36
0.0
 17
0.0
 27
1.0
 37
0.0
 76
     0
330
1F
331
29
  0
MATERIAL
  5
45
102
{ACAD_REACTORS
330
43
102
}
102
{ACAD_XDICTIONARY
360
410
102
}
330
43
100
AcDbMaterial
  1
ByBlock
  0
MATERIAL
  5
44
102
{ACAD_REACTORS
330
43
102
}
102
{ACAD_XDICTIONARY
360
40E
102
}
330
43
100
AcDbMaterial
  1
ByLayer
  0
MATERIAL
  5
46
102
{ACAD_REACTORS
330
43
102
}
102
{ACAD_XDICTIONARY
360
412
102
}
330
43
100
AcDbMaterial
  1
Global
  0
MLEADERSTYLE
  5
6C
102
{ACAD_REACTORS
330
6B
102
}
102
{ACAD_XDICTIONARY
360
415
102
}
330
6B
100
AcDbMLeaderStyle
170
     2
171
     1
172
     0
 90
        2
 40
0.0
 41
0.0
173
     1
 91
-1056964608
340
14
 92
       -2
290
     1
 42
0.09
291
     1
 43
0.36
  3
Standard
341
0
 44
0.18
300

342
11
174
     1
178
     6
175
     1
176
     0
 93
-1056964608
 45
0.18
292
     0
297
     0
 46
0.18
343
0
 94
-1056964608
 47
1.0
 49
1.0
140
1.0
293
     1
141
0.0
294
     1
177
     0
142
1.0
295
     0
296
     0
143
0.125
1001
ACAD_MLEADERVER
1070
     2
  0
MLINESTYLE
  5
18
102
{ACAD_REACTORS
330
17
102
}
330
17
100
AcDbMlineStyle
  2
Standard
 70
     0
  3

 62
   256
 51
90.0
 52
90.0
 71
     2
 49
0.5
 62
   256
  6
BYLAYER
 49
-0.5
 62
   256
  6
BYLAYER
  0
ACDBPLACEHOLDER
  5
F
102
{ACAD_REACTORS
330
E
102
}
330
E
  0
SCALE
  5
48
102
{ACAD_REACTORS
330
47
102
}
330
47
100
AcDbScale
 70
     0
300
1:1
140
1.0
141
1.0
290
     1
  0
SCALE
  5
49
102
{ACAD_REACTORS
330
47
102
}
330
47
100
AcDbScale
 70
     0
300
1:2
140
1.0
141
2.0
290
     0
  0
SCALE
  5
4A
102
{ACAD_REACTORS
330
47
102
}
330
47
100
AcDbScale
 70
     0
300
1:4
140
1.0
141
4.0
290
     0
  0
SCALE
  5
4B
102
{ACAD_REACTORS
330
47
102
}
330
47
100
AcDbScale
 70
     0
300
1:5
140
1.0
141
5.0
290
     0
  0
SCALE
  5
4C
102
{ACAD_REACTORS
330
47
102
}
330
47
100
AcDbScale
 70
     0
300
1:8
140
1.0
141
8.0
290
     0
  0
SCALE
  5
4D
102
{ACAD_REACTORS
330
47
102
}
330
47
100
AcDbScale
 70
     0
300
1:10
140
1.0
141
10.0
290
     0
  0
SCALE
  5
4E
102
{ACAD_REACTORS
330
47
102
}
330
47
100
AcDbScale
 70
     0
300
1:16
140
1.0
141
16.0
290
     0
  0
SCALE
  5
4F
102
{ACAD_REACTORS
330
47
102
}
330
47
100
AcDbScale
 70
     0
300
1:20
140
1.0
141
20.0
290
     0
  0
SCALE
  5
50
102
{ACAD_REACTORS
330
47
102
}
330
47
100
AcDbScale
 70
     0
300
1:30
140
1.0
141
30.0
290
     0
  0
SCALE
  5
51
102
{ACAD_REACTORS
330
47
102
}
330
47
100
AcDbScale
 70
     0
300
1:40
140
1.0
141
40.0
290
     0
  0
SCALE
  5
52
102
{ACAD_REACTORS
330
47
102
}
330
47
100
AcDbScale
 70
     0
300
1:50
140
1.0
141
50.0
290
     0
  0
SCALE
  5
53
102
{ACAD_REACTORS
330
47
102
}
330
47
100
AcDbScale
 70
     0
300
1:100
140
1.0
141
100.0
290
     0
  0
SCALE
  5
54
102
{ACAD_REACTORS
330
47
102
}
330
47
100
AcDbScale
 70
     0
300
2:1
140
2.0
141
1.0
290
     0
  0
SCALE
  5
55
102
{ACAD_REACTORS
330
47
102
}
330
47
100
AcDbScale
 70
     0
300
4:1
140
4.0
141
1.0
290
     0
  0
SCALE
  5
56
102
{ACAD_REACTORS
330
47
102
}
330
47
100
AcDbScale
 70
     0
300
8:1
140
8.0
141
1.0
290
     0
  0
SCALE
  5
57
102
{ACAD_REACTORS
330
47
102
}
330
47
100
AcDbScale
 70
     0
300
10:1
140
10.0
141
1.0
290
     0
  0
SCALE
  5
58
102
{ACAD_REACTORS
330
47
102
}
330
47
100
AcDbScale
 70
     0
300
100:1
140
100.0
141
1.0
290
     0
  0
SCALE
  5
59
102
{ACAD_REACTORS
330
47
102
}
330
47
100
AcDbScale
 70
     0
300
1/128" = 1'-0"
140
0.0078125
141
12.0
290
     0
  0
SCALE
  5
5A
102
{ACAD_REACTORS
330
47
102
}
330
47
100
AcDbScale
 70
     0
300
1/64" = 1'-0"
140
0.015625
141
12.0
290
     0
  0
SCALE
  5
5B
102
{ACAD_REACTORS
330
47
102
}
330
47
100
AcDbScale
 70
     0
300
1/32" = 1'-0"
140
0.03125
141
12.0
290
     0
  0
SCALE
  5
5C
102
{ACAD_REACTORS
330
47
102
}
330
47
100
AcDbScale
 70
     0
300
1/16" = 1'-0"
140
0.0625
141
12.0
290
     0
  0
SCALE
  5
5D
102
{ACAD_REACTORS
330
47
102
}
330
47
100
AcDbScale
 70
     0
300
3/32" = 1'-0"
140
0.09375
141
12.0
290
     0
  0
SCALE
  5
5E
102
{ACAD_REACTORS
330
47
102
}
330
47
100
AcDbScale
 70
     0
300
1/8" = 1'-0"
140
0.125
141
12.0
290
     0
  0
SCALE
  5
5F
102
{ACAD_REACTORS
330
47
102
}
330
47
100
AcDbScale
 70
     0
300
3/16" = 1'-0"
140
0.1875
141
12.0
290
     0
  0
SCALE
  5
60
102
{ACAD_REACTORS
330
47
102
}
330
47
100
AcDbScale
 70
     0
300
1/4" = 1'-0"
140
0.25
141
12.0
290
     0
  0
SCALE
  5
61
102
{ACAD_REACTORS
330
47
102
}
330
47
100
AcDbScale
 70
     0
300
3/8" = 1'-0"
140
0.375
141
12.0
290
     0
  0
SCALE
  5
62
102
{ACAD_REACTORS
330
47
102
}
330
47
100
AcDbScale
 70
     0
300
1/2" = 1'-0"
140
0.5
141
12.0
290
     0
  0
SCALE
  5
63
102
{ACAD_REACTORS
330
47
102
}
330
47
100
AcDbScale
 70
     0
300
3/4" = 1'-0"
140
0.75
141
12.0
290
     0
  0
SCALE
  5
64
102
{ACAD_REACTORS
330
47
102
}
330
47
100
AcDbScale
 70
     0
300
1" = 1'-0"
140
1.0
141
12.0
290
     0
  0
SCALE
  5
65
102
{ACAD_REACTORS
330
47
102
}
330
47
100
AcDbScale
 70
     0
300
1-1/2" = 1'-0"
140
1.5
141
12.0
290
     0
  0
SCALE
  5
66
102
{ACAD_REACTORS
330
47
102
}
330
47
100
AcDbScale
 70
     0
300
3" = 1'-0"
140
3.0
141
12.0
290
     0
  0
SCALE
  5
67
102
{ACAD_REACTORS
330
47
102
}
330
47
100
AcDbScale
 70
     0
300
6" = 1'-0"
140
6.0
141
12.0
290
     0
  0
SCALE
  5
68
102
{ACAD_REACTORS
330
47
102
}
330
47
100
AcDbScale
 70
     0
300
1'-0" = 1'-0"
140
12.0
141
12.0
290
     0
  0
TABLESTYLE
  5
6A
102
{ACAD_REACTORS
330
69
102
}
330
69
100
AcDbTableStyle
  3
Standard
 70
     0
 71
     0
 40
0.06
 41
0.06
280
     0
281
     0
  7
Standard
140
0.18
170
     2
 62
     0
 63
   257
283
     0
274
    -2
284
     1
 64
     0
275
    -2
285
     1
 65
     0
276
    -2
286
     1
 66
     0
277
    -2
287
     1
 67
     0
278
    -2
288
     1
 68
     0
279
    -2
289
     1
 69
     0
  7
Standard
140
0.25
170
     5
 62
     0
 63
   257
283
     0
274
    -2
284
     1
 64
     0
275
    -2
285
     1
 65
     0
276
    -2
286
     1
 66
     0
277
    -2
287
     1
 67
     0
278
    -2
288
     1
 68
     0
279
    -2
289
     1
 69
     0
  7
Standard
140
0.18
170
     5
 62
     0
 63
   257
283
     0
274
    -2
284
     1
 64
     0
275
    -2
285
     1
 65
     0
276
    -2
286
     1
 66
     0
277
    -2
287
     1
 67
     0
278
    -2
288
     1
 68
     0
279
    -2
289
     1
 69
     0
  0
VISUALSTYLE
  5
2F
102
{ACAD_REACTORS
330
2A
102
}
102
{ACAD_XDICTIONARY
360
3E6
102
}
330
2A
100
AcDbVisualStyle
  2
2dWireframe
 70
     4
 71
     0
 72
     2
 73
     0
 90
        0
 40
0.6
 41
30.0
 62
     5
 63
     7
 74
     1
 91
        4
 64
     7
 65
   257
 75
     1
175
     1
 42
1.0
 92
        0
 66
   257
 43
1.0
 76
     1
 77
     6
 78
     2
 67
     7
 79
     5
170
     0
171
     0
290
     0
174
     0
 93
        1
 44
0.0
173
     0
291
     0
 45
0.0
1001
ACAD
1000
AcDbSavedByObjectVersion
1070
     0
  0
VISUALSTYLE
  5
32
102
{ACAD_REACTORS
330
2A
102
}
102
{ACAD_XDICTIONARY
360
3EC
102
}
330
2A
100
AcDbVisualStyle
  2
Basic
 70
     7
 71
     1
 72
     0
 73
     1
 90
        0
 40
0.6
 41
30.0
 62
     5
 63
     7
 74
     0
 91
        4
 64
     7
 65
   257
 75
     1
175
     1
 42
1.0
 92
        8
 66
     7
 43
1.0
 76
     1
 77
     6
 78
     2
 67
     7
 79
     5
170
     0
171
     0
290
     0
174
     0
 93
        1
 44
0.0
173
     0
291
     1
 45
0.0
1001
ACAD
1000
AcDbSavedByObjectVersion
1070
     0
  0
VISUALSTYLE
  5
36
102
{ACAD_REACTORS
330
2A
102
}
102
{ACAD_XDICTIONARY
360
3F4
102
}
330
2A
100
AcDbVisualStyle
  2
Brighten
 70
    12
 71
     2
 72
     2
 73
     0
 90
        0
 40
0.6
 41
30.0
 62
     5
 63
     7
 74
     1
 91
        4
 64
     7
 65
   257
 75
     1
175
     1
 42
1.0
 92
        8
 66
     7
 43
1.0
 76
     1
 77
     6
 78
     2
 67
     7
 79
     5
170
     0
171
     0
290
     0
174
     0
 93
        1
 44
50.0
173
     0
291
     1
 45
0.0
1001
ACAD
1000
AcDbSavedByObjectVersion
1070
     0
  0
VISUALSTYLE
  5
3A
102
{ACAD_REACTORS
330
2A
102
}
102
{ACAD_XDICTIONARY
360
3FC
102
}
330
2A
100
AcDbVisualStyle
  2
ColorChange
 70
    16
 71
     2
 72
     2
 73
     3
 90
        0
 40
0.6
 41
30.0
 62
     5
 63
     8
 74
     1
 91
        4
 64
     7
 65
   257
 75
     1
175
     1
 42
1.0
 92
        8
 66
     8
 43
1.0
 76
     1
 77
     6
 78
     2
 67
     7
 79
     5
170
     0
171
     0
290
     0
174
     0
 93
        1
 44
0.0
173
     0
291
     1
 45
0.0
1001
ACAD
1000
AcDbSavedByObjectVersion
1070
     0
  0
VISUALSTYLE
  5
34
102
{ACAD_REACTORS
330
2A
102
}
102
{ACAD_XDICTIONARY
360
3F0
102
}
330
2A
100
AcDbVisualStyle
  2
Conceptual
 70
     9
 71
     3
 72
     2
 73
     0
 90
        0
 40
0.6
 41
30.0
 62
     5
 63
     7
 74
     2
 91
        2
 64
     7
 65
   257
 75
     1
175
     1
 42
179.0
 92
        8
 66
     7
 43
1.0
 76
     1
 77
     6
 78
     2
 67
     7
 79
     3
170
     0
171
     0
290
     0
174
     0
 93
        1
 44
0.0
173
     0
291
     0
 45
0.0
1001
ACAD
1000
AcDbSavedByObjectVersion
1070
     0
  0
VISUALSTYLE
  5
35
102
{ACAD_REACTORS
330
2A
102
}
102
{ACAD_XDICTIONARY
360
3F2
102
}
330
2A
100
AcDbVisualStyle
  2
Dim
 70
    11
 71
     2
 72
     2
 73
     0
 90
        0
 40
0.6
 41
30.0
 62
     5
 63
     7
 74
     1
 91
        4
 64
     7
 65
   257
 75
     1
175
     1
 42
1.0
 92
        8
 66
     7
 43
1.0
 76
     1
 77
     6
 78
     2
 67
     7
 79
     5
170
     0
171
     0
290
     0
174
     0
 93
        1
 44
-50.0
173
     0
291
     1
 45
0.0
1001
ACAD
1000
AcDbSavedByObjectVersion
1070
     0
  0
VISUALSTYLE
  5
3D
102
{ACAD_REACTORS
330
2A
102
}
102
{ACAD_XDICTIONARY
360
402
102
}
330
2A
100
AcDbVisualStyle
  2
EdgeColorOff
 70
    22
 71
     2
 72
     2
 73
     0
 90
        0
 40
0.6
 41
30.0
 62
     5
 63
     7
 74
     1
 91
        4
 64
     7
 65
   257
 75
     1
175
     1
 42
1.0
 92
        8
 66
     7
 43
1.0
 76
     1
 77
     6
 78
     2
 67
     7
 79
     5
170
     0
171
     0
290
     0
174
     0
 93
        1
 44
0.0
173
     0
291
     1
 45
0.0
1001
ACAD
1000
AcDbSavedByObjectVersion
1070
     0
  0
VISUALSTYLE
  5
39
102
{ACAD_REACTORS
330
2A
102
}
102
{ACAD_XDICTIONARY
360
3FA
102
}
330
2A
100
AcDbVisualStyle
  2
Facepattern
 70
    15
 71
     2
 72
     2
 73
     0
 90
        0
 40
0.6
 41
30.0
 62
     5
 63
     7
 74
     1
 91
        4
 64
     7
 65
   257
 75
     1
175
     1
 42
1.0
 92
        8
 66
     7
 43
1.0
 76
     1
 77
     6
 78
     2
 67
     7
 79
     5
170
     0
171
     0
290
     0
174
     0
 93
        1
 44
0.0
173
     0
291
     1
 45
0.0
1001
ACAD
1000
AcDbSavedByObjectVersion
1070
     0
  0
VISUALSTYLE
  5
2B
102
{ACAD_REACTORS
330
2A
102
}
102
{ACAD_XDICTIONARY
360
3DE
102
}
330
2A
100
AcDbVisualStyle
  2
Flat
 70
     0
 71
     2
 72
     1
 73
     1
 90
        2
 40
0.6
 41
30.0
 62
     5
 63
     7
 74
     0
 91
        0
 64
     7
 65
   257
 75
     1
175
     1
 42
1.0
 92
        8
 66
     7
 43
1.0
 76
     1
 77
     6
 78
     2
 67
     7
 79
     5
170
     0
171
     0
290
     0
174
     0
 93
       13
 44
0.0
173
     0
291
     1
 45
0.0
1001
ACAD
1000
AcDbSavedByObjectVersion
1070
     0
  0
VISUALSTYLE
  5
2C
102
{ACAD_REACTORS
330
2A
102
}
102
{ACAD_XDICTIONARY
360
3E0
102
}
330
2A
100
AcDbVisualStyle
  2
FlatWithEdges
 70
     1
 71
     2
 72
     1
 73
     1
 90
        2
 40
0.6
 41
30.0
 62
     5
 63
     7
 74
     1
 91
        0
 64
     7
 65
   257
 75
     1
175
     1
 42
1.0
 92
        0
 66
   257
 43
1.0
 76
     1
 77
     6
 78
     2
 67
     7
 79
     5
170
     0
171
     0
290
     0
174
     0
 93
       13
 44
0.0
173
     0
291
     1
 45
0.0
1001
ACAD
1000
AcDbSavedByObjectVersion
1070
     0
  0
VISUALSTYLE
  5
2D
102
{ACAD_REACTORS
330
2A
102
}
102
{ACAD_XDICTIONARY
360
3E2
102
}
330
2A
100
AcDbVisualStyle
  2
Gouraud
 70
     2
 71
     2
 72
     2
 73
     1
 90
        2
 40
0.6
 41
30.0
 62
     5
 63
     7
 74
     0
 91
        0
 64
     7
 65
   257
 75
     1
175
     1
 42
1.0
 92
        0
 66
     7
 43
1.0
 76
     1
 77
     6
 78
     2
 67
     7
 79
     5
170
     0
171
     0
290
     0
174
     0
 93
       13
 44
0.0
173
     0
291
     1
 45
0.0
1001
ACAD
1000
AcDbSavedByObjectVersion
1070
     0
  0
VISUALSTYLE
  5
2E
102
{ACAD_REACTORS
330
2A
102
}
102
{ACAD_XDICTIONARY
360
3E4
102
}
330
2A
100
AcDbVisualStyle
  2
GouraudWithEdges
 70
     3
 71
     2
 72
     2
 73
     1
 90
        2
 40
0.6
 41
30.0
 62
     5
 63
     7
 74
     1
 91
        0
 64
     7
 65
   257
 75
     1
175
     1
 42
1.0
 92
        0
 66
   257
 43
1.0
 76
     1
 77
     6
 78
     2
 67
     7
 79
     5
170
     0
171
     0
290
     0
174
     0
 93
       13
 44
0.0
173
     0
291
     1
 45
0.0
1001
ACAD
1000
AcDbSavedByObjectVersion
1070
     0
  0
VISUALSTYLE
  5
31
102
{ACAD_REACTORS
330
2A
102
}
102
{ACAD_XDICTIONARY
360
3EA
102
}
330
2A
100
AcDbVisualStyle
  2
Hidden
 70
     6
 71
     1
 72
     2
 73
     2
 90
        0
 40
0.6
 41
30.0
 62
     5
 63
     7
 74
     2
 91
        2
 64
     7
 65
   257
 75
     2
175
     1
 42
40.0
 92
        0
 66
   257
 43
1.0
 76
     1
 77
     6
 78
     2
 67
     7
 79
     3
170
     0
171
     0
290
     0
174
     0
 93
        1
 44
0.0
173
     0
291
     0
 45
0.0
1001
ACAD
1000
AcDbSavedByObjectVersion
1070
     0
  0
VISUALSTYLE
  5
3B
102
{ACAD_REACTORS
330
2A
102
}
102
{ACAD_XDICTIONARY
360
3FE
102
}
330
2A
100
AcDbVisualStyle
  2
JitterOff
 70
    20
 71
     2
 72
     2
 73
     0
 90
        0
 40
0.6
 41
30.0
 62
     5
 63
     7
 74
     1
 91
        4
 64
     7
 65
   257
 75
     1
175
     1
 42
1.0
 92
       10
 66
     7
 43
1.0
 76
     1
 77
     6
 78
     2
 67
     7
 79
     5
170
     0
171
     0
290
     0
174
     0
 93
        1
 44
0.0
173
     0
291
     1
 45
0.0
1001
ACAD
1000
AcDbSavedByObjectVersion
1070
     0
  0
VISUALSTYLE
  5
38
102
{ACAD_REACTORS
330
2A
102
}
102
{ACAD_XDICTIONARY
360
3F8
102
}
330
2A
100
AcDbVisualStyle
  2
Linepattern
 70
    14
 71
     2
 72
     2
 73
     0
 90
        0
 40
0.6
 41
30.0
 62
     5
 63
     7
 74
     1
 91
        4
 64
     7
 65
   257
 75
     7
175
     7
 42
1.0
 92
        8
 66
     7
 43
1.0
 76
     1
 77
     6
 78
     2
 67
     7
 79
     5
170
     0
171
     0
290
     0
174
     0
 93
        1
 44
0.0
173
     0
291
     1
 45
0.0
1001
ACAD
1000
AcDbSavedByObjectVersion
1070
     0
  0
VISUALSTYLE
  5
3C
102
{ACAD_REACTORS
330
2A
102
}
102
{ACAD_XDICTIONARY
360
400
102
}
330
2A
100
AcDbVisualStyle
  2
OverhangOff
 70
    21
 71
     2
 72
     2
 73
     0
 90
        0
 40
0.6
 41
30.0
 62
     5
 63
     7
 74
     1
 91
        4
 64
     7
 65
   257
 75
     1
175
     1
 42
1.0
 92
        9
 66
     7
 43
1.0
 76
     1
 77
     6
 78
     2
 67
     7
 79
     5
170
     0
171
     0
290
     0
174
     0
 93
        1
 44
0.0
173
     0
291
     1
 45
0.0
1001
ACAD
1000
AcDbSavedByObjectVersion
1070
     0
  0
VISUALSTYLE
  5
33
102
{ACAD_REACTORS
330
2A
102
}
102
{ACAD_XDICTIONARY
360
3EE
102
}
330
2A
100
AcDbVisualStyle
  2
Realistic
 70
     8
 71
     2
 72
     3
 73
     0
 90
        2
 40
0.6
 41
30.0
 62
     5
 63
     7
 74
     0
 91
        0
 64
     7
 65
   257
 75
     1
175
     1
 42
1.0
 92
        8
 66
   257
 43
1.0
 76
     1
 77
     6
 78
     2
 67
     7
 79
     3
170
     0
171
     0
290
     0
174
     0
 93
       13
 44
0.0
173
     0
291
     0
 45
0.0
1001
ACAD
1000
AcDbSavedByObjectVersion
1070
     0
  0
VISUALSTYLE
  5
42
102
{ACAD_REACTORS
330
2A
102
}
102
{ACAD_XDICTIONARY
360
40C
102
}
330
2A
100
AcDbVisualStyle
  2
Shaded
 70
    27
 71
     2
 72
     2
 73
     1
 90
        2
 40
0.6
 41
30.0
 62
     5
 63
     7
 74
     0
 91
        4
 64
     7
 65
   257
 75
     1
175
     1
 42
1.0
 92
        8
 66
   257
 43
1.0
 76
     1
 77
     6
 78
     2
 67
     8
 79
     3
170
     0
171
     0
290
     0
174
     0
 93
        5
 44
0.0
173
     0
291
     0
 45
0.0
1001
ACAD
1000
AcDbSavedByObjectVersion
1070
     0
  0
VISUALSTYLE
  5
41
102
{ACAD_REACTORS
330
2A
102
}
102
{ACAD_XDICTIONARY
360
40A
102
}
330
2A
100
AcDbVisualStyle
  2
Shaded with edges
 70
    26
 71
     2
 72
     2
 73
     1
 90
        2
 40
0.6
 41
30.0
 62
     5
 63
     7
 74
     1
 91
       10
 64
     7
 65
   257
 75
     2
175
     1
 42
1.0
 92
        8
 66
   257
 43
1.0
 76
     1
 77
     6
 78
     2
 67
     7
 79
     3
170
     0
171
     0
290
     0
174
     0
 93
        5
 44
0.0
173
     0
291
     0
 45
0.0
1001
ACAD
1000
AcDbSavedByObjectVersion
1070
     0
  0
VISUALSTYLE
  5
3E
102
{ACAD_REACTORS
330
2A
102
}
102
{ACAD_XDICTIONARY
360
404
102
}
330
2A
100
AcDbVisualStyle
  2
Shades of Gray
 70
    23
 71
     2
 72
     2
 73
     3
 90
        0
 40
0.6
 41
30.0
 62
     5
 63
     7
 74
     2
 91
        2
 64
     7
 65
     7
 75
     1
175
     1
 42
40.0
 92
        8
 66
     7
 43
1.0
 76
     1
 77
     6
 78
     2
 67
     7
 79
     3
170
     0
171
     0
290
     0
174
     0
 93
        1
 44
0.0
173
     0
291
     0
 45
0.0
1001
ACAD
1000
AcDbSavedByObjectVersion
1070
     0
  0
VISUALSTYLE
  5
3F
102
{ACAD_REACTORS
330
2A
102
}
102
{ACAD_XDICTIONARY
360
406
102
}
330
2A
100
AcDbVisualStyle
  2
Sketchy
 70
    24
 71
     1
 72
     2
 73
     2
 90
        0
 40
0.6
 41
30.0
 62
     5
 63
     7
 74
     2
 91
        2
 64
     7
 65
     7
 75
     1
175
     1
 42
40.0
 92
       11
 66
     7
 43
1.0
 76
     1
 77
     6
 78
     2
 67
     7
 79
     6
170
     0
171
     0
290
     0
174
     0
 93
        1
 44
0.0
173
     0
291
     0
 45
0.0
1001
ACAD
1000
AcDbSavedByObjectVersion
1070
     0
  0
VISUALSTYLE
  5
37
102
{ACAD_REACTORS
330
2A
102
}
102
{ACAD_XDICTIONARY
360
3F6
102
}
330
2A
100
AcDbVisualStyle
  2
Thicken
 70
    13
 71
     2
 72
     2
 73
     0
 90
        0
 40
0.6
 41
30.0
 62
     5
 63
     7
 74
     1
 91
        4
 64
     7
 65
   257
 75
     1
175
     1
 42
1.0
 92
       12
 66
     7
 43
1.0
 76
     1
 77
     6
 78
     2
 67
     7
 79
     5
170
     0
171
     0
290
     0
174
     0
 93
        1
 44
0.0
173
     0
291
     1
 45
0.0
1001
ACAD
1000
AcDbSavedByObjectVersion
1070
     0
  0
VISUALSTYLE
  5
30
102
{ACAD_REACTORS
330
2A
102
}
102
{ACAD_XDICTIONARY
360
3E8
102
}
330
2A
100
AcDbVisualStyle
  2
Wireframe
 70
     5
 71
     0
 72
     2
 73
     0
 90
        0
 40
0.6
 41
30.0
 62
     5
 63
     7
 74
     1
 91
        4
 64
     7
 65
   257
 75
     1
175
     1
 42
1.0
 92
        0
 66
   257
 43
1.0
 76
     1
 77
     6
 78
     2
 67
     7
 79
     3
170
     0
171
     0
290
     0
174
     0
 93
        1
 44
0.0
173
     0
291
     0
 45
0.0
1001
ACAD
1000
AcDbSavedByObjectVersion
1070
     0
  0
VISUALSTYLE
  5
40
102
{ACAD_REACTORS
330
2A
102
}
102
{ACAD_XDICTIONARY
360
408
102
}
330
2A
100
AcDbVisualStyle
  2
X-Ray
 70
    25
 71
     2
 72
     2
 73
     1
 90
        1
 40
0.5
 41
30.0
 62
     5
 63
     7
 74
     1
 91
        0
 64
     7
 65
   257
 75
     1
175
     1
 42
1.0
 92
        8
 66
     7
 43
1.0
 76
     1
 77
     6
 78
     2
 67
     7
 79
     3
170
     0
171
     0
290
     0
174
     0
 93
       13
 44
0.0
173
     0
291
     0
 45
0.0
1001
ACAD
1000
AcDbSavedByObjectVersion
1070
     0
  0
DICTIONARYVAR
  5
3DC
102
{ACAD_REACTORS
330
3D3
102
}
330
3D3
100
DictionaryVariables
280
     0
  1
1:1
  0
DICTIONARYVAR
  5
3D5
102
{ACAD_REACTORS
330
3D3
102
}
330
3D3
100
DictionaryVariables
280
     0
  1
Standard
  0
DICTIONARYVAR
  5
3D4
102
{ACAD_REACTORS
330
3D3
102
}
330
3D3
100
DictionaryVariables
280
     0
  1
Standard
  0
DICTIONARYVAR
  5
3D8
102
{ACAD_REACTORS
330
3D3
102
}
330
3D3
100
DictionaryVariables
280
     0
  1
2
  0
DICTIONARYVAR
  5
3D9
102
{ACAD_REACTORS
330
3D3
102
}
330
3D3
100
DictionaryVariables
280
     0
  1
1
  0
DICTIONARYVAR
  5
3DD
102
{ACAD_REACTORS
330
3D3
102
}
330
3D3
100
DictionaryVariables
280
     0
  1
1
  0
DICTIONARY
  5
410
330
45
100
AcDbDictionary
280
     1
281
     1
  3
ACAD_XREC_ROUNDTRIP
360
411
  0
DICTIONARY
  5
40E
330
44
100
AcDbDictionary
280
     1
281
     1
  3
ACAD_XREC_ROUNDTRIP
360
40F
  0
DICTIONARY
  5
412
330
46
100
AcDbDictionary
280
     1
281
     1
  3
ACAD_XREC_ROUNDTRIP
360
413
  0
DICTIONARY
  5
415
330
6C
100
AcDbDictionary
280
     1
281
     1
  3
ACAD_XREC_ROUNDTRIP
360
416
  0
DICTIONARY
  5
3E6
330
2F
100
AcDbDictionary
280
     1
281
     1
  3
ACAD_XREC_ROUNDTRIP
360
3E7
  0
DICTIONARY
  5
3EC
330
32
100
AcDbDictionary
280
     1
281
     1
  3
ACAD_XREC_ROUNDTRIP
360
3ED
  0
DICTIONARY
  5
3F4
330
36
100
AcDbDictionary
280
     1
281
     1
  3
ACAD_XREC_ROUNDTRIP
360
3F5
  0
DICTIONARY
  5
3FC
330
3A
100
AcDbDictionary
280
     1
281
     1
  3
ACAD_XREC_ROUNDTRIP
360
3FD
  0
DICTIONARY
  5
3F0
330
34
100
AcDbDictionary
280
     1
281
     1
  3
ACAD_XREC_ROUNDTRIP
360
3F1
  0
DICTIONARY
  5
3F2
330
35
100
AcDbDictionary
280
     1
281
     1
  3
ACAD_XREC_ROUNDTRIP
360
3F3
  0
DICTIONARY
  5
402
330
3D
100
AcDbDictionary
280
     1
281
     1
  3
ACAD_XREC_ROUNDTRIP
360
403
  0
DICTIONARY
  5
3FA
330
39
100
AcDbDictionary
280
     1
281
     1
  3
ACAD_XREC_ROUNDTRIP
360
3FB
  0
DICTIONARY
  5
3DE
330
2B
100
AcDbDictionary
280
     1
281
     1
  3
ACAD_XREC_ROUNDTRIP
360
3DF
  0
DICTIONARY
  5
3E0
330
2C
100
AcDbDictionary
280
     1
281
     1
  3
ACAD_XREC_ROUNDTRIP
360
3E1
  0
DICTIONARY
  5
3E2
330
2D
100
AcDbDictionary
280
     1
281
     1
  3
ACAD_XREC_ROUNDTRIP
360
3E3
  0
DICTIONARY
  5
3E4
330
2E
100
AcDbDictionary
280
     1
281
     1
  3
ACAD_XREC_ROUNDTRIP
360
3E5
  0
DICTIONARY
  5
3EA
330
31
100
AcDbDictionary
280
     1
281
     1
  3
ACAD_XREC_ROUNDTRIP
360
3EB
  0
DICTIONARY
  5
3FE
330
3B
100
AcDbDictionary
280
     1
281
     1
  3
ACAD_XREC_ROUNDTRIP
360
3FF
  0
DICTIONARY
  5
3F8
330
38
100
AcDbDictionary
280
     1
281
     1
  3
ACAD_XREC_ROUNDTRIP
360
3F9
  0
DICTIONARY
  5
400
330
3C
100
AcDbDictionary
280
     1
281
     1
  3
ACAD_XREC_ROUNDTRIP
360
401
  0
DICTIONARY
  5
3EE
330
33
100
AcDbDictionary
280
     1
281
     1
  3
ACAD_XREC_ROUNDTRIP
360
3EF
  0
DICTIONARY
  5
40C
330
42
100
AcDbDictionary
280
     1
281
     1
  3
ACAD_XREC_ROUNDTRIP
360
40D
  0
DICTIONARY
  5
40A
330
41
100
AcDbDictionary
280
     1
281
     1
  3
ACAD_XREC_ROUNDTRIP
360
40B
  0
DICTIONARY
  5
404
330
3E
100
AcDbDictionary
280
     1
281
     1
  3
ACAD_XREC_ROUNDTRIP
360
405
  0
DICTIONARY
  5
406
330
3F
100
AcDbDictionary
280
     1
281
     1
  3
ACAD_XREC_ROUNDTRIP
360
407
  0
DICTIONARY
  5
3F6
330
37
100
AcDbDictionary
280
     1
281
     1
  3
ACAD_XREC_ROUNDTRIP
360
3F7
  0
DICTIONARY
  5
3E8
330
30
100
AcDbDictionary
280
     1
281
     1
  3
ACAD_XREC_ROUNDTRIP
360
3E9
  0
DICTIONARY
  5
408
330
40
100
AcDbDictionary
280
     1
281
     1
  3
ACAD_XREC_ROUNDTRIP
360
409
  0
XRECORD
  5
411
102
{ACAD_REACTORS
330
410
102
}
330
410
100
AcDbXrecord
280
     1
102
MATERIAL
148
0.0
149
0.0
149
0.0
 93
        0
 94
      127
282
     0
 72
     1
 77
     1
171
     1
175
     1
179
     1
273
     0
  0
XRECORD
  5
40F
102
{ACAD_REACTORS
330
40E
102
}
330
40E
100
AcDbXrecord
280
     1
102
MATERIAL
148
0.0
149
0.0
149
0.0
 93
        0
 94
      127
282
     0
 72
     1
 77
     1
171
     1
175
     1
179
     1
273
     0
  0
XRECORD
  5
413
102
{ACAD_REACTORS
330
412
102
}
330
412
100
AcDbXrecord
280
     1
102
MATERIAL
148
0.0
149
0.0
149
0.0
 93
        0
 94
      127
282
     0
 72
     1
 77
     1
171
     1
175
     1
179
     1
273
     0
  0
XRECORD
  5
416
102
{ACAD_REACTORS
330
415
102
}
330
415
100
AcDbXrecord
280
     1
102
ACAD_ROUNDTRIP_2010_MLEADER_STYLE
  0
XRECORD
  5
3E7
102
{ACAD_REACTORS
330
3E6
102
}
330
3E6
100
AcDbXrecord
280
     1
102
RTVSPropertyOp0
 70
     1
102
RTVSPropertyOp1
 70
     1
102
RTVSPropertyOp2
 70
     1
102
RTVSPropertyOp3
 70
     1
102
RTVSPropertyOp4
 70
     1
102
RTVSPropertyOp5
 70
     1
102
RTVSPropertyOp6
 70
     1
102
RTVSPropertyOp7
 70
     1
102
RTVSPropertyOp8
 70
     1
102
RTVSPropertyOp9
 70
     1
102
RTVSPropertyOp10
 70
     1
102
RTVSPropertyOp11
 70
     1
102
RTVSPropertyOp12
 70
     1
102
RTVSPropertyOp13
 70
     1
102
RTVSPropertyOp14
 70
     1
102
RTVSPropertyOp15
 70
     1
102
RTVSPropertyOp16
 70
     1
102
RTVSPropertyOp17
 70
     1
102
RTVSPropertyOp18
 70
     1
102
RTVSPropertyOp19
 70
     1
102
RTVSPropertyOp20
 70
     1
102
RTVSPropertyOp21
 70
     1
102
RTVSPropertyOp22
 70
     1
102
RTVSPropertyOp23
 70
     1
102
RTVSPropertyOp24
 70
     1
102
RTVSPropertyOp25
 70
     1
102
RTVSPropertyOp26
 70
     1
102
RTVSPropertyOp27
 70
     1
102
RTVSPropertyOp28
 70
     1
102
RTVSPropertyOp29
 70
     1
102
RTVSPropertyOp30
 70
     1
102
RTVSPropertyOp31
 70
     1
102
RTVSPropertyOp32
 70
     1
102
RTVSPropertyOp33
 70
     1
102
RTVSPropertyOp34
 70
     1
102
RTVSPropertyOp35
 70
     1
102
RTVSPropertyOp36
 70
     1
102
RTVSPropertyOp37
 70
     1
102
RTVSPropertyOp38
 70
     1
102
RTVSPropertyOp39
 70
     1
102
RTVSPropertyOp40
 70
     1
102
RTVSPropertyOp41
 70
     1
102
RTVSPropertyOp42
 70
     1
102
RTVSPropertyOp43
 70
     1
102
RTVSPropertyOp44
 70
     1
102
RTVSPropertyOp45
 70
     1
102
RTVSPropertyOp46
 70
     1
102
RTVSPropertyOp47
 70
     1
102
RTVSPropertyOp48
 70
     1
102
RTVSPropertyOp49
 70
     1
102
RTVSPropertyOp50
 70
     1
102
RTVSPropertyOp51
 70
     0
102
RTVSPropertyOp52
 70
     0
102
RTVSPropertyOp53
 70
     1
102
RTVSPropertyOp54
 70
     1
102
RTVSPropertyOp55
 70
     1
102
RTVSPropertyOp56
 70
     1
102
RTVSPropertyOp57
 70
     1
102
RTVSPost2010Prop28
280
     1
102
RTVSPost2010PropOp28
 70
     1
102
RTVSPost2010Prop29
280
     1
102
RTVSPost2010PropOp29
 70
     1
102
RTVSPost2010Prop30
280
     0
102
RTVSPost2010PropOp30
 70
     1
102
RTVSPost2010Prop31
280
     0
102
RTVSPost2010PropOp31
 70
     1
102
RTVSPost2010Prop32
280
     0
102
RTVSPost2010PropOp32
 70
     1
102
RTVSPost2010Prop33
280
     0
102
RTVSPost2010PropOp33
 70
     1
102
RTVSPost2010Prop34
280
     0
102
RTVSPost2010PropOp34
 70
     1
102
RTVSPost2010Prop35
280
     0
102
RTVSPost2010PropOp35
 70
     1
102
RTVSPost2010Prop36
280
     0
102
RTVSPost2010PropOp36
 70
     1
102
RTVSPost2010Prop37
 90
       50
102
RTVSPost2010PropOp37
 70
     1
102
RTVSPost2010Prop38
140
0.0
102
RTVSPost2010PropOp38
 70
     1
102
RTVSPost2010Prop39
140
1.0
102
RTVSPost2010PropOp39
 70
     1
102
RTVSPost2010Prop40
 90
        0
102
RTVSPost2010PropOp40
 70
     1
102
RTVSPost2010Prop41ColorIndex
 90
       18
102
RTVSPost2010Prop41ColorRGB
 90
        0
102
RTVSPost2010PropOp41
 70
     1
102
RTVSPost2010Prop42
 90
       50
102
RTVSPost2010PropOp42
 70
     1
102
RTVSPost2010Prop43
 90
        3
102
RTVSPost2010PropOp43
 70
     1
102
RTVSPost2010Prop44ColorIndex
 90
        5
102
RTVSPost2010Prop44ColorRGB
 90
      255
102
RTVSPost2010PropOp44
 70
     1
102
RTVSPost2010Prop45
280
     0
102
RTVSPost2010PropOp45
 70
     1
102
RTVSPost2010Prop46
 90
       50
102
RTVSPost2010PropOp46
 70
     1
102
RTVSPost2010Prop47
 90
       50
102
RTVSPost2010PropOp47
 70
     1
102
RTVSPost2010Prop48
 90
       50
102
RTVSPost2010PropOp48
 70
     1
102
RTVSPost2010Prop49
280
     0
102
RTVSPost2010PropOp49
 70
     1
102
RTVSPost2010Prop50
 90
       50
102
RTVSPost2010PropOp50
 70
     1
102
RTVSPost2010Prop51ColorIndex
 90
      256
102
RTVSPost2010Prop51ColorRGB
 90
-16777216
102
RTVSPost2010PropOp51
 70
     0
102
RTVSPost2010Prop52
140
1.0
102
RTVSPost2010PropOp52
 70
     0
102
RTVSPost2010Prop53
 90
        2
102
RTVSPost2010PropOp53
 70
     1
102
RTVSPost2010Prop54
  1
strokes_ogs.tif
102
RTVSPost2010PropOp54
 70
     1
102
RTVSPost2010Prop55
280
     0
102
RTVSPost2010PropOp55
 70
     1
102
RTVSPost2010Prop56
140
1.0
102
RTVSPost2010PropOp56
 70
     1
102
RTVSPost2010Prop57
140
1.0
102
RTVSPost2010PropOp57
 70
     1
  0
XRECORD
  5
3ED
102
{ACAD_REACTORS
330
3EC
102
}
330
3EC
100
AcDbXrecord
280
     1
102
RTVSPropertyOp0
 70
     1
102
RTVSPropertyOp1
 70
     1
102
RTVSPropertyOp2
 70
     1
102
RTVSPropertyOp3
 70
     1
102
RTVSPropertyOp4
 70
     1
102
RTVSPropertyOp5
 70
     1
102
RTVSPropertyOp6
 70
     1
102
RTVSPropertyOp7
 70
     1
102
RTVSPropertyOp8
 70
     1
102
RTVSPropertyOp9
 70
     1
102
RTVSPropertyOp10
 70
     1
102
RTVSPropertyOp11
 70
     1
102
RTVSPropertyOp12
 70
     1
102
RTVSPropertyOp13
 70
     1
102
RTVSPropertyOp14
 70
     1
102
RTVSPropertyOp15
 70
     1
102
RTVSPropertyOp16
 70
     1
102
RTVSPropertyOp17
 70
     1
102
RTVSPropertyOp18
 70
     1
102
RTVSPropertyOp19
 70
     1
102
RTVSPropertyOp20
 70
     1
102
RTVSPropertyOp21
 70
     1
102
RTVSPropertyOp22
 70
     1
102
RTVSPropertyOp23
 70
     1
102
RTVSPropertyOp24
 70
     1
102
RTVSPropertyOp25
 70
     1
102
RTVSPropertyOp26
 70
     1
102
RTVSPropertyOp27
 70
     1
102
RTVSPropertyOp28
 70
     1
102
RTVSPropertyOp29
 70
     1
102
RTVSPropertyOp30
 70
     1
102
RTVSPropertyOp31
 70
     1
102
RTVSPropertyOp32
 70
     1
102
RTVSPropertyOp33
 70
     1
102
RTVSPropertyOp34
 70
     1
102
RTVSPropertyOp35
 70
     1
102
RTVSPropertyOp36
 70
     1
102
RTVSPropertyOp37
 70
     1
102
RTVSPropertyOp38
 70
     1
102
RTVSPropertyOp39
 70
     1
102
RTVSPropertyOp40
 70
     1
102
RTVSPropertyOp41
 70
     1
102
RTVSPropertyOp42
 70
     1
102
RTVSPropertyOp43
 70
     1
102
RTVSPropertyOp44
 70
     1
102
RTVSPropertyOp45
 70
     1
102
RTVSPropertyOp46
 70
     1
102
RTVSPropertyOp47
 70
     1
102
RTVSPropertyOp48
 70
     1
102
RTVSPropertyOp49
 70
     1
102
RTVSPropertyOp50
 70
     1
102
RTVSPropertyOp51
 70
     0
102
RTVSPropertyOp52
 70
     0
102
RTVSPropertyOp53
 70
     1
102
RTVSPropertyOp54
 70
     1
102
RTVSPropertyOp55
 70
     1
102
RTVSPropertyOp56
 70
     1
102
RTVSPropertyOp57
 70
     1
102
RTVSPost2010Prop28
280
     0
102
RTVSPost2010PropOp28
 70
     1
102
RTVSPost2010Prop29
280
     1
102
RTVSPost2010PropOp29
 70
     1
102
RTVSPost2010Prop30
280
     1
102
RTVSPost2010PropOp30
 70
     1
102
RTVSPost2010Prop31
280
     0
102
RTVSPost2010PropOp31
 70
     1
102
RTVSPost2010Prop32
280
     0
102
RTVSPost2010PropOp32
 70
     1
102
RTVSPost2010Prop33
280
     0
102
RTVSPost2010PropOp33
 70
     1
102
RTVSPost2010Prop34
280
     0
102
RTVSPost2010PropOp34
 70
     1
102
RTVSPost2010Prop35
280
     0
102
RTVSPost2010PropOp35
 70
     1
102
RTVSPost2010Prop36
280
     0
102
RTVSPost2010PropOp36
 70
     1
102
RTVSPost2010Prop37
 90
       50
102
RTVSPost2010PropOp37
 70
     1
102
RTVSPost2010Prop38
140
0.0
102
RTVSPost2010PropOp38
 70
     1
102
RTVSPost2010Prop39
140
1.0
102
RTVSPost2010PropOp39
 70
     1
102
RTVSPost2010Prop40
 90
        0
102
RTVSPost2010PropOp40
 70
     1
102
RTVSPost2010Prop41ColorIndex
 90
       18
102
RTVSPost2010Prop41ColorRGB
 90
        0
102
RTVSPost2010PropOp41
 70
     1
102
RTVSPost2010Prop42
 90
       50
102
RTVSPost2010PropOp42
 70
     1
102
RTVSPost2010Prop43
 90
        3
102
RTVSPost2010PropOp43
 70
     1
102
RTVSPost2010Prop44ColorIndex
 90
        5
102
RTVSPost2010Prop44ColorRGB
 90
      255
102
RTVSPost2010PropOp44
 70
     1
102
RTVSPost2010Prop45
280
     0
102
RTVSPost2010PropOp45
 70
     1
102
RTVSPost2010Prop46
 90
       50
102
RTVSPost2010PropOp46
 70
     1
102
RTVSPost2010Prop47
 90
       50
102
RTVSPost2010PropOp47
 70
     1
102
RTVSPost2010Prop48
 90
       50
102
RTVSPost2010PropOp48
 70
     1
102
RTVSPost2010Prop49
280
     0
102
RTVSPost2010PropOp49
 70
     1
102
RTVSPost2010Prop50
 90
       50
102
RTVSPost2010PropOp50
 70
     1
102
RTVSPost2010Prop51ColorIndex
 90
      256
102
RTVSPost2010Prop51ColorRGB
 90
-16777216
102
RTVSPost2010PropOp51
 70
     0
102
RTVSPost2010Prop52
140
1.0
102
RTVSPost2010PropOp52
 70
     0
102
RTVSPost2010Prop53
 90
        2
102
RTVSPost2010PropOp53
 70
     1
102
RTVSPost2010Prop54
  1
strokes_ogs.tif
102
RTVSPost2010PropOp54
 70
     1
102
RTVSPost2010Prop55
280
     0
102
RTVSPost2010PropOp55
 70
     1
102
RTVSPost2010Prop56
140
1.0
102
RTVSPost2010PropOp56
 70
     1
102
RTVSPost2010Prop57
140
1.0
102
RTVSPost2010PropOp57
 70
     1
  0
XRECORD
  5
3F5
102
{ACAD_REACTORS
330
3F4
102
}
330
3F4
100
AcDbXrecord
280
     1
102
RTVSPropertyOp0
 70
     1
102
RTVSPropertyOp1
 70
     1
102
RTVSPropertyOp2
 70
     1
102
RTVSPropertyOp3
 70
     1
102
RTVSPropertyOp4
 70
     1
102
RTVSPropertyOp5
 70
     1
102
RTVSPropertyOp6
 70
     1
102
RTVSPropertyOp7
 70
     1
102
RTVSPropertyOp8
 70
     1
102
RTVSPropertyOp9
 70
     1
102
RTVSPropertyOp10
 70
     1
102
RTVSPropertyOp11
 70
     1
102
RTVSPropertyOp12
 70
     1
102
RTVSPropertyOp13
 70
     1
102
RTVSPropertyOp14
 70
     1
102
RTVSPropertyOp15
 70
     1
102
RTVSPropertyOp16
 70
     1
102
RTVSPropertyOp17
 70
     1
102
RTVSPropertyOp18
 70
     1
102
RTVSPropertyOp19
 70
     1
102
RTVSPropertyOp20
 70
     1
102
RTVSPropertyOp21
 70
     1
102
RTVSPropertyOp22
 70
     1
102
RTVSPropertyOp23
 70
     1
102
RTVSPropertyOp24
 70
     1
102
RTVSPropertyOp25
 70
     1
102
RTVSPropertyOp26
 70
     1
102
RTVSPropertyOp27
 70
     1
102
RTVSPropertyOp28
 70
     1
102
RTVSPropertyOp29
 70
     1
102
RTVSPropertyOp30
 70
     1
102
RTVSPropertyOp31
 70
     1
102
RTVSPropertyOp32
 70
     1
102
RTVSPropertyOp33
 70
     1
102
RTVSPropertyOp34
 70
     1
102
RTVSPropertyOp35
 70
     1
102
RTVSPropertyOp36
 70
     1
102
RTVSPropertyOp37
 70
     1
102
RTVSPropertyOp38
 70
     1
102
RTVSPropertyOp39
 70
     1
102
RTVSPropertyOp40
 70
     1
102
RTVSPropertyOp41
 70
     1
102
RTVSPropertyOp42
 70
     1
102
RTVSPropertyOp43
 70
     1
102
RTVSPropertyOp44
 70
     1
102
RTVSPropertyOp45
 70
     1
102
RTVSPropertyOp46
 70
     1
102
RTVSPropertyOp47
 70
     1
102
RTVSPropertyOp48
 70
     1
102
RTVSPropertyOp49
 70
     1
102
RTVSPropertyOp50
 70
     1
102
RTVSPropertyOp51
 70
     0
102
RTVSPropertyOp52
 70
     0
102
RTVSPropertyOp53
 70
     1
102
RTVSPropertyOp54
 70
     1
102
RTVSPropertyOp55
 70
     1
102
RTVSPropertyOp56
 70
     1
102
RTVSPropertyOp57
 70
     1
102
RTVSPost2010Prop28
280
     0
102
RTVSPost2010PropOp28
 70
     1
102
RTVSPost2010Prop29
280
     1
102
RTVSPost2010PropOp29
 70
     1
102
RTVSPost2010Prop30
280
     1
102
RTVSPost2010PropOp30
 70
     1
102
RTVSPost2010Prop31
280
     0
102
RTVSPost2010PropOp31
 70
     1
102
RTVSPost2010Prop32
280
     0
102
RTVSPost2010PropOp32
 70
     1
102
RTVSPost2010Prop33
280
     0
102
RTVSPost2010PropOp33
 70
     1
102
RTVSPost2010Prop34
280
     0
102
RTVSPost2010PropOp34
 70
     1
102
RTVSPost2010Prop35
280
     0
102
RTVSPost2010PropOp35
 70
     1
102
RTVSPost2010Prop36
280
     0
102
RTVSPost2010PropOp36
 70
     1
102
RTVSPost2010Prop37
 90
       50
102
RTVSPost2010PropOp37
 70
     1
102
RTVSPost2010Prop38
140
0.0
102
RTVSPost2010PropOp38
 70
     1
102
RTVSPost2010Prop39
140
1.0
102
RTVSPost2010PropOp39
 70
     1
102
RTVSPost2010Prop40
 90
        0
102
RTVSPost2010PropOp40
 70
     1
102
RTVSPost2010Prop41ColorIndex
 90
       18
102
RTVSPost2010Prop41ColorRGB
 90
        0
102
RTVSPost2010PropOp41
 70
     1
102
RTVSPost2010Prop42
 90
       50
102
RTVSPost2010PropOp42
 70
     1
102
RTVSPost2010Prop43
 90
        3
102
RTVSPost2010PropOp43
 70
     1
102
RTVSPost2010Prop44ColorIndex
 90
        5
102
RTVSPost2010Prop44ColorRGB
 90
      255
102
RTVSPost2010PropOp44
 70
     1
102
RTVSPost2010Prop45
280
     0
102
RTVSPost2010PropOp45
 70
     1
102
RTVSPost2010Prop46
 90
       50
102
RTVSPost2010PropOp46
 70
     1
102
RTVSPost2010Prop47
 90
       50
102
RTVSPost2010PropOp47
 70
     1
102
RTVSPost2010Prop48
 90
       50
102
RTVSPost2010PropOp48
 70
     1
102
RTVSPost2010Prop49
280
     0
102
RTVSPost2010PropOp49
 70
     1
102
RTVSPost2010Prop50
 90
       50
102
RTVSPost2010PropOp50
 70
     1
102
RTVSPost2010Prop51ColorIndex
 90
      256
102
RTVSPost2010Prop51ColorRGB
 90
-16777216
102
RTVSPost2010PropOp51
 70
     0
102
RTVSPost2010Prop52
140
1.0
102
RTVSPost2010PropOp52
 70
     0
102
RTVSPost2010Prop53
 90
        2
102
RTVSPost2010PropOp53
 70
     1
102
RTVSPost2010Prop54
  1
strokes_ogs.tif
102
RTVSPost2010PropOp54
 70
     1
102
RTVSPost2010Prop55
280
     0
102
RTVSPost2010PropOp55
 70
     1
102
RTVSPost2010Prop56
140
1.0
102
RTVSPost2010PropOp56
 70
     1
102
RTVSPost2010Prop57
140
1.0
102
RTVSPost2010PropOp57
 70
     1
  0
XRECORD
  5
3FD
102
{ACAD_REACTORS
330
3FC
102
}
330
3FC
100
AcDbXrecord
280
     1
102
RTVSPropertyOp0
 70
     1
102
RTVSPropertyOp1
 70
     1
102
RTVSPropertyOp2
 70
     1
102
RTVSPropertyOp3
 70
     1
102
RTVSPropertyOp4
 70
     1
102
RTVSPropertyOp5
 70
     1
102
RTVSPropertyOp6
 70
     1
102
RTVSPropertyOp7
 70
     1
102
RTVSPropertyOp8
 70
     1
102
RTVSPropertyOp9
 70
     1
102
RTVSPropertyOp10
 70
     1
102
RTVSPropertyOp11
 70
     1
102
RTVSPropertyOp12
 70
     1
102
RTVSPropertyOp13
 70
     1
102
RTVSPropertyOp14
 70
     1
102
RTVSPropertyOp15
 70
     1
102
RTVSPropertyOp16
 70
     1
102
RTVSPropertyOp17
 70
     1
102
RTVSPropertyOp18
 70
     1
102
RTVSPropertyOp19
 70
     1
102
RTVSPropertyOp20
 70
     1
102
RTVSPropertyOp21
 70
     1
102
RTVSPropertyOp22
 70
     1
102
RTVSPropertyOp23
 70
     1
102
RTVSPropertyOp24
 70
     1
102
RTVSPropertyOp25
 70
     1
102
RTVSPropertyOp26
 70
     1
102
RTVSPropertyOp27
 70
     1
102
RTVSPropertyOp28
 70
     1
102
RTVSPropertyOp29
 70
     1
102
RTVSPropertyOp30
 70
     1
102
RTVSPropertyOp31
 70
     1
102
RTVSPropertyOp32
 70
     1
102
RTVSPropertyOp33
 70
     1
102
RTVSPropertyOp34
 70
     1
102
RTVSPropertyOp35
 70
     1
102
RTVSPropertyOp36
 70
     1
102
RTVSPropertyOp37
 70
     1
102
RTVSPropertyOp38
 70
     1
102
RTVSPropertyOp39
 70
     1
102
RTVSPropertyOp40
 70
     1
102
RTVSPropertyOp41
 70
     1
102
RTVSPropertyOp42
 70
     1
102
RTVSPropertyOp43
 70
     1
102
RTVSPropertyOp44
 70
     1
102
RTVSPropertyOp45
 70
     1
102
RTVSPropertyOp46
 70
     1
102
RTVSPropertyOp47
 70
     1
102
RTVSPropertyOp48
 70
     1
102
RTVSPropertyOp49
 70
     1
102
RTVSPropertyOp50
 70
     1
102
RTVSPropertyOp51
 70
     0
102
RTVSPropertyOp52
 70
     0
102
RTVSPropertyOp53
 70
     1
102
RTVSPropertyOp54
 70
     1
102
RTVSPropertyOp55
 70
     1
102
RTVSPropertyOp56
 70
     1
102
RTVSPropertyOp57
 70
     1
102
RTVSPost2010Prop28
280
     0
102
RTVSPost2010PropOp28
 70
     1
102
RTVSPost2010Prop29
280
     1
102
RTVSPost2010PropOp29
 70
     1
102
RTVSPost2010Prop30
280
     1
102
RTVSPost2010PropOp30
 70
     1
102
RTVSPost2010Prop31
280
     0
102
RTVSPost2010PropOp31
 70
     1
102
RTVSPost2010Prop32
280
     0
102
RTVSPost2010PropOp32
 70
     1
102
RTVSPost2010Prop33
280
     0
102
RTVSPost2010PropOp33
 70
     1
102
RTVSPost2010Prop34
280
     0
102
RTVSPost2010PropOp34
 70
     1
102
RTVSPost2010Prop35
280
     0
102
RTVSPost2010PropOp35
 70
     1
102
RTVSPost2010Prop36
280
     0
102
RTVSPost2010PropOp36
 70
     1
102
RTVSPost2010Prop37
 90
       50
102
RTVSPost2010PropOp37
 70
     1
102
RTVSPost2010Prop38
140
0.0
102
RTVSPost2010PropOp38
 70
     1
102
RTVSPost2010Prop39
140
1.0
102
RTVSPost2010PropOp39
 70
     1
102
RTVSPost2010Prop40
 90
        0
102
RTVSPost2010PropOp40
 70
     1
102
RTVSPost2010Prop41ColorIndex
 90
       18
102
RTVSPost2010Prop41ColorRGB
 90
        0
102
RTVSPost2010PropOp41
 70
     1
102
RTVSPost2010Prop42
 90
       50
102
RTVSPost2010PropOp42
 70
     1
102
RTVSPost2010Prop43
 90
        3
102
RTVSPost2010PropOp43
 70
     1
102
RTVSPost2010Prop44ColorIndex
 90
        5
102
RTVSPost2010Prop44ColorRGB
 90
      255
102
RTVSPost2010PropOp44
 70
     1
102
RTVSPost2010Prop45
280
     0
102
RTVSPost2010PropOp45
 70
     1
102
RTVSPost2010Prop46
 90
       50
102
RTVSPost2010PropOp46
 70
     1
102
RTVSPost2010Prop47
 90
       50
102
RTVSPost2010PropOp47
 70
     1
102
RTVSPost2010Prop48
 90
       50
102
RTVSPost2010PropOp48
 70
     1
102
RTVSPost2010Prop49
280
     0
102
RTVSPost2010PropOp49
 70
     1
102
RTVSPost2010Prop50
 90
       50
102
RTVSPost2010PropOp50
 70
     1
102
RTVSPost2010Prop51ColorIndex
 90
      256
102
RTVSPost2010Prop51ColorRGB
 90
-16777216
102
RTVSPost2010PropOp51
 70
     0
102
RTVSPost2010Prop52
140
1.0
102
RTVSPost2010PropOp52
 70
     0
102
RTVSPost2010Prop53
 90
        2
102
RTVSPost2010PropOp53
 70
     1
102
RTVSPost2010Prop54
  1
strokes_ogs.tif
102
RTVSPost2010PropOp54
 70
     1
102
RTVSPost2010Prop55
280
     0
102
RTVSPost2010PropOp55
 70
     1
102
RTVSPost2010Prop56
140
1.0
102
RTVSPost2010PropOp56
 70
     1
102
RTVSPost2010Prop57
140
1.0
102
RTVSPost2010PropOp57
 70
     1
  0
XRECORD
  5
3F1
102
{ACAD_REACTORS
330
3F0
102
}
330
3F0
100
AcDbXrecord
280
     1
102
RTVSPropertyOp0
 70
     1
102
RTVSPropertyOp1
 70
     1
102
RTVSPropertyOp2
 70
     1
102
RTVSPropertyOp3
 70
     1
102
RTVSPropertyOp4
 70
     1
102
RTVSPropertyOp5
 70
     1
102
RTVSPropertyOp6
 70
     1
102
RTVSPropertyOp7
 70
     1
102
RTVSPropertyOp8
 70
     1
102
RTVSPropertyOp9
 70
     1
102
RTVSPropertyOp10
 70
     1
102
RTVSPropertyOp11
 70
     1
102
RTVSPropertyOp12
 70
     1
102
RTVSPropertyOp13
 70
     1
102
RTVSPropertyOp14
 70
     1
102
RTVSPropertyOp15
 70
     1
102
RTVSPropertyOp16
 70
     1
102
RTVSPropertyOp17
 70
     1
102
RTVSPropertyOp18
 70
     1
102
RTVSPropertyOp19
 70
     1
102
RTVSPropertyOp20
 70
     1
102
RTVSPropertyOp21
 70
     1
102
RTVSPropertyOp22
 70
     1
102
RTVSPropertyOp23
 70
     1
102
RTVSPropertyOp24
 70
     1
102
RTVSPropertyOp25
 70
     1
102
RTVSPropertyOp26
 70
     1
102
RTVSPropertyOp27
 70
     1
102
RTVSPropertyOp28
 70
     1
102
RTVSPropertyOp29
 70
     1
102
RTVSPropertyOp30
 70
     1
102
RTVSPropertyOp31
 70
     1
102
RTVSPropertyOp32
 70
     1
102
RTVSPropertyOp33
 70
     1
102
RTVSPropertyOp34
 70
     1
102
RTVSPropertyOp35
 70
     1
102
RTVSPropertyOp36
 70
     1
102
RTVSPropertyOp37
 70
     1
102
RTVSPropertyOp38
 70
     1
102
RTVSPropertyOp39
 70
     1
102
RTVSPropertyOp40
 70
     1
102
RTVSPropertyOp41
 70
     1
102
RTVSPropertyOp42
 70
     1
102
RTVSPropertyOp43
 70
     1
102
RTVSPropertyOp44
 70
     1
102
RTVSPropertyOp45
 70
     1
102
RTVSPropertyOp46
 70
     1
102
RTVSPropertyOp47
 70
     1
102
RTVSPropertyOp48
 70
     1
102
RTVSPropertyOp49
 70
     1
102
RTVSPropertyOp50
 70
     1
102
RTVSPropertyOp51
 70
     0
102
RTVSPropertyOp52
 70
     0
102
RTVSPropertyOp53
 70
     1
102
RTVSPropertyOp54
 70
     1
102
RTVSPropertyOp55
 70
     1
102
RTVSPropertyOp56
 70
     1
102
RTVSPropertyOp57
 70
     1
102
RTVSPost2010Prop28
280
     0
102
RTVSPost2010PropOp28
 70
     1
102
RTVSPost2010Prop29
280
     1
102
RTVSPost2010PropOp29
 70
     1
102
RTVSPost2010Prop30
280
     1
102
RTVSPost2010PropOp30
 70
     1
102
RTVSPost2010Prop31
280
     0
102
RTVSPost2010PropOp31
 70
     1
102
RTVSPost2010Prop32
280
     0
102
RTVSPost2010PropOp32
 70
     1
102
RTVSPost2010Prop33
280
     0
102
RTVSPost2010PropOp33
 70
     1
102
RTVSPost2010Prop34
280
     0
102
RTVSPost2010PropOp34
 70
     1
102
RTVSPost2010Prop35
280
     0
102
RTVSPost2010PropOp35
 70
     1
102
RTVSPost2010Prop36
280
     0
102
RTVSPost2010PropOp36
 70
     1
102
RTVSPost2010Prop37
 90
       50
102
RTVSPost2010PropOp37
 70
     1
102
RTVSPost2010Prop38
140
0.0
102
RTVSPost2010PropOp38
 70
     1
102
RTVSPost2010Prop39
140
1.0
102
RTVSPost2010PropOp39
 70
     1
102
RTVSPost2010Prop40
 90
        0
102
RTVSPost2010PropOp40
 70
     1
102
RTVSPost2010Prop41ColorIndex
 90
       18
102
RTVSPost2010Prop41ColorRGB
 90
        0
102
RTVSPost2010PropOp41
 70
     1
102
RTVSPost2010Prop42
 90
       50
102
RTVSPost2010PropOp42
 70
     1
102
RTVSPost2010Prop43
 90
        3
102
RTVSPost2010PropOp43
 70
     1
102
RTVSPost2010Prop44ColorIndex
 90
        5
102
RTVSPost2010Prop44ColorRGB
 90
      255
102
RTVSPost2010PropOp44
 70
     1
102
RTVSPost2010Prop45
280
     0
102
RTVSPost2010PropOp45
 70
     1
102
RTVSPost2010Prop46
 90
       50
102
RTVSPost2010PropOp46
 70
     1
102
RTVSPost2010Prop47
 90
       50
102
RTVSPost2010PropOp47
 70
     1
102
RTVSPost2010Prop48
 90
       50
102
RTVSPost2010PropOp48
 70
     1
102
RTVSPost2010Prop49
280
     0
102
RTVSPost2010PropOp49
 70
     1
102
RTVSPost2010Prop50
 90
       50
102
RTVSPost2010PropOp50
 70
     1
102
RTVSPost2010Prop51ColorIndex
 90
      256
102
RTVSPost2010Prop51ColorRGB
 90
-16777216
102
RTVSPost2010PropOp51
 70
     0
102
RTVSPost2010Prop52
140
1.0
102
RTVSPost2010PropOp52
 70
     0
102
RTVSPost2010Prop53
 90
        2
102
RTVSPost2010PropOp53
 70
     1
102
RTVSPost2010Prop54
  1
strokes_ogs.tif
102
RTVSPost2010PropOp54
 70
     1
102
RTVSPost2010Prop55
280
     0
102
RTVSPost2010PropOp55
 70
     1
102
RTVSPost2010Prop56
140
1.0
102
RTVSPost2010PropOp56
 70
     1
102
RTVSPost2010Prop57
140
1.0
102
RTVSPost2010PropOp57
 70
     1
  0
XRECORD
  5
3F3
102
{ACAD_REACTORS
330
3F2
102
}
330
3F2
100
AcDbXrecord
280
     1
102
RTVSPropertyOp0
 70
     1
102
RTVSPropertyOp1
 70
     1
102
RTVSPropertyOp2
 70
     1
102
RTVSPropertyOp3
 70
     1
102
RTVSPropertyOp4
 70
     1
102
RTVSPropertyOp5
 70
     1
102
RTVSPropertyOp6
 70
     1
102
RTVSPropertyOp7
 70
     1
102
RTVSPropertyOp8
 70
     1
102
RTVSPropertyOp9
 70
     1
102
RTVSPropertyOp10
 70
     1
102
RTVSPropertyOp11
 70
     1
102
RTVSPropertyOp12
 70
     1
102
RTVSPropertyOp13
 70
     1
102
RTVSPropertyOp14
 70
     1
102
RTVSPropertyOp15
 70
     1
102
RTVSPropertyOp16
 70
     1
102
RTVSPropertyOp17
 70
     1
102
RTVSPropertyOp18
 70
     1
102
RTVSPropertyOp19
 70
     1
102
RTVSPropertyOp20
 70
     1
102
RTVSPropertyOp21
 70
     1
102
RTVSPropertyOp22
 70
     1
102
RTVSPropertyOp23
 70
     1
102
RTVSPropertyOp24
 70
     1
102
RTVSPropertyOp25
 70
     1
102
RTVSPropertyOp26
 70
     1
102
RTVSPropertyOp27
 70
     1
102
RTVSPropertyOp28
 70
     1
102
RTVSPropertyOp29
 70
     1
102
RTVSPropertyOp30
 70
     1
102
RTVSPropertyOp31
 70
     1
102
RTVSPropertyOp32
 70
     1
102
RTVSPropertyOp33
 70
     1
102
RTVSPropertyOp34
 70
     1
102
RTVSPropertyOp35
 70
     1
102
RTVSPropertyOp36
 70
     1
102
RTVSPropertyOp37
 70
     1
102
RTVSPropertyOp38
 70
     1
102
RTVSPropertyOp39
 70
     1
102
RTVSPropertyOp40
 70
     1
102
RTVSPropertyOp41
 70
     1
102
RTVSPropertyOp42
 70
     1
102
RTVSPropertyOp43
 70
     1
102
RTVSPropertyOp44
 70
     1
102
RTVSPropertyOp45
 70
     1
102
RTVSPropertyOp46
 70
     1
102
RTVSPropertyOp47
 70
     1
102
RTVSPropertyOp48
 70
     1
102
RTVSPropertyOp49
 70
     1
102
RTVSPropertyOp50
 70
     1
102
RTVSPropertyOp51
 70
     0
102
RTVSPropertyOp52
 70
     0
102
RTVSPropertyOp53
 70
     1
102
RTVSPropertyOp54
 70
     1
102
RTVSPropertyOp55
 70
     1
102
RTVSPropertyOp56
 70
     1
102
RTVSPropertyOp57
 70
     1
102
RTVSPost2010Prop28
280
     0
102
RTVSPost2010PropOp28
 70
     1
102
RTVSPost2010Prop29
280
     1
102
RTVSPost2010PropOp29
 70
     1
102
RTVSPost2010Prop30
280
     1
102
RTVSPost2010PropOp30
 70
     1
102
RTVSPost2010Prop31
280
     0
102
RTVSPost2010PropOp31
 70
     1
102
RTVSPost2010Prop32
280
     0
102
RTVSPost2010PropOp32
 70
     1
102
RTVSPost2010Prop33
280
     0
102
RTVSPost2010PropOp33
 70
     1
102
RTVSPost2010Prop34
280
     0
102
RTVSPost2010PropOp34
 70
     1
102
RTVSPost2010Prop35
280
     0
102
RTVSPost2010PropOp35
 70
     1
102
RTVSPost2010Prop36
280
     0
102
RTVSPost2010PropOp36
 70
     1
102
RTVSPost2010Prop37
 90
       50
102
RTVSPost2010PropOp37
 70
     1
102
RTVSPost2010Prop38
140
0.0
102
RTVSPost2010PropOp38
 70
     1
102
RTVSPost2010Prop39
140
1.0
102
RTVSPost2010PropOp39
 70
     1
102
RTVSPost2010Prop40
 90
        0
102
RTVSPost2010PropOp40
 70
     1
102
RTVSPost2010Prop41ColorIndex
 90
       18
102
RTVSPost2010Prop41ColorRGB
 90
        0
102
RTVSPost2010PropOp41
 70
     1
102
RTVSPost2010Prop42
 90
       50
102
RTVSPost2010PropOp42
 70
     1
102
RTVSPost2010Prop43
 90
        3
102
RTVSPost2010PropOp43
 70
     1
102
RTVSPost2010Prop44ColorIndex
 90
        5
102
RTVSPost2010Prop44ColorRGB
 90
      255
102
RTVSPost2010PropOp44
 70
     1
102
RTVSPost2010Prop45
280
     0
102
RTVSPost2010PropOp45
 70
     1
102
RTVSPost2010Prop46
 90
       50
102
RTVSPost2010PropOp46
 70
     1
102
RTVSPost2010Prop47
 90
       50
102
RTVSPost2010PropOp47
 70
     1
102
RTVSPost2010Prop48
 90
       50
102
RTVSPost2010PropOp48
 70
     1
102
RTVSPost2010Prop49
280
     0
102
RTVSPost2010PropOp49
 70
     1
102
RTVSPost2010Prop50
 90
       50
102
RTVSPost2010PropOp50
 70
     1
102
RTVSPost2010Prop51ColorIndex
 90
      256
102
RTVSPost2010Prop51ColorRGB
 90
-16777216
102
RTVSPost2010PropOp51
 70
     0
102
RTVSPost2010Prop52
140
1.0
102
RTVSPost2010PropOp52
 70
     0
102
RTVSPost2010Prop53
 90
        2
102
RTVSPost2010PropOp53
 70
     1
102
RTVSPost2010Prop54
  1
strokes_ogs.tif
102
RTVSPost2010PropOp54
 70
     1
102
RTVSPost2010Prop55
280
     0
102
RTVSPost2010PropOp55
 70
     1
102
RTVSPost2010Prop56
140
1.0
102
RTVSPost2010PropOp56
 70
     1
102
RTVSPost2010Prop57
140
1.0
102
RTVSPost2010PropOp57
 70
     1
  0
XRECORD
  5
403
102
{ACAD_REACTORS
330
402
102
}
330
402
100
AcDbXrecord
280
     1
102
RTVSPropertyOp0
 70
     0
102
RTVSPropertyOp1
 70
     0
102
RTVSPropertyOp2
 70
     0
102
RTVSPropertyOp3
 70
     0
102
RTVSPropertyOp4
 70
     0
102
RTVSPropertyOp5
 70
     0
102
RTVSPropertyOp6
 70
     0
102
RTVSPropertyOp7
 70
     0
102
RTVSPropertyOp8
 70
     0
102
RTVSPropertyOp9
 70
     0
102
RTVSPropertyOp10
 70
     0
102
RTVSPropertyOp11
 70
     0
102
RTVSPropertyOp12
 70
     0
102
RTVSPropertyOp13
 70
     0
102
RTVSPropertyOp14
 70
     2
102
RTVSPropertyOp15
 70
     0
102
RTVSPropertyOp16
 70
     0
102
RTVSPropertyOp17
 70
     0
102
RTVSPropertyOp18
 70
     0
102
RTVSPropertyOp19
 70
     0
102
RTVSPropertyOp20
 70
     0
102
RTVSPropertyOp21
 70
     0
102
RTVSPropertyOp22
 70
     0
102
RTVSPropertyOp23
 70
     0
102
RTVSPropertyOp24
 70
     0
102
RTVSPropertyOp25
 70
     0
102
RTVSPropertyOp26
 70
     0
102
RTVSPropertyOp27
 70
     0
102
RTVSPropertyOp28
 70
     0
102
RTVSPropertyOp29
 70
     0
102
RTVSPropertyOp30
 70
     0
102
RTVSPropertyOp31
 70
     0
102
RTVSPropertyOp32
 70
     0
102
RTVSPropertyOp33
 70
     0
102
RTVSPropertyOp34
 70
     0
102
RTVSPropertyOp35
 70
     0
102
RTVSPropertyOp36
 70
     0
102
RTVSPropertyOp37
 70
     0
102
RTVSPropertyOp38
 70
     0
102
RTVSPropertyOp39
 70
     0
102
RTVSPropertyOp40
 70
     0
102
RTVSPropertyOp41
 70
     0
102
RTVSPropertyOp42
 70
     0
102
RTVSPropertyOp43
 70
     0
102
RTVSPropertyOp44
 70
     0
102
RTVSPropertyOp45
 70
     0
102
RTVSPropertyOp46
 70
     0
102
RTVSPropertyOp47
 70
     0
102
RTVSPropertyOp48
 70
     0
102
RTVSPropertyOp49
 70
     0
102
RTVSPropertyOp50
 70
     0
102
RTVSPropertyOp51
 70
     0
102
RTVSPropertyOp52
 70
     0
102
RTVSPropertyOp53
 70
     0
102
RTVSPropertyOp54
 70
     0
102
RTVSPropertyOp55
 70
     0
102
RTVSPropertyOp56
 70
     0
102
RTVSPropertyOp57
 70
     0
102
RTVSPost2010Prop28
280
     0
102
RTVSPost2010PropOp28
 70
     0
102
RTVSPost2010Prop29
280
     1
102
RTVSPost2010PropOp29
 70
     0
102
RTVSPost2010Prop30
280
     1
102
RTVSPost2010PropOp30
 70
     0
102
RTVSPost2010Prop31
280
     0
102
RTVSPost2010PropOp31
 70
     0
102
RTVSPost2010Prop32
280
     0
102
RTVSPost2010PropOp32
 70
     0
102
RTVSPost2010Prop33
280
     0
102
RTVSPost2010PropOp33
 70
     0
102
RTVSPost2010Prop34
280
     0
102
RTVSPost2010PropOp34
 70
     0
102
RTVSPost2010Prop35
280
     0
102
RTVSPost2010PropOp35
 70
     0
102
RTVSPost2010Prop36
280
     0
102
RTVSPost2010PropOp36
 70
     0
102
RTVSPost2010Prop37
 90
       50
102
RTVSPost2010PropOp37
 70
     0
102
RTVSPost2010Prop38
140
0.0
102
RTVSPost2010PropOp38
 70
     0
102
RTVSPost2010Prop39
140
1.0
102
RTVSPost2010PropOp39
 70
     0
102
RTVSPost2010Prop40
 90
        0
102
RTVSPost2010PropOp40
 70
     0
102
RTVSPost2010Prop41ColorIndex
 90
       18
102
RTVSPost2010Prop41ColorRGB
 90
        0
102
RTVSPost2010PropOp41
 70
     0
102
RTVSPost2010Prop42
 90
       50
102
RTVSPost2010PropOp42
 70
     0
102
RTVSPost2010Prop43
 90
        3
102
RTVSPost2010PropOp43
 70
     0
102
RTVSPost2010Prop44ColorIndex
 90
        5
102
RTVSPost2010Prop44ColorRGB
 90
      255
102
RTVSPost2010PropOp44
 70
     0
102
RTVSPost2010Prop45
280
     0
102
RTVSPost2010PropOp45
 70
     0
102
RTVSPost2010Prop46
 90
       50
102
RTVSPost2010PropOp46
 70
     0
102
RTVSPost2010Prop47
 90
       50
102
RTVSPost2010PropOp47
 70
     0
102
RTVSPost2010Prop48
 90
       50
102
RTVSPost2010PropOp48
 70
     0
102
RTVSPost2010Prop49
280
     0
102
RTVSPost2010PropOp49
 70
     0
102
RTVSPost2010Prop50
 90
       50
102
RTVSPost2010PropOp50
 70
     0
102
RTVSPost2010Prop51ColorIndex
 90
      256
102
RTVSPost2010Prop51ColorRGB
 90
-16777216
102
RTVSPost2010PropOp51
 70
     0
102
RTVSPost2010Prop52
140
1.0
102
RTVSPost2010PropOp52
 70
     0
102
RTVSPost2010Prop53
 90
        2
102
RTVSPost2010PropOp53
 70
     0
102
RTVSPost2010Prop54
  1
strokes_ogs.tif
102
RTVSPost2010PropOp54
 70
     0
102
RTVSPost2010Prop55
280
     0
102
RTVSPost2010PropOp55
 70
     0
102
RTVSPost2010Prop56
140
1.0
102
RTVSPost2010PropOp56
 70
     0
102
RTVSPost2010Prop57
140
1.0
102
RTVSPost2010PropOp57
 70
     0
  0
XRECORD
  5
3FB
102
{ACAD_REACTORS
330
3FA
102
}
330
3FA
100
AcDbXrecord
280
     1
102
RTVSPropertyOp0
 70
     1
102
RTVSPropertyOp1
 70
     1
102
RTVSPropertyOp2
 70
     1
102
RTVSPropertyOp3
 70
     1
102
RTVSPropertyOp4
 70
     1
102
RTVSPropertyOp5
 70
     1
102
RTVSPropertyOp6
 70
     1
102
RTVSPropertyOp7
 70
     1
102
RTVSPropertyOp8
 70
     1
102
RTVSPropertyOp9
 70
     1
102
RTVSPropertyOp10
 70
     1
102
RTVSPropertyOp11
 70
     1
102
RTVSPropertyOp12
 70
     1
102
RTVSPropertyOp13
 70
     1
102
RTVSPropertyOp14
 70
     1
102
RTVSPropertyOp15
 70
     1
102
RTVSPropertyOp16
 70
     1
102
RTVSPropertyOp17
 70
     1
102
RTVSPropertyOp18
 70
     1
102
RTVSPropertyOp19
 70
     1
102
RTVSPropertyOp20
 70
     1
102
RTVSPropertyOp21
 70
     1
102
RTVSPropertyOp22
 70
     1
102
RTVSPropertyOp23
 70
     1
102
RTVSPropertyOp24
 70
     1
102
RTVSPropertyOp25
 70
     1
102
RTVSPropertyOp26
 70
     1
102
RTVSPropertyOp27
 70
     1
102
RTVSPropertyOp28
 70
     1
102
RTVSPropertyOp29
 70
     1
102
RTVSPropertyOp30
 70
     1
102
RTVSPropertyOp31
 70
     1
102
RTVSPropertyOp32
 70
     1
102
RTVSPropertyOp33
 70
     1
102
RTVSPropertyOp34
 70
     1
102
RTVSPropertyOp35
 70
     1
102
RTVSPropertyOp36
 70
     1
102
RTVSPropertyOp37
 70
     1
102
RTVSPropertyOp38
 70
     1
102
RTVSPropertyOp39
 70
     1
102
RTVSPropertyOp40
 70
     1
102
RTVSPropertyOp41
 70
     1
102
RTVSPropertyOp42
 70
     1
102
RTVSPropertyOp43
 70
     1
102
RTVSPropertyOp44
 70
     1
102
RTVSPropertyOp45
 70
     1
102
RTVSPropertyOp46
 70
     1
102
RTVSPropertyOp47
 70
     1
102
RTVSPropertyOp48
 70
     1
102
RTVSPropertyOp49
 70
     1
102
RTVSPropertyOp50
 70
     1
102
RTVSPropertyOp51
 70
     0
102
RTVSPropertyOp52
 70
     0
102
RTVSPropertyOp53
 70
     1
102
RTVSPropertyOp54
 70
     1
102
RTVSPropertyOp55
 70
     1
102
RTVSPropertyOp56
 70
     1
102
RTVSPropertyOp57
 70
     1
102
RTVSPost2010Prop28
280
     0
102
RTVSPost2010PropOp28
 70
     1
102
RTVSPost2010Prop29
280
     1
102
RTVSPost2010PropOp29
 70
     1
102
RTVSPost2010Prop30
280
     1
102
RTVSPost2010PropOp30
 70
     1
102
RTVSPost2010Prop31
280
     0
102
RTVSPost2010PropOp31
 70
     1
102
RTVSPost2010Prop32
280
     0
102
RTVSPost2010PropOp32
 70
     1
102
RTVSPost2010Prop33
280
     0
102
RTVSPost2010PropOp33
 70
     1
102
RTVSPost2010Prop34
280
     0
102
RTVSPost2010PropOp34
 70
     1
102
RTVSPost2010Prop35
280
     0
102
RTVSPost2010PropOp35
 70
     1
102
RTVSPost2010Prop36
280
     0
102
RTVSPost2010PropOp36
 70
     1
102
RTVSPost2010Prop37
 90
       50
102
RTVSPost2010PropOp37
 70
     1
102
RTVSPost2010Prop38
140
0.0
102
RTVSPost2010PropOp38
 70
     1
102
RTVSPost2010Prop39
140
1.0
102
RTVSPost2010PropOp39
 70
     1
102
RTVSPost2010Prop40
 90
        0
102
RTVSPost2010PropOp40
 70
     1
102
RTVSPost2010Prop41ColorIndex
 90
       18
102
RTVSPost2010Prop41ColorRGB
 90
        0
102
RTVSPost2010PropOp41
 70
     1
102
RTVSPost2010Prop42
 90
       50
102
RTVSPost2010PropOp42
 70
     1
102
RTVSPost2010Prop43
 90
        3
102
RTVSPost2010PropOp43
 70
     1
102
RTVSPost2010Prop44ColorIndex
 90
        5
102
RTVSPost2010Prop44ColorRGB
 90
      255
102
RTVSPost2010PropOp44
 70
     1
102
RTVSPost2010Prop45
280
     0
102
RTVSPost2010PropOp45
 70
     1
102
RTVSPost2010Prop46
 90
       50
102
RTVSPost2010PropOp46
 70
     1
102
RTVSPost2010Prop47
 90
       50
102
RTVSPost2010PropOp47
 70
     1
102
RTVSPost2010Prop48
 90
       50
102
RTVSPost2010PropOp48
 70
     1
102
RTVSPost2010Prop49
280
     0
102
RTVSPost2010PropOp49
 70
     1
102
RTVSPost2010Prop50
 90
       50
102
RTVSPost2010PropOp50
 70
     1
102
RTVSPost2010Prop51ColorIndex
 90
      256
102
RTVSPost2010Prop51ColorRGB
 90
-16777216
102
RTVSPost2010PropOp51
 70
     0
102
RTVSPost2010Prop52
140
1.0
102
RTVSPost2010PropOp52
 70
     0
102
RTVSPost2010Prop53
 90
        2
102
RTVSPost2010PropOp53
 70
     1
102
RTVSPost2010Prop54
  1
strokes_ogs.tif
102
RTVSPost2010PropOp54
 70
     1
102
RTVSPost2010Prop55
280
     0
102
RTVSPost2010PropOp55
 70
     1
102
RTVSPost2010Prop56
140
1.0
102
RTVSPost2010PropOp56
 70
     1
102
RTVSPost2010Prop57
140
1.0
102
RTVSPost2010PropOp57
 70
     1
  0
XRECORD
  5
3DF
102
{ACAD_REACTORS
330
3DE
102
}
330
3DE
100
AcDbXrecord
280
     1
102
RTVSPropertyOp0
 70
     1
102
RTVSPropertyOp1
 70
     1
102
RTVSPropertyOp2
 70
     1
102
RTVSPropertyOp3
 70
     1
102
RTVSPropertyOp4
 70
     1
102
RTVSPropertyOp5
 70
     1
102
RTVSPropertyOp6
 70
     1
102
RTVSPropertyOp7
 70
     1
102
RTVSPropertyOp8
 70
     1
102
RTVSPropertyOp9
 70
     1
102
RTVSPropertyOp10
 70
     1
102
RTVSPropertyOp11
 70
     1
102
RTVSPropertyOp12
 70
     1
102
RTVSPropertyOp13
 70
     1
102
RTVSPropertyOp14
 70
     1
102
RTVSPropertyOp15
 70
     1
102
RTVSPropertyOp16
 70
     1
102
RTVSPropertyOp17
 70
     1
102
RTVSPropertyOp18
 70
     1
102
RTVSPropertyOp19
 70
     1
102
RTVSPropertyOp20
 70
     1
102
RTVSPropertyOp21
 70
     1
102
RTVSPropertyOp22
 70
     1
102
RTVSPropertyOp23
 70
     1
102
RTVSPropertyOp24
 70
     1
102
RTVSPropertyOp25
 70
     1
102
RTVSPropertyOp26
 70
     1
102
RTVSPropertyOp27
 70
     1
102
RTVSPropertyOp28
 70
     1
102
RTVSPropertyOp29
 70
     1
102
RTVSPropertyOp30
 70
     1
102
RTVSPropertyOp31
 70
     1
102
RTVSPropertyOp32
 70
     1
102
RTVSPropertyOp33
 70
     1
102
RTVSPropertyOp34
 70
     1
102
RTVSPropertyOp35
 70
     1
102
RTVSPropertyOp36
 70
     1
102
RTVSPropertyOp37
 70
     1
102
RTVSPropertyOp38
 70
     1
102
RTVSPropertyOp39
 70
     1
102
RTVSPropertyOp40
 70
     1
102
RTVSPropertyOp41
 70
     1
102
RTVSPropertyOp42
 70
     1
102
RTVSPropertyOp43
 70
     1
102
RTVSPropertyOp44
 70
     1
102
RTVSPropertyOp45
 70
     1
102
RTVSPropertyOp46
 70
     1
102
RTVSPropertyOp47
 70
     1
102
RTVSPropertyOp48
 70
     1
102
RTVSPropertyOp49
 70
     1
102
RTVSPropertyOp50
 70
     1
102
RTVSPropertyOp51
 70
     0
102
RTVSPropertyOp52
 70
     0
102
RTVSPropertyOp53
 70
     1
102
RTVSPropertyOp54
 70
     1
102
RTVSPropertyOp55
 70
     1
102
RTVSPropertyOp56
 70
     1
102
RTVSPropertyOp57
 70
     1
102
RTVSPost2010Prop28
280
     0
102
RTVSPost2010PropOp28
 70
     1
102
RTVSPost2010Prop29
280
     1
102
RTVSPost2010PropOp29
 70
     1
102
RTVSPost2010Prop30
280
     1
102
RTVSPost2010PropOp30
 70
     1
102
RTVSPost2010Prop31
280
     0
102
RTVSPost2010PropOp31
 70
     1
102
RTVSPost2010Prop32
280
     0
102
RTVSPost2010PropOp32
 70
     1
102
RTVSPost2010Prop33
280
     0
102
RTVSPost2010PropOp33
 70
     1
102
RTVSPost2010Prop34
280
     0
102
RTVSPost2010PropOp34
 70
     1
102
RTVSPost2010Prop35
280
     0
102
RTVSPost2010PropOp35
 70
     1
102
RTVSPost2010Prop36
280
     0
102
RTVSPost2010PropOp36
 70
     1
102
RTVSPost2010Prop37
 90
       50
102
RTVSPost2010PropOp37
 70
     1
102
RTVSPost2010Prop38
140
0.0
102
RTVSPost2010PropOp38
 70
     1
102
RTVSPost2010Prop39
140
1.0
102
RTVSPost2010PropOp39
 70
     1
102
RTVSPost2010Prop40
 90
        0
102
RTVSPost2010PropOp40
 70
     1
102
RTVSPost2010Prop41ColorIndex
 90
       18
102
RTVSPost2010Prop41ColorRGB
 90
        0
102
RTVSPost2010PropOp41
 70
     1
102
RTVSPost2010Prop42
 90
       50
102
RTVSPost2010PropOp42
 70
     1
102
RTVSPost2010Prop43
 90
        3
102
RTVSPost2010PropOp43
 70
     1
102
RTVSPost2010Prop44ColorIndex
 90
        5
102
RTVSPost2010Prop44ColorRGB
 90
      255
102
RTVSPost2010PropOp44
 70
     1
102
RTVSPost2010Prop45
280
     0
102
RTVSPost2010PropOp45
 70
     1
102
RTVSPost2010Prop46
 90
       50
102
RTVSPost2010PropOp46
 70
     1
102
RTVSPost2010Prop47
 90
       50
102
RTVSPost2010PropOp47
 70
     1
102
RTVSPost2010Prop48
 90
       50
102
RTVSPost2010PropOp48
 70
     1
102
RTVSPost2010Prop49
280
     0
102
RTVSPost2010PropOp49
 70
     1
102
RTVSPost2010Prop50
 90
       50
102
RTVSPost2010PropOp50
 70
     1
102
RTVSPost2010Prop51ColorIndex
 90
      256
102
RTVSPost2010Prop51ColorRGB
 90
-16777216
102
RTVSPost2010PropOp51
 70
     0
102
RTVSPost2010Prop52
140
1.0
102
RTVSPost2010PropOp52
 70
     0
102
RTVSPost2010Prop53
 90
        2
102
RTVSPost2010PropOp53
 70
     1
102
RTVSPost2010Prop54
  1
strokes_ogs.tif
102
RTVSPost2010PropOp54
 70
     1
102
RTVSPost2010Prop55
280
     0
102
RTVSPost2010PropOp55
 70
     1
102
RTVSPost2010Prop56
140
1.0
102
RTVSPost2010PropOp56
 70
     1
102
RTVSPost2010Prop57
140
1.0
102
RTVSPost2010PropOp57
 70
     1
  0
XRECORD
  5
3E1
102
{ACAD_REACTORS
330
3E0
102
}
330
3E0
100
AcDbXrecord
280
     1
102
RTVSPropertyOp0
 70
     1
102
RTVSPropertyOp1
 70
     1
102
RTVSPropertyOp2
 70
     1
102
RTVSPropertyOp3
 70
     1
102
RTVSPropertyOp4
 70
     1
102
RTVSPropertyOp5
 70
     1
102
RTVSPropertyOp6
 70
     1
102
RTVSPropertyOp7
 70
     1
102
RTVSPropertyOp8
 70
     1
102
RTVSPropertyOp9
 70
     1
102
RTVSPropertyOp10
 70
     1
102
RTVSPropertyOp11
 70
     1
102
RTVSPropertyOp12
 70
     1
102
RTVSPropertyOp13
 70
     1
102
RTVSPropertyOp14
 70
     1
102
RTVSPropertyOp15
 70
     1
102
RTVSPropertyOp16
 70
     1
102
RTVSPropertyOp17
 70
     1
102
RTVSPropertyOp18
 70
     1
102
RTVSPropertyOp19
 70
     1
102
RTVSPropertyOp20
 70
     1
102
RTVSPropertyOp21
 70
     1
102
RTVSPropertyOp22
 70
     1
102
RTVSPropertyOp23
 70
     1
102
RTVSPropertyOp24
 70
     1
102
RTVSPropertyOp25
 70
     1
102
RTVSPropertyOp26
 70
     1
102
RTVSPropertyOp27
 70
     1
102
RTVSPropertyOp28
 70
     1
102
RTVSPropertyOp29
 70
     1
102
RTVSPropertyOp30
 70
     1
102
RTVSPropertyOp31
 70
     1
102
RTVSPropertyOp32
 70
     1
102
RTVSPropertyOp33
 70
     1
102
RTVSPropertyOp34
 70
     1
102
RTVSPropertyOp35
 70
     1
102
RTVSPropertyOp36
 70
     1
102
RTVSPropertyOp37
 70
     1
102
RTVSPropertyOp38
 70
     1
102
RTVSPropertyOp39
 70
     1
102
RTVSPropertyOp40
 70
     1
102
RTVSPropertyOp41
 70
     1
102
RTVSPropertyOp42
 70
     1
102
RTVSPropertyOp43
 70
     1
102
RTVSPropertyOp44
 70
     1
102
RTVSPropertyOp45
 70
     1
102
RTVSPropertyOp46
 70
     1
102
RTVSPropertyOp47
 70
     1
102
RTVSPropertyOp48
 70
     1
102
RTVSPropertyOp49
 70
     1
102
RTVSPropertyOp50
 70
     1
102
RTVSPropertyOp51
 70
     0
102
RTVSPropertyOp52
 70
     0
102
RTVSPropertyOp53
 70
     1
102
RTVSPropertyOp54
 70
     1
102
RTVSPropertyOp55
 70
     1
102
RTVSPropertyOp56
 70
     1
102
RTVSPropertyOp57
 70
     1
102
RTVSPost2010Prop28
280
     0
102
RTVSPost2010PropOp28
 70
     1
102
RTVSPost2010Prop29
280
     1
102
RTVSPost2010PropOp29
 70
     1
102
RTVSPost2010Prop30
280
     1
102
RTVSPost2010PropOp30
 70
     1
102
RTVSPost2010Prop31
280
     0
102
RTVSPost2010PropOp31
 70
     1
102
RTVSPost2010Prop32
280
     0
102
RTVSPost2010PropOp32
 70
     1
102
RTVSPost2010Prop33
280
     0
102
RTVSPost2010PropOp33
 70
     1
102
RTVSPost2010Prop34
280
     0
102
RTVSPost2010PropOp34
 70
     1
102
RTVSPost2010Prop35
280
     0
102
RTVSPost2010PropOp35
 70
     1
102
RTVSPost2010Prop36
280
     0
102
RTVSPost2010PropOp36
 70
     1
102
RTVSPost2010Prop37
 90
       50
102
RTVSPost2010PropOp37
 70
     1
102
RTVSPost2010Prop38
140
0.0
102
RTVSPost2010PropOp38
 70
     1
102
RTVSPost2010Prop39
140
1.0
102
RTVSPost2010PropOp39
 70
     1
102
RTVSPost2010Prop40
 90
        0
102
RTVSPost2010PropOp40
 70
     1
102
RTVSPost2010Prop41ColorIndex
 90
       18
102
RTVSPost2010Prop41ColorRGB
 90
        0
102
RTVSPost2010PropOp41
 70
     1
102
RTVSPost2010Prop42
 90
       50
102
RTVSPost2010PropOp42
 70
     1
102
RTVSPost2010Prop43
 90
        3
102
RTVSPost2010PropOp43
 70
     1
102
RTVSPost2010Prop44ColorIndex
 90
        5
102
RTVSPost2010Prop44ColorRGB
 90
      255
102
RTVSPost2010PropOp44
 70
     1
102
RTVSPost2010Prop45
280
     0
102
RTVSPost2010PropOp45
 70
     1
102
RTVSPost2010Prop46
 90
       50
102
RTVSPost2010PropOp46
 70
     1
102
RTVSPost2010Prop47
 90
       50
102
RTVSPost2010PropOp47
 70
     1
102
RTVSPost2010Prop48
 90
       50
102
RTVSPost2010PropOp48
 70
     1
102
RTVSPost2010Prop49
280
     0
102
RTVSPost2010PropOp49
 70
     1
102
RTVSPost2010Prop50
 90
       50
102
RTVSPost2010PropOp50
 70
     1
102
RTVSPost2010Prop51ColorIndex
 90
      256
102
RTVSPost2010Prop51ColorRGB
 90
-16777216
102
RTVSPost2010PropOp51
 70
     0
102
RTVSPost2010Prop52
140
1.0
102
RTVSPost2010PropOp52
 70
     0
102
RTVSPost2010Prop53
 90
        2
102
RTVSPost2010PropOp53
 70
     1
102
RTVSPost2010Prop54
  1
strokes_ogs.tif
102
RTVSPost2010PropOp54
 70
     1
102
RTVSPost2010Prop55
280
     0
102
RTVSPost2010PropOp55
 70
     1
102
RTVSPost2010Prop56
140
1.0
102
RTVSPost2010PropOp56
 70
     1
102
RTVSPost2010Prop57
140
1.0
102
RTVSPost2010PropOp57
 70
     1
  0
XRECORD
  5
3E3
102
{ACAD_REACTORS
330
3E2
102
}
330
3E2
100
AcDbXrecord
280
     1
102
RTVSPropertyOp0
 70
     1
102
RTVSPropertyOp1
 70
     1
102
RTVSPropertyOp2
 70
     1
102
RTVSPropertyOp3
 70
     1
102
RTVSPropertyOp4
 70
     1
102
RTVSPropertyOp5
 70
     1
102
RTVSPropertyOp6
 70
     1
102
RTVSPropertyOp7
 70
     1
102
RTVSPropertyOp8
 70
     1
102
RTVSPropertyOp9
 70
     1
102
RTVSPropertyOp10
 70
     1
102
RTVSPropertyOp11
 70
     1
102
RTVSPropertyOp12
 70
     1
102
RTVSPropertyOp13
 70
     1
102
RTVSPropertyOp14
 70
     1
102
RTVSPropertyOp15
 70
     1
102
RTVSPropertyOp16
 70
     1
102
RTVSPropertyOp17
 70
     1
102
RTVSPropertyOp18
 70
     1
102
RTVSPropertyOp19
 70
     1
102
RTVSPropertyOp20
 70
     1
102
RTVSPropertyOp21
 70
     1
102
RTVSPropertyOp22
 70
     1
102
RTVSPropertyOp23
 70
     1
102
RTVSPropertyOp24
 70
     1
102
RTVSPropertyOp25
 70
     1
102
RTVSPropertyOp26
 70
     1
102
RTVSPropertyOp27
 70
     1
102
RTVSPropertyOp28
 70
     1
102
RTVSPropertyOp29
 70
     1
102
RTVSPropertyOp30
 70
     1
102
RTVSPropertyOp31
 70
     1
102
RTVSPropertyOp32
 70
     1
102
RTVSPropertyOp33
 70
     1
102
RTVSPropertyOp34
 70
     1
102
RTVSPropertyOp35
 70
     1
102
RTVSPropertyOp36
 70
     1
102
RTVSPropertyOp37
 70
     1
102
RTVSPropertyOp38
 70
     1
102
RTVSPropertyOp39
 70
     1
102
RTVSPropertyOp40
 70
     1
102
RTVSPropertyOp41
 70
     1
102
RTVSPropertyOp42
 70
     1
102
RTVSPropertyOp43
 70
     1
102
RTVSPropertyOp44
 70
     1
102
RTVSPropertyOp45
 70
     1
102
RTVSPropertyOp46
 70
     1
102
RTVSPropertyOp47
 70
     1
102
RTVSPropertyOp48
 70
     1
102
RTVSPropertyOp49
 70
     1
102
RTVSPropertyOp50
 70
     1
102
RTVSPropertyOp51
 70
     0
102
RTVSPropertyOp52
 70
     0
102
RTVSPropertyOp53
 70
     1
102
RTVSPropertyOp54
 70
     1
102
RTVSPropertyOp55
 70
     1
102
RTVSPropertyOp56
 70
     1
102
RTVSPropertyOp57
 70
     1
102
RTVSPost2010Prop28
280
     0
102
RTVSPost2010PropOp28
 70
     1
102
RTVSPost2010Prop29
280
     1
102
RTVSPost2010PropOp29
 70
     1
102
RTVSPost2010Prop30
280
     1
102
RTVSPost2010PropOp30
 70
     1
102
RTVSPost2010Prop31
280
     0
102
RTVSPost2010PropOp31
 70
     1
102
RTVSPost2010Prop32
280
     0
102
RTVSPost2010PropOp32
 70
     1
102
RTVSPost2010Prop33
280
     0
102
RTVSPost2010PropOp33
 70
     1
102
RTVSPost2010Prop34
280
     0
102
RTVSPost2010PropOp34
 70
     1
102
RTVSPost2010Prop35
280
     0
102
RTVSPost2010PropOp35
 70
     1
102
RTVSPost2010Prop36
280
     0
102
RTVSPost2010PropOp36
 70
     1
102
RTVSPost2010Prop37
 90
       50
102
RTVSPost2010PropOp37
 70
     1
102
RTVSPost2010Prop38
140
0.0
102
RTVSPost2010PropOp38
 70
     1
102
RTVSPost2010Prop39
140
1.0
102
RTVSPost2010PropOp39
 70
     1
102
RTVSPost2010Prop40
 90
        0
102
RTVSPost2010PropOp40
 70
     1
102
RTVSPost2010Prop41ColorIndex
 90
       18
102
RTVSPost2010Prop41ColorRGB
 90
        0
102
RTVSPost2010PropOp41
 70
     1
102
RTVSPost2010Prop42
 90
       50
102
RTVSPost2010PropOp42
 70
     1
102
RTVSPost2010Prop43
 90
        3
102
RTVSPost2010PropOp43
 70
     1
102
RTVSPost2010Prop44ColorIndex
 90
        5
102
RTVSPost2010Prop44ColorRGB
 90
      255
102
RTVSPost2010PropOp44
 70
     1
102
RTVSPost2010Prop45
280
     0
102
RTVSPost2010PropOp45
 70
     1
102
RTVSPost2010Prop46
 90
       50
102
RTVSPost2010PropOp46
 70
     1
102
RTVSPost2010Prop47
 90
       50
102
RTVSPost2010PropOp47
 70
     1
102
RTVSPost2010Prop48
 90
       50
102
RTVSPost2010PropOp48
 70
     1
102
RTVSPost2010Prop49
280
     0
102
RTVSPost2010PropOp49
 70
     1
102
RTVSPost2010Prop50
 90
       50
102
RTVSPost2010PropOp50
 70
     1
102
RTVSPost2010Prop51ColorIndex
 90
      256
102
RTVSPost2010Prop51ColorRGB
 90
-16777216
102
RTVSPost2010PropOp51
 70
     0
102
RTVSPost2010Prop52
140
1.0
102
RTVSPost2010PropOp52
 70
     0
102
RTVSPost2010Prop53
 90
        2
102
RTVSPost2010PropOp53
 70
     1
102
RTVSPost2010Prop54
  1
strokes_ogs.tif
102
RTVSPost2010PropOp54
 70
     1
102
RTVSPost2010Prop55
280
     0
102
RTVSPost2010PropOp55
 70
     1
102
RTVSPost2010Prop56
140
1.0
102
RTVSPost2010PropOp56
 70
     1
102
RTVSPost2010Prop57
140
1.0
102
RTVSPost2010PropOp57
 70
     1
  0
XRECORD
  5
3E5
102
{ACAD_REACTORS
330
3E4
102
}
330
3E4
100
AcDbXrecord
280
     1
102
RTVSPropertyOp0
 70
     1
102
RTVSPropertyOp1
 70
     1
102
RTVSPropertyOp2
 70
     1
102
RTVSPropertyOp3
 70
     1
102
RTVSPropertyOp4
 70
     1
102
RTVSPropertyOp5
 70
     1
102
RTVSPropertyOp6
 70
     1
102
RTVSPropertyOp7
 70
     1
102
RTVSPropertyOp8
 70
     1
102
RTVSPropertyOp9
 70
     1
102
RTVSPropertyOp10
 70
     1
102
RTVSPropertyOp11
 70
     1
102
RTVSPropertyOp12
 70
     1
102
RTVSPropertyOp13
 70
     1
102
RTVSPropertyOp14
 70
     1
102
RTVSPropertyOp15
 70
     1
102
RTVSPropertyOp16
 70
     1
102
RTVSPropertyOp17
 70
     1
102
RTVSPropertyOp18
 70
     1
102
RTVSPropertyOp19
 70
     1
102
RTVSPropertyOp20
 70
     1
102
RTVSPropertyOp21
 70
     1
102
RTVSPropertyOp22
 70
     1
102
RTVSPropertyOp23
 70
     1
102
RTVSPropertyOp24
 70
     1
102
RTVSPropertyOp25
 70
     1
102
RTVSPropertyOp26
 70
     1
102
RTVSPropertyOp27
 70
     1
102
RTVSPropertyOp28
 70
     1
102
RTVSPropertyOp29
 70
     1
102
RTVSPropertyOp30
 70
     1
102
RTVSPropertyOp31
 70
     1
102
RTVSPropertyOp32
 70
     1
102
RTVSPropertyOp33
 70
     1
102
RTVSPropertyOp34
 70
     1
102
RTVSPropertyOp35
 70
     1
102
RTVSPropertyOp36
 70
     1
102
RTVSPropertyOp37
 70
     1
102
RTVSPropertyOp38
 70
     1
102
RTVSPropertyOp39
 70
     1
102
RTVSPropertyOp40
 70
     1
102
RTVSPropertyOp41
 70
     1
102
RTVSPropertyOp42
 70
     1
102
RTVSPropertyOp43
 70
     1
102
RTVSPropertyOp44
 70
     1
102
RTVSPropertyOp45
 70
     1
102
RTVSPropertyOp46
 70
     1
102
RTVSPropertyOp47
 70
     1
102
RTVSPropertyOp48
 70
     1
102
RTVSPropertyOp49
 70
     1
102
RTVSPropertyOp50
 70
     1
102
RTVSPropertyOp51
 70
     0
102
RTVSPropertyOp52
 70
     0
102
RTVSPropertyOp53
 70
     1
102
RTVSPropertyOp54
 70
     1
102
RTVSPropertyOp55
 70
     1
102
RTVSPropertyOp56
 70
     1
102
RTVSPropertyOp57
 70
     1
102
RTVSPost2010Prop28
280
     0
102
RTVSPost2010PropOp28
 70
     1
102
RTVSPost2010Prop29
280
     1
102
RTVSPost2010PropOp29
 70
     1
102
RTVSPost2010Prop30
280
     1
102
RTVSPost2010PropOp30
 70
     1
102
RTVSPost2010Prop31
280
     0
102
RTVSPost2010PropOp31
 70
     1
102
RTVSPost2010Prop32
280
     0
102
RTVSPost2010PropOp32
 70
     1
102
RTVSPost2010Prop33
280
     0
102
RTVSPost2010PropOp33
 70
     1
102
RTVSPost2010Prop34
280
     0
102
RTVSPost2010PropOp34
 70
     1
102
RTVSPost2010Prop35
280
     0
102
RTVSPost2010PropOp35
 70
     1
102
RTVSPost2010Prop36
280
     0
102
RTVSPost2010PropOp36
 70
     1
102
RTVSPost2010Prop37
 90
       50
102
RTVSPost2010PropOp37
 70
     1
102
RTVSPost2010Prop38
140
0.0
102
RTVSPost2010PropOp38
 70
     1
102
RTVSPost2010Prop39
140
1.0
102
RTVSPost2010PropOp39
 70
     1
102
RTVSPost2010Prop40
 90
        0
102
RTVSPost2010PropOp40
 70
     1
102
RTVSPost2010Prop41ColorIndex
 90
       18
102
RTVSPost2010Prop41ColorRGB
 90
        0
102
RTVSPost2010PropOp41
 70
     1
102
RTVSPost2010Prop42
 90
       50
102
RTVSPost2010PropOp42
 70
     1
102
RTVSPost2010Prop43
 90
        3
102
RTVSPost2010PropOp43
 70
     1
102
RTVSPost2010Prop44ColorIndex
 90
        5
102
RTVSPost2010Prop44ColorRGB
 90
      255
102
RTVSPost2010PropOp44
 70
     1
102
RTVSPost2010Prop45
280
     0
102
RTVSPost2010PropOp45
 70
     1
102
RTVSPost2010Prop46
 90
       50
102
RTVSPost2010PropOp46
 70
     1
102
RTVSPost2010Prop47
 90
       50
102
RTVSPost2010PropOp47
 70
     1
102
RTVSPost2010Prop48
 90
       50
102
RTVSPost2010PropOp48
 70
     1
102
RTVSPost2010Prop49
280
     0
102
RTVSPost2010PropOp49
 70
     1
102
RTVSPost2010Prop50
 90
       50
102
RTVSPost2010PropOp50
 70
     1
102
RTVSPost2010Prop51ColorIndex
 90
      256
102
RTVSPost2010Prop51ColorRGB
 90
-16777216
102
RTVSPost2010PropOp51
 70
     0
102
RTVSPost2010Prop52
140
1.0
102
RTVSPost2010PropOp52
 70
     0
102
RTVSPost2010Prop53
 90
        2
102
RTVSPost2010PropOp53
 70
     1
102
RTVSPost2010Prop54
  1
strokes_ogs.tif
102
RTVSPost2010PropOp54
 70
     1
102
RTVSPost2010Prop55
280
     0
102
RTVSPost2010PropOp55
 70
     1
102
RTVSPost2010Prop56
140
1.0
102
RTVSPost2010PropOp56
 70
     1
102
RTVSPost2010Prop57
140
1.0
102
RTVSPost2010PropOp57
 70
     1
  0
XRECORD
  5
3EB
102
{ACAD_REACTORS
330
3EA
102
}
330
3EA
100
AcDbXrecord
280
     1
102
RTVSPropertyOp0
 70
     1
102
RTVSPropertyOp1
 70
     1
102
RTVSPropertyOp2
 70
     1
102
RTVSPropertyOp3
 70
     1
102
RTVSPropertyOp4
 70
     1
102
RTVSPropertyOp5
 70
     1
102
RTVSPropertyOp6
 70
     1
102
RTVSPropertyOp7
 70
     1
102
RTVSPropertyOp8
 70
     1
102
RTVSPropertyOp9
 70
     1
102
RTVSPropertyOp10
 70
     1
102
RTVSPropertyOp11
 70
     1
102
RTVSPropertyOp12
 70
     1
102
RTVSPropertyOp13
 70
     1
102
RTVSPropertyOp14
 70
     1
102
RTVSPropertyOp15
 70
     1
102
RTVSPropertyOp16
 70
     1
102
RTVSPropertyOp17
 70
     1
102
RTVSPropertyOp18
 70
     1
102
RTVSPropertyOp19
 70
     1
102
RTVSPropertyOp20
 70
     1
102
RTVSPropertyOp21
 70
     1
102
RTVSPropertyOp22
 70
     1
102
RTVSPropertyOp23
 70
     1
102
RTVSPropertyOp24
 70
     1
102
RTVSPropertyOp25
 70
     1
102
RTVSPropertyOp26
 70
     1
102
RTVSPropertyOp27
 70
     1
102
RTVSPropertyOp28
 70
     1
102
RTVSPropertyOp29
 70
     1
102
RTVSPropertyOp30
 70
     1
102
RTVSPropertyOp31
 70
     1
102
RTVSPropertyOp32
 70
     1
102
RTVSPropertyOp33
 70
     1
102
RTVSPropertyOp34
 70
     1
102
RTVSPropertyOp35
 70
     1
102
RTVSPropertyOp36
 70
     1
102
RTVSPropertyOp37
 70
     1
102
RTVSPropertyOp38
 70
     1
102
RTVSPropertyOp39
 70
     1
102
RTVSPropertyOp40
 70
     1
102
RTVSPropertyOp41
 70
     1
102
RTVSPropertyOp42
 70
     1
102
RTVSPropertyOp43
 70
     1
102
RTVSPropertyOp44
 70
     1
102
RTVSPropertyOp45
 70
     1
102
RTVSPropertyOp46
 70
     1
102
RTVSPropertyOp47
 70
     1
102
RTVSPropertyOp48
 70
     1
102
RTVSPropertyOp49
 70
     1
102
RTVSPropertyOp50
 70
     1
102
RTVSPropertyOp51
 70
     0
102
RTVSPropertyOp52
 70
     0
102
RTVSPropertyOp53
 70
     1
102
RTVSPropertyOp54
 70
     1
102
RTVSPropertyOp55
 70
     1
102
RTVSPropertyOp56
 70
     1
102
RTVSPropertyOp57
 70
     1
102
RTVSPost2010Prop28
280
     0
102
RTVSPost2010PropOp28
 70
     1
102
RTVSPost2010Prop29
280
     1
102
RTVSPost2010PropOp29
 70
     1
102
RTVSPost2010Prop30
280
     1
102
RTVSPost2010PropOp30
 70
     1
102
RTVSPost2010Prop31
280
     0
102
RTVSPost2010PropOp31
 70
     1
102
RTVSPost2010Prop32
280
     0
102
RTVSPost2010PropOp32
 70
     1
102
RTVSPost2010Prop33
280
     0
102
RTVSPost2010PropOp33
 70
     1
102
RTVSPost2010Prop34
280
     0
102
RTVSPost2010PropOp34
 70
     1
102
RTVSPost2010Prop35
280
     0
102
RTVSPost2010PropOp35
 70
     1
102
RTVSPost2010Prop36
280
     0
102
RTVSPost2010PropOp36
 70
     1
102
RTVSPost2010Prop37
 90
       50
102
RTVSPost2010PropOp37
 70
     1
102
RTVSPost2010Prop38
140
0.0
102
RTVSPost2010PropOp38
 70
     1
102
RTVSPost2010Prop39
140
1.0
102
RTVSPost2010PropOp39
 70
     1
102
RTVSPost2010Prop40
 90
        0
102
RTVSPost2010PropOp40
 70
     1
102
RTVSPost2010Prop41ColorIndex
 90
       18
102
RTVSPost2010Prop41ColorRGB
 90
        0
102
RTVSPost2010PropOp41
 70
     1
102
RTVSPost2010Prop42
 90
       50
102
RTVSPost2010PropOp42
 70
     1
102
RTVSPost2010Prop43
 90
        3
102
RTVSPost2010PropOp43
 70
     1
102
RTVSPost2010Prop44ColorIndex
 90
        5
102
RTVSPost2010Prop44ColorRGB
 90
      255
102
RTVSPost2010PropOp44
 70
     1
102
RTVSPost2010Prop45
280
     0
102
RTVSPost2010PropOp45
 70
     1
102
RTVSPost2010Prop46
 90
       50
102
RTVSPost2010PropOp46
 70
     1
102
RTVSPost2010Prop47
 90
       50
102
RTVSPost2010PropOp47
 70
     1
102
RTVSPost2010Prop48
 90
       50
102
RTVSPost2010PropOp48
 70
     1
102
RTVSPost2010Prop49
280
     0
102
RTVSPost2010PropOp49
 70
     1
102
RTVSPost2010Prop50
 90
       50
102
RTVSPost2010PropOp50
 70
     1
102
RTVSPost2010Prop51ColorIndex
 90
      256
102
RTVSPost2010Prop51ColorRGB
 90
-16777216
102
RTVSPost2010PropOp51
 70
     0
102
RTVSPost2010Prop52
140
1.0
102
RTVSPost2010PropOp52
 70
     0
102
RTVSPost2010Prop53
 90
        2
102
RTVSPost2010PropOp53
 70
     1
102
RTVSPost2010Prop54
  1
strokes_ogs.tif
102
RTVSPost2010PropOp54
 70
     1
102
RTVSPost2010Prop55
280
     0
102
RTVSPost2010PropOp55
 70
     1
102
RTVSPost2010Prop56
140
1.0
102
RTVSPost2010PropOp56
 70
     1
102
RTVSPost2010Prop57
140
1.0
102
RTVSPost2010PropOp57
 70
     1
  0
XRECORD
  5
3FF
102
{ACAD_REACTORS
330
3FE
102
}
330
3FE
100
AcDbXrecord
280
     1
102
RTVSPropertyOp0
 70
     0
102
RTVSPropertyOp1
 70
     0
102
RTVSPropertyOp2
 70
     0
102
RTVSPropertyOp3
 70
     0
102
RTVSPropertyOp4
 70
     0
102
RTVSPropertyOp5
 70
     0
102
RTVSPropertyOp6
 70
     0
102
RTVSPropertyOp7
 70
     0
102
RTVSPropertyOp8
 70
     0
102
RTVSPropertyOp9
 70
     0
102
RTVSPropertyOp10
 70
     0
102
RTVSPropertyOp11
 70
     0
102
RTVSPropertyOp12
 70
     0
102
RTVSPropertyOp13
 70
     0
102
RTVSPropertyOp14
 70
     2
102
RTVSPropertyOp15
 70
     0
102
RTVSPropertyOp16
 70
     0
102
RTVSPropertyOp17
 70
     0
102
RTVSPropertyOp18
 70
     0
102
RTVSPropertyOp19
 70
     0
102
RTVSPropertyOp20
 70
     0
102
RTVSPropertyOp21
 70
     0
102
RTVSPropertyOp22
 70
     0
102
RTVSPropertyOp23
 70
     0
102
RTVSPropertyOp24
 70
     0
102
RTVSPropertyOp25
 70
     0
102
RTVSPropertyOp26
 70
     0
102
RTVSPropertyOp27
 70
     0
102
RTVSPropertyOp28
 70
     0
102
RTVSPropertyOp29
 70
     0
102
RTVSPropertyOp30
 70
     0
102
RTVSPropertyOp31
 70
     0
102
RTVSPropertyOp32
 70
     0
102
RTVSPropertyOp33
 70
     0
102
RTVSPropertyOp34
 70
     0
102
RTVSPropertyOp35
 70
     0
102
RTVSPropertyOp36
 70
     0
102
RTVSPropertyOp37
 70
     0
102
RTVSPropertyOp38
 70
     0
102
RTVSPropertyOp39
 70
     0
102
RTVSPropertyOp40
 70
     0
102
RTVSPropertyOp41
 70
     0
102
RTVSPropertyOp42
 70
     0
102
RTVSPropertyOp43
 70
     0
102
RTVSPropertyOp44
 70
     0
102
RTVSPropertyOp45
 70
     0
102
RTVSPropertyOp46
 70
     0
102
RTVSPropertyOp47
 70
     0
102
RTVSPropertyOp48
 70
     0
102
RTVSPropertyOp49
 70
     0
102
RTVSPropertyOp50
 70
     0
102
RTVSPropertyOp51
 70
     0
102
RTVSPropertyOp52
 70
     0
102
RTVSPropertyOp53
 70
     0
102
RTVSPropertyOp54
 70
     0
102
RTVSPropertyOp55
 70
     0
102
RTVSPropertyOp56
 70
     0
102
RTVSPropertyOp57
 70
     0
102
RTVSPost2010Prop28
280
     0
102
RTVSPost2010PropOp28
 70
     0
102
RTVSPost2010Prop29
280
     1
102
RTVSPost2010PropOp29
 70
     0
102
RTVSPost2010Prop30
280
     1
102
RTVSPost2010PropOp30
 70
     0
102
RTVSPost2010Prop31
280
     0
102
RTVSPost2010PropOp31
 70
     0
102
RTVSPost2010Prop32
280
     0
102
RTVSPost2010PropOp32
 70
     0
102
RTVSPost2010Prop33
280
     0
102
RTVSPost2010PropOp33
 70
     0
102
RTVSPost2010Prop34
280
     0
102
RTVSPost2010PropOp34
 70
     0
102
RTVSPost2010Prop35
280
     0
102
RTVSPost2010PropOp35
 70
     0
102
RTVSPost2010Prop36
280
     0
102
RTVSPost2010PropOp36
 70
     0
102
RTVSPost2010Prop37
 90
       50
102
RTVSPost2010PropOp37
 70
     0
102
RTVSPost2010Prop38
140
0.0
102
RTVSPost2010PropOp38
 70
     0
102
RTVSPost2010Prop39
140
1.0
102
RTVSPost2010PropOp39
 70
     0
102
RTVSPost2010Prop40
 90
        0
102
RTVSPost2010PropOp40
 70
     0
102
RTVSPost2010Prop41ColorIndex
 90
       18
102
RTVSPost2010Prop41ColorRGB
 90
        0
102
RTVSPost2010PropOp41
 70
     0
102
RTVSPost2010Prop42
 90
       50
102
RTVSPost2010PropOp42
 70
     0
102
RTVSPost2010Prop43
 90
        3
102
RTVSPost2010PropOp43
 70
     0
102
RTVSPost2010Prop44ColorIndex
 90
        5
102
RTVSPost2010Prop44ColorRGB
 90
      255
102
RTVSPost2010PropOp44
 70
     0
102
RTVSPost2010Prop45
280
     0
102
RTVSPost2010PropOp45
 70
     0
102
RTVSPost2010Prop46
 90
       50
102
RTVSPost2010PropOp46
 70
     0
102
RTVSPost2010Prop47
 90
       50
102
RTVSPost2010PropOp47
 70
     0
102
RTVSPost2010Prop48
 90
       50
102
RTVSPost2010PropOp48
 70
     0
102
RTVSPost2010Prop49
280
     0
102
RTVSPost2010PropOp49
 70
     0
102
RTVSPost2010Prop50
 90
       50
102
RTVSPost2010PropOp50
 70
     0
102
RTVSPost2010Prop51ColorIndex
 90
      256
102
RTVSPost2010Prop51ColorRGB
 90
-16777216
102
RTVSPost2010PropOp51
 70
     0
102
RTVSPost2010Prop52
140
1.0
102
RTVSPost2010PropOp52
 70
     0
102
RTVSPost2010Prop53
 90
        2
102
RTVSPost2010PropOp53
 70
     0
102
RTVSPost2010Prop54
  1
strokes_ogs.tif
102
RTVSPost2010PropOp54
 70
     0
102
RTVSPost2010Prop55
280
     0
102
RTVSPost2010PropOp55
 70
     0
102
RTVSPost2010Prop56
140
1.0
102
RTVSPost2010PropOp56
 70
     0
102
RTVSPost2010Prop57
140
1.0
102
RTVSPost2010PropOp57
 70
     0
  0
XRECORD
  5
3F9
102
{ACAD_REACTORS
330
3F8
102
}
330
3F8
100
AcDbXrecord
280
     1
102
RTVSPropertyOp0
 70
     1
102
RTVSPropertyOp1
 70
     1
102
RTVSPropertyOp2
 70
     1
102
RTVSPropertyOp3
 70
     1
102
RTVSPropertyOp4
 70
     1
102
RTVSPropertyOp5
 70
     1
102
RTVSPropertyOp6
 70
     1
102
RTVSPropertyOp7
 70
     1
102
RTVSPropertyOp8
 70
     1
102
RTVSPropertyOp9
 70
     1
102
RTVSPropertyOp10
 70
     1
102
RTVSPropertyOp11
 70
     1
102
RTVSPropertyOp12
 70
     1
102
RTVSPropertyOp13
 70
     1
102
RTVSPropertyOp14
 70
     1
102
RTVSPropertyOp15
 70
     1
102
RTVSPropertyOp16
 70
     1
102
RTVSPropertyOp17
 70
     1
102
RTVSPropertyOp18
 70
     1
102
RTVSPropertyOp19
 70
     1
102
RTVSPropertyOp20
 70
     1
102
RTVSPropertyOp21
 70
     1
102
RTVSPropertyOp22
 70
     1
102
RTVSPropertyOp23
 70
     1
102
RTVSPropertyOp24
 70
     1
102
RTVSPropertyOp25
 70
     1
102
RTVSPropertyOp26
 70
     1
102
RTVSPropertyOp27
 70
     1
102
RTVSPropertyOp28
 70
     1
102
RTVSPropertyOp29
 70
     1
102
RTVSPropertyOp30
 70
     1
102
RTVSPropertyOp31
 70
     1
102
RTVSPropertyOp32
 70
     1
102
RTVSPropertyOp33
 70
     1
102
RTVSPropertyOp34
 70
     1
102
RTVSPropertyOp35
 70
     1
102
RTVSPropertyOp36
 70
     1
102
RTVSPropertyOp37
 70
     1
102
RTVSPropertyOp38
 70
     1
102
RTVSPropertyOp39
 70
     1
102
RTVSPropertyOp40
 70
     1
102
RTVSPropertyOp41
 70
     1
102
RTVSPropertyOp42
 70
     1
102
RTVSPropertyOp43
 70
     1
102
RTVSPropertyOp44
 70
     1
102
RTVSPropertyOp45
 70
     1
102
RTVSPropertyOp46
 70
     1
102
RTVSPropertyOp47
 70
     1
102
RTVSPropertyOp48
 70
     1
102
RTVSPropertyOp49
 70
     1
102
RTVSPropertyOp50
 70
     1
102
RTVSPropertyOp51
 70
     0
102
RTVSPropertyOp52
 70
     0
102
RTVSPropertyOp53
 70
     1
102
RTVSPropertyOp54
 70
     1
102
RTVSPropertyOp55
 70
     1
102
RTVSPropertyOp56
 70
     1
102
RTVSPropertyOp57
 70
     1
102
RTVSPost2010Prop28
280
     0
102
RTVSPost2010PropOp28
 70
     1
102
RTVSPost2010Prop29
280
     1
102
RTVSPost2010PropOp29
 70
     1
102
RTVSPost2010Prop30
280
     1
102
RTVSPost2010PropOp30
 70
     1
102
RTVSPost2010Prop31
280
     0
102
RTVSPost2010PropOp31
 70
     1
102
RTVSPost2010Prop32
280
     0
102
RTVSPost2010PropOp32
 70
     1
102
RTVSPost2010Prop33
280
     0
102
RTVSPost2010PropOp33
 70
     1
102
RTVSPost2010Prop34
280
     0
102
RTVSPost2010PropOp34
 70
     1
102
RTVSPost2010Prop35
280
     0
102
RTVSPost2010PropOp35
 70
     1
102
RTVSPost2010Prop36
280
     0
102
RTVSPost2010PropOp36
 70
     1
102
RTVSPost2010Prop37
 90
       50
102
RTVSPost2010PropOp37
 70
     1
102
RTVSPost2010Prop38
140
0.0
102
RTVSPost2010PropOp38
 70
     1
102
RTVSPost2010Prop39
140
1.0
102
RTVSPost2010PropOp39
 70
     1
102
RTVSPost2010Prop40
 90
        0
102
RTVSPost2010PropOp40
 70
     1
102
RTVSPost2010Prop41ColorIndex
 90
       18
102
RTVSPost2010Prop41ColorRGB
 90
        0
102
RTVSPost2010PropOp41
 70
     1
102
RTVSPost2010Prop42
 90
       50
102
RTVSPost2010PropOp42
 70
     1
102
RTVSPost2010Prop43
 90
        3
102
RTVSPost2010PropOp43
 70
     1
102
RTVSPost2010Prop44ColorIndex
 90
        5
102
RTVSPost2010Prop44ColorRGB
 90
      255
102
RTVSPost2010PropOp44
 70
     1
102
RTVSPost2010Prop45
280
     0
102
RTVSPost2010PropOp45
 70
     1
102
RTVSPost2010Prop46
 90
       50
102
RTVSPost2010PropOp46
 70
     1
102
RTVSPost2010Prop47
 90
       50
102
RTVSPost2010PropOp47
 70
     1
102
RTVSPost2010Prop48
 90
       50
102
RTVSPost2010PropOp48
 70
     1
102
RTVSPost2010Prop49
280
     0
102
RTVSPost2010PropOp49
 70
     1
102
RTVSPost2010Prop50
 90
       50
102
RTVSPost2010PropOp50
 70
     1
102
RTVSPost2010Prop51ColorIndex
 90
      256
102
RTVSPost2010Prop51ColorRGB
 90
-16777216
102
RTVSPost2010PropOp51
 70
     0
102
RTVSPost2010Prop52
140
1.0
102
RTVSPost2010PropOp52
 70
     0
102
RTVSPost2010Prop53
 90
        2
102
RTVSPost2010PropOp53
 70
     1
102
RTVSPost2010Prop54
  1
strokes_ogs.tif
102
RTVSPost2010PropOp54
 70
     1
102
RTVSPost2010Prop55
280
     0
102
RTVSPost2010PropOp55
 70
     1
102
RTVSPost2010Prop56
140
1.0
102
RTVSPost2010PropOp56
 70
     1
102
RTVSPost2010Prop57
140
1.0
102
RTVSPost2010PropOp57
 70
     1
  0
XRECORD
  5
401
102
{ACAD_REACTORS
330
400
102
}
330
400
100
AcDbXrecord
280
     1
102
RTVSPropertyOp0
 70
     0
102
RTVSPropertyOp1
 70
     0
102
RTVSPropertyOp2
 70
     0
102
RTVSPropertyOp3
 70
     0
102
RTVSPropertyOp4
 70
     0
102
RTVSPropertyOp5
 70
     0
102
RTVSPropertyOp6
 70
     0
102
RTVSPropertyOp7
 70
     0
102
RTVSPropertyOp8
 70
     0
102
RTVSPropertyOp9
 70
     0
102
RTVSPropertyOp10
 70
     0
102
RTVSPropertyOp11
 70
     0
102
RTVSPropertyOp12
 70
     0
102
RTVSPropertyOp13
 70
     0
102
RTVSPropertyOp14
 70
     2
102
RTVSPropertyOp15
 70
     0
102
RTVSPropertyOp16
 70
     0
102
RTVSPropertyOp17
 70
     0
102
RTVSPropertyOp18
 70
     0
102
RTVSPropertyOp19
 70
     0
102
RTVSPropertyOp20
 70
     0
102
RTVSPropertyOp21
 70
     0
102
RTVSPropertyOp22
 70
     0
102
RTVSPropertyOp23
 70
     0
102
RTVSPropertyOp24
 70
     0
102
RTVSPropertyOp25
 70
     0
102
RTVSPropertyOp26
 70
     0
102
RTVSPropertyOp27
 70
     0
102
RTVSPropertyOp28
 70
     0
102
RTVSPropertyOp29
 70
     0
102
RTVSPropertyOp30
 70
     0
102
RTVSPropertyOp31
 70
     0
102
RTVSPropertyOp32
 70
     0
102
RTVSPropertyOp33
 70
     0
102
RTVSPropertyOp34
 70
     0
102
RTVSPropertyOp35
 70
     0
102
RTVSPropertyOp36
 70
     0
102
RTVSPropertyOp37
 70
     0
102
RTVSPropertyOp38
 70
     0
102
RTVSPropertyOp39
 70
     0
102
RTVSPropertyOp40
 70
     0
102
RTVSPropertyOp41
 70
     0
102
RTVSPropertyOp42
 70
     0
102
RTVSPropertyOp43
 70
     0
102
RTVSPropertyOp44
 70
     0
102
RTVSPropertyOp45
 70
     0
102
RTVSPropertyOp46
 70
     0
102
RTVSPropertyOp47
 70
     0
102
RTVSPropertyOp48
 70
     0
102
RTVSPropertyOp49
 70
     0
102
RTVSPropertyOp50
 70
     0
102
RTVSPropertyOp51
 70
     0
102
RTVSPropertyOp52
 70
     0
102
RTVSPropertyOp53
 70
     0
102
RTVSPropertyOp54
 70
     0
102
RTVSPropertyOp55
 70
     0
102
RTVSPropertyOp56
 70
     0
102
RTVSPropertyOp57
 70
     0
102
RTVSPost2010Prop28
280
     0
102
RTVSPost2010PropOp28
 70
     0
102
RTVSPost2010Prop29
280
     1
102
RTVSPost2010PropOp29
 70
     0
102
RTVSPost2010Prop30
280
     1
102
RTVSPost2010PropOp30
 70
     0
102
RTVSPost2010Prop31
280
     0
102
RTVSPost2010PropOp31
 70
     0
102
RTVSPost2010Prop32
280
     0
102
RTVSPost2010PropOp32
 70
     0
102
RTVSPost2010Prop33
280
     0
102
RTVSPost2010PropOp33
 70
     0
102
RTVSPost2010Prop34
280
     0
102
RTVSPost2010PropOp34
 70
     0
102
RTVSPost2010Prop35
280
     0
102
RTVSPost2010PropOp35
 70
     0
102
RTVSPost2010Prop36
280
     0
102
RTVSPost2010PropOp36
 70
     0
102
RTVSPost2010Prop37
 90
       50
102
RTVSPost2010PropOp37
 70
     0
102
RTVSPost2010Prop38
140
0.0
102
RTVSPost2010PropOp38
 70
     0
102
RTVSPost2010Prop39
140
1.0
102
RTVSPost2010PropOp39
 70
     0
102
RTVSPost2010Prop40
 90
        0
102
RTVSPost2010PropOp40
 70
     0
102
RTVSPost2010Prop41ColorIndex
 90
       18
102
RTVSPost2010Prop41ColorRGB
 90
        0
102
RTVSPost2010PropOp41
 70
     0
102
RTVSPost2010Prop42
 90
       50
102
RTVSPost2010PropOp42
 70
     0
102
RTVSPost2010Prop43
 90
        3
102
RTVSPost2010PropOp43
 70
     0
102
RTVSPost2010Prop44ColorIndex
 90
        5
102
RTVSPost2010Prop44ColorRGB
 90
      255
102
RTVSPost2010PropOp44
 70
     0
102
RTVSPost2010Prop45
280
     0
102
RTVSPost2010PropOp45
 70
     0
102
RTVSPost2010Prop46
 90
       50
102
RTVSPost2010PropOp46
 70
     0
102
RTVSPost2010Prop47
 90
       50
102
RTVSPost2010PropOp47
 70
     0
102
RTVSPost2010Prop48
 90
       50
102
RTVSPost2010PropOp48
 70
     0
102
RTVSPost2010Prop49
280
     0
102
RTVSPost2010PropOp49
 70
     0
102
RTVSPost2010Prop50
 90
       50
102
RTVSPost2010PropOp50
 70
     0
102
RTVSPost2010Prop51ColorIndex
 90
      256
102
RTVSPost2010Prop51ColorRGB
 90
-16777216
102
RTVSPost2010PropOp51
 70
     0
102
RTVSPost2010Prop52
140
1.0
102
RTVSPost2010PropOp52
 70
     0
102
RTVSPost2010Prop53
 90
        2
102
RTVSPost2010PropOp53
 70
     0
102
RTVSPost2010Prop54
  1
strokes_ogs.tif
102
RTVSPost2010PropOp54
 70
     0
102
RTVSPost2010Prop55
280
     0
102
RTVSPost2010PropOp55
 70
     0
102
RTVSPost2010Prop56
140
1.0
102
RTVSPost2010PropOp56
 70
     0
102
RTVSPost2010Prop57
140
1.0
102
RTVSPost2010PropOp57
 70
     0
  0
XRECORD
  5
3EF
102
{ACAD_REACTORS
330
3EE
102
}
330
3EE
100
AcDbXrecord
280
     1
102
RTVSPropertyOp0
 70
     1
102
RTVSPropertyOp1
 70
     1
102
RTVSPropertyOp2
 70
     1
102
RTVSPropertyOp3
 70
     1
102
RTVSPropertyOp4
 70
     1
102
RTVSPropertyOp5
 70
     1
102
RTVSPropertyOp6
 70
     1
102
RTVSPropertyOp7
 70
     1
102
RTVSPropertyOp8
 70
     1
102
RTVSPropertyOp9
 70
     1
102
RTVSPropertyOp10
 70
     1
102
RTVSPropertyOp11
 70
     1
102
RTVSPropertyOp12
 70
     1
102
RTVSPropertyOp13
 70
     1
102
RTVSPropertyOp14
 70
     1
102
RTVSPropertyOp15
 70
     1
102
RTVSPropertyOp16
 70
     1
102
RTVSPropertyOp17
 70
     1
102
RTVSPropertyOp18
 70
     1
102
RTVSPropertyOp19
 70
     1
102
RTVSPropertyOp20
 70
     1
102
RTVSPropertyOp21
 70
     1
102
RTVSPropertyOp22
 70
     1
102
RTVSPropertyOp23
 70
     1
102
RTVSPropertyOp24
 70
     1
102
RTVSPropertyOp25
 70
     1
102
RTVSPropertyOp26
 70
     1
102
RTVSPropertyOp27
 70
     1
102
RTVSPropertyOp28
 70
     1
102
RTVSPropertyOp29
 70
     1
102
RTVSPropertyOp30
 70
     1
102
RTVSPropertyOp31
 70
     1
102
RTVSPropertyOp32
 70
     1
102
RTVSPropertyOp33
 70
     1
102
RTVSPropertyOp34
 70
     1
102
RTVSPropertyOp35
 70
     1
102
RTVSPropertyOp36
 70
     1
102
RTVSPropertyOp37
 70
     1
102
RTVSPropertyOp38
 70
     1
102
RTVSPropertyOp39
 70
     1
102
RTVSPropertyOp40
 70
     1
102
RTVSPropertyOp41
 70
     1
102
RTVSPropertyOp42
 70
     1
102
RTVSPropertyOp43
 70
     1
102
RTVSPropertyOp44
 70
     1
102
RTVSPropertyOp45
 70
     1
102
RTVSPropertyOp46
 70
     1
102
RTVSPropertyOp47
 70
     1
102
RTVSPropertyOp48
 70
     1
102
RTVSPropertyOp49
 70
     1
102
RTVSPropertyOp50
 70
     1
102
RTVSPropertyOp51
 70
     0
102
RTVSPropertyOp52
 70
     0
102
RTVSPropertyOp53
 70
     1
102
RTVSPropertyOp54
 70
     1
102
RTVSPropertyOp55
 70
     1
102
RTVSPropertyOp56
 70
     1
102
RTVSPropertyOp57
 70
     1
102
RTVSPost2010Prop28
280
     0
102
RTVSPost2010PropOp28
 70
     1
102
RTVSPost2010Prop29
280
     1
102
RTVSPost2010PropOp29
 70
     1
102
RTVSPost2010Prop30
280
     1
102
RTVSPost2010PropOp30
 70
     1
102
RTVSPost2010Prop31
280
     0
102
RTVSPost2010PropOp31
 70
     1
102
RTVSPost2010Prop32
280
     0
102
RTVSPost2010PropOp32
 70
     1
102
RTVSPost2010Prop33
280
     0
102
RTVSPost2010PropOp33
 70
     1
102
RTVSPost2010Prop34
280
     0
102
RTVSPost2010PropOp34
 70
     1
102
RTVSPost2010Prop35
280
     0
102
RTVSPost2010PropOp35
 70
     1
102
RTVSPost2010Prop36
280
     0
102
RTVSPost2010PropOp36
 70
     1
102
RTVSPost2010Prop37
 90
       50
102
RTVSPost2010PropOp37
 70
     1
102
RTVSPost2010Prop38
140
0.0
102
RTVSPost2010PropOp38
 70
     1
102
RTVSPost2010Prop39
140
1.0
102
RTVSPost2010PropOp39
 70
     1
102
RTVSPost2010Prop40
 90
        0
102
RTVSPost2010PropOp40
 70
     1
102
RTVSPost2010Prop41ColorIndex
 90
       18
102
RTVSPost2010Prop41ColorRGB
 90
        0
102
RTVSPost2010PropOp41
 70
     1
102
RTVSPost2010Prop42
 90
       50
102
RTVSPost2010PropOp42
 70
     1
102
RTVSPost2010Prop43
 90
        3
102
RTVSPost2010PropOp43
 70
     1
102
RTVSPost2010Prop44ColorIndex
 90
        5
102
RTVSPost2010Prop44ColorRGB
 90
      255
102
RTVSPost2010PropOp44
 70
     1
102
RTVSPost2010Prop45
280
     0
102
RTVSPost2010PropOp45
 70
     1
102
RTVSPost2010Prop46
 90
       50
102
RTVSPost2010PropOp46
 70
     1
102
RTVSPost2010Prop47
 90
       50
102
RTVSPost2010PropOp47
 70
     1
102
RTVSPost2010Prop48
 90
       50
102
RTVSPost2010PropOp48
 70
     1
102
RTVSPost2010Prop49
280
     0
102
RTVSPost2010PropOp49
 70
     1
102
RTVSPost2010Prop50
 90
       50
102
RTVSPost2010PropOp50
 70
     1
102
RTVSPost2010Prop51ColorIndex
 90
      256
102
RTVSPost2010Prop51ColorRGB
 90
-16777216
102
RTVSPost2010PropOp51
 70
     0
102
RTVSPost2010Prop52
140
1.0
102
RTVSPost2010PropOp52
 70
     0
102
RTVSPost2010Prop53
 90
        2
102
RTVSPost2010PropOp53
 70
     1
102
RTVSPost2010Prop54
  1
strokes_ogs.tif
102
RTVSPost2010PropOp54
 70
     1
102
RTVSPost2010Prop55
280
     0
102
RTVSPost2010PropOp55
 70
     1
102
RTVSPost2010Prop56
140
1.0
102
RTVSPost2010PropOp56
 70
     1
102
RTVSPost2010Prop57
140
1.0
102
RTVSPost2010PropOp57
 70
     1
  0
XRECORD
  5
40D
102
{ACAD_REACTORS
330
40C
102
}
330
40C
100
AcDbXrecord
280
     1
102
RTVSPropertyOp0
 70
     1
102
RTVSPropertyOp1
 70
     1
102
RTVSPropertyOp2
 70
     1
102
RTVSPropertyOp3
 70
     1
102
RTVSPropertyOp4
 70
     1
102
RTVSPropertyOp5
 70
     1
102
RTVSPropertyOp6
 70
     1
102
RTVSPropertyOp7
 70
     1
102
RTVSPropertyOp8
 70
     1
102
RTVSPropertyOp9
 70
     1
102
RTVSPropertyOp10
 70
     1
102
RTVSPropertyOp11
 70
     1
102
RTVSPropertyOp12
 70
     1
102
RTVSPropertyOp13
 70
     1
102
RTVSPropertyOp14
 70
     1
102
RTVSPropertyOp15
 70
     1
102
RTVSPropertyOp16
 70
     1
102
RTVSPropertyOp17
 70
     1
102
RTVSPropertyOp18
 70
     1
102
RTVSPropertyOp19
 70
     1
102
RTVSPropertyOp20
 70
     1
102
RTVSPropertyOp21
 70
     1
102
RTVSPropertyOp22
 70
     1
102
RTVSPropertyOp23
 70
     1
102
RTVSPropertyOp24
 70
     1
102
RTVSPropertyOp25
 70
     1
102
RTVSPropertyOp26
 70
     1
102
RTVSPropertyOp27
 70
     1
102
RTVSPropertyOp28
 70
     1
102
RTVSPropertyOp29
 70
     1
102
RTVSPropertyOp30
 70
     1
102
RTVSPropertyOp31
 70
     1
102
RTVSPropertyOp32
 70
     1
102
RTVSPropertyOp33
 70
     1
102
RTVSPropertyOp34
 70
     1
102
RTVSPropertyOp35
 70
     1
102
RTVSPropertyOp36
 70
     1
102
RTVSPropertyOp37
 70
     1
102
RTVSPropertyOp38
 70
     1
102
RTVSPropertyOp39
 70
     1
102
RTVSPropertyOp40
 70
     1
102
RTVSPropertyOp41
 70
     1
102
RTVSPropertyOp42
 70
     1
102
RTVSPropertyOp43
 70
     1
102
RTVSPropertyOp44
 70
     1
102
RTVSPropertyOp45
 70
     1
102
RTVSPropertyOp46
 70
     1
102
RTVSPropertyOp47
 70
     1
102
RTVSPropertyOp48
 70
     1
102
RTVSPropertyOp49
 70
     1
102
RTVSPropertyOp50
 70
     1
102
RTVSPropertyOp51
 70
     0
102
RTVSPropertyOp52
 70
     0
102
RTVSPropertyOp53
 70
     1
102
RTVSPropertyOp54
 70
     1
102
RTVSPropertyOp55
 70
     1
102
RTVSPropertyOp56
 70
     1
102
RTVSPropertyOp57
 70
     1
102
RTVSPost2010Prop28
280
     0
102
RTVSPost2010PropOp28
 70
     1
102
RTVSPost2010Prop29
280
     1
102
RTVSPost2010PropOp29
 70
     1
102
RTVSPost2010Prop30
280
     1
102
RTVSPost2010PropOp30
 70
     1
102
RTVSPost2010Prop31
280
     0
102
RTVSPost2010PropOp31
 70
     1
102
RTVSPost2010Prop32
280
     0
102
RTVSPost2010PropOp32
 70
     1
102
RTVSPost2010Prop33
280
     0
102
RTVSPost2010PropOp33
 70
     1
102
RTVSPost2010Prop34
280
     0
102
RTVSPost2010PropOp34
 70
     1
102
RTVSPost2010Prop35
280
     0
102
RTVSPost2010PropOp35
 70
     1
102
RTVSPost2010Prop36
280
     0
102
RTVSPost2010PropOp36
 70
     1
102
RTVSPost2010Prop37
 90
       50
102
RTVSPost2010PropOp37
 70
     1
102
RTVSPost2010Prop38
140
0.0
102
RTVSPost2010PropOp38
 70
     1
102
RTVSPost2010Prop39
140
1.0
102
RTVSPost2010PropOp39
 70
     1
102
RTVSPost2010Prop40
 90
        0
102
RTVSPost2010PropOp40
 70
     1
102
RTVSPost2010Prop41ColorIndex
 90
       18
102
RTVSPost2010Prop41ColorRGB
 90
        0
102
RTVSPost2010PropOp41
 70
     1
102
RTVSPost2010Prop42
 90
       50
102
RTVSPost2010PropOp42
 70
     1
102
RTVSPost2010Prop43
 90
        3
102
RTVSPost2010PropOp43
 70
     1
102
RTVSPost2010Prop44ColorIndex
 90
        5
102
RTVSPost2010Prop44ColorRGB
 90
      255
102
RTVSPost2010PropOp44
 70
     1
102
RTVSPost2010Prop45
280
     0
102
RTVSPost2010PropOp45
 70
     1
102
RTVSPost2010Prop46
 90
       50
102
RTVSPost2010PropOp46
 70
     1
102
RTVSPost2010Prop47
 90
       50
102
RTVSPost2010PropOp47
 70
     1
102
RTVSPost2010Prop48
 90
       50
102
RTVSPost2010PropOp48
 70
     1
102
RTVSPost2010Prop49
280
     0
102
RTVSPost2010PropOp49
 70
     1
102
RTVSPost2010Prop50
 90
       50
102
RTVSPost2010PropOp50
 70
     1
102
RTVSPost2010Prop51ColorIndex
 90
      256
102
RTVSPost2010Prop51ColorRGB
 90
-16777216
102
RTVSPost2010PropOp51
 70
     0
102
RTVSPost2010Prop52
140
1.0
102
RTVSPost2010PropOp52
 70
     0
102
RTVSPost2010Prop53
 90
        2
102
RTVSPost2010PropOp53
 70
     1
102
RTVSPost2010Prop54
  1
strokes_ogs.tif
102
RTVSPost2010PropOp54
 70
     1
102
RTVSPost2010Prop55
280
     0
102
RTVSPost2010PropOp55
 70
     1
102
RTVSPost2010Prop56
140
1.0
102
RTVSPost2010PropOp56
 70
     1
102
RTVSPost2010Prop57
140
1.0
102
RTVSPost2010PropOp57
 70
     1
  0
XRECORD
  5
40B
102
{ACAD_REACTORS
330
40A
102
}
330
40A
100
AcDbXrecord
280
     1
102
RTVSPropertyOp0
 70
     1
102
RTVSPropertyOp1
 70
     1
102
RTVSPropertyOp2
 70
     1
102
RTVSPropertyOp3
 70
     1
102
RTVSPropertyOp4
 70
     1
102
RTVSPropertyOp5
 70
     1
102
RTVSPropertyOp6
 70
     1
102
RTVSPropertyOp7
 70
     1
102
RTVSPropertyOp8
 70
     1
102
RTVSPropertyOp9
 70
     1
102
RTVSPropertyOp10
 70
     1
102
RTVSPropertyOp11
 70
     1
102
RTVSPropertyOp12
 70
     1
102
RTVSPropertyOp13
 70
     1
102
RTVSPropertyOp14
 70
     1
102
RTVSPropertyOp15
 70
     1
102
RTVSPropertyOp16
 70
     1
102
RTVSPropertyOp17
 70
     1
102
RTVSPropertyOp18
 70
     1
102
RTVSPropertyOp19
 70
     1
102
RTVSPropertyOp20
 70
     1
102
RTVSPropertyOp21
 70
     1
102
RTVSPropertyOp22
 70
     1
102
RTVSPropertyOp23
 70
     1
102
RTVSPropertyOp24
 70
     1
102
RTVSPropertyOp25
 70
     1
102
RTVSPropertyOp26
 70
     1
102
RTVSPropertyOp27
 70
     1
102
RTVSPropertyOp28
 70
     1
102
RTVSPropertyOp29
 70
     1
102
RTVSPropertyOp30
 70
     1
102
RTVSPropertyOp31
 70
     1
102
RTVSPropertyOp32
 70
     1
102
RTVSPropertyOp33
 70
     1
102
RTVSPropertyOp34
 70
     1
102
RTVSPropertyOp35
 70
     1
102
RTVSPropertyOp36
 70
     1
102
RTVSPropertyOp37
 70
     1
102
RTVSPropertyOp38
 70
     1
102
RTVSPropertyOp39
 70
     1
102
RTVSPropertyOp40
 70
     1
102
RTVSPropertyOp41
 70
     1
102
RTVSPropertyOp42
 70
     1
102
RTVSPropertyOp43
 70
     1
102
RTVSPropertyOp44
 70
     1
102
RTVSPropertyOp45
 70
     1
102
RTVSPropertyOp46
 70
     1
102
RTVSPropertyOp47
 70
     1
102
RTVSPropertyOp48
 70
     1
102
RTVSPropertyOp49
 70
     1
102
RTVSPropertyOp50
 70
     1
102
RTVSPropertyOp51
 70
     0
102
RTVSPropertyOp52
 70
     0
102
RTVSPropertyOp53
 70
     1
102
RTVSPropertyOp54
 70
     1
102
RTVSPropertyOp55
 70
     1
102
RTVSPropertyOp56
 70
     1
102
RTVSPropertyOp57
 70
     1
102
RTVSPost2010Prop28
280
     0
102
RTVSPost2010PropOp28
 70
     1
102
RTVSPost2010Prop29
280
     1
102
RTVSPost2010PropOp29
 70
     1
102
RTVSPost2010Prop30
280
     1
102
RTVSPost2010PropOp30
 70
     1
102
RTVSPost2010Prop31
280
     0
102
RTVSPost2010PropOp31
 70
     1
102
RTVSPost2010Prop32
280
     0
102
RTVSPost2010PropOp32
 70
     1
102
RTVSPost2010Prop33
280
     0
102
RTVSPost2010PropOp33
 70
     1
102
RTVSPost2010Prop34
280
     0
102
RTVSPost2010PropOp34
 70
     1
102
RTVSPost2010Prop35
280
     0
102
RTVSPost2010PropOp35
 70
     1
102
RTVSPost2010Prop36
280
     0
102
RTVSPost2010PropOp36
 70
     1
102
RTVSPost2010Prop37
 90
       50
102
RTVSPost2010PropOp37
 70
     1
102
RTVSPost2010Prop38
140
0.0
102
RTVSPost2010PropOp38
 70
     1
102
RTVSPost2010Prop39
140
1.0
102
RTVSPost2010PropOp39
 70
     1
102
RTVSPost2010Prop40
 90
        0
102
RTVSPost2010PropOp40
 70
     1
102
RTVSPost2010Prop41ColorIndex
 90
       18
102
RTVSPost2010Prop41ColorRGB
 90
        0
102
RTVSPost2010PropOp41
 70
     1
102
RTVSPost2010Prop42
 90
       50
102
RTVSPost2010PropOp42
 70
     1
102
RTVSPost2010Prop43
 90
        3
102
RTVSPost2010PropOp43
 70
     1
102
RTVSPost2010Prop44ColorIndex
 90
        5
102
RTVSPost2010Prop44ColorRGB
 90
      255
102
RTVSPost2010PropOp44
 70
     1
102
RTVSPost2010Prop45
280
     0
102
RTVSPost2010PropOp45
 70
     1
102
RTVSPost2010Prop46
 90
       50
102
RTVSPost2010PropOp46
 70
     1
102
RTVSPost2010Prop47
 90
       50
102
RTVSPost2010PropOp47
 70
     1
102
RTVSPost2010Prop48
 90
       50
102
RTVSPost2010PropOp48
 70
     1
102
RTVSPost2010Prop49
280
     0
102
RTVSPost2010PropOp49
 70
     1
102
RTVSPost2010Prop50
 90
       50
102
RTVSPost2010PropOp50
 70
     1
102
RTVSPost2010Prop51ColorIndex
 90
      256
102
RTVSPost2010Prop51ColorRGB
 90
-16777216
102
RTVSPost2010PropOp51
 70
     0
102
RTVSPost2010Prop52
140
1.0
102
RTVSPost2010PropOp52
 70
     0
102
RTVSPost2010Prop53
 90
        2
102
RTVSPost2010PropOp53
 70
     1
102
RTVSPost2010Prop54
  1
strokes_ogs.tif
102
RTVSPost2010PropOp54
 70
     1
102
RTVSPost2010Prop55
280
     0
102
RTVSPost2010PropOp55
 70
     1
102
RTVSPost2010Prop56
140
1.0
102
RTVSPost2010PropOp56
 70
     1
102
RTVSPost2010Prop57
140
1.0
102
RTVSPost2010PropOp57
 70
     1
  0
XRECORD
  5
405
102
{ACAD_REACTORS
330
404
102
}
330
404
100
AcDbXrecord
280
     1
102
RTVSPropertyOp0
 70
     1
102
RTVSPropertyOp1
 70
     1
102
RTVSPropertyOp2
 70
     1
102
RTVSPropertyOp3
 70
     1
102
RTVSPropertyOp4
 70
     1
102
RTVSPropertyOp5
 70
     1
102
RTVSPropertyOp6
 70
     1
102
RTVSPropertyOp7
 70
     1
102
RTVSPropertyOp8
 70
     1
102
RTVSPropertyOp9
 70
     1
102
RTVSPropertyOp10
 70
     1
102
RTVSPropertyOp11
 70
     1
102
RTVSPropertyOp12
 70
     1
102
RTVSPropertyOp13
 70
     1
102
RTVSPropertyOp14
 70
     1
102
RTVSPropertyOp15
 70
     1
102
RTVSPropertyOp16
 70
     1
102
RTVSPropertyOp17
 70
     1
102
RTVSPropertyOp18
 70
     1
102
RTVSPropertyOp19
 70
     1
102
RTVSPropertyOp20
 70
     1
102
RTVSPropertyOp21
 70
     1
102
RTVSPropertyOp22
 70
     1
102
RTVSPropertyOp23
 70
     1
102
RTVSPropertyOp24
 70
     1
102
RTVSPropertyOp25
 70
     1
102
RTVSPropertyOp26
 70
     1
102
RTVSPropertyOp27
 70
     1
102
RTVSPropertyOp28
 70
     1
102
RTVSPropertyOp29
 70
     1
102
RTVSPropertyOp30
 70
     1
102
RTVSPropertyOp31
 70
     1
102
RTVSPropertyOp32
 70
     1
102
RTVSPropertyOp33
 70
     1
102
RTVSPropertyOp34
 70
     1
102
RTVSPropertyOp35
 70
     1
102
RTVSPropertyOp36
 70
     1
102
RTVSPropertyOp37
 70
     1
102
RTVSPropertyOp38
 70
     1
102
RTVSPropertyOp39
 70
     1
102
RTVSPropertyOp40
 70
     1
102
RTVSPropertyOp41
 70
     1
102
RTVSPropertyOp42
 70
     1
102
RTVSPropertyOp43
 70
     1
102
RTVSPropertyOp44
 70
     1
102
RTVSPropertyOp45
 70
     1
102
RTVSPropertyOp46
 70
     1
102
RTVSPropertyOp47
 70
     1
102
RTVSPropertyOp48
 70
     1
102
RTVSPropertyOp49
 70
     1
102
RTVSPropertyOp50
 70
     1
102
RTVSPropertyOp51
 70
     0
102
RTVSPropertyOp52
 70
     0
102
RTVSPropertyOp53
 70
     1
102
RTVSPropertyOp54
 70
     1
102
RTVSPropertyOp55
 70
     1
102
RTVSPropertyOp56
 70
     1
102
RTVSPropertyOp57
 70
     1
102
RTVSPost2010Prop28
280
     0
102
RTVSPost2010PropOp28
 70
     1
102
RTVSPost2010Prop29
280
     1
102
RTVSPost2010PropOp29
 70
     1
102
RTVSPost2010Prop30
280
     1
102
RTVSPost2010PropOp30
 70
     1
102
RTVSPost2010Prop31
280
     0
102
RTVSPost2010PropOp31
 70
     1
102
RTVSPost2010Prop32
280
     0
102
RTVSPost2010PropOp32
 70
     1
102
RTVSPost2010Prop33
280
     0
102
RTVSPost2010PropOp33
 70
     1
102
RTVSPost2010Prop34
280
     0
102
RTVSPost2010PropOp34
 70
     1
102
RTVSPost2010Prop35
280
     0
102
RTVSPost2010PropOp35
 70
     1
102
RTVSPost2010Prop36
280
     0
102
RTVSPost2010PropOp36
 70
     1
102
RTVSPost2010Prop37
 90
       50
102
RTVSPost2010PropOp37
 70
     1
102
RTVSPost2010Prop38
140
0.0
102
RTVSPost2010PropOp38
 70
     1
102
RTVSPost2010Prop39
140
1.0
102
RTVSPost2010PropOp39
 70
     1
102
RTVSPost2010Prop40
 90
        0
102
RTVSPost2010PropOp40
 70
     1
102
RTVSPost2010Prop41ColorIndex
 90
       18
102
RTVSPost2010Prop41ColorRGB
 90
        0
102
RTVSPost2010PropOp41
 70
     1
102
RTVSPost2010Prop42
 90
       50
102
RTVSPost2010PropOp42
 70
     1
102
RTVSPost2010Prop43
 90
        3
102
RTVSPost2010PropOp43
 70
     1
102
RTVSPost2010Prop44ColorIndex
 90
        5
102
RTVSPost2010Prop44ColorRGB
 90
      255
102
RTVSPost2010PropOp44
 70
     1
102
RTVSPost2010Prop45
280
     0
102
RTVSPost2010PropOp45
 70
     1
102
RTVSPost2010Prop46
 90
       50
102
RTVSPost2010PropOp46
 70
     1
102
RTVSPost2010Prop47
 90
       50
102
RTVSPost2010PropOp47
 70
     1
102
RTVSPost2010Prop48
 90
       50
102
RTVSPost2010PropOp48
 70
     1
102
RTVSPost2010Prop49
280
     0
102
RTVSPost2010PropOp49
 70
     1
102
RTVSPost2010Prop50
 90
       50
102
RTVSPost2010PropOp50
 70
     1
102
RTVSPost2010Prop51ColorIndex
 90
      256
102
RTVSPost2010Prop51ColorRGB
 90
-16777216
102
RTVSPost2010PropOp51
 70
     0
102
RTVSPost2010Prop52
140
1.0
102
RTVSPost2010PropOp52
 70
     0
102
RTVSPost2010Prop53
 90
        2
102
RTVSPost2010PropOp53
 70
     1
102
RTVSPost2010Prop54
  1
strokes_ogs.tif
102
RTVSPost2010PropOp54
 70
     1
102
RTVSPost2010Prop55
280
     0
102
RTVSPost2010PropOp55
 70
     1
102
RTVSPost2010Prop56
140
1.0
102
RTVSPost2010PropOp56
 70
     1
102
RTVSPost2010Prop57
140
1.0
102
RTVSPost2010PropOp57
 70
     1
  0
XRECORD
  5
407
102
{ACAD_REACTORS
330
406
102
}
330
406
100
AcDbXrecord
280
     1
102
RTVSPropertyOp0
 70
     1
102
RTVSPropertyOp1
 70
     1
102
RTVSPropertyOp2
 70
     1
102
RTVSPropertyOp3
 70
     1
102
RTVSPropertyOp4
 70
     1
102
RTVSPropertyOp5
 70
     1
102
RTVSPropertyOp6
 70
     1
102
RTVSPropertyOp7
 70
     1
102
RTVSPropertyOp8
 70
     1
102
RTVSPropertyOp9
 70
     1
102
RTVSPropertyOp10
 70
     1
102
RTVSPropertyOp11
 70
     1
102
RTVSPropertyOp12
 70
     1
102
RTVSPropertyOp13
 70
     1
102
RTVSPropertyOp14
 70
     1
102
RTVSPropertyOp15
 70
     1
102
RTVSPropertyOp16
 70
     1
102
RTVSPropertyOp17
 70
     1
102
RTVSPropertyOp18
 70
     1
102
RTVSPropertyOp19
 70
     1
102
RTVSPropertyOp20
 70
     1
102
RTVSPropertyOp21
 70
     1
102
RTVSPropertyOp22
 70
     1
102
RTVSPropertyOp23
 70
     1
102
RTVSPropertyOp24
 70
     1
102
RTVSPropertyOp25
 70
     1
102
RTVSPropertyOp26
 70
     1
102
RTVSPropertyOp27
 70
     1
102
RTVSPropertyOp28
 70
     1
102
RTVSPropertyOp29
 70
     1
102
RTVSPropertyOp30
 70
     1
102
RTVSPropertyOp31
 70
     1
102
RTVSPropertyOp32
 70
     1
102
RTVSPropertyOp33
 70
     1
102
RTVSPropertyOp34
 70
     1
102
RTVSPropertyOp35
 70
     1
102
RTVSPropertyOp36
 70
     1
102
RTVSPropertyOp37
 70
     1
102
RTVSPropertyOp38
 70
     1
102
RTVSPropertyOp39
 70
     1
102
RTVSPropertyOp40
 70
     1
102
RTVSPropertyOp41
 70
     1
102
RTVSPropertyOp42
 70
     1
102
RTVSPropertyOp43
 70
     1
102
RTVSPropertyOp44
 70
     1
102
RTVSPropertyOp45
 70
     1
102
RTVSPropertyOp46
 70
     1
102
RTVSPropertyOp47
 70
     1
102
RTVSPropertyOp48
 70
     1
102
RTVSPropertyOp49
 70
     1
102
RTVSPropertyOp50
 70
     1
102
RTVSPropertyOp51
 70
     0
102
RTVSPropertyOp52
 70
     0
102
RTVSPropertyOp53
 70
     1
102
RTVSPropertyOp54
 70
     1
102
RTVSPropertyOp55
 70
     1
102
RTVSPropertyOp56
 70
     1
102
RTVSPropertyOp57
 70
     1
102
RTVSPost2010Prop28
280
     0
102
RTVSPost2010PropOp28
 70
     1
102
RTVSPost2010Prop29
280
     1
102
RTVSPost2010PropOp29
 70
     1
102
RTVSPost2010Prop30
280
     1
102
RTVSPost2010PropOp30
 70
     1
102
RTVSPost2010Prop31
280
     0
102
RTVSPost2010PropOp31
 70
     1
102
RTVSPost2010Prop32
280
     0
102
RTVSPost2010PropOp32
 70
     1
102
RTVSPost2010Prop33
280
     0
102
RTVSPost2010PropOp33
 70
     1
102
RTVSPost2010Prop34
280
     0
102
RTVSPost2010PropOp34
 70
     1
102
RTVSPost2010Prop35
280
     0
102
RTVSPost2010PropOp35
 70
     1
102
RTVSPost2010Prop36
280
     0
102
RTVSPost2010PropOp36
 70
     1
102
RTVSPost2010Prop37
 90
       50
102
RTVSPost2010PropOp37
 70
     1
102
RTVSPost2010Prop38
140
0.0
102
RTVSPost2010PropOp38
 70
     1
102
RTVSPost2010Prop39
140
1.0
102
RTVSPost2010PropOp39
 70
     1
102
RTVSPost2010Prop40
 90
        0
102
RTVSPost2010PropOp40
 70
     1
102
RTVSPost2010Prop41ColorIndex
 90
       18
102
RTVSPost2010Prop41ColorRGB
 90
        0
102
RTVSPost2010PropOp41
 70
     1
102
RTVSPost2010Prop42
 90
       50
102
RTVSPost2010PropOp42
 70
     1
102
RTVSPost2010Prop43
 90
        3
102
RTVSPost2010PropOp43
 70
     1
102
RTVSPost2010Prop44ColorIndex
 90
        5
102
RTVSPost2010Prop44ColorRGB
 90
      255
102
RTVSPost2010PropOp44
 70
     1
102
RTVSPost2010Prop45
280
     0
102
RTVSPost2010PropOp45
 70
     1
102
RTVSPost2010Prop46
 90
       50
102
RTVSPost2010PropOp46
 70
     1
102
RTVSPost2010Prop47
 90
       50
102
RTVSPost2010PropOp47
 70
     1
102
RTVSPost2010Prop48
 90
       50
102
RTVSPost2010PropOp48
 70
     1
102
RTVSPost2010Prop49
280
     0
102
RTVSPost2010PropOp49
 70
     1
102
RTVSPost2010Prop50
 90
       50
102
RTVSPost2010PropOp50
 70
     1
102
RTVSPost2010Prop51ColorIndex
 90
      256
102
RTVSPost2010Prop51ColorRGB
 90
-16777216
102
RTVSPost2010PropOp51
 70
     0
102
RTVSPost2010Prop52
140
1.0
102
RTVSPost2010PropOp52
 70
     0
102
RTVSPost2010Prop53
 90
        2
102
RTVSPost2010PropOp53
 70
     1
102
RTVSPost2010Prop54
  1
strokes_ogs.tif
102
RTVSPost2010PropOp54
 70
     1
102
RTVSPost2010Prop55
280
     0
102
RTVSPost2010PropOp55
 70
     1
102
RTVSPost2010Prop56
140
1.0
102
RTVSPost2010PropOp56
 70
     1
102
RTVSPost2010Prop57
140
1.0
102
RTVSPost2010PropOp57
 70
     1
  0
XRECORD
  5
3F7
102
{ACAD_REACTORS
330
3F6
102
}
330
3F6
100
AcDbXrecord
280
     1
102
RTVSPropertyOp0
 70
     1
102
RTVSPropertyOp1
 70
     1
102
RTVSPropertyOp2
 70
     1
102
RTVSPropertyOp3
 70
     1
102
RTVSPropertyOp4
 70
     1
102
RTVSPropertyOp5
 70
     1
102
RTVSPropertyOp6
 70
     1
102
RTVSPropertyOp7
 70
     1
102
RTVSPropertyOp8
 70
     1
102
RTVSPropertyOp9
 70
     1
102
RTVSPropertyOp10
 70
     1
102
RTVSPropertyOp11
 70
     1
102
RTVSPropertyOp12
 70
     1
102
RTVSPropertyOp13
 70
     1
102
RTVSPropertyOp14
 70
     1
102
RTVSPropertyOp15
 70
     1
102
RTVSPropertyOp16
 70
     1
102
RTVSPropertyOp17
 70
     1
102
RTVSPropertyOp18
 70
     1
102
RTVSPropertyOp19
 70
     1
102
RTVSPropertyOp20
 70
     1
102
RTVSPropertyOp21
 70
     1
102
RTVSPropertyOp22
 70
     1
102
RTVSPropertyOp23
 70
     1
102
RTVSPropertyOp24
 70
     1
102
RTVSPropertyOp25
 70
     1
102
RTVSPropertyOp26
 70
     1
102
RTVSPropertyOp27
 70
     1
102
RTVSPropertyOp28
 70
     1
102
RTVSPropertyOp29
 70
     1
102
RTVSPropertyOp30
 70
     1
102
RTVSPropertyOp31
 70
     1
102
RTVSPropertyOp32
 70
     1
102
RTVSPropertyOp33
 70
     1
102
RTVSPropertyOp34
 70
     1
102
RTVSPropertyOp35
 70
     1
102
RTVSPropertyOp36
 70
     1
102
RTVSPropertyOp37
 70
     1
102
RTVSPropertyOp38
 70
     1
102
RTVSPropertyOp39
 70
     1
102
RTVSPropertyOp40
 70
     1
102
RTVSPropertyOp41
 70
     1
102
RTVSPropertyOp42
 70
     1
102
RTVSPropertyOp43
 70
     1
102
RTVSPropertyOp44
 70
     1
102
RTVSPropertyOp45
 70
     1
102
RTVSPropertyOp46
 70
     1
102
RTVSPropertyOp47
 70
     1
102
RTVSPropertyOp48
 70
     1
102
RTVSPropertyOp49
 70
     1
102
RTVSPropertyOp50
 70
     1
102
RTVSPropertyOp51
 70
     0
102
RTVSPropertyOp52
 70
     0
102
RTVSPropertyOp53
 70
     1
102
RTVSPropertyOp54
 70
     1
102
RTVSPropertyOp55
 70
     1
102
RTVSPropertyOp56
 70
     1
102
RTVSPropertyOp57
 70
     1
102
RTVSPost2010Prop28
280
     0
102
RTVSPost2010PropOp28
 70
     1
102
RTVSPost2010Prop29
280
     1
102
RTVSPost2010PropOp29
 70
     1
102
RTVSPost2010Prop30
280
     1
102
RTVSPost2010PropOp30
 70
     1
102
RTVSPost2010Prop31
280
     0
102
RTVSPost2010PropOp31
 70
     1
102
RTVSPost2010Prop32
280
     0
102
RTVSPost2010PropOp32
 70
     1
102
RTVSPost2010Prop33
280
     0
102
RTVSPost2010PropOp33
 70
     1
102
RTVSPost2010Prop34
280
     0
102
RTVSPost2010PropOp34
 70
     1
102
RTVSPost2010Prop35
280
     0
102
RTVSPost2010PropOp35
 70
     1
102
RTVSPost2010Prop36
280
     0
102
RTVSPost2010PropOp36
 70
     1
102
RTVSPost2010Prop37
 90
       50
102
RTVSPost2010PropOp37
 70
     1
102
RTVSPost2010Prop38
140
0.0
102
RTVSPost2010PropOp38
 70
     1
102
RTVSPost2010Prop39
140
1.0
102
RTVSPost2010PropOp39
 70
     1
102
RTVSPost2010Prop40
 90
        0
102
RTVSPost2010PropOp40
 70
     1
102
RTVSPost2010Prop41ColorIndex
 90
       18
102
RTVSPost2010Prop41ColorRGB
 90
        0
102
RTVSPost2010PropOp41
 70
     1
102
RTVSPost2010Prop42
 90
       50
102
RTVSPost2010PropOp42
 70
     1
102
RTVSPost2010Prop43
 90
        3
102
RTVSPost2010PropOp43
 70
     1
102
RTVSPost2010Prop44ColorIndex
 90
        5
102
RTVSPost2010Prop44ColorRGB
 90
      255
102
RTVSPost2010PropOp44
 70
     1
102
RTVSPost2010Prop45
280
     0
102
RTVSPost2010PropOp45
 70
     1
102
RTVSPost2010Prop46
 90
       50
102
RTVSPost2010PropOp46
 70
     1
102
RTVSPost2010Prop47
 90
       50
102
RTVSPost2010PropOp47
 70
     1
102
RTVSPost2010Prop48
 90
       50
102
RTVSPost2010PropOp48
 70
     1
102
RTVSPost2010Prop49
280
     0
102
RTVSPost2010PropOp49
 70
     1
102
RTVSPost2010Prop50
 90
       50
102
RTVSPost2010PropOp50
 70
     1
102
RTVSPost2010Prop51ColorIndex
 90
      256
102
RTVSPost2010Prop51ColorRGB
 90
-16777216
102
RTVSPost2010PropOp51
 70
     0
102
RTVSPost2010Prop52
140
1.0
102
RTVSPost2010PropOp52
 70
     0
102
RTVSPost2010Prop53
 90
        2
102
RTVSPost2010PropOp53
 70
     1
102
RTVSPost2010Prop54
  1
strokes_ogs.tif
102
RTVSPost2010PropOp54
 70
     1
102
RTVSPost2010Prop55
280
     0
102
RTVSPost2010PropOp55
 70
     1
102
RTVSPost2010Prop56
140
1.0
102
RTVSPost2010PropOp56
 70
     1
102
RTVSPost2010Prop57
140
1.0
102
RTVSPost2010PropOp57
 70
     1
  0
XRECORD
  5
3E9
102
{ACAD_REACTORS
330
3E8
102
}
330
3E8
100
AcDbXrecord
280
     1
102
RTVSPropertyOp0
 70
     1
102
RTVSPropertyOp1
 70
     1
102
RTVSPropertyOp2
 70
     1
102
RTVSPropertyOp3
 70
     1
102
RTVSPropertyOp4
 70
     1
102
RTVSPropertyOp5
 70
     1
102
RTVSPropertyOp6
 70
     1
102
RTVSPropertyOp7
 70
     1
102
RTVSPropertyOp8
 70
     1
102
RTVSPropertyOp9
 70
     1
102
RTVSPropertyOp10
 70
     1
102
RTVSPropertyOp11
 70
     1
102
RTVSPropertyOp12
 70
     1
102
RTVSPropertyOp13
 70
     1
102
RTVSPropertyOp14
 70
     1
102
RTVSPropertyOp15
 70
     1
102
RTVSPropertyOp16
 70
     1
102
RTVSPropertyOp17
 70
     1
102
RTVSPropertyOp18
 70
     1
102
RTVSPropertyOp19
 70
     1
102
RTVSPropertyOp20
 70
     1
102
RTVSPropertyOp21
 70
     1
102
RTVSPropertyOp22
 70
     1
102
RTVSPropertyOp23
 70
     1
102
RTVSPropertyOp24
 70
     1
102
RTVSPropertyOp25
 70
     1
102
RTVSPropertyOp26
 70
     1
102
RTVSPropertyOp27
 70
     1
102
RTVSPropertyOp28
 70
     1
102
RTVSPropertyOp29
 70
     1
102
RTVSPropertyOp30
 70
     1
102
RTVSPropertyOp31
 70
     1
102
RTVSPropertyOp32
 70
     1
102
RTVSPropertyOp33
 70
     1
102
RTVSPropertyOp34
 70
     1
102
RTVSPropertyOp35
 70
     1
102
RTVSPropertyOp36
 70
     1
102
RTVSPropertyOp37
 70
     1
102
RTVSPropertyOp38
 70
     1
102
RTVSPropertyOp39
 70
     1
102
RTVSPropertyOp40
 70
     1
102
RTVSPropertyOp41
 70
     1
102
RTVSPropertyOp42
 70
     1
102
RTVSPropertyOp43
 70
     1
102
RTVSPropertyOp44
 70
     1
102
RTVSPropertyOp45
 70
     1
102
RTVSPropertyOp46
 70
     1
102
RTVSPropertyOp47
 70
     1
102
RTVSPropertyOp48
 70
     1
102
RTVSPropertyOp49
 70
     1
102
RTVSPropertyOp50
 70
     1
102
RTVSPropertyOp51
 70
     0
102
RTVSPropertyOp52
 70
     0
102
RTVSPropertyOp53
 70
     1
102
RTVSPropertyOp54
 70
     1
102
RTVSPropertyOp55
 70
     1
102
RTVSPropertyOp56
 70
     1
102
RTVSPropertyOp57
 70
     1
102
RTVSPost2010Prop28
280
     0
102
RTVSPost2010PropOp28
 70
     1
102
RTVSPost2010Prop29
280
     1
102
RTVSPost2010PropOp29
 70
     1
102
RTVSPost2010Prop30
280
     1
102
RTVSPost2010PropOp30
 70
     1
102
RTVSPost2010Prop31
280
     0
102
RTVSPost2010PropOp31
 70
     1
102
RTVSPost2010Prop32
280
     0
102
RTVSPost2010PropOp32
 70
     1
102
RTVSPost2010Prop33
280
     0
102
RTVSPost2010PropOp33
 70
     1
102
RTVSPost2010Prop34
280
     0
102
RTVSPost2010PropOp34
 70
     1
102
RTVSPost2010Prop35
280
     0
102
RTVSPost2010PropOp35
 70
     1
102
RTVSPost2010Prop36
280
     0
102
RTVSPost2010PropOp36
 70
     1
102
RTVSPost2010Prop37
 90
       50
102
RTVSPost2010PropOp37
 70
     1
102
RTVSPost2010Prop38
140
0.0
102
RTVSPost2010PropOp38
 70
     1
102
RTVSPost2010Prop39
140
1.0
102
RTVSPost2010PropOp39
 70
     1
102
RTVSPost2010Prop40
 90
        0
102
RTVSPost2010PropOp40
 70
     1
102
RTVSPost2010Prop41ColorIndex
 90
       18
102
RTVSPost2010Prop41ColorRGB
 90
        0
102
RTVSPost2010PropOp41
 70
     1
102
RTVSPost2010Prop42
 90
       50
102
RTVSPost2010PropOp42
 70
     1
102
RTVSPost2010Prop43
 90
        3
102
RTVSPost2010PropOp43
 70
     1
102
RTVSPost2010Prop44ColorIndex
 90
        5
102
RTVSPost2010Prop44ColorRGB
 90
      255
102
RTVSPost2010PropOp44
 70
     1
102
RTVSPost2010Prop45
280
     0
102
RTVSPost2010PropOp45
 70
     1
102
RTVSPost2010Prop46
 90
       50
102
RTVSPost2010PropOp46
 70
     1
102
RTVSPost2010Prop47
 90
       50
102
RTVSPost2010PropOp47
 70
     1
102
RTVSPost2010Prop48
 90
       50
102
RTVSPost2010PropOp48
 70
     1
102
RTVSPost2010Prop49
280
     0
102
RTVSPost2010PropOp49
 70
     1
102
RTVSPost2010Prop50
 90
       50
102
RTVSPost2010PropOp50
 70
     1
102
RTVSPost2010Prop51ColorIndex
 90
      256
102
RTVSPost2010Prop51ColorRGB
 90
-16777216
102
RTVSPost2010PropOp51
 70
     0
102
RTVSPost2010Prop52
140
1.0
102
RTVSPost2010PropOp52
 70
     0
102
RTVSPost2010Prop53
 90
        2
102
RTVSPost2010PropOp53
 70
     1
102
RTVSPost2010Prop54
  1
strokes_ogs.tif
102
RTVSPost2010PropOp54
 70
     1
102
RTVSPost2010Prop55
280
     0
102
RTVSPost2010PropOp55
 70
     1
102
RTVSPost2010Prop56
140
1.0
102
RTVSPost2010PropOp56
 70
     1
102
RTVSPost2010Prop57
140
1.0
102
RTVSPost2010PropOp57
 70
     1
  0
XRECORD
  5
409
102
{ACAD_REACTORS
330
408
102
}
330
408
100
AcDbXrecord
280
     1
102
RTVSPropertyOp0
 70
     1
102
RTVSPropertyOp1
 70
     1
102
RTVSPropertyOp2
 70
     1
102
RTVSPropertyOp3
 70
     1
102
RTVSPropertyOp4
 70
     1
102
RTVSPropertyOp5
 70
     1
102
RTVSPropertyOp6
 70
     1
102
RTVSPropertyOp7
 70
     1
102
RTVSPropertyOp8
 70
     1
102
RTVSPropertyOp9
 70
     1
102
RTVSPropertyOp10
 70
     1
102
RTVSPropertyOp11
 70
     1
102
RTVSPropertyOp12
 70
     1
102
RTVSPropertyOp13
 70
     1
102
RTVSPropertyOp14
 70
     1
102
RTVSPropertyOp15
 70
     1
102
RTVSPropertyOp16
 70
     1
102
RTVSPropertyOp17
 70
     1
102
RTVSPropertyOp18
 70
     1
102
RTVSPropertyOp19
 70
     1
102
RTVSPropertyOp20
 70
     1
102
RTVSPropertyOp21
 70
     1
102
RTVSPropertyOp22
 70
     1
102
RTVSPropertyOp23
 70
     1
102
RTVSPropertyOp24
 70
     1
102
RTVSPropertyOp25
 70
     1
102
RTVSPropertyOp26
 70
     1
102
RTVSPropertyOp27
 70
     1
102
RTVSPropertyOp28
 70
     1
102
RTVSPropertyOp29
 70
     1
102
RTVSPropertyOp30
 70
     1
102
RTVSPropertyOp31
 70
     1
102
RTVSPropertyOp32
 70
     1
102
RTVSPropertyOp33
 70
     1
102
RTVSPropertyOp34
 70
     1
102
RTVSPropertyOp35
 70
     1
102
RTVSPropertyOp36
 70
     1
102
RTVSPropertyOp37
 70
     1
102
RTVSPropertyOp38
 70
     1
102
RTVSPropertyOp39
 70
     1
102
RTVSPropertyOp40
 70
     1
102
RTVSPropertyOp41
 70
     1
102
RTVSPropertyOp42
 70
     1
102
RTVSPropertyOp43
 70
     1
102
RTVSPropertyOp44
 70
     1
102
RTVSPropertyOp45
 70
     1
102
RTVSPropertyOp46
 70
     1
102
RTVSPropertyOp47
 70
     1
102
RTVSPropertyOp48
 70
     1
102
RTVSPropertyOp49
 70
     1
102
RTVSPropertyOp50
 70
     1
102
RTVSPropertyOp51
 70
     0
102
RTVSPropertyOp52
 70
     0
102
RTVSPropertyOp53
 70
     1
102
RTVSPropertyOp54
 70
     1
102
RTVSPropertyOp55
 70
     1
102
RTVSPropertyOp56
 70
     1
102
RTVSPropertyOp57
 70
     1
102
RTVSPost2010Prop28
280
     0
102
RTVSPost2010PropOp28
 70
     1
102
RTVSPost2010Prop29
280
     1
102
RTVSPost2010PropOp29
 70
     1
102
RTVSPost2010Prop30
280
     1
102
RTVSPost2010PropOp30
 70
     1
102
RTVSPost2010Prop31
280
     0
102
RTVSPost2010PropOp31
 70
     1
102
RTVSPost2010Prop32
280
     0
102
RTVSPost2010PropOp32
 70
     1
102
RTVSPost2010Prop33
280
     0
102
RTVSPost2010PropOp33
 70
     1
102
RTVSPost2010Prop34
280
     0
102
RTVSPost2010PropOp34
 70
     1
102
RTVSPost2010Prop35
280
     0
102
RTVSPost2010PropOp35
 70
     1
102
RTVSPost2010Prop36
280
     0
102
RTVSPost2010PropOp36
 70
     1
102
RTVSPost2010Prop37
 90
       50
102
RTVSPost2010PropOp37
 70
     1
102
RTVSPost2010Prop38
140
0.0
102
RTVSPost2010PropOp38
 70
     1
102
RTVSPost2010Prop39
140
1.0
102
RTVSPost2010PropOp39
 70
     1
102
RTVSPost2010Prop40
 90
        0
102
RTVSPost2010PropOp40
 70
     1
102
RTVSPost2010Prop41ColorIndex
 90
       18
102
RTVSPost2010Prop41ColorRGB
 90
        0
102
RTVSPost2010PropOp41
 70
     1
102
RTVSPost2010Prop42
 90
       50
102
RTVSPost2010PropOp42
 70
     1
102
RTVSPost2010Prop43
 90
        3
102
RTVSPost2010PropOp43
 70
     1
102
RTVSPost2010Prop44ColorIndex
 90
        5
102
RTVSPost2010Prop44ColorRGB
 90
      255
102
RTVSPost2010PropOp44
 70
     1
102
RTVSPost2010Prop45
280
     0
102
RTVSPost2010PropOp45
 70
     1
102
RTVSPost2010Prop46
 90
       50
102
RTVSPost2010PropOp46
 70
     1
102
RTVSPost2010Prop47
 90
       50
102
RTVSPost2010PropOp47
 70
     1
102
RTVSPost2010Prop48
 90
       50
102
RTVSPost2010PropOp48
 70
     1
102
RTVSPost2010Prop49
280
     0
102
RTVSPost2010PropOp49
 70
     1
102
RTVSPost2010Prop50
 90
       50
102
RTVSPost2010PropOp50
 70
     1
102
RTVSPost2010Prop51ColorIndex
 90
      256
102
RTVSPost2010Prop51ColorRGB
 90
-16777216
102
RTVSPost2010PropOp51
 70
     0
102
RTVSPost2010Prop52
140
1.0
102
RTVSPost2010PropOp52
 70
     0
102
RTVSPost2010Prop53
 90
        2
102
RTVSPost2010PropOp53
 70
     1
102
RTVSPost2010Prop54
  1
strokes_ogs.tif
102
RTVSPost2010PropOp54
 70
     1
102
RTVSPost2010Prop55
280
     0
102
RTVSPost2010PropOp55
 70
     1
102
RTVSPost2010Prop56
140
1.0
102
RTVSPost2010PropOp56
 70
     1
102
RTVSPost2010Prop57
140
1.0
102
RTVSPost2010PropOp57
 70
     1
  0
ENDSEC
  0
EOF
