  0
SECTION
  2
HEADER
  9
$ACADVER
  1
AC1015
  9
$ACADMAINTVER
 70
     6
  9
$DWGCODEPAGE
  3
ANSI_1252
  9
$INSBASE
 10
0.0
 20
0.0
 30
0.0
  9
$EXTMIN
 10
38.124400782313
 20
69.6755867615899
 30
0.0
  9
$EXTMAX
 10
568.8403668681001
 20
370.716246612028
 30
0.0
  9
$LIMMIN
 10
0.0
 20
0.0
  9
$LIMMAX
 10
12.0
 20
9.0
  9
$ORTHOMODE
 70
     0
  9
$REGENMODE
 70
     1
  9
$FILLMODE
 70
     1
  9
$QTEXTMODE
 70
     0
  9
$MIRRTEXT
 70
     1
  9
$LTSCALE
 40
1.0
  9
$ATTMODE
 70
     1
  9
$TEXTSIZE
 40
0.2
  9
$TRACEWID
 40
0.05
  9
$TEXTSTYLE
  7
Standard
  9
$CLAYER
  8
0
  9
$CELTYPE
  6
ByLayer
  9
$CECOLOR
 62
   256
  9
$CELTSCALE
 40
1.0
  9
$DISPSILH
 70
     0
  9
$DIMSCALE
 40
1.0
  9
$DIMASZ
 40
0.18
  9
$DIMEXO
 40
0.0625
  9
$DIMDLI
 40
0.38
  9
$DIMRND
 40
0.0
  9
$DIMDLE
 40
0.0
  9
$DIMEXE
 40
0.18
  9
$DIMTP
 40
0.0
  9
$DIMTM
 40
0.0
  9
$DIMTXT
 40
0.18
  9
$DIMCEN
 40
0.09
  9
$DIMTSZ
 40
0.0
  9
$DIMTOL
 70
     0
  9
$DIMLIM
 70
     0
  9
$DIMTIH
 70
     1
  9
$DIMTOH
 70
     1
  9
$DIMSE1
 70
     0
  9
$DIMSE2
 70
     0
  9
$DIMTAD
 70
     0
  9
$DIMZIN
 70
     0
  9
$DIMBLK
  1

  9
$DIMASO
 70
     1
  9
$DIMSHO
 70
     1
  9
$DIMPOST
  1

  9
$DIMAPOST
  1

  9
$DIMALT
 70
     0
  9
$DIMALTD
 70
     2
  9
$DIMALTF
 40
25.4
  9
$DIMLFAC
 40
1.0
  9
$DIMTOFL
 70
     0
  9
$DIMTVP
 40
0.0
  9
$DIMTIX
 70
     0
  9
$DIMSOXD
 70
     0
  9
$DIMSAH
 70
     0
  9
$DIMBLK1
  1

  9
$DIMBLK2
  1

  9
$DIMSTYLE
  2
Standard
  9
$DIMCLRD
 70
     0
  9
$DIMCLRE
 70
     0
  9
$DIMCLRT
 70
     0
  9
$DIMTFAC
 40
1.0
  9
$DIMGAP
 40
0.09
  9
$DIMJUST
 70
     0
  9
$DIMSD1
 70
     0
  9
$DIMSD2
 70
     0
  9
$DIMTOLJ
 70
     1
  9
$DIMTZIN
 70
     0
  9
$DIMALTZ
 70
     0
  9
$DIMALTTZ
 70
     0
  9
$DIMUPT
 70
     0
  9
$DIMDEC
 70
     4
  9
$DIMTDEC
 70
     4
  9
$DIMALTU
 70
     2
  9
$DIMALTTD
 70
     2
  9
$DIMTXSTY
  7
Standard
  9
$DIMAUNIT
 70
     0
  9
$DIMADEC
 70
     0
  9
$DIMALTRND
 40
0.0
  9
$DIMAZIN
 70
     0
  9
$DIMDSEP
 70
    46
  9
$DIMATFIT
 70
     3
  9
$DIMFRAC
 70
     0
  9
$DIMLDRBLK
  1

  9
$DIMLUNIT
 70
     2
  9
$DIMLWD
 70
    -2
  9
$DIMLWE
 70
    -2
  9
$DIMTMOVE
 70
     0
  9
$LUNITS
 70
     2
  9
$LUPREC
 70
     4
  9
$SKETCHINC
 40
0.1
  9
$FILLETRAD
 40
0.5
  9
$AUNITS
 70
     0
  9
$AUPREC
 70
     0
  9
$MENU
  1
.
  9
$ELEVATION
 40
0.0
  9
$PELEVATION
 40
0.0
  9
$THICKNESS
 40
0.0
  9
$LIMCHECK
 70
     0
  9
$CHAMFERA
 40
0.5
  9
$CHAMFERB
 40
0.5
  9
$CHAMFERC
 40
1.0
  9
$CHAMFERD
 40
0.0
  9
$SKPOLY
 70
     0
  9
$TDCREATE
 40
2455386.307010671
  9
$TDUCREATE
 40
2455386.223677338
  9
$TDUPDATE
 40
2455386.307010683
  9
$TDUUPDATE
 40
2455386.22367735
  9
$TDINDWG
 40
0.0000000116
  9
$TDUSRTIMER
 40
0.0000000116
  9
$USRTIMER
 70
     1
  9
$ANGBASE
 50
0.0
  9
$ANGDIR
 70
     0
  9
$PDMODE
 70
     0
  9
$PDSIZE
 40
0.0
  9
$PLINEWID
 40
0.0
  9
$SPLFRAME
 70
     0
  9
$SPLINETYPE
 70
     6
  9
$SPLINESEGS
 70
     8
  9
$HANDSEED
  5
38F
  9
$SURFTAB1
 70
     6
  9
$SURFTAB2
 70
     6
  9
$SURFTYPE
 70
     6
  9
$SURFU
 70
     6
  9
$SURFV
 70
     6
  9
$UCSBASE
  2

  9
$UCSNAME
  2

  9
$UCSORG
 10
0.0
 20
0.0
 30
0.0
  9
$UCSXDIR
 10
1.0
 20
0.0
 30
0.0
  9
$UCSYDIR
 10
0.0
 20
1.0
 30
0.0
  9
$UCSORTHOREF
  2

  9
$UCSORTHOVIEW
 70
     0
  9
$UCSORGTOP
 10
0.0
 20
0.0
 30
0.0
  9
$UCSORGBOTTOM
 10
0.0
 20
0.0
 30
0.0
  9
$UCSORGLEFT
 10
0.0
 20
0.0
 30
0.0
  9
$UCSORGRIGHT
 10
0.0
 20
0.0
 30
0.0
  9
$UCSORGFRONT
 10
0.0
 20
0.0
 30
0.0
  9
$UCSORGBACK
 10
0.0
 20
0.0
 30
0.0
  9
$PUCSBASE
  2

  9
$PUCSNAME
  2

  9
$PUCSORG
 10
0.0
 20
0.0
 30
0.0
  9
$PUCSXDIR
 10
1.0
 20
0.0
 30
0.0
  9
$PUCSYDIR
 10
0.0
 20
1.0
 30
0.0
  9
$PUCSORTHOREF
  2

  9
$PUCSORTHOVIEW
 70
     0
  9
$PUCSORGTOP
 10
0.0
 20
0.0
 30
0.0
  9
$PUCSORGBOTTOM
 10
0.0
 20
0.0
 30
0.0
  9
$PUCSORGLEFT
 10
0.0
 20
0.0
 30
0.0
  9
$PUCSORGRIGHT
 10
0.0
 20
0.0
 30
0.0
  9
$PUCSORGFRONT
 10
0.0
 20
0.0
 30
0.0
  9
$PUCSORGBACK
 10
0.0
 20
0.0
 30
0.0
  9
$USERI1
 70
     0
  9
$USERI2
 70
     0
  9
$USERI3
 70
     0
  9
$USERI4
 70
     0
  9
$USERI5
 70
     0
  9
$USERR1
 40
16.5
  9
$USERR2
 40
0.0
  9
$USERR3
 40
0.0
  9
$USERR4
 40
0.0
  9
$USERR5
 40
0.0
  9
$WORLDVIEW
 70
     1
  9
$SHADEDGE
 70
     3
  9
$SHADEDIF
 70
    70
  9
$TILEMODE
 70
     1
  9
$MAXACTVP
 70
    64
  9
$PINSBASE
 10
0.0
 20
0.0
 30
0.0
  9
$PLIMCHECK
 70
     0
  9
$PEXTMIN
 10
1.00000000000000E+20
 20
1.00000000000000E+20
 30
1.00000000000000E+20
  9
$PEXTMAX
 10
-1.00000000000000E+20
 20
-1.00000000000000E+20
 30
-1.00000000000000E+20
  9
$PLIMMIN
 10
0.0
 20
0.0
  9
$PLIMMAX
 10
12.0
 20
9.0
  9
$UNITMODE
 70
     0
  9
$VISRETAIN
 70
     1
  9
$PLINEGEN
 70
     0
  9
$PSLTSCALE
 70
     1
  9
$TREEDEPTH
 70
  3020
  9
$CMLSTYLE
  2
Standard
  9
$CMLJUST
 70
     0
  9
$CMLSCALE
 40
1.0
  9
$PROXYGRAPHICS
 70
     1
  9
$MEASUREMENT
 70
     1
  9
$CELWEIGHT
370
    -1
  9
$ENDCAPS
280
     0
  9
$JOINSTYLE
280
     0
  9
$LWDISPLAY
290
     0
  9
$INSUNITS
 70
     1
  9
$HYPERLINKBASE
  1

  9
$STYLESHEET
  1

  9
$XEDIT
290
     1
  9
$CEPSNTYPE
380
     0
  9
$PSTYLEMODE
290
     1
  9
$FINGERPRINTGUID
  2
{4A26B884-0E41-4DC2-B8D0-B99BECC8A16D}
  9
$VERSIONGUID
  2
{FAEB1C32-E019-11D5-929B-00C0DF256EC4}
  9
$EXTNAMES
290
     1
  9
$PSVPSCALE
 40
0.0
  9
$OLESTARTUP
290
     0
  0
ENDSEC
  0
SECTION
  2
CLASSES
  0
CLASS
  1
ACDBDICTIONARYWDFLT
  2
AcDbDictionaryWithDefault
  3
ObjectDBX Classes
 90
        0
280
     0
281
     0
  0
CLASS
  1
VISUALSTYLE
  2
AcDbVisualStyle
  3
ObjectDBX Classes
 90
     4095
280
     0
281
     0
  0
CLASS
  1
SCALE
  2
AcDbScale
  3
ObjectDBX Classes
 90
     1153
280
     0
281
     0
  0
CLASS
  1

  2
exOdDbPolyline
  3

 90
        0
280
     0
281
     1
  0
CLASS
  1

  2
exOdDbSpline
  3

 90
        0
280
     0
281
     1
  0
CLASS
  1
DICTIONARYVAR
  2
AcDbDictionaryVar
  3
ObjectDBX Classes
 90
        0
280
     0
281
     0
  0
CLASS
  1
ACDBPLACEHOLDER
  2
AcDbPlaceHolder
  3
ObjectDBX Classes
 90
        0
280
     0
281
     0
  0
CLASS
  1
LAYOUT
  2
AcDbLayout
  3
ObjectDBX Classes
 90
        0
280
     0
281
     0
  0
ENDSEC
  0
SECTION
  2
TABLES
  0
TABLE
  2
VPORT
  5
8
330
0
100
AcDbSymbolTable
 70
     1
  0
VPORT
  5
29
330
8
100
AcDbSymbolTableRecord
100
AcDbViewportTableRecord
  2
*Active
 70
     0
 10
0.0
 20
0.0
 11
1.0
 21
1.0
 12
303.4823838252066
 22
220.1959166868089
 13
0.0
 23
0.0
 14
0.5
 24
0.5
 15
0.5
 25
0.5
 16
0.0
 26
0.0
 36
1.0
 17
0.0
 27
0.0
 37
0.0
 40
364.2574207340891
 41
1.60267857142857
 42
50.0
 43
0.0
 44
0.0
 50
0.0
 51
0.0
 71
     0
 72
   100
 73
     1
 74
     3
 75
     0
 76
     0
 77
     0
 78
     0
281
     0
 65
     1
110
0.0
120
0.0
130
0.0
111
1.0
121
0.0
131
0.0
112
0.0
122
1.0
132
0.0
 79
     0
146
0.0
  0
ENDTAB
  0
TABLE
  2
LTYPE
  5
5
330
0
100
AcDbSymbolTable
 70
     9
  0
LTYPE
  5
14
330
5
100
AcDbSymbolTableRecord
100
AcDbLinetypeTableRecord
  2
ByBlock
 70
     0
  3

 72
    65
 73
     0
 40
0.0
  0
LTYPE
  5
15
330
5
100
AcDbSymbolTableRecord
100
AcDbLinetypeTableRecord
  2
ByLayer
 70
     0
  3

 72
    65
 73
     0
 40
0.0
  0
LTYPE
  5
16
330
5
100
AcDbSymbolTableRecord
100
AcDbLinetypeTableRecord
  2
Continuous
 70
     0
  3
Solid line
 72
    65
 73
     0
 40
0.0
  0
LTYPE
  5
3B
330
5
100
AcDbSymbolTableRecord
100
AcDbLinetypeTableRecord
  2
DASHED
 70
     0
  3
Dashed
 72
    65
 73
     2
 40
15.0
 49
7.0
 74
     0
 49
-8.0
 74
     0
  0
LTYPE
  5
3C
330
5
100
AcDbSymbolTableRecord
100
AcDbLinetypeTableRecord
  2
DOTTED
 70
     0
  3
Dotted
 72
    65
 73
     2
 40
1.0
 49
0.0
 74
     0
 49
-1.0
 74
     0
  0
LTYPE
  5
3D
330
5
100
AcDbSymbolTableRecord
100
AcDbLinetypeTableRecord
  2
DOT_CENTER
 70
     0
  3
Dot_Center
 72
    65
 73
     4
 40
14.0
 49
12.0
 74
     0
 49
-1.0
 74
     0
 49
0.0
 74
     0
 49
-1.0
 74
     0
  0
LTYPE
  5
3E
330
5
100
AcDbSymbolTableRecord
100
AcDbLinetypeTableRecord
  2
LONG_DASHED
 70
     0
  3
Long_Dashed
 72
    65
 73
     2
 40
15.0
 49
10.0
 74
     0
 49
-5.0
 74
     0
  0
LTYPE
  5
3F
330
5
100
AcDbSymbolTableRecord
100
AcDbLinetypeTableRecord
  2
DASH_CENTER
 70
     0
  3
Dash_Center
 72
    65
 73
     4
 40
14.0
 49
11.0
 74
     0
 49
-1.0
 74
     0
 49
1.0
 74
     0
 49
-1.0
 74
     0
  0
LTYPE
  5
40
330
5
100
AcDbSymbolTableRecord
100
AcDbLinetypeTableRecord
  2
PHANTOM
 70
     0
  3
Phantom
 72
    65
 73
     6
 40
13.0
 49
10.0
 74
     0
 49
-1.0
 74
     0
 49
0.0
 74
     0
 49
-1.0
 74
     0
 49
0.0
 74
     0
 49
-1.0
 74
     0
  0
LTYPE
  5
41
330
5
100
AcDbSymbolTableRecord
100
AcDbLinetypeTableRecord
  2
CENTER_DASH_DASH
 70
     0
  3
Center_Dash_Dash
 72
    65
 73
     6
 40
14.0
 49
9.0
 74
     0
 49
-1.0
 74
     0
 49
1.0
 74
     0
 49
-1.0
 74
     0
 49
1.0
 74
     0
 49
-1.0
 74
     0
  0
LTYPE
  5
42
330
5
100
AcDbSymbolTableRecord
100
AcDbLinetypeTableRecord
  2
CENTERX2
 70
     0
  3
CENTERX2
 72
    65
 73
     4
 40
22.0
 49
13.0
 74
     0
 49
-3.0
 74
     0
 49
3.0
 74
     0
 49
-3.0
 74
     0
  0
ENDTAB
  0
TABLE
  2
LAYER
  5
2
330
0
100
AcDbSymbolTable
 70
     2
  0
LAYER
  5
10
330
2
100
AcDbSymbolTableRecord
100
AcDbLayerTableRecord
  2
0
 70
     0
 62
     7
  6
Continuous
370
    -3
390
F
  0
LAYER
  5
43
330
2
100
AcDbSymbolTableRecord
100
AcDbLayerTableRecord
  2
1
 70
     0
 62
     7
  6
Continuous
370
    -3
390
F
  0
ENDTAB
  0
TABLE
  2
STYLE
  5
3
330
0
100
AcDbSymbolTable
 70
     2
  0
STYLE
  5
11
330
3
100
AcDbSymbolTableRecord
100
AcDbTextStyleTableRecord
  2
Standard
 70
     0
 40
0.0
 41
1.0
 50
0.0
 71
     0
 42
0.2
  3
txt
  4

  0
STYLE
  5
339
330
3
100
AcDbSymbolTableRecord
100
AcDbTextStyleTableRecord
  2
CONVERTER_11
 70
     0
 40
0.0
 41
0.9
 50
0.0
 71
     0
 42
0.2
  3
txt.shx
  4

  0
ENDTAB
  0
TABLE
  2
VIEW
  5
6
330
0
100
AcDbSymbolTable
 70
     0
  0
ENDTAB
  0
TABLE
  2
UCS
  5
7
330
0
100
AcDbSymbolTable
 70
     0
  0
ENDTAB
  0
TABLE
  2
APPID
  5
9
330
0
100
AcDbSymbolTable
 70
     1
  0
APPID
  5
12
330
9
100
AcDbSymbolTableRecord
100
AcDbRegAppTableRecord
  2
ACAD
 70
     0
  0
ENDTAB
  0
TABLE
  2
DIMSTYLE
  5
A
330
0
100
AcDbSymbolTable
 70
     7
100
AcDbDimStyleTable
  0
DIMSTYLE
105
27
330
A
100
AcDbSymbolTableRecord
100
AcDbDimStyleTableRecord
  2
Standard
 70
     0
340
11
  0
DIMSTYLE
105
33D
102
{ACAD_REACTORS
330
33E
102
}
330
A
100
AcDbSymbolTableRecord
100
AcDbDimStyleTableRecord
  2
ME10_DIM_10
 70
     0
 41
10.0
 42
0.0
 44
2.0
 73
     0
 74
     0
 77
     1
 78
     8
140
10.0
147
2.0
172
     1
173
     1
176
     4
177
     4
178
     1
271
     0
340
339
  0
DIMSTYLE
105
348
102
{ACAD_REACTORS
330
349
102
}
330
A
100
AcDbSymbolTableRecord
100
AcDbDimStyleTableRecord
  2
ME10_DIM_11
 70
     0
 41
10.0
 42
0.0
 44
2.0
 73
     0
 74
     0
 77
     1
 78
     8
140
10.0
147
2.0
172
     1
173
     1
176
     4
177
     4
178
     1
271
     2
340
339
  0
DIMSTYLE
105
353
102
{ACAD_REACTORS
330
354
102
}
330
A
100
AcDbSymbolTableRecord
100
AcDbDimStyleTableRecord
  2
ME10_DIM_12
 70
     0
  3
Ø<>
 41
10.0
 42
0.0
 44
2.0
 73
     0
 74
     0
 77
     1
 78
     8
140
10.0
147
2.0
172
     1
173
     1
176
     4
177
     4
178
     1
271
     2
340
339
  0
DIMSTYLE
105
35E
102
{ACAD_REACTORS
330
35F
102
}
330
A
100
AcDbSymbolTableRecord
100
AcDbDimStyleTableRecord
  2
ME10_DIM_13
 70
     0
  3
DN<>
 41
10.0
 42
0.0
 44
2.0
 73
     0
 74
     0
 77
     1
 78
     8
140
10.0
147
2.0
172
     1
173
     1
176
     4
177
     4
178
     1
271
     2
340
339
  0
DIMSTYLE
105
369
102
{ACAD_REACTORS
330
36A
102
}
330
A
100
AcDbSymbolTableRecord
100
AcDbDimStyleTableRecord
  2
ME10_DIM_14
 70
     0
 41
10.0
 42
0.0
 44
2.0
 73
     0
 74
     0
 77
     1
 78
     8
140
10.0
147
2.0
172
     1
173
     1
176
     4
177
     4
178
     1
271
     2
340
339
  0
DIMSTYLE
105
374
102
{ACAD_REACTORS
330
375
102
}
330
A
100
AcDbSymbolTableRecord
100
AcDbDimStyleTableRecord
  2
ME10_DIM_15
 70
     0
 41
10.0
 42
0.0
 44
2.0
 73
     0
 74
     0
 77
     1
 78
     8
140
10.0
147
2.0
172
     1
173
     1
176
     4
177
     4
178
     1
271
     0
340
339
  0
ENDTAB
  0
TABLE
  2
BLOCK_RECORD
  5
1
330
0
100
AcDbSymbolTable
 70
     8
  0
BLOCK_RECORD
  5
1F
330
1
100
AcDbSymbolTableRecord
100
AcDbBlockTableRecord
  2
*Model_Space
340
22
  0
BLOCK_RECORD
  5
1B
330
1
100
AcDbSymbolTableRecord
100
AcDbBlockTableRecord
  2
*Paper_Space
340
1E
  0
BLOCK_RECORD
  5
23
330
1
100
AcDbSymbolTableRecord
100
AcDbBlockTableRecord
  2
*Paper_Space0
340
26
  0
BLOCK_RECORD
  5
44
330
1
100
AcDbSymbolTableRecord
100
AcDbBlockTableRecord
  2
HL64_1BP_7
340
0
102
{BLKREFS
331
69
102
}
  0
BLOCK_RECORD
  5
333
330
1
100
AcDbSymbolTableRecord
100
AcDbBlockTableRecord
  2
*D2
340
0
  0
BLOCK_RECORD
  5
33F
330
1
100
AcDbSymbolTableRecord
100
AcDbBlockTableRecord
  2
*D3
340
0
  0
BLOCK_RECORD
  5
34A
330
1
100
AcDbSymbolTableRecord
100
AcDbBlockTableRecord
  2
*D4
340
0
  0
BLOCK_RECORD
  5
355
330
1
100
AcDbSymbolTableRecord
100
AcDbBlockTableRecord
  2
*D5
340
0
  0
BLOCK_RECORD
  5
360
330
1
100
AcDbSymbolTableRecord
100
AcDbBlockTableRecord
  2
*D6
340
0
  0
BLOCK_RECORD
  5
36B
330
1
100
AcDbSymbolTableRecord
100
AcDbBlockTableRecord
  2
*D7
340
0
  0
ENDTAB
  0
ENDSEC
  0
SECTION
  2
BLOCKS
  0
BLOCK
  5
20
330
1F
100
AcDbEntity
  8
0
100
AcDbBlockBegin
  2
*Model_Space
 70
     0
 10
0.0
 20
0.0
 30
0.0
  3
*Model_Space
  1

  0
ENDBLK
  5
21
330
1F
100
AcDbEntity
  8
0
100
AcDbBlockEnd
  0
BLOCK
  5
1C
330
1B
100
AcDbEntity
 67
     1
  8
0
100
AcDbBlockBegin
  2
*Paper_Space
 70
     0
 10
0.0
 20
0.0
 30
0.0
  3
*Paper_Space
  1

  0
ENDBLK
  5
1D
330
1B
100
AcDbEntity
 67
     1
  8
0
100
AcDbBlockEnd
  0
BLOCK
  5
24
330
23
100
AcDbEntity
  8
0
100
AcDbBlockBegin
  2
*Paper_Space0
 70
     0
 10
0.0
 20
0.0
 30
0.0
  3
*Paper_Space0
  1

  0
ENDBLK
  5
25
330
23
100
AcDbEntity
  8
0
100
AcDbBlockEnd
  0
BLOCK
  5
45
330
44
100
AcDbEntity
  8
0
100
AcDbBlockBegin
  2
HL64_1BP_7
 70
     0
 10
303.4823838252066
 20
220.1959166868089
 30
0.0
  3
HL64_1BP_7
  1

  0
POINT
  5
6A
330
44
100
AcDbEntity
  8
0
 62
     7
100
AcDbPoint
 10
68.7653637462
 20
245.9612962687
 30
0.0
  0
POINT
  5
6B
330
44
100
AcDbEntity
  8
0
 62
     7
100
AcDbPoint
 10
191.0915169093
 20
97.461730053
 30
0.0
  0
POINT
  5
6C
330
44
100
AcDbEntity
  8
0
 62
     7
100
AcDbPoint
 10
66.7653637462
 20
242.461730053
 30
0.0
  0
POINT
  5
6D
330
44
100
AcDbEntity
  8
0
 62
     7
100
AcDbPoint
 10
426.7653637462
 20
243.9612962687
 30
0.0
  0
POINT
  5
6E
330
44
100
AcDbEntity
  8
0
 62
     7
100
AcDbPoint
 10
407.8864368079
 20
182.9986283673
 30
0.0
  0
POINT
  5
6F
330
44
100
AcDbEntity
  8
0
 62
     7
100
AcDbPoint
 10
404.6149827555
 20
108.0700117487
 30
0.0
  0
POINT
  5
70
330
44
100
AcDbEntity
  8
0
 62
     7
100
AcDbPoint
 10
172.7653637462
 20
318.9612962687
 30
0.0
  0
POINT
  5
71
330
44
100
AcDbEntity
  8
0
 62
     7
100
AcDbPoint
 10
168.2653637462
 20
245.9612962687
 30
0.0
  0
POINT
  5
72
330
44
100
AcDbEntity
  8
0
 62
     7
100
AcDbPoint
 10
320.7653637462
 20
318.9612962687
 30
0.0
  0
POINT
  5
73
330
44
100
AcDbEntity
  8
0
 62
     7
100
AcDbPoint
 10
172.7653637462
 20
318.9612962687
 30
0.0
  0
LINE
  5
74
330
44
100
AcDbEntity
  8
0
  6
Continuous
 62
     7
100
AcDbLine
 10
246.6544066081
 20
114.9617624267
 30
0.0
 11
246.7653634483
 21
114.9617624267
 31
0.0
  0
LINE
  5
75
330
44
100
AcDbEntity
  8
0
  6
Continuous
 62
     7
100
AcDbLine
 10
260.5153637449
 20
314.461295007
 30
0.0
 11
260.5153637449
 21
315.9612980469
 31
0.0
  0
LINE
  5
76
330
44
100
AcDbEntity
  8
0
  6
Continuous
 62
     7
100
AcDbLine
 10
233.0153644542
 20
315.9612980469
 30
0.0
 11
233.0153644542
 21
314.461295007
 31
0.0
  0
LINE
  5
77
330
44
100
AcDbEntity
  8
0
  6
Continuous
 62
     7
100
AcDbLine
 10
276.5153632025
 20
314.461295007
 30
0.0
 11
276.5153632025
 21
315.9612980469
 31
0.0
  0
LINE
  5
78
330
44
100
AcDbEntity
  8
0
  6
Continuous
 62
     7
100
AcDbLine
 10
217.0153655568
 20
315.9612980469
 30
0.0
 11
217.0153655568
 21
314.461295007
 31
0.0
  0
LINE
  5
79
330
44
100
AcDbEntity
  8
0
  6
Continuous
 62
     7
100
AcDbLine
 10
292.5153620998
 20
314.461295007
 30
0.0
 11
292.5153620998
 21
315.9612980469
 31
0.0
  0
LINE
  5
7A
330
44
100
AcDbEntity
  8
0
  6
Continuous
 62
     7
100
AcDbLine
 10
201.0153629342
 20
315.9612980469
 30
0.0
 11
201.0153629342
 21
314.461295007
 31
0.0
  0
LINE
  5
7B
330
44
100
AcDbEntity
  8
0
  6
Continuous
 62
     7
100
AcDbLine
 10
303.2531686584
 20
228.4612958117
 30
0.0
 11
303.2531686584
 21
225.9612963332
 31
0.0
  0
LINE
  5
7C
330
44
100
AcDbEntity
  8
0
  6
Continuous
 62
     7
100
AcDbLine
 10
190.2775563756
 20
225.9612963332
 30
0.0
 11
190.2775563756
 21
228.4612958117
 31
0.0
  0
LINE
  5
7D
330
44
100
AcDbEntity
  8
0
  6
Continuous
 62
     7
100
AcDbLine
 10
275.4352367008
 20
228.4612958117
 30
0.0
 11
275.4352367008
 21
225.9612963332
 31
0.0
  0
LINE
  5
7E
330
44
100
AcDbEntity
  8
0
  6
Continuous
 62
     7
100
AcDbLine
 10
218.0954911271
 20
225.9612963332
 30
0.0
 11
218.0954911271
 21
228.4612958117
 31
0.0
  0
LINE
  5
7F
330
44
100
AcDbEntity
  8
0
  6
Continuous
 62
     7
100
AcDbLine
 10
311.5153633515
 20
213.1571960433
 30
0.0
 11
311.5153633515
 21
213.6571970566
 31
0.0
  0
LINE
  5
80
330
44
100
AcDbEntity
  8
0
  6
Continuous
 62
     7
100
AcDbLine
 10
313.5153636793
 20
215.6571973844
 30
0.0
 11
324.0153663317
 21
215.6571973844
 31
0.0
  0
LINE
  5
81
330
44
100
AcDbEntity
  8
0
  6
Continuous
 62
     7
100
AcDbLine
 10
324.0153663317
 20
215.6571973844
 30
0.0
 11
324.0153663317
 21
213.1571960433
 31
0.0
  0
LINE
  5
82
330
44
100
AcDbEntity
  8
0
  6
Continuous
 62
     7
100
AcDbLine
 10
324.0153663317
 20
213.1571960433
 30
0.0
 11
322.8606641749
 21
211.1571957155
 31
0.0
  0
LINE
  5
83
330
44
100
AcDbEntity
  8
0
  6
Continuous
 62
     7
100
AcDbLine
 10
322.8606641749
 20
211.1571957155
 30
0.0
 11
316.0153650204
 21
211.1571957155
 31
0.0
  0
LINE
  5
84
330
44
100
AcDbEntity
  8
0
  6
Continuous
 62
     7
100
AcDbLine
 10
314.0153646926
 20
213.1571960433
 30
0.0
 11
311.5153633515
 21
213.1571960433
 31
0.0
  0
LINE
  5
85
330
44
100
AcDbEntity
  8
0
  6
Continuous
 62
     7
100
AcDbLine
 10
177.5153674642
 20
211.1571957155
 30
0.0
 11
170.6700645844
 21
211.1571957155
 31
0.0
  0
LINE
  5
86
330
44
100
AcDbEntity
  8
0
  6
Continuous
 62
     7
100
AcDbLine
 10
170.6700645844
 20
211.1571957155
 30
0.0
 11
169.5153661529
 21
213.1571960433
 31
0.0
  0
LINE
  5
87
330
44
100
AcDbEntity
  8
0
  6
Continuous
 62
     7
100
AcDbLine
 10
169.5153661529
 20
213.1571960433
 30
0.0
 11
169.5153661529
 21
215.6571973844
 31
0.0
  0
LINE
  5
88
330
44
100
AcDbEntity
  8
0
  6
Continuous
 62
     7
100
AcDbLine
 10
169.5153661529
 20
215.6571973844
 30
0.0
 11
180.01536508
 21
215.6571973844
 31
0.0
  0
LINE
  5
89
330
44
100
AcDbEntity
  8
0
  6
Continuous
 62
     7
100
AcDbLine
 10
182.0153616825
 20
213.6571970566
 30
0.0
 11
182.0153616825
 21
213.1571960433
 31
0.0
  0
LINE
  5
8A
330
44
100
AcDbEntity
  8
0
  6
Continuous
 62
     7
100
AcDbLine
 10
182.0153616825
 20
213.1571960433
 30
0.0
 11
179.5153640667
 21
213.1571960433
 31
0.0
  0
LINE
  5
8B
330
44
100
AcDbEntity
  8
0
  6
Continuous
 62
     7
100
AcDbLine
 10
180.01536508
 20
215.6571973844
 30
0.0
 11
313.5153636793
 21
215.6571973844
 31
0.0
  0
LINE
  5
8C
330
44
100
AcDbEntity
  8
0
  6
Continuous
 62
     7
100
AcDbLine
 10
182.0153616825
 20
213.6571970566
 30
0.0
 11
311.5153633515
 21
213.6571970566
 31
0.0
  0
LINE
  5
8D
330
44
100
AcDbEntity
  8
0
  6
Continuous
 62
     7
100
AcDbLine
 10
182.0153616825
 20
213.1571960433
 30
0.0
 11
311.5153633515
 21
213.1571960433
 31
0.0
  0
LINE
  5
8E
330
44
100
AcDbEntity
  8
0
  6
Continuous
 62
     7
100
AcDbLine
 10
177.5153674642
 20
211.1571957155
 30
0.0
 11
316.0153650204
 21
211.1571957155
 31
0.0
  0
LINE
  5
8F
330
44
100
AcDbEntity
  8
0
  6
Continuous
 62
     7
100
AcDbLine
 10
246.7653634483
 20
114.9618816359
 30
0.0
 11
404.6149798194
 21
108.0700051768
 31
0.0
  0
LINE
  5
90
330
44
100
AcDbEntity
  8
0
  6
Continuous
 62
     7
100
AcDbLine
 10
407.8864403526
 20
182.9986315949
 30
0.0
 11
313.7653194824
 21
187.1080440267
 31
0.0
  0
LINE
  5
91
330
44
100
AcDbEntity
  8
0
  6
Continuous
 62
     7
100
AcDbLine
 10
179.7654055516
 20
184.0405282362
 30
0.0
 11
179.7654055516
 21
198.0094280823
 31
0.0
  0
LINE
  5
92
330
44
100
AcDbEntity
  8
0
  6
Continuous
 62
     7
100
AcDbLine
 10
313.7653194824
 20
198.0094280823
 30
0.0
 11
313.7653194824
 21
187.1080440267
 31
0.0
  0
LINE
  5
93
330
44
100
AcDbEntity
  8
0
  6
Continuous
 62
     7
100
AcDbLine
 10
183.2654051939
 20
184.0405282362
 30
0.0
 11
246.7653634483
 21
184.0405282362
 31
0.0
  0
LINE
  5
94
330
44
100
AcDbEntity
  8
0
  6
Continuous
 62
     7
100
AcDbLine
 10
183.2654051939
 20
201.5097108467
 30
0.0
 11
183.2654051939
 21
184.0405282362
 31
0.0
  0
LINE
  5
95
330
44
100
AcDbEntity
  8
0
  6
Continuous
 62
     7
100
AcDbLine
 10
183.2654051939
 20
201.5097108467
 30
0.0
 11
310.2653198401
 21
201.5097108467
 31
0.0
  0
LINE
  5
96
330
44
100
AcDbEntity
  8
0
  6
Continuous
 62
     7
100
AcDbLine
 10
310.2653198401
 20
183.7575253828
 30
0.0
 11
310.2653198401
 21
201.5097108467
 31
0.0
  0
LINE
  5
97
330
44
100
AcDbEntity
  8
0
  6
Continuous
 62
     7
100
AcDbLine
 10
246.9180314327
 20
118.4585434182
 30
0.0
 11
408.763850526
 21
111.3922041638
 31
0.0
  0
LINE
  5
98
330
44
100
AcDbEntity
  8
0
  6
Continuous
 62
     7
100
AcDbLine
 10
411.7299564639
 20
179.3274846657
 30
0.0
 11
310.2653198401
 21
183.7575253828
 31
0.0
  0
LINE
  5
99
330
44
100
AcDbEntity
  8
0
  6
Continuous
 62
     7
100
AcDbLine
 10
246.9181776503
 20
118.4618812783
 30
0.0
 11
246.7653634483
 21
118.4618812783
 31
0.0
  0
LINE
  5
9A
330
44
100
AcDbEntity
  8
0
  6
Continuous
 62
     7
100
AcDbLine
 10
246.9182866151
 20
118.4643846734
 30
0.0
 11
246.9181776503
 21
118.4618812783
 31
0.0
  0
LINE
  5
9B
330
44
100
AcDbEntity
  8
0
  6
Continuous
 62
     7
100
AcDbLine
 10
173.8654099861
 20
207.6569092257
 30
0.0
 11
169.2656077901
 21
207.6565329714
 31
0.0
  0
LINE
  5
9C
330
44
100
AcDbEntity
  8
0
  6
Continuous
 62
     7
100
AcDbLine
 10
324.2651172439
 20
207.6565329714
 30
0.0
 11
319.6653187732
 21
207.6569092257
 31
0.0
  0
LINE
  5
9D
330
44
100
AcDbEntity
  8
0
  6
Continuous
 62
     7
100
AcDbLine
 10
169.2656077901
 20
207.6565329714
 30
0.0
 11
173.8654099861
 21
207.6565329714
 31
0.0
  0
LINE
  5
9E
330
44
100
AcDbEntity
  8
0
  6
Continuous
 62
     7
100
AcDbLine
 10
319.6653187732
 20
207.6565329714
 30
0.0
 11
324.2651172439
 21
207.6565329714
 31
0.0
  0
LINE
  5
9F
330
44
100
AcDbEntity
  8
0
  6
Continuous
 62
     7
100
AcDbLine
 10
66.765362815
 20
242.4617300073
 30
0.0
 11
66.765362815
 21
243.9612962569
 31
0.0
  0
LINE
  5
A0
330
44
100
AcDbEntity
  8
0
  6
Continuous
 62
     7
100
AcDbLine
 10
426.765362219
 20
243.9612962569
 30
0.0
 11
426.765362219
 21
242.4617300073
 31
0.0
  0
LINE
  5
A1
330
44
100
AcDbEntity
  8
0
  6
Continuous
 62
     7
100
AcDbLine
 10
173.8654099861
 20
201.0091882928
 30
0.0
 11
173.8654099861
 21
207.6569092257
 31
0.0
  0
LINE
  5
A2
330
44
100
AcDbEntity
  8
0
  6
Continuous
 62
     7
100
AcDbLine
 10
319.6653187732
 20
207.6569092257
 30
0.0
 11
319.6653187732
 21
201.0091882928
 31
0.0
  0
LINE
  5
A3
330
44
100
AcDbEntity
  8
0
  6
Continuous
 62
     7
100
AcDbLine
 10
176.8656544844
 20
198.0091896637
 30
0.0
 11
179.7654055516
 21
198.0091896637
 31
0.0
  0
LINE
  5
A4
330
44
100
AcDbEntity
  8
0
  6
Continuous
 62
     7
100
AcDbLine
 10
179.7654055516
 20
198.0094280823
 30
0.0
 11
176.8656544844
 21
198.0091896637
 31
0.0
  0
LINE
  5
A5
330
44
100
AcDbEntity
  8
0
  6
Continuous
 62
     7
100
AcDbLine
 10
166.2653632919
 20
210.6565353258
 30
0.0
 11
166.2653632919
 21
225.3027469648
 31
0.0
  0
LINE
  5
A6
330
44
100
AcDbEntity
  8
0
  6
Continuous
 62
     7
100
AcDbLine
 10
327.2653617421
 20
225.3027469648
 30
0.0
 11
327.2653617421
 21
210.6565353258
 31
0.0
  0
LINE
  5
A7
330
44
100
AcDbEntity
  8
0
  6
Continuous
 62
     7
100
AcDbLine
 10
246.9180314327
 20
118.4585434182
 30
0.0
 11
246.9181776503
 21
118.4618812783
 31
0.0
  0
LINE
  5
A8
330
44
100
AcDbEntity
  8
0
  6
Continuous
 62
     7
100
AcDbLine
 10
408.6579330722
 20
108.9663100226
 30
0.0
 11
408.763850526
 21
111.3922041638
 31
0.0
  0
LINE
  5
A9
330
44
100
AcDbEntity
  8
0
  6
Continuous
 62
     7
100
AcDbLine
 10
404.6149798194
 20
108.0700051768
 30
0.0
 11
408.6579330722
 21
108.9663100226
 31
0.0
  0
LINE
  5
AA
330
44
100
AcDbEntity
  8
0
  6
Continuous
 62
     7
100
AcDbLine
 10
196.8074761788
 20
146.7177611573
 30
0.0
 11
180.0933279554
 21
182.5613644703
 31
0.0
  0
LINE
  5
AB
330
44
100
AcDbEntity
  8
0
  6
Continuous
 62
     7
100
AcDbLine
 10
166.2653632919
 20
225.3027469648
 30
0.0
 11
164.5154081742
 21
228.3223257198
 31
0.0
  0
LINE
  5
AC
330
44
100
AcDbEntity
  8
0
  6
Continuous
 62
     7
100
AcDbLine
 10
164.5154081742
 20
228.3223257198
 30
0.0
 11
164.5154081742
 21
242.4617300073
 31
0.0
  0
LINE
  5
AD
330
44
100
AcDbEntity
  8
0
  6
Continuous
 62
     7
100
AcDbLine
 10
164.5154081742
 20
242.4617300073
 30
0.0
 11
132.7653624574
 21
242.4617300073
 31
0.0
  0
LINE
  5
AE
330
44
100
AcDbEntity
  8
0
  6
Continuous
 62
     7
100
AcDbLine
 10
132.7653624574
 20
242.4617300073
 30
0.0
 11
132.4773528138
 21
225.9616539611
 31
0.0
  0
LINE
  5
AF
330
44
100
AcDbEntity
  8
0
  6
Continuous
 62
     7
100
AcDbLine
 10
131.9596715728
 20
225.4617293163
 30
0.0
 11
132.4773528138
 21
225.9616539611
 31
0.0
  0
LINE
  5
B0
330
44
100
AcDbEntity
  8
0
  6
Continuous
 62
     7
100
AcDbLine
 10
130.2653648416
 20
225.4617293163
 30
0.0
 11
131.9596715728
 21
225.4617293163
 31
0.0
  0
LINE
  5
B1
330
44
100
AcDbEntity
  8
0
  6
Continuous
 62
     7
100
AcDbLine
 10
129.265362815
 20
226.4617294802
 30
0.0
 11
130.2653648416
 21
225.4617293163
 31
0.0
  0
LINE
  5
B2
330
44
100
AcDbEntity
  8
0
  6
Continuous
 62
     7
100
AcDbLine
 10
129.265362815
 20
226.4617294802
 30
0.0
 11
129.265362815
 21
242.4617300073
 31
0.0
  0
LINE
  5
B3
330
44
100
AcDbEntity
  8
0
  6
Continuous
 62
     7
100
AcDbLine
 10
124.2653675834
 20
242.4617300073
 30
0.0
 11
129.265362815
 21
242.4617300073
 31
0.0
  0
LINE
  5
B4
330
44
100
AcDbEntity
  8
0
  6
Continuous
 62
     7
100
AcDbLine
 10
124.2653675834
 20
242.4617300073
 30
0.0
 11
124.2653675834
 21
226.4617294802
 31
0.0
  0
LINE
  5
B5
330
44
100
AcDbEntity
  8
0
  6
Continuous
 62
     7
100
AcDbLine
 10
123.2653655568
 20
225.4617293163
 30
0.0
 11
124.2653675834
 21
226.4617294802
 31
0.0
  0
LINE
  5
B6
330
44
100
AcDbEntity
  8
0
  6
Continuous
 62
     7
100
AcDbLine
 10
121.5710588256
 20
225.4617293163
 30
0.0
 11
123.2653655568
 21
225.4617293163
 31
0.0
  0
LINE
  5
B7
330
44
100
AcDbEntity
  8
0
  6
Continuous
 62
     7
100
AcDbLine
 10
121.0533775846
 20
225.9616539611
 30
0.0
 11
121.5710588256
 21
225.4617293163
 31
0.0
  0
LINE
  5
B8
330
44
100
AcDbEntity
  8
0
  6
Continuous
 62
     7
100
AcDbLine
 10
121.0533775846
 20
225.9616539611
 30
0.0
 11
120.765367941
 21
242.4617300073
 31
0.0
  0
LINE
  5
B9
330
44
100
AcDbEntity
  8
0
  6
Continuous
 62
     7
100
AcDbLine
 10
120.765367941
 20
242.4617300073
 30
0.0
 11
66.765362815
 21
242.4617300073
 31
0.0
  0
LINE
  5
BA
330
44
100
AcDbEntity
  8
0
  6
Continuous
 62
     7
100
AcDbLine
 10
168.0154078165
 20
245.9612962645
 30
0.0
 11
168.0154078165
 21
229.2632204278
 31
0.0
  0
LINE
  5
BB
330
44
100
AcDbEntity
  8
0
  6
Continuous
 62
     7
100
AcDbLine
 10
168.0154078165
 20
229.2632204278
 30
0.0
 11
172.0152743617
 21
222.3613788171
 31
0.0
  0
LINE
  5
BC
330
44
100
AcDbEntity
  8
0
  6
Continuous
 62
     7
100
AcDbLine
 10
172.0152743617
 20
222.3613788171
 30
0.0
 11
172.0152743617
 21
221.4613784833
 31
0.0
  0
LINE
  5
BD
330
44
100
AcDbEntity
  8
0
  6
Continuous
 62
     7
100
AcDbLine
 10
172.0152743617
 20
221.4613784833
 30
0.0
 11
171.2653659741
 21
221.0182980432
 31
0.0
  0
LINE
  5
BE
330
44
100
AcDbEntity
  8
0
  6
Continuous
 62
     7
100
AcDbLine
 10
171.2653659741
 20
221.0182980432
 30
0.0
 11
171.2653659741
 21
216.7613790168
 31
0.0
  0
LINE
  5
BF
330
44
100
AcDbEntity
  8
0
  6
Continuous
 62
     7
100
AcDbLine
 10
171.2653659741
 20
216.7613790168
 30
0.0
 11
169.7653629342
 21
215.7613788529
 31
0.0
  0
LINE
  5
C0
330
44
100
AcDbEntity
  8
0
  6
Continuous
 62
     7
100
AcDbLine
 10
169.7653629342
 20
215.7613788529
 30
0.0
 11
169.7653629342
 21
211.1565773173
 31
0.0
  0
LINE
  5
C1
330
44
100
AcDbEntity
  8
0
  6
Continuous
 62
     7
100
AcDbLine
 10
169.7653629342
 20
211.1565773173
 30
0.0
 11
177.3654096285
 21
211.1571957155
 31
0.0
  0
LINE
  5
C2
330
44
100
AcDbEntity
  8
0
  6
Continuous
 62
     7
100
AcDbLine
 10
177.3654096285
 20
211.1571957155
 30
0.0
 11
177.3654096285
 21
201.5092302843
 31
0.0
  0
LINE
  5
C3
330
44
100
AcDbEntity
  8
0
  6
Continuous
 62
     7
100
AcDbLine
 10
177.3654096285
 20
201.5092302843
 30
0.0
 11
183.2654051939
 21
201.5097108467
 31
0.0
  0
LINE
  5
C4
330
44
100
AcDbEntity
  8
0
  6
Continuous
 62
     7
100
AcDbLine
 10
183.2654051939
 20
184.0405282362
 30
0.0
 11
183.3023526231
 21
183.9612950368
 31
0.0
  0
LINE
  5
C5
330
44
100
AcDbEntity
  8
0
  6
Continuous
 62
     7
100
AcDbLine
 10
188.2895254055
 20
183.9612950368
 30
0.0
 11
183.3023526231
 21
183.9612950368
 31
0.0
  0
LINE
  5
C6
330
44
100
AcDbEntity
  8
0
  6
Continuous
 62
     7
100
AcDbLine
 10
188.2895254055
 20
173.2662734373
 30
0.0
 11
188.2895254055
 21
183.9612950368
 31
0.0
  0
LINE
  5
C7
330
44
100
AcDbEntity
  8
0
  6
Continuous
 62
     7
100
AcDbLine
 10
188.2895254055
 20
173.2662734373
 30
0.0
 11
199.9795571426
 21
148.1969249232
 31
0.0
  0
LINE
  5
C8
330
44
100
AcDbEntity
  8
0
  6
Continuous
 62
     7
100
AcDbLine
 10
68.7653668681
 20
245.9612962645
 30
0.0
 11
168.0154078165
 21
245.9612962645
 31
0.0
  0
LINE
  5
C9
330
44
100
AcDbEntity
  8
0
  6
Continuous
 62
     7
100
AcDbLine
 10
322.2653627852
 20
216.7613790168
 30
0.0
 11
322.2653627852
 21
221.0182980432
 31
0.0
  0
LINE
  5
CA
330
44
100
AcDbEntity
  8
0
  6
Continuous
 62
     7
100
AcDbLine
 10
322.2653627852
 20
221.0182980432
 30
0.0
 11
321.5154506723
 21
221.4613784833
 31
0.0
  0
LINE
  5
CB
330
44
100
AcDbEntity
  8
0
  6
Continuous
 62
     7
100
AcDbLine
 10
321.5154506723
 20
221.4613784833
 30
0.0
 11
321.5154506723
 21
222.3613788171
 31
0.0
  0
LINE
  5
CC
330
44
100
AcDbEntity
  8
0
  6
Continuous
 62
     7
100
AcDbLine
 10
321.5154506723
 20
222.3613788171
 30
0.0
 11
325.5153172175
 21
229.2632204278
 31
0.0
  0
LINE
  5
CD
330
44
100
AcDbEntity
  8
0
  6
Continuous
 62
     7
100
AcDbLine
 10
325.5153172175
 20
229.2632204278
 30
0.0
 11
325.5153172175
 21
245.9612962645
 31
0.0
  0
LINE
  5
CE
330
44
100
AcDbEntity
  8
0
  6
Continuous
 62
     7
100
AcDbLine
 10
426.765362219
 20
242.4617300073
 30
0.0
 11
329.0153168598
 21
242.4617300073
 31
0.0
  0
LINE
  5
CF
330
44
100
AcDbEntity
  8
0
  6
Continuous
 62
     7
100
AcDbLine
 10
329.0153168598
 20
242.4617300073
 30
0.0
 11
329.0153168598
 21
228.3223257198
 31
0.0
  0
LINE
  5
D0
330
44
100
AcDbEntity
  8
0
  6
Continuous
 62
     7
100
AcDbLine
 10
329.0153168598
 20
228.3223257198
 30
0.0
 11
327.2653617421
 21
225.3027469648
 31
0.0
  0
LINE
  5
D1
330
44
100
AcDbEntity
  8
0
  6
Continuous
 62
     7
100
AcDbLine
 10
411.8358739177
 20
181.7533713563
 30
0.0
 11
407.8864403526
 21
182.9986315949
 31
0.0
  0
LINE
  5
D2
330
44
100
AcDbEntity
  8
0
  6
Continuous
 62
     7
100
AcDbLine
 10
411.7299564639
 20
179.3274846657
 30
0.0
 11
411.8358739177
 21
181.7533713563
 31
0.0
  0
LINE
  5
D3
330
44
100
AcDbEntity
  8
0
  6
Continuous
 62
     7
100
AcDbLine
 10
310.2653198401
 20
201.5097108467
 30
0.0
 11
316.1653191308
 21
201.5092302843
 31
0.0
  0
LINE
  5
D4
330
44
100
AcDbEntity
  8
0
  6
Continuous
 62
     7
100
AcDbLine
 10
316.1653191308
 20
201.5092302843
 30
0.0
 11
316.1653191308
 21
211.1571957155
 31
0.0
  0
LINE
  5
D5
330
44
100
AcDbEntity
  8
0
  6
Continuous
 62
     7
100
AcDbLine
 10
316.1653191308
 20
211.1571957155
 30
0.0
 11
323.7653620998
 21
211.1565773173
 31
0.0
  0
LINE
  5
D6
330
44
100
AcDbEntity
  8
0
  6
Continuous
 62
     7
100
AcDbLine
 10
323.7653620998
 20
211.1565773173
 30
0.0
 11
323.7653620998
 21
215.7613788529
 31
0.0
  0
LINE
  5
D7
330
44
100
AcDbEntity
  8
0
  6
Continuous
 62
     7
100
AcDbLine
 10
323.7653620998
 20
215.7613788529
 30
0.0
 11
322.2653627852
 21
216.7613790168
 31
0.0
  0
LINE
  5
D8
330
44
100
AcDbEntity
  8
0
  6
Continuous
 62
     7
100
AcDbLine
 10
325.5153172175
 20
245.9612962645
 30
0.0
 11
424.7653581659
 21
245.9612962645
 31
0.0
  0
LINE
  5
D9
330
44
100
AcDbEntity
  8
0
  6
Continuous
 62
     7
100
AcDbLine
 10
316.7030312578
 20
198.0094280823
 30
0.0
 11
313.7653194824
 21
198.0094280823
 31
0.0
  0
LINE
  5
DA
330
44
100
AcDbEntity
  8
0
  6
Continuous
 62
     7
100
AcDbLine
 10
168.0154078165
 20
229.2632204278
 30
0.0
 11
168.265367345
 21
229.2632204278
 31
0.0
  0
LINE
  5
DB
330
44
100
AcDbEntity
  8
0
  6
Continuous
 62
     7
100
AcDbLine
 10
325.2653651396
 20
229.2632204278
 30
0.0
 11
325.5153172175
 21
229.2632204278
 31
0.0
  0
LINE
  5
DC
330
44
100
AcDbEntity
  8
0
  6
Continuous
 62
     7
100
AcDbLine
 10
168.0154078165
 20
245.9612962645
 30
0.0
 11
168.265367345
 21
245.9612962645
 31
0.0
  0
LINE
  5
DD
330
44
100
AcDbEntity
  8
0
  6
Continuous
 62
     7
100
AcDbLine
 10
172.0152743617
 20
222.3613788171
 30
0.0
 11
321.5154506723
 21
222.3613788171
 31
0.0
  0
LINE
  5
DE
330
44
100
AcDbEntity
  8
0
  6
Continuous
 62
     7
100
AcDbLine
 10
172.0152743617
 20
221.4613784833
 30
0.0
 11
321.5154506723
 21
221.4613784833
 31
0.0
  0
LINE
  5
DF
330
44
100
AcDbEntity
  8
0
  6
Continuous
 62
     7
100
AcDbLine
 10
171.2653659741
 20
221.0182980432
 30
0.0
 11
322.2653627852
 21
221.0182980432
 31
0.0
  0
LINE
  5
E0
330
44
100
AcDbEntity
  8
0
  6
Continuous
 62
     7
100
AcDbLine
 10
171.2653659741
 20
216.7613790168
 30
0.0
 11
322.2653627852
 21
216.7613790168
 31
0.0
  0
LINE
  5
E1
330
44
100
AcDbEntity
  8
0
  6
Continuous
 62
     7
100
AcDbLine
 10
169.7653629342
 20
215.7613788529
 30
0.0
 11
323.7653620998
 21
215.7613788529
 31
0.0
  0
LINE
  5
E2
330
44
100
AcDbEntity
  8
0
  6
Continuous
 62
     7
100
AcDbLine
 10
130.2653648416
 20
225.4617293163
 30
0.0
 11
129.7653563777
 21
225.4617293163
 31
0.0
  0
LINE
  5
E3
330
44
100
AcDbEntity
  8
0
  6
Continuous
 62
     7
100
AcDbLine
 10
123.7653591195
 20
225.4617293163
 30
0.0
 11
123.2653655568
 21
225.4617293163
 31
0.0
  0
LINE
  5
E4
330
44
100
AcDbEntity
  8
0
  6
Continuous
 62
     7
100
AcDbLine
 10
314.2653651992
 20
313.4612929805
 30
0.0
 11
314.2653651992
 21
315.9612980469
 31
0.0
  0
LINE
  5
E5
330
44
100
AcDbEntity
  8
0
  6
Continuous
 62
     7
100
AcDbLine
 10
313.2653631727
 20
316.9612926228
 30
0.0
 11
309.0153620104
 21
316.9612926228
 31
0.0
  0
LINE
  5
E6
330
44
100
AcDbEntity
  8
0
  6
Continuous
 62
     7
100
AcDbLine
 10
308.0153637091
 20
314.461295007
 30
0.0
 11
308.0153637091
 21
315.9612980469
 31
0.0
  0
LINE
  5
E7
330
44
100
AcDbEntity
  8
0
  6
Continuous
 62
     7
100
AcDbLine
 10
306.5153643945
 20
314.461295007
 30
0.0
 11
308.0153637091
 21
314.461295007
 31
0.0
  0
LINE
  5
E8
330
44
100
AcDbEntity
  8
0
  6
Continuous
 62
     7
100
AcDbLine
 10
306.5153643945
 20
314.461295007
 30
0.0
 11
306.5153643945
 21
315.9612980469
 31
0.0
  0
LINE
  5
E9
330
44
100
AcDbEntity
  8
0
  6
Continuous
 62
     7
100
AcDbLine
 10
313.2653631727
 20
318.4612956627
 30
0.0
 11
309.0153620104
 21
318.4612956627
 31
0.0
  0
LINE
  5
EA
330
44
100
AcDbEntity
  8
0
  6
Continuous
 62
     7
100
AcDbLine
 10
315.7653645138
 20
313.4612929805
 30
0.0
 11
315.7653645138
 21
315.9612980469
 31
0.0
  0
LINE
  5
EB
330
44
100
AcDbEntity
  8
0
  6
Continuous
 62
     7
100
AcDbLine
 10
315.7653645138
 20
313.4612929805
 30
0.0
 11
314.2653651992
 21
313.4612929805
 31
0.0
  0
LINE
  5
EC
330
44
100
AcDbEntity
  8
0
  6
Continuous
 62
     7
100
AcDbLine
 10
264.5153635638
 20
316.9612926228
 30
0.0
 11
229.0153637985
 21
316.9612926228
 31
0.0
  0
LINE
  5
ED
330
44
100
AcDbEntity
  8
0
  6
Continuous
 62
     7
100
AcDbLine
 10
228.0153654972
 20
314.461295007
 30
0.0
 11
228.0153654972
 21
315.9612980469
 31
0.0
  0
LINE
  5
EE
330
44
100
AcDbEntity
  8
0
  6
Continuous
 62
     7
100
AcDbLine
 10
226.5153624574
 20
314.461295007
 30
0.0
 11
228.0153654972
 21
314.461295007
 31
0.0
  0
LINE
  5
EF
330
44
100
AcDbEntity
  8
0
  6
Continuous
 62
     7
100
AcDbLine
 10
226.5153624574
 20
314.461295007
 30
0.0
 11
226.5153624574
 21
315.9612980469
 31
0.0
  0
LINE
  5
F0
330
44
100
AcDbEntity
  8
0
  6
Continuous
 62
     7
100
AcDbLine
 10
244.5041280696
 20
318.4612956627
 30
0.0
 11
229.0153637985
 21
318.4612956627
 31
0.0
  0
LINE
  5
F1
330
44
100
AcDbEntity
  8
0
  6
Continuous
 62
     7
100
AcDbLine
 10
244.5041280696
 20
318.4612956627
 30
0.0
 11
244.5041280696
 21
318.3612939699
 31
0.0
  0
LINE
  5
F2
330
44
100
AcDbEntity
  8
0
  6
Continuous
 62
     7
100
AcDbLine
 10
246.6254489953
 20
318.3612939699
 30
0.0
 11
244.5041280696
 21
318.3612939699
 31
0.0
  0
LINE
  5
F3
330
44
100
AcDbEntity
  8
0
  6
Continuous
 62
     7
100
AcDbLine
 10
246.6254489953
 20
318.3612939699
 30
0.0
 11
246.6254489953
 21
318.4612956627
 31
0.0
  0
LINE
  5
F4
330
44
100
AcDbEntity
  8
0
  6
Continuous
 62
     7
100
AcDbLine
 10
248.7467680583
 20
318.4612956627
 30
0.0
 11
246.6254489953
 21
318.4612956627
 31
0.0
  0
LINE
  5
F5
330
44
100
AcDbEntity
  8
0
  6
Continuous
 62
     7
100
AcDbLine
 10
248.7467680583
 20
318.4612956627
 30
0.0
 11
248.7467680583
 21
318.3612939699
 31
0.0
  0
LINE
  5
F6
330
44
100
AcDbEntity
  8
0
  6
Continuous
 62
     7
100
AcDbLine
 10
252.3636393706
 20
318.3612939699
 30
0.0
 11
248.7467680583
 21
318.3612939699
 31
0.0
  0
LINE
  5
F7
330
44
100
AcDbEntity
  8
0
  6
Continuous
 62
     7
100
AcDbLine
 10
252.3636393706
 20
318.3612939699
 30
0.0
 11
252.3636393706
 21
318.4612956627
 31
0.0
  0
LINE
  5
F8
330
44
100
AcDbEntity
  8
0
  6
Continuous
 62
     7
100
AcDbLine
 10
264.5153635638
 20
318.4612956627
 30
0.0
 11
252.3636393706
 21
318.4612956627
 31
0.0
  0
LINE
  5
F9
330
44
100
AcDbEntity
  8
0
  6
Continuous
 62
     7
100
AcDbLine
 10
267.0153639736
 20
315.9612980469
 30
0.0
 11
267.0153639736
 21
314.461295007
 31
0.0
  0
LINE
  5
FA
330
44
100
AcDbEntity
  8
0
  6
Continuous
 62
     7
100
AcDbLine
 10
265.5153637277
 20
314.461295007
 30
0.0
 11
267.0153639736
 21
314.461295007
 31
0.0
  0
LINE
  5
FB
330
44
100
AcDbEntity
  8
0
  6
Continuous
 62
     7
100
AcDbLine
 10
265.5153637277
 20
315.9612980469
 30
0.0
 11
265.5153637277
 21
314.461295007
 31
0.0
  0
LINE
  5
FC
330
44
100
AcDbEntity
  8
0
  6
Continuous
 62
     7
100
AcDbLine
 10
296.5153627554
 20
316.9612926228
 30
0.0
 11
293.015363113
 21
316.9612926228
 31
0.0
  0
LINE
  5
FD
330
44
100
AcDbEntity
  8
0
  6
Continuous
 62
     7
100
AcDbLine
 10
292.0153648118
 20
314.461295007
 30
0.0
 11
292.0153648118
 21
315.9612980469
 31
0.0
  0
LINE
  5
FE
330
44
100
AcDbEntity
  8
0
  6
Continuous
 62
     7
100
AcDbLine
 10
290.5153636346
 20
314.461295007
 30
0.0
 11
292.0153648118
 21
314.461295007
 31
0.0
  0
LINE
  5
FF
330
44
100
AcDbEntity
  8
0
  6
Continuous
 62
     7
100
AcDbLine
 10
290.5153636346
 20
314.461295007
 30
0.0
 11
290.5153636346
 21
315.9612980469
 31
0.0
  0
LINE
  5
100
330
44
100
AcDbEntity
  8
0
  6
Continuous
 62
     7
100
AcDbLine
 10
296.5153627554
 20
318.4612956627
 30
0.0
 11
293.015363113
 21
318.4612956627
 31
0.0
  0
LINE
  5
101
330
44
100
AcDbEntity
  8
0
  6
Continuous
 62
     7
100
AcDbLine
 10
299.0153640965
 20
315.9612980469
 30
0.0
 11
299.0153640965
 21
314.461295007
 31
0.0
  0
LINE
  5
102
330
44
100
AcDbEntity
  8
0
  6
Continuous
 62
     7
100
AcDbLine
 10
297.515364782
 20
314.461295007
 30
0.0
 11
299.0153640965
 21
314.461295007
 31
0.0
  0
LINE
  5
103
330
44
100
AcDbEntity
  8
0
  6
Continuous
 62
     7
100
AcDbLine
 10
297.515364782
 20
315.9612980469
 30
0.0
 11
297.515364782
 21
314.461295007
 31
0.0
  0
LINE
  5
104
330
44
100
AcDbEntity
  8
0
  6
Continuous
 62
     7
100
AcDbLine
 10
184.5153667489
 20
318.4612956627
 30
0.0
 11
180.2653618614
 21
318.4612956627
 31
0.0
  0
LINE
  5
105
330
44
100
AcDbEntity
  8
0
  6
Continuous
 62
     7
100
AcDbLine
 10
187.0153643647
 20
315.9612980469
 30
0.0
 11
187.0153643647
 21
314.461295007
 31
0.0
  0
LINE
  5
106
330
44
100
AcDbEntity
  8
0
  6
Continuous
 62
     7
100
AcDbLine
 10
185.5153613249
 20
314.461295007
 30
0.0
 11
187.0153643647
 21
314.461295007
 31
0.0
  0
LINE
  5
107
330
44
100
AcDbEntity
  8
0
  6
Continuous
 62
     7
100
AcDbLine
 10
185.5153613249
 20
315.9612980469
 30
0.0
 11
185.5153613249
 21
314.461295007
 31
0.0
  0
LINE
  5
108
330
44
100
AcDbEntity
  8
0
  6
Continuous
 62
     7
100
AcDbLine
 10
179.2653672854
 20
315.9612980469
 30
0.0
 11
179.2653672854
 21
313.4612929805
 31
0.0
  0
LINE
  5
109
330
44
100
AcDbEntity
  8
0
  6
Continuous
 62
     7
100
AcDbLine
 10
179.2653672854
 20
313.4612929805
 30
0.0
 11
177.7653642455
 21
313.4612929805
 31
0.0
  0
LINE
  5
10A
330
44
100
AcDbEntity
  8
0
  6
Continuous
 62
     7
100
AcDbLine
 10
177.7653642455
 20
315.9612980469
 30
0.0
 11
177.7653642455
 21
313.4612929805
 31
0.0
  0
LINE
  5
10B
330
44
100
AcDbEntity
  8
0
  6
Continuous
 62
     7
100
AcDbLine
 10
184.5153667489
 20
316.9612926228
 30
0.0
 11
180.2653618614
 21
316.9612926228
 31
0.0
  0
LINE
  5
10C
330
44
100
AcDbEntity
  8
0
  6
Continuous
 62
     7
100
AcDbLine
 10
216.5153645436
 20
318.4612956627
 30
0.0
 11
213.0153649012
 21
318.4612956627
 31
0.0
  0
LINE
  5
10D
330
44
100
AcDbEntity
  8
0
  6
Continuous
 62
     7
100
AcDbLine
 10
219.0153621594
 20
315.9612980469
 30
0.0
 11
219.0153621594
 21
314.461295007
 31
0.0
  0
LINE
  5
10E
330
44
100
AcDbEntity
  8
0
  6
Continuous
 62
     7
100
AcDbLine
 10
217.5153628448
 20
314.461295007
 30
0.0
 11
219.0153621594
 21
314.461295007
 31
0.0
  0
LINE
  5
10F
330
44
100
AcDbEntity
  8
0
  6
Continuous
 62
     7
100
AcDbLine
 10
217.5153628448
 20
315.9612980469
 30
0.0
 11
217.5153628448
 21
314.461295007
 31
0.0
  0
LINE
  5
110
330
44
100
AcDbEntity
  8
0
  6
Continuous
 62
     7
100
AcDbLine
 10
212.0153628746
 20
314.461295007
 30
0.0
 11
212.0153628746
 21
315.9612980469
 31
0.0
  0
LINE
  5
111
330
44
100
AcDbEntity
  8
0
  6
Continuous
 62
     7
100
AcDbLine
 10
210.5153635601
 20
314.461295007
 30
0.0
 11
212.0153628746
 21
314.461295007
 31
0.0
  0
LINE
  5
112
330
44
100
AcDbEntity
  8
0
  6
Continuous
 62
     7
100
AcDbLine
 10
210.5153635601
 20
314.461295007
 30
0.0
 11
210.5153635601
 21
315.9612980469
 31
0.0
  0
LINE
  5
113
330
44
100
AcDbEntity
  8
0
  6
Continuous
 62
     7
100
AcDbLine
 10
216.5153645436
 20
316.9612926228
 30
0.0
 11
213.0153649012
 21
316.9612926228
 31
0.0
  0
LINE
  5
114
330
44
100
AcDbEntity
  8
0
  6
Continuous
 62
     7
100
AcDbLine
 10
276.0153640518
 20
314.461295007
 30
0.0
 11
276.0153640518
 21
315.9612980469
 31
0.0
  0
LINE
  5
115
330
44
100
AcDbEntity
  8
0
  6
Continuous
 62
     7
100
AcDbLine
 10
274.515363806
 20
314.461295007
 30
0.0
 11
276.0153640518
 21
314.461295007
 31
0.0
  0
LINE
  5
116
330
44
100
AcDbEntity
  8
0
  6
Continuous
 62
     7
100
AcDbLine
 10
274.515363806
 20
314.461295007
 30
0.0
 11
274.515363806
 21
315.9612980469
 31
0.0
  0
LINE
  5
117
330
44
100
AcDbEntity
  8
0
  6
Continuous
 62
     7
100
AcDbLine
 10
280.5153638581
 20
318.4612956627
 30
0.0
 11
277.0153642157
 21
318.4612956627
 31
0.0
  0
LINE
  5
118
330
44
100
AcDbEntity
  8
0
  6
Continuous
 62
     7
100
AcDbLine
 10
283.0153633366
 20
315.9612980469
 30
0.0
 11
283.0153633366
 21
314.461295007
 31
0.0
  0
LINE
  5
119
330
44
100
AcDbEntity
  8
0
  6
Continuous
 62
     7
100
AcDbLine
 10
281.515364022
 20
314.461295007
 30
0.0
 11
283.0153633366
 21
314.461295007
 31
0.0
  0
LINE
  5
11A
330
44
100
AcDbEntity
  8
0
  6
Continuous
 62
     7
100
AcDbLine
 10
281.515364022
 20
315.9612980469
 30
0.0
 11
281.515364022
 21
314.461295007
 31
0.0
  0
LINE
  5
11B
330
44
100
AcDbEntity
  8
0
  6
Continuous
 62
     7
100
AcDbLine
 10
280.5153638581
 20
316.9612926228
 30
0.0
 11
277.0153642157
 21
316.9612926228
 31
0.0
  0
LINE
  5
11C
330
44
100
AcDbEntity
  8
0
  6
Continuous
 62
     7
100
AcDbLine
 10
200.515361921
 20
318.4612956627
 30
0.0
 11
197.0153622786
 21
318.4612956627
 31
0.0
  0
LINE
  5
11D
330
44
100
AcDbEntity
  8
0
  6
Continuous
 62
     7
100
AcDbLine
 10
203.0153632621
 20
315.9612980469
 30
0.0
 11
203.0153632621
 21
314.461295007
 31
0.0
  0
LINE
  5
11E
330
44
100
AcDbEntity
  8
0
  6
Continuous
 62
     7
100
AcDbLine
 10
201.5153639475
 20
314.461295007
 30
0.0
 11
203.0153632621
 21
314.461295007
 31
0.0
  0
LINE
  5
11F
330
44
100
AcDbEntity
  8
0
  6
Continuous
 62
     7
100
AcDbLine
 10
201.5153639475
 20
315.9612980469
 30
0.0
 11
201.5153639475
 21
314.461295007
 31
0.0
  0
LINE
  5
120
330
44
100
AcDbEntity
  8
0
  6
Continuous
 62
     7
100
AcDbLine
 10
196.015360252
 20
314.461295007
 30
0.0
 11
196.015360252
 21
315.9612980469
 31
0.0
  0
LINE
  5
121
330
44
100
AcDbEntity
  8
0
  6
Continuous
 62
     7
100
AcDbLine
 10
194.5153646628
 20
314.461295007
 30
0.0
 11
196.015360252
 21
314.461295007
 31
0.0
  0
LINE
  5
122
330
44
100
AcDbEntity
  8
0
  6
Continuous
 62
     7
100
AcDbLine
 10
194.5153646628
 20
314.461295007
 30
0.0
 11
194.5153646628
 21
315.9612980469
 31
0.0
  0
LINE
  5
123
330
44
100
AcDbEntity
  8
0
  6
Continuous
 62
     7
100
AcDbLine
 10
200.515361921
 20
316.9612926228
 30
0.0
 11
197.0153622786
 21
316.9612926228
 31
0.0
  0
LINE
  5
124
330
44
100
AcDbEntity
  8
0
  6
Continuous
 62
     7
100
AcDbLine
 10
246.6254489953
 20
318.4612956627
 30
0.0
 11
244.5041280696
 21
318.4612956627
 31
0.0
  0
LINE
  5
125
330
44
100
AcDbEntity
  8
0
  6
Continuous
 62
     7
100
AcDbLine
 10
250.731979915
 20
318.3612939699
 30
0.0
 11
250.731979915
 21
318.4612956627
 31
0.0
  0
LINE
  5
126
330
44
100
AcDbEntity
  8
0
  6
Continuous
 62
     7
100
AcDbLine
 10
252.3636393706
 20
318.4612956627
 30
0.0
 11
250.731979915
 21
318.4612956627
 31
0.0
  0
LINE
  5
127
330
44
100
AcDbEntity
  8
0
  6
Continuous
 62
     7
100
AcDbLine
 10
250.731979915
 20
318.4612956627
 30
0.0
 11
248.7467680583
 21
318.4612956627
 31
0.0
  0
LINE
  5
128
330
44
100
AcDbEntity
  8
0
  6
Continuous
 62
     7
100
AcDbLine
 10
274.515363806
 20
315.9612980469
 30
0.0
 11
267.0153639736
 21
315.9612980469
 31
0.0
  0
LINE
  5
129
330
44
100
AcDbEntity
  8
0
  6
Continuous
 62
     7
100
AcDbLine
 10
264.5153635638
 20
318.4612956627
 30
0.0
 11
277.0153642157
 21
318.4612956627
 31
0.0
  0
LINE
  5
12A
330
44
100
AcDbEntity
  8
0
  6
Continuous
 62
     7
100
AcDbLine
 10
274.515363806
 20
314.461295007
 30
0.0
 11
267.0153639736
 21
314.461295007
 31
0.0
  0
LINE
  5
12B
330
44
100
AcDbEntity
  8
0
  6
Continuous
 62
     7
100
AcDbLine
 10
226.5153624574
 20
315.9612980469
 30
0.0
 11
219.0153621594
 21
315.9612980469
 31
0.0
  0
LINE
  5
12C
330
44
100
AcDbEntity
  8
0
  6
Continuous
 62
     7
100
AcDbLine
 10
216.5153645436
 20
318.4612956627
 30
0.0
 11
229.0153637985
 21
318.4612956627
 31
0.0
  0
LINE
  5
12D
330
44
100
AcDbEntity
  8
0
  6
Continuous
 62
     7
100
AcDbLine
 10
226.5153624574
 20
314.461295007
 30
0.0
 11
219.0153621594
 21
314.461295007
 31
0.0
  0
LINE
  5
12E
330
44
100
AcDbEntity
  8
0
  6
Continuous
 62
     7
100
AcDbLine
 10
255.2653639103
 20
316.9612926228
 30
0.0
 11
255.2653639103
 21
315.9612980469
 31
0.0
  0
LINE
  5
12F
330
44
100
AcDbEntity
  8
0
  6
Continuous
 62
     7
100
AcDbLine
 10
238.2653639177
 20
315.9612980469
 30
0.0
 11
255.2653639103
 21
315.9612980469
 31
0.0
  0
LINE
  5
130
330
44
100
AcDbEntity
  8
0
  6
Continuous
 62
     7
100
AcDbLine
 10
238.2653639177
 20
315.9612980469
 30
0.0
 11
238.2653639177
 21
316.9612926228
 31
0.0
  0
LINE
  5
131
330
44
100
AcDbEntity
  8
0
  6
Continuous
 62
     7
100
AcDbLine
 10
255.2653639103
 20
314.461295007
 30
0.0
 11
260.5153637449
 21
314.461295007
 31
0.0
  0
LINE
  5
132
330
44
100
AcDbEntity
  8
0
  6
Continuous
 62
     7
100
AcDbLine
 10
255.2653639103
 20
314.461295007
 30
0.0
 11
255.2653639103
 21
315.9612980469
 31
0.0
  0
LINE
  5
133
330
44
100
AcDbEntity
  8
0
  6
Continuous
 62
     7
100
AcDbLine
 10
238.2653639177
 20
314.461295007
 30
0.0
 11
238.2653639177
 21
315.9612980469
 31
0.0
  0
LINE
  5
134
330
44
100
AcDbEntity
  8
0
  6
Continuous
 62
     7
100
AcDbLine
 10
238.2653639177
 20
314.461295007
 30
0.0
 11
255.2653639103
 21
314.461295007
 31
0.0
  0
LINE
  5
135
330
44
100
AcDbEntity
  8
0
  6
Continuous
 62
     7
100
AcDbLine
 10
233.0153644542
 20
314.461295007
 30
0.0
 11
238.2653639177
 21
314.461295007
 31
0.0
  0
LINE
  5
136
330
44
100
AcDbEntity
  8
0
  6
Continuous
 62
     7
100
AcDbLine
 10
290.5153636346
 20
315.9612980469
 30
0.0
 11
283.0153633366
 21
315.9612980469
 31
0.0
  0
LINE
  5
137
330
44
100
AcDbEntity
  8
0
  6
Continuous
 62
     7
100
AcDbLine
 10
280.5153638581
 20
318.4612956627
 30
0.0
 11
293.015363113
 21
318.4612956627
 31
0.0
  0
LINE
  5
138
330
44
100
AcDbEntity
  8
0
  6
Continuous
 62
     7
100
AcDbLine
 10
290.5153636346
 20
314.461295007
 30
0.0
 11
283.0153633366
 21
314.461295007
 31
0.0
  0
LINE
  5
139
330
44
100
AcDbEntity
  8
0
  6
Continuous
 62
     7
100
AcDbLine
 10
210.5153635601
 20
315.9612980469
 30
0.0
 11
203.0153632621
 21
315.9612980469
 31
0.0
  0
LINE
  5
13A
330
44
100
AcDbEntity
  8
0
  6
Continuous
 62
     7
100
AcDbLine
 10
200.515361921
 20
318.4612956627
 30
0.0
 11
213.0153649012
 21
318.4612956627
 31
0.0
  0
LINE
  5
13B
330
44
100
AcDbEntity
  8
0
  6
Continuous
 62
     7
100
AcDbLine
 10
210.5153635601
 20
314.461295007
 30
0.0
 11
203.0153632621
 21
314.461295007
 31
0.0
  0
LINE
  5
13C
330
44
100
AcDbEntity
  8
0
  6
Continuous
 62
     7
100
AcDbLine
 10
228.0153654972
 20
314.461295007
 30
0.0
 11
233.0153644542
 21
314.461295007
 31
0.0
  0
LINE
  5
13D
330
44
100
AcDbEntity
  8
0
  6
Continuous
 62
     7
100
AcDbLine
 10
260.5153637449
 20
314.461295007
 30
0.0
 11
265.5153637277
 21
314.461295007
 31
0.0
  0
LINE
  5
13E
330
44
100
AcDbEntity
  8
0
  6
Continuous
 62
     7
100
AcDbLine
 10
276.0153640518
 20
314.461295007
 30
0.0
 11
276.5153632025
 21
314.461295007
 31
0.0
  0
LINE
  5
13F
330
44
100
AcDbEntity
  8
0
  6
Continuous
 62
     7
100
AcDbLine
 10
217.0153655568
 20
314.461295007
 30
0.0
 11
217.5153628448
 21
314.461295007
 31
0.0
  0
LINE
  5
140
330
44
100
AcDbEntity
  8
0
  6
Continuous
 62
     7
100
AcDbLine
 10
306.5153643945
 20
315.9612980469
 30
0.0
 11
299.0153640965
 21
315.9612980469
 31
0.0
  0
LINE
  5
141
330
44
100
AcDbEntity
  8
0
  6
Continuous
 62
     7
100
AcDbLine
 10
296.5153627554
 20
318.4612956627
 30
0.0
 11
309.0153620104
 21
318.4612956627
 31
0.0
  0
LINE
  5
142
330
44
100
AcDbEntity
  8
0
  6
Continuous
 62
     7
100
AcDbLine
 10
306.5153643945
 20
314.461295007
 30
0.0
 11
299.0153640965
 21
314.461295007
 31
0.0
  0
LINE
  5
143
330
44
100
AcDbEntity
  8
0
  6
Continuous
 62
     7
100
AcDbLine
 10
194.5153646628
 20
315.9612980469
 30
0.0
 11
187.0153643647
 21
315.9612980469
 31
0.0
  0
LINE
  5
144
330
44
100
AcDbEntity
  8
0
  6
Continuous
 62
     7
100
AcDbLine
 10
194.5153646628
 20
314.461295007
 30
0.0
 11
187.0153643647
 21
314.461295007
 31
0.0
  0
LINE
  5
145
330
44
100
AcDbEntity
  8
0
  6
Continuous
 62
     7
100
AcDbLine
 10
184.5153667489
 20
318.4612956627
 30
0.0
 11
197.0153622786
 21
318.4612956627
 31
0.0
  0
LINE
  5
146
330
44
100
AcDbEntity
  8
0
  6
Continuous
 62
     7
100
AcDbLine
 10
212.0153628746
 20
314.461295007
 30
0.0
 11
217.0153655568
 21
314.461295007
 31
0.0
  0
LINE
  5
147
330
44
100
AcDbEntity
  8
0
  6
Continuous
 62
     7
100
AcDbLine
 10
276.5153632025
 20
314.461295007
 30
0.0
 11
281.515364022
 21
314.461295007
 31
0.0
  0
LINE
  5
148
330
44
100
AcDbEntity
  8
0
  6
Continuous
 62
     7
100
AcDbLine
 10
292.0153648118
 20
314.461295007
 30
0.0
 11
292.5153620998
 21
314.461295007
 31
0.0
  0
LINE
  5
149
330
44
100
AcDbEntity
  8
0
  6
Continuous
 62
     7
100
AcDbLine
 10
201.0153629342
 20
314.461295007
 30
0.0
 11
201.5153639475
 21
314.461295007
 31
0.0
  0
LINE
  5
14A
330
44
100
AcDbEntity
  8
0
  6
Continuous
 62
     7
100
AcDbLine
 10
312.7653621594
 20
315.9612980469
 30
0.0
 11
314.2653651992
 21
315.9612980469
 31
0.0
  0
LINE
  5
14B
330
44
100
AcDbEntity
  8
0
  6
Continuous
 62
     7
100
AcDbLine
 10
312.7653621594
 20
316.9612926228
 30
0.0
 11
312.7653621594
 21
315.9612980469
 31
0.0
  0
LINE
  5
14C
330
44
100
AcDbEntity
  8
0
  6
Continuous
 62
     7
100
AcDbLine
 10
179.2653672854
 20
315.9612980469
 30
0.0
 11
180.7653628746
 21
315.9612980469
 31
0.0
  0
LINE
  5
14D
330
44
100
AcDbEntity
  8
0
  6
Continuous
 62
     7
100
AcDbLine
 10
180.7653628746
 20
316.9612926228
 30
0.0
 11
180.7653628746
 21
315.9612980469
 31
0.0
  0
LINE
  5
14E
330
44
100
AcDbEntity
  8
0
  6
Continuous
 62
     7
100
AcDbLine
 10
312.7653621594
 20
315.9612980469
 30
0.0
 11
312.7653621594
 21
313.4612929805
 31
0.0
  0
LINE
  5
14F
330
44
100
AcDbEntity
  8
0
  6
Continuous
 62
     7
100
AcDbLine
 10
180.7653628746
 20
313.4612929805
 30
0.0
 11
180.7653628746
 21
315.9612980469
 31
0.0
  0
LINE
  5
150
330
44
100
AcDbEntity
  8
0
  6
Continuous
 62
     7
100
AcDbLine
 10
311.7653638581
 20
313.4612929805
 30
0.0
 11
303.7653625468
 21
313.4612929805
 31
0.0
  0
LINE
  5
151
330
44
100
AcDbEntity
  8
0
  6
Continuous
 62
     7
100
AcDbLine
 10
300.2653629044
 20
313.4612929805
 30
0.0
 11
276.2653645585
 21
313.4612929805
 31
0.0
  0
LINE
  5
152
330
44
100
AcDbEntity
  8
0
  6
Continuous
 62
     7
100
AcDbLine
 10
272.7653639848
 20
313.4612929805
 30
0.0
 11
220.7653619806
 21
313.4612929805
 31
0.0
  0
LINE
  5
153
330
44
100
AcDbEntity
  8
0
  6
Continuous
 62
     7
100
AcDbLine
 10
217.2653623382
 20
313.4612929805
 30
0.0
 11
193.2653658549
 21
313.4612929805
 31
0.0
  0
LINE
  5
154
330
44
100
AcDbEntity
  8
0
  6
Continuous
 62
     7
100
AcDbLine
 10
189.7653662125
 20
313.4612929805
 30
0.0
 11
181.7653649012
 21
313.4612929805
 31
0.0
  0
LINE
  5
155
330
44
100
AcDbEntity
  8
0
  6
Continuous
 62
     7
100
AcDbLine
 10
319.2653641561
 20
283.9612965269
 30
0.0
 11
319.2653641561
 21
284.9612948282
 31
0.0
  0
LINE
  5
156
330
44
100
AcDbEntity
  8
0
  6
Continuous
 62
     7
100
AcDbLine
 10
319.2653641561
 20
279.461294858
 30
0.0
 11
319.2653641561
 21
280.4612968846
 31
0.0
  0
LINE
  5
157
330
44
100
AcDbEntity
  8
0
  6
Continuous
 62
     7
100
AcDbLine
 10
319.2653641561
 20
274.9612969144
 30
0.0
 11
319.2653641561
 21
275.9612970783
 31
0.0
  0
LINE
  5
158
330
44
100
AcDbEntity
  8
0
  6
Continuous
 62
     7
100
AcDbLine
 10
319.2653641561
 20
270.4612971081
 30
0.0
 11
319.2653641561
 21
271.4612954094
 31
0.0
  0
LINE
  5
159
330
44
100
AcDbEntity
  8
0
  6
Continuous
 62
     7
100
AcDbLine
 10
319.2653641561
 20
265.9612954392
 30
0.0
 11
319.2653641561
 21
266.9612956031
 31
0.0
  0
LINE
  5
15A
330
44
100
AcDbEntity
  8
0
  6
Continuous
 62
     7
100
AcDbLine
 10
319.2653641561
 20
261.4612965642
 30
0.0
 11
319.2653641561
 21
262.4612957968
 31
0.0
  0
LINE
  5
15B
330
44
100
AcDbEntity
  8
0
  6
Continuous
 62
     7
100
AcDbLine
 10
319.2653641561
 20
256.9612958266
 30
0.0
 11
319.2653641561
 21
257.9612959905
 31
0.0
  0
LINE
  5
15C
330
44
100
AcDbEntity
  8
0
  6
Continuous
 62
     7
100
AcDbLine
 10
319.2653641561
 20
252.461296486
 30
0.0
 11
319.2653641561
 21
253.4612961842
 31
0.0
  0
LINE
  5
15D
330
44
100
AcDbEntity
  8
0
  6
Continuous
 62
     7
100
AcDbLine
 10
319.2653641561
 20
247.961296214
 30
0.0
 11
319.2653641561
 21
248.9612963779
 31
0.0
  0
LINE
  5
15E
330
44
100
AcDbEntity
  8
0
  6
Continuous
 62
     7
100
AcDbLine
 10
319.2653641561
 20
243.4612961749
 30
0.0
 11
319.2653641561
 21
244.4612962224
 31
0.0
  0
LINE
  5
15F
330
44
100
AcDbEntity
  8
0
  6
Continuous
 62
     7
100
AcDbLine
 10
319.2653641561
 20
238.9612961358
 30
0.0
 11
319.2653641561
 21
239.9612962997
 31
0.0
  0
LINE
  5
160
330
44
100
AcDbEntity
  8
0
  6
Continuous
 62
     7
100
AcDbLine
 10
319.2653641561
 20
234.4612958638
 30
0.0
 11
319.2653641561
 21
235.4612960278
 31
0.0
  0
LINE
  5
161
330
44
100
AcDbEntity
  8
0
  6
Continuous
 62
     7
100
AcDbLine
 10
319.2653641561
 20
228.961296825
 30
0.0
 11
319.2653641561
 21
230.9612962215
 31
0.0
  0
LINE
  5
162
330
44
100
AcDbEntity
  8
0
  6
Continuous
 62
     7
100
AcDbLine
 10
315.7653645138
 20
228.4612958117
 30
0.0
 11
318.7653631429
 21
228.4612958117
 31
0.0
  0
LINE
  5
163
330
44
100
AcDbEntity
  8
0
  6
Continuous
 62
     7
100
AcDbLine
 10
315.7653645138
 20
228.4612958117
 30
0.0
 11
315.7653645138
 21
307.9612967356
 31
0.0
  0
LINE
  5
164
330
44
100
AcDbEntity
  8
0
  6
Continuous
 62
     7
100
AcDbLine
 10
316.765362815
 20
307.9612967356
 30
0.0
 11
315.7653645138
 21
307.9612967356
 31
0.0
  0
LINE
  5
165
330
44
100
AcDbEntity
  8
0
  6
Continuous
 62
     7
100
AcDbLine
 10
316.765362815
 20
307.9612967356
 30
0.0
 11
316.765362815
 21
318.961296676
 31
0.0
  0
LINE
  5
166
330
44
100
AcDbEntity
  8
0
  6
Continuous
 62
     7
100
AcDbLine
 10
320.7653634707
 20
318.961296676
 30
0.0
 11
316.765362815
 21
318.961296676
 31
0.0
  0
LINE
  5
167
330
44
100
AcDbEntity
  8
0
  6
Continuous
 62
     7
100
AcDbLine
 10
320.7653634707
 20
318.961296676
 30
0.0
 11
320.7653634707
 21
304.9612981065
 31
0.0
  0
LINE
  5
168
330
44
100
AcDbEntity
  8
0
  6
Continuous
 62
     7
100
AcDbLine
 10
320.7653634707
 20
304.9612981065
 30
0.0
 11
319.2653641561
 21
304.9612981065
 31
0.0
  0
LINE
  5
169
330
44
100
AcDbEntity
  8
0
  6
Continuous
 62
     7
100
AcDbLine
 10
319.2653641561
 20
304.9612981065
 30
0.0
 11
319.2653641561
 21
301.9612957521
 31
0.0
  0
LINE
  5
16A
330
44
100
AcDbEntity
  8
0
  6
Continuous
 62
     7
100
AcDbLine
 10
319.7653651694
 20
301.9612957521
 30
0.0
 11
319.2653641561
 21
301.9612957521
 31
0.0
  0
LINE
  5
16B
330
44
100
AcDbEntity
  8
0
  6
Continuous
 62
     7
100
AcDbLine
 10
319.7653651694
 20
301.9612957521
 30
0.0
 11
319.7653651694
 21
299.9612954243
 31
0.0
  0
LINE
  5
16C
330
44
100
AcDbEntity
  8
0
  6
Continuous
 62
     7
100
AcDbLine
 10
319.2653641561
 20
299.9612954243
 30
0.0
 11
319.7653651694
 21
299.9612954243
 31
0.0
  0
LINE
  5
16D
330
44
100
AcDbEntity
  8
0
  6
Continuous
 62
     7
100
AcDbLine
 10
319.2653641561
 20
299.9612954243
 30
0.0
 11
319.2653641561
 21
292.9612961395
 31
0.0
  0
LINE
  5
16E
330
44
100
AcDbEntity
  8
0
  6
Continuous
 62
     7
100
AcDbLine
 10
319.2653641561
 20
288.4612944706
 30
0.0
 11
319.2653641561
 21
289.4612964971
 31
0.0
  0
LINE
  5
16F
330
44
100
AcDbEntity
  8
0
  6
Continuous
 62
     7
100
AcDbLine
 10
174.2653646032
 20
292.9612961395
 30
0.0
 11
174.2653646032
 21
299.9612954243
 31
0.0
  0
LINE
  5
170
330
44
100
AcDbEntity
  8
0
  6
Continuous
 62
     7
100
AcDbLine
 10
173.7653635899
 20
299.9612954243
 30
0.0
 11
174.2653646032
 21
299.9612954243
 31
0.0
  0
LINE
  5
171
330
44
100
AcDbEntity
  8
0
  6
Continuous
 62
     7
100
AcDbLine
 10
173.7653635899
 20
299.9612954243
 30
0.0
 11
173.7653635899
 21
301.9612957521
 31
0.0
  0
LINE
  5
172
330
44
100
AcDbEntity
  8
0
  6
Continuous
 62
     7
100
AcDbLine
 10
174.2653646032
 20
301.9612957521
 30
0.0
 11
173.7653635899
 21
301.9612957521
 31
0.0
  0
LINE
  5
173
330
44
100
AcDbEntity
  8
0
  6
Continuous
 62
     7
100
AcDbLine
 10
174.2653646032
 20
301.9612957521
 30
0.0
 11
174.2653646032
 21
304.9612981065
 31
0.0
  0
LINE
  5
174
330
44
100
AcDbEntity
  8
0
  6
Continuous
 62
     7
100
AcDbLine
 10
174.2653646032
 20
304.9612981065
 30
0.0
 11
172.7653615633
 21
304.9612981065
 31
0.0
  0
LINE
  5
175
330
44
100
AcDbEntity
  8
0
  6
Continuous
 62
     7
100
AcDbLine
 10
172.7653615633
 20
304.9612981065
 30
0.0
 11
172.7653615633
 21
318.961296676
 31
0.0
  0
LINE
  5
176
330
44
100
AcDbEntity
  8
0
  6
Continuous
 62
     7
100
AcDbLine
 10
176.765362219
 20
318.961296676
 30
0.0
 11
172.7653615633
 21
318.961296676
 31
0.0
  0
LINE
  5
177
330
44
100
AcDbEntity
  8
0
  6
Continuous
 62
     7
100
AcDbLine
 10
176.765362219
 20
318.961296676
 30
0.0
 11
176.765362219
 21
307.9612967356
 31
0.0
  0
LINE
  5
178
330
44
100
AcDbEntity
  8
0
  6
Continuous
 62
     7
100
AcDbLine
 10
177.7653642455
 20
307.9612967356
 30
0.0
 11
176.765362219
 21
307.9612967356
 31
0.0
  0
LINE
  5
179
330
44
100
AcDbEntity
  8
0
  6
Continuous
 62
     7
100
AcDbLine
 10
177.7653642455
 20
307.9612967356
 30
0.0
 11
177.7653642455
 21
228.4612958117
 31
0.0
  0
LINE
  5
17A
330
44
100
AcDbEntity
  8
0
  6
Continuous
 62
     7
100
AcDbLine
 10
174.7653656164
 20
228.4612958117
 30
0.0
 11
177.7653642455
 21
228.4612958117
 31
0.0
  0
LINE
  5
17B
330
44
100
AcDbEntity
  8
0
  6
Continuous
 62
     7
100
AcDbLine
 10
174.2653646032
 20
230.9612962215
 30
0.0
 11
174.2653646032
 21
228.961296825
 31
0.0
  0
LINE
  5
17C
330
44
100
AcDbEntity
  8
0
  6
Continuous
 62
     7
100
AcDbLine
 10
174.2653646032
 20
235.4612960278
 30
0.0
 11
174.2653646032
 21
234.4612958638
 31
0.0
  0
LINE
  5
17D
330
44
100
AcDbEntity
  8
0
  6
Continuous
 62
     7
100
AcDbLine
 10
174.2653646032
 20
239.9612962997
 30
0.0
 11
174.2653646032
 21
238.9612961358
 31
0.0
  0
LINE
  5
17E
330
44
100
AcDbEntity
  8
0
  6
Continuous
 62
     7
100
AcDbLine
 10
174.2653646032
 20
244.4612962224
 30
0.0
 11
174.2653646032
 21
243.4612961749
 31
0.0
  0
LINE
  5
17F
330
44
100
AcDbEntity
  8
0
  6
Continuous
 62
     7
100
AcDbLine
 10
174.2653646032
 20
248.9612963779
 30
0.0
 11
174.2653646032
 21
247.961296214
 31
0.0
  0
LINE
  5
180
330
44
100
AcDbEntity
  8
0
  6
Continuous
 62
     7
100
AcDbLine
 10
174.2653646032
 20
253.4612961842
 30
0.0
 11
174.2653646032
 21
252.461296486
 31
0.0
  0
LINE
  5
181
330
44
100
AcDbEntity
  8
0
  6
Continuous
 62
     7
100
AcDbLine
 10
174.2653646032
 20
257.9612959905
 30
0.0
 11
174.2653646032
 21
256.9612958266
 31
0.0
  0
LINE
  5
182
330
44
100
AcDbEntity
  8
0
  6
Continuous
 62
     7
100
AcDbLine
 10
174.2653646032
 20
262.4612957968
 30
0.0
 11
174.2653646032
 21
261.4612965642
 31
0.0
  0
LINE
  5
183
330
44
100
AcDbEntity
  8
0
  6
Continuous
 62
     7
100
AcDbLine
 10
174.2653646032
 20
266.9612956031
 30
0.0
 11
174.2653646032
 21
265.9612954392
 31
0.0
  0
LINE
  5
184
330
44
100
AcDbEntity
  8
0
  6
Continuous
 62
     7
100
AcDbLine
 10
174.2653646032
 20
271.4612954094
 30
0.0
 11
174.2653646032
 21
270.4612971081
 31
0.0
  0
LINE
  5
185
330
44
100
AcDbEntity
  8
0
  6
Continuous
 62
     7
100
AcDbLine
 10
174.2653646032
 20
275.9612970783
 30
0.0
 11
174.2653646032
 21
274.9612969144
 31
0.0
  0
LINE
  5
186
330
44
100
AcDbEntity
  8
0
  6
Continuous
 62
     7
100
AcDbLine
 10
174.2653646032
 20
280.4612968846
 30
0.0
 11
174.2653646032
 21
279.461294858
 31
0.0
  0
LINE
  5
187
330
44
100
AcDbEntity
  8
0
  6
Continuous
 62
     7
100
AcDbLine
 10
174.2653646032
 20
284.9612948282
 30
0.0
 11
174.2653646032
 21
283.9612965269
 31
0.0
  0
LINE
  5
188
330
44
100
AcDbEntity
  8
0
  6
Continuous
 62
     7
100
AcDbLine
 10
174.2653646032
 20
289.4612964971
 30
0.0
 11
174.2653646032
 21
288.4612944706
 31
0.0
  0
LINE
  5
189
330
44
100
AcDbEntity
  8
0
  6
Continuous
 62
     7
100
AcDbLine
 10
185.7653655568
 20
301.6574089213
 30
0.0
 11
185.7653655568
 21
307.9612967356
 31
0.0
  0
LINE
  5
18A
330
44
100
AcDbEntity
  8
0
  6
Continuous
 62
     7
100
AcDbLine
 10
214.5163327912
 20
301.6574089213
 30
0.0
 11
185.7653655568
 21
301.6574089213
 31
0.0
  0
LINE
  5
18B
330
44
100
AcDbEntity
  8
0
  6
Continuous
 62
     7
100
AcDbLine
 10
214.5163327912
 20
307.9612967356
 30
0.0
 11
214.5163327912
 21
301.6574089213
 31
0.0
  0
LINE
  5
18C
330
44
100
AcDbEntity
  8
0
  6
Continuous
 62
     7
100
AcDbLine
 10
279.0143941054
 20
301.6574089213
 30
0.0
 11
279.0143941054
 21
307.9612967356
 31
0.0
  0
LINE
  5
18D
330
44
100
AcDbEntity
  8
0
  6
Continuous
 62
     7
100
AcDbLine
 10
307.7653632025
 20
301.6574089213
 30
0.0
 11
279.0143941054
 21
301.6574089213
 31
0.0
  0
LINE
  5
18E
330
44
100
AcDbEntity
  8
0
  6
Continuous
 62
     7
100
AcDbLine
 10
307.7653632025
 20
307.9612967356
 30
0.0
 11
307.7653632025
 21
301.6574089213
 31
0.0
  0
LINE
  5
18F
330
44
100
AcDbEntity
  8
0
  6
Continuous
 62
     7
100
AcDbLine
 10
315.2653635005
 20
228.4612958117
 30
0.0
 11
309.3183212439
 21
228.4612958117
 31
0.0
  0
LINE
  5
190
330
44
100
AcDbEntity
  8
0
  6
Continuous
 62
     7
100
AcDbLine
 10
303.2531686584
 20
228.4612958117
 30
0.0
 11
286.3895711014
 21
228.4612958117
 31
0.0
  0
LINE
  5
191
330
44
100
AcDbEntity
  8
0
  6
Continuous
 62
     7
100
AcDbLine
 10
275.8879898573
 20
228.4612958117
 30
0.0
 11
252.8209094415
 21
228.4612958117
 31
0.0
  0
LINE
  5
192
330
44
100
AcDbEntity
  8
0
  6
Continuous
 62
     7
100
AcDbLine
 10
240.7098174552
 20
228.4612958117
 30
0.0
 11
217.6427379707
 21
228.4612958117
 31
0.0
  0
LINE
  5
193
330
44
100
AcDbEntity
  8
0
  6
Continuous
 62
     7
100
AcDbLine
 10
207.1411557952
 20
228.4612958117
 30
0.0
 11
190.2775563756
 21
228.4612958117
 31
0.0
  0
LINE
  5
194
330
44
100
AcDbEntity
  8
0
  6
Continuous
 62
     7
100
AcDbLine
 10
184.2124037901
 20
228.4612958117
 30
0.0
 11
178.2653652588
 21
228.4612958117
 31
0.0
  0
LINE
  5
195
330
44
100
AcDbEntity
  8
0
  6
Continuous
 62
     7
100
AcDbLine
 10
315.7653645138
 20
307.9612967356
 30
0.0
 11
307.7653632025
 21
307.9612967356
 31
0.0
  0
LINE
  5
196
330
44
100
AcDbEntity
  8
0
  6
Continuous
 62
     7
100
AcDbLine
 10
279.0143941054
 20
307.9612967356
 30
0.0
 11
214.5163327912
 21
307.9612967356
 31
0.0
  0
LINE
  5
197
330
44
100
AcDbEntity
  8
0
  6
Continuous
 62
     7
100
AcDbLine
 10
185.7653655568
 20
307.9612967356
 30
0.0
 11
177.7653642455
 21
307.9612967356
 31
0.0
  0
LINE
  5
198
330
44
100
AcDbEntity
  8
0
  6
Continuous
 62
     7
100
AcDbLine
 10
315.2653635005
 20
313.4612929805
 30
0.0
 11
315.2653635005
 21
307.9612967356
 31
0.0
  0
LINE
  5
199
330
44
100
AcDbEntity
  8
0
  6
Continuous
 62
     7
100
AcDbLine
 10
315.7653645138
 20
313.4612929805
 30
0.0
 11
316.765362815
 21
313.4612929805
 31
0.0
  0
LINE
  5
19A
330
44
100
AcDbEntity
  8
0
  6
Continuous
 62
     7
100
AcDbLine
 10
178.2653652588
 20
313.4612929805
 30
0.0
 11
178.2653652588
 21
307.9612967356
 31
0.0
  0
LINE
  5
19B
330
44
100
AcDbEntity
  8
0
  6
Continuous
 62
     7
100
AcDbLine
 10
176.765362219
 20
313.4612929805
 30
0.0
 11
177.7653642455
 21
313.4612929805
 31
0.0
  0
LINE
  5
19C
330
44
100
AcDbEntity
  8
0
  6
Continuous
 62
     7
100
AcDbLine
 10
311.7653638581
 20
313.4612929805
 30
0.0
 11
311.7653638581
 21
307.9612967356
 31
0.0
  0
LINE
  5
19D
330
44
100
AcDbEntity
  8
0
  6
Continuous
 62
     7
100
AcDbLine
 10
311.7653638581
 20
313.4612929805
 30
0.0
 11
314.2653651992
 21
313.4612929805
 31
0.0
  0
LINE
  5
19E
330
44
100
AcDbEntity
  8
0
  6
Continuous
 62
     7
100
AcDbLine
 10
181.7653649012
 20
313.4612929805
 30
0.0
 11
181.7653649012
 21
307.9612967356
 31
0.0
  0
LINE
  5
19F
330
44
100
AcDbEntity
  8
0
  6
Continuous
 62
     7
100
AcDbLine
 10
179.2653672854
 20
313.4612929805
 30
0.0
 11
181.7653649012
 21
313.4612929805
 31
0.0
  0
LINE
  5
1A0
330
44
100
AcDbEntity
  8
0
  6
Continuous
 62
     7
100
AcDbLine
 10
279.0143941054
 20
301.6574089213
 30
0.0
 11
281.0225733081
 21
303.3936028166
 31
0.0
  0
LINE
  5
1A1
330
44
100
AcDbEntity
  8
0
  6
Continuous
 62
     7
100
AcDbLine
 10
281.0225733081
 20
303.3936028166
 30
0.0
 11
307.7653632025
 21
303.3936028166
 31
0.0
  0
LINE
  5
1A2
330
44
100
AcDbEntity
  8
0
  6
Continuous
 62
     7
100
AcDbLine
 10
185.7653655568
 20
303.3936028166
 30
0.0
 11
212.5081554512
 21
303.3936028166
 31
0.0
  0
LINE
  5
1A3
330
44
100
AcDbEntity
  8
0
  6
Continuous
 62
     7
100
AcDbLine
 10
212.5081554512
 20
303.3936028166
 30
0.0
 11
214.5163327912
 21
301.6574089213
 31
0.0
  0
LINE
  5
1A4
330
44
100
AcDbEntity
  8
0
  6
Continuous
 62
     7
100
AcDbLine
 10
307.7653632025
 20
307.9612967356
 30
0.0
 11
307.1836591224
 21
307.9612967356
 31
0.0
  0
LINE
  5
1A5
330
44
100
AcDbEntity
  8
0
  6
Continuous
 62
     7
100
AcDbLine
 10
186.3470696369
 20
307.9612967356
 30
0.0
 11
185.7653655568
 21
307.9612967356
 31
0.0
  0
LINE
  5
1A6
330
44
100
AcDbEntity
  8
0
  6
Continuous
 62
     7
100
AcDbLine
 10
307.1836591224
 20
307.9612967356
 30
0.0
 11
279.0143941054
 21
307.9612967356
 31
0.0
  0
LINE
  5
1A7
330
44
100
AcDbEntity
  8
0
  6
Continuous
 62
     7
100
AcDbLine
 10
214.5163327912
 20
307.9612967356
 30
0.0
 11
186.3470696369
 21
307.9612967356
 31
0.0
  0
LINE
  5
1A8
330
44
100
AcDbEntity
  8
0
  6
Continuous
 62
     7
100
AcDbLine
 10
300.2653629044
 20
313.4612929805
 30
0.0
 11
300.2653629044
 21
307.9612967356
 31
0.0
  0
LINE
  5
1A9
330
44
100
AcDbEntity
  8
0
  6
Continuous
 62
     7
100
AcDbLine
 10
303.7653625468
 20
313.4612929805
 30
0.0
 11
303.7653625468
 21
307.9612967356
 31
0.0
  0
LINE
  5
1AA
330
44
100
AcDbEntity
  8
0
  6
Continuous
 62
     7
100
AcDbLine
 10
300.2653629044
 20
313.4612929805
 30
0.0
 11
303.7653625468
 21
313.4612929805
 31
0.0
  0
LINE
  5
1AB
330
44
100
AcDbEntity
  8
0
  6
Continuous
 62
     7
100
AcDbLine
 10
272.7653639848
 20
313.4612929805
 30
0.0
 11
272.7653639848
 21
307.9612967356
 31
0.0
  0
LINE
  5
1AC
330
44
100
AcDbEntity
  8
0
  6
Continuous
 62
     7
100
AcDbLine
 10
276.2653645585
 20
313.4612929805
 30
0.0
 11
276.2653645585
 21
307.9612967356
 31
0.0
  0
LINE
  5
1AD
330
44
100
AcDbEntity
  8
0
  6
Continuous
 62
     7
100
AcDbLine
 10
272.7653639848
 20
313.4612929805
 30
0.0
 11
276.2653645585
 21
313.4612929805
 31
0.0
  0
LINE
  5
1AE
330
44
100
AcDbEntity
  8
0
  6
Continuous
 62
     7
100
AcDbLine
 10
217.2653623382
 20
313.4612929805
 30
0.0
 11
217.2653623382
 21
307.9612967356
 31
0.0
  0
LINE
  5
1AF
330
44
100
AcDbEntity
  8
0
  6
Continuous
 62
     7
100
AcDbLine
 10
220.7653619806
 20
313.4612929805
 30
0.0
 11
220.7653619806
 21
307.9612967356
 31
0.0
  0
LINE
  5
1B0
330
44
100
AcDbEntity
  8
0
  6
Continuous
 62
     7
100
AcDbLine
 10
217.2653623382
 20
313.4612929805
 30
0.0
 11
220.7653619806
 21
313.4612929805
 31
0.0
  0
LINE
  5
1B1
330
44
100
AcDbEntity
  8
0
  6
Continuous
 62
     7
100
AcDbLine
 10
193.2653658549
 20
313.4612929805
 30
0.0
 11
193.2653658549
 21
307.9612967356
 31
0.0
  0
LINE
  5
1B2
330
44
100
AcDbEntity
  8
0
  6
Continuous
 62
     7
100
AcDbLine
 10
189.7653662125
 20
313.4612929805
 30
0.0
 11
189.7653662125
 21
307.9612967356
 31
0.0
  0
LINE
  5
1B3
330
44
100
AcDbEntity
  8
0
  6
Continuous
 62
     7
100
AcDbLine
 10
189.7653662125
 20
313.4612929805
 30
0.0
 11
193.2653658549
 21
313.4612929805
 31
0.0
  0
LINE
  5
1B4
330
44
100
AcDbEntity
  8
0
  6
Continuous
 62
     7
100
AcDbLine
 10
260.7653637349
 20
313.4612929805
 30
0.0
 11
260.7653637349
 21
307.9612967356
 31
0.0
  0
LINE
  5
1B5
330
44
100
AcDbEntity
  8
0
  6
Continuous
 62
     7
100
AcDbLine
 10
232.7653639475
 20
313.4612929805
 30
0.0
 11
232.7653639475
 21
307.9612967356
 31
0.0
  0
LINE
  5
1B6
330
44
100
AcDbEntity
  8
0
  6
Continuous
 62
     7
100
AcDbLine
 10
316.765362815
 20
318.961296676
 30
0.0
 11
176.765362219
 21
318.961296676
 31
0.0
  0
LINE
  5
1B7
330
44
100
AcDbEntity
  8
0
  6
Continuous
 62
     7
100
AcDbLine
 10
190.2775563756
 20
225.9612963332
 30
0.0
 11
201.5508324364
 21
225.9612963332
 31
0.0
  0
LINE
  5
1B8
330
44
100
AcDbEntity
  8
0
  6
Continuous
 62
     7
100
AcDbLine
 10
218.0954911271
 20
225.9612963332
 30
0.0
 11
238.1520312736
 21
225.9612963332
 31
0.0
  0
LINE
  5
1B9
330
44
100
AcDbEntity
  8
0
  6
Continuous
 62
     7
100
AcDbLine
 10
255.37869702
 20
225.9612963332
 30
0.0
 11
275.4352367008
 21
225.9612963332
 31
0.0
  0
LINE
  5
1BA
330
44
100
AcDbEntity
  8
0
  6
Continuous
 62
     7
100
AcDbLine
 10
291.9798963228
 20
225.9612963332
 30
0.0
 11
303.2531686584
 21
225.9612963332
 31
0.0
  0
LINE
  5
1BB
330
44
100
AcDbEntity
  8
0
  6
Continuous
 62
     7
100
AcDbLine
 10
322.7653637985
 20
225.9612963332
 30
0.0
 11
325.2653651396
 21
228.4612958117
 31
0.0
  0
LINE
  5
1BC
330
44
100
AcDbEntity
  8
0
  6
Continuous
 62
     7
100
AcDbLine
 10
168.265367345
 20
228.4612958117
 30
0.0
 11
170.7653649608
 21
225.9612963332
 31
0.0
  0
LINE
  5
1BD
330
44
100
AcDbEntity
  8
0
  6
Continuous
 62
     7
100
AcDbLine
 10
319.2242332259
 20
228.4612958117
 30
0.0
 11
315.2653635005
 21
228.4612958117
 31
0.0
  0
LINE
  5
1BE
330
44
100
AcDbEntity
  8
0
  6
Continuous
 62
     7
100
AcDbLine
 10
319.2242332259
 20
228.4612958117
 30
0.0
 11
319.2242332259
 21
243.9612962569
 31
0.0
  0
LINE
  5
1BF
330
44
100
AcDbEntity
  8
0
  6
Continuous
 62
     7
100
AcDbLine
 10
322.7653637985
 20
244.9612963044
 30
0.0
 11
320.2242352525
 21
244.9612963044
 31
0.0
  0
LINE
  5
1C0
330
44
100
AcDbEntity
  8
0
  6
Continuous
 62
     7
100
AcDbLine
 10
325.2653651396
 20
245.9612962645
 30
0.0
 11
323.7653620998
 21
245.9612962645
 31
0.0
  0
LINE
  5
1C1
330
44
100
AcDbEntity
  8
0
  6
Continuous
 62
     7
100
AcDbLine
 10
325.2653651396
 20
228.4612958117
 30
0.0
 11
325.2653651396
 21
245.9612962645
 31
0.0
  0
LINE
  5
1C2
330
44
100
AcDbEntity
  8
0
  6
Continuous
 62
     7
100
AcDbLine
 10
315.2653635005
 20
225.9612963332
 30
0.0
 11
315.2653635005
 21
228.4612958117
 31
0.0
  0
LINE
  5
1C3
330
44
100
AcDbEntity
  8
0
  6
Continuous
 62
     7
100
AcDbLine
 10
322.7653637985
 20
225.9612963332
 30
0.0
 11
315.2653635005
 21
225.9612963332
 31
0.0
  0
LINE
  5
1C4
330
44
100
AcDbEntity
  8
0
  6
Continuous
 62
     7
100
AcDbLine
 10
168.265367345
 20
245.9612962645
 30
0.0
 11
168.265367345
 21
228.4612958117
 31
0.0
  0
LINE
  5
1C5
330
44
100
AcDbEntity
  8
0
  6
Continuous
 62
     7
100
AcDbLine
 10
169.7653629342
 20
245.9612962645
 30
0.0
 11
168.265367345
 21
245.9612962645
 31
0.0
  0
LINE
  5
1C6
330
44
100
AcDbEntity
  8
0
  6
Continuous
 62
     7
100
AcDbLine
 10
173.3064897815
 20
244.9612963044
 30
0.0
 11
170.7653649608
 21
244.9612963044
 31
0.0
  0
LINE
  5
1C7
330
44
100
AcDbEntity
  8
0
  6
Continuous
 62
     7
100
AcDbLine
 10
174.3064918081
 20
243.9612962569
 30
0.0
 11
174.3064918081
 21
228.4612958117
 31
0.0
  0
LINE
  5
1C8
330
44
100
AcDbEntity
  8
0
  6
Continuous
 62
     7
100
AcDbLine
 10
178.2653652588
 20
225.9612963332
 30
0.0
 11
170.7653649608
 21
225.9612963332
 31
0.0
  0
LINE
  5
1C9
330
44
100
AcDbEntity
  8
0
  6
Continuous
 62
     7
100
AcDbLine
 10
178.2653652588
 20
228.4612958117
 30
0.0
 11
174.3064918081
 21
228.4612958117
 31
0.0
  0
LINE
  5
1CA
330
44
100
AcDbEntity
  8
0
  6
Continuous
 62
     7
100
AcDbLine
 10
178.2653652588
 20
228.4612958117
 30
0.0
 11
178.2653652588
 21
225.9612963332
 31
0.0
  0
LINE
  5
1CB
330
44
100
AcDbEntity
  8
0
  6
Continuous
 62
     7
100
AcDbLine
 10
169.7653629342
 20
245.9612962645
 30
0.0
 11
175.9901069561
 21
245.9612962645
 31
0.0
  0
LINE
  5
1CC
330
44
100
AcDbEntity
  8
0
  6
Continuous
 62
     7
100
AcDbLine
 10
317.5406180779
 20
245.9612962645
 30
0.0
 11
323.7653620998
 21
245.9612962645
 31
0.0
  0
LINE
  5
1CD
330
44
100
AcDbEntity
  8
0
  6
Continuous
 62
     7
100
AcDbLine
 10
308.5881047407
 20
228.4612958117
 30
0.0
 11
308.5881047407
 21
225.9612963332
 31
0.0
  0
LINE
  5
1CE
330
44
100
AcDbEntity
  8
0
  6
Continuous
 62
     7
100
AcDbLine
 10
308.5881047407
 20
228.4612958117
 30
0.0
 11
309.3183212439
 21
228.4612958117
 31
0.0
  0
LINE
  5
1CF
330
44
100
AcDbEntity
  8
0
  6
Continuous
 62
     7
100
AcDbLine
 10
312.0031677643
 20
228.4612958117
 30
0.0
 11
312.0031677643
 21
225.9612963332
 31
0.0
  0
LINE
  5
1D0
330
44
100
AcDbEntity
  8
0
  6
Continuous
 62
     7
100
AcDbLine
 10
308.5881047407
 20
225.9612963332
 30
0.0
 11
312.0031677643
 21
225.9612963332
 31
0.0
  0
LINE
  5
1D1
330
44
100
AcDbEntity
  8
0
  6
Continuous
 62
     7
100
AcDbLine
 10
181.5275572697
 20
228.4612958117
 30
0.0
 11
181.5275572697
 21
225.9612963332
 31
0.0
  0
LINE
  5
1D2
330
44
100
AcDbEntity
  8
0
  6
Continuous
 62
     7
100
AcDbLine
 10
184.9426202933
 20
228.4612958117
 30
0.0
 11
184.9426202933
 21
225.9612963332
 31
0.0
  0
LINE
  5
1D3
330
44
100
AcDbEntity
  8
0
  6
Continuous
 62
     7
100
AcDbLine
 10
181.5275572697
 20
225.9612963332
 30
0.0
 11
184.9426202933
 21
225.9612963332
 31
0.0
  0
LINE
  5
1D4
330
44
100
AcDbEntity
  8
0
  6
Continuous
 62
     7
100
AcDbLine
 10
184.2124037901
 20
228.4612958117
 30
0.0
 11
184.9426202933
 21
228.4612958117
 31
0.0
  0
LINE
  5
1D5
330
44
100
AcDbEntity
  8
0
  6
Continuous
 62
     7
100
AcDbLine
 10
315.0487862984
 20
225.9612963332
 30
0.0
 11
315.0487862984
 21
228.4612958117
 31
0.0
  0
LINE
  5
1D6
330
44
100
AcDbEntity
  8
0
  6
Continuous
 62
     7
100
AcDbLine
 10
312.0031677643
 20
225.9612963332
 30
0.0
 11
315.0487862984
 21
225.9612963332
 31
0.0
  0
LINE
  5
1D7
330
44
100
AcDbEntity
  8
0
  6
Continuous
 62
     7
100
AcDbLine
 10
178.4819387356
 20
228.4612958117
 30
0.0
 11
178.4819387356
 21
225.9612963332
 31
0.0
  0
LINE
  5
1D8
330
44
100
AcDbEntity
  8
0
  6
Continuous
 62
     7
100
AcDbLine
 10
178.4819387356
 20
225.9612963332
 30
0.0
 11
181.5275572697
 21
225.9612963332
 31
0.0
  0
LINE
  5
1D9
330
44
100
AcDbEntity
  8
0
  6
Continuous
 62
     7
100
AcDbLine
 10
303.5881020585
 20
228.4612958117
 30
0.0
 11
303.5881020585
 21
225.9612963332
 31
0.0
  0
LINE
  5
1DA
330
44
100
AcDbEntity
  8
0
  6
Continuous
 62
     7
100
AcDbLine
 10
303.5881020585
 20
225.9612963332
 30
0.0
 11
308.5881047407
 21
225.9612963332
 31
0.0
  0
LINE
  5
1DB
330
44
100
AcDbEntity
  8
0
  6
Continuous
 62
     7
100
AcDbLine
 10
303.5881020585
 20
228.4612958117
 30
0.0
 11
308.5881047407
 21
228.4612958117
 31
0.0
  0
LINE
  5
1DC
330
44
100
AcDbEntity
  8
0
  6
Continuous
 62
     7
100
AcDbLine
 10
189.9426229755
 20
228.4612958117
 30
0.0
 11
189.9426229755
 21
225.9612963332
 31
0.0
  0
LINE
  5
1DD
330
44
100
AcDbEntity
  8
0
  6
Continuous
 62
     7
100
AcDbLine
 10
184.9426202933
 20
225.9612963332
 30
0.0
 11
189.9426229755
 21
225.9612963332
 31
0.0
  0
LINE
  5
1DE
330
44
100
AcDbEntity
  8
0
  6
Continuous
 62
     7
100
AcDbLine
 10
184.9426202933
 20
228.4612958117
 30
0.0
 11
189.9426229755
 21
228.4612958117
 31
0.0
  0
LINE
  5
1DF
330
44
100
AcDbEntity
  8
0
  6
Continuous
 62
     7
100
AcDbLine
 10
315.2653635005
 20
225.9612963332
 30
0.0
 11
315.0487862984
 21
225.9612963332
 31
0.0
  0
LINE
  5
1E0
330
44
100
AcDbEntity
  8
0
  6
Continuous
 62
     7
100
AcDbLine
 10
178.4819387356
 20
225.9612963332
 30
0.0
 11
178.2653652588
 21
225.9612963332
 31
0.0
  0
LINE
  5
1E1
330
44
100
AcDbEntity
  8
0
  6
Continuous
 62
     7
100
AcDbLine
 10
303.2531686584
 20
225.9612963332
 30
0.0
 11
303.5881020585
 21
225.9612963332
 31
0.0
  0
LINE
  5
1E2
330
44
100
AcDbEntity
  8
0
  6
Continuous
 62
     7
100
AcDbLine
 10
303.2627761821
 20
228.4612958117
 30
0.0
 11
303.5881020585
 21
228.4612958117
 31
0.0
  0
LINE
  5
1E3
330
44
100
AcDbEntity
  8
0
  6
Continuous
 62
     7
100
AcDbLine
 10
189.9426229755
 20
225.9612963332
 30
0.0
 11
190.2775563756
 21
225.9612963332
 31
0.0
  0
LINE
  5
1E4
330
44
100
AcDbEntity
  8
0
  6
Continuous
 62
     7
100
AcDbLine
 10
189.9426229755
 20
228.4612958117
 30
0.0
 11
190.2679525772
 21
228.4612958117
 31
0.0
  0
LINE
  5
1E5
330
44
100
AcDbEntity
  8
0
  6
Continuous
 62
     7
100
AcDbLine
 10
291.9798963228
 20
228.4612958117
 30
0.0
 11
291.9798963228
 21
225.9612963332
 31
0.0
  0
LINE
  5
1E6
330
44
100
AcDbEntity
  8
0
  6
Continuous
 62
     7
100
AcDbLine
 10
201.5508324364
 20
225.9612963332
 30
0.0
 11
201.5508324364
 21
228.4612958117
 31
0.0
  0
LINE
  5
1E7
330
44
100
AcDbEntity
  8
0
  6
Continuous
 62
     7
100
AcDbLine
 10
285.3454914401
 20
228.4612958117
 30
0.0
 11
285.3454914401
 21
225.9612963332
 31
0.0
  0
LINE
  5
1E8
330
44
100
AcDbEntity
  8
0
  6
Continuous
 62
     7
100
AcDbLine
 10
288.7605544636
 20
228.4612958117
 30
0.0
 11
288.7605544636
 21
225.9612963332
 31
0.0
  0
LINE
  5
1E9
330
44
100
AcDbEntity
  8
0
  6
Continuous
 62
     7
100
AcDbLine
 10
285.3454914401
 20
228.4612958117
 30
0.0
 11
286.3895711014
 21
228.4612958117
 31
0.0
  0
LINE
  5
1EA
330
44
100
AcDbEntity
  8
0
  6
Continuous
 62
     7
100
AcDbLine
 10
285.3454914401
 20
225.9612963332
 30
0.0
 11
288.7605544636
 21
225.9612963332
 31
0.0
  0
LINE
  5
1EB
330
44
100
AcDbEntity
  8
0
  6
Continuous
 62
     7
100
AcDbLine
 10
204.770172433
 20
228.4612958117
 30
0.0
 11
204.770172433
 21
225.9612963332
 31
0.0
  0
LINE
  5
1EC
330
44
100
AcDbEntity
  8
0
  6
Continuous
 62
     7
100
AcDbLine
 10
208.1852354566
 20
228.4612958117
 30
0.0
 11
208.1852354566
 21
225.9612963332
 31
0.0
  0
LINE
  5
1ED
330
44
100
AcDbEntity
  8
0
  6
Continuous
 62
     7
100
AcDbLine
 10
204.770172433
 20
225.9612963332
 30
0.0
 11
208.1852354566
 21
225.9612963332
 31
0.0
  0
LINE
  5
1EE
330
44
100
AcDbEntity
  8
0
  6
Continuous
 62
     7
100
AcDbLine
 10
207.1411557952
 20
228.4612958117
 30
0.0
 11
208.1852354566
 21
228.4612958117
 31
0.0
  0
LINE
  5
1EF
330
44
100
AcDbEntity
  8
0
  6
Continuous
 62
     7
100
AcDbLine
 10
276.6852364401
 20
228.4612958117
 30
0.0
 11
276.6852364401
 21
225.9612963332
 31
0.0
  0
LINE
  5
1F0
330
44
100
AcDbEntity
  8
0
  6
Continuous
 62
     7
100
AcDbLine
 10
276.6852364401
 20
228.4612958117
 30
0.0
 11
285.3454914401
 21
228.4612958117
 31
0.0
  0
LINE
  5
1F1
330
44
100
AcDbEntity
  8
0
  6
Continuous
 62
     7
100
AcDbLine
 10
276.6852364401
 20
225.9612963332
 30
0.0
 11
285.3454914401
 21
225.9612963332
 31
0.0
  0
LINE
  5
1F2
330
44
100
AcDbEntity
  8
0
  6
Continuous
 62
     7
100
AcDbLine
 10
216.8454923192
 20
228.4612958117
 30
0.0
 11
216.8454923192
 21
225.9612963332
 31
0.0
  0
LINE
  5
1F3
330
44
100
AcDbEntity
  8
0
  6
Continuous
 62
     7
100
AcDbLine
 10
208.1852354566
 20
225.9612963332
 30
0.0
 11
216.8454923192
 21
225.9612963332
 31
0.0
  0
LINE
  5
1F4
330
44
100
AcDbEntity
  8
0
  6
Continuous
 62
     7
100
AcDbLine
 10
208.1852354566
 20
228.4612958117
 30
0.0
 11
216.8454923192
 21
228.4612958117
 31
0.0
  0
LINE
  5
1F5
330
44
100
AcDbEntity
  8
0
  6
Continuous
 62
     7
100
AcDbLine
 10
290.5189417759
 20
225.9612963332
 30
0.0
 11
290.5189417759
 21
228.4612958117
 31
0.0
  0
LINE
  5
1F6
330
44
100
AcDbEntity
  8
0
  6
Continuous
 62
     7
100
AcDbLine
 10
288.7605544636
 20
225.9612963332
 30
0.0
 11
290.5189417759
 21
225.9612963332
 31
0.0
  0
LINE
  5
1F7
330
44
100
AcDbEntity
  8
0
  6
Continuous
 62
     7
100
AcDbLine
 10
203.0117832581
 20
228.4612958117
 30
0.0
 11
203.0117832581
 21
225.9612963332
 31
0.0
  0
LINE
  5
1F8
330
44
100
AcDbEntity
  8
0
  6
Continuous
 62
     7
100
AcDbLine
 10
203.0117832581
 20
225.9612963332
 30
0.0
 11
204.770172433
 21
225.9612963332
 31
0.0
  0
LINE
  5
1F9
330
44
100
AcDbEntity
  8
0
  6
Continuous
 62
     7
100
AcDbLine
 10
291.9798963228
 20
225.9612963332
 30
0.0
 11
290.5189417759
 21
225.9612963332
 31
0.0
  0
LINE
  5
1FA
330
44
100
AcDbEntity
  8
0
  6
Continuous
 62
     7
100
AcDbLine
 10
203.0117832581
 20
225.9612963332
 30
0.0
 11
201.5508324364
 21
225.9612963332
 31
0.0
  0
LINE
  5
1FB
330
44
100
AcDbEntity
  8
0
  6
Continuous
 62
     7
100
AcDbLine
 10
275.8879898573
 20
228.4612958117
 30
0.0
 11
276.6852364401
 21
228.4612958117
 31
0.0
  0
LINE
  5
1FC
330
44
100
AcDbEntity
  8
0
  6
Continuous
 62
     7
100
AcDbLine
 10
275.4352367008
 20
225.9612963332
 30
0.0
 11
276.6852364401
 21
225.9612963332
 31
0.0
  0
LINE
  5
1FD
330
44
100
AcDbEntity
  8
0
  6
Continuous
 62
     7
100
AcDbLine
 10
216.8454923192
 20
225.9612963332
 30
0.0
 11
218.0954911271
 21
225.9612963332
 31
0.0
  0
LINE
  5
1FE
330
44
100
AcDbEntity
  8
0
  6
Continuous
 62
     7
100
AcDbLine
 10
216.8454923192
 20
228.4612958117
 30
0.0
 11
217.6427379707
 21
228.4612958117
 31
0.0
  0
LINE
  5
1FF
330
44
100
AcDbEntity
  8
0
  6
Continuous
 62
     7
100
AcDbLine
 10
255.37869702
 20
228.4612958117
 30
0.0
 11
255.37869702
 21
225.9612963332
 31
0.0
  0
LINE
  5
200
330
44
100
AcDbEntity
  8
0
  6
Continuous
 62
     7
100
AcDbLine
 10
238.1520312736
 20
225.9612963332
 30
0.0
 11
238.1520312736
 21
228.4612958117
 31
0.0
  0
LINE
  5
201
330
44
100
AcDbEntity
  8
0
  6
Continuous
 62
     7
100
AcDbLine
 10
241.7653635601
 20
228.4612958117
 30
0.0
 11
241.7653635601
 21
225.9612963332
 31
0.0
  0
LINE
  5
202
330
44
100
AcDbEntity
  8
0
  6
Continuous
 62
     7
100
AcDbLine
 10
251.7653633366
 20
228.4612958117
 30
0.0
 11
251.7653633366
 21
225.9612963332
 31
0.0
  0
LINE
  5
203
330
44
100
AcDbEntity
  8
0
  6
Continuous
 62
     7
100
AcDbLine
 10
241.7653635601
 20
225.9612963332
 30
0.0
 11
251.7653633366
 21
225.9612963332
 31
0.0
  0
LINE
  5
204
330
44
100
AcDbEntity
  8
0
  6
Continuous
 62
     7
100
AcDbLine
 10
241.7653635601
 20
228.4612958117
 30
0.0
 11
251.7653633366
 21
228.4612958117
 31
0.0
  0
LINE
  5
205
330
44
100
AcDbEntity
  8
0
  6
Continuous
 62
     7
100
AcDbLine
 10
254.2653637463
 20
228.4612958117
 30
0.0
 11
254.2653637463
 21
225.9612963332
 31
0.0
  0
LINE
  5
206
330
44
100
AcDbEntity
  8
0
  6
Continuous
 62
     7
100
AcDbLine
 10
251.7653633366
 20
225.9612963332
 30
0.0
 11
254.2653637463
 21
225.9612963332
 31
0.0
  0
LINE
  5
207
330
44
100
AcDbEntity
  8
0
  6
Continuous
 62
     7
100
AcDbLine
 10
251.7653633366
 20
228.4612958117
 30
0.0
 11
252.8209094415
 21
228.4612958117
 31
0.0
  0
LINE
  5
208
330
44
100
AcDbEntity
  8
0
  6
Continuous
 62
     7
100
AcDbLine
 10
239.2653640816
 20
228.4612958117
 30
0.0
 11
239.2653640816
 21
225.9612963332
 31
0.0
  0
LINE
  5
209
330
44
100
AcDbEntity
  8
0
  6
Continuous
 62
     7
100
AcDbLine
 10
239.2653640816
 20
225.9612963332
 30
0.0
 11
241.7653635601
 21
225.9612963332
 31
0.0
  0
LINE
  5
20A
330
44
100
AcDbEntity
  8
0
  6
Continuous
 62
     7
100
AcDbLine
 10
240.7098174552
 20
228.4612958117
 30
0.0
 11
241.7653635601
 21
228.4612958117
 31
0.0
  0
LINE
  5
20B
330
44
100
AcDbEntity
  8
0
  6
Continuous
 62
     7
100
AcDbLine
 10
255.37869702
 20
225.9612963332
 30
0.0
 11
254.2653637463
 21
225.9612963332
 31
0.0
  0
LINE
  5
20C
330
44
100
AcDbEntity
  8
0
  6
Continuous
 62
     7
100
AcDbLine
 10
239.2653640816
 20
225.9612963332
 30
0.0
 11
238.1520312736
 21
225.9612963332
 31
0.0
  0
LINE
  5
20D
330
44
100
AcDbEntity
  8
0
  6
Continuous
 62
     7
100
AcDbLine
 10
135.7653610865
 20
224.4617291524
 30
0.0
 11
135.7653610865
 21
222.8617300077
 31
0.0
  0
LINE
  5
20E
330
44
100
AcDbEntity
  8
0
  6
Continuous
 62
     7
100
AcDbLine
 10
117.7653618614
 20
222.8617300077
 30
0.0
 11
117.7653618614
 21
224.4617291524
 31
0.0
  0
LINE
  5
20F
330
44
100
AcDbEntity
  8
0
  6
Continuous
 62
     7
100
AcDbLine
 10
129.9653597633
 20
222.8617300077
 30
0.0
 11
129.9653597633
 21
224.4617291524
 31
0.0
  0
LINE
  5
210
330
44
100
AcDbEntity
  8
0
  6
Continuous
 62
     7
100
AcDbLine
 10
123.5653706352
 20
224.4617291524
 30
0.0
 11
123.5653706352
 21
222.8617300077
 31
0.0
  0
LINE
  5
211
330
44
100
AcDbEntity
  8
0
  6
Continuous
 62
     7
100
AcDbLine
 10
129.9653597633
 20
224.4617291524
 30
0.0
 11
129.7653563777
 21
224.4617291524
 31
0.0
  0
LINE
  5
212
330
44
100
AcDbEntity
  8
0
  6
Continuous
 62
     7
100
AcDbLine
 10
123.7653591195
 20
224.4617291524
 30
0.0
 11
123.5653706352
 21
224.4617291524
 31
0.0
  0
LINE
  5
213
330
44
100
AcDbEntity
  8
0
  6
Continuous
 62
     7
100
AcDbLine
 10
129.9653597633
 20
224.4617291524
 30
0.0
 11
135.7653610865
 21
224.4617291524
 31
0.0
  0
LINE
  5
214
330
44
100
AcDbEntity
  8
0
  6
Continuous
 62
     7
100
AcDbLine
 10
135.7653610865
 20
222.8617300077
 30
0.0
 11
129.9653597633
 21
222.8617300077
 31
0.0
  0
LINE
  5
215
330
44
100
AcDbEntity
  8
0
  6
Continuous
 62
     7
100
AcDbLine
 10
117.7653618614
 20
224.4617291524
 30
0.0
 11
123.5653706352
 21
224.4617291524
 31
0.0
  0
LINE
  5
216
330
44
100
AcDbEntity
  8
0
  6
Continuous
 62
     7
100
AcDbLine
 10
123.5653706352
 20
222.8617300077
 30
0.0
 11
117.7653618614
 21
222.8617300077
 31
0.0
  0
LINE
  5
217
330
44
100
AcDbEntity
  8
0
  6
Continuous
 62
     7
100
AcDbLine
 10
130.0153680602
 20
222.8617300077
 30
0.0
 11
132.7653624574
 21
222.8617300077
 31
0.0
  0
LINE
  5
218
330
44
100
AcDbEntity
  8
0
  6
Continuous
 62
     7
100
AcDbLine
 10
132.7653624574
 20
220.5364466442
 30
0.0
 11
132.7653624574
 21
222.8617300077
 31
0.0
  0
LINE
  5
219
330
44
100
AcDbEntity
  8
0
  6
Continuous
 62
     7
100
AcDbLine
 10
129.8983790437
 20
218.7651940419
 30
0.0
 11
128.4081139127
 21
221.7217297091
 31
0.0
  0
LINE
  5
21A
330
44
100
AcDbEntity
  8
0
  6
Continuous
 62
     7
100
AcDbLine
 10
128.0458666841
 20
221.7217297091
 30
0.0
 11
128.4081139127
 21
221.7217297091
 31
0.0
  0
LINE
  5
21B
330
44
100
AcDbEntity
  8
0
  6
Continuous
 62
     7
100
AcDbLine
 10
126.7653651992
 20
222.1377906187
 30
0.0
 11
128.0458666841
 21
221.7217297091
 31
0.0
  0
LINE
  5
21C
330
44
100
AcDbEntity
  8
0
  6
Continuous
 62
     7
100
AcDbLine
 10
125.4848637143
 20
221.7217297091
 30
0.0
 11
126.7653651992
 21
222.1377906187
 31
0.0
  0
LINE
  5
21D
330
44
100
AcDbEntity
  8
0
  6
Continuous
 62
     7
100
AcDbLine
 10
125.1226164857
 20
221.7217297091
 30
0.0
 11
125.4848637143
 21
221.7217297091
 31
0.0
  0
LINE
  5
21E
330
44
100
AcDbEntity
  8
0
  6
Continuous
 62
     7
100
AcDbLine
 10
125.1226164857
 20
221.7217297091
 30
0.0
 11
123.6323513547
 21
218.7651940419
 31
0.0
  0
LINE
  5
21F
330
44
100
AcDbEntity
  8
0
  6
Continuous
 62
     7
100
AcDbLine
 10
120.765367941
 20
222.8617300077
 30
0.0
 11
120.765367941
 21
220.5364466442
 31
0.0
  0
LINE
  5
220
330
44
100
AcDbEntity
  8
0
  6
Continuous
 62
     7
100
AcDbLine
 10
120.765367941
 20
222.8617300077
 30
0.0
 11
123.5153623382
 21
222.8617300077
 31
0.0
  0
LINE
  5
221
330
44
100
AcDbEntity
  8
0
  6
Continuous
 62
     7
100
AcDbLine
 10
123.7653591195
 20
238.8617298363
 30
0.0
 11
123.7653591195
 21
223.1117305143
 31
0.0
  0
LINE
  5
222
330
44
100
AcDbEntity
  8
0
  6
Continuous
 62
     7
100
AcDbLine
 10
129.7653563777
 20
238.8617298363
 30
0.0
 11
123.7653591195
 21
238.8617298363
 31
0.0
  0
LINE
  5
223
330
44
100
AcDbEntity
  8
0
  6
Continuous
 62
     7
100
AcDbLine
 10
129.7653563777
 20
223.1117305143
 30
0.0
 11
129.7653563777
 21
238.8617298363
 31
0.0
  0
LINE
  5
224
330
44
100
AcDbEntity
  8
0
  6
Continuous
 62
     7
100
AcDbLine
 10
125.546629027458
 20
218.377063496298
 30
0.0
 11
126.2596942941
 21
218.3770634963
 31
0.0
  0
LINE
  5
225
330
44
100
AcDbEntity
  8
0
  6
Continuous
 62
     7
100
AcDbLine
 10
127.6642777482
 20
218.3770634963
 30
0.0
 11
128.1928219358
 21
218.3770634963
 31
0.0
  0
LINE
  5
226
330
44
100
AcDbEntity
  8
0
  6
Continuous
 62
     7
100
AcDbLine
 10
127.9237963716
 20
221.7217297091
 30
0.0
 11
128.0458666841
 21
221.7217297091
 31
0.0
  0
LINE
  5
227
330
44
100
AcDbEntity
  8
0
  6
Continuous
 62
     7
100
AcDbLine
 10
127.6242979327
 20
221.7217297091
 30
0.0
 11
127.9237963716
 21
221.7217297091
 31
0.0
  0
LINE
  5
228
330
44
100
AcDbEntity
  8
0
  6
Continuous
 62
     7
100
AcDbLine
 10
126.2197144786
 20
221.7217297091
 30
0.0
 11
127.6242979327
 21
221.7217297091
 31
0.0
  0
LINE
  5
229
330
44
100
AcDbEntity
  8
0
  6
Continuous
 62
     7
100
AcDbLine
 10
125.8156694928
 20
221.7217297091
 30
0.0
 11
126.2197144786
 21
221.7217297091
 31
0.0
  0
LINE
  5
22A
330
44
100
AcDbEntity
  8
0
  6
Continuous
 62
     7
100
AcDbLine
 10
125.4848637143
 20
221.7217297091
 30
0.0
 11
125.8156694928
 21
221.7217297091
 31
0.0
  0
LINE
  5
22B
330
44
100
AcDbEntity
  8
0
  6
Continuous
 62
     7
100
AcDbLine
 10
123.810941771673
 20
218.77842627306
 30
0.0
 11
125.2624787847
 21
221.7217297091
 31
0.0
  0
LINE
  5
22C
330
44
100
AcDbEntity
  8
0
  6
Continuous
 62
     7
100
AcDbLine
 10
126.517633394356
 20
218.778426273046
 30
0.0
 11
126.3019241849
 21
221.7217297091
 31
0.0
  0
LINE
  5
22D
330
44
100
AcDbEntity
  8
0
  6
Continuous
 62
     7
100
AcDbLine
 10
293.3180951039
 20
112.4617350085
 30
0.0
 11
323.2550867358
 21
111.1546498521
 31
0.0
  0
LINE
  5
22E
330
44
100
AcDbEntity
  8
0
  6
Continuous
 62
     7
100
AcDbLine
 10
293.3180951039
 20
112.4617350085
 30
0.0
 11
304.0280960957
 21
112.4617350085
 31
0.0
  0
LINE
  5
22F
330
44
100
AcDbEntity
  8
0
  6
Continuous
 62
     7
100
AcDbLine
 10
356.765361921
 20
185.7639667375
 30
0.0
 11
341.7653613249
 21
186.4188802226
 31
0.0
  0
LINE
  5
230
330
44
100
AcDbEntity
  8
0
  6
Continuous
 62
     7
100
AcDbLine
 10
356.765361921
 20
185.7639667375
 30
0.0
 11
356.5824352661
 21
185.2386076732
 31
0.0
  0
LINE
  5
231
330
44
100
AcDbEntity
  8
0
  6
Continuous
 62
     7
100
AcDbLine
 10
323.2550867358
 20
111.1546498521
 30
0.0
 11
317.7601010064
 21
104.6059769376
 31
0.0
  0
LINE
  5
232
330
44
100
AcDbEntity
  8
0
  6
Continuous
 62
     7
100
AcDbLine
 10
175.7706277529
 20
104.6059769376
 30
0.0
 11
141.4444767395
 21
145.5142912252
 31
0.0
  0
LINE
  5
233
330
44
100
AcDbEntity
  8
0
  6
Continuous
 62
     7
100
AcDbLine
 10
341.7653613249
 20
186.4188802226
 30
0.0
 11
341.7653613249
 21
242.4617300073
 31
0.0
  0
LINE
  5
234
330
44
100
AcDbEntity
  8
0
  6
Continuous
 62
     7
100
AcDbLine
 10
333.8343002359
 20
186.2318147703
 30
0.0
 11
333.8343002359
 21
224.1616775079
 31
0.0
  0
LINE
  5
235
330
44
100
AcDbEntity
  8
0
  6
Continuous
 62
     7
100
AcDbLine
 10
151.7653637091
 20
242.4617300073
 30
0.0
 11
151.7653637091
 21
185.4617302103
 31
0.0
  0
LINE
  5
236
330
44
100
AcDbEntity
  8
0
  6
Continuous
 62
     7
100
AcDbLine
 10
136.765363113
 20
158.3700445278
 30
0.0
 11
136.765363113
 21
224.4617291524
 31
0.0
  0
LINE
  5
237
330
44
100
AcDbEntity
  8
0
  6
Continuous
 62
     7
100
AcDbLine
 10
356.765361921
 20
242.4617300073
 30
0.0
 11
356.765361921
 21
185.7639667375
 31
0.0
  0
LINE
  5
238
330
44
100
AcDbEntity
  8
0
  6
Continuous
 62
     7
100
AcDbLine
 10
322.7982506613
 20
186.7136587186
 30
0.0
 11
322.7982506613
 21
207.6565329714
 31
0.0
  0
LINE
  5
239
330
44
100
AcDbEntity
  8
0
  6
Continuous
 62
     7
100
AcDbLine
 10
161.7653616229
 20
144.6326565726
 30
0.0
 11
197.8339575688
 21
144.6326565726
 31
0.0
  0
LINE
  5
23A
330
44
100
AcDbEntity
  8
0
  6
Continuous
 62
     7
100
AcDbLine
 10
161.7653616229
 20
187.587295173
 30
0.0
 11
161.7653616229
 21
144.6326565726
 31
0.0
  0
LINE
  5
23B
330
44
100
AcDbEntity
  8
0
  6
Continuous
 62
     7
100
AcDbLine
 10
161.7653616229
 20
144.6326565726
 30
0.0
 11
188.7599774162
 21
112.4617350085
 31
0.0
  0
LINE
  5
23C
330
44
100
AcDbEntity
  8
0
  6
Continuous
 62
     7
100
AcDbLine
 10
120.2653594772
 20
242.4617300073
 30
0.0
 11
120.2653594772
 21
224.4617291524
 31
0.0
  0
LINE
  5
23D
330
44
100
AcDbEntity
  8
0
  6
Continuous
 62
     7
100
AcDbLine
 10
133.2653709213
 20
224.4617291524
 30
0.0
 11
133.2653709213
 21
242.4617300073
 31
0.0
  0
LINE
  5
23E
330
44
100
AcDbEntity
  8
0
  6
Continuous
 62
     7
100
AcDbLine
 10
120.2653594772
 20
224.4617291524
 30
0.0
 11
108.7707825462
 21
224.4617291524
 31
0.0
  0
LINE
  5
23F
330
44
100
AcDbEntity
  8
0
  6
Continuous
 62
     7
100
AcDbLine
 10
108.7707825462
 20
242.4617300073
 30
0.0
 11
120.2653594772
 21
242.4617300073
 31
0.0
  0
LINE
  5
240
330
44
100
AcDbEntity
  8
0
  6
Continuous
 62
     7
100
AcDbLine
 10
108.7707825462
 20
242.4617300073
 30
0.0
 11
108.7707825462
 21
224.4617291524
 31
0.0
  0
LINE
  5
241
330
44
100
AcDbEntity
  8
0
  6
Continuous
 62
     7
100
AcDbLine
 10
136.765363113
 20
224.4617291524
 30
0.0
 11
133.2653709213
 21
224.4617291524
 31
0.0
  0
LINE
  5
242
330
44
100
AcDbEntity
  8
0
  6
Continuous
 62
     7
100
AcDbLine
 10
302.4392113546
 20
97.4617344125
 30
0.0
 11
191.0915174047
 21
97.4617344125
 31
0.0
  0
LINE
  5
243
330
44
100
AcDbEntity
  8
0
  6
Continuous
 62
     7
100
AcDbLine
 10
188.7599774162
 20
112.4617350085
 30
0.0
 11
293.3180951039
 21
112.4617350085
 31
0.0
  0
LINE
  5
244
330
44
100
AcDbEntity
  8
0
  6
Continuous
 62
     7
100
AcDbLine
 10
133.2653709213
 20
242.4617300073
 30
0.0
 11
151.7653637091
 21
242.4617300073
 31
0.0
  0
LINE
  5
245
330
44
100
AcDbEntity
  8
0
  6
Continuous
 62
     7
100
AcDbLine
 10
161.7653616229
 20
187.587295173
 30
0.0
 11
151.7653637091
 21
185.4617302103
 31
0.0
  0
LINE
  5
246
330
44
100
AcDbEntity
  8
0
  6
Continuous
 62
     7
100
AcDbLine
 10
341.7653613249
 20
242.4617300073
 30
0.0
 11
356.765361921
 21
242.4617300073
 31
0.0
  0
LINE
  5
247
330
44
100
AcDbEntity
  8
0
  6
Continuous
 62
     7
100
AcDbLine
 10
333.8343002359
 20
224.1616775079
 30
0.0
 11
327.2653617421
 21
222.7654070391
 31
0.0
  0
LINE
  5
248
330
44
100
AcDbEntity
  8
0
  6
Continuous
 62
     7
100
AcDbLine
 10
255.2653639103
 20
315.9612980469
 30
0.0
 11
260.5153637449
 21
315.9612980469
 31
0.0
  0
LINE
  5
249
330
44
100
AcDbEntity
  8
0
  6
Continuous
 62
     7
100
AcDbLine
 10
233.0153644542
 20
315.9612980469
 30
0.0
 11
238.2653639177
 21
315.9612980469
 31
0.0
  0
LINE
  5
24A
330
44
100
AcDbEntity
  8
0
  6
Continuous
 62
     7
100
AcDbLine
 10
228.0153654972
 20
315.9612980469
 30
0.0
 11
233.0153644542
 21
315.9612980469
 31
0.0
  0
LINE
  5
24B
330
44
100
AcDbEntity
  8
0
  6
Continuous
 62
     7
100
AcDbLine
 10
260.5153637449
 20
315.9612980469
 30
0.0
 11
265.5153637277
 21
315.9612980469
 31
0.0
  0
LINE
  5
24C
330
44
100
AcDbEntity
  8
0
  6
Continuous
 62
     7
100
AcDbLine
 10
276.0153640518
 20
315.9612980469
 30
0.0
 11
276.5153632025
 21
315.9612980469
 31
0.0
  0
LINE
  5
24D
330
44
100
AcDbEntity
  8
0
  6
Continuous
 62
     7
100
AcDbLine
 10
217.0153655568
 20
315.9612980469
 30
0.0
 11
217.5153628448
 21
315.9612980469
 31
0.0
  0
LINE
  5
24E
330
44
100
AcDbEntity
  8
0
  6
Continuous
 62
     7
100
AcDbLine
 10
212.0153628746
 20
315.9612980469
 30
0.0
 11
217.0153655568
 21
315.9612980469
 31
0.0
  0
LINE
  5
24F
330
44
100
AcDbEntity
  8
0
  6
Continuous
 62
     7
100
AcDbLine
 10
276.5153632025
 20
315.9612980469
 30
0.0
 11
281.515364022
 21
315.9612980469
 31
0.0
  0
LINE
  5
250
330
44
100
AcDbEntity
  8
0
  6
Continuous
 62
     7
100
AcDbLine
 10
292.0153648118
 20
315.9612980469
 30
0.0
 11
292.5153620998
 21
315.9612980469
 31
0.0
  0
LINE
  5
251
330
44
100
AcDbEntity
  8
0
  6
Continuous
 62
     7
100
AcDbLine
 10
201.0153629342
 20
315.9612980469
 30
0.0
 11
201.5153639475
 21
315.9612980469
 31
0.0
  0
LINE
  5
252
330
44
100
AcDbEntity
  8
0
  6
Continuous
 62
     7
100
AcDbLine
 10
180.7653628746
 20
315.9612980469
 30
0.0
 11
185.5153613249
 21
315.9612980469
 31
0.0
  0
LINE
  5
253
330
44
100
AcDbEntity
  8
0
  6
Continuous
 62
     7
100
AcDbLine
 10
196.015360252
 20
315.9612980469
 30
0.0
 11
201.0153629342
 21
315.9612980469
 31
0.0
  0
LINE
  5
254
330
44
100
AcDbEntity
  8
0
  6
Continuous
 62
     7
100
AcDbLine
 10
292.5153620998
 20
315.9612980469
 30
0.0
 11
297.515364782
 21
315.9612980469
 31
0.0
  0
LINE
  5
255
330
44
100
AcDbEntity
  8
0
  6
Continuous
 62
     7
100
AcDbLine
 10
308.0153637091
 20
315.9612980469
 30
0.0
 11
312.7653621594
 21
315.9612980469
 31
0.0
  0
LINE
  5
256
330
44
100
AcDbEntity
  8
0
  6
Continuous
 62
     7
100
AcDbLine
 10
320.2242352525
 20
244.9612963044
 30
0.0
 11
318.7653631429
 21
244.9612963044
 31
0.0
  0
LINE
  5
257
330
44
100
AcDbEntity
  8
0
  6
Continuous
 62
     7
100
AcDbLine
 10
174.7653656164
 20
244.9612963044
 30
0.0
 11
173.3064897815
 21
244.9612963044
 31
0.0
  0
LINE
  5
258
330
44
100
AcDbEntity
  8
0
  6
CENTERX2
 62
     7
100
AcDbLine
 10
276.5935791911
 20
151.1952726344
 30
0.0
 11
412.2449991118
 21
145.2726037338
 31
0.0
  0
LINE
  5
259
330
44
100
AcDbEntity
  8
0
  6
CENTERX2
 62
     7
100
AcDbLine
 10
246.7653637462
 20
95.9502665186
 30
0.0
 11
246.7653637462
 21
326.4837300786
 31
0.0
  0
LINE
  5
25A
330
44
100
AcDbEntity
  8
0
  6
Continuous
 62
     7
100
AcDbLine
 10
408.763850526
 20
111.3922041638
 30
0.0
 11
408.7719716588
 21
111.5782749637
 31
0.0
  0
LINE
  5
25B
330
44
100
AcDbEntity
  8
0
  6
Continuous
 62
     7
100
AcDbLine
 10
408.7719716588
 20
111.5782749637
 30
0.0
 11
408.7962456504
 21
112.1344757064
 31
0.0
  0
LINE
  5
25C
330
44
100
AcDbEntity
  8
0
  6
Continuous
 62
     7
100
AcDbLine
 10
408.7962456504
 20
112.1344757064
 30
0.0
 11
408.8364340822
 21
113.0546969159
 31
0.0
  0
LINE
  5
25D
330
44
100
AcDbEntity
  8
0
  6
Continuous
 62
     7
100
AcDbLine
 10
408.8364340822
 20
113.0546969159
 30
0.0
 11
408.8920601169
 21
114.3288654073
 31
0.0
  0
LINE
  5
25E
330
44
100
AcDbEntity
  8
0
  6
Continuous
 62
     7
100
AcDbLine
 10
408.8920601169
 20
114.3288654073
 30
0.0
 11
408.9625426093
 21
115.9430038913
 31
0.0
  0
LINE
  5
25F
330
44
100
AcDbEntity
  8
0
  6
Continuous
 62
     7
100
AcDbLine
 10
408.9625426093
 20
115.9430038913
 30
0.0
 11
409.0470768968
 21
117.8794395907
 31
0.0
  0
LINE
  5
260
330
44
100
AcDbEntity
  8
0
  6
Continuous
 62
     7
100
AcDbLine
 10
409.0470768968
 20
117.8794395907
 30
0.0
 11
409.1447689096
 21
120.1169681533
 31
0.0
  0
LINE
  5
261
330
44
100
AcDbEntity
  8
0
  6
Continuous
 62
     7
100
AcDbLine
 10
409.1447689096
 20
120.1169681533
 30
0.0
 11
409.2545457641
 21
122.631054817
 31
0.0
  0
LINE
  5
262
330
44
100
AcDbEntity
  8
0
  6
Continuous
 62
     7
100
AcDbLine
 10
409.2545457641
 20
122.631054817
 30
0.0
 11
409.3751855651
 21
125.394162236
 31
0.0
  0
LINE
  5
263
330
44
100
AcDbEntity
  8
0
  6
Continuous
 62
     7
100
AcDbLine
 10
409.3751855651
 20
125.394162236
 30
0.0
 11
409.5053770105
 21
128.3760261519
 31
0.0
  0
LINE
  5
264
330
44
100
AcDbEntity
  8
0
  6
Continuous
 62
     7
100
AcDbLine
 10
409.5053770105
 20
128.3760261519
 30
0.0
 11
409.6436895887
 21
131.5439608677
 31
0.0
  0
LINE
  5
265
330
44
100
AcDbEntity
  8
0
  6
Continuous
 62
     7
100
AcDbLine
 10
409.6436895887
 20
131.5439608677
 30
0.0
 11
409.7886182824
 21
134.8632615788
 31
0.0
  0
LINE
  5
266
330
44
100
AcDbEntity
  8
0
  6
Continuous
 62
     7
100
AcDbLine
 10
409.7886182824
 20
134.8632615788
 30
0.0
 11
409.9385537664
 21
138.2975694521
 31
0.0
  0
LINE
  5
267
330
44
100
AcDbEntity
  8
0
  6
Continuous
 62
     7
100
AcDbLine
 10
409.9385537664
 20
138.2975694521
 30
0.0
 11
410.0918867151
 21
141.8092590554
 31
0.0
  0
LINE
  5
268
330
44
100
AcDbEntity
  8
0
  6
Continuous
 62
     7
100
AcDbLine
 10
410.0918867151
 20
141.8092590554
 30
0.0
 11
410.246903495
 21
145.3598406895
 31
0.0
  0
LINE
  5
269
330
44
100
AcDbEntity
  8
0
  6
Continuous
 62
     7
100
AcDbLine
 10
410.246903495
 20
145.3598406895
 30
0.0
 11
410.4019202749
 21
148.9104297741
 31
0.0
  0
LINE
  5
26A
330
44
100
AcDbEntity
  8
0
  6
Continuous
 62
     7
100
AcDbLine
 10
410.4019202749
 20
148.9104297741
 30
0.0
 11
410.5552532235
 21
152.4221119268
 31
0.0
  0
LINE
  5
26B
330
44
100
AcDbEntity
  8
0
  6
Continuous
 62
     7
100
AcDbLine
 10
410.5552532235
 20
152.4221119268
 30
0.0
 11
410.7051887075
 21
155.8564198001
 31
0.0
  0
LINE
  5
26C
330
44
100
AcDbEntity
  8
0
  6
Continuous
 62
     7
100
AcDbLine
 10
410.7051887075
 20
155.8564198001
 30
0.0
 11
410.8501174012
 21
159.1757279618
 31
0.0
  0
LINE
  5
26D
330
44
100
AcDbEntity
  8
0
  6
Continuous
 62
     7
100
AcDbLine
 10
410.8501174012
 20
159.1757279618
 30
0.0
 11
410.9884299794
 21
162.3436626776
 31
0.0
  0
LINE
  5
26E
330
44
100
AcDbEntity
  8
0
  6
Continuous
 62
     7
100
AcDbLine
 10
410.9884299794
 20
162.3436626776
 30
0.0
 11
411.1186214248
 21
165.3255191429
 31
0.0
  0
LINE
  5
26F
330
44
100
AcDbEntity
  8
0
  6
Continuous
 62
     7
100
AcDbLine
 10
411.1186214248
 20
165.3255191429
 30
0.0
 11
411.2392612258
 21
168.0886265619
 31
0.0
  0
LINE
  5
270
330
44
100
AcDbEntity
  8
0
  6
Continuous
 62
     7
100
AcDbLine
 10
411.2392612258
 20
168.0886265619
 30
0.0
 11
411.3490231792
 21
170.6027206762
 31
0.0
  0
LINE
  5
271
330
44
100
AcDbEntity
  8
0
  6
Continuous
 62
     7
100
AcDbLine
 10
411.3490231792
 20
170.6027206762
 30
0.0
 11
411.4467300931
 21
172.8402417882
 31
0.0
  0
LINE
  5
272
330
44
100
AcDbEntity
  8
0
  6
Continuous
 62
     7
100
AcDbLine
 10
411.4467300931
 20
172.8402417882
 30
0.0
 11
411.5312643806
 21
174.7766849382
 31
0.0
  0
LINE
  5
273
330
44
100
AcDbEntity
  8
0
  6
Continuous
 62
     7
100
AcDbLine
 10
411.5312643806
 20
174.7766849382
 30
0.0
 11
411.601746873
 21
176.3908234222
 31
0.0
  0
LINE
  5
274
330
44
100
AcDbEntity
  8
0
  6
Continuous
 62
     7
100
AcDbLine
 10
411.601746873
 20
176.3908234222
 30
0.0
 11
411.6573729078
 21
177.664984463
 31
0.0
  0
LINE
  5
275
330
44
100
AcDbEntity
  8
0
  6
Continuous
 62
     7
100
AcDbLine
 10
411.6573729078
 20
177.664984463
 30
0.0
 11
411.6975464383
 21
178.5852056725
 31
0.0
  0
LINE
  5
276
330
44
100
AcDbEntity
  8
0
  6
Continuous
 62
     7
100
AcDbLine
 10
411.6975464383
 20
178.5852056725
 30
0.0
 11
411.7218353311
 21
179.1414064153
 31
0.0
  0
LINE
  5
277
330
44
100
AcDbEntity
  8
0
  6
Continuous
 62
     7
100
AcDbLine
 10
411.7218353311
 20
179.1414064153
 30
0.0
 11
411.7299564639
 21
179.3274846657
 31
0.0
  0
LINE
  5
278
330
44
100
AcDbEntity
  8
0
  6
Continuous
 62
     7
100
AcDbLine
 10
161.7653616229
 20
187.587295173
 30
0.0
 11
161.9381107847
 21
187.6240153594
 31
0.0
  0
LINE
  5
279
330
44
100
AcDbEntity
  8
0
  6
Continuous
 62
     7
100
AcDbLine
 10
161.9381107847
 20
187.6240153594
 30
0.0
 11
162.4556355635
 21
187.7340194567
 31
0.0
  0
LINE
  5
27A
330
44
100
AcDbEntity
  8
0
  6
Continuous
 62
     7
100
AcDbLine
 10
162.4556355635
 20
187.7340194567
 30
0.0
 11
163.3158497969
 21
187.9168604298
 31
0.0
  0
LINE
  5
27B
330
44
100
AcDbEntity
  8
0
  6
Continuous
 62
     7
100
AcDbLine
 10
163.3158497969
 20
187.9168604298
 30
0.0
 11
164.5152442614
 21
188.1718006714
 31
0.0
  0
LINE
  5
27C
330
44
100
AcDbEntity
  8
0
  6
Continuous
 62
     7
100
AcDbLine
 10
164.5152442614
 20
188.1718006714
 30
0.0
 11
166.0489537278
 21
188.4978008254
 31
0.0
  0
LINE
  5
27D
330
44
100
AcDbEntity
  8
0
  6
Continuous
 62
     7
100
AcDbLine
 10
166.0489537278
 20
188.4978008254
 30
0.0
 11
167.9107420603
 21
188.8935346885
 31
0.0
  0
LINE
  5
27E
330
44
100
AcDbEntity
  8
0
  6
Continuous
 62
     7
100
AcDbLine
 10
167.9107420603
 20
188.8935346885
 30
0.0
 11
170.0930320183
 21
189.3573966606
 31
0.0
  0
LINE
  5
27F
330
44
100
AcDbEntity
  8
0
  6
Continuous
 62
     7
100
AcDbLine
 10
170.0930320183
 20
189.3573966606
 30
0.0
 11
172.5869648615
 21
189.8874980195
 31
0.0
  0
LINE
  5
280
330
44
100
AcDbEntity
  8
0
  6
Continuous
 62
     7
100
AcDbLine
 10
172.5869648615
 20
189.8874980195
 30
0.0
 11
175.3824003497
 21
190.4816855474
 31
0.0
  0
LINE
  5
281
330
44
100
AcDbEntity
  8
0
  6
Continuous
 62
     7
100
AcDbLine
 10
175.3824003497
 20
190.4816855474
 30
0.0
 11
178.4679763476
 21
191.1375452562
 31
0.0
  0
LINE
  5
282
330
44
100
AcDbEntity
  8
0
  6
Continuous
 62
     7
100
AcDbLine
 10
178.4679763476
 20
191.1375452562
 30
0.0
 11
179.7654055516
 21
191.4133247717
 31
0.0
  0
LWPOLYLINE
  5
283
330
44
100
AcDbEntity
  8
0
  6
Continuous
 62
     7
100
AcDbPolyline
 90
        2
 70
     0
 43
0.15
 10
568.7653668681
 20
233.8210302202
 10
356.765361921
 20
233.8210302202
  0
LWPOLYLINE
  5
284
330
44
100
AcDbEntity
  8
0
  6
Continuous
 62
     7
100
AcDbPolyline
 90
        2
 70
     0
 43
0.15
 10
356.765361921
 20
225.8210298403
 10
568.7653668681
 20
225.8210298403
  0
LWPOLYLINE
  5
285
330
44
100
AcDbEntity
  8
0
  6
Continuous
 62
     7
100
AcDbPolyline
 90
        2
 70
     0
 43
0.15
 10
568.7653668681
 20
233.8210302202
 10
568.7653668681
 20
225.8210298403
  0
ARC
  5
286
330
44
100
AcDbEntity
  8
0
  6
Continuous
 62
     7
100
AcDbCircle
 10
261.5153637462
 20
315.9612962687
 30
0.0
 40
1.0
100
AcDbArc
 50
90.0
 51
180.0
  0
ARC
  5
287
330
44
100
AcDbEntity
  8
0
  6
Continuous
 62
     7
100
AcDbCircle
 10
232.0153637462
 20
315.9612962687
 30
0.0
 40
1.0
100
AcDbArc
 50
0.0
 51
90.0
  0
ARC
  5
288
330
44
100
AcDbEntity
  8
0
  6
Continuous
 62
     7
100
AcDbCircle
 10
277.5153637462
 20
315.9612962687
 30
0.0
 40
1.0
100
AcDbArc
 50
90.0
 51
180.0
  0
ARC
  5
289
330
44
100
AcDbEntity
  8
0
  6
Continuous
 62
     7
100
AcDbCircle
 10
216.0153637462
 20
315.9612962687
 30
0.0
 40
1.0
100
AcDbArc
 50
0.0
 51
90.0
  0
ARC
  5
28A
330
44
100
AcDbEntity
  8
0
  6
Continuous
 62
     7
100
AcDbCircle
 10
293.5153637462
 20
315.9612962687
 30
0.0
 40
1.0
100
AcDbArc
 50
90.0
 51
180.0
  0
ARC
  5
28B
330
44
100
AcDbEntity
  8
0
  6
Continuous
 62
     7
100
AcDbCircle
 10
200.0153637462
 20
315.9612962687
 30
0.0
 40
1.0
100
AcDbArc
 50
0.0
 51
90.0
  0
ARC
  5
28C
330
44
100
AcDbEntity
  8
0
  6
Continuous
 62
     7
100
AcDbCircle
 10
313.5153637462
 20
213.6571968201
 30
0.0
 40
2.0
100
AcDbArc
 50
90.0
 51
180.0
  0
ARC
  5
28D
330
44
100
AcDbEntity
  8
0
  6
Continuous
 62
     7
100
AcDbCircle
 10
314.0153637462
 20
211.1571968201
 30
0.0
 40
2.0
100
AcDbArc
 50
0.0
 51
90.0
  0
ARC
  5
28E
330
44
100
AcDbEntity
  8
0
  6
Continuous
 62
     7
100
AcDbCircle
 10
179.5153637462
 20
211.1571968201
 30
0.0
 40
2.0
100
AcDbArc
 50
90.0
 51
180.0
  0
ARC
  5
28F
330
44
100
AcDbEntity
  8
0
  6
Continuous
 62
     7
100
AcDbCircle
 10
180.0153637462
 20
213.6571968201
 30
0.0
 40
2.0
100
AcDbArc
 50
0.0
 51
90.0
  0
ARC
  5
290
330
44
100
AcDbEntity
  8
0
  6
Continuous
 62
     7
100
AcDbCircle
 10
246.6544063522
 20
169.9617630292
 30
0.0
 40
51.49999999999957
100
AcDbArc
 50
205.0000000000002
 51
270.1234445687996
  0
ARC
  5
291
330
44
100
AcDbEntity
  8
0
  6
Continuous
 62
     7
100
AcDbCircle
 10
68.7653637462
 20
243.9612962687
 30
0.0
 40
2.0
100
AcDbArc
 50
90.0
 51
180.0
  0
ARC
  5
292
330
44
100
AcDbEntity
  8
0
  6
Continuous
 62
     7
100
AcDbCircle
 10
424.7653637462
 20
243.9612962687
 30
0.0
 40
2.0
100
AcDbArc
 50
0.0
 51
90.0
  0
ARC
  5
293
330
44
100
AcDbEntity
  8
0
  6
Continuous
 62
     7
100
AcDbCircle
 10
183.2654078257
 20
184.0405275212
 30
0.0
 40
3.5
100
AcDbArc
 50
180.0
 51
204.9999999999952
  0
ARC
  5
294
330
44
100
AcDbEntity
  8
0
  6
Continuous
 62
     7
100
AcDbCircle
 10
246.6544063522
 20
169.9617630292
 30
0.0
 40
55.00000000000002
100
AcDbArc
 50
204.9999999999994
 51
270.1155889942997
  0
ARC
  5
295
330
44
100
AcDbEntity
  8
0
  6
Continuous
 62
     7
100
AcDbCircle
 10
176.8654078257
 20
201.0091894893
 30
0.0
 40
3.0
100
AcDbArc
 50
180.0
 51
270.004683497703
  0
ARC
  5
296
330
44
100
AcDbEntity
  8
0
  6
Continuous
 62
     7
100
AcDbCircle
 10
169.2653637462
 20
210.656534701
 30
0.0
 40
3.0
100
AcDbArc
 50
180.0
 51
270.004683499307
  0
ARC
  5
297
330
44
100
AcDbEntity
  8
0
  6
Continuous
 62
     7
100
AcDbCircle
 10
324.2653637462
 20
210.656534701
 30
0.0
 40
2.999999999999749
100
AcDbArc
 50
269.9953165006924
 51
0.0
  0
ARC
  5
298
330
44
100
AcDbEntity
  8
0
  6
Continuous
 62
     7
100
AcDbCircle
 10
316.6653196666
 20
201.0091894893
 30
0.0
 40
3.000000000000037
100
AcDbArc
 50
270.7202669948019
 51
0.0
  0
ARC
  5
299
330
44
100
AcDbEntity
  8
0
  6
Continuous
 62
     7
100
AcDbCircle
 10
313.2653637462
 20
315.9612962687
 30
0.0
 40
1.0
100
AcDbArc
 50
0.0
 51
90.0
  0
ARC
  5
29A
330
44
100
AcDbEntity
  8
0
  6
Continuous
 62
     7
100
AcDbCircle
 10
309.0153637462
 20
315.9612962687
 30
0.0
 40
2.5
100
AcDbArc
 50
90.0
 51
180.0
  0
ARC
  5
29B
330
44
100
AcDbEntity
  8
0
  6
Continuous
 62
     7
100
AcDbCircle
 10
313.2653637462
 20
315.9612962687
 30
0.0
 40
2.5
100
AcDbArc
 50
0.0
 51
90.0
  0
ARC
  5
29C
330
44
100
AcDbEntity
  8
0
  6
Continuous
 62
     7
100
AcDbCircle
 10
309.0153637462
 20
315.9612962687
 30
0.0
 40
1.0
100
AcDbArc
 50
90.0
 51
180.0
  0
ARC
  5
29D
330
44
100
AcDbEntity
  8
0
  6
Continuous
 62
     7
100
AcDbCircle
 10
229.0153637462
 20
315.9612962687
 30
0.0
 40
1.0
100
AcDbArc
 50
90.0
 51
180.0
  0
ARC
  5
29E
330
44
100
AcDbEntity
  8
0
  6
Continuous
 62
     7
100
AcDbCircle
 10
229.0153637462
 20
315.9612962687
 30
0.0
 40
2.5
100
AcDbArc
 50
90.0
 51
180.0
  0
ARC
  5
29F
330
44
100
AcDbEntity
  8
0
  6
Continuous
 62
     7
100
AcDbCircle
 10
264.5153637462
 20
315.9612962687
 30
0.0
 40
2.5
100
AcDbArc
 50
0.0
 51
90.0
  0
ARC
  5
2A0
330
44
100
AcDbEntity
  8
0
  6
Continuous
 62
     7
100
AcDbCircle
 10
264.5153637462
 20
315.9612962687
 30
0.0
 40
1.0
100
AcDbArc
 50
0.0
 51
90.0
  0
ARC
  5
2A1
330
44
100
AcDbEntity
  8
0
  6
Continuous
 62
     7
100
AcDbCircle
 10
296.5153637462
 20
315.9612962687
 30
0.0
 40
1.0
100
AcDbArc
 50
0.0
 51
90.0
  0
ARC
  5
2A2
330
44
100
AcDbEntity
  8
0
  6
Continuous
 62
     7
100
AcDbCircle
 10
293.0153637462
 20
315.9612962687
 30
0.0
 40
1.0
100
AcDbArc
 50
90.0
 51
180.0
  0
ARC
  5
2A3
330
44
100
AcDbEntity
  8
0
  6
Continuous
 62
     7
100
AcDbCircle
 10
293.0153637462
 20
315.9612962687
 30
0.0
 40
2.5
100
AcDbArc
 50
90.0
 51
180.0
  0
ARC
  5
2A4
330
44
100
AcDbEntity
  8
0
  6
Continuous
 62
     7
100
AcDbCircle
 10
296.5153637462
 20
315.9612962687
 30
0.0
 40
2.5
100
AcDbArc
 50
0.0
 51
90.0
  0
ARC
  5
2A5
330
44
100
AcDbEntity
  8
0
  6
Continuous
 62
     7
100
AcDbCircle
 10
184.5153637462
 20
315.9612962687
 30
0.0
 40
2.5
100
AcDbArc
 50
0.0
 51
90.0
  0
ARC
  5
2A6
330
44
100
AcDbEntity
  8
0
  6
Continuous
 62
     7
100
AcDbCircle
 10
180.2653637462
 20
315.9612962687
 30
0.0
 40
1.0
100
AcDbArc
 50
90.0
 51
180.0
  0
ARC
  5
2A7
330
44
100
AcDbEntity
  8
0
  6
Continuous
 62
     7
100
AcDbCircle
 10
180.2653637462
 20
315.9612962687
 30
0.0
 40
2.5
100
AcDbArc
 50
90.0
 51
180.0
  0
ARC
  5
2A8
330
44
100
AcDbEntity
  8
0
  6
Continuous
 62
     7
100
AcDbCircle
 10
184.5153637462
 20
315.9612962687
 30
0.0
 40
1.0
100
AcDbArc
 50
0.0
 51
90.0
  0
ARC
  5
2A9
330
44
100
AcDbEntity
  8
0
  6
Continuous
 62
     7
100
AcDbCircle
 10
213.0153637462
 20
315.9612962687
 30
0.0
 40
2.5
100
AcDbArc
 50
90.0
 51
180.0
  0
ARC
  5
2AA
330
44
100
AcDbEntity
  8
0
  6
Continuous
 62
     7
100
AcDbCircle
 10
216.5153637462
 20
315.9612962687
 30
0.0
 40
2.5
100
AcDbArc
 50
0.0
 51
90.0
  0
ARC
  5
2AB
330
44
100
AcDbEntity
  8
0
  6
Continuous
 62
     7
100
AcDbCircle
 10
216.5153637462
 20
315.9612962687
 30
0.0
 40
1.0
100
AcDbArc
 50
0.0
 51
90.0
  0
ARC
  5
2AC
330
44
100
AcDbEntity
  8
0
  6
Continuous
 62
     7
100
AcDbCircle
 10
213.0153637462
 20
315.9612962687
 30
0.0
 40
1.0
100
AcDbArc
 50
90.0
 51
180.0
  0
ARC
  5
2AD
330
44
100
AcDbEntity
  8
0
  6
Continuous
 62
     7
100
AcDbCircle
 10
277.0153637462
 20
315.9612962687
 30
0.0
 40
2.5
100
AcDbArc
 50
90.0
 51
180.0
  0
ARC
  5
2AE
330
44
100
AcDbEntity
  8
0
  6
Continuous
 62
     7
100
AcDbCircle
 10
280.5153637462
 20
315.9612962687
 30
0.0
 40
2.5
100
AcDbArc
 50
0.0
 51
90.0
  0
ARC
  5
2AF
330
44
100
AcDbEntity
  8
0
  6
Continuous
 62
     7
100
AcDbCircle
 10
280.5153637462
 20
315.9612962687
 30
0.0
 40
1.0
100
AcDbArc
 50
0.0
 51
90.0
  0
ARC
  5
2B0
330
44
100
AcDbEntity
  8
0
  6
Continuous
 62
     7
100
AcDbCircle
 10
277.0153637462
 20
315.9612962687
 30
0.0
 40
1.0
100
AcDbArc
 50
90.0
 51
180.0
  0
ARC
  5
2B1
330
44
100
AcDbEntity
  8
0
  6
Continuous
 62
     7
100
AcDbCircle
 10
197.0153637462
 20
315.9612962687
 30
0.0
 40
2.5
100
AcDbArc
 50
90.0
 51
180.0
  0
ARC
  5
2B2
330
44
100
AcDbEntity
  8
0
  6
Continuous
 62
     7
100
AcDbCircle
 10
200.5153637462
 20
315.9612962687
 30
0.0
 40
2.5
100
AcDbArc
 50
0.0
 51
90.0
  0
ARC
  5
2B3
330
44
100
AcDbEntity
  8
0
  6
Continuous
 62
     7
100
AcDbCircle
 10
197.0153637462
 20
315.9612962687
 30
0.0
 40
1.0
100
AcDbArc
 50
90.0
 51
180.0
  0
ARC
  5
2B4
330
44
100
AcDbEntity
  8
0
  6
Continuous
 62
     7
100
AcDbCircle
 10
200.5153637462
 20
315.9612962687
 30
0.0
 40
1.0
100
AcDbArc
 50
0.0
 51
90.0
  0
ARC
  5
2B5
330
44
100
AcDbEntity
  8
0
  6
Continuous
 62
     7
100
AcDbCircle
 10
318.7653637462
 20
284.9612962687
 30
0.0
 40
0.5
100
AcDbArc
 50
0.0
 51
90.0
  0
ARC
  5
2B6
330
44
100
AcDbEntity
  8
0
  6
Continuous
 62
     7
100
AcDbCircle
 10
318.7653637462
 20
283.9612962687
 30
0.0
 40
0.5
100
AcDbArc
 50
270.0
 51
0.0
  0
ARC
  5
2B7
330
44
100
AcDbEntity
  8
0
  6
Continuous
 62
     7
100
AcDbCircle
 10
318.7653637462
 20
282.2112962687
 30
0.0
 40
1.25
100
AcDbArc
 50
90.0
 51
270.0
  0
ARC
  5
2B8
330
44
100
AcDbEntity
  8
0
  6
Continuous
 62
     7
100
AcDbCircle
 10
318.7653637462
 20
280.4612962687
 30
0.0
 40
0.5
100
AcDbArc
 50
0.0
 51
90.0
  0
ARC
  5
2B9
330
44
100
AcDbEntity
  8
0
  6
Continuous
 62
     7
100
AcDbCircle
 10
318.7653637462
 20
279.4612962687
 30
0.0
 40
0.5
100
AcDbArc
 50
270.0
 51
0.0
  0
ARC
  5
2BA
330
44
100
AcDbEntity
  8
0
  6
Continuous
 62
     7
100
AcDbCircle
 10
318.7653637462
 20
277.7112962687
 30
0.0
 40
1.25
100
AcDbArc
 50
90.0
 51
270.0
  0
ARC
  5
2BB
330
44
100
AcDbEntity
  8
0
  6
Continuous
 62
     7
100
AcDbCircle
 10
318.7653637462
 20
275.9612962687
 30
0.0
 40
0.5
100
AcDbArc
 50
0.0
 51
90.0
  0
ARC
  5
2BC
330
44
100
AcDbEntity
  8
0
  6
Continuous
 62
     7
100
AcDbCircle
 10
318.7653637462
 20
274.9612962687
 30
0.0
 40
0.5
100
AcDbArc
 50
270.0
 51
0.0
  0
ARC
  5
2BD
330
44
100
AcDbEntity
  8
0
  6
Continuous
 62
     7
100
AcDbCircle
 10
318.7653637462
 20
273.2112962687
 30
0.0
 40
1.25
100
AcDbArc
 50
90.0
 51
270.0
  0
ARC
  5
2BE
330
44
100
AcDbEntity
  8
0
  6
Continuous
 62
     7
100
AcDbCircle
 10
318.7653637462
 20
271.4612962687
 30
0.0
 40
0.5
100
AcDbArc
 50
0.0
 51
90.0
  0
ARC
  5
2BF
330
44
100
AcDbEntity
  8
0
  6
Continuous
 62
     7
100
AcDbCircle
 10
318.7653637462
 20
270.4612962687
 30
0.0
 40
0.5
100
AcDbArc
 50
270.0
 51
0.0
  0
ARC
  5
2C0
330
44
100
AcDbEntity
  8
0
  6
Continuous
 62
     7
100
AcDbCircle
 10
318.7653637462
 20
268.7112962687
 30
0.0
 40
1.25
100
AcDbArc
 50
90.0
 51
270.0
  0
ARC
  5
2C1
330
44
100
AcDbEntity
  8
0
  6
Continuous
 62
     7
100
AcDbCircle
 10
318.7653637462
 20
266.9612962687
 30
0.0
 40
0.5
100
AcDbArc
 50
0.0
 51
90.0
  0
ARC
  5
2C2
330
44
100
AcDbEntity
  8
0
  6
Continuous
 62
     7
100
AcDbCircle
 10
318.7653637462
 20
265.9612962687
 30
0.0
 40
0.5
100
AcDbArc
 50
270.0
 51
0.0
  0
ARC
  5
2C3
330
44
100
AcDbEntity
  8
0
  6
Continuous
 62
     7
100
AcDbCircle
 10
318.7653637462
 20
264.2112962687
 30
0.0
 40
1.25
100
AcDbArc
 50
90.0
 51
270.0
  0
ARC
  5
2C4
330
44
100
AcDbEntity
  8
0
  6
Continuous
 62
     7
100
AcDbCircle
 10
318.7653637462
 20
262.4612962687
 30
0.0
 40
0.5
100
AcDbArc
 50
0.0
 51
90.0
  0
ARC
  5
2C5
330
44
100
AcDbEntity
  8
0
  6
Continuous
 62
     7
100
AcDbCircle
 10
318.7653637462
 20
261.4612962687
 30
0.0
 40
0.5
100
AcDbArc
 50
270.0
 51
0.0
  0
ARC
  5
2C6
330
44
100
AcDbEntity
  8
0
  6
Continuous
 62
     7
100
AcDbCircle
 10
318.7653637462
 20
259.7112962687
 30
0.0
 40
1.25
100
AcDbArc
 50
90.0
 51
270.0
  0
ARC
  5
2C7
330
44
100
AcDbEntity
  8
0
  6
Continuous
 62
     7
100
AcDbCircle
 10
318.7653637462
 20
257.9612962687
 30
0.0
 40
0.5
100
AcDbArc
 50
0.0
 51
90.0
  0
ARC
  5
2C8
330
44
100
AcDbEntity
  8
0
  6
Continuous
 62
     7
100
AcDbCircle
 10
318.7653637462
 20
256.9612962687
 30
0.0
 40
0.5
100
AcDbArc
 50
270.0
 51
0.0
  0
ARC
  5
2C9
330
44
100
AcDbEntity
  8
0
  6
Continuous
 62
     7
100
AcDbCircle
 10
318.7653637462
 20
255.2112962687
 30
0.0
 40
1.249999999999972
100
AcDbArc
 50
90.0
 51
270.0
  0
ARC
  5
2CA
330
44
100
AcDbEntity
  8
0
  6
Continuous
 62
     7
100
AcDbCircle
 10
318.7653637462
 20
253.4612962687
 30
0.0
 40
0.5
100
AcDbArc
 50
0.0
 51
90.0
  0
ARC
  5
2CB
330
44
100
AcDbEntity
  8
0
  6
Continuous
 62
     7
100
AcDbCircle
 10
318.7653637462
 20
252.4612962687
 30
0.0
 40
0.5
100
AcDbArc
 50
270.0
 51
0.0
  0
ARC
  5
2CC
330
44
100
AcDbEntity
  8
0
  6
Continuous
 62
     7
100
AcDbCircle
 10
318.7653637462
 20
250.7112962687
 30
0.0
 40
1.25
100
AcDbArc
 50
90.0
 51
270.0
  0
ARC
  5
2CD
330
44
100
AcDbEntity
  8
0
  6
Continuous
 62
     7
100
AcDbCircle
 10
318.7653637462
 20
248.9612962687
 30
0.0
 40
0.5
100
AcDbArc
 50
0.0
 51
90.0
  0
ARC
  5
2CE
330
44
100
AcDbEntity
  8
0
  6
Continuous
 62
     7
100
AcDbCircle
 10
318.7653637462
 20
247.9612962687
 30
0.0
 40
0.5
100
AcDbArc
 50
270.0
 51
0.0
  0
ARC
  5
2CF
330
44
100
AcDbEntity
  8
0
  6
Continuous
 62
     7
100
AcDbCircle
 10
318.7653637462
 20
246.2112962687
 30
0.0
 40
1.25
100
AcDbArc
 50
90.0
 51
270.0
  0
ARC
  5
2D0
330
44
100
AcDbEntity
  8
0
  6
Continuous
 62
     7
100
AcDbCircle
 10
318.7653637462
 20
244.4612962687
 30
0.0
 40
0.5
100
AcDbArc
 50
0.0
 51
90.0
  0
ARC
  5
2D1
330
44
100
AcDbEntity
  8
0
  6
Continuous
 62
     7
100
AcDbCircle
 10
318.7653637462
 20
243.4612962687
 30
0.0
 40
0.5
100
AcDbArc
 50
270.0
 51
0.0
  0
ARC
  5
2D2
330
44
100
AcDbEntity
  8
0
  6
Continuous
 62
     7
100
AcDbCircle
 10
318.7653637462
 20
241.7112962687
 30
0.0
 40
1.25
100
AcDbArc
 50
90.0
 51
270.0
  0
ARC
  5
2D3
330
44
100
AcDbEntity
  8
0
  6
Continuous
 62
     7
100
AcDbCircle
 10
318.7653637462
 20
239.9612962687
 30
0.0
 40
0.5
100
AcDbArc
 50
0.0
 51
90.0
  0
ARC
  5
2D4
330
44
100
AcDbEntity
  8
0
  6
Continuous
 62
     7
100
AcDbCircle
 10
318.7653637462
 20
238.9612962687
 30
0.0
 40
0.5
100
AcDbArc
 50
270.0
 51
0.0
  0
ARC
  5
2D5
330
44
100
AcDbEntity
  8
0
  6
Continuous
 62
     7
100
AcDbCircle
 10
318.7653637462
 20
237.2112962687
 30
0.0
 40
1.25
100
AcDbArc
 50
90.0
 51
270.0
  0
ARC
  5
2D6
330
44
100
AcDbEntity
  8
0
  6
Continuous
 62
     7
100
AcDbCircle
 10
318.7653637462
 20
235.4612962687
 30
0.0
 40
0.5
100
AcDbArc
 50
0.0
 51
90.0
  0
ARC
  5
2D7
330
44
100
AcDbEntity
  8
0
  6
Continuous
 62
     7
100
AcDbCircle
 10
318.7653637462
 20
234.4612962687
 30
0.0
 40
0.5
100
AcDbArc
 50
270.0
 51
0.0
  0
ARC
  5
2D8
330
44
100
AcDbEntity
  8
0
  6
Continuous
 62
     7
100
AcDbCircle
 10
318.7653637462
 20
232.7112962687
 30
0.0
 40
1.25
100
AcDbArc
 50
90.0
 51
270.0
  0
ARC
  5
2D9
330
44
100
AcDbEntity
  8
0
  6
Continuous
 62
     7
100
AcDbCircle
 10
318.7653637462
 20
230.9612962687
 30
0.0
 40
0.5
100
AcDbArc
 50
0.0
 51
90.0
  0
ARC
  5
2DA
330
44
100
AcDbEntity
  8
0
  6
Continuous
 62
     7
100
AcDbCircle
 10
318.7653637462
 20
228.9612962687
 30
0.0
 40
0.5
100
AcDbArc
 50
270.0
 51
0.0
  0
ARC
  5
2DB
330
44
100
AcDbEntity
  8
0
  6
Continuous
 62
     7
100
AcDbCircle
 10
318.7653637462
 20
292.9612962687
 30
0.0
 40
0.5
100
AcDbArc
 50
270.0
 51
0.0
  0
ARC
  5
2DC
330
44
100
AcDbEntity
  8
0
  6
Continuous
 62
     7
100
AcDbCircle
 10
318.7653637462
 20
291.2112962687
 30
0.0
 40
1.25
100
AcDbArc
 50
90.0
 51
270.0
  0
ARC
  5
2DD
330
44
100
AcDbEntity
  8
0
  6
Continuous
 62
     7
100
AcDbCircle
 10
318.7653637462
 20
289.4612962687
 30
0.0
 40
0.5
100
AcDbArc
 50
0.0
 51
90.0
  0
ARC
  5
2DE
330
44
100
AcDbEntity
  8
0
  6
Continuous
 62
     7
100
AcDbCircle
 10
318.7653637462
 20
288.4612962687
 30
0.0
 40
0.5
100
AcDbArc
 50
270.0
 51
0.0
  0
ARC
  5
2DF
330
44
100
AcDbEntity
  8
0
  6
Continuous
 62
     7
100
AcDbCircle
 10
318.7653637462
 20
286.7112962687
 30
0.0
 40
1.25
100
AcDbArc
 50
90.0
 51
270.0
  0
ARC
  5
2E0
330
44
100
AcDbEntity
  8
0
  6
Continuous
 62
     7
100
AcDbCircle
 10
174.7653637462
 20
289.4612962687
 30
0.0
 40
0.5
100
AcDbArc
 50
90.0
 51
180.0
  0
ARC
  5
2E1
330
44
100
AcDbEntity
  8
0
  6
Continuous
 62
     7
100
AcDbCircle
 10
174.7653637462
 20
291.2112962687
 30
0.0
 40
1.25
100
AcDbArc
 50
270.0
 51
90.0
  0
ARC
  5
2E2
330
44
100
AcDbEntity
  8
0
  6
Continuous
 62
     7
100
AcDbCircle
 10
174.7653637462
 20
292.9612962687
 30
0.0
 40
0.5
100
AcDbArc
 50
180.0
 51
270.0
  0
ARC
  5
2E3
330
44
100
AcDbEntity
  8
0
  6
Continuous
 62
     7
100
AcDbCircle
 10
174.7653637462
 20
228.9612962687
 30
0.0
 40
0.5
100
AcDbArc
 50
180.0
 51
270.0
  0
ARC
  5
2E4
330
44
100
AcDbEntity
  8
0
  6
Continuous
 62
     7
100
AcDbCircle
 10
174.7653637462
 20
230.9612962687
 30
0.0
 40
0.5
100
AcDbArc
 50
90.0
 51
180.0
  0
ARC
  5
2E5
330
44
100
AcDbEntity
  8
0
  6
Continuous
 62
     7
100
AcDbCircle
 10
174.7653637462
 20
232.7112962687
 30
0.0
 40
1.25
100
AcDbArc
 50
270.0
 51
90.0
  0
ARC
  5
2E6
330
44
100
AcDbEntity
  8
0
  6
Continuous
 62
     7
100
AcDbCircle
 10
174.7653637462
 20
234.4612962687
 30
0.0
 40
0.5
100
AcDbArc
 50
180.0
 51
270.0
  0
ARC
  5
2E7
330
44
100
AcDbEntity
  8
0
  6
Continuous
 62
     7
100
AcDbCircle
 10
174.7653637462
 20
235.4612962687
 30
0.0
 40
0.5
100
AcDbArc
 50
90.0
 51
180.0
  0
ARC
  5
2E8
330
44
100
AcDbEntity
  8
0
  6
Continuous
 62
     7
100
AcDbCircle
 10
174.7653637462
 20
237.2112962687
 30
0.0
 40
1.25
100
AcDbArc
 50
270.0
 51
90.0
  0
ARC
  5
2E9
330
44
100
AcDbEntity
  8
0
  6
Continuous
 62
     7
100
AcDbCircle
 10
174.7653637462
 20
238.9612962687
 30
0.0
 40
0.5
100
AcDbArc
 50
180.0
 51
270.0
  0
ARC
  5
2EA
330
44
100
AcDbEntity
  8
0
  6
Continuous
 62
     7
100
AcDbCircle
 10
174.7653637462
 20
239.9612962687
 30
0.0
 40
0.5
100
AcDbArc
 50
90.0
 51
180.0
  0
ARC
  5
2EB
330
44
100
AcDbEntity
  8
0
  6
Continuous
 62
     7
100
AcDbCircle
 10
174.7653637462
 20
241.7112962687
 30
0.0
 40
1.25
100
AcDbArc
 50
270.0
 51
90.0
  0
ARC
  5
2EC
330
44
100
AcDbEntity
  8
0
  6
Continuous
 62
     7
100
AcDbCircle
 10
174.7653637462
 20
243.4612962687
 30
0.0
 40
0.5
100
AcDbArc
 50
180.0
 51
270.0
  0
ARC
  5
2ED
330
44
100
AcDbEntity
  8
0
  6
Continuous
 62
     7
100
AcDbCircle
 10
174.7653637462
 20
244.4612962687
 30
0.0
 40
0.5
100
AcDbArc
 50
90.0
 51
180.0
  0
ARC
  5
2EE
330
44
100
AcDbEntity
  8
0
  6
Continuous
 62
     7
100
AcDbCircle
 10
174.7653637462
 20
246.2112962687
 30
0.0
 40
1.25
100
AcDbArc
 50
270.0
 51
90.0
  0
ARC
  5
2EF
330
44
100
AcDbEntity
  8
0
  6
Continuous
 62
     7
100
AcDbCircle
 10
174.7653637462
 20
247.9612962687
 30
0.0
 40
0.5
100
AcDbArc
 50
180.0
 51
270.0
  0
ARC
  5
2F0
330
44
100
AcDbEntity
  8
0
  6
Continuous
 62
     7
100
AcDbCircle
 10
174.7653637462
 20
248.9612962687
 30
0.0
 40
0.5
100
AcDbArc
 50
90.0
 51
180.0
  0
ARC
  5
2F1
330
44
100
AcDbEntity
  8
0
  6
Continuous
 62
     7
100
AcDbCircle
 10
174.7653637462
 20
250.7112962687
 30
0.0
 40
1.25
100
AcDbArc
 50
270.0
 51
90.0
  0
ARC
  5
2F2
330
44
100
AcDbEntity
  8
0
  6
Continuous
 62
     7
100
AcDbCircle
 10
174.7653637462
 20
252.4612962687
 30
0.0
 40
0.5
100
AcDbArc
 50
180.0
 51
270.0
  0
ARC
  5
2F3
330
44
100
AcDbEntity
  8
0
  6
Continuous
 62
     7
100
AcDbCircle
 10
174.7653637462
 20
253.4612962687
 30
0.0
 40
0.5
100
AcDbArc
 50
90.0
 51
180.0
  0
ARC
  5
2F4
330
44
100
AcDbEntity
  8
0
  6
Continuous
 62
     7
100
AcDbCircle
 10
174.7653637462
 20
255.2112962687
 30
0.0
 40
1.25
100
AcDbArc
 50
270.0
 51
90.0
  0
ARC
  5
2F5
330
44
100
AcDbEntity
  8
0
  6
Continuous
 62
     7
100
AcDbCircle
 10
174.7653637462
 20
256.9612962687
 30
0.0
 40
0.5
100
AcDbArc
 50
180.0
 51
270.0
  0
ARC
  5
2F6
330
44
100
AcDbEntity
  8
0
  6
Continuous
 62
     7
100
AcDbCircle
 10
174.7653637462
 20
257.9612962687
 30
0.0
 40
0.5
100
AcDbArc
 50
90.0
 51
180.0
  0
ARC
  5
2F7
330
44
100
AcDbEntity
  8
0
  6
Continuous
 62
     7
100
AcDbCircle
 10
174.7653637462
 20
259.7112962687
 30
0.0
 40
1.25
100
AcDbArc
 50
270.0
 51
90.0
  0
ARC
  5
2F8
330
44
100
AcDbEntity
  8
0
  6
Continuous
 62
     7
100
AcDbCircle
 10
174.7653637462
 20
261.4612962687
 30
0.0
 40
0.5
100
AcDbArc
 50
180.0
 51
270.0
  0
ARC
  5
2F9
330
44
100
AcDbEntity
  8
0
  6
Continuous
 62
     7
100
AcDbCircle
 10
174.7653637462
 20
262.4612962687
 30
0.0
 40
0.5
100
AcDbArc
 50
90.0
 51
180.0
  0
ARC
  5
2FA
330
44
100
AcDbEntity
  8
0
  6
Continuous
 62
     7
100
AcDbCircle
 10
174.7653637462
 20
264.2112962687
 30
0.0
 40
1.25
100
AcDbArc
 50
270.0
 51
90.0
  0
ARC
  5
2FB
330
44
100
AcDbEntity
  8
0
  6
Continuous
 62
     7
100
AcDbCircle
 10
174.7653637462
 20
265.9612962687
 30
0.0
 40
0.5
100
AcDbArc
 50
180.0
 51
270.0
  0
ARC
  5
2FC
330
44
100
AcDbEntity
  8
0
  6
Continuous
 62
     7
100
AcDbCircle
 10
174.7653637462
 20
266.9612962687
 30
0.0
 40
0.5
100
AcDbArc
 50
90.0
 51
180.0
  0
ARC
  5
2FD
330
44
100
AcDbEntity
  8
0
  6
Continuous
 62
     7
100
AcDbCircle
 10
174.7653637462
 20
268.7112962687
 30
0.0
 40
1.25
100
AcDbArc
 50
270.0
 51
90.0
  0
ARC
  5
2FE
330
44
100
AcDbEntity
  8
0
  6
Continuous
 62
     7
100
AcDbCircle
 10
174.7653637462
 20
270.4612962687
 30
0.0
 40
0.5
100
AcDbArc
 50
180.0
 51
270.0
  0
ARC
  5
2FF
330
44
100
AcDbEntity
  8
0
  6
Continuous
 62
     7
100
AcDbCircle
 10
174.7653637462
 20
271.4612962687
 30
0.0
 40
0.5
100
AcDbArc
 50
90.0
 51
180.0
  0
ARC
  5
300
330
44
100
AcDbEntity
  8
0
  6
Continuous
 62
     7
100
AcDbCircle
 10
174.7653637462
 20
273.2112962687
 30
0.0
 40
1.25
100
AcDbArc
 50
270.0
 51
90.0
  0
ARC
  5
301
330
44
100
AcDbEntity
  8
0
  6
Continuous
 62
     7
100
AcDbCircle
 10
174.7653637462
 20
274.9612962687
 30
0.0
 40
0.5
100
AcDbArc
 50
180.0
 51
270.0
  0
ARC
  5
302
330
44
100
AcDbEntity
  8
0
  6
Continuous
 62
     7
100
AcDbCircle
 10
174.7653637462
 20
275.9612962687
 30
0.0
 40
0.5
100
AcDbArc
 50
90.0
 51
180.0
  0
ARC
  5
303
330
44
100
AcDbEntity
  8
0
  6
Continuous
 62
     7
100
AcDbCircle
 10
174.7653637462
 20
277.7112962687
 30
0.0
 40
1.25
100
AcDbArc
 50
270.0
 51
90.0
  0
ARC
  5
304
330
44
100
AcDbEntity
  8
0
  6
Continuous
 62
     7
100
AcDbCircle
 10
174.7653637462
 20
279.4612962687
 30
0.0
 40
0.5
100
AcDbArc
 50
180.0
 51
270.0
  0
ARC
  5
305
330
44
100
AcDbEntity
  8
0
  6
Continuous
 62
     7
100
AcDbCircle
 10
174.7653637462
 20
280.4612962687
 30
0.0
 40
0.5
100
AcDbArc
 50
90.0
 51
180.0
  0
ARC
  5
306
330
44
100
AcDbEntity
  8
0
  6
Continuous
 62
     7
100
AcDbCircle
 10
174.7653637462
 20
282.2112962687
 30
0.0
 40
1.25
100
AcDbArc
 50
270.0
 51
90.0
  0
ARC
  5
307
330
44
100
AcDbEntity
  8
0
  6
Continuous
 62
     7
100
AcDbCircle
 10
174.7653637462
 20
283.9612962687
 30
0.0
 40
0.5
100
AcDbArc
 50
180.0
 51
270.0
  0
ARC
  5
308
330
44
100
AcDbEntity
  8
0
  6
Continuous
 62
     7
100
AcDbCircle
 10
174.7653637462
 20
284.9612962687
 30
0.0
 40
0.5
100
AcDbArc
 50
90.0
 51
180.0
  0
ARC
  5
309
330
44
100
AcDbEntity
  8
0
  6
Continuous
 62
     7
100
AcDbCircle
 10
174.7653637462
 20
286.7112962687
 30
0.0
 40
1.25
100
AcDbArc
 50
270.0
 51
90.0
  0
ARC
  5
30A
330
44
100
AcDbEntity
  8
0
  6
Continuous
 62
     7
100
AcDbCircle
 10
174.7653637462
 20
288.4612962687
 30
0.0
 40
0.5
100
AcDbArc
 50
180.0
 51
270.0
  0
ARC
  5
30B
330
44
100
AcDbEntity
  8
0
  6
Continuous
 62
     7
100
AcDbCircle
 10
320.2242341959
 20
243.9612962687
 30
0.0
 40
1.0
100
AcDbArc
 50
90.0
 51
180.0
  0
ARC
  5
30C
330
44
100
AcDbEntity
  8
0
  6
Continuous
 62
     7
100
AcDbCircle
 10
323.7653637462
 20
244.9612962687
 30
0.0
 40
1.0
100
AcDbArc
 50
90.0
 51
180.0
  0
ARC
  5
30D
330
44
100
AcDbEntity
  8
0
  6
Continuous
 62
     7
100
AcDbCircle
 10
169.7653637462
 20
244.9612962687
 30
0.0
 40
1.0
100
AcDbArc
 50
0.0
 51
90.0
  0
ARC
  5
30E
330
44
100
AcDbEntity
  8
0
  6
Continuous
 62
     7
100
AcDbCircle
 10
173.3064932964
 20
243.9612962687
 30
0.0
 40
1.0
100
AcDbArc
 50
0.0
 51
90.0
  0
ARC
  5
30F
330
44
100
AcDbEntity
  8
0
  6
Continuous
 62
     7
100
AcDbCircle
 10
130.0153637462
 20
223.111730053
 30
0.0
 40
0.25
100
AcDbArc
 50
180.0
 51
270.0
  0
ARC
  5
310
330
44
100
AcDbEntity
  8
0
  6
Continuous
 62
     7
100
AcDbCircle
 10
132.2253637462
 20
220.5364468867
 30
0.0
 40
0.5399999999998009
100
AcDbArc
 50
305.2515315420192
 51
0.0
  0
ARC
  5
311
330
44
100
AcDbEntity
  8
0
  6
Continuous
 62
     7
100
AcDbCircle
 10
126.7653637462
 20
228.261730053
 30
0.0
 40
9.999999999999858
100
AcDbArc
 50
288.2583107463982
 51
305.2515315420875
  0
ARC
  5
312
330
44
100
AcDbEntity
  8
0
  6
Continuous
 62
     7
100
AcDbCircle
 10
126.7653637462
 20
228.261730053
 30
0.0
 40
10.0
100
AcDbArc
 50
234.7484684580025
 51
251.7416892536019
  0
ARC
  5
313
330
44
100
AcDbEntity
  8
0
  6
Continuous
 62
     7
100
AcDbCircle
 10
121.3053637462
 20
220.5364468867
 30
0.0
 40
0.5400000000000063
100
AcDbArc
 50
180.0
 51
234.7484684596464
  0
ARC
  5
314
330
44
100
AcDbEntity
  8
0
  6
Continuous
 62
     7
100
AcDbCircle
 10
123.5153637462
 20
223.111730053
 30
0.0
 40
0.25
100
AcDbArc
 50
270.0
 51
0.0
  0
ARC
  5
315
330
44
100
AcDbEntity
  8
0
  6
Continuous
 62
     7
100
AcDbCircle
 10
123.7023930248
 20
219.0316678804
 30
0.0
 40
0.2755252114695059
100
AcDbArc
 50
255.2731336912394
 51
293.2017690193671
  0
ARC
  5
316
330
44
100
AcDbEntity
  8
0
  6
Continuous
 62
     7
100
AcDbCircle
 10
126.8719590361
 20
228.0620910955
 30
0.0
 40
9.775288191584421
100
AcDbArc
 50
251.7515379585981
 51
262.207861280801
  0
ARC
  5
317
330
44
100
AcDbEntity
  8
0
  6
Continuous
 62
     7
100
AcDbCircle
 10
125.3530336085
 20
219.243301201
 30
0.0
 40
1.253954289380842
100
AcDbArc
 50
316.3061464734484
 51
338.2395291296784
  0
ARC
  5
318
330
44
100
AcDbEntity
  8
0
  6
Continuous
 62
     7
100
AcDbCircle
 10
127.2199251214
 20
229.5669833136
 30
0.0
 40
10.81139106161467
100
AcDbArc
 50
266.2755297702999
 51
273.7244702297987
  0
ARC
  5
319
330
44
100
AcDbEntity
  8
0
  6
Continuous
 62
     7
100
AcDbCircle
 10
126.8674230449
 20
228.0625026228
 30
0.0
 40
9.77570525809448
100
AcDbArc
 50
277.792211697968
 51
288.2481731201004
  0
ARC
  5
31A
330
44
100
AcDbEntity
  8
0
  6
Continuous
 62
     7
100
AcDbCircle
 10
156.7653637462
 20
158.3700464051
 30
0.0
 40
20.0
100
AcDbArc
 50
180.0
 51
219.9999999999997
  0
ARC
  5
31B
330
44
100
AcDbEntity
  8
0
  6
Continuous
 62
     7
100
AcDbCircle
 10
302.4392105831
 20
117.461730053
 30
0.0
 40
20.0
100
AcDbArc
 50
270.0
 51
320.0000000000003
  0
ARC
  5
31C
330
44
100
AcDbEntity
  8
0
  6
Continuous
 62
     7
100
AcDbCircle
 10
191.0915169093
 20
117.461730053
 30
0.0
 40
20.00000000000047
100
AcDbArc
 50
219.9999999999996
 51
270.0
  0
SPLINE
  5
31D
330
44
100
AcDbEntity
  8
0
  6
Continuous
 62
     7
100
AcDbSpline
210
0.0
220
0.0
230
1.0
 70
     8
 71
     3
 72
    13
 73
     9
 74
     7
 42
0.0000000001
 43
0.0000000001
 44
0.00000001
 40
0.0
 40
0.0
 40
0.0
 40
0.0
 40
15.82060774535635
 40
31.63993090390517
 40
38.0319611638681
 40
44.42245640679481
 40
51.56698702622283
 40
58.67667924903875
 40
58.67667924903875
 40
58.67667924903875
 40
58.67667924903875
 10
289.699412380783
 20
148.196922549532
 30
0.0
 10
287.1432079527278
 20
152.8176557794803
 30
0.0
 10
282.0310066528973
 20
162.058747049432
 30
0.0
 10
273.6470104729054
 20
171.7583167130815
 30
0.0
 10
266.1732864614893
 20
177.7178292317412
 30
0.0
 10
260.4177562494738
 20
181.0656757753565
 30
0.0
 10
253.8999831680992
 20
183.5221647347932
 30
0.0
 10
249.1396920498913
 20
183.8680216925864
 30
0.0
 10
246.7653637462
 20
184.040527521227
 30
0.0
 11
289.699412380783
 21
148.196922549532
 31
0.0
 11
281.5650870423202
 21
161.7661664754282
 31
0.0
 11
271.1084835234666
 21
173.6367363035408
 31
0.0
 11
266.0848955336882
 21
177.589155126646
 31
0.0
 11
260.5544363356583
 21
180.7910999276685
 31
0.0
 11
253.8236485074947
 21
183.1870992983255
 31
0.0
 11
246.7653637462
 21
184.040527521227
 31
0.0
  0
DIMENSION
  5
33E
330
44
100
AcDbEntity
  8
1
100
AcDbDimension
  2
*D2
 10
50.124400782313
 20
245.9612962645
 30
0.0
 11
43.124400782313
 21
171.407810764208
 31
0.0
 70
    32
  1
149
 71
     5
 42
-1.0
 53
90.0
  3
ME10_DIM_10
100
AcDbAlignedDimension
 13
191.0915174047
 23
97.4617344125
 33
0.0
 14
68.7653668681
 24
245.9612962645
 34
0.0
 50
90.0
100
AcDbRotatedDimension
  0
DIMENSION
  5
349
330
44
100
AcDbEntity
  8
1
100
AcDbDimension
  2
*D3
 10
172.7653615633
 20
334.602639978023
 30
0.0
 11
239.618660998596
 21
341.602639978023
 31
0.0
 70
    32
  1
150x150
 71
     5
 42
-1.0
 53
0.00013888888889
  3
ME10_DIM_11
100
AcDbAlignedDimension
 13
320.7653634707
 23
318.961296676
 33
0.0
 14
172.7653615633
 24
318.961296676
 34
0.0
100
AcDbRotatedDimension
  0
DIMENSION
  5
354
330
44
100
AcDbEntity
  8
1
100
AcDbDimension
  2
*D4
 10
66.765362815
 20
358.716246612028
 30
0.0
 11
245.472639416459
 21
365.716246612028
 31
0.0
 70
    32
  1
<>
 71
     5
 42
-1.0
 53
0.00013888888889
  3
ME10_DIM_12
100
AcDbAlignedDimension
 13
426.765362219
 23
243.9612962569
 33
0.0
 14
66.765362815
 24
243.9612962569
 34
0.0
100
AcDbRotatedDimension
  0
DIMENSION
  5
35F
330
44
100
AcDbEntity
  8
1
100
AcDbDimension
  2
*D5
 10
436.4531014156779
 20
106.6799242737757
 30
0.0
 11
431.0930774738457
 21
144.394332495234
 31
0.0
 70
    32
  1
<>
 71
     5
 42
-1.0
 53
87.50000270558412
  3
ME10_DIM_13
100
AcDbAlignedDimension
 13
407.8864403526
 23
182.9986315949
 33
0.0
 14
404.6149798194
 24
108.0700051768
 34
0.0
 50
87.50000270558412
100
AcDbRotatedDimension
  0
DIMENSION
  5
36A
330
44
100
AcDbEntity
  8
1
100
AcDbDimension
  2
*D6
 10
50.2049522255688
 20
245.9612962645
 30
0.0
 11
43.2049522255688
 21
283.47847755042
 31
0.0
 70
    32
  1
<>
 71
     5
 42
-1.0
 53
90.0
  3
ME10_DIM_14
100
AcDbAlignedDimension
 13
172.7653615633
 23
318.961296676
 33
0.0
 14
68.7653668681
 24
245.9612962645
 34
0.0
 50
90.0
100
AcDbRotatedDimension
  0
DIMENSION
  5
375
330
44
100
AcDbEntity
  8
1
100
AcDbDimension
  2
*D7
 10
246.7653637462
 20
71.6755867615899
 30
0.0
 11
328.383648227335
 21
78.6755867615899
 31
0.0
 70
    32
  1
<>
 71
     5
 42
-1.0
 53
0.00013888888889
  3
ME10_DIM_15
100
AcDbAlignedDimension
 13
411.8358739177
 23
181.7533713563
 33
0.0
 14
246.7653637462
 24
95.9502665186
 34
0.0
100
AcDbRotatedDimension
  0
HATCH
  5
376
330
44
100
AcDbEntity
  8
0
  6
Continuous
 62
     7
100
AcDbHatch
 10
0.0
 20
0.0
 30
0.0
210
0.0
220
0.0
230
1.0
  2
CUSTOM0
 70
     0
 71
     0
 91
        1
 92
        1
 93
        4
 72
     1
 10
120.265363746156
 20
242.461730053003
 11
108.770775262525
 21
242.461730053003
 72
     1
 10
108.770775262525
 20
242.461730053003
 11
108.770775262525
 21
224.461730053003
 72
     1
 10
108.770775262525
 20
224.461730053003
 11
120.265363746156
 21
224.461730053003
 72
     1
 10
120.265363746156
 20
224.461730053003
 11
120.265363746156
 21
242.461730053003
 97
        0
 75
     1
 76
     2
 52
0.0
 41
1.0
 77
     0
 78
     1
 53
44.99999999999998
 43
0.0
 44
0.0
 45
-4.490128060534577
 46
0.0000000000000018
 79
     0
 98
        1
 10
0.0
 20
0.0
  0
HATCH
  5
377
330
44
100
AcDbEntity
  8
0
  6
Continuous
 62
     7
100
AcDbHatch
 10
0.0
 20
0.0
 30
0.0
210
0.0
220
0.0
230
1.0
  2
CUSTOM1
 70
     0
 71
     0
 91
        1
 92
        1
 93
       27
 72
     1
 10
293.318096133126
 20
112.461730053003
 11
188.759978618481
 21
112.461730053003
 72
     1
 10
188.759978618481
 20
112.461730053003
 11
161.765363746156
 21
144.632659307793
 72
     1
 10
161.765363746156
 20
144.632659307793
 11
161.765363746156
 21
187.587295669703
 72
     1
 10
161.765363746156
 20
187.587295669703
 11
151.765363746156
 21
185.461730053003
 72
     1
 10
151.765363746156
 20
185.461730053003
 11
151.765363746156
 21
242.461730053003
 72
     1
 10
151.765363746156
 20
242.461730053003
 11
133.265363746156
 21
242.461730053003
 72
     1
 10
133.265363746156
 20
242.461730053003
 11
133.265363746156
 21
224.461730053003
 72
     1
 10
133.265363746156
 20
224.461730053003
 11
136.765363746156
 21
224.461730053003
 72
     1
 10
136.765363746156
 20
224.461730053003
 11
136.7653637462
 21
158.3700464051
 72
     1
 10
136.7653637462
 20
158.3700464051
 11
137.164032189331
 21
154.396659789165
 72
     1
 10
137.164032189331
 20
154.396659789165
 11
138.344143866098
 21
150.581679558894
 72
     1
 10
138.344143866098
 20
150.581679558894
 11
140.258651447962
 21
147.077196937166
 72
     1
 10
140.258651447962
 20
147.077196937166
 11
141.44447488382
 21
145.514294211369
 72
     1
 10
141.44447488382
 20
145.514294211369
 11
175.77062804692
 21
104.605977859269
 72
     1
 10
175.77062804692
 20
104.605977859269
 11
178.630069477613
 21
101.818446257444
 72
     1
 10
178.630069477613
 20
101.818446257444
 11
181.986309493078
 21
99.6545630153076
 72
     1
 10
181.986309493078
 20
99.6545630153076
 11
185.705545395083
 21
98.2005953291993
 72
     1
 10
185.705545395083
 20
98.2005953291993
 11
189.639502984942
 21
97.5145083025036
 72
     1
 10
189.639502984942
 20
97.5145083025036
 11
191.0915169093
 21
97.461730053
 72
     1
 10
191.0915169093
 20
97.461730053
 11
302.4392105831
 21
97.461730053
 72
     1
 10
302.4392105831
 20
97.461730053
 11
306.412597198958
 21
97.8603984961783
 72
     1
 10
306.412597198958
 20
97.8603984961783
 11
310.227577429229
 21
99.0405101729455
 72
     1
 10
310.227577429229
 20
99.0405101729455
 11
313.732060050957
 21
100.95501775481
 72
     1
 10
313.732060050957
 20
100.95501775481
 11
316.786332401047
 21
103.52759586606
 72
     1
 10
316.786332401047
 20
103.52759586606
 11
317.76009944548
 21
104.605977859269
 72
     1
 10
317.76009944548
 20
104.605977859269
 11
323.255090063933
 21
111.154652670138
 72
     1
 10
323.255090063933
 20
111.154652670138
 11
293.318096133126
 21
112.461730053003
 97
        0
 75
     1
 76
     2
 52
0.0
 41
1.0
 77
     0
 78
     1
 53
44.99999999999998
 43
0.0
 44
0.0
 45
-4.490128060534577
 46
0.0000000000000018
 79
     0
 98
        1
 10
0.0
 20
0.0
  0
HATCH
  5
378
330
44
100
AcDbEntity
  8
0
  6
Continuous
 62
     7
100
AcDbHatch
 10
0.0
 20
0.0
 30
0.0
210
0.0
220
0.0
230
1.0
  2
CUSTOM2
 70
     0
 71
     0
 91
        1
 92
        1
 93
        4
 72
     1
 10
341.765363746156
 20
186.418880740089
 11
356.765363746156
 21
185.763966596462
 72
     1
 10
356.765363746156
 20
185.763966596462
 11
356.765363746156
 21
242.461730053003
 72
     1
 10
356.765363746156
 20
242.461730053003
 11
341.765363746156
 21
242.461730053003
 72
     1
 10
341.765363746156
 20
242.461730053003
 11
341.765363746156
 21
186.418880740089
 97
        0
 75
     1
 76
     2
 52
0.0
 41
1.0
 77
     0
 78
     1
 53
44.99999999999998
 43
0.0
 44
0.0
 45
-4.490128060534577
 46
0.0000000000000018
 79
     0
 98
        1
 10
0.0
 20
0.0
  0
HATCH
  5
379
330
44
100
AcDbEntity
  8
0
  6
Continuous
 62
     7
100
AcDbHatch
 10
0.0
 20
0.0
 30
0.0
210
0.0
220
0.0
230
1.0
  2
CUSTOM3
 70
     0
 71
     0
 91
        1
 92
        1
 93
       43
 72
     1
 10
129.7653637462
 20
223.111730053
 11
129.765363746156
 21
238.861730053003
 72
     1
 10
129.765363746156
 20
238.861730053003
 11
123.765363746156
 21
238.861730053003
 72
     1
 10
123.765363746156
 20
238.861730053003
 11
123.7653637462
 21
223.111730053
 72
     1
 10
123.7653637462
 20
223.111730053
 11
123.760380390616
 21
223.062062720304
 72
     1
 10
123.760380390616
 20
223.062062720304
 11
123.745628994657
 21
223.014375467426
 72
     1
 10
123.745628994657
 20
223.014375467426
 11
123.721697649883
 21
222.970569434654
 72
     1
 10
123.721697649883
 20
222.970569434654
 11
123.689540423493
 21
222.932391030278
 72
     1
 10
123.689540423493
 20
222.932391030278
 11
123.650439322623
 21
222.901362306801
 72
     1
 10
123.650439322623
 20
222.901362306801
 11
123.605953184775
 21
222.878720281511
 72
     1
 10
123.605953184775
 20
222.878720281511
 11
123.557855531881
 21
222.865367620506
 72
     1
 10
123.557855531881
 20
222.865367620506
 11
123.5153637462
 21
222.861730053
 72
     1
 10
123.5153637462
 20
222.861730053
 11
120.765363746156
 21
222.861730053003
 72
     1
 10
120.765363746156
 20
222.861730053003
 11
120.7653637462
 21
220.5364468867
 72
     1
 10
120.7653637462
 20
220.5364468867
 11
120.776127794122
 21
220.429165448043
 72
     1
 10
120.776127794122
 20
220.429165448043
 11
120.807990809394
 21
220.326160981825
 72
     1
 10
120.807990809394
 20
220.326160981825
 11
120.859682514105
 21
220.231539951039
 72
     1
 10
120.859682514105
 20
220.231539951039
 11
120.929142123108
 21
220.149074597586
 72
     1
 10
120.929142123108
 20
220.149074597586
 11
120.993693555923
 21
220.09546877781
 72
     1
 10
120.993693555923
 20
220.09546877781
 11
122.731128356985
 21
219.111596456997
 72
     1
 10
122.731128356985
 20
219.111596456997
 11
123.632348176793
 21
218.765193134636
 72
     1
 10
123.632348176793
 20
218.765193134636
 11
125.122611331516
 21
221.721730053003
 72
     1
 10
125.122611331516
 20
221.721730053003
 11
125.484863746156
 21
221.721730053003
 72
     1
 10
125.484863746156
 20
221.721730053003
 11
126.765363746156
 21
222.137789724029
 72
     1
 10
126.765363746156
 20
222.137789724029
 11
128.045863746156
 21
221.721730053003
 72
     1
 10
128.045863746156
 20
221.721730053003
 11
128.408116160796
 21
221.721730053003
 72
     1
 10
128.408116160796
 20
221.721730053003
 11
129.898379315607
 21
218.765193134636
 72
     1
 10
129.898379315607
 20
218.765193134636
 11
131.722598228036
 21
219.576925720627
 72
     1
 10
131.722598228036
 20
219.576925720627
 11
132.537033936475
 21
220.09546877784
 72
     1
 10
132.537033936475
 20
220.09546877784
 11
132.618430108736
 21
220.166178288749
 72
     1
 10
132.618430108736
 20
220.166178288749
 11
132.684155965558
 21
220.251649240235
 72
     1
 10
132.684155965558
 20
220.251649240235
 11
132.731591224395
 21
220.348474175154
 72
     1
 10
132.731591224395
 20
220.348474175154
 11
132.758844791168
 21
220.452792988899
 72
     1
 10
132.758844791168
 20
220.452792988899
 11
132.7653637462
 21
220.5364468867
 72
     1
 10
132.7653637462
 20
220.5364468867
 11
132.765363746156
 21
222.861730053003
 72
     1
 10
132.765363746156
 20
222.861730053003
 11
130.0153637462
 21
222.861730053
 72
     1
 10
130.0153637462
 20
222.861730053
 11
129.965696413457
 21
222.866713408543
 72
     1
 10
129.965696413457
 20
222.866713408543
 11
129.918009160579
 21
222.881464804502
 72
     1
 10
129.918009160579
 20
222.881464804502
 11
129.874203127807
 21
222.905396149276
 72
     1
 10
129.874203127807
 20
222.905396149276
 11
129.836024723431
 21
222.937553375666
 72
     1
 10
129.836024723431
 20
222.937553375666
 11
129.804995999954
 21
222.976654476536
 72
     1
 10
129.804995999954
 20
222.976654476536
 11
129.782353974664
 21
223.021140614384
 72
     1
 10
129.782353974664
 20
223.021140614384
 11
129.769001313659
 21
223.069238267278
 72
     1
 10
129.769001313659
 20
223.069238267278
 11
129.7653637462
 21
223.111730053
 97
        0
 75
     1
 76
     2
 52
0.0
 41
1.0
 77
     0
 78
     1
 53
44.99999999999998
 43
0.0
 44
0.0
 45
-4.490128060534577
 46
0.0000000000000018
 79
     0
 98
        1
 10
0.0
 20
0.0
  0
HATCH
  5
37A
330
44
100
AcDbEntity
  8
0
  6
Continuous
 62
     7
100
AcDbHatch
 10
0.0
 20
0.0
 30
0.0
210
0.0
220
0.0
230
1.0
  2
CUSTOM4
 70
     0
 71
     0
 91
        1
 92
        1
 93
        4
 72
     1
 10
123.565363746156
 20
222.861730053003
 11
123.565363746156
 21
224.461730053003
 72
     1
 10
123.565363746156
 20
224.461730053003
 11
117.765363746156
 21
224.461730053003
 72
     1
 10
117.765363746156
 20
224.461730053003
 11
117.765363746156
 21
222.861730053003
 72
     1
 10
117.765363746156
 20
222.861730053003
 11
123.565363746156
 21
222.861730053003
 97
        0
 75
     1
 76
     2
 52
0.0
 41
1.0
 77
     0
 78
     1
 53
44.99999999999998
 43
0.0
 44
0.0
 45
-4.490128060534577
 46
0.0000000000000018
 79
     0
 98
        1
 10
0.0
 20
0.0
  0
HATCH
  5
37B
330
44
100
AcDbEntity
  8
0
  6
Continuous
 62
     7
100
AcDbHatch
 10
0.0
 20
0.0
 30
0.0
210
0.0
220
0.0
230
1.0
  2
CUSTOM5
 70
     0
 71
     0
 91
        1
 92
        1
 93
        4
 72
     1
 10
129.965363746156
 20
224.461730053003
 11
129.965363746156
 21
222.861730053003
 72
     1
 10
129.965363746156
 20
222.861730053003
 11
135.765363746156
 21
222.861730053003
 72
     1
 10
135.765363746156
 20
222.861730053003
 11
135.765363746156
 21
224.461730053003
 72
     1
 10
135.765363746156
 20
224.461730053003
 11
129.965363746156
 21
224.461730053003
 97
        0
 75
     1
 76
     2
 52
0.0
 41
1.0
 77
     0
 78
     1
 53
44.99999999999998
 43
0.0
 44
0.0
 45
-4.490128060534577
 46
0.0000000000000018
 79
     0
 98
        1
 10
0.0
 20
0.0
  0
HATCH
  5
37C
330
44
100
AcDbEntity
  8
0
  6
Continuous
 62
     7
100
AcDbHatch
 10
0.0
 20
0.0
 30
0.0
210
0.0
220
0.0
230
1.0
  2
CUSTOM6
 70
     0
 71
     0
 91
        1
 92
        1
 93
       24
 72
     1
 10
315.265363746156
 20
225.961296268697
 11
322.765363746156
 21
225.961296268697
 72
     1
 10
322.765363746156
 20
225.961296268697
 11
325.265363746156
 21
228.461296268697
 72
     1
 10
325.265363746156
 20
228.461296268697
 11
325.265363746156
 21
245.961296268697
 72
     1
 10
325.265363746156
 20
245.961296268697
 11
323.7653637462
 21
245.9612962687
 72
     1
 10
323.7653637462
 20
245.9612962687
 11
323.566694415361
 21
245.941362846538
 72
     1
 10
323.566694415361
 20
245.941362846538
 11
323.375945403847
 21
245.8823572627
 72
     1
 10
323.375945403847
 20
245.8823572627
 11
323.200721272761
 21
245.786631883606
 72
     1
 10
323.200721272761
 20
245.786631883606
 11
323.048007655257
 21
245.658002978044
 72
     1
 10
323.048007655257
 20
245.658002978044
 11
322.923892761348
 21
245.501598574565
 72
     1
 10
322.923892761348
 20
245.501598574565
 11
322.833324660189
 21
245.323654023173
 72
     1
 10
322.833324660189
 20
245.323654023173
 11
322.779914016168
 21
245.131263411597
 72
     1
 10
322.779914016168
 20
245.131263411597
 11
322.7653637462
 21
244.9612962687
 72
     1
 10
322.7653637462
 20
244.9612962687
 11
320.2242341959
 21
244.9612962687
 72
     1
 10
320.2242341959
 20
244.9612962687
 11
320.025564865098
 21
244.941362846538
 72
     1
 10
320.025564865098
 20
244.941362846538
 11
319.834815853585
 21
244.8823572627
 72
     1
 10
319.834815853585
 20
244.8823572627
 11
319.659591722498
 21
244.786631883606
 72
     1
 10
319.659591722498
 20
244.786631883606
 11
319.506878104994
 21
244.658002978044
 72
     1
 10
319.506878104994
 20
244.658002978044
 11
319.382763211086
 21
244.501598574565
 72
     1
 10
319.382763211086
 20
244.501598574565
 11
319.292195109926
 21
244.323654023173
 72
     1
 10
319.292195109926
 20
244.323654023173
 11
319.238784465905
 21
244.131263411597
 72
     1
 10
319.238784465905
 20
244.131263411597
 11
319.2242341959
 21
243.9612962687
 72
     1
 10
319.2242341959
 20
243.9612962687
 11
319.224234195893
 21
228.461296268697
 72
     1
 10
319.224234195893
 20
228.461296268697
 11
315.265363746156
 21
228.461296268697
 72
     1
 10
315.265363746156
 20
228.461296268697
 11
315.265363746156
 21
225.961296268697
 97
        0
 75
     1
 76
     2
 52
0.0
 41
1.0
 77
     0
 78
     1
 53
44.99999999999998
 43
0.0
 44
0.0
 45
-4.490128060534577
 46
0.0000000000000018
 79
     0
 98
        1
 10
0.0
 20
0.0
  0
HATCH
  5
37D
330
44
100
AcDbEntity
  8
0
  6
Continuous
 62
     7
100
AcDbHatch
 10
0.0
 20
0.0
 30
0.0
210
0.0
220
0.0
230
1.0
  2
CUSTOM7
 70
     0
 71
     0
 91
        1
 92
        1
 93
       24
 72
     1
 10
170.765363746156
 20
225.961296268697
 11
178.265363746156
 21
225.961296268697
 72
     1
 10
178.265363746156
 20
225.961296268697
 11
178.265363746156
 21
228.461296268697
 72
     1
 10
178.265363746156
 20
228.461296268697
 11
174.306493296418
 21
228.461296268697
 72
     1
 10
174.306493296418
 20
228.461296268697
 11
174.3064932964
 21
243.9612962687
 72
     1
 10
174.3064932964
 20
243.9612962687
 11
174.28655987426
 21
244.159965599492
 72
     1
 10
174.28655987426
 20
244.159965599492
 11
174.227554290421
 21
244.350714611005
 72
     1
 10
174.227554290421
 20
244.350714611005
 11
174.131828911328
 21
244.525938742092
 72
     1
 10
174.131828911328
 20
244.525938742092
 11
174.003200005766
 21
244.678652359596
 72
     1
 10
174.003200005766
 20
244.678652359596
 11
173.846795602287
 21
244.802767253505
 72
     1
 10
173.846795602287
 20
244.802767253505
 11
173.668851050895
 21
244.893335354664
 72
     1
 10
173.668851050895
 20
244.893335354664
 11
173.476460439319
 21
244.946745998685
 72
     1
 10
173.476460439319
 20
244.946745998685
 11
173.3064932964
 21
244.9612962687
 72
     1
 10
173.3064932964
 20
244.9612962687
 11
170.7653637462
 21
244.9612962687
 72
     1
 10
170.7653637462
 20
244.9612962687
 11
170.745430323997
 21
245.159965599492
 72
     1
 10
170.745430323997
 20
245.159965599492
 11
170.686424740159
 21
245.350714611005
 72
     1
 10
170.686424740159
 20
245.350714611005
 11
170.590699361066
 21
245.525938742092
 72
     1
 10
170.590699361066
 20
245.525938742092
 11
170.462070455503
 21
245.678652359596
 72
     1
 10
170.462070455503
 20
245.678652359596
 11
170.305666052024
 21
245.802767253505
 72
     1
 10
170.305666052024
 20
245.802767253505
 11
170.127721500633
 21
245.893335354664
 72
     1
 10
170.127721500633
 20
245.893335354664
 11
169.935330889056
 21
245.946745998685
 72
     1
 10
169.935330889056
 20
245.946745998685
 11
169.7653637462
 21
245.9612962687
 72
     1
 10
169.7653637462
 20
245.9612962687
 11
168.2653637462
 21
245.9612962687
 72
     1
 10
168.2653637462
 20
245.9612962687
 11
168.265363746156
 21
228.461296268697
 72
     1
 10
168.265363746156
 20
228.461296268697
 11
170.765363746156
 21
225.961296268697
 97
        0
 75
     1
 76
     2
 52
0.0
 41
1.0
 77
     0
 78
     1
 53
44.99999999999998
 43
0.0
 44
0.0
 45
-4.490128060534577
 46
0.0000000000000018
 79
     0
 98
        1
 10
0.0
 20
0.0
  0
HATCH
  5
37E
330
44
100
AcDbEntity
  8
0
  6
Continuous
 62
     7
100
AcDbHatch
 10
0.0
 20
0.0
 30
0.0
210
0.0
220
0.0
230
1.0
  2
CUSTOM8
 70
     0
 71
     0
 91
        1
 92
        1
 93
      482
 72
     1
 10
174.2653637462
 20
289.4612962687
 11
174.2653637462
 21
288.4612962687
 72
     1
 10
174.2653637462
 20
288.4612962687
 11
174.275330457235
 21
288.361961603299
 72
     1
 10
174.275330457235
 20
288.361961603299
 11
174.304833249154
 21
288.266587097543
 72
     1
 10
174.304833249154
 20
288.266587097543
 11
174.352695938701
 21
288.178975031999
 72
     1
 10
174.352695938701
 20
288.178975031999
 11
174.417010391482
 21
288.102618223247
 72
     1
 10
174.417010391482
 20
288.102618223247
 11
174.495212593222
 21
288.040560776293
 72
     1
 10
174.495212593222
 20
288.040560776293
 11
174.584184868918
 21
287.995276725713
 72
     1
 10
174.584184868918
 20
287.995276725713
 11
174.680380174706
 21
287.968571403703
 72
     1
 10
174.680380174706
 20
287.968571403703
 11
174.7653637462
 21
287.9612962687
 72
     1
 10
174.7653637462
 20
287.9612962687
 11
175.01370040965
 21
287.936379490998
 72
     1
 10
175.01370040965
 20
287.936379490998
 11
175.252136674042
 21
287.862622511201
 72
     1
 10
175.252136674042
 20
287.862622511201
 11
175.4711668379
 21
287.742965787334
 72
     1
 10
175.4711668379
 20
287.742965787334
 11
175.66205885978
 21
287.582179655381
 72
     1
 10
175.66205885978
 20
287.582179655381
 11
175.817202477166
 21
287.386674151032
 72
     1
 10
175.817202477166
 20
287.386674151032
 11
175.930412603615
 21
287.164243461793
 72
     1
 10
175.930412603615
 20
287.164243461793
 11
175.997175908641
 21
286.923755197322
 72
     1
 10
175.997175908641
 20
286.923755197322
 11
176.014830749958
 21
286.67479686582
 72
     1
 10
176.014830749958
 20
286.67479686582
 11
175.982673284754
 21
286.427293650331
 72
     1
 10
175.982673284754
 20
286.427293650331
 11
175.901985529688
 21
286.191112723013
 72
     1
 10
175.901985529688
 20
286.191112723013
 11
175.77598425093
 21
285.975669872128
 72
     1
 10
175.77598425093
 20
285.975669872128
 11
175.609692721845
 21
285.78955412427
 72
     1
 10
175.609692721845
 20
285.78955412427
 11
175.409740460933
 21
285.640185326986
 72
     1
 10
175.409740460933
 20
285.640185326986
 11
175.184098933851
 21
285.533518342861
 72
     1
 10
175.184098933851
 20
285.533518342861
 11
174.941763756231
 21
285.473805647946
 72
     1
 10
174.941763756231
 20
285.473805647946
 11
174.7653637462
 21
285.4612962687
 72
     1
 10
174.7653637462
 20
285.4612962687
 11
174.666029080758
 21
285.451329557617
 72
     1
 10
174.666029080758
 20
285.451329557617
 11
174.570654575002
 21
285.421826765698
 72
     1
 10
174.570654575002
 20
285.421826765698
 11
174.483042509458
 21
285.373964076152
 72
     1
 10
174.483042509458
 20
285.373964076152
 11
174.406685700706
 21
285.30964962337
 72
     1
 10
174.406685700706
 20
285.30964962337
 11
174.344628253752
 21
285.231447421631
 72
     1
 10
174.344628253752
 20
285.231447421631
 11
174.299344203172
 21
285.142475145935
 72
     1
 10
174.299344203172
 20
285.142475145935
 11
174.272638881162
 21
285.046279840147
 72
     1
 10
174.272638881162
 20
285.046279840147
 11
174.2653637462
 21
284.9612962687
 72
     1
 10
174.2653637462
 20
284.9612962687
 11
174.2653637462
 21
283.9612962687
 72
     1
 10
174.2653637462
 20
283.9612962687
 11
174.275330457235
 21
283.861961603299
 72
     1
 10
174.275330457235
 20
283.861961603299
 11
174.304833249154
 21
283.766587097543
 72
     1
 10
174.304833249154
 20
283.766587097543
 11
174.352695938701
 21
283.678975031999
 72
     1
 10
174.352695938701
 20
283.678975031999
 11
174.417010391482
 21
283.602618223247
 72
     1
 10
174.417010391482
 20
283.602618223247
 11
174.495212593222
 21
283.540560776293
 72
     1
 10
174.495212593222
 20
283.540560776293
 11
174.584184868918
 21
283.495276725713
 72
     1
 10
174.584184868918
 20
283.495276725713
 11
174.680380174706
 21
283.468571403703
 72
     1
 10
174.680380174706
 20
283.468571403703
 11
174.7653637462
 21
283.4612962687
 72
     1
 10
174.7653637462
 20
283.4612962687
 11
175.01370040965
 21
283.436379490998
 72
     1
 10
175.01370040965
 20
283.436379490998
 11
175.252136674042
 21
283.3626225112
 72
     1
 10
175.252136674042
 20
283.3626225112
 11
175.4711668379
 21
283.242965787334
 72
     1
 10
175.4711668379
 20
283.242965787334
 11
175.66205885978
 21
283.082179655381
 72
     1
 10
175.66205885978
 20
283.082179655381
 11
175.817202477166
 21
282.886674151032
 72
     1
 10
175.817202477166
 20
282.886674151032
 11
175.930412603615
 21
282.664243461793
 72
     1
 10
175.930412603615
 20
282.664243461793
 11
175.997175908641
 21
282.423755197322
 72
     1
 10
175.997175908641
 20
282.423755197322
 11
176.014830749958
 21
282.17479686582
 72
     1
 10
176.014830749958
 20
282.17479686582
 11
175.982673284754
 21
281.92729365033
 72
     1
 10
175.982673284754
 20
281.92729365033
 11
175.901985529688
 21
281.691112723013
 72
     1
 10
175.901985529688
 20
281.691112723013
 11
175.77598425093
 21
281.475669872128
 72
     1
 10
175.77598425093
 20
281.475669872128
 11
175.609692721845
 21
281.28955412427
 72
     1
 10
175.609692721845
 20
281.28955412427
 11
175.409740460933
 21
281.140185326986
 72
     1
 10
175.409740460933
 20
281.140185326986
 11
175.184098933851
 21
281.033518342861
 72
     1
 10
175.184098933851
 20
281.033518342861
 11
174.941763756231
 21
280.973805647946
 72
     1
 10
174.941763756231
 20
280.973805647946
 11
174.7653637462
 21
280.9612962687
 72
     1
 10
174.7653637462
 20
280.9612962687
 11
174.666029080758
 21
280.951329557618
 72
     1
 10
174.666029080758
 20
280.951329557618
 11
174.570654575002
 21
280.921826765698
 72
     1
 10
174.570654575002
 20
280.921826765698
 11
174.483042509458
 21
280.873964076152
 72
     1
 10
174.483042509458
 20
280.873964076152
 11
174.406685700706
 21
280.809649623371
 72
     1
 10
174.406685700706
 20
280.809649623371
 11
174.344628253752
 21
280.731447421631
 72
     1
 10
174.344628253752
 20
280.731447421631
 11
174.299344203172
 21
280.642475145935
 72
     1
 10
174.299344203172
 20
280.642475145935
 11
174.272638881162
 21
280.546279840147
 72
     1
 10
174.272638881162
 20
280.546279840147
 11
174.2653637462
 21
280.4612962687
 72
     1
 10
174.2653637462
 20
280.4612962687
 11
174.2653637462
 21
279.4612962687
 72
     1
 10
174.2653637462
 20
279.4612962687
 11
174.275330457235
 21
279.361961603299
 72
     1
 10
174.275330457235
 20
279.361961603299
 11
174.304833249154
 21
279.266587097543
 72
     1
 10
174.304833249154
 20
279.266587097543
 11
174.352695938701
 21
279.178975031999
 72
     1
 10
174.352695938701
 20
279.178975031999
 11
174.417010391482
 21
279.102618223247
 72
     1
 10
174.417010391482
 20
279.102618223247
 11
174.495212593222
 21
279.040560776293
 72
     1
 10
174.495212593222
 20
279.040560776293
 11
174.584184868917
 21
278.995276725713
 72
     1
 10
174.584184868917
 20
278.995276725713
 11
174.680380174706
 21
278.968571403703
 72
     1
 10
174.680380174706
 20
278.968571403703
 11
174.7653637462
 21
278.9612962687
 72
     1
 10
174.7653637462
 20
278.9612962687
 11
175.01370040965
 21
278.936379490998
 72
     1
 10
175.01370040965
 20
278.936379490998
 11
175.252136674042
 21
278.862622511201
 72
     1
 10
175.252136674042
 20
278.862622511201
 11
175.4711668379
 21
278.742965787334
 72
     1
 10
175.4711668379
 20
278.742965787334
 11
175.66205885978
 21
278.582179655381
 72
     1
 10
175.66205885978
 20
278.582179655381
 11
175.817202477166
 21
278.386674151032
 72
     1
 10
175.817202477166
 20
278.386674151032
 11
175.930412603615
 21
278.164243461793
 72
     1
 10
175.930412603615
 20
278.164243461793
 11
175.997175908641
 21
277.923755197322
 72
     1
 10
175.997175908641
 20
277.923755197322
 11
176.014830749958
 21
277.67479686582
 72
     1
 10
176.014830749958
 20
277.67479686582
 11
175.982673284754
 21
277.427293650331
 72
     1
 10
175.982673284754
 20
277.427293650331
 11
175.901985529688
 21
277.191112723013
 72
     1
 10
175.901985529688
 20
277.191112723013
 11
175.77598425093
 21
276.975669872128
 72
     1
 10
175.77598425093
 20
276.975669872128
 11
175.609692721845
 21
276.78955412427
 72
     1
 10
175.609692721845
 20
276.78955412427
 11
175.409740460933
 21
276.640185326986
 72
     1
 10
175.409740460933
 20
276.640185326986
 11
175.184098933851
 21
276.533518342861
 72
     1
 10
175.184098933851
 20
276.533518342861
 11
174.941763756231
 21
276.473805647946
 72
     1
 10
174.941763756231
 20
276.473805647946
 11
174.7653637462
 21
276.4612962687
 72
     1
 10
174.7653637462
 20
276.4612962687
 11
174.666029080758
 21
276.451329557617
 72
     1
 10
174.666029080758
 20
276.451329557617
 11
174.570654575001
 21
276.421826765698
 72
     1
 10
174.570654575001
 20
276.421826765698
 11
174.483042509458
 21
276.373964076152
 72
     1
 10
174.483042509458
 20
276.373964076152
 11
174.406685700706
 21
276.30964962337
 72
     1
 10
174.406685700706
 20
276.30964962337
 11
174.344628253752
 21
276.231447421631
 72
     1
 10
174.344628253752
 20
276.231447421631
 11
174.299344203172
 21
276.142475145935
 72
     1
 10
174.299344203172
 20
276.142475145935
 11
174.272638881162
 21
276.046279840147
 72
     1
 10
174.272638881162
 20
276.046279840147
 11
174.2653637462
 21
275.9612962687
 72
     1
 10
174.2653637462
 20
275.9612962687
 11
174.2653637462
 21
274.9612962687
 72
     1
 10
174.2653637462
 20
274.9612962687
 11
174.275330457235
 21
274.861961603299
 72
     1
 10
174.275330457235
 20
274.861961603299
 11
174.304833249154
 21
274.766587097543
 72
     1
 10
174.304833249154
 20
274.766587097543
 11
174.352695938701
 21
274.678975031999
 72
     1
 10
174.352695938701
 20
274.678975031999
 11
174.417010391482
 21
274.602618223247
 72
     1
 10
174.417010391482
 20
274.602618223247
 11
174.495212593222
 21
274.540560776293
 72
     1
 10
174.495212593222
 20
274.540560776293
 11
174.584184868917
 21
274.495276725713
 72
     1
 10
174.584184868917
 20
274.495276725713
 11
174.680380174706
 21
274.468571403703
 72
     1
 10
174.680380174706
 20
274.468571403703
 11
174.7653637462
 21
274.4612962687
 72
     1
 10
174.7653637462
 20
274.4612962687
 11
175.01370040965
 21
274.436379490998
 72
     1
 10
175.01370040965
 20
274.436379490998
 11
175.252136674042
 21
274.3626225112
 72
     1
 10
175.252136674042
 20
274.3626225112
 11
175.4711668379
 21
274.242965787334
 72
     1
 10
175.4711668379
 20
274.242965787334
 11
175.66205885978
 21
274.082179655381
 72
     1
 10
175.66205885978
 20
274.082179655381
 11
175.817202477166
 21
273.886674151032
 72
     1
 10
175.817202477166
 20
273.886674151032
 11
175.930412603615
 21
273.664243461793
 72
     1
 10
175.930412603615
 20
273.664243461793
 11
175.997175908641
 21
273.423755197322
 72
     1
 10
175.997175908641
 20
273.423755197322
 11
176.014830749958
 21
273.17479686582
 72
     1
 10
176.014830749958
 20
273.17479686582
 11
175.982673284754
 21
272.92729365033
 72
     1
 10
175.982673284754
 20
272.92729365033
 11
175.901985529688
 21
272.691112723013
 72
     1
 10
175.901985529688
 20
272.691112723013
 11
175.77598425093
 21
272.475669872128
 72
     1
 10
175.77598425093
 20
272.475669872128
 11
175.609692721845
 21
272.28955412427
 72
     1
 10
175.609692721845
 20
272.28955412427
 11
175.409740460933
 21
272.140185326986
 72
     1
 10
175.409740460933
 20
272.140185326986
 11
175.184098933851
 21
272.033518342861
 72
     1
 10
175.184098933851
 20
272.033518342861
 11
174.941763756231
 21
271.973805647946
 72
     1
 10
174.941763756231
 20
271.973805647946
 11
174.7653637462
 21
271.9612962687
 72
     1
 10
174.7653637462
 20
271.9612962687
 11
174.666029080758
 21
271.951329557618
 72
     1
 10
174.666029080758
 20
271.951329557618
 11
174.570654575001
 21
271.921826765698
 72
     1
 10
174.570654575001
 20
271.921826765698
 11
174.483042509458
 21
271.873964076152
 72
     1
 10
174.483042509458
 20
271.873964076152
 11
174.406685700706
 21
271.80964962337
 72
     1
 10
174.406685700706
 20
271.80964962337
 11
174.344628253752
 21
271.731447421631
 72
     1
 10
174.344628253752
 20
271.731447421631
 11
174.299344203172
 21
271.642475145935
 72
     1
 10
174.299344203172
 20
271.642475145935
 11
174.272638881162
 21
271.546279840147
 72
     1
 10
174.272638881162
 20
271.546279840147
 11
174.2653637462
 21
271.4612962687
 72
     1
 10
174.2653637462
 20
271.4612962687
 11
174.2653637462
 21
270.4612962687
 72
     1
 10
174.2653637462
 20
270.4612962687
 11
174.275330457235
 21
270.361961603299
 72
     1
 10
174.275330457235
 20
270.361961603299
 11
174.304833249154
 21
270.266587097543
 72
     1
 10
174.304833249154
 20
270.266587097543
 11
174.352695938701
 21
270.178975031999
 72
     1
 10
174.352695938701
 20
270.178975031999
 11
174.417010391482
 21
270.102618223247
 72
     1
 10
174.417010391482
 20
270.102618223247
 11
174.495212593222
 21
270.040560776293
 72
     1
 10
174.495212593222
 20
270.040560776293
 11
174.584184868917
 21
269.995276725713
 72
     1
 10
174.584184868917
 20
269.995276725713
 11
174.680380174706
 21
269.968571403703
 72
     1
 10
174.680380174706
 20
269.968571403703
 11
174.7653637462
 21
269.9612962687
 72
     1
 10
174.7653637462
 20
269.9612962687
 11
175.01370040965
 21
269.936379490998
 72
     1
 10
175.01370040965
 20
269.936379490998
 11
175.252136674042
 21
269.862622511201
 72
     1
 10
175.252136674042
 20
269.862622511201
 11
175.4711668379
 21
269.742965787334
 72
     1
 10
175.4711668379
 20
269.742965787334
 11
175.66205885978
 21
269.582179655381
 72
     1
 10
175.66205885978
 20
269.582179655381
 11
175.817202477166
 21
269.386674151032
 72
     1
 10
175.817202477166
 20
269.386674151032
 11
175.930412603615
 21
269.164243461793
 72
     1
 10
175.930412603615
 20
269.164243461793
 11
175.997175908641
 21
268.923755197322
 72
     1
 10
175.997175908641
 20
268.923755197322
 11
176.014830749958
 21
268.67479686582
 72
     1
 10
176.014830749958
 20
268.67479686582
 11
175.982673284754
 21
268.427293650331
 72
     1
 10
175.982673284754
 20
268.427293650331
 11
175.901985529688
 21
268.191112723013
 72
     1
 10
175.901985529688
 20
268.191112723013
 11
175.77598425093
 21
267.975669872128
 72
     1
 10
175.77598425093
 20
267.975669872128
 11
175.609692721845
 21
267.78955412427
 72
     1
 10
175.609692721845
 20
267.78955412427
 11
175.409740460933
 21
267.640185326986
 72
     1
 10
175.409740460933
 20
267.640185326986
 11
175.184098933851
 21
267.533518342861
 72
     1
 10
175.184098933851
 20
267.533518342861
 11
174.941763756231
 21
267.473805647946
 72
     1
 10
174.941763756231
 20
267.473805647946
 11
174.7653637462
 21
267.4612962687
 72
     1
 10
174.7653637462
 20
267.4612962687
 11
174.666029080758
 21
267.451329557617
 72
     1
 10
174.666029080758
 20
267.451329557617
 11
174.570654575001
 21
267.421826765698
 72
     1
 10
174.570654575001
 20
267.421826765698
 11
174.483042509458
 21
267.373964076152
 72
     1
 10
174.483042509458
 20
267.373964076152
 11
174.406685700706
 21
267.30964962337
 72
     1
 10
174.406685700706
 20
267.30964962337
 11
174.344628253752
 21
267.231447421631
 72
     1
 10
174.344628253752
 20
267.231447421631
 11
174.299344203172
 21
267.142475145935
 72
     1
 10
174.299344203172
 20
267.142475145935
 11
174.272638881162
 21
267.046279840147
 72
     1
 10
174.272638881162
 20
267.046279840147
 11
174.2653637462
 21
266.9612962687
 72
     1
 10
174.2653637462
 20
266.9612962687
 11
174.2653637462
 21
265.9612962687
 72
     1
 10
174.2653637462
 20
265.9612962687
 11
174.275330457235
 21
265.861961603299
 72
     1
 10
174.275330457235
 20
265.861961603299
 11
174.304833249154
 21
265.766587097542
 72
     1
 10
174.304833249154
 20
265.766587097542
 11
174.352695938701
 21
265.678975031999
 72
     1
 10
174.352695938701
 20
265.678975031999
 11
174.417010391482
 21
265.602618223247
 72
     1
 10
174.417010391482
 20
265.602618223247
 11
174.495212593222
 21
265.540560776293
 72
     1
 10
174.495212593222
 20
265.540560776293
 11
174.584184868917
 21
265.495276725713
 72
     1
 10
174.584184868917
 20
265.495276725713
 11
174.680380174706
 21
265.468571403703
 72
     1
 10
174.680380174706
 20
265.468571403703
 11
174.7653637462
 21
265.4612962687
 72
     1
 10
174.7653637462
 20
265.4612962687
 11
175.01370040965
 21
265.436379490998
 72
     1
 10
175.01370040965
 20
265.436379490998
 11
175.252136674042
 21
265.362622511201
 72
     1
 10
175.252136674042
 20
265.362622511201
 11
175.4711668379
 21
265.242965787334
 72
     1
 10
175.4711668379
 20
265.242965787334
 11
175.66205885978
 21
265.082179655381
 72
     1
 10
175.66205885978
 20
265.082179655381
 11
175.817202477166
 21
264.886674151032
 72
     1
 10
175.817202477166
 20
264.886674151032
 11
175.930412603615
 21
264.664243461793
 72
     1
 10
175.930412603615
 20
264.664243461793
 11
175.997175908641
 21
264.423755197322
 72
     1
 10
175.997175908641
 20
264.423755197322
 11
176.014830749958
 21
264.17479686582
 72
     1
 10
176.014830749958
 20
264.17479686582
 11
175.982673284754
 21
263.927293650331
 72
     1
 10
175.982673284754
 20
263.927293650331
 11
175.901985529688
 21
263.691112723013
 72
     1
 10
175.901985529688
 20
263.691112723013
 11
175.77598425093
 21
263.475669872128
 72
     1
 10
175.77598425093
 20
263.475669872128
 11
175.609692721845
 21
263.28955412427
 72
     1
 10
175.609692721845
 20
263.28955412427
 11
175.409740460933
 21
263.140185326986
 72
     1
 10
175.409740460933
 20
263.140185326986
 11
175.184098933851
 21
263.033518342861
 72
     1
 10
175.184098933851
 20
263.033518342861
 11
174.941763756231
 21
262.973805647946
 72
     1
 10
174.941763756231
 20
262.973805647946
 11
174.7653637462
 21
262.9612962687
 72
     1
 10
174.7653637462
 20
262.9612962687
 11
174.666029080758
 21
262.951329557617
 72
     1
 10
174.666029080758
 20
262.951329557617
 11
174.570654575001
 21
262.921826765698
 72
     1
 10
174.570654575001
 20
262.921826765698
 11
174.483042509458
 21
262.873964076152
 72
     1
 10
174.483042509458
 20
262.873964076152
 11
174.406685700706
 21
262.80964962337
 72
     1
 10
174.406685700706
 20
262.80964962337
 11
174.344628253752
 21
262.731447421631
 72
     1
 10
174.344628253752
 20
262.731447421631
 11
174.299344203172
 21
262.642475145935
 72
     1
 10
174.299344203172
 20
262.642475145935
 11
174.272638881161
 21
262.546279840147
 72
     1
 10
174.272638881161
 20
262.546279840147
 11
174.2653637462
 21
262.4612962687
 72
     1
 10
174.2653637462
 20
262.4612962687
 11
174.2653637462
 21
261.4612962687
 72
     1
 10
174.2653637462
 20
261.4612962687
 11
174.275330457235
 21
261.361961603299
 72
     1
 10
174.275330457235
 20
261.361961603299
 11
174.304833249154
 21
261.266587097543
 72
     1
 10
174.304833249154
 20
261.266587097543
 11
174.352695938701
 21
261.178975031999
 72
     1
 10
174.352695938701
 20
261.178975031999
 11
174.417010391482
 21
261.102618223247
 72
     1
 10
174.417010391482
 20
261.102618223247
 11
174.495212593222
 21
261.040560776293
 72
     1
 10
174.495212593222
 20
261.040560776293
 11
174.584184868917
 21
260.995276725713
 72
     1
 10
174.584184868917
 20
260.995276725713
 11
174.680380174706
 21
260.968571403703
 72
     1
 10
174.680380174706
 20
260.968571403703
 11
174.7653637462
 21
260.9612962687
 72
     1
 10
174.7653637462
 20
260.9612962687
 11
175.01370040965
 21
260.936379490998
 72
     1
 10
175.01370040965
 20
260.936379490998
 11
175.252136674042
 21
260.8626225112
 72
     1
 10
175.252136674042
 20
260.8626225112
 11
175.4711668379
 21
260.742965787334
 72
     1
 10
175.4711668379
 20
260.742965787334
 11
175.66205885978
 21
260.582179655381
 72
     1
 10
175.66205885978
 20
260.582179655381
 11
175.817202477166
 21
260.386674151032
 72
     1
 10
175.817202477166
 20
260.386674151032
 11
175.930412603615
 21
260.164243461793
 72
     1
 10
175.930412603615
 20
260.164243461793
 11
175.997175908641
 21
259.923755197322
 72
     1
 10
175.997175908641
 20
259.923755197322
 11
176.014830749958
 21
259.67479686582
 72
     1
 10
176.014830749958
 20
259.67479686582
 11
175.982673284753
 21
259.42729365033
 72
     1
 10
175.982673284753
 20
259.42729365033
 11
175.901985529688
 21
259.191112723013
 72
     1
 10
175.901985529688
 20
259.191112723013
 11
175.77598425093
 21
258.975669872128
 72
     1
 10
175.77598425093
 20
258.975669872128
 11
175.609692721845
 21
258.78955412427
 72
     1
 10
175.609692721845
 20
258.78955412427
 11
175.409740460933
 21
258.640185326986
 72
     1
 10
175.409740460933
 20
258.640185326986
 11
175.184098933851
 21
258.533518342861
 72
     1
 10
175.184098933851
 20
258.533518342861
 11
174.941763756231
 21
258.473805647946
 72
     1
 10
174.941763756231
 20
258.473805647946
 11
174.7653637462
 21
258.4612962687
 72
     1
 10
174.7653637462
 20
258.4612962687
 11
174.666029080758
 21
258.451329557617
 72
     1
 10
174.666029080758
 20
258.451329557617
 11
174.570654575001
 21
258.421826765698
 72
     1
 10
174.570654575001
 20
258.421826765698
 11
174.483042509458
 21
258.373964076152
 72
     1
 10
174.483042509458
 20
258.373964076152
 11
174.406685700706
 21
258.30964962337
 72
     1
 10
174.406685700706
 20
258.30964962337
 11
174.344628253752
 21
258.231447421631
 72
     1
 10
174.344628253752
 20
258.231447421631
 11
174.299344203172
 21
258.142475145935
 72
     1
 10
174.299344203172
 20
258.142475145935
 11
174.272638881161
 21
258.046279840147
 72
     1
 10
174.272638881161
 20
258.046279840147
 11
174.2653637462
 21
257.9612962687
 72
     1
 10
174.2653637462
 20
257.9612962687
 11
174.2653637462
 21
256.9612962687
 72
     1
 10
174.2653637462
 20
256.9612962687
 11
174.275330457235
 21
256.861961603299
 72
     1
 10
174.275330457235
 20
256.861961603299
 11
174.304833249154
 21
256.766587097542
 72
     1
 10
174.304833249154
 20
256.766587097542
 11
174.352695938701
 21
256.678975031999
 72
     1
 10
174.352695938701
 20
256.678975031999
 11
174.417010391482
 21
256.602618223247
 72
     1
 10
174.417010391482
 20
256.602618223247
 11
174.495212593222
 21
256.540560776293
 72
     1
 10
174.495212593222
 20
256.540560776293
 11
174.584184868917
 21
256.495276725713
 72
     1
 10
174.584184868917
 20
256.495276725713
 11
174.680380174706
 21
256.468571403703
 72
     1
 10
174.680380174706
 20
256.468571403703
 11
174.7653637462
 21
256.4612962687
 72
     1
 10
174.7653637462
 20
256.4612962687
 11
175.01370040965
 21
256.436379490998
 72
     1
 10
175.01370040965
 20
256.436379490998
 11
175.252136674042
 21
256.3626225112
 72
     1
 10
175.252136674042
 20
256.3626225112
 11
175.4711668379
 21
256.242965787334
 72
     1
 10
175.4711668379
 20
256.242965787334
 11
175.66205885978
 21
256.082179655381
 72
     1
 10
175.66205885978
 20
256.082179655381
 11
175.817202477166
 21
255.886674151032
 72
     1
 10
175.817202477166
 20
255.886674151032
 11
175.930412603615
 21
255.664243461793
 72
     1
 10
175.930412603615
 20
255.664243461793
 11
175.997175908641
 21
255.423755197322
 72
     1
 10
175.997175908641
 20
255.423755197322
 11
176.014830749958
 21
255.17479686582
 72
     1
 10
176.014830749958
 20
255.17479686582
 11
175.982673284753
 21
254.92729365033
 72
     1
 10
175.982673284753
 20
254.92729365033
 11
175.901985529688
 21
254.691112723013
 72
     1
 10
175.901985529688
 20
254.691112723013
 11
175.77598425093
 21
254.475669872128
 72
     1
 10
175.77598425093
 20
254.475669872128
 11
175.609692721845
 21
254.28955412427
 72
     1
 10
175.609692721845
 20
254.28955412427
 11
175.409740460932
 21
254.140185326986
 72
     1
 10
175.409740460932
 20
254.140185326986
 11
175.184098933851
 21
254.033518342861
 72
     1
 10
175.184098933851
 20
254.033518342861
 11
174.94176375623
 21
253.973805647946
 72
     1
 10
174.94176375623
 20
253.973805647946
 11
174.7653637462
 21
253.9612962687
 72
     1
 10
174.7653637462
 20
253.9612962687
 11
174.666029080758
 21
253.951329557618
 72
     1
 10
174.666029080758
 20
253.951329557618
 11
174.570654575001
 21
253.921826765698
 72
     1
 10
174.570654575001
 20
253.921826765698
 11
174.483042509458
 21
253.873964076152
 72
     1
 10
174.483042509458
 20
253.873964076152
 11
174.406685700706
 21
253.80964962337
 72
     1
 10
174.406685700706
 20
253.80964962337
 11
174.344628253752
 21
253.731447421631
 72
     1
 10
174.344628253752
 20
253.731447421631
 11
174.299344203172
 21
253.642475145935
 72
     1
 10
174.299344203172
 20
253.642475145935
 11
174.272638881162
 21
253.546279840147
 72
     1
 10
174.272638881162
 20
253.546279840147
 11
174.2653637462
 21
253.4612962687
 72
     1
 10
174.2653637462
 20
253.4612962687
 11
174.2653637462
 21
252.4612962687
 72
     1
 10
174.2653637462
 20
252.4612962687
 11
174.275330457235
 21
252.361961603299
 72
     1
 10
174.275330457235
 20
252.361961603299
 11
174.304833249154
 21
252.266587097542
 72
     1
 10
174.304833249154
 20
252.266587097542
 11
174.352695938701
 21
252.178975031999
 72
     1
 10
174.352695938701
 20
252.178975031999
 11
174.417010391482
 21
252.102618223247
 72
     1
 10
174.417010391482
 20
252.102618223247
 11
174.495212593222
 21
252.040560776293
 72
     1
 10
174.495212593222
 20
252.040560776293
 11
174.584184868917
 21
251.995276725713
 72
     1
 10
174.584184868917
 20
251.995276725713
 11
174.680380174706
 21
251.968571403703
 72
     1
 10
174.680380174706
 20
251.968571403703
 11
174.7653637462
 21
251.9612962687
 72
     1
 10
174.7653637462
 20
251.9612962687
 11
175.01370040965
 21
251.936379490998
 72
     1
 10
175.01370040965
 20
251.936379490998
 11
175.252136674041
 21
251.862622511201
 72
     1
 10
175.252136674041
 20
251.862622511201
 11
175.471166837899
 21
251.742965787334
 72
     1
 10
175.471166837899
 20
251.742965787334
 11
175.66205885978
 21
251.582179655381
 72
     1
 10
175.66205885978
 20
251.582179655381
 11
175.817202477166
 21
251.386674151032
 72
     1
 10
175.817202477166
 20
251.386674151032
 11
175.930412603615
 21
251.164243461793
 72
     1
 10
175.930412603615
 20
251.164243461793
 11
175.997175908641
 21
250.923755197322
 72
     1
 10
175.997175908641
 20
250.923755197322
 11
176.014830749958
 21
250.67479686582
 72
     1
 10
176.014830749958
 20
250.67479686582
 11
175.982673284753
 21
250.427293650331
 72
     1
 10
175.982673284753
 20
250.427293650331
 11
175.901985529688
 21
250.191112723013
 72
     1
 10
175.901985529688
 20
250.191112723013
 11
175.77598425093
 21
249.975669872128
 72
     1
 10
175.77598425093
 20
249.975669872128
 11
175.609692721845
 21
249.78955412427
 72
     1
 10
175.609692721845
 20
249.78955412427
 11
175.409740460933
 21
249.640185326986
 72
     1
 10
175.409740460933
 20
249.640185326986
 11
175.184098933851
 21
249.533518342861
 72
     1
 10
175.184098933851
 20
249.533518342861
 11
174.941763756231
 21
249.473805647946
 72
     1
 10
174.941763756231
 20
249.473805647946
 11
174.7653637462
 21
249.4612962687
 72
     1
 10
174.7653637462
 20
249.4612962687
 11
174.666029080758
 21
249.451329557617
 72
     1
 10
174.666029080758
 20
249.451329557617
 11
174.570654575001
 21
249.421826765698
 72
     1
 10
174.570654575001
 20
249.421826765698
 11
174.483042509458
 21
249.373964076152
 72
     1
 10
174.483042509458
 20
249.373964076152
 11
174.406685700706
 21
249.30964962337
 72
     1
 10
174.406685700706
 20
249.30964962337
 11
174.344628253752
 21
249.231447421631
 72
     1
 10
174.344628253752
 20
249.231447421631
 11
174.299344203172
 21
249.142475145935
 72
     1
 10
174.299344203172
 20
249.142475145935
 11
174.272638881162
 21
249.046279840147
 72
     1
 10
174.272638881162
 20
249.046279840147
 11
174.2653637462
 21
248.9612962687
 72
     1
 10
174.2653637462
 20
248.9612962687
 11
174.2653637462
 21
247.9612962687
 72
     1
 10
174.2653637462
 20
247.9612962687
 11
174.275330457235
 21
247.861961603299
 72
     1
 10
174.275330457235
 20
247.861961603299
 11
174.304833249154
 21
247.766587097542
 72
     1
 10
174.304833249154
 20
247.766587097542
 11
174.352695938701
 21
247.678975031999
 72
     1
 10
174.352695938701
 20
247.678975031999
 11
174.417010391482
 21
247.602618223247
 72
     1
 10
174.417010391482
 20
247.602618223247
 11
174.495212593222
 21
247.540560776293
 72
     1
 10
174.495212593222
 20
247.540560776293
 11
174.584184868917
 21
247.495276725713
 72
     1
 10
174.584184868917
 20
247.495276725713
 11
174.680380174706
 21
247.468571403703
 72
     1
 10
174.680380174706
 20
247.468571403703
 11
174.7653637462
 21
247.4612962687
 72
     1
 10
174.7653637462
 20
247.4612962687
 11
175.01370040965
 21
247.436379490998
 72
     1
 10
175.01370040965
 20
247.436379490998
 11
175.252136674042
 21
247.3626225112
 72
     1
 10
175.252136674042
 20
247.3626225112
 11
175.4711668379
 21
247.242965787334
 72
     1
 10
175.4711668379
 20
247.242965787334
 11
175.66205885978
 21
247.082179655381
 72
     1
 10
175.66205885978
 20
247.082179655381
 11
175.817202477166
 21
246.886674151032
 72
     1
 10
175.817202477166
 20
246.886674151032
 11
175.930412603615
 21
246.664243461793
 72
     1
 10
175.930412603615
 20
246.664243461793
 11
175.997175908641
 21
246.423755197322
 72
     1
 10
175.997175908641
 20
246.423755197322
 11
176.014830749958
 21
246.17479686582
 72
     1
 10
176.014830749958
 20
246.17479686582
 11
175.982673284753
 21
245.92729365033
 72
     1
 10
175.982673284753
 20
245.92729365033
 11
175.901985529688
 21
245.691112723013
 72
     1
 10
175.901985529688
 20
245.691112723013
 11
175.77598425093
 21
245.475669872128
 72
     1
 10
175.77598425093
 20
245.475669872128
 11
175.609692721845
 21
245.28955412427
 72
     1
 10
175.609692721845
 20
245.28955412427
 11
175.409740460933
 21
245.140185326986
 72
     1
 10
175.409740460933
 20
245.140185326986
 11
175.184098933851
 21
245.033518342861
 72
     1
 10
175.184098933851
 20
245.033518342861
 11
174.941763756231
 21
244.973805647946
 72
     1
 10
174.941763756231
 20
244.973805647946
 11
174.7653637462
 21
244.9612962687
 72
     1
 10
174.7653637462
 20
244.9612962687
 11
174.666029080758
 21
244.951329557617
 72
     1
 10
174.666029080758
 20
244.951329557617
 11
174.570654575001
 21
244.921826765698
 72
     1
 10
174.570654575001
 20
244.921826765698
 11
174.483042509458
 21
244.873964076152
 72
     1
 10
174.483042509458
 20
244.873964076152
 11
174.406685700706
 21
244.80964962337
 72
     1
 10
174.406685700706
 20
244.80964962337
 11
174.344628253752
 21
244.731447421631
 72
     1
 10
174.344628253752
 20
244.731447421631
 11
174.299344203172
 21
244.642475145935
 72
     1
 10
174.299344203172
 20
244.642475145935
 11
174.272638881161
 21
244.546279840147
 72
     1
 10
174.272638881161
 20
244.546279840147
 11
174.2653637462
 21
244.4612962687
 72
     1
 10
174.2653637462
 20
244.4612962687
 11
174.2653637462
 21
243.4612962687
 72
     1
 10
174.2653637462
 20
243.4612962687
 11
174.275330457235
 21
243.361961603299
 72
     1
 10
174.275330457235
 20
243.361961603299
 11
174.304833249154
 21
243.266587097542
 72
     1
 10
174.304833249154
 20
243.266587097542
 11
174.352695938701
 21
243.178975031999
 72
     1
 10
174.352695938701
 20
243.178975031999
 11
174.417010391482
 21
243.102618223247
 72
     1
 10
174.417010391482
 20
243.102618223247
 11
174.495212593222
 21
243.040560776293
 72
     1
 10
174.495212593222
 20
243.040560776293
 11
174.584184868917
 21
242.995276725713
 72
     1
 10
174.584184868917
 20
242.995276725713
 11
174.680380174706
 21
242.968571403703
 72
     1
 10
174.680380174706
 20
242.968571403703
 11
174.7653637462
 21
242.9612962687
 72
     1
 10
174.7653637462
 20
242.9612962687
 11
175.01370040965
 21
242.936379490998
 72
     1
 10
175.01370040965
 20
242.936379490998
 11
175.252136674042
 21
242.8626225112
 72
     1
 10
175.252136674042
 20
242.8626225112
 11
175.4711668379
 21
242.742965787334
 72
     1
 10
175.4711668379
 20
242.742965787334
 11
175.66205885978
 21
242.582179655381
 72
     1
 10
175.66205885978
 20
242.582179655381
 11
175.817202477166
 21
242.386674151032
 72
     1
 10
175.817202477166
 20
242.386674151032
 11
175.930412603615
 21
242.164243461793
 72
     1
 10
175.930412603615
 20
242.164243461793
 11
175.997175908641
 21
241.923755197322
 72
     1
 10
175.997175908641
 20
241.923755197322
 11
176.014830749958
 21
241.67479686582
 72
     1
 10
176.014830749958
 20
241.67479686582
 11
175.982673284753
 21
241.42729365033
 72
     1
 10
175.982673284753
 20
241.42729365033
 11
175.901985529688
 21
241.191112723013
 72
     1
 10
175.901985529688
 20
241.191112723013
 11
175.77598425093
 21
240.975669872128
 72
     1
 10
175.77598425093
 20
240.975669872128
 11
175.609692721845
 21
240.78955412427
 72
     1
 10
175.609692721845
 20
240.78955412427
 11
175.409740460933
 21
240.640185326986
 72
     1
 10
175.409740460933
 20
240.640185326986
 11
175.184098933851
 21
240.533518342861
 72
     1
 10
175.184098933851
 20
240.533518342861
 11
174.941763756231
 21
240.473805647946
 72
     1
 10
174.941763756231
 20
240.473805647946
 11
174.7653637462
 21
240.4612962687
 72
     1
 10
174.7653637462
 20
240.4612962687
 11
174.666029080758
 21
240.451329557617
 72
     1
 10
174.666029080758
 20
240.451329557617
 11
174.570654575001
 21
240.421826765698
 72
     1
 10
174.570654575001
 20
240.421826765698
 11
174.483042509458
 21
240.373964076152
 72
     1
 10
174.483042509458
 20
240.373964076152
 11
174.406685700706
 21
240.30964962337
 72
     1
 10
174.406685700706
 20
240.30964962337
 11
174.344628253752
 21
240.231447421631
 72
     1
 10
174.344628253752
 20
240.231447421631
 11
174.299344203172
 21
240.142475145935
 72
     1
 10
174.299344203172
 20
240.142475145935
 11
174.272638881162
 21
240.046279840147
 72
     1
 10
174.272638881162
 20
240.046279840147
 11
174.2653637462
 21
239.9612962687
 72
     1
 10
174.2653637462
 20
239.9612962687
 11
174.2653637462
 21
238.9612962687
 72
     1
 10
174.2653637462
 20
238.9612962687
 11
174.275330457235
 21
238.861961603299
 72
     1
 10
174.275330457235
 20
238.861961603299
 11
174.304833249154
 21
238.766587097543
 72
     1
 10
174.304833249154
 20
238.766587097543
 11
174.352695938701
 21
238.678975031999
 72
     1
 10
174.352695938701
 20
238.678975031999
 11
174.417010391482
 21
238.602618223247
 72
     1
 10
174.417010391482
 20
238.602618223247
 11
174.495212593222
 21
238.540560776293
 72
     1
 10
174.495212593222
 20
238.540560776293
 11
174.584184868917
 21
238.495276725713
 72
     1
 10
174.584184868917
 20
238.495276725713
 11
174.680380174706
 21
238.468571403703
 72
     1
 10
174.680380174706
 20
238.468571403703
 11
174.7653637462
 21
238.4612962687
 72
     1
 10
174.7653637462
 20
238.4612962687
 11
175.01370040965
 21
238.436379490998
 72
     1
 10
175.01370040965
 20
238.436379490998
 11
175.252136674042
 21
238.3626225112
 72
     1
 10
175.252136674042
 20
238.3626225112
 11
175.4711668379
 21
238.242965787334
 72
     1
 10
175.4711668379
 20
238.242965787334
 11
175.66205885978
 21
238.082179655381
 72
     1
 10
175.66205885978
 20
238.082179655381
 11
175.817202477166
 21
237.886674151032
 72
     1
 10
175.817202477166
 20
237.886674151032
 11
175.930412603615
 21
237.664243461793
 72
     1
 10
175.930412603615
 20
237.664243461793
 11
175.997175908641
 21
237.423755197322
 72
     1
 10
175.997175908641
 20
237.423755197322
 11
176.014830749958
 21
237.17479686582
 72
     1
 10
176.014830749958
 20
237.17479686582
 11
175.982673284753
 21
236.92729365033
 72
     1
 10
175.982673284753
 20
236.92729365033
 11
175.901985529688
 21
236.691112723013
 72
     1
 10
175.901985529688
 20
236.691112723013
 11
175.77598425093
 21
236.475669872128
 72
     1
 10
175.77598425093
 20
236.475669872128
 11
175.609692721845
 21
236.28955412427
 72
     1
 10
175.609692721845
 20
236.28955412427
 11
175.409740460932
 21
236.140185326986
 72
     1
 10
175.409740460932
 20
236.140185326986
 11
175.184098933851
 21
236.033518342861
 72
     1
 10
175.184098933851
 20
236.033518342861
 11
174.941763756231
 21
235.973805647946
 72
     1
 10
174.941763756231
 20
235.973805647946
 11
174.7653637462
 21
235.9612962687
 72
     1
 10
174.7653637462
 20
235.9612962687
 11
174.666029080758
 21
235.951329557617
 72
     1
 10
174.666029080758
 20
235.951329557617
 11
174.570654575001
 21
235.921826765698
 72
     1
 10
174.570654575001
 20
235.921826765698
 11
174.483042509458
 21
235.873964076152
 72
     1
 10
174.483042509458
 20
235.873964076152
 11
174.406685700706
 21
235.80964962337
 72
     1
 10
174.406685700706
 20
235.80964962337
 11
174.344628253752
 21
235.731447421631
 72
     1
 10
174.344628253752
 20
235.731447421631
 11
174.299344203172
 21
235.642475145935
 72
     1
 10
174.299344203172
 20
235.642475145935
 11
174.272638881161
 21
235.546279840147
 72
     1
 10
174.272638881161
 20
235.546279840147
 11
174.2653637462
 21
235.4612962687
 72
     1
 10
174.2653637462
 20
235.4612962687
 11
174.2653637462
 21
234.4612962687
 72
     1
 10
174.2653637462
 20
234.4612962687
 11
174.275330457235
 21
234.361961603299
 72
     1
 10
174.275330457235
 20
234.361961603299
 11
174.304833249154
 21
234.266587097543
 72
     1
 10
174.304833249154
 20
234.266587097543
 11
174.352695938701
 21
234.178975031999
 72
     1
 10
174.352695938701
 20
234.178975031999
 11
174.417010391482
 21
234.102618223247
 72
     1
 10
174.417010391482
 20
234.102618223247
 11
174.495212593222
 21
234.040560776293
 72
     1
 10
174.495212593222
 20
234.040560776293
 11
174.584184868917
 21
233.995276725713
 72
     1
 10
174.584184868917
 20
233.995276725713
 11
174.680380174706
 21
233.968571403703
 72
     1
 10
174.680380174706
 20
233.968571403703
 11
174.7653637462
 21
233.9612962687
 72
     1
 10
174.7653637462
 20
233.9612962687
 11
175.01370040965
 21
233.936379490998
 72
     1
 10
175.01370040965
 20
233.936379490998
 11
175.252136674042
 21
233.8626225112
 72
     1
 10
175.252136674042
 20
233.8626225112
 11
175.4711668379
 21
233.742965787334
 72
     1
 10
175.4711668379
 20
233.742965787334
 11
175.66205885978
 21
233.582179655381
 72
     1
 10
175.66205885978
 20
233.582179655381
 11
175.817202477166
 21
233.386674151032
 72
     1
 10
175.817202477166
 20
233.386674151032
 11
175.930412603615
 21
233.164243461793
 72
     1
 10
175.930412603615
 20
233.164243461793
 11
175.997175908641
 21
232.923755197322
 72
     1
 10
175.997175908641
 20
232.923755197322
 11
176.014830749958
 21
232.67479686582
 72
     1
 10
176.014830749958
 20
232.67479686582
 11
175.982673284753
 21
232.42729365033
 72
     1
 10
175.982673284753
 20
232.42729365033
 11
175.901985529688
 21
232.191112723013
 72
     1
 10
175.901985529688
 20
232.191112723013
 11
175.77598425093
 21
231.975669872128
 72
     1
 10
175.77598425093
 20
231.975669872128
 11
175.609692721845
 21
231.78955412427
 72
     1
 10
175.609692721845
 20
231.78955412427
 11
175.409740460933
 21
231.640185326986
 72
     1
 10
175.409740460933
 20
231.640185326986
 11
175.184098933851
 21
231.533518342861
 72
     1
 10
175.184098933851
 20
231.533518342861
 11
174.941763756231
 21
231.473805647946
 72
     1
 10
174.941763756231
 20
231.473805647946
 11
174.7653637462
 21
231.4612962687
 72
     1
 10
174.7653637462
 20
231.4612962687
 11
174.666029080758
 21
231.451329557618
 72
     1
 10
174.666029080758
 20
231.451329557618
 11
174.570654575001
 21
231.421826765698
 72
     1
 10
174.570654575001
 20
231.421826765698
 11
174.483042509458
 21
231.373964076152
 72
     1
 10
174.483042509458
 20
231.373964076152
 11
174.406685700706
 21
231.30964962337
 72
     1
 10
174.406685700706
 20
231.30964962337
 11
174.344628253752
 21
231.231447421631
 72
     1
 10
174.344628253752
 20
231.231447421631
 11
174.299344203172
 21
231.142475145935
 72
     1
 10
174.299344203172
 20
231.142475145935
 11
174.272638881162
 21
231.046279840147
 72
     1
 10
174.272638881162
 20
231.046279840147
 11
174.2653637462
 21
230.9612962687
 72
     1
 10
174.2653637462
 20
230.9612962687
 11
174.2653637462
 21
228.9612962687
 72
     1
 10
174.2653637462
 20
228.9612962687
 11
174.275330457235
 21
228.861961603299
 72
     1
 10
174.275330457235
 20
228.861961603299
 11
174.304833249154
 21
228.766587097543
 72
     1
 10
174.304833249154
 20
228.766587097543
 11
174.352695938701
 21
228.678975031999
 72
     1
 10
174.352695938701
 20
228.678975031999
 11
174.417010391482
 21
228.602618223247
 72
     1
 10
174.417010391482
 20
228.602618223247
 11
174.495212593222
 21
228.540560776293
 72
     1
 10
174.495212593222
 20
228.540560776293
 11
174.584184868917
 21
228.495276725713
 72
     1
 10
174.584184868917
 20
228.495276725713
 11
174.680380174706
 21
228.468571403703
 72
     1
 10
174.680380174706
 20
228.468571403703
 11
174.7653637462
 21
228.4612962687
 72
     1
 10
174.7653637462
 20
228.4612962687
 11
177.765363746156
 21
228.461296268697
 72
     1
 10
177.765363746156
 20
228.461296268697
 11
177.765363746156
 21
307.961296268697
 72
     1
 10
177.765363746156
 20
307.961296268697
 11
176.765363746156
 21
307.961296268697
 72
     1
 10
176.765363746156
 20
307.961296268697
 11
176.765363746156
 21
318.961296268697
 72
     1
 10
176.765363746156
 20
318.961296268697
 11
172.7653637462
 21
318.9612962687
 72
     1
 10
172.7653637462
 20
318.9612962687
 11
172.765363746156
 21
304.961296268697
 72
     1
 10
172.765363746156
 20
304.961296268697
 11
174.265363746156
 21
304.961296268697
 72
     1
 10
174.265363746156
 20
304.961296268697
 11
174.265363746156
 21
301.961296268697
 72
     1
 10
174.265363746156
 20
301.961296268697
 11
173.765363746156
 21
301.961296268697
 72
     1
 10
173.765363746156
 20
301.961296268697
 11
173.765363746156
 21
299.961296268697
 72
     1
 10
173.765363746156
 20
299.961296268697
 11
174.265363746156
 21
299.961296268697
 72
     1
 10
174.265363746156
 20
299.961296268697
 11
174.2653637462
 21
292.9612962687
 72
     1
 10
174.2653637462
 20
292.9612962687
 11
174.275330457235
 21
292.861961603299
 72
     1
 10
174.275330457235
 20
292.861961603299
 11
174.304833249154
 21
292.766587097543
 72
     1
 10
174.304833249154
 20
292.766587097543
 11
174.352695938701
 21
292.678975031999
 72
     1
 10
174.352695938701
 20
292.678975031999
 11
174.417010391482
 21
292.602618223247
 72
     1
 10
174.417010391482
 20
292.602618223247
 11
174.495212593222
 21
292.540560776293
 72
     1
 10
174.495212593222
 20
292.540560776293
 11
174.584184868918
 21
292.495276725713
 72
     1
 10
174.584184868918
 20
292.495276725713
 11
174.680380174706
 21
292.468571403703
 72
     1
 10
174.680380174706
 20
292.468571403703
 11
174.7653637462
 21
292.4612962687
 72
     1
 10
174.7653637462
 20
292.4612962687
 11
175.01370040965
 21
292.436379490998
 72
     1
 10
175.01370040965
 20
292.436379490998
 11
175.252136674042
 21
292.3626225112
 72
     1
 10
175.252136674042
 20
292.3626225112
 11
175.4711668379
 21
292.242965787334
 72
     1
 10
175.4711668379
 20
292.242965787334
 11
175.66205885978
 21
292.082179655381
 72
     1
 10
175.66205885978
 20
292.082179655381
 11
175.817202477166
 21
291.886674151032
 72
     1
 10
175.817202477166
 20
291.886674151032
 11
175.930412603615
 21
291.664243461793
 72
     1
 10
175.930412603615
 20
291.664243461793
 11
175.997175908642
 21
291.423755197322
 72
     1
 10
175.997175908642
 20
291.423755197322
 11
176.014830749958
 21
291.17479686582
 72
     1
 10
176.014830749958
 20
291.17479686582
 11
175.982673284754
 21
290.92729365033
 72
     1
 10
175.982673284754
 20
290.92729365033
 11
175.901985529688
 21
290.691112723013
 72
     1
 10
175.901985529688
 20
290.691112723013
 11
175.77598425093
 21
290.475669872128
 72
     1
 10
175.77598425093
 20
290.475669872128
 11
175.609692721845
 21
290.28955412427
 72
     1
 10
175.609692721845
 20
290.28955412427
 11
175.409740460933
 21
290.140185326986
 72
     1
 10
175.409740460933
 20
290.140185326986
 11
175.184098933851
 21
290.033518342861
 72
     1
 10
175.184098933851
 20
290.033518342861
 11
174.941763756231
 21
289.973805647946
 72
     1
 10
174.941763756231
 20
289.973805647946
 11
174.7653637462
 21
289.9612962687
 72
     1
 10
174.7653637462
 20
289.9612962687
 11
174.666029080758
 21
289.951329557618
 72
     1
 10
174.666029080758
 20
289.951329557618
 11
174.570654575002
 21
289.921826765698
 72
     1
 10
174.570654575002
 20
289.921826765698
 11
174.483042509458
 21
289.873964076152
 72
     1
 10
174.483042509458
 20
289.873964076152
 11
174.406685700706
 21
289.80964962337
 72
     1
 10
174.406685700706
 20
289.80964962337
 11
174.344628253752
 21
289.731447421631
 72
     1
 10
174.344628253752
 20
289.731447421631
 11
174.299344203172
 21
289.642475145935
 72
     1
 10
174.299344203172
 20
289.642475145935
 11
174.272638881162
 21
289.546279840147
 72
     1
 10
174.272638881162
 20
289.546279840147
 11
174.2653637462
 21
289.4612962687
 97
        0
 75
     1
 76
     2
 52
0.0
 41
1.0
 77
     0
 78
     1
 53
44.99999999999998
 43
0.0
 44
0.0
 45
-4.490128060534577
 46
0.0000000000000018
 79
     0
 98
        1
 10
0.0
 20
0.0
  0
HATCH
  5
37F
330
44
100
AcDbEntity
  8
0
  6
Continuous
 62
     7
100
AcDbHatch
 10
0.0
 20
0.0
 30
0.0
210
0.0
220
0.0
230
1.0
  2
CUSTOM9
 70
     0
 71
     0
 91
        1
 92
        1
 93
      482
 72
     1
 10
318.7653637462
 20
285.4612962687
 11
318.517027082662
 21
285.486213046395
 72
     1
 10
318.517027082662
 20
285.486213046395
 11
318.27859081827
 21
285.559970026193
 72
     1
 10
318.27859081827
 20
285.559970026193
 11
318.059560654412
 21
285.67962675006
 72
     1
 10
318.059560654412
 20
285.67962675006
 11
317.868668632532
 21
285.840412882013
 72
     1
 10
317.868668632532
 20
285.840412882013
 11
317.713525015146
 21
286.035918386362
 72
     1
 10
317.713525015146
 20
286.035918386362
 11
317.600314888697
 21
286.258349075601
 72
     1
 10
317.600314888697
 20
286.258349075601
 11
317.53355158367
 21
286.498837340072
 72
     1
 10
317.53355158367
 20
286.498837340072
 11
317.515896742354
 21
286.747795671574
 72
     1
 10
317.515896742354
 20
286.747795671574
 11
317.548054207558
 21
286.995298887063
 72
     1
 10
317.548054207558
 20
286.995298887063
 11
317.628741962624
 21
287.231479814381
 72
     1
 10
317.628741962624
 20
287.231479814381
 11
317.754743241382
 21
287.446922665266
 72
     1
 10
317.754743241382
 20
287.446922665266
 11
317.921034770467
 21
287.633038413123
 72
     1
 10
317.921034770467
 20
287.633038413123
 11
318.120987031379
 21
287.782407210408
 72
     1
 10
318.120987031379
 20
287.782407210408
 11
318.346628558461
 21
287.889074194533
 72
     1
 10
318.346628558461
 20
287.889074194533
 11
318.588963736081
 21
287.948786889447
 72
     1
 10
318.588963736081
 20
287.948786889447
 11
318.7653637462
 21
287.9612962687
 72
     1
 10
318.7653637462
 20
287.9612962687
 11
318.864698411554
 21
287.971262979776
 72
     1
 10
318.864698411554
 20
287.971262979776
 11
318.96007291731
 21
288.000765771695
 72
     1
 10
318.96007291731
 20
288.000765771695
 11
319.047684982854
 21
288.048628461242
 72
     1
 10
319.047684982854
 20
288.048628461242
 11
319.124041791606
 21
288.112942914023
 72
     1
 10
319.124041791606
 20
288.112942914023
 11
319.18609923856
 21
288.191145115763
 72
     1
 10
319.18609923856
 20
288.191145115763
 11
319.23138328914
 21
288.280117391459
 72
     1
 10
319.23138328914
 20
288.280117391459
 11
319.25808861115
 21
288.376312697247
 72
     1
 10
319.25808861115
 20
288.376312697247
 11
319.2653637462
 21
288.4612962687
 72
     1
 10
319.2653637462
 20
288.4612962687
 11
319.2653637462
 21
289.4612962687
 72
     1
 10
319.2653637462
 20
289.4612962687
 11
319.255397035077
 21
289.560630934094
 72
     1
 10
319.255397035077
 20
289.560630934094
 11
319.225894243157
 21
289.656005439851
 72
     1
 10
319.225894243157
 20
289.656005439851
 11
319.178031553611
 21
289.743617505394
 72
     1
 10
319.178031553611
 20
289.743617505394
 11
319.11371710083
 21
289.819974314147
 72
     1
 10
319.11371710083
 20
289.819974314147
 11
319.03551489909
 21
289.882031761101
 72
     1
 10
319.03551489909
 20
289.882031761101
 11
318.946542623394
 21
289.927315811681
 72
     1
 10
318.946542623394
 20
289.927315811681
 11
318.850347317606
 21
289.954021133691
 72
     1
 10
318.850347317606
 20
289.954021133691
 11
318.7653637462
 21
289.9612962687
 72
     1
 10
318.7653637462
 20
289.9612962687
 11
318.517027082662
 21
289.986213046395
 72
     1
 10
318.517027082662
 20
289.986213046395
 11
318.27859081827
 21
290.059970026193
 72
     1
 10
318.27859081827
 20
290.059970026193
 11
318.059560654412
 21
290.17962675006
 72
     1
 10
318.059560654412
 20
290.17962675006
 11
317.868668632532
 21
290.340412882013
 72
     1
 10
317.868668632532
 20
290.340412882013
 11
317.713525015146
 21
290.535918386362
 72
     1
 10
317.713525015146
 20
290.535918386362
 11
317.600314888697
 21
290.758349075601
 72
     1
 10
317.600314888697
 20
290.758349075601
 11
317.53355158367
 21
290.998837340071
 72
     1
 10
317.53355158367
 20
290.998837340071
 11
317.515896742354
 21
291.247795671573
 72
     1
 10
317.515896742354
 20
291.247795671573
 11
317.548054207558
 21
291.495298887063
 72
     1
 10
317.548054207558
 20
291.495298887063
 11
317.628741962624
 21
291.731479814381
 72
     1
 10
317.628741962624
 20
291.731479814381
 11
317.754743241382
 21
291.946922665266
 72
     1
 10
317.754743241382
 20
291.946922665266
 11
317.921034770467
 21
292.133038413123
 72
     1
 10
317.921034770467
 20
292.133038413123
 11
318.120987031379
 21
292.282407210408
 72
     1
 10
318.120987031379
 20
292.282407210408
 11
318.346628558461
 21
292.389074194533
 72
     1
 10
318.346628558461
 20
292.389074194533
 11
318.588963736081
 21
292.448786889447
 72
     1
 10
318.588963736081
 20
292.448786889447
 11
318.7653637462
 21
292.4612962687
 72
     1
 10
318.7653637462
 20
292.4612962687
 11
318.864698411554
 21
292.471262979776
 72
     1
 10
318.864698411554
 20
292.471262979776
 11
318.96007291731
 21
292.500765771695
 72
     1
 10
318.96007291731
 20
292.500765771695
 11
319.047684982854
 21
292.548628461242
 72
     1
 10
319.047684982854
 20
292.548628461242
 11
319.124041791606
 21
292.612942914023
 72
     1
 10
319.124041791606
 20
292.612942914023
 11
319.18609923856
 21
292.691145115763
 72
     1
 10
319.18609923856
 20
292.691145115763
 11
319.23138328914
 21
292.780117391459
 72
     1
 10
319.23138328914
 20
292.780117391459
 11
319.25808861115
 21
292.876312697247
 72
     1
 10
319.25808861115
 20
292.876312697247
 11
319.2653637462
 21
292.9612962687
 72
     1
 10
319.2653637462
 20
292.9612962687
 11
319.265363746156
 21
299.961296268697
 72
     1
 10
319.265363746156
 20
299.961296268697
 11
319.765363746156
 21
299.961296268697
 72
     1
 10
319.765363746156
 20
299.961296268697
 11
319.765363746156
 21
301.961296268697
 72
     1
 10
319.765363746156
 20
301.961296268697
 11
319.265363746156
 21
301.961296268697
 72
     1
 10
319.265363746156
 20
301.961296268697
 11
319.265363746156
 21
304.961296268697
 72
     1
 10
319.265363746156
 20
304.961296268697
 11
320.765363746156
 21
304.961296268697
 72
     1
 10
320.765363746156
 20
304.961296268697
 11
320.7653637462
 21
318.9612962687
 72
     1
 10
320.7653637462
 20
318.9612962687
 11
316.765363746156
 21
318.961296268697
 72
     1
 10
316.765363746156
 20
318.961296268697
 11
316.765363746156
 21
307.961296268697
 72
     1
 10
316.765363746156
 20
307.961296268697
 11
315.765363746156
 21
307.961296268697
 72
     1
 10
315.765363746156
 20
307.961296268697
 11
315.765363746156
 21
228.461296268697
 72
     1
 10
315.765363746156
 20
228.461296268697
 11
318.7653637462
 21
228.4612962687
 72
     1
 10
318.7653637462
 20
228.4612962687
 11
318.864698411554
 21
228.471262979776
 72
     1
 10
318.864698411554
 20
228.471262979776
 11
318.960072917311
 21
228.500765771695
 72
     1
 10
318.960072917311
 20
228.500765771695
 11
319.047684982854
 21
228.548628461242
 72
     1
 10
319.047684982854
 20
228.548628461242
 11
319.124041791606
 21
228.612942914023
 72
     1
 10
319.124041791606
 20
228.612942914023
 11
319.18609923856
 21
228.691145115763
 72
     1
 10
319.18609923856
 20
228.691145115763
 11
319.23138328914
 21
228.780117391458
 72
     1
 10
319.23138328914
 20
228.780117391458
 11
319.25808861115
 21
228.876312697247
 72
     1
 10
319.25808861115
 20
228.876312697247
 11
319.2653637462
 21
228.9612962687
 72
     1
 10
319.2653637462
 20
228.9612962687
 11
319.2653637462
 21
230.9612962687
 72
     1
 10
319.2653637462
 20
230.9612962687
 11
319.255397035077
 21
231.060630934094
 72
     1
 10
319.255397035077
 20
231.060630934094
 11
319.225894243158
 21
231.156005439851
 72
     1
 10
319.225894243158
 20
231.156005439851
 11
319.178031553611
 21
231.243617505394
 72
     1
 10
319.178031553611
 20
231.243617505394
 11
319.11371710083
 21
231.319974314147
 72
     1
 10
319.11371710083
 20
231.319974314147
 11
319.03551489909
 21
231.382031761101
 72
     1
 10
319.03551489909
 20
231.382031761101
 11
318.946542623395
 21
231.427315811681
 72
     1
 10
318.946542623395
 20
231.427315811681
 11
318.850347317606
 21
231.454021133691
 72
     1
 10
318.850347317606
 20
231.454021133691
 11
318.7653637462
 21
231.4612962687
 72
     1
 10
318.7653637462
 20
231.4612962687
 11
318.517027082662
 21
231.486213046395
 72
     1
 10
318.517027082662
 20
231.486213046395
 11
318.27859081827
 21
231.559970026193
 72
     1
 10
318.27859081827
 20
231.559970026193
 11
318.059560654412
 21
231.67962675006
 72
     1
 10
318.059560654412
 20
231.67962675006
 11
317.868668632532
 21
231.840412882013
 72
     1
 10
317.868668632532
 20
231.840412882013
 11
317.713525015146
 21
232.035918386362
 72
     1
 10
317.713525015146
 20
232.035918386362
 11
317.600314888697
 21
232.258349075601
 72
     1
 10
317.600314888697
 20
232.258349075601
 11
317.533551583671
 21
232.498837340072
 72
     1
 10
317.533551583671
 20
232.498837340072
 11
317.515896742354
 21
232.747795671573
 72
     1
 10
317.515896742354
 20
232.747795671573
 11
317.548054207558
 21
232.995298887063
 72
     1
 10
317.548054207558
 20
232.995298887063
 11
317.628741962624
 21
233.231479814381
 72
     1
 10
317.628741962624
 20
233.231479814381
 11
317.754743241382
 21
233.446922665266
 72
     1
 10
317.754743241382
 20
233.446922665266
 11
317.921034770467
 21
233.633038413123
 72
     1
 10
317.921034770467
 20
233.633038413123
 11
318.120987031379
 21
233.782407210408
 72
     1
 10
318.120987031379
 20
233.782407210408
 11
318.346628558461
 21
233.889074194533
 72
     1
 10
318.346628558461
 20
233.889074194533
 11
318.588963736081
 21
233.948786889447
 72
     1
 10
318.588963736081
 20
233.948786889447
 11
318.7653637462
 21
233.9612962687
 72
     1
 10
318.7653637462
 20
233.9612962687
 11
318.864698411554
 21
233.971262979776
 72
     1
 10
318.864698411554
 20
233.971262979776
 11
318.96007291731
 21
234.000765771695
 72
     1
 10
318.96007291731
 20
234.000765771695
 11
319.047684982854
 21
234.048628461242
 72
     1
 10
319.047684982854
 20
234.048628461242
 11
319.124041791606
 21
234.112942914023
 72
     1
 10
319.124041791606
 20
234.112942914023
 11
319.18609923856
 21
234.191145115763
 72
     1
 10
319.18609923856
 20
234.191145115763
 11
319.23138328914
 21
234.280117391458
 72
     1
 10
319.23138328914
 20
234.280117391458
 11
319.25808861115
 21
234.376312697247
 72
     1
 10
319.25808861115
 20
234.376312697247
 11
319.2653637462
 21
234.4612962687
 72
     1
 10
319.2653637462
 20
234.4612962687
 11
319.2653637462
 21
235.4612962687
 72
     1
 10
319.2653637462
 20
235.4612962687
 11
319.255397035077
 21
235.560630934094
 72
     1
 10
319.255397035077
 20
235.560630934094
 11
319.225894243158
 21
235.656005439851
 72
     1
 10
319.225894243158
 20
235.656005439851
 11
319.178031553611
 21
235.743617505394
 72
     1
 10
319.178031553611
 20
235.743617505394
 11
319.11371710083
 21
235.819974314147
 72
     1
 10
319.11371710083
 20
235.819974314147
 11
319.03551489909
 21
235.882031761101
 72
     1
 10
319.03551489909
 20
235.882031761101
 11
318.946542623395
 21
235.92731581168
 72
     1
 10
318.946542623395
 20
235.92731581168
 11
318.850347317606
 21
235.954021133691
 72
     1
 10
318.850347317606
 20
235.954021133691
 11
318.7653637462
 21
235.9612962687
 72
     1
 10
318.7653637462
 20
235.9612962687
 11
318.517027082662
 21
235.986213046395
 72
     1
 10
318.517027082662
 20
235.986213046395
 11
318.27859081827
 21
236.059970026193
 72
     1
 10
318.27859081827
 20
236.059970026193
 11
318.059560654412
 21
236.17962675006
 72
     1
 10
318.059560654412
 20
236.17962675006
 11
317.868668632532
 21
236.340412882013
 72
     1
 10
317.868668632532
 20
236.340412882013
 11
317.713525015146
 21
236.535918386362
 72
     1
 10
317.713525015146
 20
236.535918386362
 11
317.600314888697
 21
236.758349075601
 72
     1
 10
317.600314888697
 20
236.758349075601
 11
317.533551583671
 21
236.998837340072
 72
     1
 10
317.533551583671
 20
236.998837340072
 11
317.515896742354
 21
237.247795671573
 72
     1
 10
317.515896742354
 20
237.247795671573
 11
317.548054207558
 21
237.495298887063
 72
     1
 10
317.548054207558
 20
237.495298887063
 11
317.628741962624
 21
237.731479814381
 72
     1
 10
317.628741962624
 20
237.731479814381
 11
317.754743241382
 21
237.946922665266
 72
     1
 10
317.754743241382
 20
237.946922665266
 11
317.921034770467
 21
238.133038413123
 72
     1
 10
317.921034770467
 20
238.133038413123
 11
318.120987031379
 21
238.282407210408
 72
     1
 10
318.120987031379
 20
238.282407210408
 11
318.346628558461
 21
238.389074194533
 72
     1
 10
318.346628558461
 20
238.389074194533
 11
318.588963736081
 21
238.448786889447
 72
     1
 10
318.588963736081
 20
238.448786889447
 11
318.7653637462
 21
238.4612962687
 72
     1
 10
318.7653637462
 20
238.4612962687
 11
318.864698411554
 21
238.471262979776
 72
     1
 10
318.864698411554
 20
238.471262979776
 11
318.960072917311
 21
238.500765771695
 72
     1
 10
318.960072917311
 20
238.500765771695
 11
319.047684982854
 21
238.548628461242
 72
     1
 10
319.047684982854
 20
238.548628461242
 11
319.124041791606
 21
238.612942914023
 72
     1
 10
319.124041791606
 20
238.612942914023
 11
319.18609923856
 21
238.691145115763
 72
     1
 10
319.18609923856
 20
238.691145115763
 11
319.23138328914
 21
238.780117391458
 72
     1
 10
319.23138328914
 20
238.780117391458
 11
319.25808861115
 21
238.876312697247
 72
     1
 10
319.25808861115
 20
238.876312697247
 11
319.2653637462
 21
238.9612962687
 72
     1
 10
319.2653637462
 20
238.9612962687
 11
319.2653637462
 21
239.9612962687
 72
     1
 10
319.2653637462
 20
239.9612962687
 11
319.255397035077
 21
240.060630934094
 72
     1
 10
319.255397035077
 20
240.060630934094
 11
319.225894243158
 21
240.156005439851
 72
     1
 10
319.225894243158
 20
240.156005439851
 11
319.178031553611
 21
240.243617505394
 72
     1
 10
319.178031553611
 20
240.243617505394
 11
319.11371710083
 21
240.319974314147
 72
     1
 10
319.11371710083
 20
240.319974314147
 11
319.03551489909
 21
240.382031761101
 72
     1
 10
319.03551489909
 20
240.382031761101
 11
318.946542623395
 21
240.42731581168
 72
     1
 10
318.946542623395
 20
240.42731581168
 11
318.850347317606
 21
240.454021133691
 72
     1
 10
318.850347317606
 20
240.454021133691
 11
318.7653637462
 21
240.4612962687
 72
     1
 10
318.7653637462
 20
240.4612962687
 11
318.517027082662
 21
240.486213046395
 72
     1
 10
318.517027082662
 20
240.486213046395
 11
318.27859081827
 21
240.559970026193
 72
     1
 10
318.27859081827
 20
240.559970026193
 11
318.059560654412
 21
240.67962675006
 72
     1
 10
318.059560654412
 20
240.67962675006
 11
317.868668632532
 21
240.840412882013
 72
     1
 10
317.868668632532
 20
240.840412882013
 11
317.713525015146
 21
241.035918386362
 72
     1
 10
317.713525015146
 20
241.035918386362
 11
317.600314888697
 21
241.258349075601
 72
     1
 10
317.600314888697
 20
241.258349075601
 11
317.533551583671
 21
241.498837340072
 72
     1
 10
317.533551583671
 20
241.498837340072
 11
317.515896742354
 21
241.747795671573
 72
     1
 10
317.515896742354
 20
241.747795671573
 11
317.548054207558
 21
241.995298887063
 72
     1
 10
317.548054207558
 20
241.995298887063
 11
317.628741962624
 21
242.231479814381
 72
     1
 10
317.628741962624
 20
242.231479814381
 11
317.754743241382
 21
242.446922665266
 72
     1
 10
317.754743241382
 20
242.446922665266
 11
317.921034770467
 21
242.633038413123
 72
     1
 10
317.921034770467
 20
242.633038413123
 11
318.120987031379
 21
242.782407210408
 72
     1
 10
318.120987031379
 20
242.782407210408
 11
318.346628558461
 21
242.889074194533
 72
     1
 10
318.346628558461
 20
242.889074194533
 11
318.588963736081
 21
242.948786889447
 72
     1
 10
318.588963736081
 20
242.948786889447
 11
318.7653637462
 21
242.9612962687
 72
     1
 10
318.7653637462
 20
242.9612962687
 11
318.864698411554
 21
242.971262979776
 72
     1
 10
318.864698411554
 20
242.971262979776
 11
318.96007291731
 21
243.000765771695
 72
     1
 10
318.96007291731
 20
243.000765771695
 11
319.047684982854
 21
243.048628461242
 72
     1
 10
319.047684982854
 20
243.048628461242
 11
319.124041791606
 21
243.112942914023
 72
     1
 10
319.124041791606
 20
243.112942914023
 11
319.18609923856
 21
243.191145115763
 72
     1
 10
319.18609923856
 20
243.191145115763
 11
319.23138328914
 21
243.280117391458
 72
     1
 10
319.23138328914
 20
243.280117391458
 11
319.25808861115
 21
243.376312697247
 72
     1
 10
319.25808861115
 20
243.376312697247
 11
319.2653637462
 21
243.4612962687
 72
     1
 10
319.2653637462
 20
243.4612962687
 11
319.2653637462
 21
244.4612962687
 72
     1
 10
319.2653637462
 20
244.4612962687
 11
319.255397035077
 21
244.560630934094
 72
     1
 10
319.255397035077
 20
244.560630934094
 11
319.225894243158
 21
244.656005439851
 72
     1
 10
319.225894243158
 20
244.656005439851
 11
319.178031553611
 21
244.743617505394
 72
     1
 10
319.178031553611
 20
244.743617505394
 11
319.11371710083
 21
244.819974314147
 72
     1
 10
319.11371710083
 20
244.819974314147
 11
319.03551489909
 21
244.882031761101
 72
     1
 10
319.03551489909
 20
244.882031761101
 11
318.946542623394
 21
244.92731581168
 72
     1
 10
318.946542623394
 20
244.92731581168
 11
318.850347317606
 21
244.954021133691
 72
     1
 10
318.850347317606
 20
244.954021133691
 11
318.7653637462
 21
244.9612962687
 72
     1
 10
318.7653637462
 20
244.9612962687
 11
318.517027082662
 21
244.986213046395
 72
     1
 10
318.517027082662
 20
244.986213046395
 11
318.27859081827
 21
245.059970026193
 72
     1
 10
318.27859081827
 20
245.059970026193
 11
318.059560654412
 21
245.17962675006
 72
     1
 10
318.059560654412
 20
245.17962675006
 11
317.868668632532
 21
245.340412882013
 72
     1
 10
317.868668632532
 20
245.340412882013
 11
317.713525015146
 21
245.535918386362
 72
     1
 10
317.713525015146
 20
245.535918386362
 11
317.600314888697
 21
245.758349075601
 72
     1
 10
317.600314888697
 20
245.758349075601
 11
317.53355158367
 21
245.998837340072
 72
     1
 10
317.53355158367
 20
245.998837340072
 11
317.515896742354
 21
246.247795671573
 72
     1
 10
317.515896742354
 20
246.247795671573
 11
317.548054207558
 21
246.495298887063
 72
     1
 10
317.548054207558
 20
246.495298887063
 11
317.628741962624
 21
246.731479814381
 72
     1
 10
317.628741962624
 20
246.731479814381
 11
317.754743241382
 21
246.946922665266
 72
     1
 10
317.754743241382
 20
246.946922665266
 11
317.921034770467
 21
247.133038413123
 72
     1
 10
317.921034770467
 20
247.133038413123
 11
318.120987031379
 21
247.282407210408
 72
     1
 10
318.120987031379
 20
247.282407210408
 11
318.346628558461
 21
247.389074194533
 72
     1
 10
318.346628558461
 20
247.389074194533
 11
318.588963736081
 21
247.448786889447
 72
     1
 10
318.588963736081
 20
247.448786889447
 11
318.7653637462
 21
247.4612962687
 72
     1
 10
318.7653637462
 20
247.4612962687
 11
318.864698411554
 21
247.471262979776
 72
     1
 10
318.864698411554
 20
247.471262979776
 11
318.96007291731
 21
247.500765771695
 72
     1
 10
318.96007291731
 20
247.500765771695
 11
319.047684982854
 21
247.548628461242
 72
     1
 10
319.047684982854
 20
247.548628461242
 11
319.124041791606
 21
247.612942914023
 72
     1
 10
319.124041791606
 20
247.612942914023
 11
319.18609923856
 21
247.691145115763
 72
     1
 10
319.18609923856
 20
247.691145115763
 11
319.23138328914
 21
247.780117391458
 72
     1
 10
319.23138328914
 20
247.780117391458
 11
319.25808861115
 21
247.876312697247
 72
     1
 10
319.25808861115
 20
247.876312697247
 11
319.2653637462
 21
247.9612962687
 72
     1
 10
319.2653637462
 20
247.9612962687
 11
319.2653637462
 21
248.9612962687
 72
     1
 10
319.2653637462
 20
248.9612962687
 11
319.255397035077
 21
249.060630934094
 72
     1
 10
319.255397035077
 20
249.060630934094
 11
319.225894243158
 21
249.156005439851
 72
     1
 10
319.225894243158
 20
249.156005439851
 11
319.178031553611
 21
249.243617505394
 72
     1
 10
319.178031553611
 20
249.243617505394
 11
319.11371710083
 21
249.319974314147
 72
     1
 10
319.11371710083
 20
249.319974314147
 11
319.03551489909
 21
249.382031761101
 72
     1
 10
319.03551489909
 20
249.382031761101
 11
318.946542623394
 21
249.42731581168
 72
     1
 10
318.946542623394
 20
249.42731581168
 11
318.850347317606
 21
249.454021133691
 72
     1
 10
318.850347317606
 20
249.454021133691
 11
318.7653637462
 21
249.4612962687
 72
     1
 10
318.7653637462
 20
249.4612962687
 11
318.517027082662
 21
249.486213046395
 72
     1
 10
318.517027082662
 20
249.486213046395
 11
318.27859081827
 21
249.559970026193
 72
     1
 10
318.27859081827
 20
249.559970026193
 11
318.059560654412
 21
249.67962675006
 72
     1
 10
318.059560654412
 20
249.67962675006
 11
317.868668632532
 21
249.840412882013
 72
     1
 10
317.868668632532
 20
249.840412882013
 11
317.713525015146
 21
250.035918386362
 72
     1
 10
317.713525015146
 20
250.035918386362
 11
317.600314888697
 21
250.258349075601
 72
     1
 10
317.600314888697
 20
250.258349075601
 11
317.53355158367
 21
250.498837340072
 72
     1
 10
317.53355158367
 20
250.498837340072
 11
317.515896742354
 21
250.747795671574
 72
     1
 10
317.515896742354
 20
250.747795671574
 11
317.548054207558
 21
250.995298887063
 72
     1
 10
317.548054207558
 20
250.995298887063
 11
317.628741962624
 21
251.231479814381
 72
     1
 10
317.628741962624
 20
251.231479814381
 11
317.754743241382
 21
251.446922665266
 72
     1
 10
317.754743241382
 20
251.446922665266
 11
317.921034770467
 21
251.633038413123
 72
     1
 10
317.921034770467
 20
251.633038413123
 11
318.120987031379
 21
251.782407210408
 72
     1
 10
318.120987031379
 20
251.782407210408
 11
318.346628558461
 21
251.889074194533
 72
     1
 10
318.346628558461
 20
251.889074194533
 11
318.588963736081
 21
251.948786889447
 72
     1
 10
318.588963736081
 20
251.948786889447
 11
318.7653637462
 21
251.9612962687
 72
     1
 10
318.7653637462
 20
251.9612962687
 11
318.864698411554
 21
251.971262979776
 72
     1
 10
318.864698411554
 20
251.971262979776
 11
318.96007291731
 21
252.000765771695
 72
     1
 10
318.96007291731
 20
252.000765771695
 11
319.047684982854
 21
252.048628461242
 72
     1
 10
319.047684982854
 20
252.048628461242
 11
319.124041791606
 21
252.112942914023
 72
     1
 10
319.124041791606
 20
252.112942914023
 11
319.18609923856
 21
252.191145115763
 72
     1
 10
319.18609923856
 20
252.191145115763
 11
319.23138328914
 21
252.280117391458
 72
     1
 10
319.23138328914
 20
252.280117391458
 11
319.25808861115
 21
252.376312697247
 72
     1
 10
319.25808861115
 20
252.376312697247
 11
319.2653637462
 21
252.4612962687
 72
     1
 10
319.2653637462
 20
252.4612962687
 11
319.2653637462
 21
253.4612962687
 72
     1
 10
319.2653637462
 20
253.4612962687
 11
319.255397035077
 21
253.560630934094
 72
     1
 10
319.255397035077
 20
253.560630934094
 11
319.225894243158
 21
253.656005439851
 72
     1
 10
319.225894243158
 20
253.656005439851
 11
319.178031553611
 21
253.743617505394
 72
     1
 10
319.178031553611
 20
253.743617505394
 11
319.11371710083
 21
253.819974314147
 72
     1
 10
319.11371710083
 20
253.819974314147
 11
319.03551489909
 21
253.882031761101
 72
     1
 10
319.03551489909
 20
253.882031761101
 11
318.946542623394
 21
253.927315811681
 72
     1
 10
318.946542623394
 20
253.927315811681
 11
318.850347317606
 21
253.954021133691
 72
     1
 10
318.850347317606
 20
253.954021133691
 11
318.7653637462
 21
253.9612962687
 72
     1
 10
318.7653637462
 20
253.9612962687
 11
318.517027082662
 21
253.986213046395
 72
     1
 10
318.517027082662
 20
253.986213046395
 11
318.27859081827
 21
254.059970026193
 72
     1
 10
318.27859081827
 20
254.059970026193
 11
318.059560654412
 21
254.17962675006
 72
     1
 10
318.059560654412
 20
254.17962675006
 11
317.868668632532
 21
254.340412882013
 72
     1
 10
317.868668632532
 20
254.340412882013
 11
317.713525015146
 21
254.535918386362
 72
     1
 10
317.713525015146
 20
254.535918386362
 11
317.600314888697
 21
254.758349075601
 72
     1
 10
317.600314888697
 20
254.758349075601
 11
317.53355158367
 21
254.998837340072
 72
     1
 10
317.53355158367
 20
254.998837340072
 11
317.515896742354
 21
255.247795671573
 72
     1
 10
317.515896742354
 20
255.247795671573
 11
317.548054207558
 21
255.495298887063
 72
     1
 10
317.548054207558
 20
255.495298887063
 11
317.628741962624
 21
255.731479814381
 72
     1
 10
317.628741962624
 20
255.731479814381
 11
317.754743241382
 21
255.946922665266
 72
     1
 10
317.754743241382
 20
255.946922665266
 11
317.921034770467
 21
256.133038413123
 72
     1
 10
317.921034770467
 20
256.133038413123
 11
318.120987031379
 21
256.282407210408
 72
     1
 10
318.120987031379
 20
256.282407210408
 11
318.346628558461
 21
256.389074194533
 72
     1
 10
318.346628558461
 20
256.389074194533
 11
318.588963736081
 21
256.448786889447
 72
     1
 10
318.588963736081
 20
256.448786889447
 11
318.7653637462
 21
256.4612962687
 72
     1
 10
318.7653637462
 20
256.4612962687
 11
318.864698411554
 21
256.471262979776
 72
     1
 10
318.864698411554
 20
256.471262979776
 11
318.96007291731
 21
256.500765771695
 72
     1
 10
318.96007291731
 20
256.500765771695
 11
319.047684982854
 21
256.548628461242
 72
     1
 10
319.047684982854
 20
256.548628461242
 11
319.124041791606
 21
256.612942914023
 72
     1
 10
319.124041791606
 20
256.612942914023
 11
319.18609923856
 21
256.691145115763
 72
     1
 10
319.18609923856
 20
256.691145115763
 11
319.23138328914
 21
256.780117391458
 72
     1
 10
319.23138328914
 20
256.780117391458
 11
319.25808861115
 21
256.876312697247
 72
     1
 10
319.25808861115
 20
256.876312697247
 11
319.2653637462
 21
256.9612962687
 72
     1
 10
319.2653637462
 20
256.9612962687
 11
319.2653637462
 21
257.9612962687
 72
     1
 10
319.2653637462
 20
257.9612962687
 11
319.255397035077
 21
258.060630934094
 72
     1
 10
319.255397035077
 20
258.060630934094
 11
319.225894243158
 21
258.156005439851
 72
     1
 10
319.225894243158
 20
258.156005439851
 11
319.178031553611
 21
258.243617505394
 72
     1
 10
319.178031553611
 20
258.243617505394
 11
319.11371710083
 21
258.319974314147
 72
     1
 10
319.11371710083
 20
258.319974314147
 11
319.03551489909
 21
258.382031761101
 72
     1
 10
319.03551489909
 20
258.382031761101
 11
318.946542623394
 21
258.42731581168
 72
     1
 10
318.946542623394
 20
258.42731581168
 11
318.850347317606
 21
258.454021133691
 72
     1
 10
318.850347317606
 20
258.454021133691
 11
318.7653637462
 21
258.4612962687
 72
     1
 10
318.7653637462
 20
258.4612962687
 11
318.517027082662
 21
258.486213046395
 72
     1
 10
318.517027082662
 20
258.486213046395
 11
318.27859081827
 21
258.559970026193
 72
     1
 10
318.27859081827
 20
258.559970026193
 11
318.059560654412
 21
258.67962675006
 72
     1
 10
318.059560654412
 20
258.67962675006
 11
317.868668632532
 21
258.840412882013
 72
     1
 10
317.868668632532
 20
258.840412882013
 11
317.713525015146
 21
259.035918386362
 72
     1
 10
317.713525015146
 20
259.035918386362
 11
317.600314888697
 21
259.258349075601
 72
     1
 10
317.600314888697
 20
259.258349075601
 11
317.53355158367
 21
259.498837340071
 72
     1
 10
317.53355158367
 20
259.498837340071
 11
317.515896742354
 21
259.747795671573
 72
     1
 10
317.515896742354
 20
259.747795671573
 11
317.548054207558
 21
259.995298887063
 72
     1
 10
317.548054207558
 20
259.995298887063
 11
317.628741962624
 21
260.231479814381
 72
     1
 10
317.628741962624
 20
260.231479814381
 11
317.754743241382
 21
260.446922665266
 72
     1
 10
317.754743241382
 20
260.446922665266
 11
317.921034770467
 21
260.633038413123
 72
     1
 10
317.921034770467
 20
260.633038413123
 11
318.120987031379
 21
260.782407210408
 72
     1
 10
318.120987031379
 20
260.782407210408
 11
318.346628558461
 21
260.889074194533
 72
     1
 10
318.346628558461
 20
260.889074194533
 11
318.588963736081
 21
260.948786889447
 72
     1
 10
318.588963736081
 20
260.948786889447
 11
318.7653637462
 21
260.9612962687
 72
     1
 10
318.7653637462
 20
260.9612962687
 11
318.864698411554
 21
260.971262979776
 72
     1
 10
318.864698411554
 20
260.971262979776
 11
318.96007291731
 21
261.000765771695
 72
     1
 10
318.96007291731
 20
261.000765771695
 11
319.047684982854
 21
261.048628461242
 72
     1
 10
319.047684982854
 20
261.048628461242
 11
319.124041791606
 21
261.112942914023
 72
     1
 10
319.124041791606
 20
261.112942914023
 11
319.18609923856
 21
261.191145115763
 72
     1
 10
319.18609923856
 20
261.191145115763
 11
319.23138328914
 21
261.280117391459
 72
     1
 10
319.23138328914
 20
261.280117391459
 11
319.25808861115
 21
261.376312697247
 72
     1
 10
319.25808861115
 20
261.376312697247
 11
319.2653637462
 21
261.4612962687
 72
     1
 10
319.2653637462
 20
261.4612962687
 11
319.2653637462
 21
262.4612962687
 72
     1
 10
319.2653637462
 20
262.4612962687
 11
319.255397035077
 21
262.560630934094
 72
     1
 10
319.255397035077
 20
262.560630934094
 11
319.225894243158
 21
262.656005439851
 72
     1
 10
319.225894243158
 20
262.656005439851
 11
319.178031553611
 21
262.743617505394
 72
     1
 10
319.178031553611
 20
262.743617505394
 11
319.11371710083
 21
262.819974314147
 72
     1
 10
319.11371710083
 20
262.819974314147
 11
319.03551489909
 21
262.882031761101
 72
     1
 10
319.03551489909
 20
262.882031761101
 11
318.946542623394
 21
262.92731581168
 72
     1
 10
318.946542623394
 20
262.92731581168
 11
318.850347317606
 21
262.954021133691
 72
     1
 10
318.850347317606
 20
262.954021133691
 11
318.7653637462
 21
262.9612962687
 72
     1
 10
318.7653637462
 20
262.9612962687
 11
318.517027082662
 21
262.986213046395
 72
     1
 10
318.517027082662
 20
262.986213046395
 11
318.27859081827
 21
263.059970026193
 72
     1
 10
318.27859081827
 20
263.059970026193
 11
318.059560654412
 21
263.17962675006
 72
     1
 10
318.059560654412
 20
263.17962675006
 11
317.868668632532
 21
263.340412882013
 72
     1
 10
317.868668632532
 20
263.340412882013
 11
317.713525015146
 21
263.535918386362
 72
     1
 10
317.713525015146
 20
263.535918386362
 11
317.600314888697
 21
263.758349075601
 72
     1
 10
317.600314888697
 20
263.758349075601
 11
317.53355158367
 21
263.998837340072
 72
     1
 10
317.53355158367
 20
263.998837340072
 11
317.515896742354
 21
264.247795671574
 72
     1
 10
317.515896742354
 20
264.247795671574
 11
317.548054207558
 21
264.495298887063
 72
     1
 10
317.548054207558
 20
264.495298887063
 11
317.628741962624
 21
264.731479814381
 72
     1
 10
317.628741962624
 20
264.731479814381
 11
317.754743241382
 21
264.946922665266
 72
     1
 10
317.754743241382
 20
264.946922665266
 11
317.921034770467
 21
265.133038413123
 72
     1
 10
317.921034770467
 20
265.133038413123
 11
318.120987031379
 21
265.282407210408
 72
     1
 10
318.120987031379
 20
265.282407210408
 11
318.346628558461
 21
265.389074194533
 72
     1
 10
318.346628558461
 20
265.389074194533
 11
318.588963736081
 21
265.448786889447
 72
     1
 10
318.588963736081
 20
265.448786889447
 11
318.7653637462
 21
265.4612962687
 72
     1
 10
318.7653637462
 20
265.4612962687
 11
318.864698411554
 21
265.471262979776
 72
     1
 10
318.864698411554
 20
265.471262979776
 11
318.96007291731
 21
265.500765771695
 72
     1
 10
318.96007291731
 20
265.500765771695
 11
319.047684982854
 21
265.548628461242
 72
     1
 10
319.047684982854
 20
265.548628461242
 11
319.124041791606
 21
265.612942914023
 72
     1
 10
319.124041791606
 20
265.612942914023
 11
319.18609923856
 21
265.691145115763
 72
     1
 10
319.18609923856
 20
265.691145115763
 11
319.23138328914
 21
265.780117391458
 72
     1
 10
319.23138328914
 20
265.780117391458
 11
319.25808861115
 21
265.876312697247
 72
     1
 10
319.25808861115
 20
265.876312697247
 11
319.2653637462
 21
265.9612962687
 72
     1
 10
319.2653637462
 20
265.9612962687
 11
319.2653637462
 21
266.9612962687
 72
     1
 10
319.2653637462
 20
266.9612962687
 11
319.255397035077
 21
267.060630934094
 72
     1
 10
319.255397035077
 20
267.060630934094
 11
319.225894243158
 21
267.156005439851
 72
     1
 10
319.225894243158
 20
267.156005439851
 11
319.178031553611
 21
267.243617505394
 72
     1
 10
319.178031553611
 20
267.243617505394
 11
319.11371710083
 21
267.319974314147
 72
     1
 10
319.11371710083
 20
267.319974314147
 11
319.03551489909
 21
267.382031761101
 72
     1
 10
319.03551489909
 20
267.382031761101
 11
318.946542623394
 21
267.42731581168
 72
     1
 10
318.946542623394
 20
267.42731581168
 11
318.850347317606
 21
267.454021133691
 72
     1
 10
318.850347317606
 20
267.454021133691
 11
318.7653637462
 21
267.4612962687
 72
     1
 10
318.7653637462
 20
267.4612962687
 11
318.517027082662
 21
267.486213046395
 72
     1
 10
318.517027082662
 20
267.486213046395
 11
318.27859081827
 21
267.559970026193
 72
     1
 10
318.27859081827
 20
267.559970026193
 11
318.059560654412
 21
267.67962675006
 72
     1
 10
318.059560654412
 20
267.67962675006
 11
317.868668632532
 21
267.840412882013
 72
     1
 10
317.868668632532
 20
267.840412882013
 11
317.713525015146
 21
268.035918386362
 72
     1
 10
317.713525015146
 20
268.035918386362
 11
317.600314888697
 21
268.258349075601
 72
     1
 10
317.600314888697
 20
268.258349075601
 11
317.53355158367
 21
268.498837340072
 72
     1
 10
317.53355158367
 20
268.498837340072
 11
317.515896742354
 21
268.747795671574
 72
     1
 10
317.515896742354
 20
268.747795671574
 11
317.548054207558
 21
268.995298887063
 72
     1
 10
317.548054207558
 20
268.995298887063
 11
317.628741962624
 21
269.231479814381
 72
     1
 10
317.628741962624
 20
269.231479814381
 11
317.754743241382
 21
269.446922665266
 72
     1
 10
317.754743241382
 20
269.446922665266
 11
317.921034770467
 21
269.633038413123
 72
     1
 10
317.921034770467
 20
269.633038413123
 11
318.120987031379
 21
269.782407210408
 72
     1
 10
318.120987031379
 20
269.782407210408
 11
318.346628558461
 21
269.889074194533
 72
     1
 10
318.346628558461
 20
269.889074194533
 11
318.588963736081
 21
269.948786889447
 72
     1
 10
318.588963736081
 20
269.948786889447
 11
318.7653637462
 21
269.9612962687
 72
     1
 10
318.7653637462
 20
269.9612962687
 11
318.864698411554
 21
269.971262979776
 72
     1
 10
318.864698411554
 20
269.971262979776
 11
318.96007291731
 21
270.000765771696
 72
     1
 10
318.96007291731
 20
270.000765771696
 11
319.047684982854
 21
270.048628461242
 72
     1
 10
319.047684982854
 20
270.048628461242
 11
319.124041791606
 21
270.112942914023
 72
     1
 10
319.124041791606
 20
270.112942914023
 11
319.18609923856
 21
270.191145115763
 72
     1
 10
319.18609923856
 20
270.191145115763
 11
319.23138328914
 21
270.280117391459
 72
     1
 10
319.23138328914
 20
270.280117391459
 11
319.25808861115
 21
270.376312697247
 72
     1
 10
319.25808861115
 20
270.376312697247
 11
319.2653637462
 21
270.4612962687
 72
     1
 10
319.2653637462
 20
270.4612962687
 11
319.2653637462
 21
271.4612962687
 72
     1
 10
319.2653637462
 20
271.4612962687
 11
319.255397035077
 21
271.560630934094
 72
     1
 10
319.255397035077
 20
271.560630934094
 11
319.225894243157
 21
271.656005439851
 72
     1
 10
319.225894243157
 20
271.656005439851
 11
319.178031553611
 21
271.743617505394
 72
     1
 10
319.178031553611
 20
271.743617505394
 11
319.11371710083
 21
271.819974314147
 72
     1
 10
319.11371710083
 20
271.819974314147
 11
319.03551489909
 21
271.882031761101
 72
     1
 10
319.03551489909
 20
271.882031761101
 11
318.946542623394
 21
271.927315811681
 72
     1
 10
318.946542623394
 20
271.927315811681
 11
318.850347317606
 21
271.954021133691
 72
     1
 10
318.850347317606
 20
271.954021133691
 11
318.7653637462
 21
271.9612962687
 72
     1
 10
318.7653637462
 20
271.9612962687
 11
318.517027082662
 21
271.986213046395
 72
     1
 10
318.517027082662
 20
271.986213046395
 11
318.27859081827
 21
272.059970026193
 72
     1
 10
318.27859081827
 20
272.059970026193
 11
318.059560654412
 21
272.17962675006
 72
     1
 10
318.059560654412
 20
272.17962675006
 11
317.868668632532
 21
272.340412882013
 72
     1
 10
317.868668632532
 20
272.340412882013
 11
317.713525015146
 21
272.535918386362
 72
     1
 10
317.713525015146
 20
272.535918386362
 11
317.600314888697
 21
272.758349075601
 72
     1
 10
317.600314888697
 20
272.758349075601
 11
317.53355158367
 21
272.998837340071
 72
     1
 10
317.53355158367
 20
272.998837340071
 11
317.515896742354
 21
273.247795671573
 72
     1
 10
317.515896742354
 20
273.247795671573
 11
317.548054207558
 21
273.495298887063
 72
     1
 10
317.548054207558
 20
273.495298887063
 11
317.628741962624
 21
273.731479814381
 72
     1
 10
317.628741962624
 20
273.731479814381
 11
317.754743241382
 21
273.946922665266
 72
     1
 10
317.754743241382
 20
273.946922665266
 11
317.921034770467
 21
274.133038413123
 72
     1
 10
317.921034770467
 20
274.133038413123
 11
318.120987031379
 21
274.282407210408
 72
     1
 10
318.120987031379
 20
274.282407210408
 11
318.346628558461
 21
274.389074194533
 72
     1
 10
318.346628558461
 20
274.389074194533
 11
318.588963736081
 21
274.448786889447
 72
     1
 10
318.588963736081
 20
274.448786889447
 11
318.7653637462
 21
274.4612962687
 72
     1
 10
318.7653637462
 20
274.4612962687
 11
318.864698411554
 21
274.471262979776
 72
     1
 10
318.864698411554
 20
274.471262979776
 11
318.96007291731
 21
274.500765771695
 72
     1
 10
318.96007291731
 20
274.500765771695
 11
319.047684982854
 21
274.548628461242
 72
     1
 10
319.047684982854
 20
274.548628461242
 11
319.124041791606
 21
274.612942914023
 72
     1
 10
319.124041791606
 20
274.612942914023
 11
319.18609923856
 21
274.691145115763
 72
     1
 10
319.18609923856
 20
274.691145115763
 11
319.23138328914
 21
274.780117391459
 72
     1
 10
319.23138328914
 20
274.780117391459
 11
319.25808861115
 21
274.876312697247
 72
     1
 10
319.25808861115
 20
274.876312697247
 11
319.2653637462
 21
274.9612962687
 72
     1
 10
319.2653637462
 20
274.9612962687
 11
319.2653637462
 21
275.9612962687
 72
     1
 10
319.2653637462
 20
275.9612962687
 11
319.255397035077
 21
276.060630934094
 72
     1
 10
319.255397035077
 20
276.060630934094
 11
319.225894243157
 21
276.156005439851
 72
     1
 10
319.225894243157
 20
276.156005439851
 11
319.178031553611
 21
276.243617505394
 72
     1
 10
319.178031553611
 20
276.243617505394
 11
319.11371710083
 21
276.319974314147
 72
     1
 10
319.11371710083
 20
276.319974314147
 11
319.03551489909
 21
276.382031761101
 72
     1
 10
319.03551489909
 20
276.382031761101
 11
318.946542623394
 21
276.42731581168
 72
     1
 10
318.946542623394
 20
276.42731581168
 11
318.850347317606
 21
276.454021133691
 72
     1
 10
318.850347317606
 20
276.454021133691
 11
318.7653637462
 21
276.4612962687
 72
     1
 10
318.7653637462
 20
276.4612962687
 11
318.517027082662
 21
276.486213046395
 72
     1
 10
318.517027082662
 20
276.486213046395
 11
318.27859081827
 21
276.559970026193
 72
     1
 10
318.27859081827
 20
276.559970026193
 11
318.059560654412
 21
276.67962675006
 72
     1
 10
318.059560654412
 20
276.67962675006
 11
317.868668632532
 21
276.840412882013
 72
     1
 10
317.868668632532
 20
276.840412882013
 11
317.713525015146
 21
277.035918386362
 72
     1
 10
317.713525015146
 20
277.035918386362
 11
317.600314888697
 21
277.258349075601
 72
     1
 10
317.600314888697
 20
277.258349075601
 11
317.53355158367
 21
277.498837340072
 72
     1
 10
317.53355158367
 20
277.498837340072
 11
317.515896742354
 21
277.747795671574
 72
     1
 10
317.515896742354
 20
277.747795671574
 11
317.548054207558
 21
277.995298887063
 72
     1
 10
317.548054207558
 20
277.995298887063
 11
317.628741962624
 21
278.231479814381
 72
     1
 10
317.628741962624
 20
278.231479814381
 11
317.754743241382
 21
278.446922665266
 72
     1
 10
317.754743241382
 20
278.446922665266
 11
317.921034770467
 21
278.633038413123
 72
     1
 10
317.921034770467
 20
278.633038413123
 11
318.120987031379
 21
278.782407210408
 72
     1
 10
318.120987031379
 20
278.782407210408
 11
318.346628558461
 21
278.889074194533
 72
     1
 10
318.346628558461
 20
278.889074194533
 11
318.588963736081
 21
278.948786889447
 72
     1
 10
318.588963736081
 20
278.948786889447
 11
318.7653637462
 21
278.9612962687
 72
     1
 10
318.7653637462
 20
278.9612962687
 11
318.864698411554
 21
278.971262979776
 72
     1
 10
318.864698411554
 20
278.971262979776
 11
318.96007291731
 21
279.000765771695
 72
     1
 10
318.96007291731
 20
279.000765771695
 11
319.047684982854
 21
279.048628461242
 72
     1
 10
319.047684982854
 20
279.048628461242
 11
319.124041791606
 21
279.112942914023
 72
     1
 10
319.124041791606
 20
279.112942914023
 11
319.18609923856
 21
279.191145115763
 72
     1
 10
319.18609923856
 20
279.191145115763
 11
319.23138328914
 21
279.280117391459
 72
     1
 10
319.23138328914
 20
279.280117391459
 11
319.25808861115
 21
279.376312697247
 72
     1
 10
319.25808861115
 20
279.376312697247
 11
319.2653637462
 21
279.4612962687
 72
     1
 10
319.2653637462
 20
279.4612962687
 11
319.2653637462
 21
280.4612962687
 72
     1
 10
319.2653637462
 20
280.4612962687
 11
319.255397035077
 21
280.560630934094
 72
     1
 10
319.255397035077
 20
280.560630934094
 11
319.225894243157
 21
280.656005439851
 72
     1
 10
319.225894243157
 20
280.656005439851
 11
319.178031553611
 21
280.743617505394
 72
     1
 10
319.178031553611
 20
280.743617505394
 11
319.11371710083
 21
280.819974314147
 72
     1
 10
319.11371710083
 20
280.819974314147
 11
319.03551489909
 21
280.882031761101
 72
     1
 10
319.03551489909
 20
280.882031761101
 11
318.946542623394
 21
280.927315811681
 72
     1
 10
318.946542623394
 20
280.927315811681
 11
318.850347317606
 21
280.954021133691
 72
     1
 10
318.850347317606
 20
280.954021133691
 11
318.7653637462
 21
280.9612962687
 72
     1
 10
318.7653637462
 20
280.9612962687
 11
318.517027082662
 21
280.986213046395
 72
     1
 10
318.517027082662
 20
280.986213046395
 11
318.27859081827
 21
281.059970026193
 72
     1
 10
318.27859081827
 20
281.059970026193
 11
318.059560654412
 21
281.17962675006
 72
     1
 10
318.059560654412
 20
281.17962675006
 11
317.868668632532
 21
281.340412882013
 72
     1
 10
317.868668632532
 20
281.340412882013
 11
317.713525015146
 21
281.535918386362
 72
     1
 10
317.713525015146
 20
281.535918386362
 11
317.600314888697
 21
281.758349075601
 72
     1
 10
317.600314888697
 20
281.758349075601
 11
317.53355158367
 21
281.998837340071
 72
     1
 10
317.53355158367
 20
281.998837340071
 11
317.515896742354
 21
282.247795671573
 72
     1
 10
317.515896742354
 20
282.247795671573
 11
317.548054207558
 21
282.495298887063
 72
     1
 10
317.548054207558
 20
282.495298887063
 11
317.628741962624
 21
282.731479814381
 72
     1
 10
317.628741962624
 20
282.731479814381
 11
317.754743241382
 21
282.946922665266
 72
     1
 10
317.754743241382
 20
282.946922665266
 11
317.921034770467
 21
283.133038413123
 72
     1
 10
317.921034770467
 20
283.133038413123
 11
318.120987031379
 21
283.282407210408
 72
     1
 10
318.120987031379
 20
283.282407210408
 11
318.346628558461
 21
283.389074194533
 72
     1
 10
318.346628558461
 20
283.389074194533
 11
318.588963736081
 21
283.448786889447
 72
     1
 10
318.588963736081
 20
283.448786889447
 11
318.7653637462
 21
283.4612962687
 72
     1
 10
318.7653637462
 20
283.4612962687
 11
318.864698411554
 21
283.471262979776
 72
     1
 10
318.864698411554
 20
283.471262979776
 11
318.96007291731
 21
283.500765771695
 72
     1
 10
318.96007291731
 20
283.500765771695
 11
319.047684982854
 21
283.548628461242
 72
     1
 10
319.047684982854
 20
283.548628461242
 11
319.124041791606
 21
283.612942914023
 72
     1
 10
319.124041791606
 20
283.612942914023
 11
319.18609923856
 21
283.691145115763
 72
     1
 10
319.18609923856
 20
283.691145115763
 11
319.23138328914
 21
283.780117391459
 72
     1
 10
319.23138328914
 20
283.780117391459
 11
319.25808861115
 21
283.876312697247
 72
     1
 10
319.25808861115
 20
283.876312697247
 11
319.2653637462
 21
283.9612962687
 72
     1
 10
319.2653637462
 20
283.9612962687
 11
319.2653637462
 21
284.9612962687
 72
     1
 10
319.2653637462
 20
284.9612962687
 11
319.255397035077
 21
285.060630934094
 72
     1
 10
319.255397035077
 20
285.060630934094
 11
319.225894243157
 21
285.156005439851
 72
     1
 10
319.225894243157
 20
285.156005439851
 11
319.178031553611
 21
285.243617505394
 72
     1
 10
319.178031553611
 20
285.243617505394
 11
319.11371710083
 21
285.319974314147
 72
     1
 10
319.11371710083
 20
285.319974314147
 11
319.03551489909
 21
285.382031761101
 72
     1
 10
319.03551489909
 20
285.382031761101
 11
318.946542623394
 21
285.42731581168
 72
     1
 10
318.946542623394
 20
285.42731581168
 11
318.850347317606
 21
285.454021133691
 72
     1
 10
318.850347317606
 20
285.454021133691
 11
318.7653637462
 21
285.4612962687
 97
        0
 75
     1
 76
     2
 52
0.0
 41
1.0
 77
     0
 78
     1
 53
44.99999999999998
 43
0.0
 44
0.0
 45
-4.490128060534577
 46
0.0000000000000018
 79
     0
 98
        1
 10
0.0
 20
0.0
  0
HATCH
  5
380
330
44
100
AcDbEntity
  8
0
  6
Continuous
 62
     7
100
AcDbHatch
 10
0.0
 20
0.0
 30
0.0
210
0.0
220
0.0
230
1.0
  2
CUSTOM10
 70
     0
 71
     0
 91
        1
 92
        1
 93
       40
 72
     1
 10
314.265363746156
 20
313.461296268697
 11
315.765363746156
 21
313.461296268697
 72
     1
 10
315.765363746156
 20
313.461296268697
 11
315.7653637462
 21
315.9612962687
 72
     1
 10
315.7653637462
 20
315.9612962687
 11
315.715530190759
 21
316.457969595685
 72
     1
 10
315.715530190759
 20
316.457969595685
 11
315.568016231163
 21
316.934842124469
 72
     1
 10
315.568016231163
 20
316.934842124469
 11
315.32870278343
 21
317.372902452185
 72
     1
 10
315.32870278343
 20
317.372902452185
 11
315.007130519524
 21
317.754686495946
 72
     1
 10
315.007130519524
 20
317.754686495946
 11
314.616119510826
 21
318.064973730717
 72
     1
 10
314.616119510826
 20
318.064973730717
 11
314.171258132348
 21
318.291393983615
 72
     1
 10
314.171258132348
 20
318.291393983615
 11
313.690281603407
 21
318.424920593668
 72
     1
 10
313.690281603407
 20
318.424920593668
 11
313.2653637462
 21
318.4612962687
 72
     1
 10
313.2653637462
 20
318.4612962687
 11
309.0153637462
 21
318.4612962687
 72
     1
 10
309.0153637462
 20
318.4612962687
 11
308.518690419168
 21
318.4114627133
 72
     1
 10
308.518690419168
 20
318.4114627133
 11
308.041817890384
 21
318.263948753704
 72
     1
 10
308.041817890384
 20
318.263948753704
 11
307.603757562668
 21
318.024635305971
 72
     1
 10
307.603757562668
 20
318.024635305971
 11
307.221973518907
 21
317.703063042065
 72
     1
 10
307.221973518907
 20
317.703063042065
 11
306.911686284136
 21
317.312052033367
 72
     1
 10
306.911686284136
 20
317.312052033367
 11
306.685266031238
 21
316.867190654889
 72
     1
 10
306.685266031238
 20
316.867190654889
 11
306.551739421185
 21
316.386214125948
 72
     1
 10
306.551739421185
 20
316.386214125948
 11
306.5153637462
 21
315.9612962687
 72
     1
 10
306.5153637462
 20
315.9612962687
 11
306.515363746156
 21
314.461296268697
 72
     1
 10
306.515363746156
 20
314.461296268697
 11
308.015363746156
 21
314.461296268697
 72
     1
 10
308.015363746156
 20
314.461296268697
 11
308.0153637462
 21
315.9612962687
 72
     1
 10
308.0153637462
 20
315.9612962687
 11
308.035297168315
 21
316.159965599492
 72
     1
 10
308.035297168315
 20
316.159965599492
 11
308.094302752153
 21
316.350714611006
 72
     1
 10
308.094302752153
 20
316.350714611006
 11
308.190028131246
 21
316.525938742092
 72
     1
 10
308.190028131246
 20
316.525938742092
 11
308.318657036809
 21
316.678652359596
 72
     1
 10
308.318657036809
 20
316.678652359596
 11
308.475061440288
 21
316.802767253505
 72
     1
 10
308.475061440288
 20
316.802767253505
 11
308.653005991679
 21
316.893335354664
 72
     1
 10
308.653005991679
 20
316.893335354664
 11
308.845396603256
 21
316.946745998685
 72
     1
 10
308.845396603256
 20
316.946745998685
 11
309.0153637462
 21
316.9612962687
 72
     1
 10
309.0153637462
 20
316.9612962687
 11
313.2653637462
 21
316.9612962687
 72
     1
 10
313.2653637462
 20
316.9612962687
 11
313.464033076951
 21
316.941362846538
 72
     1
 10
313.464033076951
 20
316.941362846538
 11
313.654782088465
 21
316.8823572627
 72
     1
 10
313.654782088465
 20
316.8823572627
 11
313.830006219551
 21
316.786631883607
 72
     1
 10
313.830006219551
 20
316.786631883607
 11
313.982719837055
 21
316.658002978044
 72
     1
 10
313.982719837055
 20
316.658002978044
 11
314.106834730964
 21
316.501598574565
 72
     1
 10
314.106834730964
 20
316.501598574565
 11
314.197402832123
 21
316.323654023174
 72
     1
 10
314.197402832123
 20
316.323654023174
 11
314.250813476144
 21
316.131263411597
 72
     1
 10
314.250813476144
 20
316.131263411597
 11
314.2653637462
 21
315.9612962687
 72
     1
 10
314.2653637462
 20
315.9612962687
 11
314.265363746156
 21
313.461296268697
 97
        0
 75
     1
 76
     2
 52
0.0
 41
1.0
 77
     0
 78
     1
 53
44.99999999999998
 43
0.0
 44
0.0
 45
-4.490128060534577
 46
0.0000000000000018
 79
     0
 98
        1
 10
0.0
 20
0.0
  0
HATCH
  5
381
330
44
100
AcDbEntity
  8
0
  6
Continuous
 62
     7
100
AcDbHatch
 10
0.0
 20
0.0
 30
0.0
210
0.0
220
0.0
230
1.0
  2
CUSTOM11
 70
     0
 71
     0
 91
        1
 92
        1
 93
       40
 72
     1
 10
210.5153637462
 20
315.9612962687
 11
210.515363746156
 21
314.461296268697
 72
     1
 10
210.515363746156
 20
314.461296268697
 11
212.015363746156
 21
314.461296268697
 72
     1
 10
212.015363746156
 20
314.461296268697
 11
212.0153637462
 21
315.9612962687
 72
     1
 10
212.0153637462
 20
315.9612962687
 11
212.035297168315
 21
316.159965599492
 72
     1
 10
212.035297168315
 20
316.159965599492
 11
212.094302752153
 21
316.350714611006
 72
     1
 10
212.094302752153
 20
316.350714611006
 11
212.190028131246
 21
316.525938742092
 72
     1
 10
212.190028131246
 20
316.525938742092
 11
212.318657036809
 21
316.678652359596
 72
     1
 10
212.318657036809
 20
316.678652359596
 11
212.475061440288
 21
316.802767253505
 72
     1
 10
212.475061440288
 20
316.802767253505
 11
212.653005991679
 21
316.893335354664
 72
     1
 10
212.653005991679
 20
316.893335354664
 11
212.845396603256
 21
316.946745998685
 72
     1
 10
212.845396603256
 20
316.946745998685
 11
213.0153637462
 21
316.9612962687
 72
     1
 10
213.0153637462
 20
316.9612962687
 11
216.5153637462
 21
316.9612962687
 72
     1
 10
216.5153637462
 20
316.9612962687
 11
216.714033076951
 21
316.941362846538
 72
     1
 10
216.714033076951
 20
316.941362846538
 11
216.904782088465
 21
316.8823572627
 72
     1
 10
216.904782088465
 20
316.8823572627
 11
217.080006219551
 21
316.786631883607
 72
     1
 10
217.080006219551
 20
316.786631883607
 11
217.232719837055
 21
316.658002978044
 72
     1
 10
217.232719837055
 20
316.658002978044
 11
217.356834730964
 21
316.501598574565
 72
     1
 10
217.356834730964
 20
316.501598574565
 11
217.447402832123
 21
316.323654023174
 72
     1
 10
217.447402832123
 20
316.323654023174
 11
217.500813476144
 21
316.131263411597
 72
     1
 10
217.500813476144
 20
316.131263411597
 11
217.5153637462
 21
315.9612962687
 72
     1
 10
217.5153637462
 20
315.9612962687
 11
217.515363746156
 21
314.461296268697
 72
     1
 10
217.515363746156
 20
314.461296268697
 11
219.015363746156
 21
314.461296268697
 72
     1
 10
219.015363746156
 20
314.461296268697
 11
219.0153637462
 21
315.9612962687
 72
     1
 10
219.0153637462
 20
315.9612962687
 11
218.965530190759
 21
316.457969595685
 72
     1
 10
218.965530190759
 20
316.457969595685
 11
218.818016231163
 21
316.934842124469
 72
     1
 10
218.818016231163
 20
316.934842124469
 11
218.57870278343
 21
317.372902452185
 72
     1
 10
218.57870278343
 20
317.372902452185
 11
218.257130519524
 21
317.754686495946
 72
     1
 10
218.257130519524
 20
317.754686495946
 11
217.866119510826
 21
318.064973730717
 72
     1
 10
217.866119510826
 20
318.064973730717
 11
217.421258132348
 21
318.291393983615
 72
     1
 10
217.421258132348
 20
318.291393983615
 11
216.940281603407
 21
318.424920593668
 72
     1
 10
216.940281603407
 20
318.424920593668
 11
216.5153637462
 21
318.4612962687
 72
     1
 10
216.5153637462
 20
318.4612962687
 11
213.0153637462
 21
318.4612962687
 72
     1
 10
213.0153637462
 20
318.4612962687
 11
212.518690419168
 21
318.4114627133
 72
     1
 10
212.518690419168
 20
318.4114627133
 11
212.041817890384
 21
318.263948753704
 72
     1
 10
212.041817890384
 20
318.263948753704
 11
211.603757562668
 21
318.024635305971
 72
     1
 10
211.603757562668
 20
318.024635305971
 11
211.221973518907
 21
317.703063042065
 72
     1
 10
211.221973518907
 20
317.703063042065
 11
210.911686284136
 21
317.312052033367
 72
     1
 10
210.911686284136
 20
317.312052033367
 11
210.685266031238
 21
316.867190654889
 72
     1
 10
210.685266031238
 20
316.867190654889
 11
210.551739421185
 21
316.386214125948
 72
     1
 10
210.551739421185
 20
316.386214125948
 11
210.5153637462
 21
315.9612962687
 97
        0
 75
     1
 76
     2
 52
0.0
 41
1.0
 77
     0
 78
     1
 53
44.99999999999998
 43
0.0
 44
0.0
 45
-4.490128060534577
 46
0.0000000000000018
 79
     0
 98
        1
 10
0.0
 20
0.0
  0
HATCH
  5
382
330
44
100
AcDbEntity
  8
0
  6
Continuous
 62
     7
100
AcDbHatch
 10
0.0
 20
0.0
 30
0.0
210
0.0
220
0.0
230
1.0
  2
CUSTOM12
 70
     0
 71
     0
 91
        1
 92
        1
 93
       40
 72
     1
 10
194.5153637462
 20
315.9612962687
 11
194.515363746156
 21
314.461296268697
 72
     1
 10
194.515363746156
 20
314.461296268697
 11
196.015363746156
 21
314.461296268697
 72
     1
 10
196.015363746156
 20
314.461296268697
 11
196.0153637462
 21
315.9612962687
 72
     1
 10
196.0153637462
 20
315.9612962687
 11
196.035297168315
 21
316.159965599492
 72
     1
 10
196.035297168315
 20
316.159965599492
 11
196.094302752153
 21
316.350714611006
 72
     1
 10
196.094302752153
 20
316.350714611006
 11
196.190028131246
 21
316.525938742092
 72
     1
 10
196.190028131246
 20
316.525938742092
 11
196.318657036809
 21
316.678652359596
 72
     1
 10
196.318657036809
 20
316.678652359596
 11
196.475061440288
 21
316.802767253505
 72
     1
 10
196.475061440288
 20
316.802767253505
 11
196.653005991679
 21
316.893335354664
 72
     1
 10
196.653005991679
 20
316.893335354664
 11
196.845396603256
 21
316.946745998685
 72
     1
 10
196.845396603256
 20
316.946745998685
 11
197.0153637462
 21
316.9612962687
 72
     1
 10
197.0153637462
 20
316.9612962687
 11
200.5153637462
 21
316.9612962687
 72
     1
 10
200.5153637462
 20
316.9612962687
 11
200.714033076951
 21
316.941362846538
 72
     1
 10
200.714033076951
 20
316.941362846538
 11
200.904782088465
 21
316.8823572627
 72
     1
 10
200.904782088465
 20
316.8823572627
 11
201.080006219551
 21
316.786631883607
 72
     1
 10
201.080006219551
 20
316.786631883607
 11
201.232719837056
 21
316.658002978044
 72
     1
 10
201.232719837056
 20
316.658002978044
 11
201.356834730964
 21
316.501598574565
 72
     1
 10
201.356834730964
 20
316.501598574565
 11
201.447402832123
 21
316.323654023174
 72
     1
 10
201.447402832123
 20
316.323654023174
 11
201.500813476144
 21
316.131263411597
 72
     1
 10
201.500813476144
 20
316.131263411597
 11
201.5153637462
 21
315.9612962687
 72
     1
 10
201.5153637462
 20
315.9612962687
 11
201.515363746156
 21
314.461296268697
 72
     1
 10
201.515363746156
 20
314.461296268697
 11
203.015363746156
 21
314.461296268697
 72
     1
 10
203.015363746156
 20
314.461296268697
 11
203.0153637462
 21
315.9612962687
 72
     1
 10
203.0153637462
 20
315.9612962687
 11
202.965530190759
 21
316.457969595685
 72
     1
 10
202.965530190759
 20
316.457969595685
 11
202.818016231163
 21
316.934842124469
 72
     1
 10
202.818016231163
 20
316.934842124469
 11
202.57870278343
 21
317.372902452185
 72
     1
 10
202.57870278343
 20
317.372902452185
 11
202.257130519524
 21
317.754686495946
 72
     1
 10
202.257130519524
 20
317.754686495946
 11
201.866119510826
 21
318.064973730717
 72
     1
 10
201.866119510826
 20
318.064973730717
 11
201.421258132348
 21
318.291393983615
 72
     1
 10
201.421258132348
 20
318.291393983615
 11
200.940281603407
 21
318.424920593668
 72
     1
 10
200.940281603407
 20
318.424920593668
 11
200.5153637462
 21
318.4612962687
 72
     1
 10
200.5153637462
 20
318.4612962687
 11
197.0153637462
 21
318.4612962687
 72
     1
 10
197.0153637462
 20
318.4612962687
 11
196.518690419168
 21
318.4114627133
 72
     1
 10
196.518690419168
 20
318.4114627133
 11
196.041817890384
 21
318.263948753704
 72
     1
 10
196.041817890384
 20
318.263948753704
 11
195.603757562668
 21
318.024635305971
 72
     1
 10
195.603757562668
 20
318.024635305971
 11
195.221973518907
 21
317.703063042065
 72
     1
 10
195.221973518907
 20
317.703063042065
 11
194.911686284136
 21
317.312052033367
 72
     1
 10
194.911686284136
 20
317.312052033367
 11
194.685266031238
 21
316.867190654889
 72
     1
 10
194.685266031238
 20
316.867190654889
 11
194.551739421185
 21
316.386214125948
 72
     1
 10
194.551739421185
 20
316.386214125948
 11
194.5153637462
 21
315.9612962687
 97
        0
 75
     1
 76
     2
 52
0.0
 41
1.0
 77
     0
 78
     1
 53
44.99999999999998
 43
0.0
 44
0.0
 45
-4.490128060534577
 46
0.0000000000000018
 79
     0
 98
        1
 10
0.0
 20
0.0
  0
HATCH
  5
383
330
44
100
AcDbEntity
  8
0
  6
Continuous
 62
     7
100
AcDbHatch
 10
0.0
 20
0.0
 30
0.0
210
0.0
220
0.0
230
1.0
  2
CUSTOM13
 70
     0
 71
     0
 91
        1
 92
        1
 93
       40
 72
     1
 10
180.2653637462
 20
318.4612962687
 11
179.768690419168
 21
318.4114627133
 72
     1
 10
179.768690419168
 20
318.4114627133
 11
179.291817890384
 21
318.263948753704
 72
     1
 10
179.291817890384
 20
318.263948753704
 11
178.853757562668
 21
318.024635305971
 72
     1
 10
178.853757562668
 20
318.024635305971
 11
178.471973518907
 21
317.703063042065
 72
     1
 10
178.471973518907
 20
317.703063042065
 11
178.161686284136
 21
317.312052033367
 72
     1
 10
178.161686284136
 20
317.312052033367
 11
177.935266031238
 21
316.867190654889
 72
     1
 10
177.935266031238
 20
316.867190654889
 11
177.801739421185
 21
316.386214125948
 72
     1
 10
177.801739421185
 20
316.386214125948
 11
177.7653637462
 21
315.9612962687
 72
     1
 10
177.7653637462
 20
315.9612962687
 11
177.765363746156
 21
313.461296268697
 72
     1
 10
177.765363746156
 20
313.461296268697
 11
179.265363746156
 21
313.461296268697
 72
     1
 10
179.265363746156
 20
313.461296268697
 11
179.2653637462
 21
315.9612962687
 72
     1
 10
179.2653637462
 20
315.9612962687
 11
179.285297168315
 21
316.159965599492
 72
     1
 10
179.285297168315
 20
316.159965599492
 11
179.344302752153
 21
316.350714611006
 72
     1
 10
179.344302752153
 20
316.350714611006
 11
179.440028131246
 21
316.525938742092
 72
     1
 10
179.440028131246
 20
316.525938742092
 11
179.568657036809
 21
316.678652359596
 72
     1
 10
179.568657036809
 20
316.678652359596
 11
179.725061440288
 21
316.802767253505
 72
     1
 10
179.725061440288
 20
316.802767253505
 11
179.903005991679
 21
316.893335354664
 72
     1
 10
179.903005991679
 20
316.893335354664
 11
180.095396603256
 21
316.946745998685
 72
     1
 10
180.095396603256
 20
316.946745998685
 11
180.2653637462
 21
316.9612962687
 72
     1
 10
180.2653637462
 20
316.9612962687
 11
184.5153637462
 21
316.9612962687
 72
     1
 10
184.5153637462
 20
316.9612962687
 11
184.714033076951
 21
316.941362846538
 72
     1
 10
184.714033076951
 20
316.941362846538
 11
184.904782088465
 21
316.8823572627
 72
     1
 10
184.904782088465
 20
316.8823572627
 11
185.080006219551
 21
316.786631883607
 72
     1
 10
185.080006219551
 20
316.786631883607
 11
185.232719837056
 21
316.658002978044
 72
     1
 10
185.232719837056
 20
316.658002978044
 11
185.356834730964
 21
316.501598574565
 72
     1
 10
185.356834730964
 20
316.501598574565
 11
185.447402832123
 21
316.323654023174
 72
     1
 10
185.447402832123
 20
316.323654023174
 11
185.500813476144
 21
316.131263411597
 72
     1
 10
185.500813476144
 20
316.131263411597
 11
185.5153637462
 21
315.9612962687
 72
     1
 10
185.5153637462
 20
315.9612962687
 11
185.515363746156
 21
314.461296268697
 72
     1
 10
185.515363746156
 20
314.461296268697
 11
187.015363746156
 21
314.461296268697
 72
     1
 10
187.015363746156
 20
314.461296268697
 11
187.0153637462
 21
315.9612962687
 72
     1
 10
187.0153637462
 20
315.9612962687
 11
186.965530190759
 21
316.457969595685
 72
     1
 10
186.965530190759
 20
316.457969595685
 11
186.818016231163
 21
316.934842124469
 72
     1
 10
186.818016231163
 20
316.934842124469
 11
186.57870278343
 21
317.372902452185
 72
     1
 10
186.57870278343
 20
317.372902452185
 11
186.257130519524
 21
317.754686495946
 72
     1
 10
186.257130519524
 20
317.754686495946
 11
185.866119510826
 21
318.064973730717
 72
     1
 10
185.866119510826
 20
318.064973730717
 11
185.421258132348
 21
318.291393983615
 72
     1
 10
185.421258132348
 20
318.291393983615
 11
184.940281603407
 21
318.424920593668
 72
     1
 10
184.940281603407
 20
318.424920593668
 11
184.5153637462
 21
318.4612962687
 72
     1
 10
184.5153637462
 20
318.4612962687
 11
180.2653637462
 21
318.4612962687
 97
        0
 75
     1
 76
     2
 52
0.0
 41
1.0
 77
     0
 78
     1
 53
44.99999999999998
 43
0.0
 44
0.0
 45
-4.490128060534577
 46
0.0000000000000018
 79
     0
 98
        1
 10
0.0
 20
0.0
  0
HATCH
  5
384
330
44
100
AcDbEntity
  8
0
  6
Continuous
 62
     7
100
AcDbHatch
 10
0.0
 20
0.0
 30
0.0
210
0.0
220
0.0
230
1.0
  2
CUSTOM14
 70
     0
 71
     0
 91
        1
 92
        1
 93
       40
 72
     1
 10
281.5153637462
 20
315.9612962687
 11
281.515363746156
 21
314.461296268697
 72
     1
 10
281.515363746156
 20
314.461296268697
 11
283.015363746156
 21
314.461296268697
 72
     1
 10
283.015363746156
 20
314.461296268697
 11
283.0153637462
 21
315.9612962687
 72
     1
 10
283.0153637462
 20
315.9612962687
 11
282.965530190759
 21
316.457969595685
 72
     1
 10
282.965530190759
 20
316.457969595685
 11
282.818016231163
 21
316.934842124469
 72
     1
 10
282.818016231163
 20
316.934842124469
 11
282.57870278343
 21
317.372902452185
 72
     1
 10
282.57870278343
 20
317.372902452185
 11
282.257130519524
 21
317.754686495946
 72
     1
 10
282.257130519524
 20
317.754686495946
 11
281.866119510826
 21
318.064973730717
 72
     1
 10
281.866119510826
 20
318.064973730717
 11
281.421258132348
 21
318.291393983615
 72
     1
 10
281.421258132348
 20
318.291393983615
 11
280.940281603407
 21
318.424920593668
 72
     1
 10
280.940281603407
 20
318.424920593668
 11
280.5153637462
 21
318.4612962687
 72
     1
 10
280.5153637462
 20
318.4612962687
 11
277.0153637462
 21
318.4612962687
 72
     1
 10
277.0153637462
 20
318.4612962687
 11
276.518690419168
 21
318.4114627133
 72
     1
 10
276.518690419168
 20
318.4114627133
 11
276.041817890384
 21
318.263948753704
 72
     1
 10
276.041817890384
 20
318.263948753704
 11
275.603757562668
 21
318.024635305971
 72
     1
 10
275.603757562668
 20
318.024635305971
 11
275.221973518907
 21
317.703063042065
 72
     1
 10
275.221973518907
 20
317.703063042065
 11
274.911686284136
 21
317.312052033367
 72
     1
 10
274.911686284136
 20
317.312052033367
 11
274.685266031238
 21
316.867190654889
 72
     1
 10
274.685266031238
 20
316.867190654889
 11
274.551739421185
 21
316.386214125948
 72
     1
 10
274.551739421185
 20
316.386214125948
 11
274.5153637462
 21
315.9612962687
 72
     1
 10
274.5153637462
 20
315.9612962687
 11
274.515363746156
 21
314.461296268697
 72
     1
 10
274.515363746156
 20
314.461296268697
 11
276.015363746156
 21
314.461296268697
 72
     1
 10
276.015363746156
 20
314.461296268697
 11
276.0153637462
 21
315.9612962687
 72
     1
 10
276.0153637462
 20
315.9612962687
 11
276.035297168315
 21
316.159965599492
 72
     1
 10
276.035297168315
 20
316.159965599492
 11
276.094302752153
 21
316.350714611006
 72
     1
 10
276.094302752153
 20
316.350714611006
 11
276.190028131246
 21
316.525938742092
 72
     1
 10
276.190028131246
 20
316.525938742092
 11
276.318657036809
 21
316.678652359596
 72
     1
 10
276.318657036809
 20
316.678652359596
 11
276.475061440288
 21
316.802767253505
 72
     1
 10
276.475061440288
 20
316.802767253505
 11
276.653005991679
 21
316.893335354664
 72
     1
 10
276.653005991679
 20
316.893335354664
 11
276.845396603256
 21
316.946745998685
 72
     1
 10
276.845396603256
 20
316.946745998685
 11
277.0153637462
 21
316.9612962687
 72
     1
 10
277.0153637462
 20
316.9612962687
 11
280.5153637462
 21
316.9612962687
 72
     1
 10
280.5153637462
 20
316.9612962687
 11
280.714033076951
 21
316.941362846538
 72
     1
 10
280.714033076951
 20
316.941362846538
 11
280.904782088465
 21
316.8823572627
 72
     1
 10
280.904782088465
 20
316.8823572627
 11
281.080006219551
 21
316.786631883607
 72
     1
 10
281.080006219551
 20
316.786631883607
 11
281.232719837055
 21
316.658002978044
 72
     1
 10
281.232719837055
 20
316.658002978044
 11
281.356834730964
 21
316.501598574565
 72
     1
 10
281.356834730964
 20
316.501598574565
 11
281.447402832123
 21
316.323654023174
 72
     1
 10
281.447402832123
 20
316.323654023174
 11
281.500813476144
 21
316.131263411597
 72
     1
 10
281.500813476144
 20
316.131263411597
 11
281.5153637462
 21
315.9612962687
 97
        0
 75
     1
 76
     2
 52
0.0
 41
1.0
 77
     0
 78
     1
 53
44.99999999999998
 43
0.0
 44
0.0
 45
-4.490128060534577
 46
0.0000000000000018
 79
     0
 98
        1
 10
0.0
 20
0.0
  0
HATCH
  5
385
330
44
100
AcDbEntity
  8
0
  6
Continuous
 62
     7
100
AcDbHatch
 10
0.0
 20
0.0
 30
0.0
210
0.0
220
0.0
230
1.0
  2
CUSTOM15
 70
     0
 71
     0
 91
        1
 92
        1
 93
       40
 72
     1
 10
297.5153637462
 20
315.9612962687
 11
297.515363746156
 21
314.461296268697
 72
     1
 10
297.515363746156
 20
314.461296268697
 11
299.015363746156
 21
314.461296268697
 72
     1
 10
299.015363746156
 20
314.461296268697
 11
299.0153637462
 21
315.9612962687
 72
     1
 10
299.0153637462
 20
315.9612962687
 11
298.965530190759
 21
316.457969595685
 72
     1
 10
298.965530190759
 20
316.457969595685
 11
298.818016231163
 21
316.934842124469
 72
     1
 10
298.818016231163
 20
316.934842124469
 11
298.57870278343
 21
317.372902452185
 72
     1
 10
298.57870278343
 20
317.372902452185
 11
298.257130519524
 21
317.754686495946
 72
     1
 10
298.257130519524
 20
317.754686495946
 11
297.866119510826
 21
318.064973730717
 72
     1
 10
297.866119510826
 20
318.064973730717
 11
297.421258132348
 21
318.291393983615
 72
     1
 10
297.421258132348
 20
318.291393983615
 11
296.940281603407
 21
318.424920593668
 72
     1
 10
296.940281603407
 20
318.424920593668
 11
296.5153637462
 21
318.4612962687
 72
     1
 10
296.5153637462
 20
318.4612962687
 11
293.0153637462
 21
318.4612962687
 72
     1
 10
293.0153637462
 20
318.4612962687
 11
292.518690419168
 21
318.4114627133
 72
     1
 10
292.518690419168
 20
318.4114627133
 11
292.041817890384
 21
318.263948753704
 72
     1
 10
292.041817890384
 20
318.263948753704
 11
291.603757562668
 21
318.024635305971
 72
     1
 10
291.603757562668
 20
318.024635305971
 11
291.221973518907
 21
317.703063042065
 72
     1
 10
291.221973518907
 20
317.703063042065
 11
290.911686284136
 21
317.312052033367
 72
     1
 10
290.911686284136
 20
317.312052033367
 11
290.685266031238
 21
316.867190654889
 72
     1
 10
290.685266031238
 20
316.867190654889
 11
290.551739421185
 21
316.386214125948
 72
     1
 10
290.551739421185
 20
316.386214125948
 11
290.5153637462
 21
315.9612962687
 72
     1
 10
290.5153637462
 20
315.9612962687
 11
290.515363746156
 21
314.461296268697
 72
     1
 10
290.515363746156
 20
314.461296268697
 11
292.015363746156
 21
314.461296268697
 72
     1
 10
292.015363746156
 20
314.461296268697
 11
292.0153637462
 21
315.9612962687
 72
     1
 10
292.0153637462
 20
315.9612962687
 11
292.035297168315
 21
316.159965599492
 72
     1
 10
292.035297168315
 20
316.159965599492
 11
292.094302752153
 21
316.350714611006
 72
     1
 10
292.094302752153
 20
316.350714611006
 11
292.190028131246
 21
316.525938742092
 72
     1
 10
292.190028131246
 20
316.525938742092
 11
292.318657036809
 21
316.678652359596
 72
     1
 10
292.318657036809
 20
316.678652359596
 11
292.475061440288
 21
316.802767253505
 72
     1
 10
292.475061440288
 20
316.802767253505
 11
292.653005991679
 21
316.893335354664
 72
     1
 10
292.653005991679
 20
316.893335354664
 11
292.845396603256
 21
316.946745998685
 72
     1
 10
292.845396603256
 20
316.946745998685
 11
293.0153637462
 21
316.9612962687
 72
     1
 10
293.0153637462
 20
316.9612962687
 11
296.5153637462
 21
316.9612962687
 72
     1
 10
296.5153637462
 20
316.9612962687
 11
296.714033076951
 21
316.941362846538
 72
     1
 10
296.714033076951
 20
316.941362846538
 11
296.904782088464
 21
316.8823572627
 72
     1
 10
296.904782088464
 20
316.8823572627
 11
297.080006219551
 21
316.786631883607
 72
     1
 10
297.080006219551
 20
316.786631883607
 11
297.232719837055
 21
316.658002978044
 72
     1
 10
297.232719837055
 20
316.658002978044
 11
297.356834730964
 21
316.501598574565
 72
     1
 10
297.356834730964
 20
316.501598574565
 11
297.447402832123
 21
316.323654023174
 72
     1
 10
297.447402832123
 20
316.323654023174
 11
297.500813476144
 21
316.131263411597
 72
     1
 10
297.500813476144
 20
316.131263411597
 11
297.5153637462
 21
315.9612962687
 97
        0
 75
     1
 76
     2
 52
0.0
 41
1.0
 77
     0
 78
     1
 53
44.99999999999998
 43
0.0
 44
0.0
 45
-4.490128060534577
 46
0.0000000000000018
 79
     0
 98
        1
 10
0.0
 20
0.0
  0
HATCH
  5
386
330
44
100
AcDbEntity
  8
0
  6
Continuous
 62
     7
100
AcDbHatch
 10
0.0
 20
0.0
 30
0.0
210
0.0
220
0.0
230
1.0
  2
CUSTOM16
 70
     0
 71
     0
 91
        1
 92
        1
 93
       48
 72
     1
 10
264.5153637462
 20
316.9612962687
 11
264.714033076951
 21
316.941362846538
 72
     1
 10
264.714033076951
 20
316.941362846538
 11
264.904782088465
 21
316.8823572627
 72
     1
 10
264.904782088465
 20
316.8823572627
 11
265.080006219551
 21
316.786631883607
 72
     1
 10
265.080006219551
 20
316.786631883607
 11
265.232719837055
 21
316.658002978044
 72
     1
 10
265.232719837055
 20
316.658002978044
 11
265.356834730964
 21
316.501598574565
 72
     1
 10
265.356834730964
 20
316.501598574565
 11
265.447402832123
 21
316.323654023174
 72
     1
 10
265.447402832123
 20
316.323654023174
 11
265.500813476144
 21
316.131263411597
 72
     1
 10
265.500813476144
 20
316.131263411597
 11
265.5153637462
 21
315.9612962687
 72
     1
 10
265.5153637462
 20
315.9612962687
 11
265.515363746156
 21
314.461296268697
 72
     1
 10
265.515363746156
 20
314.461296268697
 11
267.015363746156
 21
314.461296268697
 72
     1
 10
267.015363746156
 20
314.461296268697
 11
267.0153637462
 21
315.9612962687
 72
     1
 10
267.0153637462
 20
315.9612962687
 11
266.965530190759
 21
316.457969595685
 72
     1
 10
266.965530190759
 20
316.457969595685
 11
266.818016231163
 21
316.934842124469
 72
     1
 10
266.818016231163
 20
316.934842124469
 11
266.57870278343
 21
317.372902452185
 72
     1
 10
266.57870278343
 20
317.372902452185
 11
266.257130519524
 21
317.754686495946
 72
     1
 10
266.257130519524
 20
317.754686495946
 11
265.866119510826
 21
318.064973730717
 72
     1
 10
265.866119510826
 20
318.064973730717
 11
265.421258132348
 21
318.291393983615
 72
     1
 10
265.421258132348
 20
318.291393983615
 11
264.940281603407
 21
318.424920593668
 72
     1
 10
264.940281603407
 20
318.424920593668
 11
264.5153637462
 21
318.4612962687
 72
     1
 10
264.5153637462
 20
318.4612962687
 11
252.363638906278
 21
318.461296268697
 72
     1
 10
252.363638906278
 20
318.461296268697
 11
252.363638906278
 21
318.361296268697
 72
     1
 10
252.363638906278
 20
318.361296268697
 11
248.746768240446
 21
318.361296268697
 72
     1
 10
248.746768240446
 20
318.361296268697
 11
248.746768240446
 21
318.461296268697
 72
     1
 10
248.746768240446
 20
318.461296268697
 11
246.625448584006
 21
318.461296268697
 72
     1
 10
246.625448584006
 20
318.461296268697
 11
246.625448584006
 21
318.361296268697
 72
     1
 10
246.625448584006
 20
318.361296268697
 11
244.504128584006
 21
318.361296268697
 72
     1
 10
244.504128584006
 20
318.361296268697
 11
244.504128584006
 21
318.461296268697
 72
     1
 10
244.504128584006
 20
318.461296268697
 11
229.0153637462
 21
318.4612962687
 72
     1
 10
229.0153637462
 20
318.4612962687
 11
228.518690419168
 21
318.4114627133
 72
     1
 10
228.518690419168
 20
318.4114627133
 11
228.041817890384
 21
318.263948753704
 72
     1
 10
228.041817890384
 20
318.263948753704
 11
227.603757562668
 21
318.024635305971
 72
     1
 10
227.603757562668
 20
318.024635305971
 11
227.221973518907
 21
317.703063042065
 72
     1
 10
227.221973518907
 20
317.703063042065
 11
226.911686284136
 21
317.312052033367
 72
     1
 10
226.911686284136
 20
317.312052033367
 11
226.685266031238
 21
316.867190654889
 72
     1
 10
226.685266031238
 20
316.867190654889
 11
226.551739421185
 21
316.386214125948
 72
     1
 10
226.551739421185
 20
316.386214125948
 11
226.5153637462
 21
315.9612962687
 72
     1
 10
226.5153637462
 20
315.9612962687
 11
226.515363746156
 21
314.461296268697
 72
     1
 10
226.515363746156
 20
314.461296268697
 11
228.015363746156
 21
314.461296268697
 72
     1
 10
228.015363746156
 20
314.461296268697
 11
228.0153637462
 21
315.9612962687
 72
     1
 10
228.0153637462
 20
315.9612962687
 11
228.035297168315
 21
316.159965599492
 72
     1
 10
228.035297168315
 20
316.159965599492
 11
228.094302752153
 21
316.350714611006
 72
     1
 10
228.094302752153
 20
316.350714611006
 11
228.190028131246
 21
316.525938742092
 72
     1
 10
228.190028131246
 20
316.525938742092
 11
228.318657036809
 21
316.678652359596
 72
     1
 10
228.318657036809
 20
316.678652359596
 11
228.475061440288
 21
316.802767253505
 72
     1
 10
228.475061440288
 20
316.802767253505
 11
228.653005991679
 21
316.893335354664
 72
     1
 10
228.653005991679
 20
316.893335354664
 11
228.845396603256
 21
316.946745998685
 72
     1
 10
228.845396603256
 20
316.946745998685
 11
229.0153637462
 21
316.9612962687
 72
     1
 10
229.0153637462
 20
316.9612962687
 11
264.5153637462
 21
316.9612962687
 97
        0
 75
     1
 76
     2
 52
0.0
 41
1.0
 77
     0
 78
     1
 53
44.99999999999998
 43
0.0
 44
0.0
 45
-4.490128060534577
 46
0.0000000000000018
 79
     0
 98
        1
 10
0.0
 20
0.0
  0
HATCH
  5
387
330
44
100
AcDbEntity
  8
0
  6
Continuous
 62
     7
100
AcDbHatch
 10
0.0
 20
0.0
 30
0.0
210
0.0
220
0.0
230
1.0
  2
CUSTOM17
 70
     0
 71
     0
 91
        1
 92
        1
 93
       83
 72
     1
 10
246.765363746074
 20
118.461882558885
 11
236.531705196518
 21
119.466407586198
 72
     1
 10
236.531705196518
 20
119.466407586198
 11
226.701606797929
 21
122.484023087746
 72
     1
 10
226.701606797929
 20
122.484023087746
 11
217.66696355287
 21
127.394426256086
 72
     1
 10
217.66696355287
 20
127.394426256086
 11
209.787958177057
 21
134.00185481257
 72
     1
 10
209.787958177057
 20
134.00185481257
 11
203.378701751184
 21
142.042891431598
 72
     1
 10
203.378701751184
 20
142.042891431598
 11
199.979555319813
 21
148.196922549554
 72
     1
 10
199.979555319813
 20
148.196922549554
 11
188.289526596078
 21
173.266270048624
 72
     1
 10
188.289526596078
 20
173.266270048624
 11
188.289526596078
 21
183.961296268697
 72
     1
 10
188.289526596078
 20
183.961296268697
 11
183.302353965489
 21
183.961296268697
 72
     1
 10
183.302353965489
 20
183.961296268697
 11
183.2654078257
 21
184.0405275212
 72
     1
 10
183.2654078257
 20
184.0405275212
 11
183.265407825673
 21
201.509712642622
 72
     1
 10
183.265407825673
 20
201.509712642622
 11
177.365407825673
 21
201.509230362147
 72
     1
 10
177.365407825673
 20
201.509230362147
 11
177.365407825673
 21
211.157196820116
 72
     1
 10
177.365407825673
 20
211.157196820116
 11
169.765363746156
 21
211.156575573867
 72
     1
 10
169.765363746156
 20
211.156575573867
 11
169.765363746156
 21
215.761378561413
 72
     1
 10
169.765363746156
 20
215.761378561413
 11
171.265363746156
 21
216.761378561413
 72
     1
 10
171.265363746156
 20
216.761378561413
 11
171.265363746156
 21
221.01829743307
 72
     1
 10
171.265363746156
 20
221.01829743307
 11
172.015275382302
 21
221.461378561413
 72
     1
 10
172.015275382302
 20
221.461378561413
 11
172.015275382302
 21
222.361378561412
 72
     1
 10
172.015275382302
 20
222.361378561412
 11
168.015407825673
 21
229.263221303627
 72
     1
 10
168.015407825673
 20
229.263221303627
 11
168.015407825673
 21
245.961296268697
 72
     1
 10
168.015407825673
 20
245.961296268697
 11
68.7653637462
 21
245.9612962687
 72
     1
 10
68.7653637462
 20
245.9612962687
 11
68.3680250845658
 21
245.921429424379
 72
     1
 10
68.3680250845658
 20
245.921429424379
 11
67.9865270615387
 21
245.803418256703
 72
     1
 10
67.9865270615387
 20
245.803418256703
 11
67.6360787993659
 21
245.611967498516
 72
     1
 10
67.6360787993659
 20
245.611967498516
 11
67.3306515643569
 21
245.354709687391
 72
     1
 10
67.3306515643569
 20
245.354709687391
 11
67.0824217765402
 21
245.041900880433
 72
     1
 10
67.0824217765402
 20
245.041900880433
 11
66.9012855742215
 21
244.68601177765
 72
     1
 10
66.9012855742215
 20
244.68601177765
 11
66.7944642861791
 21
244.301230554497
 72
     1
 10
66.7944642861791
 20
244.301230554497
 11
66.7653637462
 21
243.9612962687
 72
     1
 10
66.7653637462
 20
243.9612962687
 11
66.7653637462
 21
242.461730053
 72
     1
 10
66.7653637462
 20
242.461730053
 11
120.765363746156
 21
242.461730053003
 72
     1
 10
120.765363746156
 20
242.461730053003
 11
121.053373646717
 21
225.961653900581
 72
     1
 10
121.053373646717
 20
225.961653900581
 11
121.571059945471
 21
225.461730053003
 72
     1
 10
121.571059945471
 20
225.461730053003
 11
123.265363746156
 21
225.461730053003
 72
     1
 10
123.265363746156
 20
225.461730053003
 11
124.265363746156
 21
226.461730053003
 72
     1
 10
124.265363746156
 20
226.461730053003
 11
124.265363746156
 21
242.461730053003
 72
     1
 10
124.265363746156
 20
242.461730053003
 11
129.265363746156
 21
242.461730053003
 72
     1
 10
129.265363746156
 20
242.461730053003
 11
129.265363746156
 21
226.461730053003
 72
     1
 10
129.265363746156
 20
226.461730053003
 11
130.265363746156
 21
225.461730053003
 72
     1
 10
130.265363746156
 20
225.461730053003
 11
131.959667546841
 21
225.461730053003
 72
     1
 10
131.959667546841
 20
225.461730053003
 11
132.477353845595
 21
225.961653900581
 72
     1
 10
132.477353845595
 20
225.961653900581
 11
132.765363746156
 21
242.461730053003
 72
     1
 10
132.765363746156
 20
242.461730053003
 11
164.515407825673
 21
242.461730053003
 72
     1
 10
164.515407825673
 20
242.461730053003
 11
164.515407825673
 21
228.322326376586
 72
     1
 10
164.515407825673
 20
228.322326376586
 11
166.265363746156
 21
225.302746253498
 72
     1
 10
166.265363746156
 20
225.302746253498
 11
166.2653637462
 21
210.656534701
 72
     1
 10
166.2653637462
 20
210.656534701
 11
166.325164012632
 21
210.060526708585
 72
     1
 10
166.325164012632
 20
210.060526708585
 11
166.502180764147
 21
209.488279674044
 72
     1
 10
166.502180764147
 20
209.488279674044
 11
166.789356901427
 21
208.962607280785
 72
     1
 10
166.789356901427
 20
208.962607280785
 11
167.175243618114
 21
208.504466428271
 72
     1
 10
167.175243618114
 20
208.504466428271
 11
167.644456828551
 21
208.132121746546
 72
     1
 10
167.644456828551
 20
208.132121746546
 11
168.178290482726
 21
207.860417443068
 72
     1
 10
168.178290482726
 20
207.860417443068
 11
168.755462317455
 21
207.700185511005
 72
     1
 10
168.755462317455
 20
207.700185511005
 11
169.26560897365
 21
207.656534711023
 72
     1
 10
169.26560897365
 20
207.656534711023
 11
173.865407825673
 21
207.656910709836
 72
     1
 10
173.865407825673
 20
207.656910709836
 11
173.8654078257
 21
201.0091894893
 72
     1
 10
173.8654078257
 20
201.0091894893
 11
173.925208092149
 21
200.413181496865
 72
     1
 10
173.925208092149
 20
200.413181496865
 11
174.102224843664
 21
199.840934462324
 72
     1
 10
174.102224843664
 20
199.840934462324
 11
174.389400980944
 21
199.315262069065
 72
     1
 10
174.389400980944
 20
199.315262069065
 11
174.775287697632
 21
198.857121216552
 72
     1
 10
174.775287697632
 20
198.857121216552
 11
175.244500908069
 21
198.484776534826
 72
     1
 10
175.244500908069
 20
198.484776534826
 11
175.778334562243
 21
198.213072231349
 72
     1
 10
175.778334562243
 20
198.213072231349
 11
176.355506396972
 21
198.052840299285
 72
     1
 10
176.355506396972
 20
198.052840299285
 11
176.865653053066
 21
198.009189499323
 72
     1
 10
176.865653053066
 20
198.009189499323
 11
179.765407825673
 21
198.009426532342
 72
     1
 10
179.765407825673
 20
198.009426532342
 11
179.7654078257
 21
184.0405275212
 72
     1
 10
179.7654078257
 20
184.0405275212
 11
179.835174803229
 21
183.345184863436
 72
     1
 10
179.835174803229
 20
183.345184863436
 11
180.041694346663
 21
182.677563323139
 72
     1
 10
180.041694346663
 20
182.677563323139
 11
180.093330571072
 21
182.561363605108
 72
     1
 10
180.093330571072
 20
182.561363605108
 11
196.807478065184
 21
146.717758633462
 72
     1
 10
196.807478065184
 20
146.717758633462
 11
202.418968728392
 21
137.278035300738
 72
     1
 10
202.418968728392
 20
137.278035300738
 11
209.79398669662
 21
129.141309053113
 72
     1
 10
209.79398669662
 20
129.141309053113
 11
218.638513276738
 21
122.631965489122
 72
     1
 10
218.638513276738
 20
122.631965489122
 11
228.599945104514
 21
118.009511595239
 72
     1
 10
228.599945104514
 20
118.009511595239
 11
239.281151328089
 21
115.458230021217
 72
     1
 10
239.281151328089
 20
115.458230021217
 11
246.765363746063
 21
114.961874952434
 72
     1
 10
246.765363746063
 20
114.961874952434
 11
404.6149827555
 21
108.0700117487
 72
     1
 10
404.6149827555
 20
108.0700117487
 11
408.657926760899
 21
108.966310856053
 72
     1
 10
408.657926760899
 20
108.966310856053
 11
408.763843498196
 21
111.392202974754
 72
     1
 10
408.763843498196
 20
111.392202974754
 11
246.918031601935
 21
118.45854372794
 72
     1
 10
246.918031601935
 20
118.45854372794
 11
246.918177378441
 21
118.461882558853
 72
     1
 10
246.918177378441
 20
118.461882558853
 11
246.765363746074
 21
118.461882558885
 97
        0
 75
     1
 76
     2
 52
0.0
 41
1.0
 77
     0
 78
     1
 53
44.99999999999998
 43
0.0
 44
0.0
 45
-4.490128060534577
 46
0.0000000000000018
 79
     0
 98
        1
 10
0.0
 20
0.0
  0
HATCH
  5
388
330
44
100
AcDbEntity
  8
0
  6
Continuous
 62
     7
100
AcDbHatch
 10
0.0
 20
0.0
 30
0.0
210
0.0
220
0.0
230
1.0
  2
CUSTOM18
 70
     0
 71
     0
 91
        1
 92
        1
 93
       49
 72
     1
 10
322.265363746156
 20
216.761378561413
 11
323.765363746156
 21
215.761378561413
 72
     1
 10
323.765363746156
 20
215.761378561413
 11
323.765363746156
 21
211.156575573867
 72
     1
 10
323.765363746156
 20
211.156575573867
 11
316.165319666639
 21
211.157196820116
 72
     1
 10
316.165319666639
 20
211.157196820116
 11
316.165319666639
 21
201.509230362147
 72
     1
 10
316.165319666639
 20
201.509230362147
 11
310.265319666639
 21
201.509712642622
 72
     1
 10
310.265319666639
 20
201.509712642622
 11
310.265319666639
 21
183.757523991443
 72
     1
 10
310.265319666639
 20
183.757523991443
 11
411.729961839038
 21
179.327482042321
 72
     1
 10
411.729961839038
 20
179.327482042321
 11
411.835878576335
 21
181.753374161017
 72
     1
 10
411.835878576335
 20
181.753374161017
 11
407.8864368079
 21
182.9986283673
 72
     1
 10
407.8864368079
 20
182.9986283673
 11
313.765319666639
 21
187.108045089334
 72
     1
 10
313.765319666639
 20
187.108045089334
 11
313.765319666639
 21
198.009426532342
 72
     1
 10
313.765319666639
 20
198.009426532342
 11
316.703031764961
 21
198.009426532392
 72
     1
 10
316.703031764961
 20
198.009426532392
 11
317.298240933015
 21
198.076714311083
 72
     1
 10
317.298240933015
 20
198.076714311083
 11
317.868217527439
 21
198.260910621216
 72
     1
 10
317.868217527439
 20
198.260910621216
 11
318.390238380116
 21
198.554672137122
 72
     1
 10
318.390238380116
 20
198.554672137122
 11
318.843492166983
 21
198.946287514181
 72
     1
 10
318.843492166983
 20
198.946287514181
 11
319.209909089882
 21
199.420144283121
 72
     1
 10
319.209909089882
 20
199.420144283121
 11
319.474881262392
 21
199.957351269908
 72
     1
 10
319.474881262392
 20
199.957351269908
 11
319.627845080164
 21
200.536491727233
 72
     1
 10
319.627845080164
 20
200.536491727233
 11
319.6653196666
 21
201.0091894893
 72
     1
 10
319.6653196666
 20
201.0091894893
 11
319.665319666639
 21
207.656910709836
 72
     1
 10
319.665319666639
 20
207.656910709836
 11
324.26511851875
 21
207.656534711023
 72
     1
 10
324.26511851875
 20
207.656534711023
 11
324.861131397411
 21
207.716286258114
 72
     1
 10
324.861131397411
 20
207.716286258114
 11
325.433392899824
 21
207.893256232161
 72
     1
 10
325.433392899824
 20
207.893256232161
 11
325.959088765809
 21
208.18038939873
 72
     1
 10
325.959088765809
 20
208.18038939873
 11
326.417261160118
 21
208.566238664572
 72
     1
 10
326.417261160118
 20
208.566238664572
 11
326.789644195238
 21
209.035421437073
 72
     1
 10
326.789644195238
 20
209.035421437073
 11
327.061392134681
 21
209.569232879688
 72
     1
 10
327.061392134681
 20
209.569232879688
 11
327.221671245651
 21
210.146391614738
 72
     1
 10
327.221671245651
 20
210.146391614738
 11
327.2653637462
 21
210.656534701
 72
     1
 10
327.2653637462
 20
210.656534701
 11
327.265363746156
 21
225.302746253498
 72
     1
 10
327.265363746156
 20
225.302746253498
 11
329.015319666639
 21
228.322326376586
 72
     1
 10
329.015319666639
 20
228.322326376586
 11
329.015319666639
 21
242.461730053003
 72
     1
 10
329.015319666639
 20
242.461730053003
 11
426.765363746156
 21
242.461730053003
 72
     1
 10
426.765363746156
 20
242.461730053003
 11
426.7653637462
 21
243.9612962687
 72
     1
 10
426.7653637462
 20
243.9612962687
 11
426.725496901838
 21
244.358634930287
 72
     1
 10
426.725496901838
 20
244.358634930287
 11
426.607485734162
 21
244.740132953314
 72
     1
 10
426.607485734162
 20
244.740132953314
 11
426.416034975975
 21
245.090581215487
 72
     1
 10
426.416034975975
 20
245.090581215487
 11
426.15877716485
 21
245.396008450496
 72
     1
 10
426.15877716485
 20
245.396008450496
 11
425.845968357892
 21
245.644238238313
 72
     1
 10
425.845968357892
 20
245.644238238313
 11
425.490079255109
 21
245.825374440631
 72
     1
 10
425.490079255109
 20
245.825374440631
 11
425.105298031956
 21
245.932195728674
 72
     1
 10
425.105298031956
 20
245.932195728674
 11
424.7653637462
 21
245.9612962687
 72
     1
 10
424.7653637462
 20
245.9612962687
 11
325.515319666639
 21
245.961296268697
 72
     1
 10
325.515319666639
 20
245.961296268697
 11
325.515319666639
 21
229.263221303627
 72
     1
 10
325.515319666639
 20
229.263221303627
 11
321.51545211001
 21
222.361378561412
 72
     1
 10
321.51545211001
 20
222.361378561412
 11
321.51545211001
 21
221.461378561413
 72
     1
 10
321.51545211001
 20
221.461378561413
 11
322.265363746156
 21
221.01829743307
 72
     1
 10
322.265363746156
 20
221.01829743307
 11
322.265363746156
 21
216.761378561413
 97
        0
 75
     1
 76
     2
 52
0.0
 41
1.0
 77
     0
 78
     1
 53
44.99999999999998
 43
0.0
 44
0.0
 45
-4.490128060534577
 46
0.0000000000000018
 79
     0
 98
        1
 10
0.0
 20
0.0
  0
HATCH
  5
389
330
44
100
AcDbEntity
  8
0
  6
Continuous
 62
     7
100
AcDbHatch
 10
0.0
 20
0.0
 30
0.0
210
0.0
220
0.0
230
1.0
  2
CUSTOM19
 70
     0
 71
     0
 91
        1
 92
        1
 93
       22
 72
     1
 10
311.515363746156
 20
213.157196820116
 11
314.0153637462
 21
213.1571968201
 72
     1
 10
314.0153637462
 20
213.1571968201
 11
314.412702407746
 21
213.117329975798
 72
     1
 10
314.412702407746
 20
213.117329975798
 11
314.794200430773
 21
212.999318808122
 72
     1
 10
314.794200430773
 20
212.999318808122
 11
315.144648692946
 21
212.807868049935
 72
     1
 10
315.144648692946
 20
212.807868049935
 11
315.450075927955
 21
212.55061023881
 72
     1
 10
315.450075927955
 20
212.55061023881
 11
315.698305715772
 21
212.237801431852
 72
     1
 10
315.698305715772
 20
212.237801431852
 11
315.87944191809
 21
211.881912329069
 72
     1
 10
315.87944191809
 20
211.881912329069
 11
315.986263206133
 21
211.497131105916
 72
     1
 10
315.986263206133
 20
211.497131105916
 11
316.0153637462
 21
211.1571968201
 72
     1
 10
316.0153637462
 20
211.1571968201
 11
322.860663746156
 21
211.157196820116
 72
     1
 10
322.860663746156
 20
211.157196820116
 11
324.015363746156
 21
213.157196820116
 72
     1
 10
324.015363746156
 20
213.157196820116
 11
324.015363746156
 21
215.657196820116
 72
     1
 10
324.015363746156
 20
215.657196820116
 11
313.5153637462
 21
215.6571968201
 72
     1
 10
313.5153637462
 20
215.6571968201
 11
313.118025084566
 21
215.617329975798
 72
     1
 10
313.118025084566
 20
215.617329975798
 11
312.736527061539
 21
215.499318808122
 72
     1
 10
312.736527061539
 20
215.499318808122
 11
312.386078799366
 21
215.307868049935
 72
     1
 10
312.386078799366
 20
215.307868049935
 11
312.080651564357
 21
215.05061023881
 72
     1
 10
312.080651564357
 20
215.05061023881
 11
311.83242177654
 21
214.737801431852
 72
     1
 10
311.83242177654
 20
214.737801431852
 11
311.651285574222
 21
214.381912329069
 72
     1
 10
311.651285574222
 20
214.381912329069
 11
311.544464286179
 21
213.997131105916
 72
     1
 10
311.544464286179
 20
213.997131105916
 11
311.5153637462
 21
213.6571968201
 72
     1
 10
311.5153637462
 20
213.6571968201
 11
311.515363746156
 21
213.157196820116
 97
        0
 75
     1
 76
     2
 52
0.0
 41
1.0
 77
     0
 78
     1
 53
44.99999999999998
 43
0.0
 44
0.0
 45
-4.490128060534577
 46
0.0000000000000018
 79
     0
 98
        1
 10
0.0
 20
0.0
  0
HATCH
  5
38A
330
44
100
AcDbEntity
  8
0
  6
Continuous
 62
     7
100
AcDbHatch
 10
0.0
 20
0.0
 30
0.0
210
0.0
220
0.0
230
1.0
  2
CUSTOM20
 70
     0
 71
     0
 91
        1
 92
        1
 93
       22
 72
     1
 10
179.5153637462
 20
213.1571968201
 11
182.015363746156
 21
213.157196820116
 72
     1
 10
182.015363746156
 20
213.157196820116
 11
182.0153637462
 21
213.6571968201
 72
     1
 10
182.0153637462
 20
213.6571968201
 11
181.975496901838
 21
214.054535481706
 72
     1
 10
181.975496901838
 20
214.054535481706
 11
181.857485734162
 21
214.436033504733
 72
     1
 10
181.857485734162
 20
214.436033504733
 11
181.666034975975
 21
214.786481766906
 72
     1
 10
181.666034975975
 20
214.786481766906
 11
181.40877716485
 21
215.091909001915
 72
     1
 10
181.40877716485
 20
215.091909001915
 11
181.095968357892
 21
215.340138789732
 72
     1
 10
181.095968357892
 20
215.340138789732
 11
180.740079255109
 21
215.52127499205
 72
     1
 10
180.740079255109
 20
215.52127499205
 11
180.355298031956
 21
215.628096280093
 72
     1
 10
180.355298031956
 20
215.628096280093
 11
180.0153637462
 21
215.6571968201
 72
     1
 10
180.0153637462
 20
215.6571968201
 11
169.515363746156
 21
215.657196820116
 72
     1
 10
169.515363746156
 20
215.657196820116
 11
169.515363746156
 21
213.157196820116
 72
     1
 10
169.515363746156
 20
213.157196820116
 11
170.670063746156
 21
211.157196820116
 72
     1
 10
170.670063746156
 20
211.157196820116
 11
177.5153637462
 21
211.1571968201
 72
     1
 10
177.5153637462
 20
211.1571968201
 11
177.555230590473
 21
211.554535481706
 72
     1
 10
177.555230590473
 20
211.554535481706
 11
177.67324175815
 21
211.936033504733
 72
     1
 10
177.67324175815
 20
211.936033504733
 11
177.864692516337
 21
212.286481766906
 72
     1
 10
177.864692516337
 20
212.286481766906
 11
178.121950327462
 21
212.591909001915
 72
     1
 10
178.121950327462
 20
212.591909001915
 11
178.43475913442
 21
212.840138789732
 72
     1
 10
178.43475913442
 20
212.840138789732
 11
178.790648237203
 21
213.02127499205
 72
     1
 10
178.790648237203
 20
213.02127499205
 11
179.175429460355
 21
213.128096280093
 72
     1
 10
179.175429460355
 20
213.128096280093
 11
179.5153637462
 21
213.1571968201
 97
        0
 75
     1
 76
     2
 52
0.0
 41
1.0
 77
     0
 78
     1
 53
44.99999999999998
 43
0.0
 44
0.0
 45
-4.490128060534577
 46
0.0000000000000018
 79
     0
 98
        1
 10
0.0
 20
0.0
  0
ENDBLK
  5
46
330
44
100
AcDbEntity
  8
0
100
AcDbBlockEnd
  0
BLOCK
  5
33B
330
333
100
AcDbEntity
  8
0
100
AcDbBlockBegin
  2
*D2
 70
     1
 10
0.0
 20
0.0
 30
0.0
  3
*D2
  1

  0
LINE
  5
334
330
333
100
AcDbEntity
  8
1
  6
Continuous
 62
     4
100
AcDbLine
 10
50.124400782313
 20
245.9612962645
 30
0.0
 11
50.124400782313
 21
97.4617344125
 31
0.0
  0
LINE
  5
335
330
333
100
AcDbEntity
  8
1
  6
Continuous
 62
     4
100
AcDbLine
 10
68.7653668681
 20
245.9612962645
 30
0.0
 11
48.124400782313
 21
245.9612962645
 31
0.0
  0
LINE
  5
336
330
333
100
AcDbEntity
  8
1
  6
Continuous
 62
     4
100
AcDbLine
 10
191.0915174047
 20
97.4617344125
 30
0.0
 11
48.124400782313
 21
97.4617344125
 31
0.0
  0
SOLID
  5
337
330
333
100
AcDbEntity
  8
1
 62
     4
100
AcDbTrace
 10
51.44092575818696
 20
235.9612962645
 30
0.0
 11
48.80787580643904
 21
235.9612962645
 31
0.0
 12
50.124400782313
 22
245.9612962645
 32
0.0
 13
50.124400782313
 23
245.9612962645
 33
0.0
  0
SOLID
  5
338
330
333
100
AcDbEntity
  8
1
 62
     4
100
AcDbTrace
 10
48.80787580643904
 20
107.4617344125
 30
0.0
 11
51.44092575818696
 21
107.4617344125
 31
0.0
 12
50.124400782313
 22
97.4617344125
 32
0.0
 13
50.124400782313
 23
97.4617344125
 33
0.0
  0
MTEXT
  5
33A
330
333
100
AcDbEntity
  8
1
 62
     1
100
AcDbMText
 10
48.124400782313
 20
160.907810764208
 30
0.0
 40
10.0
 41
0.0
 71
     7
 72
     1
  1
149
  7
CONVERTER_11
 11
0.0
 21
1.0
 31
0.0
 73
     1
 44
0.60024009603842
  0
ENDBLK
  5
33C
330
333
100
AcDbEntity
  8
0
100
AcDbBlockEnd
  0
BLOCK
  5
346
330
33F
100
AcDbEntity
  8
0
100
AcDbBlockBegin
  2
*D3
 70
     1
 10
0.0
 20
0.0
 30
0.0
  3
*D3
  1

  0
LINE
  5
340
330
33F
100
AcDbEntity
  8
1
  6
Continuous
 62
     4
100
AcDbLine
 10
172.7653615633
 20
334.602639978023
 30
0.0
 11
320.7653634707
 21
334.602639978023
 31
0.0
  0
LINE
  5
341
330
33F
100
AcDbEntity
  8
1
  6
Continuous
 62
     4
100
AcDbLine
 10
172.7653615633
 20
318.961296676
 30
0.0
 11
172.7653615633
 21
336.602639978023
 31
0.0
  0
LINE
  5
342
330
33F
100
AcDbEntity
  8
1
  6
Continuous
 62
     4
100
AcDbLine
 10
320.7653634707
 20
318.961296676
 30
0.0
 11
320.7653634707
 21
336.602639978023
 31
0.0
  0
SOLID
  5
343
330
33F
100
AcDbEntity
  8
1
 62
     4
100
AcDbTrace
 10
182.7653615633
 20
335.9191649538969
 30
0.0
 11
182.7653615633
 21
333.286115002149
 31
0.0
 12
172.7653615633
 22
334.602639978023
 32
0.0
 13
172.7653615633
 23
334.602639978023
 33
0.0
  0
SOLID
  5
344
330
33F
100
AcDbEntity
  8
1
 62
     4
100
AcDbTrace
 10
310.7653634707
 20
333.286115002149
 30
0.0
 11
310.7653634707
 21
335.9191649538969
 31
0.0
 12
320.7653634707
 22
334.602639978023
 32
0.0
 13
320.7653634707
 23
334.602639978023
 33
0.0
  0
MTEXT
  5
345
330
33F
100
AcDbEntity
  8
1
 62
     1
100
AcDbMText
 10
212.618660998596
 20
336.602639978023
 30
0.0
 40
10.0
 41
0.0
 71
     7
 72
     1
  1
150x150
  7
CONVERTER_11
 11
0.9999999999970619
 21
2.424068405545306E-6
 31
0.0
 73
     1
 44
0.60024009603842
  0
ENDBLK
  5
347
330
33F
100
AcDbEntity
  8
0
100
AcDbBlockEnd
  0
BLOCK
  5
351
330
34A
100
AcDbEntity
  8
0
100
AcDbBlockBegin
  2
*D4
 70
     1
 10
0.0
 20
0.0
 30
0.0
  3
*D4
  1

  0
LINE
  5
34B
330
34A
100
AcDbEntity
  8
1
  6
Continuous
 62
     4
100
AcDbLine
 10
66.765362815
 20
358.716246612028
 30
0.0
 11
426.765362219
 21
358.716246612028
 31
0.0
  0
LINE
  5
34C
330
34A
100
AcDbEntity
  8
1
  6
Continuous
 62
     4
100
AcDbLine
 10
66.765362815
 20
243.9612962569
 30
0.0
 11
66.765362815
 21
360.716246612028
 31
0.0
  0
LINE
  5
34D
330
34A
100
AcDbEntity
  8
1
  6
Continuous
 62
     4
100
AcDbLine
 10
426.765362219
 20
243.9612962569
 30
0.0
 11
426.765362219
 21
360.716246612028
 31
0.0
  0
SOLID
  5
34E
330
34A
100
AcDbEntity
  8
1
 62
     4
100
AcDbTrace
 10
76.765362815
 20
360.0327715879019
 30
0.0
 11
76.765362815
 21
357.399721636154
 31
0.0
 12
66.765362815
 22
358.716246612028
 32
0.0
 13
66.765362815
 23
358.716246612028
 33
0.0
  0
SOLID
  5
34F
330
34A
100
AcDbEntity
  8
1
 62
     4
100
AcDbTrace
 10
416.765362219
 20
357.399721636154
 30
0.0
 11
416.765362219
 21
360.0327715879019
 31
0.0
 12
426.765362219
 22
358.716246612028
 32
0.0
 13
426.765362219
 23
358.716246612028
 33
0.0
  0
MTEXT
  5
350
330
34A
100
AcDbEntity
  8
1
 62
     1
100
AcDbMText
 10
223.0726394165072
 20
360.7162068573061
 30
0.0
 40
10.0
 41
0.0
 71
     7
 72
     1
  1
\C1;%%c\C1;360
  7
CONVERTER_11
 11
0.9999999999970619
 21
2.424068405545306E-6
 31
0.0
 73
     1
 44
0.60024009603842
  0
ENDBLK
  5
352
330
34A
100
AcDbEntity
  8
0
100
AcDbBlockEnd
  0
BLOCK
  5
35C
330
355
100
AcDbEntity
  8
0
100
AcDbBlockBegin
  2
*D5
 70
     1
 10
0.0
 20
0.0
 30
0.0
  3
*D5
  1

  0
LINE
  5
356
330
355
100
AcDbEntity
  8
1
  6
Continuous
 62
     4
100
AcDbLine
 10
436.4531014156779
 20
106.6799242737757
 30
0.0
 11
439.7245523692175
 21
181.6085511101323
 31
0.0
  0
LINE
  5
357
330
355
100
AcDbEntity
  8
1
  6
Continuous
 62
     4
100
AcDbLine
 10
404.6149798194
 20
108.0700051768
 30
0.0
 11
438.4511978629612
 21
106.5926855933978
 31
0.0
  0
LINE
  5
358
330
355
100
AcDbEntity
  8
1
  6
Continuous
 62
     4
100
AcDbLine
 10
407.8864403526
 20
182.9986315949
 30
0.0
 11
441.7226488165007
 21
181.5213124297544
 31
0.0
  0
SOLID
  5
359
330
355
100
AcDbEntity
  8
1
 62
     4
100
AcDbTrace
 10
435.5740228790403
 20
116.7278324609818
 30
0.0
 11
438.2045667560938
 21
116.6129805594021
 31
0.0
 12
436.4531014156779
 22
106.6799242737757
 32
0.0
 13
436.4531014156779
 23
106.6799242737757
 33
0.0
  0
SOLID
  5
35A
330
355
100
AcDbEntity
  8
1
 62
     4
100
AcDbTrace
 10
440.6036309058551
 20
171.5606429229262
 30
0.0
 11
437.9730870288016
 21
171.6754948245059
 31
0.0
 12
439.7245523692175
 22
181.6085511101323
 32
0.0
 13
439.7245523692175
 23
181.6085511101323
 33
0.0
  0
MTEXT
  5
35B
330
355
100
AcDbEntity
  8
1
 62
     1
100
AcDbMText
 10
435.5256291036167
 20
131.2885137093124
 30
0.0
 40
10.0
 41
0.0
 71
     7
 72
     1
  1
\C1;DN\C1;75
  7
CONVERTER_11
 11
0.04361934018892917
 21
0.999048223641623
 31
0.0
 73
     1
 44
0.60024009603842
  0
ENDBLK
  5
35D
330
355
100
AcDbEntity
  8
0
100
AcDbBlockEnd
  0
BLOCK
  5
367
330
360
100
AcDbEntity
  8
0
100
AcDbBlockBegin
  2
*D6
 70
     1
 10
0.0
 20
0.0
 30
0.0
  3
*D6
  1

  0
LINE
  5
361
330
360
100
AcDbEntity
  8
1
  6
Continuous
 62
     4
100
AcDbLine
 10
50.2049522255688
 20
245.9612962645
 30
0.0
 11
50.2049522255688
 21
318.961296676
 31
0.0
  0
LINE
  5
362
330
360
100
AcDbEntity
  8
1
  6
Continuous
 62
     4
100
AcDbLine
 10
68.7653668681
 20
245.9612962645
 30
0.0
 11
48.2049522255688
 21
245.9612962645
 31
0.0
  0
LINE
  5
363
330
360
100
AcDbEntity
  8
1
  6
Continuous
 62
     4
100
AcDbLine
 10
172.7653615633
 20
318.961296676
 30
0.0
 11
48.2049522255688
 21
318.961296676
 31
0.0
  0
SOLID
  5
364
330
360
100
AcDbEntity
  8
1
 62
     4
100
AcDbTrace
 10
48.88842724969484
 20
255.9612962645
 30
0.0
 11
51.52147720144276
 21
255.9612962645
 31
0.0
 12
50.2049522255688
 22
245.9612962645
 32
0.0
 13
50.2049522255688
 23
245.9612962645
 33
0.0
  0
SOLID
  5
365
330
360
100
AcDbEntity
  8
1
 62
     4
100
AcDbTrace
 10
51.52147720144276
 20
308.961296676
 30
0.0
 11
48.88842724969484
 21
308.961296676
 31
0.0
 12
50.2049522255688
 22
318.961296676
 32
0.0
 13
50.2049522255688
 23
318.961296676
 33
0.0
  0
MTEXT
  5
366
330
360
100
AcDbEntity
  8
1
 62
     1
100
AcDbMText
 10
48.2049522255688
 20
275.97847755042
 30
0.0
 40
10.0
 41
0.0
 71
     7
 72
     1
  1
73
  7
CONVERTER_11
 11
0.0
 21
1.0
 31
0.0
 73
     1
 44
0.60024009603842
  0
ENDBLK
  5
368
330
360
100
AcDbEntity
  8
0
100
AcDbBlockEnd
  0
BLOCK
  5
372
330
36B
100
AcDbEntity
  8
0
100
AcDbBlockBegin
  2
*D7
 70
     1
 10
0.0
 20
0.0
 30
0.0
  3
*D7
  1

  0
LINE
  5
36C
330
36B
100
AcDbEntity
  8
1
  6
Continuous
 62
     4
100
AcDbLine
 10
246.7653637462
 20
71.6755867615899
 30
0.0
 11
411.8358739177
 21
71.6755867615899
 31
0.0
  0
LINE
  5
36D
330
36B
100
AcDbEntity
  8
1
  6
Continuous
 62
     4
100
AcDbLine
 10
246.7653637462
 20
95.9502665186
 30
0.0
 11
246.7653637462
 21
69.6755867615899
 31
0.0
  0
LINE
  5
36E
330
36B
100
AcDbEntity
  8
1
  6
Continuous
 62
     4
100
AcDbLine
 10
411.8358739177
 20
181.7533713563
 30
0.0
 11
411.8358739177
 21
69.6755867615899
 31
0.0
  0
SOLID
  5
36F
330
36B
100
AcDbEntity
  8
1
 62
     4
100
AcDbTrace
 10
256.7653637462
 20
72.99211173746386
 30
0.0
 11
256.7653637462
 21
70.35906178571594
 31
0.0
 12
246.7653637462
 22
71.6755867615899
 32
0.0
 13
246.7653637462
 23
71.6755867615899
 33
0.0
  0
SOLID
  5
370
330
36B
100
AcDbEntity
  8
1
 62
     4
100
AcDbTrace
 10
401.8358739177
 20
70.35906178571594
 30
0.0
 11
401.8358739177
 21
72.99211173746386
 31
0.0
 12
411.8358739177
 22
71.6755867615899
 32
0.0
 13
411.8358739177
 23
71.6755867615899
 33
0.0
  0
MTEXT
  5
371
330
36B
100
AcDbEntity
  8
1
 62
     1
100
AcDbMText
 10
317.883648227335
 20
73.6755867615899
 30
0.0
 40
10.0
 41
0.0
 71
     7
 72
     1
  1
165
  7
CONVERTER_11
 11
0.9999999999970619
 21
2.424068405545306E-6
 31
0.0
 73
     1
 44
0.60024009603842
  0
ENDBLK
  5
373
330
36B
100
AcDbEntity
  8
0
100
AcDbBlockEnd
  0
ENDSEC
  0
SECTION
  2
ENTITIES
  0
INSERT
  5
69
330
1F
100
AcDbEntity
  8
0
100
AcDbBlockReference
  2
HL64_1BP_7
 10
303.4823838252066
 20
220.1959166868089
 30
0.0
  0
ENDSEC
  0
SECTION
  2
OBJECTS
  0
DICTIONARY
  5
C
330
0
100
AcDbDictionary
281
     1
  3
ACAD_GROUP
350
D
  3
ACAD_LAYOUT
350
1A
  3
ACAD_MLEADERSTYLE
350
38D
  3
ACAD_MLINESTYLE
350
17
  3
ACAD_PLOTSETTINGS
350
19
  3
ACAD_PLOTSTYLENAME
350
E
  3
ACAD_SCALELIST
350
47
  3
ACAD_VISUALSTYLE
350
2A
  3
AcDbVariableDictionary
350
38B
  0
DICTIONARY
  5
D
102
{ACAD_REACTORS
330
C
102
}
330
C
100
AcDbDictionary
281
     1
  0
DICTIONARY
  5
1A
102
{ACAD_REACTORS
330
C
102
}
330
C
100
AcDbDictionary
281
     1
  3
Layout1
350
1E
  3
Layout2
350
26
  3
Model
350
22
  0
DICTIONARY
  5
38D
102
{ACAD_REACTORS
330
C
102
}
330
C
100
AcDbDictionary
281
     1
  0
DICTIONARY
  5
17
102
{ACAD_REACTORS
330
C
102
}
330
C
100
AcDbDictionary
281
     1
  3
Standard
350
18
  0
DICTIONARY
  5
19
102
{ACAD_REACTORS
330
C
102
}
330
C
100
AcDbDictionary
281
     1
  0
ACDBDICTIONARYWDFLT
  5
E
102
{ACAD_REACTORS
330
C
102
}
330
C
100
AcDbDictionary
281
     1
  3
Normal
350
F
100
AcDbDictionaryWithDefault
340
F
  0
DICTIONARY
  5
47
102
{ACAD_REACTORS
330
C
102
}
330
C
100
AcDbDictionary
281
     1
  3
A0
350
48
  3
A1
350
49
  3
A2
350
4A
  3
A3
350
4B
  3
A4
350
4C
  3
A5
350
4D
  3
A6
350
4E
  3
A7
350
4F
  3
A8
350
50
  3
A9
350
51
  3
B0
350
52
  3
B1
350
53
  3
B2
350
54
  3
B3
350
55
  3
B4
350
56
  3
B5
350
57
  3
B6
350
58
  3
B7
350
59
  3
B8
350
5A
  3
B9
350
5B
  3
C0
350
5C
  3
C1
350
5D
  3
C2
350
5E
  3
C3
350
5F
  3
C4
350
60
  3
C5
350
61
  3
C6
350
62
  3
C7
350
63
  3
C8
350
64
  3
C9
350
65
  3
D0
350
66
  3
D1
350
67
  3
D2
350
68
  0
DICTIONARY
  5
2A
102
{ACAD_REACTORS
330
C
102
}
330
C
100
AcDbDictionary
281
     1
  3
2dWireframe
350
2F
  3
3D Hidden
350
31
  3
3dWireframe
350
30
  3
Basic
350
32
  3
Brighten
350
36
  3
ColorChange
350
3A
  3
Conceptual
350
34
  3
Dim
350
35
  3
Facepattern
350
39
  3
Flat
350
2B
  3
FlatWithEdges
350
2C
  3
Gouraud
350
2D
  3
GouraudWithEdges
350
2E
  3
Linepattern
350
38
  3
Realistic
350
33
  3
Thicken
350
37
  0
DICTIONARY
  5
38B
102
{ACAD_REACTORS
330
C
102
}
330
C
100
AcDbDictionary
281
     1
  3
CANNOSCALE
350
38E
  0
LAYOUT
  5
1E
102
{ACAD_REACTORS
330
1A
102
}
330
1A
100
AcDbPlotSettings
  1

  2
none_device
  4

  6

 40
0.0
 41
0.0
 42
0.0
 43
0.0
 44
0.0
 45
0.0
 46
0.0
 47
0.0
 48
0.0
 49
0.0
140
0.0
141
0.0
142
1.0
143
1.0
 70
   688
 72
     0
 73
     0
 74
     5
  7

 75
    16
147
1.0
148
0.0
149
0.0
100
AcDbLayout
  1
Layout1
 70
     1
 71
     1
 10
0.0
 20
0.0
 11
12.0
 21
9.0
 12
0.0
 22
0.0
 32
0.0
 14
1.00000000000000E+20
 24
1.00000000000000E+20
 34
1.00000000000000E+20
 15
-1.00000000000000E+20
 25
-1.00000000000000E+20
 35
-1.00000000000000E+20
146
0.0
 13
0.0
 23
0.0
 33
0.0
 16
1.0
 26
0.0
 36
0.0
 17
0.0
 27
1.0
 37
0.0
 76
     0
330
1B
  0
LAYOUT
  5
26
102
{ACAD_REACTORS
330
1A
102
}
330
1A
100
AcDbPlotSettings
  1

  2
none_device
  4

  6

 40
0.0
 41
0.0
 42
0.0
 43
0.0
 44
0.0
 45
0.0
 46
0.0
 47
0.0
 48
0.0
 49
0.0
140
0.0
141
0.0
142
1.0
143
1.0
 70
   688
 72
     0
 73
     0
 74
     5
  7

 75
    16
147
1.0
148
0.0
149
0.0
100
AcDbLayout
  1
Layout2
 70
     1
 71
     2
 10
0.0
 20
0.0
 11
0.0
 21
0.0
 12
0.0
 22
0.0
 32
0.0
 14
0.0
 24
0.0
 34
0.0
 15
0.0
 25
0.0
 35
0.0
146
0.0
 13
0.0
 23
0.0
 33
0.0
 16
1.0
 26
0.0
 36
0.0
 17
0.0
 27
1.0
 37
0.0
 76
     0
330
23
  0
LAYOUT
  5
22
102
{ACAD_REACTORS
330
1A
102
}
330
1A
100
AcDbPlotSettings
  1

  2
none_device
  4

  6

 40
0.0
 41
0.0
 42
0.0
 43
0.0
 44
0.0
 45
0.0
 46
0.0
 47
0.0
 48
0.0
 49
0.0
140
0.0
141
0.0
142
1.0
143
1.0
 70
  1712
 72
     0
 73
     0
 74
     0
  7

 75
     0
147
1.0
148
0.0
149
0.0
100
AcDbLayout
  1
Model
 70
     1
 71
     0
 10
0.0
 20
0.0
 11
12.0
 21
9.0
 12
0.0
 22
0.0
 32
0.0
 14
38.124400782313
 24
69.6755867615899
 34
0.0
 15
568.8403668681001
 25
370.716246612028
 35
0.0
146
0.0
 13
0.0
 23
0.0
 33
0.0
 16
1.0
 26
0.0
 36
0.0
 17
0.0
 27
1.0
 37
0.0
 76
     0
330
1F
331
29
  0
MLINESTYLE
  5
18
102
{ACAD_REACTORS
330
17
102
}
330
17
100
AcDbMlineStyle
  2
Standard
 70
     0
  3

 62
   256
 51
90.0
 52
90.0
 71
     2
 49
0.5
 62
   256
  6
BYLAYER
 49
-0.5
 62
   256
  6
BYLAYER
  0
ACDBPLACEHOLDER
  5
F
102
{ACAD_REACTORS
330
E
102
}
330
E
  0
SCALE
  5
48
102
{ACAD_REACTORS
330
47
102
}
330
47
100
AcDbScale
 70
     0
300
1:1
140
1.0
141
1.0
290
     1
  0
SCALE
  5
49
102
{ACAD_REACTORS
330
47
102
}
330
47
100
AcDbScale
 70
     0
300
1:2
140
1.0
141
2.0
290
     0
  0
SCALE
  5
4A
102
{ACAD_REACTORS
330
47
102
}
330
47
100
AcDbScale
 70
     0
300
1:4
140
1.0
141
4.0
290
     0
  0
SCALE
  5
4B
102
{ACAD_REACTORS
330
47
102
}
330
47
100
AcDbScale
 70
     0
300
1:5
140
1.0
141
5.0
290
     0
  0
SCALE
  5
4C
102
{ACAD_REACTORS
330
47
102
}
330
47
100
AcDbScale
 70
     0
300
1:8
140
1.0
141
8.0
290
     0
  0
SCALE
  5
4D
102
{ACAD_REACTORS
330
47
102
}
330
47
100
AcDbScale
 70
     0
300
1:10
140
1.0
141
10.0
290
     0
  0
SCALE
  5
4E
102
{ACAD_REACTORS
330
47
102
}
330
47
100
AcDbScale
 70
     0
300
1:16
140
1.0
141
16.0
290
     0
  0
SCALE
  5
4F
102
{ACAD_REACTORS
330
47
102
}
330
47
100
AcDbScale
 70
     0
300
1:20
140
1.0
141
20.0
290
     0
  0
SCALE
  5
50
102
{ACAD_REACTORS
330
47
102
}
330
47
100
AcDbScale
 70
     0
300
1:30
140
1.0
141
30.0
290
     0
  0
SCALE
  5
51
102
{ACAD_REACTORS
330
47
102
}
330
47
100
AcDbScale
 70
     0
300
1:40
140
1.0
141
40.0
290
     0
  0
SCALE
  5
52
102
{ACAD_REACTORS
330
47
102
}
330
47
100
AcDbScale
 70
     0
300
1:50
140
1.0
141
50.0
290
     0
  0
SCALE
  5
53
102
{ACAD_REACTORS
330
47
102
}
330
47
100
AcDbScale
 70
     0
300
1:100
140
1.0
141
100.0
290
     0
  0
SCALE
  5
54
102
{ACAD_REACTORS
330
47
102
}
330
47
100
AcDbScale
 70
     0
300
2:1
140
2.0
141
1.0
290
     0
  0
SCALE
  5
55
102
{ACAD_REACTORS
330
47
102
}
330
47
100
AcDbScale
 70
     0
300
4:1
140
4.0
141
1.0
290
     0
  0
SCALE
  5
56
102
{ACAD_REACTORS
330
47
102
}
330
47
100
AcDbScale
 70
     0
300
8:1
140
8.0
141
1.0
290
     0
  0
SCALE
  5
57
102
{ACAD_REACTORS
330
47
102
}
330
47
100
AcDbScale
 70
     0
300
10:1
140
10.0
141
1.0
290
     0
  0
SCALE
  5
58
102
{ACAD_REACTORS
330
47
102
}
330
47
100
AcDbScale
 70
     0
300
100:1
140
100.0
141
1.0
290
     0
  0
SCALE
  5
59
102
{ACAD_REACTORS
330
47
102
}
330
47
100
AcDbScale
 70
     0
300
1/128" = 1'-0"
140
0.0078125
141
12.0
290
     0
  0
SCALE
  5
5A
102
{ACAD_REACTORS
330
47
102
}
330
47
100
AcDbScale
 70
     0
300
1/64" = 1'-0"
140
0.015625
141
12.0
290
     0
  0
SCALE
  5
5B
102
{ACAD_REACTORS
330
47
102
}
330
47
100
AcDbScale
 70
     0
300
1/32" = 1'-0"
140
0.03125
141
12.0
290
     0
  0
SCALE
  5
5C
102
{ACAD_REACTORS
330
47
102
}
330
47
100
AcDbScale
 70
     0
300
1/16" = 1'-0"
140
0.0625
141
12.0
290
     0
  0
SCALE
  5
5D
102
{ACAD_REACTORS
330
47
102
}
330
47
100
AcDbScale
 70
     0
300
3/32" = 1'-0"
140
0.09375
141
12.0
290
     0
  0
SCALE
  5
5E
102
{ACAD_REACTORS
330
47
102
}
330
47
100
AcDbScale
 70
     0
300
1/8" = 1'-0"
140
0.125
141
12.0
290
     0
  0
SCALE
  5
5F
102
{ACAD_REACTORS
330
47
102
}
330
47
100
AcDbScale
 70
     0
300
3/16" = 1'-0"
140
0.1875
141
12.0
290
     0
  0
SCALE
  5
60
102
{ACAD_REACTORS
330
47
102
}
330
47
100
AcDbScale
 70
     0
300
1/4" = 1'-0"
140
0.25
141
12.0
290
     0
  0
SCALE
  5
61
102
{ACAD_REACTORS
330
47
102
}
330
47
100
AcDbScale
 70
     0
300
3/8" = 1'-0"
140
0.375
141
12.0
290
     0
  0
SCALE
  5
62
102
{ACAD_REACTORS
330
47
102
}
330
47
100
AcDbScale
 70
     0
300
1/2" = 1'-0"
140
0.5
141
12.0
290
     0
  0
SCALE
  5
63
102
{ACAD_REACTORS
330
47
102
}
330
47
100
AcDbScale
 70
     0
300
3/4" = 1'-0"
140
0.75
141
12.0
290
     0
  0
SCALE
  5
64
102
{ACAD_REACTORS
330
47
102
}
330
47
100
AcDbScale
 70
     0
300
1" = 1'-0"
140
1.0
141
12.0
290
     0
  0
SCALE
  5
65
102
{ACAD_REACTORS
330
47
102
}
330
47
100
AcDbScale
 70
     0
300
1-1/2" = 1'-0"
140
1.5
141
12.0
290
     0
  0
SCALE
  5
66
102
{ACAD_REACTORS
330
47
102
}
330
47
100
AcDbScale
 70
     0
300
3" = 1'-0"
140
3.0
141
12.0
290
     0
  0
SCALE
  5
67
102
{ACAD_REACTORS
330
47
102
}
330
47
100
AcDbScale
 70
     0
300
6" = 1'-0"
140
6.0
141
12.0
290
     0
  0
SCALE
  5
68
102
{ACAD_REACTORS
330
47
102
}
330
47
100
AcDbScale
 70
     0
300
1'-0" = 1'-0"
140
12.0
141
12.0
290
     0
  0
VISUALSTYLE
  5
2F
102
{ACAD_REACTORS
330
2A
102
}
330
2A
100
AcDbVisualStyle
  2
2dWireframe
 70
     4
 71
     0
 72
     2
 73
     0
 90
        0
 40
-0.6
 41
-30.0
 62
     5
 63
     7
 74
     1
 91
        4
 64
     7
 65
   257
 75
     1
175
     1
 42
1.0
 92
        0
 66
   257
 43
1.0
 76
     1
 77
     6
 78
     2
 67
     7
 79
     5
170
     0
171
     0
290
     0
174
     0
 93
        1
 44
0.0
173
     0
291
     0
 45
0.0
1001
ACAD
1000
AcDbSavedByObjectVersion
1070
     0
  0
VISUALSTYLE
  5
31
102
{ACAD_REACTORS
330
2A
102
}
330
2A
100
AcDbVisualStyle
  2
3D Hidden
 70
     6
 71
     1
 72
     2
 73
     2
 90
        0
 40
-0.6
 41
-30.0
 62
     5
 63
     7
 74
     2
 91
        2
 64
     7
 65
   257
 75
     2
175
     1
 42
40.0
 92
        0
 66
   257
 43
1.0
 76
     1
 77
     6
 78
     2
 67
     7
 79
     3
170
     0
171
     0
290
     0
174
     0
 93
        1
 44
0.0
173
     0
291
     0
 45
0.0
1001
ACAD
1000
AcDbSavedByObjectVersion
1070
     0
  0
VISUALSTYLE
  5
30
102
{ACAD_REACTORS
330
2A
102
}
330
2A
100
AcDbVisualStyle
  2
3dWireframe
 70
     5
 71
     0
 72
     2
 73
     0
 90
        0
 40
-0.6
 41
-30.0
 62
     5
 63
     7
 74
     1
 91
        4
 64
     7
 65
   257
 75
     1
175
     1
 42
1.0
 92
        0
 66
   257
 43
1.0
 76
     1
 77
     6
 78
     2
 67
     7
 79
     5
170
     0
171
     0
290
     0
174
     0
 93
        1
 44
0.0
173
     0
291
     0
 45
0.0
1001
ACAD
1000
AcDbSavedByObjectVersion
1070
     0
  0
VISUALSTYLE
  5
32
102
{ACAD_REACTORS
330
2A
102
}
330
2A
100
AcDbVisualStyle
  2
Basic
 70
     7
 71
     1
 72
     0
 73
     1
 90
        0
 40
-0.6
 41
-30.0
 62
     5
 63
     7
 74
     0
 91
        4
 64
     7
 65
   257
 75
     1
175
     1
 42
1.0
 92
        8
 66
     7
 43
1.0
 76
     1
 77
     6
 78
     2
 67
     7
 79
     5
170
     0
171
     0
290
     0
174
     0
 93
        1
 44
0.0
173
     0
291
     1
 45
0.0
1001
ACAD
1000
AcDbSavedByObjectVersion
1070
     0
  0
VISUALSTYLE
  5
36
102
{ACAD_REACTORS
330
2A
102
}
330
2A
100
AcDbVisualStyle
  2
Brighten
 70
    12
 71
     2
 72
     2
 73
     0
 90
        0
 40
-0.6
 41
-30.0
 62
     5
 63
     7
 74
     1
 91
        4
 64
     7
 65
   257
 75
     1
175
     1
 42
1.0
 92
        8
 66
     7
 43
1.0
 76
     1
 77
     6
 78
     2
 67
     7
 79
     5
170
     0
171
     0
290
     0
174
     0
 93
        1
 44
50.0
173
     0
291
     1
 45
0.0
1001
ACAD
1000
AcDbSavedByObjectVersion
1070
     0
  0
VISUALSTYLE
  5
3A
102
{ACAD_REACTORS
330
2A
102
}
330
2A
100
AcDbVisualStyle
  2
ColorChange
 70
    16
 71
     2
 72
     2
 73
     3
 90
        0
 40
-0.6
 41
-30.0
 62
     5
 63
     8
 74
     1
 91
        4
 64
     7
 65
   257
 75
     1
175
     1
 42
1.0
 92
        8
 66
     8
 43
1.0
 76
     1
 77
     6
 78
     2
 67
     7
 79
     5
170
     0
171
     0
290
     0
174
     0
 93
        1
 44
0.0
173
     0
291
     1
 45
0.0
1001
ACAD
1000
AcDbSavedByObjectVersion
1070
     0
  0
VISUALSTYLE
  5
34
102
{ACAD_REACTORS
330
2A
102
}
330
2A
100
AcDbVisualStyle
  2
Conceptual
 70
     9
 71
     3
 72
     2
 73
     0
 90
        0
 40
-0.6
 41
-30.0
 62
     5
 63
     7
 74
     2
 91
        2
 64
     7
 65
   257
 75
     1
175
     1
 42
40.0
 92
        8
 66
     7
 43
1.0
 76
     1
 77
     6
 78
     2
 67
     7
 79
     3
170
     0
171
     0
290
     0
174
     0
 93
        1
 44
0.0
173
     0
291
     0
 45
0.0
1001
ACAD
1000
AcDbSavedByObjectVersion
1070
     0
  0
VISUALSTYLE
  5
35
102
{ACAD_REACTORS
330
2A
102
}
330
2A
100
AcDbVisualStyle
  2
Dim
 70
    11
 71
     2
 72
     2
 73
     0
 90
        0
 40
-0.6
 41
-30.0
 62
     5
 63
     7
 74
     1
 91
        4
 64
     7
 65
   257
 75
     1
175
     1
 42
1.0
 92
        8
 66
     7
 43
1.0
 76
     1
 77
     6
 78
     2
 67
     7
 79
     5
170
     0
171
     0
290
     0
174
     0
 93
        1
 44
-50.0
173
     0
291
     1
 45
0.0
1001
ACAD
1000
AcDbSavedByObjectVersion
1070
     0
  0
VISUALSTYLE
  5
39
102
{ACAD_REACTORS
330
2A
102
}
330
2A
100
AcDbVisualStyle
  2
Facepattern
 70
    15
 71
     2
 72
     2
 73
     0
 90
        0
 40
-0.6
 41
-30.0
 62
     5
 63
     7
 74
     1
 91
        4
 64
     7
 65
   257
 75
     1
175
     1
 42
1.0
 92
        8
 66
     7
 43
1.0
 76
     1
 77
     6
 78
     2
 67
     7
 79
     5
170
     0
171
     0
290
     0
174
     0
 93
        1
 44
0.0
173
     0
291
     1
 45
0.0
1001
ACAD
1000
AcDbSavedByObjectVersion
1070
     0
  0
VISUALSTYLE
  5
2B
102
{ACAD_REACTORS
330
2A
102
}
330
2A
100
AcDbVisualStyle
  2
Flat
 70
     0
 71
     2
 72
     1
 73
     1
 90
        2
 40
-0.6
 41
30.0
 62
     5
 63
     7
 74
     0
 91
        4
 64
     7
 65
   257
 75
     1
175
     1
 42
1.0
 92
        8
 66
     7
 43
1.0
 76
     1
 77
     6
 78
     2
 67
     7
 79
     5
170
     0
171
     0
290
     0
174
     0
 93
       13
 44
0.0
173
     0
291
     1
 45
0.0
1001
ACAD
1000
AcDbSavedByObjectVersion
1070
     0
  0
VISUALSTYLE
  5
2C
102
{ACAD_REACTORS
330
2A
102
}
330
2A
100
AcDbVisualStyle
  2
FlatWithEdges
 70
     1
 71
     2
 72
     1
 73
     1
 90
        2
 40
-0.6
 41
30.0
 62
     5
 63
     7
 74
     1
 91
        4
 64
     7
 65
   257
 75
     1
175
     1
 42
1.0
 92
        0
 66
   257
 43
1.0
 76
     1
 77
     6
 78
     2
 67
     7
 79
     5
170
     0
171
     0
290
     0
174
     0
 93
       13
 44
0.0
173
     0
291
     1
 45
0.0
1001
ACAD
1000
AcDbSavedByObjectVersion
1070
     0
  0
VISUALSTYLE
  5
2D
102
{ACAD_REACTORS
330
2A
102
}
330
2A
100
AcDbVisualStyle
  2
Gouraud
 70
     2
 71
     2
 72
     2
 73
     1
 90
        2
 40
-0.6
 41
30.0
 62
     5
 63
     7
 74
     0
 91
        4
 64
     7
 65
   257
 75
     1
175
     1
 42
1.0
 92
        0
 66
     7
 43
1.0
 76
     1
 77
     6
 78
     2
 67
     7
 79
     5
170
     0
171
     0
290
     0
174
     0
 93
       13
 44
0.0
173
     0
291
     1
 45
0.0
1001
ACAD
1000
AcDbSavedByObjectVersion
1070
     0
  0
VISUALSTYLE
  5
2E
102
{ACAD_REACTORS
330
2A
102
}
330
2A
100
AcDbVisualStyle
  2
GouraudWithEdges
 70
     3
 71
     2
 72
     2
 73
     1
 90
        2
 40
-0.6
 41
30.0
 62
     5
 63
     7
 74
     1
 91
        4
 64
     7
 65
   257
 75
     1
175
     1
 42
1.0
 92
        0
 66
   257
 43
1.0
 76
     1
 77
     6
 78
     2
 67
     7
 79
     5
170
     0
171
     0
290
     0
174
     0
 93
       13
 44
0.0
173
     0
291
     1
 45
0.0
1001
ACAD
1000
AcDbSavedByObjectVersion
1070
     0
  0
VISUALSTYLE
  5
38
102
{ACAD_REACTORS
330
2A
102
}
330
2A
100
AcDbVisualStyle
  2
Linepattern
 70
    14
 71
     2
 72
     2
 73
     0
 90
        0
 40
-0.6
 41
-30.0
 62
     5
 63
     7
 74
     1
 91
        4
 64
     7
 65
   257
 75
     7
175
     7
 42
1.0
 92
        8
 66
     7
 43
1.0
 76
     1
 77
     6
 78
     2
 67
     7
 79
     5
170
     0
171
     0
290
     0
174
     0
 93
        1
 44
0.0
173
     0
291
     1
 45
0.0
1001
ACAD
1000
AcDbSavedByObjectVersion
1070
     0
  0
VISUALSTYLE
  5
33
102
{ACAD_REACTORS
330
2A
102
}
330
2A
100
AcDbVisualStyle
  2
Realistic
 70
     8
 71
     2
 72
     2
 73
     0
 90
        0
 40
-0.6
 41
-30.0
 62
     5
 63
     7
 74
     1
 91
        0
 64
     7
 65
   257
 75
     1
175
     1
 42
1.0
 92
        8
 66
     8
 43
1.0
 76
     1
 77
     6
 78
     2
 67
     7
 79
     5
170
     0
171
     0
290
     0
174
     0
 93
       13
 44
0.0
173
     0
291
     0
 45
0.0
1001
ACAD
1000
AcDbSavedByObjectVersion
1070
     0
  0
VISUALSTYLE
  5
37
102
{ACAD_REACTORS
330
2A
102
}
330
2A
100
AcDbVisualStyle
  2
Thicken
 70
    13
 71
     2
 72
     2
 73
     0
 90
        0
 40
-0.6
 41
-30.0
 62
     5
 63
     7
 74
     1
 91
        4
 64
     7
 65
   257
 75
     1
175
     1
 42
1.0
 92
       12
 66
     7
 43
1.0
 76
     1
 77
     6
 78
     2
 67
     7
 79
     5
170
     0
171
     0
290
     0
174
     0
 93
        1
 44
0.0
173
     0
291
     1
 45
0.0
1001
ACAD
1000
AcDbSavedByObjectVersion
1070
     0
  0
DICTIONARYVAR
  5
38E
102
{ACAD_REACTORS
330
38B
102
}
330
38B
100
DictionaryVariables
280
     0
  1
1:1
  0
ENDSEC
  0
EOF
