  0
SECTION
  2
HEADER
  9
$ACADVER
  1
AC1015
  9
$ACADMAINTVER
 70
     6
  9
$DWGCODEPAGE
  3
ANSI_1252
  9
$INSBASE
 10
0.0
 20
0.0
 30
0.0
  9
$EXTMIN
 10
111.369151624876
 20
108.159724754394
 30
0.0
  9
$EXTMAX
 10
657.9690685120759
 20
386.287434070425
 30
0.0
  9
$LIMMIN
 10
0.0
 20
0.0
  9
$LIMMAX
 10
12.0
 20
9.0
  9
$ORTHOMODE
 70
     0
  9
$REGENMODE
 70
     1
  9
$FILLMODE
 70
     1
  9
$QTEXTMODE
 70
     0
  9
$MIRRTEXT
 70
     1
  9
$LTSCALE
 40
1.0
  9
$ATTMODE
 70
     1
  9
$TEXTSIZE
 40
0.2
  9
$TRACEWID
 40
0.05
  9
$TEXTSTYLE
  7
Standard
  9
$CLAYER
  8
0
  9
$CELTYPE
  6
ByLayer
  9
$CECOLOR
 62
   256
  9
$CELTSCALE
 40
1.0
  9
$DISPSILH
 70
     0
  9
$DIMSCALE
 40
1.0
  9
$DIMASZ
 40
0.18
  9
$DIMEXO
 40
0.0625
  9
$DIMDLI
 40
0.38
  9
$DIMRND
 40
0.0
  9
$DIMDLE
 40
0.0
  9
$DIMEXE
 40
0.18
  9
$DIMTP
 40
0.0
  9
$DIMTM
 40
0.0
  9
$DIMTXT
 40
0.18
  9
$DIMCEN
 40
0.09
  9
$DIMTSZ
 40
0.0
  9
$DIMTOL
 70
     0
  9
$DIMLIM
 70
     0
  9
$DIMTIH
 70
     1
  9
$DIMTOH
 70
     1
  9
$DIMSE1
 70
     0
  9
$DIMSE2
 70
     0
  9
$DIMTAD
 70
     0
  9
$DIMZIN
 70
     0
  9
$DIMBLK
  1

  9
$DIMASO
 70
     1
  9
$DIMSHO
 70
     1
  9
$DIMPOST
  1

  9
$DIMAPOST
  1

  9
$DIMALT
 70
     0
  9
$DIMALTD
 70
     2
  9
$DIMALTF
 40
25.4
  9
$DIMLFAC
 40
1.0
  9
$DIMTOFL
 70
     0
  9
$DIMTVP
 40
0.0
  9
$DIMTIX
 70
     0
  9
$DIMSOXD
 70
     0
  9
$DIMSAH
 70
     0
  9
$DIMBLK1
  1

  9
$DIMBLK2
  1

  9
$DIMSTYLE
  2
Standard
  9
$DIMCLRD
 70
     0
  9
$DIMCLRE
 70
     0
  9
$DIMCLRT
 70
     0
  9
$DIMTFAC
 40
1.0
  9
$DIMGAP
 40
0.09
  9
$DIMJUST
 70
     0
  9
$DIMSD1
 70
     0
  9
$DIMSD2
 70
     0
  9
$DIMTOLJ
 70
     1
  9
$DIMTZIN
 70
     0
  9
$DIMALTZ
 70
     0
  9
$DIMALTTZ
 70
     0
  9
$DIMUPT
 70
     0
  9
$DIMDEC
 70
     4
  9
$DIMTDEC
 70
     4
  9
$DIMALTU
 70
     2
  9
$DIMALTTD
 70
     2
  9
$DIMTXSTY
  7
Standard
  9
$DIMAUNIT
 70
     0
  9
$DIMADEC
 70
     0
  9
$DIMALTRND
 40
0.0
  9
$DIMAZIN
 70
     0
  9
$DIMDSEP
 70
    46
  9
$DIMATFIT
 70
     3
  9
$DIMFRAC
 70
     0
  9
$DIMLDRBLK
  1

  9
$DIMLUNIT
 70
     2
  9
$DIMLWD
 70
    -2
  9
$DIMLWE
 70
    -2
  9
$DIMTMOVE
 70
     0
  9
$LUNITS
 70
     2
  9
$LUPREC
 70
     4
  9
$SKETCHINC
 40
0.1
  9
$FILLETRAD
 40
0.5
  9
$AUNITS
 70
     0
  9
$AUPREC
 70
     0
  9
$MENU
  1
.
  9
$ELEVATION
 40
0.0
  9
$PELEVATION
 40
0.0
  9
$THICKNESS
 40
0.0
  9
$LIMCHECK
 70
     0
  9
$CHAMFERA
 40
0.5
  9
$CHAMFERB
 40
0.5
  9
$CHAMFERC
 40
1.0
  9
$CHAMFERD
 40
0.0
  9
$SKPOLY
 70
     0
  9
$TDCREATE
 40
2455386.307740475
  9
$TDUCREATE
 40
2455386.224407141
  9
$TDUPDATE
 40
2455386.307740486
  9
$TDUUPDATE
 40
2455386.224407153
  9
$TDINDWG
 40
0.0000000116
  9
$TDUSRTIMER
 40
0.0000000116
  9
$USRTIMER
 70
     1
  9
$ANGBASE
 50
0.0
  9
$ANGDIR
 70
     0
  9
$PDMODE
 70
     0
  9
$PDSIZE
 40
0.0
  9
$PLINEWID
 40
0.0
  9
$SPLFRAME
 70
     0
  9
$SPLINETYPE
 70
     6
  9
$SPLINESEGS
 70
     8
  9
$HANDSEED
  5
2BE
  9
$SURFTAB1
 70
     6
  9
$SURFTAB2
 70
     6
  9
$SURFTYPE
 70
     6
  9
$SURFU
 70
     6
  9
$SURFV
 70
     6
  9
$UCSBASE
  2

  9
$UCSNAME
  2

  9
$UCSORG
 10
0.0
 20
0.0
 30
0.0
  9
$UCSXDIR
 10
1.0
 20
0.0
 30
0.0
  9
$UCSYDIR
 10
0.0
 20
1.0
 30
0.0
  9
$UCSORTHOREF
  2

  9
$UCSORTHOVIEW
 70
     0
  9
$UCSORGTOP
 10
0.0
 20
0.0
 30
0.0
  9
$UCSORGBOTTOM
 10
0.0
 20
0.0
 30
0.0
  9
$UCSORGLEFT
 10
0.0
 20
0.0
 30
0.0
  9
$UCSORGRIGHT
 10
0.0
 20
0.0
 30
0.0
  9
$UCSORGFRONT
 10
0.0
 20
0.0
 30
0.0
  9
$UCSORGBACK
 10
0.0
 20
0.0
 30
0.0
  9
$PUCSBASE
  2

  9
$PUCSNAME
  2

  9
$PUCSORG
 10
0.0
 20
0.0
 30
0.0
  9
$PUCSXDIR
 10
1.0
 20
0.0
 30
0.0
  9
$PUCSYDIR
 10
0.0
 20
1.0
 30
0.0
  9
$PUCSORTHOREF
  2

  9
$PUCSORTHOVIEW
 70
     0
  9
$PUCSORGTOP
 10
0.0
 20
0.0
 30
0.0
  9
$PUCSORGBOTTOM
 10
0.0
 20
0.0
 30
0.0
  9
$PUCSORGLEFT
 10
0.0
 20
0.0
 30
0.0
  9
$PUCSORGRIGHT
 10
0.0
 20
0.0
 30
0.0
  9
$PUCSORGFRONT
 10
0.0
 20
0.0
 30
0.0
  9
$PUCSORGBACK
 10
0.0
 20
0.0
 30
0.0
  9
$USERI1
 70
     0
  9
$USERI2
 70
     0
  9
$USERI3
 70
     0
  9
$USERI4
 70
     0
  9
$USERI5
 70
     0
  9
$USERR1
 40
16.5
  9
$USERR2
 40
0.0
  9
$USERR3
 40
0.0
  9
$USERR4
 40
0.0
  9
$USERR5
 40
0.0
  9
$WORLDVIEW
 70
     1
  9
$SHADEDGE
 70
     3
  9
$SHADEDIF
 70
    70
  9
$TILEMODE
 70
     1
  9
$MAXACTVP
 70
    64
  9
$PINSBASE
 10
0.0
 20
0.0
 30
0.0
  9
$PLIMCHECK
 70
     0
  9
$PEXTMIN
 10
1.00000000000000E+20
 20
1.00000000000000E+20
 30
1.00000000000000E+20
  9
$PEXTMAX
 10
-1.00000000000000E+20
 20
-1.00000000000000E+20
 30
-1.00000000000000E+20
  9
$PLIMMIN
 10
0.0
 20
0.0
  9
$PLIMMAX
 10
12.0
 20
9.0
  9
$UNITMODE
 70
     0
  9
$VISRETAIN
 70
     1
  9
$PLINEGEN
 70
     0
  9
$PSLTSCALE
 70
     1
  9
$TREEDEPTH
 70
  3020
  9
$CMLSTYLE
  2
Standard
  9
$CMLJUST
 70
     0
  9
$CMLSCALE
 40
1.0
  9
$PROXYGRAPHICS
 70
     1
  9
$MEASUREMENT
 70
     1
  9
$CELWEIGHT
370
    -1
  9
$ENDCAPS
280
     0
  9
$JOINSTYLE
280
     0
  9
$LWDISPLAY
290
     0
  9
$INSUNITS
 70
     1
  9
$HYPERLINKBASE
  1

  9
$STYLESHEET
  1

  9
$XEDIT
290
     1
  9
$CEPSNTYPE
380
     0
  9
$PSTYLEMODE
290
     1
  9
$FINGERPRINTGUID
  2
{2FFBEF18-89E3-40E1-B8A5-42A20B98B206}
  9
$VERSIONGUID
  2
{FAEB1C32-E019-11D5-929B-00C0DF256EC4}
  9
$EXTNAMES
290
     1
  9
$PSVPSCALE
 40
0.0
  9
$OLESTARTUP
290
     0
  0
ENDSEC
  0
SECTION
  2
CLASSES
  0
CLASS
  1
ACDBDICTIONARYWDFLT
  2
AcDbDictionaryWithDefault
  3
ObjectDBX Classes
 90
        0
280
     0
281
     0
  0
CLASS
  1
VISUALSTYLE
  2
AcDbVisualStyle
  3
ObjectDBX Classes
 90
     4095
280
     0
281
     0
  0
CLASS
  1
SCALE
  2
AcDbScale
  3
ObjectDBX Classes
 90
     1153
280
     0
281
     0
  0
CLASS
  1

  2
exOdDbPolyline
  3

 90
        0
280
     0
281
     1
  0
CLASS
  1

  2
exOdDbSpline
  3

 90
        0
280
     0
281
     1
  0
CLASS
  1
DICTIONARYVAR
  2
AcDbDictionaryVar
  3
ObjectDBX Classes
 90
        0
280
     0
281
     0
  0
CLASS
  1
ACDBPLACEHOLDER
  2
AcDbPlaceHolder
  3
ObjectDBX Classes
 90
        0
280
     0
281
     0
  0
CLASS
  1
LAYOUT
  2
AcDbLayout
  3
ObjectDBX Classes
 90
        0
280
     0
281
     0
  0
ENDSEC
  0
SECTION
  2
TABLES
  0
TABLE
  2
VPORT
  5
8
330
0
100
AcDbSymbolTable
 70
     1
  0
VPORT
  5
29
330
8
100
AcDbSymbolTableRecord
100
AcDbViewportTableRecord
  2
*Active
 70
     0
 10
0.0
 20
0.0
 11
1.0
 21
1.0
 12
384.6691100684759
 22
247.2235794124095
 13
0.0
 23
0.0
 14
0.5
 24
0.5
 15
0.5
 25
0.5
 16
0.0
 26
0.0
 36
1.0
 17
0.0
 27
0.0
 37
0.0
 40
375.1593858523847
 41
1.60267857142857
 42
50.0
 43
0.0
 44
0.0
 50
0.0
 51
0.0
 71
     0
 72
   100
 73
     1
 74
     3
 75
     0
 76
     0
 77
     0
 78
     0
281
     0
 65
     1
110
0.0
120
0.0
130
0.0
111
1.0
121
0.0
131
0.0
112
0.0
122
1.0
132
0.0
 79
     0
146
0.0
  0
ENDTAB
  0
TABLE
  2
LTYPE
  5
5
330
0
100
AcDbSymbolTable
 70
     9
  0
LTYPE
  5
14
330
5
100
AcDbSymbolTableRecord
100
AcDbLinetypeTableRecord
  2
ByBlock
 70
     0
  3

 72
    65
 73
     0
 40
0.0
  0
LTYPE
  5
15
330
5
100
AcDbSymbolTableRecord
100
AcDbLinetypeTableRecord
  2
ByLayer
 70
     0
  3

 72
    65
 73
     0
 40
0.0
  0
LTYPE
  5
16
330
5
100
AcDbSymbolTableRecord
100
AcDbLinetypeTableRecord
  2
Continuous
 70
     0
  3
Solid line
 72
    65
 73
     0
 40
0.0
  0
LTYPE
  5
3B
330
5
100
AcDbSymbolTableRecord
100
AcDbLinetypeTableRecord
  2
DASHED
 70
     0
  3
Dashed
 72
    65
 73
     2
 40
15.0
 49
7.0
 74
     0
 49
-8.0
 74
     0
  0
LTYPE
  5
3C
330
5
100
AcDbSymbolTableRecord
100
AcDbLinetypeTableRecord
  2
DOTTED
 70
     0
  3
Dotted
 72
    65
 73
     2
 40
1.0
 49
0.0
 74
     0
 49
-1.0
 74
     0
  0
LTYPE
  5
3D
330
5
100
AcDbSymbolTableRecord
100
AcDbLinetypeTableRecord
  2
DOT_CENTER
 70
     0
  3
Dot_Center
 72
    65
 73
     4
 40
14.0
 49
12.0
 74
     0
 49
-1.0
 74
     0
 49
0.0
 74
     0
 49
-1.0
 74
     0
  0
LTYPE
  5
3E
330
5
100
AcDbSymbolTableRecord
100
AcDbLinetypeTableRecord
  2
LONG_DASHED
 70
     0
  3
Long_Dashed
 72
    65
 73
     2
 40
15.0
 49
10.0
 74
     0
 49
-5.0
 74
     0
  0
LTYPE
  5
3F
330
5
100
AcDbSymbolTableRecord
100
AcDbLinetypeTableRecord
  2
DASH_CENTER
 70
     0
  3
Dash_Center
 72
    65
 73
     4
 40
14.0
 49
11.0
 74
     0
 49
-1.0
 74
     0
 49
1.0
 74
     0
 49
-1.0
 74
     0
  0
LTYPE
  5
40
330
5
100
AcDbSymbolTableRecord
100
AcDbLinetypeTableRecord
  2
PHANTOM
 70
     0
  3
Phantom
 72
    65
 73
     6
 40
13.0
 49
10.0
 74
     0
 49
-1.0
 74
     0
 49
0.0
 74
     0
 49
-1.0
 74
     0
 49
0.0
 74
     0
 49
-1.0
 74
     0
  0
LTYPE
  5
41
330
5
100
AcDbSymbolTableRecord
100
AcDbLinetypeTableRecord
  2
CENTER_DASH_DASH
 70
     0
  3
Center_Dash_Dash
 72
    65
 73
     6
 40
14.0
 49
9.0
 74
     0
 49
-1.0
 74
     0
 49
1.0
 74
     0
 49
-1.0
 74
     0
 49
1.0
 74
     0
 49
-1.0
 74
     0
  0
LTYPE
  5
42
330
5
100
AcDbSymbolTableRecord
100
AcDbLinetypeTableRecord
  2
CENTERX2
 70
     0
  3
CENTERX2
 72
    65
 73
     4
 40
22.0
 49
13.0
 74
     0
 49
-3.0
 74
     0
 49
3.0
 74
     0
 49
-3.0
 74
     0
  0
ENDTAB
  0
TABLE
  2
LAYER
  5
2
330
0
100
AcDbSymbolTable
 70
     3
  0
LAYER
  5
10
330
2
100
AcDbSymbolTableRecord
100
AcDbLayerTableRecord
  2
0
 70
     0
 62
     7
  6
Continuous
370
    -3
390
F
  0
LAYER
  5
43
330
2
100
AcDbSymbolTableRecord
100
AcDbLayerTableRecord
  2
1
 70
     0
 62
     7
  6
Continuous
370
    -3
390
F
  0
LAYER
  5
44
330
2
100
AcDbSymbolTableRecord
100
AcDbLayerTableRecord
  2
BEMAßUNG
 70
     0
 62
     7
  6
Continuous
370
    -3
390
F
  0
ENDTAB
  0
TABLE
  2
STYLE
  5
3
330
0
100
AcDbSymbolTable
 70
     2
  0
STYLE
  5
11
330
3
100
AcDbSymbolTableRecord
100
AcDbTextStyleTableRecord
  2
Standard
 70
     0
 40
0.0
 41
1.0
 50
0.0
 71
     0
 42
0.2
  3
txt
  4

  0
STYLE
  5
27D
330
3
100
AcDbSymbolTableRecord
100
AcDbTextStyleTableRecord
  2
CONVERTER_11
 70
     0
 40
0.0
 41
0.9
 50
0.0
 71
     0
 42
0.2
  3
txt.shx
  4

  0
ENDTAB
  0
TABLE
  2
VIEW
  5
6
330
0
100
AcDbSymbolTable
 70
     0
  0
ENDTAB
  0
TABLE
  2
UCS
  5
7
330
0
100
AcDbSymbolTable
 70
     0
  0
ENDTAB
  0
TABLE
  2
APPID
  5
9
330
0
100
AcDbSymbolTable
 70
     1
  0
APPID
  5
12
330
9
100
AcDbSymbolTableRecord
100
AcDbRegAppTableRecord
  2
ACAD
 70
     0
  0
ENDTAB
  0
TABLE
  2
DIMSTYLE
  5
A
330
0
100
AcDbSymbolTable
 70
     6
100
AcDbDimStyleTable
  0
DIMSTYLE
105
27
330
A
100
AcDbSymbolTableRecord
100
AcDbDimStyleTableRecord
  2
Standard
 70
     0
340
11
  0
DIMSTYLE
105
281
102
{ACAD_REACTORS
330
282
102
}
330
A
100
AcDbSymbolTableRecord
100
AcDbDimStyleTableRecord
  2
ME10_DIM_10
 70
     0
  3
DN<>
 41
10.0
 42
0.0
 44
2.0
 73
     0
 74
     0
 77
     1
 78
     8
140
10.0
147
2.0
172
     1
173
     1
176
     4
177
     4
178
     1
271
     2
340
27D
  0
DIMSTYLE
105
28C
102
{ACAD_REACTORS
330
28D
102
}
330
A
100
AcDbSymbolTableRecord
100
AcDbDimStyleTableRecord
  2
ME10_DIM_11
 70
     0
 41
10.0
 42
0.0
 44
2.0
 73
     0
 74
     0
 77
     1
 78
     8
140
10.0
147
2.0
172
     1
173
     1
176
     4
177
     4
178
     1
271
     1
340
27D
  0
DIMSTYLE
105
297
102
{ACAD_REACTORS
330
298
102
}
330
A
100
AcDbSymbolTableRecord
100
AcDbDimStyleTableRecord
  2
ME10_DIM_12
 70
     0
 41
10.0
 42
0.0
 44
2.0
 73
     0
 74
     0
 77
     1
 78
     8
140
10.0
147
2.0
172
     1
173
     1
176
     4
177
     4
178
     1
271
     2
340
27D
  0
DIMSTYLE
105
2A2
102
{ACAD_REACTORS
330
2A3
102
}
330
A
100
AcDbSymbolTableRecord
100
AcDbDimStyleTableRecord
  2
ME10_DIM_13
 70
     0
 41
10.0
 42
0.0
 44
2.0
 73
     0
 74
     0
 77
     1
 78
     8
140
10.0
147
2.0
172
     1
173
     1
176
     4
177
     4
178
     1
271
     2
340
27D
  0
DIMSTYLE
105
2AD
102
{ACAD_REACTORS
330
2AE
102
}
330
A
100
AcDbSymbolTableRecord
100
AcDbDimStyleTableRecord
  2
ME10_DIM_14
 70
     0
  3
Ø<>
 41
10.0
 42
0.0
 44
2.0
 73
     0
 74
     0
 77
     1
 78
     8
140
10.0
147
2.0
172
     1
173
     1
176
     4
177
     4
178
     1
271
     2
340
27D
  0
ENDTAB
  0
TABLE
  2
BLOCK_RECORD
  5
1
330
0
100
AcDbSymbolTable
 70
     7
  0
BLOCK_RECORD
  5
1F
330
1
100
AcDbSymbolTableRecord
100
AcDbBlockTableRecord
  2
*Model_Space
340
22
  0
BLOCK_RECORD
  5
1B
330
1
100
AcDbSymbolTableRecord
100
AcDbBlockTableRecord
  2
*Paper_Space
340
1E
  0
BLOCK_RECORD
  5
23
330
1
100
AcDbSymbolTableRecord
100
AcDbBlockTableRecord
  2
*Paper_Space0
340
26
  0
BLOCK_RECORD
  5
45
330
1
100
AcDbSymbolTableRecord
100
AcDbBlockTableRecord
  2
HL64_1P_1
340
0
102
{BLKREFS
331
6A
102
}
  0
BLOCK_RECORD
  5
277
330
1
100
AcDbSymbolTableRecord
100
AcDbBlockTableRecord
  2
*D2
340
0
  0
BLOCK_RECORD
  5
283
330
1
100
AcDbSymbolTableRecord
100
AcDbBlockTableRecord
  2
*D3
340
0
  0
BLOCK_RECORD
  5
28E
330
1
100
AcDbSymbolTableRecord
100
AcDbBlockTableRecord
  2
*D4
340
0
  0
BLOCK_RECORD
  5
299
330
1
100
AcDbSymbolTableRecord
100
AcDbBlockTableRecord
  2
*D5
340
0
  0
BLOCK_RECORD
  5
2A4
330
1
100
AcDbSymbolTableRecord
100
AcDbBlockTableRecord
  2
*D6
340
0
  0
ENDTAB
  0
ENDSEC
  0
SECTION
  2
BLOCKS
  0
BLOCK
  5
20
330
1F
100
AcDbEntity
  8
0
100
AcDbBlockBegin
  2
*Model_Space
 70
     0
 10
0.0
 20
0.0
 30
0.0
  3
*Model_Space
  1

  0
ENDBLK
  5
21
330
1F
100
AcDbEntity
  8
0
100
AcDbBlockEnd
  0
BLOCK
  5
1C
330
1B
100
AcDbEntity
 67
     1
  8
0
100
AcDbBlockBegin
  2
*Paper_Space
 70
     0
 10
0.0
 20
0.0
 30
0.0
  3
*Paper_Space
  1

  0
ENDBLK
  5
1D
330
1B
100
AcDbEntity
 67
     1
  8
0
100
AcDbBlockEnd
  0
BLOCK
  5
24
330
23
100
AcDbEntity
  8
0
100
AcDbBlockBegin
  2
*Paper_Space0
 70
     0
 10
0.0
 20
0.0
 30
0.0
  3
*Paper_Space0
  1

  0
ENDBLK
  5
25
330
23
100
AcDbEntity
  8
0
100
AcDbBlockEnd
  0
BLOCK
  5
46
330
45
100
AcDbEntity
  8
0
100
AcDbBlockBegin
  2
HL64_1P_1
 70
     0
 10
384.6691100684759
 20
247.2235794124095
 30
0.0
  3
HL64_1P_1
  1

  0
POINT
  5
6B
330
45
100
AcDbEntity
  8
BEMAßUNG
 62
     7
100
AcDbPoint
 10
311.369151624876
 20
129.2989240194
 30
0.0
  0
POINT
  5
6C
330
45
100
AcDbEntity
  8
BEMAßUNG
 62
     7
100
AcDbPoint
 10
491.847103377676
 20
247.2860638246
 30
0.0
  0
POINT
  5
6D
330
45
100
AcDbEntity
  8
BEMAßUNG
 62
     7
100
AcDbPoint
 10
133.369151624876
 20
279.5638617187
 30
0.0
  0
POINT
  5
6E
330
45
100
AcDbEntity
  8
BEMAßUNG
 62
     7
100
AcDbPoint
 10
262.920569721176
 20
354.5638677187
 30
0.0
  0
POINT
  5
6F
330
45
100
AcDbEntity
  8
BEMAßUNG
 62
     7
100
AcDbPoint
 10
255.695304787976
 20
131.064295503
 30
0.0
  0
POINT
  5
70
330
45
100
AcDbEntity
  8
BEMAßUNG
 62
     7
100
AcDbPoint
 10
390.119107545376
 20
279.5638617187
 30
0.0
  0
POINT
  5
71
330
45
100
AcDbEntity
  8
BEMAßUNG
 62
     7
100
AcDbPoint
 10
482.206397516176
 20
141.1055251629
 30
0.0
  0
POINT
  5
72
330
45
100
AcDbEntity
  8
BEMAßUNG
 62
     7
100
AcDbPoint
 10
487.004530126376
 20
251.0008295369
 30
0.0
  0
LINE
  5
73
330
45
100
AcDbEntity
  8
BEMAßUNG
  6
CENTERX2
 62
     7
100
AcDbLine
 10
311.369151624876
 20
129.2989240194
 30
0.0
 11
311.369151624976
 21
356.5075119106
 31
0.0
  0
LINE
  5
74
330
45
100
AcDbEntity
  8
BEMAßUNG
  6
CENTERX2
 62
     7
100
AcDbLine
 10
491.598801371476
 20
195.7478416384
 30
0.0
 11
349.697389109676
 21
201.9433910978
 31
0.0
  0
LINE
  5
75
330
45
100
AcDbEntity
  8
0
  6
Continuous
 62
     7
100
AcDbLine
 10
241.356578373576
 20
270.8638617187
 30
0.0
 11
241.723186319464
 21
270.863861718702
 31
0.0
  0
LINE
  5
76
330
45
100
AcDbEntity
  8
0
  6
Continuous
 62
     7
100
AcDbLine
 10
381.015094252397
 20
270.863861718703
 30
0.0
 11
381.381705586522
 21
270.863861718703
 31
0.0
  0
LINE
  5
77
330
45
100
AcDbEntity
  8
0
  6
Continuous
 62
     7
100
AcDbLine
 10
194.369151624876
 20
259.064295503
 30
0.0
 11
194.869151624876
 21
259.064295503
 31
0.0
  0
LINE
  5
78
330
45
100
AcDbEntity
  8
0
  6
Continuous
 62
     7
100
AcDbLine
 10
187.869151624876
 20
259.064295503
 30
0.0
 11
188.369151624876
 21
259.064295503
 31
0.0
  0
LINE
  5
79
330
45
100
AcDbEntity
  8
0
  6
Continuous
 62
     7
100
AcDbLine
 10
235.351072299276
 20
262.8657867536
 30
0.0
 11
232.619195704376
 21
262.8657867536
 31
0.0
  0
LINE
  5
7A
330
45
100
AcDbEntity
  8
0
  6
Continuous
 62
     7
100
AcDbLine
 10
299.569054685776
 20
262.8657867536
 30
0.0
 11
297.569054685776
 21
262.8657867536
 31
0.0
  0
LINE
  5
7B
330
45
100
AcDbEntity
  8
0
  6
Continuous
 62
     7
100
AcDbLine
 10
325.169134113076
 20
262.8657867536
 30
0.0
 11
323.169134113076
 21
262.8657867536
 31
0.0
  0
LINE
  5
7C
330
45
100
AcDbEntity
  8
0
  6
Continuous
 62
     7
100
AcDbLine
 10
390.119107545376
 20
262.8657867536
 30
0.0
 11
387.387230950576
 21
262.8657867536
 31
0.0
  0
LINE
  5
7D
330
45
100
AcDbEntity
  8
0
  6
Continuous
 62
     7
100
AcDbLine
 10
237.469151624876
 20
255.9639440114
 30
0.0
 11
236.619063261076
 21
255.9639440114
 31
0.0
  0
LINE
  5
7E
330
45
100
AcDbEntity
  8
0
  6
Continuous
 62
     7
100
AcDbLine
 10
299.569054685776
 20
255.9639440114
 30
0.0
 11
241.356578373576
 21
255.9639440114
 31
0.0
  0
LINE
  5
7F
330
45
100
AcDbEntity
  8
0
  6
Continuous
 62
     7
100
AcDbLine
 10
381.381705586476
 20
255.9639440114
 30
0.0
 11
323.169134113076
 21
255.9639440114
 31
0.0
  0
LINE
  5
80
330
45
100
AcDbEntity
  8
0
  6
Continuous
 62
     7
100
AcDbLine
 10
386.119239988776
 20
255.9639440114
 30
0.0
 11
385.269151624876
 21
255.9639440114
 31
0.0
  0
LINE
  5
81
330
45
100
AcDbEntity
  8
0
  6
Continuous
 62
     7
100
AcDbLine
 10
237.469151624876
 20
255.0639440114
 30
0.0
 11
236.619063261076
 21
255.0639440114
 31
0.0
  0
LINE
  5
82
330
45
100
AcDbEntity
  8
0
  6
Continuous
 62
     7
100
AcDbLine
 10
299.569054685776
 20
255.0639440114
 30
0.0
 11
241.356578373576
 21
255.0639440114
 31
0.0
  0
LINE
  5
83
330
45
100
AcDbEntity
  8
0
  6
Continuous
 62
     7
100
AcDbLine
 10
381.381705586476
 20
255.0639440114
 30
0.0
 11
323.169134113076
 21
255.0639440114
 31
0.0
  0
LINE
  5
84
330
45
100
AcDbEntity
  8
0
  6
Continuous
 62
     7
100
AcDbLine
 10
386.119239988776
 20
255.0639440114
 30
0.0
 11
385.269151624876
 21
255.0639440114
 31
0.0
  0
LINE
  5
85
330
45
100
AcDbEntity
  8
0
  6
Continuous
 62
     7
100
AcDbLine
 10
237.469151624876
 20
254.6208628831
 30
0.0
 11
235.869151624876
 21
254.6208628831
 31
0.0
  0
LINE
  5
86
330
45
100
AcDbEntity
  8
0
  6
Continuous
 62
     7
100
AcDbLine
 10
299.569054685776
 20
254.6208628831
 30
0.0
 11
241.356578373576
 21
254.6208628831
 31
0.0
  0
LINE
  5
87
330
45
100
AcDbEntity
  8
0
  6
Continuous
 62
     7
100
AcDbLine
 10
381.381705586476
 20
254.6208628831
 30
0.0
 11
323.169134113076
 21
254.6208628831
 31
0.0
  0
LINE
  5
88
330
45
100
AcDbEntity
  8
0
  6
Continuous
 62
     7
100
AcDbLine
 10
386.869151624876
 20
254.6208628831
 30
0.0
 11
385.269151624876
 21
254.6208628831
 31
0.0
  0
LINE
  5
89
330
45
100
AcDbEntity
  8
0
  6
Continuous
 62
     7
100
AcDbLine
 10
386.869151624876
 20
250.3639440114
 30
0.0
 11
235.869151624876
 21
250.3639440114
 31
0.0
  0
LINE
  5
8A
330
45
100
AcDbEntity
  8
0
  6
Continuous
 62
     7
100
AcDbLine
 10
388.369151624876
 20
249.3639440114
 30
0.0
 11
234.369151624876
 21
249.3639440114
 31
0.0
  0
LINE
  5
8B
330
45
100
AcDbEntity
  8
0
  6
Continuous
 62
     7
100
AcDbLine
 10
491.941332335376
 20
249.4442617795
 30
0.0
 11
491.847103377676
 21
247.2860638246
 31
0.0
  0
LINE
  5
8C
330
45
100
AcDbEntity
  8
0
  6
Continuous
 62
     7
100
AcDbLine
 10
374.869107545376
 20
215.45726728
 30
0.0
 11
378.369107545376
 21
215.3044539798
 31
0.0
  0
LINE
  5
8D
330
45
100
AcDbEntity
  8
0
  6
Continuous
 62
     7
100
AcDbLine
 10
390.119107545376
 20
262.8657867536
 30
0.0
 11
386.119239988776
 21
255.9639440114
 31
0.0
  0
LINE
  5
8E
330
45
100
AcDbEntity
  8
0
  6
Continuous
 62
     7
100
AcDbLine
 10
390.119107545376
 20
279.5638617187
 30
0.0
 11
390.119107545376
 21
262.8657867536
 31
0.0
  0
LINE
  5
8F
330
45
100
AcDbEntity
  8
0
  6
Continuous
 62
     7
100
AcDbLine
 10
489.369151624876
 20
279.5638617187
 30
0.0
 11
390.119107545376
 21
279.5638617187
 31
0.0
  0
LINE
  5
90
330
45
100
AcDbEntity
  8
0
  6
Continuous
 62
     7
100
AcDbLine
 10
491.369151624876
 20
276.064295503
 30
0.0
 11
491.369151624876
 21
277.5638617187
 31
0.0
  0
LINE
  5
91
330
45
100
AcDbEntity
  8
0
  6
Continuous
 62
     7
100
AcDbLine
 10
393.619107545376
 20
276.064295503
 30
0.0
 11
491.369151624876
 21
276.064295503
 31
0.0
  0
LINE
  5
92
330
45
100
AcDbEntity
  8
0
  6
Continuous
 62
     7
100
AcDbLine
 10
393.619107545376
 20
261.9248918266
 30
0.0
 11
393.619107545376
 21
276.064295503
 31
0.0
  0
LINE
  5
93
330
45
100
AcDbEntity
  8
0
  6
Continuous
 62
     7
100
AcDbLine
 10
391.869151624876
 20
258.9053117035
 30
0.0
 11
393.619107545376
 21
261.9248918266
 31
0.0
  0
LINE
  5
94
330
45
100
AcDbEntity
  8
0
  6
Continuous
 62
     7
100
AcDbLine
 10
384.269107545376
 20
241.2594761598
 30
0.0
 11
388.868906397576
 21
241.259100161
 31
0.0
  0
LINE
  5
95
330
45
100
AcDbEntity
  8
0
  6
Continuous
 62
     7
100
AcDbLine
 10
378.369107545376
 20
231.6119919823
 30
0.0
 11
381.306819643737
 21
231.611991982392
 31
0.0
  0
LINE
  5
96
330
45
100
AcDbEntity
  8
0
  6
Continuous
 62
     7
100
AcDbLine
 10
380.769107545376
 20
235.1117958122
 30
0.0
 11
374.869107545376
 21
235.1122780926
 31
0.0
  0
LINE
  5
97
330
45
100
AcDbEntity
  8
0
  6
Continuous
 62
     7
100
AcDbLine
 10
380.769107545376
 20
244.7597622701
 30
0.0
 11
380.769107545376
 21
235.1117958122
 31
0.0
  0
LINE
  5
98
330
45
100
AcDbEntity
  8
0
  6
Continuous
 62
     7
100
AcDbLine
 10
388.369151624876
 20
244.7591410239
 30
0.0
 11
380.769107545376
 21
244.7597622701
 31
0.0
  0
LINE
  5
99
330
45
100
AcDbEntity
  8
0
  6
Continuous
 62
     7
100
AcDbLine
 10
388.369151624876
 20
249.3639440114
 30
0.0
 11
388.369151624876
 21
244.7591410239
 31
0.0
  0
LINE
  5
9A
330
45
100
AcDbEntity
  8
0
  6
Continuous
 62
     7
100
AcDbLine
 10
386.869151624876
 20
250.3639440114
 30
0.0
 11
388.369151624876
 21
249.3639440114
 31
0.0
  0
LINE
  5
9B
330
45
100
AcDbEntity
  8
0
  6
Continuous
 62
     7
100
AcDbLine
 10
386.869151624876
 20
254.6208628831
 30
0.0
 11
386.869151624876
 21
250.3639440114
 31
0.0
  0
LINE
  5
9C
330
45
100
AcDbEntity
  8
0
  6
Continuous
 62
     7
100
AcDbLine
 10
386.119239988776
 20
255.0639440114
 30
0.0
 11
386.869151624876
 21
254.6208628831
 31
0.0
  0
LINE
  5
9D
330
45
100
AcDbEntity
  8
0
  6
Continuous
 62
     7
100
AcDbLine
 10
386.119239988776
 20
255.9639440114
 30
0.0
 11
386.119239988776
 21
255.0639440114
 31
0.0
  0
LINE
  5
9E
330
45
100
AcDbEntity
  8
0
  6
Continuous
 62
     7
100
AcDbLine
 10
378.369107545376
 20
215.3044539798
 30
0.0
 11
378.369107545376
 21
231.6119919823
 31
0.0
  0
LINE
  5
9F
330
45
100
AcDbEntity
  8
0
  6
Continuous
 62
     7
100
AcDbLine
 10
391.869151624876
 20
255.1545298662
 30
0.0
 11
391.869151624876
 21
258.9053117035
 31
0.0
  0
LINE
  5
A0
330
45
100
AcDbEntity
  8
0
  6
Continuous
 62
     7
100
AcDbLine
 10
391.869151624876
 20
244.259100151
 30
0.0
 11
391.869151624876
 21
251.6511954682
 31
0.0
  0
LINE
  5
A1
330
45
100
AcDbEntity
  8
0
  6
Continuous
 62
     7
100
AcDbLine
 10
388.868906397576
 20
241.259100161
 30
0.0
 11
384.269107545376
 21
241.259100161
 31
0.0
  0
LINE
  5
A2
330
45
100
AcDbEntity
  8
0
  6
Continuous
 62
     7
100
AcDbLine
 10
238.469195704376
 20
241.259100161
 30
0.0
 11
233.869396852326
 21
241.259100161023
 31
0.0
  0
LINE
  5
A3
330
45
100
AcDbEntity
  8
0
  6
Continuous
 62
     7
100
AcDbLine
 10
384.269107545376
 20
234.6117549393
 30
0.0
 11
384.269107545376
 21
241.2594761598
 31
0.0
  0
LINE
  5
A4
330
45
100
AcDbEntity
  8
0
  6
Continuous
 62
     7
100
AcDbLine
 10
244.369195704376
 20
231.6117549493
 30
0.0
 11
241.469440931742
 21
231.611754949323
 31
0.0
  0
LINE
  5
A5
330
45
100
AcDbEntity
  8
0
  6
Continuous
 62
     7
100
AcDbLine
 10
374.869107545376
 20
235.1122780926
 30
0.0
 11
247.869195704476
 21
235.1122780926
 31
0.0
  0
LINE
  5
A6
330
45
100
AcDbEntity
  8
0
  6
Continuous
 62
     7
100
AcDbLine
 10
374.869107545376
 20
235.1122780926
 30
0.0
 11
374.869107545376
 21
215.45726728
 31
0.0
  0
LINE
  5
A7
330
45
100
AcDbEntity
  8
0
  6
Continuous
 62
     7
100
AcDbLine
 10
374.869107545376
 20
215.45726728
 30
0.0
 11
351.283120093478
 21
216.487053731539
 31
0.0
  0
LINE
  5
A8
330
45
100
AcDbEntity
  8
0
  6
Continuous
 62
     7
100
AcDbLine
 10
311.369151624876
 20
217.6430929712
 30
0.0
 11
247.869195704376
 21
217.6430929712
 31
0.0
  0
LINE
  5
A9
330
45
100
AcDbEntity
  8
0
  6
Continuous
 62
     7
100
AcDbLine
 10
491.847103377676
 20
247.2860638246
 30
0.0
 11
487.354306478976
 21
144.3840970016
 31
0.0
  0
LINE
  5
AA
330
45
100
AcDbEntity
  8
0
  6
Continuous
 62
     7
100
AcDbLine
 10
391.869151624876
 20
251.6511954682
 30
0.0
 11
491.847103377676
 21
247.2860638246
 31
0.0
  0
LINE
  5
AB
330
45
100
AcDbEntity
  8
0
  6
Continuous
 62
     7
100
AcDbLine
 10
311.521965257176
 20
152.0644480089
 30
0.0
 11
311.521819480676
 21
152.0611091779
 31
0.0
  0
LINE
  5
AC
330
45
100
AcDbEntity
  8
0
  6
Continuous
 62
     7
100
AcDbLine
 10
487.354306478976
 20
144.3840970016
 30
0.0
 11
311.521819480676
 21
152.0611091779
 31
0.0
  0
LINE
  5
AD
330
45
100
AcDbEntity
  8
0
  6
Continuous
 62
     7
100
AcDbLine
 10
487.354306478976
 20
144.3840970016
 30
0.0
 11
487.260077521376
 21
142.2258990468
 31
0.0
  0
LINE
  5
AE
330
45
100
AcDbEntity
  8
0
  6
Continuous
 62
     7
100
AcDbLine
 10
244.697118449748
 20
216.163929055108
 30
0.0
 11
261.41126594396
 21
180.320324083462
 31
0.0
  0
LINE
  5
AF
330
45
100
AcDbEntity
  8
0
  6
Continuous
 62
     7
100
AcDbLine
 10
244.369195704376
 20
231.6119919823
 30
0.0
 11
244.369195704376
 21
217.6430929712
 31
0.0
  0
LINE
  5
B0
330
45
100
AcDbEntity
  8
0
  6
Continuous
 62
     7
100
AcDbLine
 10
241.469440931742
 20
231.611754949323
 30
0.0
 11
244.369195704376
 21
231.6119919823
 31
0.0
  0
LINE
  5
B1
330
45
100
AcDbEntity
  8
0
  6
Continuous
 62
     7
100
AcDbLine
 10
238.469195704376
 20
241.2594761598
 30
0.0
 11
238.469195704376
 21
234.6117549393
 31
0.0
  0
LINE
  5
B2
330
45
100
AcDbEntity
  8
0
  6
Continuous
 62
     7
100
AcDbLine
 10
233.869396852326
 20
241.259100161023
 30
0.0
 11
238.469195704376
 21
241.2594761598
 31
0.0
  0
LINE
  5
B3
330
45
100
AcDbEntity
  8
0
  6
Continuous
 62
     7
100
AcDbLine
 10
230.869151624876
 20
258.9053117035
 30
0.0
 11
230.869151624876
 21
244.259100151
 31
0.0
  0
LINE
  5
B4
330
45
100
AcDbEntity
  8
0
  6
Continuous
 62
     7
100
AcDbLine
 10
229.119195704376
 20
261.9248918266
 30
0.0
 11
230.869151624876
 21
258.9053117035
 31
0.0
  0
LINE
  5
B5
330
45
100
AcDbEntity
  8
0
  6
Continuous
 62
     7
100
AcDbLine
 10
229.119195704376
 20
276.064295503
 30
0.0
 11
229.119195704376
 21
261.9248918266
 31
0.0
  0
LINE
  5
B6
330
45
100
AcDbEntity
  8
0
  6
Continuous
 62
     7
100
AcDbLine
 10
197.369151624876
 20
276.064295503
 30
0.0
 11
229.119195704376
 21
276.064295503
 31
0.0
  0
LINE
  5
B7
330
45
100
AcDbEntity
  8
0
  6
Continuous
 62
     7
100
AcDbLine
 10
197.081141724376
 20
259.5642193506
 30
0.0
 11
197.369151624876
 21
276.064295503
 31
0.0
  0
LINE
  5
B8
330
45
100
AcDbEntity
  8
0
  6
Continuous
 62
     7
100
AcDbLine
 10
197.081141724376
 20
259.5642193506
 30
0.0
 11
196.563455425576
 21
259.064295503
 31
0.0
  0
LINE
  5
B9
330
45
100
AcDbEntity
  8
0
  6
Continuous
 62
     7
100
AcDbLine
 10
196.563455425576
 20
259.064295503
 30
0.0
 11
194.869151624876
 21
259.064295503
 31
0.0
  0
LINE
  5
BA
330
45
100
AcDbEntity
  8
0
  6
Continuous
 62
     7
100
AcDbLine
 10
194.869151624876
 20
259.064295503
 30
0.0
 11
193.869151624876
 21
260.064295503
 31
0.0
  0
LINE
  5
BB
330
45
100
AcDbEntity
  8
0
  6
Continuous
 62
     7
100
AcDbLine
 10
193.869151624876
 20
276.064295503
 30
0.0
 11
193.869151624876
 21
260.064295503
 31
0.0
  0
LINE
  5
BC
330
45
100
AcDbEntity
  8
0
  6
Continuous
 62
     7
100
AcDbLine
 10
193.869151624876
 20
276.064295503
 30
0.0
 11
188.869151624876
 21
276.064295503
 31
0.0
  0
LINE
  5
BD
330
45
100
AcDbEntity
  8
0
  6
Continuous
 62
     7
100
AcDbLine
 10
188.869151624876
 20
260.064295503
 30
0.0
 11
188.869151624876
 21
276.064295503
 31
0.0
  0
LINE
  5
BE
330
45
100
AcDbEntity
  8
0
  6
Continuous
 62
     7
100
AcDbLine
 10
188.869151624876
 20
260.064295503
 30
0.0
 11
187.869151624876
 21
259.064295503
 31
0.0
  0
LINE
  5
BF
330
45
100
AcDbEntity
  8
0
  6
Continuous
 62
     7
100
AcDbLine
 10
187.869151624876
 20
259.064295503
 30
0.0
 11
186.174847824176
 21
259.064295503
 31
0.0
  0
LINE
  5
C0
330
45
100
AcDbEntity
  8
0
  6
Continuous
 62
     7
100
AcDbLine
 10
186.174847824176
 20
259.064295503
 30
0.0
 11
185.657161525476
 21
259.5642193506
 31
0.0
  0
LINE
  5
C1
330
45
100
AcDbEntity
  8
0
  6
Continuous
 62
     7
100
AcDbLine
 10
185.369151624876
 20
276.064295503
 30
0.0
 11
185.657161525476
 21
259.5642193506
 31
0.0
  0
LINE
  5
C2
330
45
100
AcDbEntity
  8
0
  6
Continuous
 62
     7
100
AcDbLine
 10
131.369151624876
 20
276.064295503
 30
0.0
 11
185.369151624876
 21
276.064295503
 31
0.0
  0
LINE
  5
C3
330
45
100
AcDbEntity
  8
0
  6
Continuous
 62
     7
100
AcDbLine
 10
131.369151624876
 20
277.5638617187
 30
0.0
 11
131.369151624876
 21
276.064295503
 31
0.0
  0
LINE
  5
C4
330
45
100
AcDbEntity
  8
0
  6
Continuous
 62
     7
100
AcDbLine
 10
232.619195704376
 20
279.5638617187
 30
0.0
 11
133.369151624876
 21
279.5638617187
 31
0.0
  0
LINE
  5
C5
330
45
100
AcDbEntity
  8
0
  6
Continuous
 62
     7
100
AcDbLine
 10
232.619195704376
 20
262.8657867536
 30
0.0
 11
232.619195704376
 21
279.5638617187
 31
0.0
  0
LINE
  5
C6
330
45
100
AcDbEntity
  8
0
  6
Continuous
 62
     7
100
AcDbLine
 10
236.619063261076
 20
255.9639440114
 30
0.0
 11
232.619195704376
 21
262.8657867536
 31
0.0
  0
LINE
  5
C7
330
45
100
AcDbEntity
  8
0
  6
Continuous
 62
     7
100
AcDbLine
 10
236.619063261076
 20
255.0639440114
 30
0.0
 11
236.619063261076
 21
255.9639440114
 31
0.0
  0
LINE
  5
C8
330
45
100
AcDbEntity
  8
0
  6
Continuous
 62
     7
100
AcDbLine
 10
235.869151624876
 20
254.6208628831
 30
0.0
 11
236.619063261076
 21
255.0639440114
 31
0.0
  0
LINE
  5
C9
330
45
100
AcDbEntity
  8
0
  6
Continuous
 62
     7
100
AcDbLine
 10
235.869151624876
 20
250.3639440114
 30
0.0
 11
235.869151624876
 21
254.6208628831
 31
0.0
  0
LINE
  5
CA
330
45
100
AcDbEntity
  8
0
  6
Continuous
 62
     7
100
AcDbLine
 10
234.369151624876
 20
249.3639440114
 30
0.0
 11
235.869151624876
 21
250.3639440114
 31
0.0
  0
LINE
  5
CB
330
45
100
AcDbEntity
  8
0
  6
Continuous
 62
     7
100
AcDbLine
 10
234.369151624876
 20
244.7591410239
 30
0.0
 11
234.369151624876
 21
249.3639440114
 31
0.0
  0
LINE
  5
CC
330
45
100
AcDbEntity
  8
0
  6
Continuous
 62
     7
100
AcDbLine
 10
241.969195704476
 20
244.7597622701
 30
0.0
 11
234.369151624876
 21
244.7591410239
 31
0.0
  0
LINE
  5
CD
330
45
100
AcDbEntity
  8
0
  6
Continuous
 62
     7
100
AcDbLine
 10
241.969195704476
 20
235.1117958122
 30
0.0
 11
241.969195704476
 21
244.7597622701
 31
0.0
  0
LINE
  5
CE
330
45
100
AcDbEntity
  8
0
  6
Continuous
 62
     7
100
AcDbLine
 10
247.869195704476
 20
235.1122780926
 30
0.0
 11
241.969195704476
 21
235.1117958122
 31
0.0
  0
LINE
  5
CF
330
45
100
AcDbEntity
  8
0
  6
Continuous
 62
     7
100
AcDbLine
 10
247.869195704376
 20
217.6430929712
 30
0.0
 11
247.869195704476
 21
235.1122780926
 31
0.0
  0
LINE
  5
D0
330
45
100
AcDbEntity
  8
0
  6
Continuous
 62
     7
100
AcDbLine
 10
247.906141844276
 20
217.5638617187
 30
0.0
 11
247.869195704376
 21
217.6430929712
 31
0.0
  0
LINE
  5
D1
330
45
100
AcDbEntity
  8
0
  6
Continuous
 62
     7
100
AcDbLine
 10
247.906141844276
 20
217.5638617187
 30
0.0
 11
252.893314474876
 21
217.5638617187
 31
0.0
  0
LINE
  5
D2
330
45
100
AcDbEntity
  8
0
  6
Continuous
 62
     7
100
AcDbLine
 10
252.893314474876
 20
217.5638617187
 30
0.0
 11
252.893314474876
 21
206.8688354986
 31
0.0
  0
LINE
  5
D3
330
45
100
AcDbEntity
  8
0
  6
Continuous
 62
     7
100
AcDbLine
 10
264.583343198589
 20
181.799487999554
 30
0.0
 11
252.893314474876
 21
206.8688354986
 31
0.0
  0
LINE
  5
D4
330
45
100
AcDbEntity
  8
0
  6
Continuous
 62
     7
100
AcDbLine
 10
487.004530126376
 20
251.0008295369
 30
0.0
 11
491.941332335376
 21
249.4442617795
 31
0.0
  0
LINE
  5
D5
330
45
100
AcDbEntity
  8
0
  6
Continuous
 62
     7
100
AcDbLine
 10
487.260077521376
 20
142.2258990468
 30
0.0
 11
482.206397516176
 21
141.1055251629
 31
0.0
  0
LINE
  5
D6
330
45
100
AcDbEntity
  8
0
  6
Continuous
 62
     7
100
AcDbLine
 10
311.521965257176
 20
152.0644480089
 30
0.0
 11
311.522849636376
 21
152.0847036224
 31
0.0
  0
LINE
  5
D7
330
45
100
AcDbEntity
  8
0
  6
Continuous
 62
     7
100
AcDbLine
 10
311.521965257176
 20
152.0644480089
 30
0.0
 11
311.369151624876
 21
152.0644480089
 31
0.0
  0
LINE
  5
D8
330
45
100
AcDbEntity
  8
0
  6
Continuous
 62
     7
100
AcDbLine
 10
482.206397516176
 20
141.1055251629
 30
0.0
 11
311.369151624876
 21
148.5644404024
 31
0.0
  0
LINE
  5
D9
330
45
100
AcDbEntity
  8
0
  6
Continuous
 62
     7
100
AcDbLine
 10
391.869151624876
 20
255.1545298662
 30
0.0
 11
487.004530126376
 21
251.0008295369
 31
0.0
  0
LINE
  5
DA
330
45
100
AcDbEntity
  8
0
  6
Continuous
 62
     7
100
AcDbLine
 10
235.273851624876
 20
244.7597622701
 30
0.0
 11
242.119151624876
 21
244.7597622701
 31
0.0
  0
LINE
  5
DB
330
45
100
AcDbEntity
  8
0
  6
Continuous
 62
     7
100
AcDbLine
 10
244.119151624876
 20
246.7597622701
 30
0.0
 11
246.619151624876
 21
246.7597622701
 31
0.0
  0
LINE
  5
DC
330
45
100
AcDbEntity
  8
0
  6
Continuous
 62
     7
100
AcDbLine
 10
234.119151624876
 20
249.2597622701
 30
0.0
 11
234.119151624876
 21
246.7597622701
 31
0.0
  0
LINE
  5
DD
330
45
100
AcDbEntity
  8
0
  6
Continuous
 62
     7
100
AcDbLine
 10
244.619151624876
 20
249.2597622701
 30
0.0
 11
234.119151624876
 21
249.2597622701
 31
0.0
  0
LINE
  5
DE
330
45
100
AcDbEntity
  8
0
  6
Continuous
 62
     7
100
AcDbLine
 10
234.119151624876
 20
246.7597622701
 30
0.0
 11
235.273851624876
 21
244.7597622701
 31
0.0
  0
LINE
  5
DF
330
45
100
AcDbEntity
  8
0
  6
Continuous
 62
     7
100
AcDbLine
 10
380.619151624876
 20
244.7597622701
 30
0.0
 11
387.464451624876
 21
244.7597622701
 31
0.0
  0
LINE
  5
E0
330
45
100
AcDbEntity
  8
0
  6
Continuous
 62
     7
100
AcDbLine
 10
376.119151624876
 20
246.7597622701
 30
0.0
 11
378.619151624876
 21
246.7597622701
 31
0.0
  0
LINE
  5
E1
330
45
100
AcDbEntity
  8
0
  6
Continuous
 62
     7
100
AcDbLine
 10
388.619151624876
 20
249.2597622701
 30
0.0
 11
378.119151624876
 21
249.2597622701
 31
0.0
  0
LINE
  5
E2
330
45
100
AcDbEntity
  8
0
  6
Continuous
 62
     7
100
AcDbLine
 10
388.619151624876
 20
246.7597622701
 30
0.0
 11
388.619151624876
 21
249.2597622701
 31
0.0
  0
LINE
  5
E3
330
45
100
AcDbEntity
  8
0
  6
Continuous
 62
     7
100
AcDbLine
 10
387.464451624876
 20
244.7597622701
 30
0.0
 11
388.619151624876
 21
246.7597622701
 31
0.0
  0
LINE
  5
E4
330
45
100
AcDbEntity
  8
0
  6
Continuous
 62
     7
100
AcDbLine
 10
378.119151624876
 20
249.2597622701
 30
0.0
 11
244.619151624876
 21
249.2597622701
 31
0.0
  0
LINE
  5
E5
330
45
100
AcDbEntity
  8
0
  6
Continuous
 62
     7
100
AcDbLine
 10
376.119151624876
 20
246.7597622701
 30
0.0
 11
246.619151624876
 21
246.7597622701
 31
0.0
  0
LINE
  5
E6
330
45
100
AcDbEntity
  8
0
  6
Continuous
 62
     7
100
AcDbLine
 10
246.619151624876
 20
246.7597622701
 30
0.0
 11
246.619151624876
 21
247.2597622701
 31
0.0
  0
LINE
  5
E7
330
45
100
AcDbEntity
  8
0
  6
Continuous
 62
     7
100
AcDbLine
 10
376.119151624876
 20
247.2597622701
 30
0.0
 11
246.619151624876
 21
247.2597622701
 31
0.0
  0
LINE
  5
E8
330
45
100
AcDbEntity
  8
0
  6
Continuous
 62
     7
100
AcDbLine
 10
376.119151624876
 20
247.2597622701
 30
0.0
 11
376.119151624876
 21
246.7597622701
 31
0.0
  0
LINE
  5
E9
330
45
100
AcDbEntity
  8
0
  6
Continuous
 62
     7
100
AcDbLine
 10
380.619151624876
 20
244.7597622701
 30
0.0
 11
242.119151624876
 21
244.7597622701
 31
0.0
  0
LINE
  5
EA
330
45
100
AcDbEntity
  8
0
  6
Continuous
 62
     7
100
AcDbLine
 10
173.374563141276
 20
258.064295503
 30
0.0
 11
184.869151624876
 21
258.064295503
 31
0.0
  0
LINE
  5
EB
330
45
100
AcDbEntity
  8
0
  6
Continuous
 62
     7
100
AcDbLine
 10
184.869151624876
 20
276.064295503
 30
0.0
 11
173.374563141276
 21
276.064295503
 31
0.0
  0
LINE
  5
EC
330
45
100
AcDbEntity
  8
0
  6
Continuous
 62
     7
100
AcDbLine
 10
184.869151624876
 20
258.064295503
 30
0.0
 11
184.869151624876
 21
276.064295503
 31
0.0
  0
LINE
  5
ED
330
45
100
AcDbEntity
  8
0
  6
Continuous
 62
     7
100
AcDbLine
 10
173.374563141276
 20
258.064295503
 30
0.0
 11
173.374563141276
 21
276.064295503
 31
0.0
  0
LINE
  5
EE
330
45
100
AcDbEntity
  8
0
  6
Continuous
 62
     7
100
AcDbLine
 10
173.374563141276
 20
258.064295503
 30
0.0
 11
173.369151624876
 21
258.064295503
 31
0.0
  0
LINE
  5
EF
330
45
100
AcDbEntity
  8
0
  6
Continuous
 62
     7
100
AcDbLine
 10
421.369151624876
 20
276.064295503
 30
0.0
 11
406.369151624876
 21
276.064295503
 31
0.0
  0
LINE
  5
F0
330
45
100
AcDbEntity
  8
0
  6
Continuous
 62
     7
100
AcDbLine
 10
244.369195704376
 20
225.0158885992
 30
0.0
 11
226.369151624876
 21
221.1898611197
 31
0.0
  0
LINE
  5
F1
330
45
100
AcDbEntity
  8
0
  6
Continuous
 62
     7
100
AcDbLine
 10
262.437742526076
 20
178.2352247578
 30
0.0
 11
226.369151624876
 21
178.2352247578
 31
0.0
  0
LINE
  5
F2
330
45
100
AcDbEntity
  8
0
  6
Continuous
 62
     7
100
AcDbLine
 10
255.695304787976
 20
131.064295503
 30
0.0
 11
367.042998461776
 21
131.064295503
 31
0.0
  0
LINE
  5
F3
330
45
100
AcDbEntity
  8
0
  6
Continuous
 62
     7
100
AcDbLine
 10
357.169091424776
 20
146.064295503
 30
0.0
 11
253.363766497276
 21
146.064295503
 31
0.0
  0
LINE
  5
F4
330
45
100
AcDbEntity
  8
0
  6
Continuous
 62
     7
100
AcDbLine
 10
197.869151624876
 20
258.064295503
 30
0.0
 11
201.369151624876
 21
258.064295503
 31
0.0
  0
LINE
  5
F5
330
45
100
AcDbEntity
  8
0
  6
Continuous
 62
     7
100
AcDbLine
 10
197.869151624876
 20
276.064295503
 30
0.0
 11
197.869151624876
 21
258.064295503
 31
0.0
  0
LINE
  5
F6
330
45
100
AcDbEntity
  8
0
  6
Continuous
 62
     7
100
AcDbLine
 10
216.369151624876
 20
276.064295503
 30
0.0
 11
197.869151624876
 21
276.064295503
 31
0.0
  0
LINE
  5
F7
330
45
100
AcDbEntity
  8
0
  6
Continuous
 62
     7
100
AcDbLine
 10
216.369151624876
 20
219.064295503
 30
0.0
 11
226.369151624876
 21
221.1898611197
 31
0.0
  0
LINE
  5
F8
330
45
100
AcDbEntity
  8
0
  6
Continuous
 62
     7
100
AcDbLine
 10
226.369151624876
 20
178.2352247578
 30
0.0
 11
226.369151624876
 21
221.1898611197
 31
0.0
  0
LINE
  5
F9
330
45
100
AcDbEntity
  8
0
  6
Continuous
 62
     7
100
AcDbLine
 10
253.363766497276
 20
146.064295503
 30
0.0
 11
226.369151624876
 21
178.2352247578
 31
0.0
  0
LINE
  5
FA
330
45
100
AcDbEntity
  8
0
  6
Continuous
 62
     7
100
AcDbLine
 10
382.363887324176
 20
138.2085433093
 30
0.0
 11
387.832273403676
 21
144.7255120652
 31
0.0
  0
LINE
  5
FB
330
45
100
AcDbEntity
  8
0
  6
Continuous
 62
     7
100
AcDbLine
 10
206.048262762576
 20
179.1168596613
 30
0.0
 11
240.374415925676
 21
138.2085433093
 31
0.0
  0
LINE
  5
FC
330
45
100
AcDbEntity
  8
0
  6
Continuous
 62
     7
100
AcDbLine
 10
201.369151624876
 20
258.064295503
 30
0.0
 11
201.369151624876
 21
191.9726118551
 31
0.0
  0
LINE
  5
FD
330
45
100
AcDbEntity
  8
0
  6
Continuous
 62
     7
100
AcDbLine
 10
421.369151624907
 20
254.367008393019
 30
0.0
 11
421.369151624876
 21
276.064295503
 31
0.0
  0
LINE
  5
FE
330
45
100
AcDbEntity
  8
0
  6
Continuous
 62
     7
100
AcDbLine
 10
406.369151624876
 20
276.064295503
 30
0.0
 11
406.369151624876
 21
255.0219225366
 31
0.0
  0
LINE
  5
FF
330
45
100
AcDbEntity
  8
0
  6
Continuous
 62
     7
100
AcDbLine
 10
216.369151624876
 20
219.064295503
 30
0.0
 11
216.369151624876
 21
276.064295503
 31
0.0
  0
LINE
  5
100
330
45
100
AcDbEntity
  8
0
  6
Continuous
 62
     7
100
AcDbLine
 10
387.832273403676
 20
144.7255120652
 30
0.0
 11
357.169091424776
 21
146.064295503
 31
0.0
  0
LINE
  5
101
330
45
100
AcDbEntity
  8
0
  6
Continuous
 62
     7
100
AcDbLine
 10
368.631884237876
 20
146.064295503
 30
0.0
 11
357.169091424776
 21
146.064295503
 31
0.0
  0
LINE
  5
102
330
45
100
AcDbEntity
  8
0
  6
Continuous
 62
     7
100
AcDbLine
 10
406.369151624876
 20
255.0219225366
 30
0.0
 11
421.369151624907
 21
254.367008393019
 31
0.0
  0
LINE
  5
103
330
45
100
AcDbEntity
  8
0
  6
Continuous
 62
     7
100
AcDbLine
 10
191.616875438175
 20
252.380991459499
 30
0.0
 11
191.832586564576
 21
255.324295503
 31
0.0
  0
LINE
  5
104
330
45
100
AcDbEntity
  8
0
  6
Continuous
 62
     7
100
AcDbLine
 10
194.323578779877
 20
252.380991459519
 30
0.0
 11
192.872042325476
 21
255.324295503
 31
0.0
  0
LINE
  5
105
330
45
100
AcDbEntity
  8
0
  6
Continuous
 62
     7
100
AcDbLine
 10
192.649651624876
 20
255.324295503
 30
0.0
 11
192.318845904676
 21
255.324295503
 31
0.0
  0
LINE
  5
106
330
45
100
AcDbEntity
  8
0
  6
Continuous
 62
     7
100
AcDbLine
 10
192.318845904676
 20
255.324295503
 30
0.0
 11
191.914796434476
 21
255.324295503
 31
0.0
  0
LINE
  5
107
330
45
100
AcDbEntity
  8
0
  6
Continuous
 62
     7
100
AcDbLine
 10
191.914796434476
 20
255.324295503
 30
0.0
 11
190.510221461776
 21
255.324295503
 31
0.0
  0
LINE
  5
108
330
45
100
AcDbEntity
  8
0
  6
Continuous
 62
     7
100
AcDbLine
 10
190.510221461776
 20
255.324295503
 30
0.0
 11
190.210725109376
 21
255.324295503
 31
0.0
  0
LINE
  5
109
330
45
100
AcDbEntity
  8
0
  6
Continuous
 62
     7
100
AcDbLine
 10
190.210725109376
 20
255.324295503
 30
0.0
 11
190.088651624876
 21
255.324295503
 31
0.0
  0
LINE
  5
10A
330
45
100
AcDbEntity
  8
0
  6
Continuous
 62
     7
100
AcDbLine
 10
190.470239920276
 20
251.9796282148
 30
0.0
 11
189.941686297676
 21
251.9796282148
 31
0.0
  0
LINE
  5
10B
330
45
100
AcDbEntity
  8
0
  6
Continuous
 62
     7
100
AcDbLine
 10
192.587884716362
 20
251.979628214778
 30
0.0
 11
191.874814892876
 21
251.9796282148
 31
0.0
  0
LINE
  5
10C
330
45
100
AcDbEntity
  8
0
  6
Continuous
 62
     7
100
AcDbLine
 10
188.369151624876
 20
256.714295503
 30
0.0
 11
188.369151624876
 21
272.464295503
 31
0.0
  0
LINE
  5
10D
330
45
100
AcDbEntity
  8
0
  6
Continuous
 62
     7
100
AcDbLine
 10
188.369151624876
 20
272.464295503
 30
0.0
 11
194.369151624876
 21
272.464295503
 31
0.0
  0
LINE
  5
10E
330
45
100
AcDbEntity
  8
0
  6
Continuous
 62
     7
100
AcDbLine
 10
194.369151624876
 20
272.464295503
 30
0.0
 11
194.369151624876
 21
256.714295503
 31
0.0
  0
LINE
  5
10F
330
45
100
AcDbEntity
  8
0
  6
Continuous
 62
     7
100
AcDbLine
 10
197.369151624876
 20
256.464295503
 30
0.0
 11
194.619151624876
 21
256.464295503
 31
0.0
  0
LINE
  5
110
330
45
100
AcDbEntity
  8
0
  6
Continuous
 62
     7
100
AcDbLine
 10
197.369151624876
 20
256.464295503
 30
0.0
 11
197.369151624876
 21
254.1390123367
 31
0.0
  0
LINE
  5
111
330
45
100
AcDbEntity
  8
0
  6
Continuous
 62
     7
100
AcDbLine
 10
193.011904039576
 20
255.324295503
 30
0.0
 11
194.502167194276
 21
252.3677585846
 31
0.0
  0
LINE
  5
112
330
45
100
AcDbEntity
  8
0
  6
Continuous
 62
     7
100
AcDbLine
 10
193.011904039576
 20
255.324295503
 30
0.0
 11
192.649651624876
 21
255.324295503
 31
0.0
  0
LINE
  5
113
330
45
100
AcDbEntity
  8
0
  6
Continuous
 62
     7
100
AcDbLine
 10
192.649651624876
 20
255.324295503
 30
0.0
 11
191.369151624876
 21
255.740355174
 31
0.0
  0
LINE
  5
114
330
45
100
AcDbEntity
  8
0
  6
Continuous
 62
     7
100
AcDbLine
 10
191.369151624876
 20
255.740355174
 30
0.0
 11
190.088651624876
 21
255.324295503
 31
0.0
  0
LINE
  5
115
330
45
100
AcDbEntity
  8
0
  6
Continuous
 62
     7
100
AcDbLine
 10
190.088651624876
 20
255.324295503
 30
0.0
 11
189.726399210276
 21
255.324295503
 31
0.0
  0
LINE
  5
116
330
45
100
AcDbEntity
  8
0
  6
Continuous
 62
     7
100
AcDbLine
 10
188.236136055469
 20
252.367758584636
 30
0.0
 11
189.726399210276
 21
255.324295503
 31
0.0
  0
LINE
  5
117
330
45
100
AcDbEntity
  8
0
  6
Continuous
 62
     7
100
AcDbLine
 10
185.369151624876
 20
254.1390123367
 30
0.0
 11
185.369151624876
 21
256.464295503
 31
0.0
  0
LINE
  5
118
330
45
100
AcDbEntity
  8
0
  6
Continuous
 62
     7
100
AcDbLine
 10
188.119151624876
 20
256.464295503
 30
0.0
 11
185.369151624876
 21
256.464295503
 31
0.0
  0
LINE
  5
119
330
45
100
AcDbEntity
  8
0
  6
Continuous
 62
     7
100
AcDbLine
 10
194.569151624876
 20
256.464295503
 30
0.0
 11
200.369151624876
 21
256.464295503
 31
0.0
  0
LINE
  5
11A
330
45
100
AcDbEntity
  8
0
  6
Continuous
 62
     7
100
AcDbLine
 10
200.369151624876
 20
258.064295503
 30
0.0
 11
194.569151624876
 21
258.064295503
 31
0.0
  0
LINE
  5
11B
330
45
100
AcDbEntity
  8
0
  6
Continuous
 62
     7
100
AcDbLine
 10
182.369151624876
 20
256.464295503
 30
0.0
 11
188.169151624876
 21
256.464295503
 31
0.0
  0
LINE
  5
11C
330
45
100
AcDbEntity
  8
0
  6
Continuous
 62
     7
100
AcDbLine
 10
188.169151624876
 20
258.064295503
 30
0.0
 11
182.369151624876
 21
258.064295503
 31
0.0
  0
LINE
  5
11D
330
45
100
AcDbEntity
  8
0
  6
Continuous
 62
     7
100
AcDbLine
 10
194.369151624876
 20
258.064295503
 30
0.0
 11
194.569151624876
 21
258.064295503
 31
0.0
  0
LINE
  5
11E
330
45
100
AcDbEntity
  8
0
  6
Continuous
 62
     7
100
AcDbLine
 10
188.169151624876
 20
258.064295503
 30
0.0
 11
188.369151624876
 21
258.064295503
 31
0.0
  0
LINE
  5
11F
330
45
100
AcDbEntity
  8
0
  6
Continuous
 62
     7
100
AcDbLine
 10
194.569151624876
 20
258.064295503
 30
0.0
 11
194.569151624876
 21
256.464295503
 31
0.0
  0
LINE
  5
120
330
45
100
AcDbEntity
  8
0
  6
Continuous
 62
     7
100
AcDbLine
 10
188.169151624876
 20
256.464295503
 30
0.0
 11
188.169151624876
 21
258.064295503
 31
0.0
  0
LINE
  5
121
330
45
100
AcDbEntity
  8
0
  6
Continuous
 62
     7
100
AcDbLine
 10
200.369151624876
 20
256.464295503
 30
0.0
 11
200.369151624876
 21
258.064295503
 31
0.0
  0
LINE
  5
122
330
45
100
AcDbEntity
  8
0
  6
Continuous
 62
     7
100
AcDbLine
 10
182.369151624876
 20
258.064295503
 30
0.0
 11
182.369151624876
 21
256.464295503
 31
0.0
  0
LINE
  5
123
330
45
100
AcDbEntity
  8
0
  6
Continuous
 62
     7
100
AcDbLine
 10
323.169134113076
 20
250.5638617187
 30
0.0
 11
323.169134113076
 21
270.8638617187
 31
0.0
  0
LINE
  5
124
330
45
100
AcDbEntity
  8
0
  6
Continuous
 62
     7
100
AcDbLine
 10
323.169134113076
 20
250.5638617187
 30
0.0
 11
299.569054685776
 21
250.5638617187
 31
0.0
  0
LINE
  5
125
330
45
100
AcDbEntity
  8
0
  6
Continuous
 62
     7
100
AcDbLine
 10
299.569054685818
 20
270.863861718702
 30
0.0
 11
299.569054685776
 21
250.5638617187
 31
0.0
  0
LINE
  5
126
330
45
100
AcDbEntity
  8
0
  6
Continuous
 62
     7
100
AcDbLine
 10
312.519151624876
 20
279.5638607647
 30
0.0
 11
312.519151624876
 21
314.1639272187
 31
0.0
  0
LINE
  5
127
330
45
100
AcDbEntity
  8
0
  6
Continuous
 62
     7
100
AcDbLine
 10
310.219151624876
 20
279.5638607647
 30
0.0
 11
310.219151624876
 21
314.1639272187
 31
0.0
  0
LINE
  5
128
330
45
100
AcDbEntity
  8
0
  6
Continuous
 62
     7
100
AcDbLine
 10
311.598105070776
 20
279.5638617187
 30
0.0
 11
311.140198179076
 21
279.5638617187
 31
0.0
  0
LINE
  5
129
330
45
100
AcDbEntity
  8
0
  6
Continuous
 62
     7
100
AcDbLine
 10
328.504983382776
 20
279.5638607647
 30
0.0
 11
325.245573776776
 21
314.1639272187
 31
0.0
  0
LINE
  5
12A
330
45
100
AcDbEntity
  8
0
  6
Continuous
 62
     7
100
AcDbLine
 10
329.836950129376
 20
279.5638617187
 30
0.0
 11
329.394646036676
 21
279.5638617187
 31
0.0
  0
LINE
  5
12B
330
45
100
AcDbEntity
  8
0
  6
Continuous
 62
     7
100
AcDbLine
 10
294.233319866976
 20
279.5638607647
 30
0.0
 11
297.492729473076
 21
314.1639272187
 31
0.0
  0
LINE
  5
12C
330
45
100
AcDbEntity
  8
0
  6
Continuous
 62
     7
100
AcDbLine
 10
293.343657213176
 20
279.5638617187
 30
0.0
 11
292.901353120476
 21
279.5638617187
 31
0.0
  0
LINE
  5
12D
330
45
100
AcDbEntity
  8
0
  6
Continuous
 62
     7
100
AcDbLine
 10
345.623036524676
 20
279.5638607647
 30
0.0
 11
339.326340690876
 21
314.1639272187
 31
0.0
  0
LINE
  5
12E
330
45
100
AcDbEntity
  8
0
  6
Continuous
 62
     7
100
AcDbLine
 10
346.817245239376
 20
279.5638617187
 30
0.0
 11
346.420686238676
 21
279.5638617187
 31
0.0
  0
LINE
  5
12F
330
45
100
AcDbEntity
  8
0
  6
Continuous
 62
     7
100
AcDbLine
 10
277.115266725176
 20
279.5638607647
 30
0.0
 11
283.411962558976
 21
314.1639272187
 31
0.0
  0
LINE
  5
130
330
45
100
AcDbEntity
  8
0
  6
Continuous
 62
     7
100
AcDbLine
 10
276.317617011176
 20
279.5638617187
 30
0.0
 11
275.921058010376
 21
279.5638617187
 31
0.0
  0
LINE
  5
131
330
45
100
AcDbEntity
  8
0
  6
Continuous
 62
     7
100
AcDbLine
 10
312.519151624905
 20
318.884104868337
 30
0.0
 11
312.519151624876
 21
339.7638677187
 31
0.0
  0
LINE
  5
132
330
45
100
AcDbEntity
  8
0
  6
Continuous
 62
     7
100
AcDbLine
 10
310.219151624846
 20
318.884104868337
 30
0.0
 11
310.219151624876
 21
339.7638677187
 31
0.0
  0
LINE
  5
133
330
45
100
AcDbEntity
  8
0
  6
Continuous
 62
     7
100
AcDbLine
 10
324.800921672189
 20
318.884104868358
 30
0.0
 11
322.833997715476
 21
339.7638677187
 31
0.0
  0
LINE
  5
134
330
45
100
AcDbEntity
  8
0
  6
Continuous
 62
     7
100
AcDbLine
 10
297.937381577562
 20
318.884104868358
 30
0.0
 11
299.904305534276
 21
339.7638677187
 31
0.0
  0
LINE
  5
135
330
45
100
AcDbEntity
  8
0
  6
Continuous
 62
     7
100
AcDbLine
 10
330.726612783276
 20
279.5638607647
 30
0.0
 11
327.467203177276
 21
314.1639272187
 31
0.0
  0
LINE
  5
136
330
45
100
AcDbEntity
  8
0
  6
Continuous
 62
     7
100
AcDbLine
 10
327.022551072476
 20
318.8841048684
 30
0.0
 11
325.055627115976
 21
339.7638677187
 31
0.0
  0
LINE
  5
137
330
45
100
AcDbEntity
  8
0
  6
Continuous
 62
     7
100
AcDbLine
 10
331.043655570576
 20
319.4706336428
 30
0.0
 11
329.131983662076
 21
339.7638677187
 31
0.0
  0
LINE
  5
138
330
45
100
AcDbEntity
  8
0
  6
Continuous
 62
     7
100
AcDbLine
 10
334.631114603976
 20
281.3881857187
 30
0.0
 11
331.543560196876
 21
314.1639272187
 31
0.0
  0
LINE
  5
139
330
45
100
AcDbEntity
  8
0
  6
Continuous
 62
     7
100
AcDbLine
 10
333.804817461576
 20
279.5638617187
 30
0.0
 11
334.631114603976
 21
281.3881857187
 31
0.0
  0
LINE
  5
13A
330
45
100
AcDbEntity
  8
0
  6
Continuous
 62
     7
100
AcDbLine
 10
292.011690466576
 20
279.5638607647
 30
0.0
 11
295.271100072576
 21
314.1639272187
 31
0.0
  0
LINE
  5
13B
330
45
100
AcDbEntity
  8
0
  6
Continuous
 62
     7
100
AcDbLine
 10
288.933485788276
 20
279.5638617187
 30
0.0
 11
288.107188645876
 21
281.3881857187
 31
0.0
  0
LINE
  5
13C
330
45
100
AcDbEntity
  8
0
  6
Continuous
 62
     7
100
AcDbLine
 10
291.694647679276
 20
319.4706336428
 30
0.0
 11
293.606319587776
 21
339.7638677187
 31
0.0
  0
LINE
  5
13D
330
45
100
AcDbEntity
  8
0
  6
Continuous
 62
     7
100
AcDbLine
 10
288.107188645876
 20
281.3881857187
 30
0.0
 11
291.194743052976
 21
314.1639272187
 31
0.0
  0
LINE
  5
13E
330
45
100
AcDbEntity
  8
0
  6
Continuous
 62
     7
100
AcDbLine
 10
295.715752177238
 20
318.884104868343
 30
0.0
 11
297.682676133876
 21
339.7638677187
 31
0.0
  0
LINE
  5
13F
330
45
100
AcDbEntity
  8
0
  6
Continuous
 62
     7
100
AcDbLine
 10
360.406744017876
 20
279.5638607647
 30
0.0
 11
351.501871371576
 21
314.1639272187
 31
0.0
  0
LINE
  5
140
330
45
100
AcDbEntity
  8
0
  6
Continuous
 62
     7
100
AcDbLine
 10
361.381811350376
 20
279.5638617187
 30
0.0
 11
361.058022282076
 21
279.5638617187
 31
0.0
  0
LINE
  5
141
330
45
100
AcDbEntity
  8
0
  6
Continuous
 62
     7
100
AcDbLine
 10
262.331559231976
 20
279.5638607647
 30
0.0
 11
271.236431878276
 21
314.1639272187
 31
0.0
  0
LINE
  5
142
330
45
100
AcDbEntity
  8
0
  6
Continuous
 62
     7
100
AcDbLine
 10
261.680280967676
 20
279.5638617187
 30
0.0
 11
261.356491899476
 21
279.5638617187
 31
0.0
  0
LINE
  5
143
330
45
100
AcDbEntity
  8
0
  6
Continuous
 62
     7
100
AcDbLine
 10
338.467338787389
 20
318.884104868326
 30
0.0
 11
334.667533491576
 21
339.7638677187
 31
0.0
  0
LINE
  5
144
330
45
100
AcDbEntity
  8
0
  6
Continuous
 62
     7
100
AcDbLine
 10
284.270964462362
 20
318.884104868326
 30
0.0
 11
288.070769758276
 21
339.7638677187
 31
0.0
  0
LINE
  5
145
330
45
100
AcDbEntity
  8
0
  6
Continuous
 62
     7
100
AcDbLine
 10
347.614894953376
 20
279.5638607647
 30
0.0
 11
341.318199119576
 21
314.1639272187
 31
0.0
  0
LINE
  5
146
330
45
100
AcDbEntity
  8
0
  6
Continuous
 62
     7
100
AcDbLine
 10
340.459197216176
 20
318.8841048684
 30
0.0
 11
336.659391920276
 21
339.7638677187
 31
0.0
  0
LINE
  5
147
330
45
100
AcDbEntity
  8
0
  6
Continuous
 62
     7
100
AcDbLine
 10
348.227374585976
 20
319.4706336428
 30
0.0
 11
344.534308050376
 21
339.7638677187
 31
0.0
  0
LINE
  5
148
330
45
100
AcDbEntity
  8
0
  6
Continuous
 62
     7
100
AcDbLine
 10
355.157813248176
 20
281.3881857187
 30
0.0
 11
349.193116164476
 21
314.1639272187
 31
0.0
  0
LINE
  5
149
330
45
100
AcDbEntity
  8
0
  6
Continuous
 62
     7
100
AcDbLine
 10
353.561529748176
 20
279.5638617187
 30
0.0
 11
355.157813248176
 21
281.3881857187
 31
0.0
  0
LINE
  5
14A
330
45
100
AcDbEntity
  8
0
  6
Continuous
 62
     7
100
AcDbLine
 10
275.123408296476
 20
279.5638607647
 30
0.0
 11
281.420104130276
 21
314.1639272187
 31
0.0
  0
LINE
  5
14B
330
45
100
AcDbEntity
  8
0
  6
Continuous
 62
     7
100
AcDbLine
 10
269.176773501676
 20
279.5638617187
 30
0.0
 11
267.580490001676
 21
281.3881857187
 31
0.0
  0
LINE
  5
14C
330
45
100
AcDbEntity
  8
0
  6
Continuous
 62
     7
100
AcDbLine
 10
274.510928663876
 20
319.4706336428
 30
0.0
 11
278.203995199376
 21
339.7638677187
 31
0.0
  0
LINE
  5
14D
330
45
100
AcDbEntity
  8
0
  6
Continuous
 62
     7
100
AcDbLine
 10
267.580490001676
 20
281.3881857187
 30
0.0
 11
273.545187085376
 21
314.1639272187
 31
0.0
  0
LINE
  5
14E
330
45
100
AcDbEntity
  8
0
  6
Continuous
 62
     7
100
AcDbLine
 10
282.27910603363
 20
318.884104868331
 30
0.0
 11
286.078911329576
 21
339.7638677187
 31
0.0
  0
LINE
  5
14F
330
45
100
AcDbEntity
  8
0
  6
Continuous
 62
     7
100
AcDbLine
 10
350.28705922928
 20
318.884104868239
 30
0.0
 11
344.913323045876
 21
339.7638677187
 31
0.0
  0
LINE
  5
150
330
45
100
AcDbEntity
  8
0
  6
Continuous
 62
     7
100
AcDbLine
 10
272.451244020471
 20
318.884104868238
 30
0.0
 11
277.824980203976
 21
339.7638677187
 31
0.0
  0
LINE
  5
151
330
45
100
AcDbEntity
  8
0
  6
Continuous
 62
     7
100
AcDbLine
 10
371.848620627876
 20
279.5638607647
 30
0.0
 11
360.942423523976
 21
314.1639272187
 31
0.0
  0
LINE
  5
152
330
45
100
AcDbEntity
  8
0
  6
Continuous
 62
     7
100
AcDbLine
 10
372.538097350776
 20
279.5638617187
 30
0.0
 11
372.309143904976
 21
279.5638617187
 31
0.0
  0
LINE
  5
153
330
45
100
AcDbEntity
  8
0
  6
Continuous
 62
     7
100
AcDbLine
 10
250.889682621876
 20
279.5638607647
 30
0.0
 11
261.795879725876
 21
314.1639272187
 31
0.0
  0
LINE
  5
154
330
45
100
AcDbEntity
  8
0
  6
Continuous
 62
     7
100
AcDbLine
 10
250.429159344776
 20
279.5638617187
 30
0.0
 11
250.200205898976
 21
279.5638617187
 31
0.0
  0
LINE
  5
155
330
45
100
AcDbEntity
  8
0
  6
Continuous
 62
     7
100
AcDbLine
 10
359.454588583867
 20
318.884104868471
 30
0.0
 11
352.873132752076
 21
339.7638677187
 31
0.0
  0
LINE
  5
156
330
45
100
AcDbEntity
  8
0
  6
Continuous
 62
     7
100
AcDbLine
 10
263.283714665884
 20
318.884104868471
 30
0.0
 11
269.865170497676
 21
339.7638677187
 31
0.0
  0
LINE
  5
157
330
45
100
AcDbEntity
  8
0
  6
Continuous
 62
     7
100
AcDbLine
 10
372.998620627876
 20
279.5638607647
 30
0.0
 11
362.092423523976
 21
314.1639272187
 31
0.0
  0
LINE
  5
158
330
45
100
AcDbEntity
  8
0
  6
Continuous
 62
     7
100
AcDbLine
 10
360.604588583476
 20
318.8841048684
 30
0.0
 11
354.023132752076
 21
339.7638677187
 31
0.0
  0
LINE
  5
159
330
45
100
AcDbEntity
  8
0
  6
Continuous
 62
     7
100
AcDbLine
 10
249.739682621876
 20
279.5638607647
 30
0.0
 11
260.645879725876
 21
314.1639272187
 31
0.0
  0
LINE
  5
15A
330
45
100
AcDbEntity
  8
0
  6
Continuous
 62
     7
100
AcDbLine
 10
262.133714666112
 20
318.884104868397
 30
0.0
 11
268.715170497676
 21
339.7638677187
 31
0.0
  0
LINE
  5
15B
330
45
100
AcDbEntity
  8
0
  6
Continuous
 62
     7
100
AcDbLine
 10
379.168921372476
 20
279.5638607647
 30
0.0
 11
367.004639120176
 21
314.1639272187
 31
0.0
  0
LINE
  5
15C
330
45
100
AcDbEntity
  8
0
  6
Continuous
 62
     7
100
AcDbLine
 10
379.525820786576
 20
279.5638617187
 30
0.0
 11
379.407305762076
 21
279.5638617187
 31
0.0
  0
LINE
  5
15D
330
45
100
AcDbEntity
  8
0
  6
Continuous
 62
     7
100
AcDbLine
 10
243.569381877376
 20
279.5638607647
 30
0.0
 11
255.733664129676
 21
314.1639272187
 31
0.0
  0
LINE
  5
15E
330
45
100
AcDbEntity
  8
0
  6
Continuous
 62
     7
100
AcDbLine
 10
243.330997487676
 20
279.5638617187
 30
0.0
 11
243.212482463276
 21
279.5638617187
 31
0.0
  0
LINE
  5
15F
330
45
100
AcDbEntity
  8
0
  6
Continuous
 62
     7
100
AcDbLine
 10
381.381705586476
 20
262.8638617187
 30
0.0
 11
381.015094252376
 21
262.8638617187
 31
0.0
  0
LINE
  5
160
330
45
100
AcDbEntity
  8
0
  6
Continuous
 62
     7
100
AcDbLine
 10
241.723186319476
 20
262.8638617187
 30
0.0
 11
241.356578373576
 21
262.8638617187
 31
0.0
  0
LINE
  5
161
330
45
100
AcDbEntity
  8
0
  6
Continuous
 62
     7
100
AcDbLine
 10
241.723186319464
 20
270.863861718702
 30
0.0
 11
241.723186319476
 21
262.8638617187
 31
0.0
  0
LINE
  5
162
330
45
100
AcDbEntity
  8
0
  6
Continuous
 62
     7
100
AcDbLine
 10
297.569054685776
 20
262.8638617187
 30
0.0
 11
297.569054685776
 21
270.8638617187
 31
0.0
  0
LINE
  5
163
330
45
100
AcDbEntity
  8
0
  6
Continuous
 62
     7
100
AcDbLine
 10
297.569054685776
 20
262.8638617187
 30
0.0
 11
241.723186319476
 21
262.8638617187
 31
0.0
  0
LINE
  5
164
330
45
100
AcDbEntity
  8
0
  6
Continuous
 62
     7
100
AcDbLine
 10
381.015094252376
 20
262.8638617187
 30
0.0
 11
381.015094252397
 21
270.863861718703
 31
0.0
  0
LINE
  5
165
330
45
100
AcDbEntity
  8
0
  6
Continuous
 62
     7
100
AcDbLine
 10
381.015094252376
 20
262.8638617187
 30
0.0
 11
325.169134113076
 21
262.8638617187
 31
0.0
  0
LINE
  5
166
330
45
100
AcDbEntity
  8
0
  6
Continuous
 62
     7
100
AcDbLine
 10
325.16913411305
 20
270.863861718702
 30
0.0
 11
325.169134113076
 21
262.8638617187
 31
0.0
  0
LINE
  5
167
330
45
100
AcDbEntity
  8
0
  6
Continuous
 62
     7
100
AcDbLine
 10
365.345174873409
 20
318.884104868311
 30
0.0
 11
358.004514733176
 21
339.7638677187
 31
0.0
  0
LINE
  5
168
330
45
100
AcDbEntity
  8
0
  6
Continuous
 62
     7
100
AcDbLine
 10
257.393128376343
 20
318.884104868309
 30
0.0
 11
264.733788516676
 21
339.7638677187
 31
0.0
  0
LINE
  5
169
330
45
100
AcDbEntity
  8
0
  6
Continuous
 62
     7
100
AcDbLine
 10
379.764205176176
 20
279.5638607647
 30
0.0
 11
367.599922923876
 21
314.1639272187
 31
0.0
  0
LINE
  5
16A
330
45
100
AcDbEntity
  8
0
  6
Continuous
 62
     7
100
AcDbLine
 10
365.940458677276
 20
318.8841048684
 30
0.0
 11
358.599798536876
 21
339.7638677187
 31
0.0
  0
LINE
  5
16B
330
45
100
AcDbEntity
  8
0
  6
Continuous
 62
     7
100
AcDbLine
 10
387.387230950576
 20
262.8638617187
 30
0.0
 11
387.387230950576
 21
279.5638617187
 31
0.0
  0
LINE
  5
16C
330
45
100
AcDbEntity
  8
0
  6
Continuous
 62
     7
100
AcDbLine
 10
385.269151624876
 20
262.8638617187
 30
0.0
 11
387.387230950576
 21
262.8638617187
 31
0.0
  0
LINE
  5
16D
330
45
100
AcDbEntity
  8
0
  6
Continuous
 62
     7
100
AcDbLine
 10
242.974098073576
 20
279.5638607647
 30
0.0
 11
255.138380325876
 21
314.1639272187
 31
0.0
  0
LINE
  5
16E
330
45
100
AcDbEntity
  8
0
  6
Continuous
 62
     7
100
AcDbLine
 10
235.351072299276
 20
262.8638617187
 30
0.0
 11
237.469151624876
 21
262.8638617187
 31
0.0
  0
LINE
  5
16F
330
45
100
AcDbEntity
  8
0
  6
Continuous
 62
     7
100
AcDbLine
 10
235.351072299276
 20
262.8638617187
 30
0.0
 11
235.351072299276
 21
279.5638617187
 31
0.0
  0
LINE
  5
170
330
45
100
AcDbEntity
  8
0
  6
Continuous
 62
     7
100
AcDbLine
 10
256.797844572545
 20
318.884104868331
 30
0.0
 11
264.138504712876
 21
339.7638677187
 31
0.0
  0
LINE
  5
171
330
45
100
AcDbEntity
  8
0
  6
Continuous
 62
     7
100
AcDbLine
 10
362.033089614576
 20
279.5638607647
 30
0.0
 11
353.128216968276
 21
314.1639272187
 31
0.0
  0
LINE
  5
172
330
45
100
AcDbEntity
  8
0
  6
Continuous
 62
     7
100
AcDbLine
 10
351.913404826376
 20
318.8841048684
 30
0.0
 11
346.539668642576
 21
339.7638677187
 31
0.0
  0
LINE
  5
173
330
45
100
AcDbEntity
  8
0
  6
Continuous
 62
     7
100
AcDbLine
 10
370.442901191876
 20
279.5638617187
 30
0.0
 11
371.563240677176
 21
280.4692327442
 31
0.0
  0
LINE
  5
174
330
45
100
AcDbEntity
  8
0
  6
Continuous
 62
     7
100
AcDbLine
 10
260.705213635176
 20
279.5638607647
 30
0.0
 11
269.610086281576
 21
314.1639272187
 31
0.0
  0
LINE
  5
175
330
45
100
AcDbEntity
  8
0
  6
Continuous
 62
     7
100
AcDbLine
 10
252.295402057976
 20
279.5638617187
 30
0.0
 11
251.175062572676
 21
280.4692327442
 31
0.0
  0
LINE
  5
176
330
45
100
AcDbEntity
  8
0
  6
Continuous
 62
     7
100
AcDbLine
 10
270.824898423571
 20
318.884104868285
 30
0.0
 11
276.198634607276
 21
339.7638677187
 31
0.0
  0
LINE
  5
177
330
45
100
AcDbEntity
  8
0
  6
Continuous
 62
     7
100
AcDbLine
 10
323.997470216376
 20
354.6638677187
 30
0.0
 11
324.444663216376
 21
354.6638677187
 31
0.0
  0
LINE
  5
178
330
45
100
AcDbEntity
  8
0
  6
Continuous
 62
     7
100
AcDbLine
 10
330.214620216376
 20
354.6638677187
 30
0.0
 11
329.258135216376
 21
354.6638677187
 31
0.0
  0
LINE
  5
179
330
45
100
AcDbEntity
  8
0
  6
Continuous
 62
     7
100
AcDbLine
 10
330.214620216376
 20
354.6638677187
 30
0.0
 11
330.214620216376
 21
354.5638677187
 31
0.0
  0
LINE
  5
17A
330
45
100
AcDbEntity
  8
0
  6
Continuous
 62
     7
100
AcDbLine
 10
332.084112216376
 20
354.6638677187
 30
0.0
 11
331.127628216376
 21
354.6638677187
 31
0.0
  0
LINE
  5
17B
330
45
100
AcDbEntity
  8
0
  6
Continuous
 62
     7
100
AcDbLine
 10
332.084112216376
 20
354.6638677187
 30
0.0
 11
332.084112216376
 21
354.5638677187
 31
0.0
  0
LINE
  5
17C
330
45
100
AcDbEntity
  8
0
  6
Continuous
 62
     7
100
AcDbLine
 10
324.444663216376
 20
354.6638677187
 30
0.0
 11
324.575092716376
 21
354.6638677187
 31
0.0
  0
LINE
  5
17D
330
45
100
AcDbEntity
  8
0
  6
Continuous
 62
     7
100
AcDbLine
 10
324.444663216376
 20
354.6638677187
 30
0.0
 11
324.444663216376
 21
354.5638677187
 31
0.0
  0
LINE
  5
17E
330
45
100
AcDbEntity
  8
0
  6
Continuous
 62
     7
100
AcDbLine
 10
340.822903216376
 20
354.6638677187
 30
0.0
 11
340.798233667176
 21
354.6638677187
 31
0.0
  0
LINE
  5
17F
330
45
100
AcDbEntity
  8
0
  6
Continuous
 62
     7
100
AcDbLine
 10
340.822903216376
 20
354.6638677187
 30
0.0
 11
340.822903216376
 21
354.5638677187
 31
0.0
  0
LINE
  5
180
330
45
100
AcDbEntity
  8
0
  6
Continuous
 62
     7
100
AcDbLine
 10
255.169151624876
 20
314.1639272187
 30
0.0
 11
367.569151624876
 21
314.1639272187
 31
0.0
  0
LINE
  5
181
330
45
100
AcDbEntity
  8
0
  6
Continuous
 62
     7
100
AcDbLine
 10
255.394397841976
 20
319.4706336428
 30
0.0
 11
256.797844572576
 21
319.4706336428
 31
0.0
  0
LINE
  5
182
330
45
100
AcDbEntity
  8
0
  6
Continuous
 62
     7
100
AcDbLine
 10
256.797844572576
 20
319.4706336428
 30
0.0
 11
256.797844572545
 21
318.884104868331
 31
0.0
  0
LINE
  5
183
330
45
100
AcDbEntity
  8
0
  6
Continuous
 62
     7
100
AcDbLine
 10
257.599333227676
 20
319.4706336428
 30
0.0
 11
262.133714666276
 21
319.4706336428
 31
0.0
  0
LINE
  5
184
330
45
100
AcDbEntity
  8
0
  6
Continuous
 62
     7
100
AcDbLine
 10
262.133714666276
 20
319.4706336428
 30
0.0
 11
262.133714666112
 21
318.884104868397
 31
0.0
  0
LINE
  5
185
330
45
100
AcDbEntity
  8
0
  6
Continuous
 62
     7
100
AcDbLine
 10
263.468592878376
 20
319.4706336428
 30
0.0
 11
270.824898423376
 21
319.4706336428
 31
0.0
  0
LINE
  5
186
330
45
100
AcDbEntity
  8
0
  6
Continuous
 62
     7
100
AcDbLine
 10
270.824898423376
 20
319.4706336428
 30
0.0
 11
270.824898423571
 21
318.884104868285
 31
0.0
  0
LINE
  5
187
330
45
100
AcDbEntity
  8
0
  6
Continuous
 62
     7
100
AcDbLine
 10
272.602196448176
 20
319.4706336428
 30
0.0
 11
282.279106033676
 21
319.4706336428
 31
0.0
  0
LINE
  5
188
330
45
100
AcDbEntity
  8
0
  6
Continuous
 62
     7
100
AcDbLine
 10
282.279106033676
 20
319.4706336428
 30
0.0
 11
282.27910603363
 21
318.884104868331
 31
0.0
  0
LINE
  5
189
330
45
100
AcDbEntity
  8
0
  6
Continuous
 62
     7
100
AcDbLine
 10
284.270964462376
 20
319.4706336428
 30
0.0
 11
295.715752177276
 21
319.4706336428
 31
0.0
  0
LINE
  5
18A
330
45
100
AcDbEntity
  8
0
  6
Continuous
 62
     7
100
AcDbLine
 10
295.715752177276
 20
319.4706336428
 30
0.0
 11
295.715752177238
 21
318.884104868343
 31
0.0
  0
LINE
  5
18B
330
45
100
AcDbEntity
  8
0
  6
Continuous
 62
     7
100
AcDbLine
 10
297.937381577776
 20
319.4706336428
 30
0.0
 11
310.219151624876
 21
319.4706336428
 31
0.0
  0
LINE
  5
18C
330
45
100
AcDbEntity
  8
0
  6
Continuous
 62
     7
100
AcDbLine
 10
312.519151624876
 20
319.4706336428
 30
0.0
 11
324.800921671976
 21
319.4706336428
 31
0.0
  0
LINE
  5
18D
330
45
100
AcDbEntity
  8
0
  6
Continuous
 62
     7
100
AcDbLine
 10
327.022551072476
 20
319.4706336428
 30
0.0
 11
327.022551072476
 21
318.8841048684
 31
0.0
  0
LINE
  5
18E
330
45
100
AcDbEntity
  8
0
  6
Continuous
 62
     7
100
AcDbLine
 10
327.022551072476
 20
319.4706336428
 30
0.0
 11
338.467338787476
 21
319.4706336428
 31
0.0
  0
LINE
  5
18F
330
45
100
AcDbEntity
  8
0
  6
Continuous
 62
     7
100
AcDbLine
 10
340.459197216176
 20
319.4706336428
 30
0.0
 11
340.459197216176
 21
318.8841048684
 31
0.0
  0
LINE
  5
190
330
45
100
AcDbEntity
  8
0
  6
Continuous
 62
     7
100
AcDbLine
 10
340.459197216176
 20
319.4706336428
 30
0.0
 11
350.136106801676
 21
319.4706336428
 31
0.0
  0
LINE
  5
191
330
45
100
AcDbEntity
  8
0
  6
Continuous
 62
     7
100
AcDbLine
 10
351.913404826376
 20
319.4706336428
 30
0.0
 11
351.913404826376
 21
318.8841048684
 31
0.0
  0
LINE
  5
192
330
45
100
AcDbEntity
  8
0
  6
Continuous
 62
     7
100
AcDbLine
 10
351.913404826376
 20
319.4706336428
 30
0.0
 11
359.269710371476
 21
319.4706336428
 31
0.0
  0
LINE
  5
193
330
45
100
AcDbEntity
  8
0
  6
Continuous
 62
     7
100
AcDbLine
 10
360.604588583476
 20
319.4706336428
 30
0.0
 11
360.604588583476
 21
318.8841048684
 31
0.0
  0
LINE
  5
194
330
45
100
AcDbEntity
  8
0
  6
Continuous
 62
     7
100
AcDbLine
 10
360.604588583476
 20
319.4706336428
 30
0.0
 11
365.138970022076
 21
319.4706336428
 31
0.0
  0
LINE
  5
195
330
45
100
AcDbEntity
  8
0
  6
Continuous
 62
     7
100
AcDbLine
 10
365.940458677276
 20
319.4706336428
 30
0.0
 11
365.940458677276
 21
318.8841048684
 31
0.0
  0
LINE
  5
196
330
45
100
AcDbEntity
  8
0
  6
Continuous
 62
     7
100
AcDbLine
 10
365.940458677276
 20
319.4706336428
 30
0.0
 11
367.343905407776
 21
319.4706336428
 31
0.0
  0
LINE
  5
197
330
45
100
AcDbEntity
  8
0
  6
Continuous
 62
     7
100
AcDbLine
 10
241.356578373576
 20
250.5638617187
 30
0.0
 11
240.369151624876
 21
250.5638617187
 31
0.0
  0
LINE
  5
198
330
45
100
AcDbEntity
  8
0
  6
Continuous
 62
     7
100
AcDbLine
 10
241.356578373576
 20
250.5638617187
 30
0.0
 11
241.356578373576
 21
270.8638617187
 31
0.0
  0
LINE
  5
199
330
45
100
AcDbEntity
  8
0
  6
Continuous
 62
     7
100
AcDbLine
 10
385.769151624876
 20
250.5638617187
 30
0.0
 11
382.369151624876
 21
250.5638617187
 31
0.0
  0
LINE
  5
19A
330
45
100
AcDbEntity
  8
0
  6
Continuous
 62
     7
100
AcDbLine
 10
240.369151624876
 20
250.5638617187
 30
0.0
 11
236.969151624876
 21
250.5638617187
 31
0.0
  0
LINE
  5
19B
330
45
100
AcDbEntity
  8
0
  6
Continuous
 62
     7
100
AcDbLine
 10
237.469151624876
 20
252.5638617187
 30
0.0
 11
236.969151624876
 21
252.5638617187
 31
0.0
  0
LINE
  5
19C
330
45
100
AcDbEntity
  8
0
  6
Continuous
 62
     7
100
AcDbLine
 10
385.769151624876
 20
252.5638617187
 30
0.0
 11
385.269151624876
 21
252.5638617187
 31
0.0
  0
LINE
  5
19D
330
45
100
AcDbEntity
  8
0
  6
Continuous
 62
     7
100
AcDbLine
 10
382.369151624876
 20
271.8638617187
 30
0.0
 11
381.869151624876
 21
271.8638617187
 31
0.0
  0
LINE
  5
19E
330
45
100
AcDbEntity
  8
0
  6
Continuous
 62
     7
100
AcDbLine
 10
240.869151624876
 20
271.8638617187
 30
0.0
 11
240.369151624876
 21
271.8638617187
 31
0.0
  0
LINE
  5
19F
330
45
100
AcDbEntity
  8
0
  6
Continuous
 62
     7
100
AcDbLine
 10
367.569151624876
 20
318.8517746185
 30
0.0
 11
367.569151624876
 21
314.1639272187
 31
0.0
  0
LINE
  5
1A0
330
45
100
AcDbEntity
  8
0
  6
Continuous
 62
     7
100
AcDbLine
 10
359.817733528576
 20
340.1486252465
 30
0.0
 11
367.569151624876
 21
318.8517746185
 31
0.0
  0
LINE
  5
1A1
330
45
100
AcDbEntity
  8
0
  6
Continuous
 62
     7
100
AcDbLine
 10
359.817733528576
 20
339.7638677187
 30
0.0
 11
359.817733528576
 21
340.1486252465
 31
0.0
  0
LINE
  5
1A2
330
45
100
AcDbEntity
  8
0
  6
Continuous
 62
     7
100
AcDbLine
 10
262.920569721176
 20
339.7638677187
 30
0.0
 11
359.817733528576
 21
339.7638677187
 31
0.0
  0
LINE
  5
1A3
330
45
100
AcDbEntity
  8
0
  6
Continuous
 62
     7
100
AcDbLine
 10
262.920569721176
 20
340.1486252465
 30
0.0
 11
262.920569721176
 21
339.7638677187
 31
0.0
  0
LINE
  5
1A4
330
45
100
AcDbEntity
  8
0
  6
Continuous
 62
     7
100
AcDbLine
 10
255.169151624876
 20
318.8517746185
 30
0.0
 11
262.920569721176
 21
340.1486252465
 31
0.0
  0
LINE
  5
1A5
330
45
100
AcDbEntity
  8
0
  6
Continuous
 62
     7
100
AcDbLine
 10
255.169151624876
 20
314.1639272187
 30
0.0
 11
255.169151624876
 21
318.8517746185
 31
0.0
  0
LINE
  5
1A6
330
45
100
AcDbEntity
  8
0
  6
Continuous
 62
     7
100
AcDbLine
 10
253.462915064276
 20
314.1639272187
 30
0.0
 11
255.169151624876
 21
314.1639272187
 31
0.0
  0
LINE
  5
1A7
330
45
100
AcDbEntity
  8
0
  6
Continuous
 62
     7
100
AcDbLine
 10
240.869523396676
 20
279.5638617187
 30
0.0
 11
253.462915064276
 21
314.1639272187
 31
0.0
  0
LINE
  5
1A8
330
45
100
AcDbEntity
  8
0
  6
Continuous
 62
     7
100
AcDbLine
 10
240.869151624876
 20
279.5638617187
 30
0.0
 11
240.869523396676
 21
279.5638617187
 31
0.0
  0
LINE
  5
1A9
330
45
100
AcDbEntity
  8
0
  6
Continuous
 62
     7
100
AcDbLine
 10
240.369151624876
 20
271.8638617187
 30
0.0
 11
240.369151624876
 21
250.5638617187
 31
0.0
  0
LINE
  5
1AA
330
45
100
AcDbEntity
  8
0
  6
Continuous
 62
     7
100
AcDbLine
 10
237.469151624876
 20
279.5638617187
 30
0.0
 11
237.469151624876
 21
252.5638617187
 31
0.0
  0
LINE
  5
1AB
330
45
100
AcDbEntity
  8
0
  6
Continuous
 62
     7
100
AcDbLine
 10
228.976253807076
 20
279.5638617187
 30
0.0
 11
237.469151624876
 21
279.5638617187
 31
0.0
  0
LINE
  5
1AC
330
45
100
AcDbEntity
  8
0
  6
Continuous
 62
     7
100
AcDbLine
 10
228.976253807076
 20
279.5638617187
 30
0.0
 11
225.783686807076
 21
281.3881857187
 31
0.0
  0
LINE
  5
1AD
330
45
100
AcDbEntity
  8
0
  6
Continuous
 62
     7
100
AcDbLine
 10
225.783686807076
 20
281.3881857187
 30
0.0
 11
248.825180389411
 21
344.6941698137
 31
0.0
  0
LINE
  5
1AE
330
45
100
AcDbEntity
  8
0
  6
Continuous
 62
     7
100
AcDbLine
 10
323.171416216376
 20
354.5638677187
 30
0.0
 11
262.920569721176
 21
354.5638677187
 31
0.0
  0
LINE
  5
1AF
330
45
100
AcDbEntity
  8
0
  6
Continuous
 62
     7
100
AcDbLine
 10
323.171416216376
 20
354.6638677187
 30
0.0
 11
323.171416216376
 21
354.5638677187
 31
0.0
  0
LINE
  5
1B0
330
45
100
AcDbEntity
  8
0
  6
Continuous
 62
     7
100
AcDbLine
 10
323.171416216376
 20
354.6638677187
 30
0.0
 11
323.997470216376
 21
354.6638677187
 31
0.0
  0
LINE
  5
1B1
330
45
100
AcDbEntity
  8
0
  6
Continuous
 62
     7
100
AcDbLine
 10
323.997470216376
 20
354.6638677187
 30
0.0
 11
323.997470216376
 21
354.5638677187
 31
0.0
  0
LINE
  5
1B2
330
45
100
AcDbEntity
  8
0
  6
Continuous
 62
     7
100
AcDbLine
 10
324.575092716376
 20
354.5638677187
 30
0.0
 11
323.997470216376
 21
354.5638677187
 31
0.0
  0
LINE
  5
1B3
330
45
100
AcDbEntity
  8
0
  6
Continuous
 62
     7
100
AcDbLine
 10
324.575092716376
 20
354.5638677187
 30
0.0
 11
324.575092716376
 21
354.6638677187
 31
0.0
  0
LINE
  5
1B4
330
45
100
AcDbEntity
  8
0
  6
Continuous
 62
     7
100
AcDbLine
 10
324.575092716376
 20
354.6638677187
 30
0.0
 11
325.314194216376
 21
354.6638677187
 31
0.0
  0
LINE
  5
1B5
330
45
100
AcDbEntity
  8
0
  6
Continuous
 62
     7
100
AcDbLine
 10
325.314194216376
 20
354.5638677187
 30
0.0
 11
325.314194216376
 21
354.6638677187
 31
0.0
  0
LINE
  5
1B6
330
45
100
AcDbEntity
  8
0
  6
Continuous
 62
     7
100
AcDbLine
 10
325.693057216376
 20
354.5638677187
 30
0.0
 11
325.314194216376
 21
354.5638677187
 31
0.0
  0
LINE
  5
1B7
330
45
100
AcDbEntity
  8
0
  6
Continuous
 62
     7
100
AcDbLine
 10
325.693057216376
 20
354.6638677187
 30
0.0
 11
325.693057216376
 21
354.5638677187
 31
0.0
  0
LINE
  5
1B8
330
45
100
AcDbEntity
  8
0
  6
Continuous
 62
     7
100
AcDbLine
 10
325.693057216376
 20
354.6638677187
 30
0.0
 11
328.040790716376
 21
354.6638677187
 31
0.0
  0
LINE
  5
1B9
330
45
100
AcDbEntity
  8
0
  6
Continuous
 62
     7
100
AcDbLine
 10
328.040790716376
 20
354.5638677187
 30
0.0
 11
328.040790716376
 21
354.6638677187
 31
0.0
  0
LINE
  5
1BA
330
45
100
AcDbEntity
  8
0
  6
Continuous
 62
     7
100
AcDbLine
 10
328.475557216376
 20
354.5638677187
 30
0.0
 11
328.040790716376
 21
354.5638677187
 31
0.0
  0
LINE
  5
1BB
330
45
100
AcDbEntity
  8
0
  6
Continuous
 62
     7
100
AcDbLine
 10
328.475557216376
 20
354.6638677187
 30
0.0
 11
328.475557216376
 21
354.5638677187
 31
0.0
  0
LINE
  5
1BC
330
45
100
AcDbEntity
  8
0
  6
Continuous
 62
     7
100
AcDbLine
 10
329.258135216376
 20
354.6638677187
 30
0.0
 11
328.475557216376
 21
354.6638677187
 31
0.0
  0
LINE
  5
1BD
330
45
100
AcDbEntity
  8
0
  6
Continuous
 62
     7
100
AcDbLine
 10
329.258135216376
 20
354.5638677187
 30
0.0
 11
329.258135216376
 21
354.6638677187
 31
0.0
  0
LINE
  5
1BE
330
45
100
AcDbEntity
  8
0
  6
Continuous
 62
     7
100
AcDbLine
 10
330.345049216376
 20
354.5638677187
 30
0.0
 11
329.258135216376
 21
354.5638677187
 31
0.0
  0
LINE
  5
1BF
330
45
100
AcDbEntity
  8
0
  6
Continuous
 62
     7
100
AcDbLine
 10
330.345049216376
 20
354.6638677187
 30
0.0
 11
330.345049216376
 21
354.5638677187
 31
0.0
  0
LINE
  5
1C0
330
45
100
AcDbEntity
  8
0
  6
Continuous
 62
     7
100
AcDbLine
 10
331.127628216376
 20
354.6638677187
 30
0.0
 11
330.345049216376
 21
354.6638677187
 31
0.0
  0
LINE
  5
1C1
330
45
100
AcDbEntity
  8
0
  6
Continuous
 62
     7
100
AcDbLine
 10
331.127628216376
 20
354.5638677187
 30
0.0
 11
331.127628216376
 21
354.6638677187
 31
0.0
  0
LINE
  5
1C2
330
45
100
AcDbEntity
  8
0
  6
Continuous
 62
     7
100
AcDbLine
 10
332.214542216376
 20
354.5638677187
 30
0.0
 11
331.127628216376
 21
354.5638677187
 31
0.0
  0
LINE
  5
1C3
330
45
100
AcDbEntity
  8
0
  6
Continuous
 62
     7
100
AcDbLine
 10
332.214542216376
 20
354.6638677187
 30
0.0
 11
332.214542216376
 21
354.5638677187
 31
0.0
  0
LINE
  5
1C4
330
45
100
AcDbEntity
  8
0
  6
Continuous
 62
     7
100
AcDbLine
 10
332.214542216376
 20
354.6638677187
 30
0.0
 11
332.997120216376
 21
354.6638677187
 31
0.0
  0
LINE
  5
1C5
330
45
100
AcDbEntity
  8
0
  6
Continuous
 62
     7
100
AcDbLine
 10
332.997120216376
 20
354.5638677187
 30
0.0
 11
332.997120216376
 21
354.6638677187
 31
0.0
  0
LINE
  5
1C6
330
45
100
AcDbEntity
  8
0
  6
Continuous
 62
     7
100
AcDbLine
 10
333.562315716376
 20
354.5638677187
 30
0.0
 11
332.997120216376
 21
354.5638677187
 31
0.0
  0
LINE
  5
1C7
330
45
100
AcDbEntity
  8
0
  6
Continuous
 62
     7
100
AcDbLine
 10
333.562315518876
 20
354.6638677187
 30
0.0
 11
333.562315716376
 21
354.5638677187
 31
0.0
  0
LINE
  5
1C8
330
45
100
AcDbEntity
  8
0
  6
Continuous
 62
     7
100
AcDbLine
 10
333.562315518876
 20
354.6638677187
 30
0.0
 11
334.388370216376
 21
354.6638677187
 31
0.0
  0
LINE
  5
1C9
330
45
100
AcDbEntity
  8
0
  6
Continuous
 62
     7
100
AcDbLine
 10
334.388370216376
 20
354.5638677187
 30
0.0
 11
334.388370216376
 21
354.6638677187
 31
0.0
  0
LINE
  5
1CA
330
45
100
AcDbEntity
  8
0
  6
Continuous
 62
     7
100
AcDbLine
 10
334.953565716376
 20
354.5638677187
 30
0.0
 11
334.388370216376
 21
354.5638677187
 31
0.0
  0
LINE
  5
1CB
330
45
100
AcDbEntity
  8
0
  6
Continuous
 62
     7
100
AcDbLine
 10
334.953565716376
 20
354.6638677187
 30
0.0
 11
334.953565716376
 21
354.5638677187
 31
0.0
  0
LINE
  5
1CC
330
45
100
AcDbEntity
  8
0
  6
Continuous
 62
     7
100
AcDbLine
 10
334.953565716376
 20
354.6638677187
 30
0.0
 11
335.736143410076
 21
354.6638677187
 31
0.0
  0
LINE
  5
1CD
330
45
100
AcDbEntity
  8
0
  6
Continuous
 62
     7
100
AcDbLine
 10
335.736143410076
 20
354.5638677187
 30
0.0
 11
335.736143410076
 21
354.6638677187
 31
0.0
  0
LINE
  5
1CE
330
45
100
AcDbEntity
  8
0
  6
Continuous
 62
     7
100
AcDbLine
 10
336.083957216376
 20
354.5638677187
 30
0.0
 11
335.736143410076
 21
354.5638677187
 31
0.0
  0
LINE
  5
1CF
330
45
100
AcDbEntity
  8
0
  6
Continuous
 62
     7
100
AcDbLine
 10
336.083957216376
 20
354.6638677187
 30
0.0
 11
336.083957216376
 21
354.5638677187
 31
0.0
  0
LINE
  5
1D0
330
45
100
AcDbEntity
  8
0
  6
Continuous
 62
     7
100
AcDbLine
 10
337.996926216376
 20
354.6638677187
 30
0.0
 11
336.083957216376
 21
354.6638677187
 31
0.0
  0
LINE
  5
1D1
330
45
100
AcDbEntity
  8
0
  6
Continuous
 62
     7
100
AcDbLine
 10
337.996926216376
 20
354.5638677187
 30
0.0
 11
337.996926216376
 21
354.6638677187
 31
0.0
  0
LINE
  5
1D2
330
45
100
AcDbEntity
  8
0
  6
Continuous
 62
     7
100
AcDbLine
 10
338.475167148376
 20
354.5638677187
 30
0.0
 11
337.996926216376
 21
354.5638677187
 31
0.0
  0
LINE
  5
1D3
330
45
100
AcDbEntity
  8
0
  6
Continuous
 62
     7
100
AcDbLine
 10
338.475167148376
 20
354.6638677187
 30
0.0
 11
338.475167148376
 21
354.5638677187
 31
0.0
  0
LINE
  5
1D4
330
45
100
AcDbEntity
  8
0
  6
Continuous
 62
     7
100
AcDbLine
 10
338.475167148376
 20
354.6638677187
 30
0.0
 11
340.798233667176
 21
354.6638677187
 31
0.0
  0
LINE
  5
1D5
330
45
100
AcDbEntity
  8
0
  6
Continuous
 62
     7
100
AcDbLine
 10
340.798233667176
 20
354.5638677187
 30
0.0
 11
340.798233667176
 21
354.6638677187
 31
0.0
  0
LINE
  5
1D6
330
45
100
AcDbEntity
  8
0
  6
Continuous
 62
     7
100
AcDbLine
 10
359.817733528576
 20
354.5638677187
 30
0.0
 11
340.798233667176
 21
354.5638677187
 31
0.0
  0
LINE
  5
1D7
330
45
100
AcDbEntity
  8
0
  6
Continuous
 62
     7
100
AcDbLine
 10
373.913122860376
 20
344.6941698137
 30
0.0
 11
396.954616442776
 21
281.3881857187
 31
0.0
  0
LINE
  5
1D8
330
45
100
AcDbEntity
  8
0
  6
Continuous
 62
     7
100
AcDbLine
 10
396.954616442776
 20
281.3881857187
 30
0.0
 11
393.762049442776
 21
279.5638617187
 31
0.0
  0
LINE
  5
1D9
330
45
100
AcDbEntity
  8
0
  6
Continuous
 62
     7
100
AcDbLine
 10
385.269151624876
 20
279.5638617187
 30
0.0
 11
393.762049442776
 21
279.5638617187
 31
0.0
  0
LINE
  5
1DA
330
45
100
AcDbEntity
  8
0
  6
Continuous
 62
     7
100
AcDbLine
 10
385.269151624876
 20
252.5638617187
 30
0.0
 11
385.269151624876
 21
279.5638617187
 31
0.0
  0
LINE
  5
1DB
330
45
100
AcDbEntity
  8
0
  6
Continuous
 62
     7
100
AcDbLine
 10
381.868779853176
 20
279.5638617187
 30
0.0
 11
381.869151624876
 21
279.5638617187
 31
0.0
  0
LINE
  5
1DC
330
45
100
AcDbEntity
  8
0
  6
Continuous
 62
     7
100
AcDbLine
 10
369.275388185576
 20
314.1639272187
 30
0.0
 11
381.868779853176
 21
279.5638617187
 31
0.0
  0
LINE
  5
1DD
330
45
100
AcDbEntity
  8
0
  6
Continuous
 62
     7
100
AcDbLine
 10
367.569151624876
 20
314.1639272187
 30
0.0
 11
369.275388185576
 21
314.1639272187
 31
0.0
  0
LINE
  5
1DE
330
45
100
AcDbEntity
  8
0
  6
Continuous
 62
     7
100
AcDbLine
 10
382.369151624876
 20
250.5638617187
 30
0.0
 11
381.381705586476
 21
250.5638617187
 31
0.0
  0
LINE
  5
1DF
330
45
100
AcDbEntity
  8
0
  6
Continuous
 62
     7
100
AcDbLine
 10
382.369151624876
 20
250.5638617187
 30
0.0
 11
382.369151624876
 21
271.8638617187
 31
0.0
  0
LINE
  5
1E0
330
45
100
AcDbEntity
  8
0
  6
Continuous
 62
     7
100
AcDbLine
 10
381.381705586522
 20
270.863861718703
 30
0.0
 11
381.381705586476
 21
250.5638617187
 31
0.0
  0
LINE
  5
1E1
330
45
100
AcDbEntity
  8
0
  6
Continuous
 62
     7
100
AcDbLine
 10
381.869151624876
 20
271.8638617187
 30
0.0
 11
381.869151624876
 21
279.5638617187
 31
0.0
  0
LINE
  5
1E2
330
45
100
AcDbEntity
  8
0
  6
Continuous
 62
     7
100
AcDbLine
 10
381.869151624876
 20
271.8638617187
 30
0.0
 11
240.869151624876
 21
271.8638617187
 31
0.0
  0
LINE
  5
1E3
330
45
100
AcDbEntity
  8
0
  6
Continuous
 62
     7
100
AcDbLine
 10
240.869151624876
 20
279.5638617187
 30
0.0
 11
240.869151624876
 21
271.8638617187
 31
0.0
  0
LINE
  5
1E4
330
45
100
AcDbEntity
  8
0
  6
Continuous
 62
     7
100
AcDbLine
 10
243.212482463276
 20
279.5638617187
 30
0.0
 11
240.869523396676
 21
279.5638617187
 31
0.0
  0
LINE
  5
1E5
330
45
100
AcDbEntity
  8
0
  6
Continuous
 62
     7
100
AcDbLine
 10
250.200205898976
 20
279.5638617187
 30
0.0
 11
243.330997487676
 21
279.5638617187
 31
0.0
  0
LINE
  5
1E6
330
45
100
AcDbEntity
  8
0
  6
Continuous
 62
     7
100
AcDbLine
 10
261.356491899476
 20
279.5638617187
 30
0.0
 11
250.429159344776
 21
279.5638617187
 31
0.0
  0
LINE
  5
1E7
330
45
100
AcDbEntity
  8
0
  6
Continuous
 62
     7
100
AcDbLine
 10
275.921058010376
 20
279.5638617187
 30
0.0
 11
261.680280967676
 21
279.5638617187
 31
0.0
  0
LINE
  5
1E8
330
45
100
AcDbEntity
  8
0
  6
Continuous
 62
     7
100
AcDbLine
 10
292.901353120476
 20
279.5638617187
 30
0.0
 11
276.317617011176
 21
279.5638617187
 31
0.0
  0
LINE
  5
1E9
330
45
100
AcDbEntity
  8
0
  6
Continuous
 62
     7
100
AcDbLine
 10
311.140198179076
 20
279.5638617187
 30
0.0
 11
293.343657213176
 21
279.5638617187
 31
0.0
  0
LINE
  5
1EA
330
45
100
AcDbEntity
  8
0
  6
Continuous
 62
     7
100
AcDbLine
 10
329.394646036676
 20
279.5638617187
 30
0.0
 11
311.598105070776
 21
279.5638617187
 31
0.0
  0
LINE
  5
1EB
330
45
100
AcDbEntity
  8
0
  6
Continuous
 62
     7
100
AcDbLine
 10
346.420686238676
 20
279.5638617187
 30
0.0
 11
329.836950129376
 21
279.5638617187
 31
0.0
  0
LINE
  5
1EC
330
45
100
AcDbEntity
  8
0
  6
Continuous
 62
     7
100
AcDbLine
 10
361.058022282076
 20
279.5638617187
 30
0.0
 11
346.817245239376
 21
279.5638617187
 31
0.0
  0
LINE
  5
1ED
330
45
100
AcDbEntity
  8
0
  6
Continuous
 62
     7
100
AcDbLine
 10
372.309143904976
 20
279.5638617187
 30
0.0
 11
361.381811350376
 21
279.5638617187
 31
0.0
  0
LINE
  5
1EE
330
45
100
AcDbEntity
  8
0
  6
Continuous
 62
     7
100
AcDbLine
 10
379.407305762076
 20
279.5638617187
 30
0.0
 11
372.538097350776
 21
279.5638617187
 31
0.0
  0
LINE
  5
1EF
330
45
100
AcDbEntity
  8
0
  6
Continuous
 62
     7
100
AcDbLine
 10
381.868779853176
 20
279.5638617187
 30
0.0
 11
379.525820786576
 21
279.5638617187
 31
0.0
  0
LINE
  5
1F0
330
45
100
AcDbEntity
  8
0
  6
Continuous
 62
     7
100
AcDbLine
 10
173.369151624876
 20
258.064295503
 30
0.0
 11
173.369151624876
 21
276.064295503
 31
0.0
  0
LWPOLYLINE
  5
1F1
330
45
100
AcDbEntity
  8
0
  6
Continuous
 62
     7
100
AcDbPolyline
 90
        2
 70
     0
 43
0.15
 10
638.3743818131759
 20
259.673599335
 10
421.3691438762759
 20
259.673599335
  0
LWPOLYLINE
  5
1F2
330
45
100
AcDbEntity
  8
0
  6
Continuous
 62
     7
100
AcDbPolyline
 90
        2
 70
     0
 43
0.15
 10
421.3691438762759
 20
267.173599633
 10
639.968567642376
 20
267.173599633
  0
LWPOLYLINE
  5
1F3
330
45
100
AcDbEntity
  8
0
  6
Continuous
 62
     7
100
AcDbPolyline
 90
        2
 70
     0
 43
0.15
 10
657.6158936349757
 20
259.4295108641
 10
649.3402357426758
 20
261.1463146234
  0
LWPOLYLINE
  5
1F4
330
45
100
AcDbEntity
  8
0
  6
Continuous
 62
     7
100
AcDbPolyline
 90
        2
 70
     0
 43
0.15
 10
649.5309706059759
 20
263.1368899668
 10
657.8066284982758
 20
261.4200862074
  0
LWPOLYLINE
  5
1F5
330
45
100
AcDbEntity
  8
0
  6
Continuous
 62
     7
100
AcDbPolyline
 90
        2
 70
     0
 43
0.15
 10
649.340414556676
 20
261.1462736452
 10
646.1330588189758
 20
261.4861058021
  0
LWPOLYLINE
  5
1F6
330
45
100
AcDbEntity
  8
0
  6
Continuous
 62
     7
100
AcDbPolyline
 90
        2
 70
     0
 43
0.15
 10
646.1337144700758
 20
261.4861020768
 10
638.7614543763757
 20
261.4861020768
  0
LWPOLYLINE
  5
1F7
330
45
100
AcDbEntity
  8
0
  6
Continuous
 62
     7
100
AcDbPolyline
 90
        2
 70
     0
 43
0.15
 10
639.179700168776
 20
263.4752655352
 10
645.9292407361759
 20
263.4752655352
  0
LWPOLYLINE
  5
1F8
330
45
100
AcDbEntity
  8
0
  6
Continuous
 62
     7
100
AcDbPolyline
 90
        2
 70
     0
 43
0.15
 10
639.7802467671759
 20
266.2875765884
 10
646.239393505276
 20
266.2875765884
  0
LWPOLYLINE
  5
1F9
330
45
100
AcDbEntity
  8
0
  6
Continuous
 62
     7
100
AcDbPolyline
 90
        2
 70
     0
 43
0.15
 10
645.8235617009759
 20
264.3312813664
 10
639.3644149628758
 20
264.3312813664
  0
LWPOLYLINE
  5
1FA
330
45
100
AcDbEntity
  8
0
  6
Continuous
 62
     7
100
AcDbPolyline
 90
        2
 70
     0
 43
0.15
 10
646.239393505276
 20
266.2875765884
 10
649.2527957288758
 20
266.9707426751
  0
LWPOLYLINE
  5
1FB
330
45
100
AcDbEntity
  8
0
  6
Continuous
 62
     7
100
AcDbPolyline
 90
        2
 70
     0
 43
0.15
 10
649.2527957288758
 20
266.9707426751
 10
657.5284536210759
 20
270.4043501938
  0
LWPOLYLINE
  5
1FC
330
45
100
AcDbEntity
  8
0
  6
Continuous
 62
     7
100
AcDbPolyline
 90
        2
 70
     0
 43
0.15
 10
657.8940685120758
 20
268.4380562926
 10
649.6184106198907
 20
265.004448773915
  0
LWPOLYLINE
  5
1FD
330
45
100
AcDbEntity
  8
0
  6
Continuous
 62
     7
100
AcDbPolyline
 90
        2
 70
     0
 43
0.15
 10
646.1337144700758
 20
261.4861020768
 10
646.1266513196758
 20
261.4868434096
  0
LWPOLYLINE
  5
1FE
330
45
100
AcDbEntity
  8
0
  6
Continuous
 62
     7
100
AcDbPolyline
 90
        2
 70
     0
 43
0.15
 10
657.5284536210759
 20
259.9332222665
 10
657.542341503276
 20
260.3020558084
  0
LWPOLYLINE
  5
1FF
330
45
100
AcDbEntity
  8
0
  6
Continuous
 62
     7
100
AcDbPolyline
 90
        2
 70
     0
 43
0.15
 10
657.542341503276
 20
260.3020558084
 10
657.5819785920758
 20
260.6895754064
  0
LWPOLYLINE
  5
200
330
45
100
AcDbEntity
  8
0
  6
Continuous
 62
     7
100
AcDbPolyline
 90
        2
 70
     0
 43
0.15
 10
657.5819785920758
 20
260.6895754064
 10
657.6412852135759
 20
261.0367836381
  0
LWPOLYLINE
  5
201
330
45
100
AcDbEntity
  8
0
  6
Continuous
 62
     7
100
AcDbPolyline
 90
        2
 70
     0
 43
0.15
 10
657.6412852135759
 20
261.0367836381
 10
657.7112610665758
 20
261.2908223594
  0
LWPOLYLINE
  5
202
330
45
100
AcDbEntity
  8
0
  6
Continuous
 62
     7
100
AcDbPolyline
 90
        2
 70
     0
 43
0.15
 10
657.7112610665758
 20
261.2908223594
 10
657.7812071172757
 20
261.4130156065
  0
LWPOLYLINE
  5
203
330
45
100
AcDbEntity
  8
0
  6
Continuous
 62
     7
100
AcDbPolyline
 90
        2
 70
     0
 43
0.15
 10
657.7812071172757
 20
261.4130156065
 10
657.8405137387758
 20
261.3847630048
  0
LWPOLYLINE
  5
204
330
45
100
AcDbEntity
  8
0
  6
Continuous
 62
     7
100
AcDbPolyline
 90
        2
 70
     0
 43
0.15
 10
657.8405137387758
 20
261.3847630048
 10
657.880150827576
 20
261.2103635395
  0
LWPOLYLINE
  5
205
330
45
100
AcDbEntity
  8
0
  6
Continuous
 62
     7
100
AcDbPolyline
 90
        2
 70
     0
 43
0.15
 10
657.880150827576
 20
261.2103635395
 10
657.8940685120758
 20
260.9163710797
  0
LWPOLYLINE
  5
206
330
45
100
AcDbEntity
  8
0
  6
Continuous
 62
     7
100
AcDbPolyline
 90
        2
 70
     0
 43
0.15
 10
657.8940685120758
 20
260.9163710797
 10
657.880150827576
 20
260.5475375379
  0
LWPOLYLINE
  5
207
330
45
100
AcDbEntity
  8
0
  6
Continuous
 62
     7
100
AcDbPolyline
 90
        2
 70
     0
 43
0.15
 10
657.880150827576
 20
260.5475375379
 10
657.8405137387758
 20
260.1600179399
  0
LWPOLYLINE
  5
208
330
45
100
AcDbEntity
  8
0
  6
Continuous
 62
     7
100
AcDbPolyline
 90
        2
 70
     0
 43
0.15
 10
657.8405137387758
 20
260.1600179399
 10
657.7812071172757
 20
259.8128097082
  0
LWPOLYLINE
  5
209
330
45
100
AcDbEntity
  8
0
  6
Continuous
 62
     7
100
AcDbPolyline
 90
        2
 70
     0
 43
0.15
 10
657.7812071172757
 20
259.8128097082
 10
657.7112610665758
 20
259.5587709868
  0
LWPOLYLINE
  5
20A
330
45
100
AcDbEntity
  8
0
  6
Continuous
 62
     7
100
AcDbPolyline
 90
        2
 70
     0
 43
0.15
 10
657.7112610665758
 20
259.5587709868
 10
657.6412852135759
 20
259.4365777398
  0
LWPOLYLINE
  5
20B
330
45
100
AcDbEntity
  8
0
  6
Continuous
 62
     7
100
AcDbPolyline
 90
        2
 70
     0
 43
0.15
 10
657.6412852135759
 20
259.4365777398
 10
657.5819785920758
 20
259.4648303414
  0
LWPOLYLINE
  5
20C
330
45
100
AcDbEntity
  8
0
  6
Continuous
 62
     7
100
AcDbPolyline
 90
        2
 70
     0
 43
0.15
 10
657.5819785920758
 20
259.4648303414
 10
657.542341503276
 20
259.6392298067
  0
LWPOLYLINE
  5
20D
330
45
100
AcDbEntity
  8
0
  6
Continuous
 62
     7
100
AcDbPolyline
 90
        2
 70
     0
 43
0.15
 10
657.542341503276
 20
259.6392298067
 10
657.5284536210759
 20
259.9332222665
  0
LWPOLYLINE
  5
20E
330
45
100
AcDbEntity
  8
0
  6
Continuous
 62
     7
100
AcDbPolyline
 90
        2
 70
     0
 43
0.15
 10
646.1304958192759
 20
261.486258539
 10
646.1785073605758
 20
261.5224832619
  0
LWPOLYLINE
  5
20F
330
45
100
AcDbEntity
  8
0
  6
Continuous
 62
     7
100
AcDbPolyline
 90
        2
 70
     0
 43
0.15
 10
646.1785073605758
 20
261.5224832619
 10
646.2235684720758
 20
261.6974228943
  0
LWPOLYLINE
  5
210
330
45
100
AcDbEntity
  8
0
  6
Continuous
 62
     7
100
AcDbPolyline
 90
        2
 70
     0
 43
0.15
 10
646.2235684720758
 20
261.6974228943
 10
646.2393935052999
 20
261.991609069141
  0
LWPOLYLINE
  5
211
330
45
100
AcDbEntity
  8
0
  6
Continuous
 62
     7
100
AcDbPolyline
 90
        2
 70
     0
 43
0.15
 10
645.8235617009759
 20
264.3312813664
 10
645.8393867341758
 20
264.4057387436
  0
LWPOLYLINE
  5
212
330
45
100
AcDbEntity
  8
0
  6
Continuous
 62
     7
100
AcDbPolyline
 90
        2
 70
     0
 43
0.15
 10
645.8393867341758
 20
264.4057387436
 10
645.8844776479759
 20
264.6177748168
  0
LWPOLYLINE
  5
213
330
45
100
AcDbEntity
  8
0
  6
Continuous
 62
     7
100
AcDbPolyline
 90
        2
 70
     0
 43
0.15
 10
645.8844776479759
 20
264.6177748168
 10
645.9519203034758
 20
264.9351099456
  0
LWPOLYLINE
  5
214
330
45
100
AcDbEntity
  8
0
  6
Continuous
 62
     7
100
AcDbPolyline
 90
        2
 70
     0
 43
0.15
 10
645.9519203034758
 20
264.9351099456
 10
646.0314925042758
 20
265.3094308401
  0
LWPOLYLINE
  5
215
330
45
100
AcDbEntity
  8
0
  6
Continuous
 62
     7
100
AcDbPolyline
 90
        2
 70
     0
 43
0.15
 10
646.0314925042758
 20
265.3094308401
 10
646.1110647050759
 20
265.6837517345
  0
LWPOLYLINE
  5
216
330
45
100
AcDbEntity
  8
0
  6
Continuous
 62
     7
100
AcDbPolyline
 90
        2
 70
     0
 43
0.15
 10
646.1110647050759
 20
265.6837517345
 10
646.1785073605758
 20
266.0010868633
  0
LWPOLYLINE
  5
217
330
45
100
AcDbEntity
  8
0
  6
Continuous
 62
     7
100
AcDbPolyline
 90
        2
 70
     0
 43
0.15
 10
646.1785073605758
 20
266.0010868633
 10
646.2235684720758
 20
266.2131229365
  0
LWPOLYLINE
  5
218
330
45
100
AcDbEntity
  8
0
  6
Continuous
 62
     7
100
AcDbPolyline
 90
        2
 70
     0
 43
0.15
 10
646.2235684720758
 20
266.2131229365
 10
646.239393505276
 20
266.2875765884
  0
LWPOLYLINE
  5
219
330
45
100
AcDbEntity
  8
0
  6
Continuous
 62
     7
100
AcDbPolyline
 90
        2
 70
     0
 43
0.15
 10
649.6184106198907
 20
265.004448773915
 10
649.6044929353759
 20
265.0792861307
  0
LWPOLYLINE
  5
21A
330
45
100
AcDbEntity
  8
0
  6
Continuous
 62
     7
100
AcDbPolyline
 90
        2
 70
     0
 43
0.15
 10
649.6044929353759
 20
265.0792861307
 10
649.5648856488758
 20
265.2924062634
  0
LWPOLYLINE
  5
21B
330
45
100
AcDbEntity
  8
0
  6
Continuous
 62
     7
100
AcDbPolyline
 90
        2
 70
     0
 43
0.15
 10
649.5648856488758
 20
265.2924062634
 10
649.5055492249758
 20
265.6113618935
  0
LWPOLYLINE
  5
21C
330
45
100
AcDbEntity
  8
0
  6
Continuous
 62
     7
100
AcDbPolyline
 90
        2
 70
     0
 43
0.15
 10
649.5055492249758
 20
265.6113618935
 10
649.435603174376
 20
265.9875938619
  0
LWPOLYLINE
  5
21D
330
45
100
AcDbEntity
  8
0
  6
Continuous
 62
     7
100
AcDbPolyline
 90
        2
 70
     0
 43
0.15
 10
649.435603174376
 20
265.9875938619
 10
649.365627321376
 20
266.3638295556
  0
LWPOLYLINE
  5
21E
330
45
100
AcDbEntity
  8
0
  6
Continuous
 62
     7
100
AcDbPolyline
 90
        2
 70
     0
 43
0.15
 10
649.365627321376
 20
266.3638295556
 10
649.3063206998759
 20
266.6827851856
  0
LWPOLYLINE
  5
21F
330
45
100
AcDbEntity
  8
0
  6
Continuous
 62
     7
100
AcDbPolyline
 90
        2
 70
     0
 43
0.15
 10
649.3063206998759
 20
266.6827851856
 10
649.2667134133758
 20
266.8959053183
  0
LWPOLYLINE
  5
220
330
45
100
AcDbEntity
  8
0
  6
Continuous
 62
     7
100
AcDbPolyline
 90
        2
 70
     0
 43
0.15
 10
649.2667134133758
 20
266.8959053183
 10
649.2527957288758
 20
266.9707426751
  0
LWPOLYLINE
  5
221
330
45
100
AcDbEntity
  8
0
  6
Continuous
 62
     7
100
AcDbPolyline
 90
        2
 70
     0
 43
0.15
 10
657.8940685120758
 20
268.4380562926
 10
657.880150827576
 20
268.5128936494
  0
LWPOLYLINE
  5
222
330
45
100
AcDbEntity
  8
0
  6
Continuous
 62
     7
100
AcDbPolyline
 90
        2
 70
     0
 43
0.15
 10
657.880150827576
 20
268.5128936494
 10
657.8405137387758
 20
268.7260137821
  0
LWPOLYLINE
  5
223
330
45
100
AcDbEntity
  8
0
  6
Continuous
 62
     7
100
AcDbPolyline
 90
        2
 70
     0
 43
0.15
 10
657.8405137387758
 20
268.7260137821
 10
657.7812071172757
 20
269.0449694121
  0
LWPOLYLINE
  5
224
330
45
100
AcDbEntity
  8
0
  6
Continuous
 62
     7
100
AcDbPolyline
 90
        2
 70
     0
 43
0.15
 10
657.7812071172757
 20
269.0449694121
 10
657.7112610665758
 20
269.4212013805
  0
LWPOLYLINE
  5
225
330
45
100
AcDbEntity
  8
0
  6
Continuous
 62
     7
100
AcDbPolyline
 90
        2
 70
     0
 43
0.15
 10
657.7112610665758
 20
269.4212013805
 10
657.6412852135759
 20
269.7974333489
  0
LWPOLYLINE
  5
226
330
45
100
AcDbEntity
  8
0
  6
Continuous
 62
     7
100
AcDbPolyline
 90
        2
 70
     0
 43
0.15
 10
657.6412852135759
 20
269.7974333489
 10
657.5819785920758
 20
270.1163927043
  0
LWPOLYLINE
  5
227
330
45
100
AcDbEntity
  8
0
  6
Continuous
 62
     7
100
AcDbPolyline
 90
        2
 70
     0
 43
0.15
 10
657.5819785920758
 20
270.1163927043
 10
657.542341503276
 20
270.3295091117
  0
LWPOLYLINE
  5
228
330
45
100
AcDbEntity
  8
0
  6
Continuous
 62
     7
100
AcDbPolyline
 90
        2
 70
     0
 43
0.15
 10
657.542341503276
 20
270.3295091117
 10
657.5284536210759
 20
270.4043501938
  0
ARC
  5
229
330
45
100
AcDbEntity
  8
0
  6
Continuous
 62
     7
100
AcDbCircle
 10
489.369151624876
 20
277.5638617187
 30
0.0
 40
2.0
100
AcDbArc
 50
0.0
 51
90.0
  0
ARC
  5
22A
330
45
100
AcDbEntity
  8
0
  6
Continuous
 62
     7
100
AcDbCircle
 10
388.869151624876
 20
244.259100151
 30
0.0
 40
3.000000000022759
100
AcDbArc
 50
269.9953165035574
 51
0.0
  0
ARC
  5
22B
330
45
100
AcDbEntity
  8
0
  6
Continuous
 62
     7
100
AcDbCircle
 10
381.269107545376
 20
234.6117549393
 30
0.0
 40
3.000000000000037
100
AcDbArc
 50
270.7202669948019
 51
0.0
  0
ARC
  5
22C
330
45
100
AcDbEntity
  8
0
  6
Continuous
 62
     7
100
AcDbCircle
 10
247.869195704376
 20
217.6430929712
 30
0.0
 40
3.5
100
AcDbArc
 50
180.0
 51
204.9999999999947
  0
ARC
  5
22D
330
45
100
AcDbEntity
  8
0
  6
Continuous
 62
     7
100
AcDbCircle
 10
241.469195704376
 20
234.6117549393
 30
0.0
 40
3.0
100
AcDbArc
 50
180.0
 51
270.004683497703
  0
ARC
  5
22E
330
45
100
AcDbEntity
  8
0
  6
Continuous
 62
     7
100
AcDbCircle
 10
233.869151624876
 20
244.259100151
 30
0.0
 40
3.0
100
AcDbArc
 50
180.0
 51
270.004683499307
  0
ARC
  5
22F
330
45
100
AcDbEntity
  8
0
  6
Continuous
 62
     7
100
AcDbCircle
 10
133.369151624876
 20
277.5638617187
 30
0.0
 40
2.0
100
AcDbArc
 50
90.0
 51
180.0
  0
ARC
  5
230
330
45
100
AcDbEntity
  8
0
  6
Continuous
 62
     7
100
AcDbCircle
 10
311.258194230976
 20
203.5643284792
 30
0.0
 40
51.49999999999959
100
AcDbArc
 50
205.0000000000001
 51
270.1234445688286
  0
ARC
  5
231
330
45
100
AcDbEntity
  8
0
  6
Continuous
 62
     7
100
AcDbCircle
 10
311.258194230976
 20
203.5643284792
 30
0.0
 40
55.00000000000002
100
AcDbArc
 50
204.9999999999994
 51
270.1155889943382
  0
ARC
  5
232
330
45
100
AcDbEntity
  8
0
  6
Continuous
 62
     7
100
AcDbCircle
 10
244.619151624876
 20
247.2597622701
 30
0.0
 40
2.0
100
AcDbArc
 50
0.0
 51
90.0
  0
ARC
  5
233
330
45
100
AcDbEntity
  8
0
  6
Continuous
 62
     7
100
AcDbCircle
 10
378.119151624876
 20
247.2597622701
 30
0.0
 40
2.0
100
AcDbArc
 50
90.0
 51
180.0
  0
ARC
  5
234
330
45
100
AcDbEntity
  8
0
  6
Continuous
 62
     7
100
AcDbCircle
 10
244.119151624876
 20
244.7597622701
 30
0.0
 40
2.0
100
AcDbArc
 50
90.0
 51
180.0
  0
ARC
  5
235
330
45
100
AcDbEntity
  8
0
  6
Continuous
 62
     7
100
AcDbCircle
 10
378.619151624876
 20
244.7597622701
 30
0.0
 40
2.0
100
AcDbArc
 50
0.0
 51
90.0
  0
ARC
  5
236
330
45
100
AcDbEntity
  8
0
  6
Continuous
 62
     7
100
AcDbCircle
 10
221.369151624876
 20
191.9726118551
 30
0.0
 40
20.0
100
AcDbArc
 50
180.0
 51
220.0000000002985
  0
ARC
  5
237
330
45
100
AcDbEntity
  8
0
  6
Continuous
 62
     7
100
AcDbCircle
 10
367.042998461776
 20
151.064295503
 30
0.0
 40
20.0
100
AcDbArc
 50
270.0
 51
320.0000000001052
  0
ARC
  5
238
330
45
100
AcDbEntity
  8
0
  6
Continuous
 62
     7
100
AcDbCircle
 10
255.695304787976
 20
151.064295503
 30
0.0
 40
19.99999999991926
100
AcDbArc
 50
220.0000000000789
 51
270.0
  0
ARC
  5
239
330
45
100
AcDbEntity
  8
0
  6
Continuous
 62
     7
100
AcDbCircle
 10
191.267116709976
 20
261.6651311032
 30
0.0
 40
9.775772704971414
100
AcDbArc
 50
251.7518126357001
 51
262.2076559287975
  0
ARC
  5
23A
330
45
100
AcDbEntity
  8
0
  6
Continuous
 62
     7
100
AcDbCircle
 10
190.914587951876
 20
263.1699347703
 30
0.0
 40
10.8117762405897
100
AcDbArc
 50
266.2756851658011
 51
273.7243148340792
  0
ARC
  5
23B
330
45
100
AcDbEntity
  8
0
  6
Continuous
 62
     7
100
AcDbCircle
 10
192.781746413676
 20
252.8460404603
 30
0.0
 40
1.254270689568512
100
AcDbArc
 50
201.7632633847853
 51
223.6910718517079
  0
ARC
  5
23C
330
45
100
AcDbEntity
  8
0
  6
Continuous
 62
     7
100
AcDbCircle
 10
191.262454304076
 20
261.6651311032
 30
0.0
 40
9.7757727049806
100
AcDbArc
 50
277.7923440711037
 51
288.2481873641505
  0
ARC
  5
23D
330
45
100
AcDbEntity
  8
0
  6
Continuous
 62
     7
100
AcDbCircle
 10
194.432128164476
 20
252.6342393091
 30
0.0
 40
0.2755312000739955
100
AcDbArc
 50
246.7986204872478
 51
284.725971293483
  0
ARC
  5
23E
330
45
100
AcDbEntity
  8
0
  6
Continuous
 62
     7
100
AcDbCircle
 10
194.619151624876
 20
256.714295503
 30
0.0
 40
0.25
100
AcDbArc
 50
180.0
 51
270.0
  0
ARC
  5
23F
330
45
100
AcDbEntity
  8
0
  6
Continuous
 62
     7
100
AcDbCircle
 10
196.829151624876
 20
254.1390123367
 30
0.0
 40
0.5400000000254588
100
AcDbArc
 50
305.2515315403536
 51
0.0
  0
ARC
  5
240
330
45
100
AcDbEntity
  8
0
  6
Continuous
 62
     7
100
AcDbCircle
 10
191.369151624876
 20
261.864295503
 30
0.0
 40
10.00000000003184
100
AcDbArc
 50
288.2583107462956
 51
305.2515315419977
  0
ARC
  5
241
330
45
100
AcDbEntity
  8
0
  6
Continuous
 62
     7
100
AcDbCircle
 10
191.369151624876
 20
261.864295503
 30
0.0
 40
9.999999999974335
100
AcDbArc
 50
234.7484684579126
 51
251.7416892536018
  0
ARC
  5
242
330
45
100
AcDbEntity
  8
0
  6
Continuous
 62
     7
100
AcDbCircle
 10
185.909151624876
 20
254.1390123367
 30
0.0
 40
0.539999999999992
100
AcDbArc
 50
180.0
 51
234.748468457985
  0
ARC
  5
243
330
45
100
AcDbEntity
  8
0
  6
Continuous
 62
     7
100
AcDbCircle
 10
188.119151624876
 20
256.714295503
 30
0.0
 40
0.25
100
AcDbArc
 50
270.0
 51
0.0
  0
ARC
  5
244
330
45
100
AcDbEntity
  8
0
  6
Continuous
 62
     7
100
AcDbCircle
 10
262.920569721176
 20
339.5638677187
 30
0.0
 40
15.0
100
AcDbArc
 50
90.0
 51
160.0000002230998
  0
ARC
  5
245
330
45
100
AcDbEntity
  8
0
  6
Continuous
 62
     7
100
AcDbCircle
 10
359.817733528576
 20
339.5638677187
 30
0.0
 40
15.00000000003275
100
AcDbArc
 50
19.99999977685449
 51
90.0
  0
ARC
  5
246
330
45
100
AcDbEntity
  8
0
  6
Continuous
 62
     7
100
AcDbCircle
 10
385.769151624876
 20
251.5638617187
 30
0.0
 40
1.0
100
AcDbArc
 50
0.0
 51
90.0
  0
ARC
  5
247
330
45
100
AcDbEntity
  8
0
  6
Continuous
 62
     7
100
AcDbCircle
 10
236.969151624876
 20
251.5638617187
 30
0.0
 40
1.0
100
AcDbArc
 50
90.0
 51
180.0
  0
ARC
  5
248
330
45
100
AcDbEntity
  8
0
  6
Continuous
 62
     7
100
AcDbCircle
 10
236.969151624876
 20
251.5638617187
 30
0.0
 40
1.0
100
AcDbArc
 50
180.0
 51
270.0
  0
ARC
  5
249
330
45
100
AcDbEntity
  8
0
  6
Continuous
 62
     7
100
AcDbCircle
 10
385.769151624876
 20
251.5638617187
 30
0.0
 40
1.0
100
AcDbArc
 50
270.0
 51
0.0
  0
LWPOLYLINE
  5
24A
330
45
100
AcDbEntity
  8
0
  6
Continuous
 62
     7
100
AcDbPolyline
 90
        2
 70
     0
 43
0.15
 10
649.5309706059759
 20
263.1368899668
 42
0.16715028829064
 10
649.2527957288448
 20
261.650026025781
 42
0.16715028829064
  0
LWPOLYLINE
  5
24B
330
45
100
AcDbEntity
  8
0
  6
Continuous
 62
     7
100
AcDbPolyline
 90
        2
 70
     0
 43
0.15
 10
649.2527957288448
 20
261.650026025781
 42
0.2053535686465
 10
649.3402357426758
 20
261.1463146234
 42
0.2053535686465
  0
LWPOLYLINE
  5
24C
330
45
100
AcDbEntity
  8
0
  6
Continuous
 62
     7
100
AcDbPolyline
 90
        2
 70
     0
 43
0.15
 10
646.2393935052999
 20
261.991609069141
 42
0.17962957824698
 10
645.9296281664019
 20
263.475261809859
 42
0.17962957824698
  0
SPLINE
  5
24D
330
45
100
AcDbEntity
  8
0
  6
Continuous
 62
     7
100
AcDbSpline
210
0.0
220
0.0
230
1.0
 70
     8
 71
     3
 72
    11
 73
     7
 74
     5
 42
0.0000000001
 43
0.0000000001
 44
0.00000001
 40
0.0
 40
0.0
 40
0.0
 40
0.0
 40
15.01937898250622
 40
30.03694028535298
 40
41.05877346807182
 40
52.05228572475658
 40
52.05228572475658
 40
52.05228572475658
 40
52.05228572475658
 10
351.173943149639
 20
187.567504109774
 30
0.0
 10
348.4932232608741
 20
191.8129571814968
 30
0.0
 10
343.1321079102077
 20
200.3033495304838
 30
0.0
 10
333.2681455740567
 20
209.9534787171794
 30
0.0
 10
322.4198656772155
 20
216.3983182536698
 30
0.0
 10
315.0495625466363
 20
217.2285240624552
 30
0.0
 10
311.369151624876
 20
217.6430929712
 30
0.0
 11
351.173943149639
 21
187.567504109774
 31
0.0
 11
342.6679870842867
 21
199.9461331305681
 31
0.0
 11
331.8518102395915
 21
210.3642647264466
 31
0.0
 11
322.1806738028694
 21
215.6510337520412
 31
0.0
 11
311.369151624876
 21
217.6430929712
 31
0.0
  0
SPLINE
  5
24E
330
45
100
AcDbEntity
  8
0
  6
Continuous
 62
     7
100
AcDbSpline
210
0.0
220
0.0
230
1.0
 70
     8
 71
     3
 72
    19
 73
    15
 74
    13
 42
0.0000000001
 43
0.0000000001
 44
0.00000001
 40
0.0
 40
0.0
 40
0.0
 40
0.0
 40
2.747111365166122
 40
5.508563143757002
 40
8.374953793427109
 40
11.26691579942981
 40
14.09989235601142
 40
16.93272352024593
 40
19.86060719366919
 40
22.77502768563923
 40
24.48255227319102
 40
26.17880077542999
 40
27.87697017641983
 40
29.5692526718876
 40
29.5692526718876
 40
29.5692526718876
 40
29.5692526718876
 10
351.283120093478
 20
216.487053731539
 30
0.0
 10
350.9895412077481
 20
215.6196857029597
 30
0.0
 10
350.4008509019152
 20
213.8804218293176
 30
0.0
 10
349.6122294347911
 20
211.2005386455577
 30
0.0
 10
349.0284841313493
 20
208.4179593268751
 30
0.0
 10
348.6547889002525
 20
205.5760647782781
 30
0.0
 10
348.4912064847542
 20
202.7256278060702
 30
0.0
 10
348.5405935904473
 20
199.8586547817775
 30
0.0
 10
348.8181893791484
 20
196.9774260390407
 30
0.0
 10
349.2392138696009
 20
194.4942363864415
 30
0.0
 10
349.6975732543722
 20
192.4382211754525
 30
0.0
 10
350.1335130125299
 20
190.7938327138475
 30
0.0
 10
350.6366867667859
 20
189.1743092380028
 30
0.0
 10
350.9950651058359
 20
188.1024854765836
 30
0.0
 10
351.173943145829
 20
187.567504109772
 30
0.0
 11
351.283120093478
 21
216.487053731539
 31
0.0
 11
350.4197875753078
 21
213.879127770992
 31
0.0
 11
349.6568634598979
 21
211.2251566483894
 31
0.0
 11
349.0659347678019
 21
208.4203396066959
 31
0.0
 11
348.6878419625237
 21
205.5531999040027
 31
0.0
 11
348.5264213097219
 21
202.7248258935525
 31
0.0
 11
348.5766176958295
 21
199.8924394919681
 31
0.0
 11
348.8534939938497
 21
196.9776766678788
 31
0.0
 11
349.3373544443282
 21
194.1037027869123
 31
0.0
 11
349.7094412094079
 21
192.4372119659516
 31
0.0
 11
350.1447697337607
 21
190.7977766798751
 31
0.0
 11
350.6430382292695
 21
189.17435196008
 31
0.0
 11
351.173943145829
 21
187.567504109772
 31
0.0
  0
SPLINE
  5
24F
330
45
100
AcDbEntity
  8
0
  6
Continuous
 62
     7
100
AcDbSpline
210
0.0
220
0.0
230
1.0
 70
     8
 71
     3
 72
    16
 73
    12
 74
    10
 42
0.0000000001
 43
0.0000000001
 44
0.00000001
 40
0.0
 40
0.0
 40
0.0
 40
0.0
 40
0.0283633043437369
 40
0.0644133809138687
 40
0.1158377884949398
 40
0.1697455061678538
 40
0.2422311718755061
 40
0.338793656949243
 40
0.4649354362430873
 40
0.4829870135906502
 40
0.5013120110956384
 40
0.5013120110956384
 40
0.5013120110956384
 40
0.5013120110956384
 10
387.832273403676
 20
144.7255120652
 30
0.0
 10
387.8333716236268
 20
144.7349025068747
 30
0.0
 10
387.8358656933994
 20
144.7562283047863
 30
0.0
 10
387.8401760003597
 20
144.7945997295465
 30
0.0
 10
387.8452351404669
 20
144.8414548676117
 30
0.0
 10
387.8514948327607
 20
144.9003960313997
 30
0.0
 10
387.8597113463496
 20
144.9742595195882
 30
0.0
 10
387.8711980337105
 20
145.0719840258491
 30
0.0
 10
387.8810577277966
 20
145.1516285314385
 30
0.0
 10
387.8878610135687
 20
145.2053724149846
 30
0.0
 10
387.889387735278
 20
145.2174014418687
 30
0.0
 10
387.890156833843
 20
145.223461162679
 30
0.0
 11
387.832273403676
 21
144.7255120652
 31
0.0
 11
387.8355492060274
 21
144.7536855660874
 31
0.0
 11
387.8395827314329
 21
144.7895092830011
 31
0.0
 11
387.8451317029651
 21
144.8406334319916
 31
0.0
 11
387.8508787683818
 21
144.8942339288531
 31
0.0
 11
387.8588880855267
 21
144.9662757401292
 31
0.0
 11
387.870132439345
 21
145.0621813084286
 31
0.0
 11
387.8855846147817
 21
145.1873730763596
 31
0.0
 11
387.8878505376099
 21
145.2052818741549
 31
0.0
 11
387.890156833843
 21
145.223461162679
 31
0.0
  0
SPLINE
  5
250
330
45
100
AcDbEntity
  8
0
  6
Continuous
 62
     7
100
AcDbSpline
210
0.0
220
0.0
230
1.0
 70
     8
 71
     3
 72
    14
 73
    10
 74
     8
 42
0.0000000001
 43
0.0000000001
 44
0.00000001
 40
0.0
 40
0.0
 40
0.0
 40
0.0
 40
0.0558903561614515
 40
0.1093254687639014
 40
0.2722500183335305
 40
0.3809720098146417
 40
0.4524982510679716
 40
0.5217000921858679
 40
0.5679748693472337
 40
0.5679748693472337
 40
0.5679748693472337
 40
0.5679748693472337
 10
406.078165371119
 20
254.534150928278
 30
0.0
 10
406.0876640024161
 20
254.5501776975259
 30
0.0
 10
406.1062439935003
 20
254.5815271857226
 30
0.0
 10
406.1525307715367
 20
254.6595854812367
 30
0.0
 10
406.2079032309983
 20
254.7527300915452
 30
0.0
 10
406.2665976794175
 20
254.8509150457169
 30
0.0
 10
406.3094538585601
 20
254.9221700416241
 30
0.0
 10
406.3415413357171
 20
254.9756112886955
 30
0.0
 10
406.3612527132487
 20
255.0086735462528
 30
0.0
 10
406.369151624876
 20
255.0219225366
 30
0.0
 11
406.078165371119
 21
254.534150928278
 31
0.0
 11
406.1066631089373
 21
254.5822301426132
 31
0.0
 11
406.1339200486676
 21
254.6281906745442
 31
0.0
 11
406.2172042379382
 21
254.7682197881956
 31
0.0
 11
406.2730098039199
 21
254.8615268631529
 31
0.0
 11
406.3098453998701
 21
254.9228387058818
 31
0.0
 11
406.3454383429577
 21
254.9821854599335
 31
0.0
 11
406.369151624876
 21
255.0219225366
 31
0.0
  0
SPLINE
  5
251
330
45
100
AcDbEntity
  8
0
  6
Continuous
 62
     7
100
AcDbSpline
210
0.0
220
0.0
230
1.0
 70
     8
 71
     3
 72
    12
 73
     8
 74
     6
 42
0.0000000001
 43
0.0000000001
 44
0.00000001
 40
0.0
 40
0.0
 40
0.0
 40
0.0
 40
0.2207180741916961
 40
0.3958327678929999
 40
0.4778043551654174
 40
0.5231829048532467
 40
0.5502650087225827
 40
0.5502650087225827
 40
0.5502650087225827
 40
0.5502650087225827
 10
421.117796986748
 20
253.877506430943
 30
0.0
 10
421.1513691233326
 20
253.9429728520769
 30
0.0
 10
421.2115769327613
 20
254.0603794340996
 30
0.0
 10
421.284264535841
 20
254.2020934120349
 30
0.0
 10
421.330329215095
 20
254.2917764050838
 30
0.0
 10
421.3538900362705
 20
254.33754557039
 30
0.0
 10
421.3649994802472
 20
254.3589925891238
 30
0.0
 10
421.369151624907
 20
254.367008393019
 30
0.0
 11
421.117796986748
 21
253.877506430943
 31
0.0
 11
421.2185163778691
 21
254.0739041715794
 31
0.0
 11
421.2984544347169
 21
254.2297087383209
 31
0.0
 11
421.3359163093766
 21
254.3026192935714
 31
0.0
 11
421.3567028105206
 21
254.3429570444006
 31
0.0
 11
421.369151624907
 21
254.367008393019
 31
0.0
  0
SPLINE
  5
252
330
45
100
AcDbEntity
  8
0
  6
Continuous
 62
     7
100
AcDbSpline
210
0.0
220
0.0
230
1.0
 70
     8
 71
     3
 72
    13
 73
     9
 74
     7
 42
0.0000000001
 43
0.0000000001
 44
0.00000001
 40
0.0
 40
0.0
 40
0.0
 40
0.0
 40
0.0973321100574848
 40
0.1946649669170841
 40
1.581037603559922
 40
2.967641400182402
 40
3.156273117264754
 40
3.344906307817911
 40
3.344906307817911
 40
3.344906307817911
 40
3.344906307817911
 10
191.914796434476
 20
255.324295503
 30
0.0
 10
191.9143963682053
 20
255.2918539330086
 30
0.0
 10
191.9135962325943
 20
255.2269705441107
 30
0.0
 10
191.9071049470974
 20
254.6999979881622
 30
0.0
 10
191.8955219345603
 20
253.743298317879
 30
0.0
 10
191.8838752652489
 20
252.7561642938981
 30
0.0
 10
191.8770134754186
 20
252.168248101132
 30
0.0
 10
191.8755477556317
 20
252.0425016739518
 30
0.0
 10
191.874814892876
 20
251.9796282148
 30
0.0
 11
191.914796434476
 21
255.324295503
 31
0.0
 11
191.9135964599789
 21
255.2269707902624
 31
0.0
 11
191.9123978221292
 21
255.129645314195
 31
0.0
 11
191.8955941965157
 21
253.7433745160469
 31
0.0
 11
191.8792158793032
 21
252.3568674516822
 31
0.0
 11
191.8770139595336
 21
252.1682485866693
 31
0.0
 11
191.874814892876
 21
251.9796282148
 31
0.0
  0
SPLINE
  5
253
330
45
100
AcDbEntity
  8
0
  6
Continuous
 62
     7
100
AcDbSpline
210
0.0
220
0.0
230
1.0
 70
     8
 71
     3
 72
    13
 73
     9
 74
     7
 42
0.0000000001
 43
0.0000000001
 44
0.00000001
 40
0.0
 40
0.0
 40
0.0
 40
0.0
 40
0.1891999361194452
 40
0.3783998725329039
 40
1.769280278456383
 40
3.160154900040263
 40
3.257814018345933
 40
3.355473119187575
 40
3.355473119187575
 40
3.355473119187575
 40
3.355473119187575
 10
192.587884716362
 20
251.979628214778
 30
0.0
 10
192.5829532211027
 20
252.0425017555654
 30
0.0
 10
192.5730902305763
 20
252.168248837238
 30
0.0
 10
192.5269141055908
 20
252.75619843345
 30
0.0
 10
192.4485364473632
 20
253.7434108315856
 30
0.0
 10
192.3705984409871
 20
254.7000470170199
 30
0.0
 10
192.3269221229049
 20
255.2269709129085
 30
0.0
 10
192.3215379772585
 20
255.2918539749033
 30
0.0
 10
192.318845904676
 20
255.324295503
 30
0.0
 11
192.587884716362
 21
251.979628214778
 31
0.0
 11
192.5730870308106
 21
252.1682485857084
 31
0.0
 11
192.5582701465137
 21
252.3568674497666
 31
0.0
 11
192.44805921311
 21
253.7433745192545
 31
0.0
 11
192.3349863473521
 21
255.1296453225233
 31
0.0
 11
192.3269206231402
 21
255.2269707944265
 31
0.0
 11
192.318845904676
 21
255.324295503
 31
0.0
  0
SPLINE
  5
254
330
45
100
AcDbEntity
  8
0
  6
Continuous
 62
     7
100
AcDbSpline
210
0.0
220
0.0
230
1.0
 70
     8
 71
     3
 72
    13
 73
     9
 74
     7
 42
0.0000000001
 43
0.0000000001
 44
0.00000001
 40
0.0
 40
0.0
 40
0.0
 40
0.0
 40
0.1886331905527823
 40
0.3772649076351143
 40
1.763868704257568
 40
3.150241340900402
 40
3.247574197759928
 40
3.344906307816701
 40
3.344906307816701
 40
3.344906307816701
 40
3.344906307816701
 10
190.470239920276
 20
251.9796282148
 30
0.0
 10
190.4709727830197
 20
252.0425016739519
 30
0.0
 10
190.4724385027824
 20
252.1682481011322
 30
0.0
 10
190.4793002926205
 20
252.7561642938982
 30
0.0
 10
190.4909469619336
 20
253.7432983178789
 30
0.0
 10
190.502529974444
 20
254.6999979881621
 30
0.0
 10
190.5090212599645
 20
255.2269705441103
 30
0.0
 10
190.5098213955287
 20
255.2918539330086
 30
0.0
 10
190.510221461776
 20
255.324295503
 30
0.0
 11
190.470239920276
 21
251.9796282148
 31
0.0
 11
190.4724389869039
 21
252.1682485866692
 31
0.0
 11
190.4746409066694
 21
252.3568674516822
 31
0.0
 11
190.4910192238821
 21
253.7433745160468
 31
0.0
 11
190.5078228494952
 21
255.129645314195
 31
0.0
 11
190.5090214873366
 21
255.2269707902624
 31
0.0
 11
190.510221461776
 21
255.324295503
 31
0.0
  0
SPLINE
  5
255
330
45
100
AcDbEntity
  8
0
  6
Continuous
 62
     7
100
AcDbSpline
210
0.0
220
0.0
230
1.0
 70
     8
 71
     3
 72
    13
 73
     9
 74
     7
 42
0.0000000001
 43
0.0000000001
 44
0.00000001
 40
0.0
 40
0.0
 40
0.0
 40
0.0
 40
0.0976591008427977
 40
0.1953182191486251
 40
1.586192840732541
 40
2.977073246656039
 40
3.16627318306666
 40
3.355473119166811
 40
3.355473119166811
 40
3.355473119166811
 40
3.355473119166811
 10
190.210725109376
 20
255.324295503
 30
0.0
 10
190.2080330367878
 20
255.2918539749034
 30
0.0
 10
190.2026488911301
 20
255.2269709129092
 30
0.0
 10
190.1589725730547
 20
254.7000470170194
 30
0.0
 10
190.0810345666703
 20
253.7434108315858
 30
0.0
 10
190.0026569084449
 20
252.7561984334511
 30
0.0
 10
189.9564807834602
 20
252.1682488372463
 30
0.0
 10
189.9466177929347
 20
252.042501755581
 30
0.0
 10
189.941686297676
 20
251.9796282148
 30
0.0
 11
190.210725109376
 21
255.324295503
 31
0.0
 11
190.2026503908978
 21
255.2269707944265
 31
0.0
 11
190.194584666684
 21
255.1296453225233
 31
0.0
 11
190.0815118009261
 21
253.7433745192545
 31
0.0
 11
189.971300867522
 21
252.3568674497665
 31
0.0
 11
189.9564839832256
 21
252.1682485857112
 31
0.0
 11
189.941686297676
 21
251.9796282148
 31
0.0
  0
SPLINE
  5
256
330
45
100
AcDbEntity
  8
0
  6
Continuous
 62
     7
100
AcDbSpline
210
0.0
220
0.0
230
1.0
 70
     8
 71
     3
 72
    17
 73
    13
 74
    11
 42
0.0000000001
 43
0.0000000001
 44
0.00000001
 40
0.0
 40
0.0
 40
0.0
 40
0.0
 40
0.1708911312973609
 40
0.3402085343398385
 40
0.510693175842439
 40
0.6828590425700793
 40
0.8533094385516018
 40
1.024043114952431
 40
1.193241647272258
 40
1.361917846772698
 40
1.465006843873651
 40
1.56844522713783
 40
1.56844522713783
 40
1.56844522713783
 40
1.56844522713783
 10
324.16913411305
 20
271.863861718702
 30
0.0
 10
324.1124513240919
 20
271.8582561888698
 30
0.0
 10
323.9996077352679
 20
271.8470967502614
 30
0.0
 10
323.8321219723853
 20
271.8119763254181
 30
0.0
 10
323.6754842161664
 20
271.7409896872156
 30
0.0
 10
323.5345343829121
 20
271.6427478364112
 30
0.0
 10
323.4113689424798
 20
271.5228591686136
 30
0.0
 10
323.3102299601896
 20
271.3850815282255
 30
0.0
 10
323.233348919267
 20
271.233130144123
 30
0.0
 10
323.1910172835753
 20
271.0912899083219
 30
0.0
 10
323.175494133415
 20
270.9669886611755
 30
0.0
 10
323.1712565094778
 20
270.8982761136181
 30
0.0
 10
323.169134113076
 20
270.8638617187
 30
0.0
 11
324.16913411305
 21
271.863861718702
 31
0.0
 11
323.9994060838662
 21
271.8439575767847
 31
0.0
 11
323.8343613276976
 21
271.8061606002614
 31
0.0
 11
323.6786493699729
 21
271.7367430289281
 31
0.0
 11
323.5370718407428
 21
271.6387793168548
 31
0.0
 11
323.4149931151397
 21
271.5198250304866
 31
0.0
 11
323.3139564098737
 21
271.3821966451646
 31
0.0
 11
323.2379438084761
 21
271.2310337271987
 31
0.0
 11
323.1904398886394
 21
271.069184915408
 31
0.0
 11
323.1765816864761
 21
270.9670316405898
 31
0.0
 11
323.169134113076
 21
270.8638617187
 31
0.0
  0
SPLINE
  5
257
330
45
100
AcDbEntity
  8
0
  6
Continuous
 62
     7
100
AcDbSpline
210
0.0
220
0.0
230
1.0
 70
     8
 71
     3
 72
    17
 73
    13
 74
    11
 42
0.0000000001
 43
0.0000000001
 44
0.00000001
 40
0.0
 40
0.0
 40
0.0
 40
0.0
 40
0.1671676522949017
 40
0.3325516760358336
 40
0.4983377426420188
 40
0.6649580372960071
 40
0.831457291144264
 40
0.9974157649124182
 40
1.165771690437562
 40
1.332928686553049
 40
1.450481159254985
 40
1.568468726632551
 40
1.568468726632551
 40
1.568468726632551
 40
1.568468726632551
 10
299.569054685818
 20
270.863861718702
 30
0.0
 10
299.5636717520991
 20
270.9193189189236
 30
0.0
 10
299.5529633189445
 20
271.0296416077258
 30
0.0
 10
299.5195329896011
 20
271.1932054512861
 30
0.0
 10
299.4521037100526
 20
271.3461505270873
 30
0.0
 10
299.358699887185
 20
271.4845948878715
 30
0.0
 10
299.2445692338504
 20
271.6066047552883
 30
0.0
 10
299.1118749355574
 20
271.7090800184779
 30
0.0
 10
298.9642318640542
 20
271.7890260837045
 30
0.0
 10
298.8197840290953
 20
271.8366112780764
 30
0.0
 10
298.6866119950701
 20
271.8556717437916
 30
0.0
 10
298.6082886824099
 20
271.8611283672008
 30
0.0
 10
298.569054685818
 20
271.863861718702
 30
0.0
 11
299.569054685818
 21
270.863861718702
 31
0.0
 11
299.5499746029805
 21
271.0299369258002
 31
0.0
 11
299.5139128820871
 21
271.1913414721889
 31
0.0
 11
299.4479369162978
 21
271.3434341801631
 31
0.0
 11
299.3552214685841
 21
271.4818761114767
 31
0.0
 11
299.2414208207996
 21
271.6034138179543
 31
0.0
 11
299.1100829312127
 21
271.7048661406203
 31
0.0
 11
298.9618172861287
 21
271.7846221193758
 31
0.0
 11
298.8028033418614
 21
271.836158775058
 31
0.0
 11
298.6866487407399
 21
271.8542334113382
 31
0.0
 11
298.569054685818
 21
271.863861718702
 31
0.0
  0
SPLINE
  5
258
330
45
100
AcDbEntity
  8
0
  6
Continuous
 62
     7
100
AcDbSpline
210
0.0
220
0.0
230
1.0
 70
     8
 71
     3
 72
    17
 73
    13
 74
    11
 42
0.0000000001
 43
0.0000000001
 44
0.00000001
 40
0.0
 40
0.0
 40
0.0
 40
0.0
 40
0.1713547637129097
 40
0.3410499105416921
 40
0.5117779890894422
 40
0.6841500388246072
 40
0.8551497997222636
 40
1.026500399302941
 40
1.196038099236992
 40
1.365138847897609
 40
1.466618726603835
 40
1.568439991934409
 40
1.568439991934409
 40
1.568439991934409
 40
1.568439991934409
 10
298.569054685818
 20
271.863861718702
 30
0.0
 10
298.5122203965648
 20
271.8582197248185
 30
0.0
 10
298.399102273406
 20
271.8469903812768
 30
0.0
 10
298.2312719414176
 20
271.8117276816165
 30
0.0
 10
298.0744378917544
 20
271.7404849786012
 30
0.0
 10
297.9333444957667
 20
271.641861454223
 30
0.0
 10
297.8100318739026
 20
271.5214597955943
 30
0.0
 10
297.7088878811768
 20
271.3830517986194
 30
0.0
 10
297.6322131442023
 20
271.2304754632691
 30
0.0
 10
297.5903860223464
 20
271.0887785925845
 30
0.0
 10
297.5752252396939
 20
270.965382896337
 30
0.0
 10
297.5711138383929
 20
270.8977399736151
 30
0.0
 10
297.569054685776
 20
270.8638617187
 30
0.0
 11
298.569054685818
 21
271.863861718702
 31
0.0
 11
298.3988738400673
 21
271.8438383626728
 31
0.0
 11
298.2334796419416
 21
271.8058751952125
 31
0.0
 11
298.0776077651737
 21
271.7362186460771
 31
0.0
 11
297.9359857389016
 21
271.6379571317163
 31
0.0
 11
297.8137016215259
 21
271.5184267470239
 31
0.0
 11
297.7125988582283
 21
271.3800820354147
 31
0.0
 11
297.6368420454577
 21
271.2284115471259
 31
0.0
 11
297.5897007151765
 21
271.0660146315859
 31
0.0
 11
297.57627693189
 21
270.9654265218288
 31
0.0
 11
297.569054685776
 21
270.8638617187
 31
0.0
  0
SPLINE
  5
259
330
45
100
AcDbEntity
  8
0
  6
Continuous
 62
     7
100
AcDbSpline
210
0.0
220
0.0
230
1.0
 70
     8
 71
     3
 72
    17
 73
    13
 74
    11
 42
0.0000000001
 43
0.0000000001
 44
0.00000001
 40
0.0
 40
0.0
 40
0.0
 40
0.0
 40
0.165562692957439
 40
0.3265723336018972
 40
0.4786679926623631
 40
0.6178245921344547
 40
0.7413738770141648
 40
0.8460634985278387
 40
0.9312944385502888
 40
0.9913891300155253
 40
1.019965983301734
 40
1.044027973804965
 40
1.044027973804965
 40
1.044027973804965
 40
1.044027973804965
 10
241.723186319464
 20
270.863861718702
 30
0.0
 10
241.7221229458597
 20
270.9190385555462
 30
0.0
 10
241.720025441928
 20
271.0278748401408
 30
0.0
 10
241.7137125329561
 20
271.1873400953332
 30
0.0
 10
241.7009933292531
 20
271.3376061308953
 30
0.0
 10
241.6832903638271
 20
271.4747980711346
 30
0.0
 10
241.6619011051833
 20
271.5953796887019
 30
0.0
 10
241.6375768112239
 20
271.6972481320224
 30
0.0
 10
241.6108326606927
 20
271.7759349049152
 30
0.0
 10
241.5852745293011
 20
271.829120538682
 30
0.0
 10
241.5564755616584
 20
271.8546250370597
 30
0.0
 10
241.5400089560151
 20
271.8609640586178
 30
0.0
 10
241.532481828136
 20
271.863861718702
 30
0.0
 11
241.723186319464
 21
270.863861718702
 31
0.0
 11
241.7194283158077
 21
271.0293817558813
 31
0.0
 11
241.7123583977416
 21
271.1902361019183
 31
0.0
 11
241.699473417418
 21
271.3417849943165
 31
0.0
 11
241.6814787549452
 21
271.4797732231591
 31
0.0
 11
241.6595071172723
 21
271.6013531266476
 31
0.0
 11
241.6343718142533
 21
271.7029805510704
 31
0.0
 11
241.6061444709249
 21
271.7834015074545
 31
0.0
 11
241.5762237861937
 21
271.8355179594396
 31
0.0
 11
241.5544322840904
 21
271.854004900231
 31
0.0
 11
241.532481828136
 21
271.863861718702
 31
0.0
  0
SPLINE
  5
25A
330
45
100
AcDbEntity
  8
0
  6
Continuous
 62
     7
100
AcDbSpline
210
0.0
220
0.0
230
1.0
 70
     8
 71
     3
 72
    17
 73
    13
 74
    11
 42
0.0000000001
 43
0.0000000001
 44
0.00000001
 40
0.0
 40
0.0
 40
0.0
 40
0.0
 40
0.1666020150869846
 40
0.3313926997140261
 40
0.4964770096803242
 40
0.6623001124009229
 40
0.8284129248547376
 40
0.9939571024738619
 40
1.162655528349798
 40
1.330220431380154
 40
1.449099329097221
 40
1.568472615450512
 40
1.568472615450512
 40
1.568472615450512
 40
1.568472615450512
 10
325.16913411305
 20
270.863861718702
 30
0.0
 10
325.163784614276
 20
270.9191327017209
 30
0.0
 10
325.1531437775495
 20
271.0290737505667
 30
0.0
 10
325.1199646117905
 20
271.1920460015951
 30
0.0
 10
325.0530599324454
 20
271.3444447181836
 30
0.0
 10
324.9603244016582
 20
271.4825695287252
 30
0.0
 10
324.8469106606834
 20
271.6045127900258
 30
0.0
 10
324.7146746421496
 20
271.7073204679623
 30
0.0
 10
324.5672070568209
 20
271.7878315681098
 30
0.0
 10
324.4222273287055
 20
271.8360535788198
 30
0.0
 10
324.2880468246977
 20
271.8554768291468
 30
0.0
 10
324.2088264793733
 20
271.8610628917037
 30
0.0
 10
324.16913411305
 20
271.863861718702
 30
0.0
 11
325.16913411305
 21
270.863861718702
 31
0.0
 11
325.1501776175112
 21
271.0293817558816
 31
0.0
 11
325.1143746972297
 21
271.1902361019191
 31
0.0
 11
325.048908961078
 21
271.3417849943175
 31
0.0
 11
324.9569494585956
 21
271.47977322316
 31
0.0
 11
324.8437602650781
 21
271.601353126648
 31
0.0
 11
324.713082258708
 21
271.7029805510705
 31
0.0
 11
324.5647865114079
 21
271.7834015074545
 31
0.0
 11
324.4055323994986
 21
271.8355179594399
 31
0.0
 11
324.2880997577733
 21
271.8540049002317
 31
0.0
 11
324.16913411305
 21
271.863861718702
 31
0.0
  0
SPLINE
  5
25B
330
45
100
AcDbEntity
  8
0
  6
Continuous
 62
     7
100
AcDbSpline
210
0.0
220
0.0
230
1.0
 70
     8
 71
     3
 72
    17
 73
    13
 74
    11
 42
0.0000000001
 43
0.0000000001
 44
0.00000001
 40
0.0
 40
0.0
 40
0.0
 40
0.0
 40
0.037317253567432
 40
0.0862347809630523
 40
0.1618823802376271
 40
0.2638280257145481
 40
0.3856810342569094
 40
0.5254263483621839
 40
0.6778259396632933
 40
0.840489604318127
 40
0.9411127978299217
 40
1.04268767915928
 40
1.04268767915928
 40
1.04268767915928
 40
1.04268767915928
 10
381.205800444491
 20
271.863861718703
 30
0.0
 10
381.1948236344008
 20
271.8577908941677
 30
0.0
 10
381.1694578123398
 20
271.8437620958502
 30
0.0
 10
381.1362763776044
 20
271.7992736472028
 30
0.0
 10
381.1099492412454
 20
271.7282467237057
 30
0.0
 10
381.0839694825721
 20
271.6317999197617
 30
0.0
 10
381.0610415921927
 20
271.5127149258677
 30
0.0
 10
381.0418530483433
 20
271.3760153121963
 30
0.0
 10
381.0271942884849
 20
271.2250806693881
 30
0.0
 10
381.0192589048941
 20
271.0867040805559
 30
0.0
 10
381.0163144349673
 20
270.9651120909077
 30
0.0
 10
381.0155022541537
 20
270.8977175782597
 30
0.0
 10
381.015094252397
 20
270.863861718703
 30
0.0
 11
381.205800444491
 21
271.863861718703
 31
0.0
 11
381.1743100868061
 21
271.8438383626732
 31
0.0
 11
381.14346008838
 21
271.805875195213
 31
0.0
 11
381.1139554372459
 21
271.7362186460775
 31
0.0
 11
381.0867968395801
 21
271.6379571317165
 31
0.0
 11
381.0631189421631
 21
271.518426747024
 31
0.0
 11
381.0433833503512
 21
271.3800820354148
 31
0.0
 11
381.0284938100252
 21
271.2284115471265
 31
0.0
 11
381.0191820098702
 21
271.0660146315868
 31
0.0
 11
381.0165250853204
 21
270.96542652183
 31
0.0
 11
381.015094252397
 21
270.863861718703
 31
0.0
  0
SPLINE
  5
25C
330
45
100
AcDbEntity
  8
0
  6
Continuous
 62
     7
100
AcDbSpline
210
0.0
220
0.0
230
1.0
 70
    24
 71
     3
 72
     9
 73
     5
 74
     3
 42
0.0000000001
 43
0.0000000001
 44
0.00000001
 40
0.0
 40
0.0
 40
0.0
 40
0.0
 40
0.2976419018986576
 40
0.5952838037979973
 40
0.5952838037979973
 40
0.5952838037979973
 40
0.5952838037979973
 10
256.797844572545
 20
318.884104868331
 30
0.0
 10
256.8970585398445
 20
318.8841048683275
 30
0.0
 10
257.0954864744438
 20
318.8841048683205
 30
0.0
 10
257.2939144090432
 20
318.8841048683129
 30
0.0
 10
257.393128376343
 20
318.884104868309
 30
0.0
 11
256.797844572545
 21
318.884104868331
 31
0.0
 11
257.0954864744436
 21
318.8841048683204
 31
0.0
 11
257.393128376343
 21
318.884104868309
 31
0.0
  0
SPLINE
  5
25D
330
45
100
AcDbEntity
  8
0
  6
Continuous
 62
     7
100
AcDbSpline
210
0.0
220
0.0
230
1.0
 70
    24
 71
     3
 72
     9
 73
     5
 74
     3
 42
0.0000000001
 43
0.0000000001
 44
0.00000001
 40
0.0
 40
0.0
 40
0.0
 40
0.0
 40
0.5749999998856765
 40
1.149999999772035
 40
1.149999999772035
 40
1.149999999772035
 40
1.149999999772035
 10
262.133714666112
 20
318.884104868397
 30
0.0
 10
262.3253813327406
 20
318.8841048684092
 30
0.0
 10
262.7087146659979
 20
318.8841048684334
 30
0.0
 10
263.0920479992552
 20
318.8841048684585
 30
0.0
 10
263.283714665884
 20
318.884104868471
 30
0.0
 11
262.133714666112
 21
318.884104868397
 31
0.0
 11
262.7087146659977
 21
318.8841048684336
 31
0.0
 11
263.283714665884
 21
318.884104868471
 31
0.0
  0
SPLINE
  5
25E
330
45
100
AcDbEntity
  8
0
  6
Continuous
 62
     7
100
AcDbSpline
210
0.0
220
0.0
230
1.0
 70
    24
 71
     3
 72
     9
 73
     5
 74
     3
 42
0.0000000001
 43
0.0000000001
 44
0.00000001
 40
0.0
 40
0.0
 40
0.0
 40
0.0
 40
0.8131727984503527
 40
1.626345596899966
 40
1.626345596899966
 40
1.626345596899966
 40
1.626345596899966
 10
270.824898423571
 20
318.884104868285
 30
0.0
 10
271.0959560230545
 20
318.8841048682771
 30
0.0
 10
271.6380712220212
 20
318.884104868261
 30
0.0
 10
272.1801864209878
 20
318.8841048682457
 30
0.0
 10
272.451244020471
 20
318.884104868238
 30
0.0
 11
270.824898423571
 21
318.884104868285
 31
0.0
 11
271.6380712220214
 21
318.8841048682611
 31
0.0
 11
272.451244020471
 21
318.884104868238
 31
0.0
  0
SPLINE
  5
25F
330
45
100
AcDbEntity
  8
0
  6
Continuous
 62
     7
100
AcDbSpline
210
0.0
220
0.0
230
1.0
 70
    24
 71
     3
 72
     9
 73
     5
 74
     3
 42
0.0000000001
 43
0.0000000001
 44
0.00000001
 40
0.0
 40
0.0
 40
0.0
 40
0.0
 40
0.9959292143663561
 40
1.991858428731973
 40
1.991858428731973
 40
1.991858428731973
 40
1.991858428731973
 10
282.27910603363
 20
318.884104868331
 30
0.0
 10
282.6110824384187
 20
318.8841048683302
 30
0.0
 10
283.2750352479961
 20
318.8841048683286
 30
0.0
 10
283.9389880575735
 20
318.8841048683269
 30
0.0
 10
284.270964462362
 20
318.884104868326
 30
0.0
 11
282.27910603363
 21
318.884104868331
 31
0.0
 11
283.2750352479964
 21
318.8841048683286
 31
0.0
 11
284.270964462362
 21
318.884104868326
 31
0.0
  0
SPLINE
  5
260
330
45
100
AcDbEntity
  8
0
  6
Continuous
 62
     7
100
AcDbSpline
210
0.0
220
0.0
230
1.0
 70
    24
 71
     3
 72
     9
 73
     5
 74
     3
 42
0.0000000001
 43
0.0000000001
 44
0.00000001
 40
0.0
 40
0.0
 40
0.0
 40
0.0
 40
1.110814700162393
 40
2.221629400323991
 40
2.221629400323991
 40
2.221629400323991
 40
2.221629400323991
 10
295.715752177238
 20
318.884104868343
 30
0.0
 10
296.0860237439588
 20
318.8841048683455
 30
0.0
 10
296.8265668774002
 20
318.8841048683505
 30
0.0
 10
297.5671100108415
 20
318.8841048683555
 30
0.0
 10
297.937381577562
 20
318.884104868358
 30
0.0
 11
295.715752177238
 21
318.884104868343
 31
0.0
 11
296.8265668774004
 21
318.8841048683505
 31
0.0
 11
297.937381577562
 21
318.884104868358
 31
0.0
  0
SPLINE
  5
261
330
45
100
AcDbEntity
  8
0
  6
Continuous
 62
     7
100
AcDbSpline
210
0.0
220
0.0
230
1.0
 70
    24
 71
     3
 72
     9
 73
     5
 74
     3
 42
0.0000000001
 43
0.0000000001
 44
0.00000001
 40
0.0
 40
0.0
 40
0.0
 40
0.0
 40
1.150000000029479
 40
2.300000000059015
 40
2.300000000059015
 40
2.300000000059015
 40
2.300000000059015
 10
310.219151624846
 20
318.884104868337
 30
0.0
 10
310.6024849581892
 20
318.8841048683369
 30
0.0
 10
311.3691516248755
 20
318.884104868337
 30
0.0
 10
312.1358182915618
 20
318.884104868337
 30
0.0
 10
312.519151624905
 20
318.884104868337
 30
0.0
 11
310.219151624846
 21
318.884104868337
 31
0.0
 11
311.3691516248755
 21
318.884104868337
 31
0.0
 11
312.519151624905
 21
318.884104868337
 31
0.0
  0
SPLINE
  5
262
330
45
100
AcDbEntity
  8
0
  6
Continuous
 62
     7
100
AcDbSpline
210
0.0
220
0.0
230
1.0
 70
    24
 71
     3
 72
     9
 73
     5
 74
     3
 42
0.0000000001
 43
0.0000000001
 44
0.00000001
 40
0.0
 40
0.0
 40
0.0
 40
0.0
 40
1.110814700156936
 40
2.221629400286986
 40
2.221629400286986
 40
2.221629400286986
 40
2.221629400286986
 10
324.800921672189
 20
318.884104868358
 30
0.0
 10
325.171193238908
 20
318.8841048683544
 30
0.0
 10
325.9117363723369
 20
318.8841048683469
 30
0.0
 10
326.652279505766
 20
318.8841048683823
 30
0.0
 10
327.022551072476
 20
318.8841048684
 30
0.0
 11
324.800921672189
 21
318.884104868358
 31
0.0
 11
325.911736372346
 21
318.8841048683576
 31
0.0
 11
327.022551072476
 21
318.8841048684
 31
0.0
  0
SPLINE
  5
263
330
45
100
AcDbEntity
  8
0
  6
Continuous
 62
     7
100
AcDbSpline
210
0.0
220
0.0
230
1.0
 70
    24
 71
     3
 72
     9
 73
     5
 74
     3
 42
0.0000000001
 43
0.0000000001
 44
0.00000001
 40
0.0
 40
0.0
 40
0.0
 40
0.0
 40
0.9959292143724952
 40
1.991858428786998
 40
1.991858428786998
 40
1.991858428786998
 40
1.991858428786998
 10
338.467338787389
 20
318.884104868326
 30
0.0
 10
338.7993151921798
 20
318.8841048683255
 30
0.0
 10
339.4632680017755
 20
318.8841048683246
 30
0.0
 10
340.1272208113712
 20
318.8841048683749
 30
0.0
 10
340.459197216176
 20
318.8841048684
 30
0.0
 11
338.467338787389
 21
318.884104868326
 31
0.0
 11
339.4632680017615
 21
318.8841048683374
 31
0.0
 11
340.459197216176
 21
318.8841048684
 31
0.0
  0
SPLINE
  5
264
330
45
100
AcDbEntity
  8
0
  6
Continuous
 62
     7
100
AcDbSpline
210
0.0
220
0.0
230
1.0
 70
    24
 71
     3
 72
     9
 73
     5
 74
     3
 42
0.0000000001
 43
0.0000000001
 44
0.00000001
 40
0.0
 40
0.0
 40
0.0
 40
0.0
 40
0.8131727984741701
 40
1.626345597096019
 40
1.626345597096019
 40
1.626345597096019
 40
1.626345597096019
 10
350.28705922928
 20
318.884104868239
 30
0.0
 10
350.5581168287713
 20
318.8841048682442
 30
0.0
 10
351.1002320278034
 20
318.8841048682548
 30
0.0
 10
351.6423472268353
 20
318.8841048683516
 30
0.0
 10
351.913404826376
 20
318.8841048684
 30
0.0
 11
350.28705922928
 21
318.884104868239
 31
0.0
 11
351.1002320277541
 21
318.8841048682764
 31
0.0
 11
351.913404826376
 21
318.8841048684
 31
0.0
  0
SPLINE
  5
265
330
45
100
AcDbEntity
  8
0
  6
Continuous
 62
     7
100
AcDbSpline
210
0.0
220
0.0
230
1.0
 70
    24
 71
     3
 72
     9
 73
     5
 74
     3
 42
0.0000000001
 43
0.0000000001
 44
0.00000001
 40
0.0
 40
0.0
 40
0.0
 40
0.0
 40
0.5749999998660087
 40
1.149999999609008
 40
1.149999999609008
 40
1.149999999609008
 40
1.149999999609008
 10
359.454588583867
 20
318.884104868471
 30
0.0
 10
359.646255250489
 20
318.8841048684588
 30
0.0
 10
360.0295885836921
 20
318.8841048684344
 30
0.0
 10
360.412921916895
 20
318.8841048684115
 30
0.0
 10
360.604588583476
 20
318.8841048684
 30
0.0
 11
359.454588583867
 21
318.884104868471
 31
0.0
 11
360.029588583733
 21
318.8841048684347
 31
0.0
 11
360.604588583476
 21
318.8841048684
 31
0.0
  0
SPLINE
  5
266
330
45
100
AcDbEntity
  8
0
  6
Continuous
 62
     7
100
AcDbSpline
210
0.0
220
0.0
230
1.0
 70
    24
 71
     3
 72
     9
 73
     5
 74
     3
 42
0.0000000001
 43
0.0000000001
 44
0.00000001
 40
0.0
 40
0.0
 40
0.0
 40
0.0
 40
0.2976419019076388
 40
0.5952838038670052
 40
0.5952838038670052
 40
0.5952838038670052
 40
0.5952838038670052
 10
365.345174873409
 20
318.884104868311
 30
0.0
 10
365.4443888407116
 20
318.8841048683131
 30
0.0
 10
365.6428167753339
 20
318.8841048683172
 30
0.0
 10
365.8412447099562
 20
318.8841048683723
 30
0.0
 10
365.940458677276
 20
318.8841048684
 30
0.0
 11
365.345174873409
 21
318.884104868311
 31
0.0
 11
365.6428167753166
 21
318.8841048683299
 31
0.0
 11
365.940458677276
 21
318.8841048684
 31
0.0
  0
SPLINE
  5
267
330
45
100
AcDbEntity
  8
0
  6
Continuous
 62
     7
100
AcDbSpline
210
0.0
220
0.0
230
1.0
 70
     8
 71
     3
 72
    17
 73
    13
 74
    11
 42
0.0000000001
 43
0.0000000001
 44
0.00000001
 40
0.0
 40
0.0
 40
0.0
 40
0.0
 40
0.036681758889432
 40
0.0847626998181921
 40
0.1594695478260138
 40
0.2605127603158301
 40
0.3813276335795276
 40
0.520042039932828
 40
0.6717571581291053
 40
0.8338053386925652
 40
0.9359853832597445
 40
1.039162943330287
 40
1.039162943330287
 40
1.039162943330287
 40
1.039162943330287
 10
241.532481828136
 20
271.863861718702
 30
0.0
 10
241.5217190870896
 20
271.8578324089008
 30
0.0
 10
241.4968489877227
 20
271.8439001277819
 30
0.0
 10
241.4648894782633
 20
271.799443214892
 30
0.0
 10
241.4405527814562
 20
271.7286576175071
 30
0.0
 10
241.4169506109957
 20
271.6325975984419
 30
0.0
 10
241.396575080463
 20
271.514061629292
 30
0.0
 10
241.3797575735657
 20
271.3779831126362
 30
0.0
 10
241.3670707637633
 20
271.2276574507809
 30
0.0
 10
241.360216255519
 20
271.0891482942925
 30
0.0
 10
241.3576475645569
 20
270.9667012729618
 30
0.0
 10
241.3569359228257
 20
270.8982523992485
 30
0.0
 10
241.356578373576
 20
270.8638617187
 30
0.0
 11
241.532481828136
 21
271.863861718702
 31
0.0
 11
241.5016698731551
 21
271.8439575767844
 31
0.0
 11
241.4719517735143
 21
271.8061606002607
 31
0.0
 11
241.4443417403847
 21
271.7367430289272
 31
0.0
 11
241.4195860964412
 21
271.6387793168537
 31
0.0
 11
241.3984647480856
 21
271.5198250304855
 31
0.0
 11
241.3811409470123
 21
271.3821966451636
 31
0.0
 11
241.368208456093
 21
271.2310337271978
 31
0.0
 11
241.3601726023143
 21
271.0691849154074
 31
0.0
 11
241.3578338095166
 21
270.9670316405896
 31
0.0
 11
241.356578373576
 21
270.8638617187
 31
0.0
  0
SPLINE
  5
268
330
45
100
AcDbEntity
  8
0
  6
Continuous
 62
     7
100
AcDbSpline
210
0.0
220
0.0
230
1.0
 70
     8
 71
     3
 72
    17
 73
    13
 74
    11
 42
0.0000000001
 43
0.0000000001
 44
0.00000001
 40
0.0
 40
0.0
 40
0.0
 40
0.0
 40
0.1661063027459489
 40
0.3276261581512475
 40
0.4801311615412234
 40
0.6194778562846435
 40
0.7425915702980389
 40
0.8465947941625251
 40
0.9305248059326023
 40
0.9893794033117485
 40
1.017107810090661
 40
1.040584027331332
 40
1.040584027331332
 40
1.040584027331332
 40
1.040584027331332
 10
381.381705586522
 20
270.863861718703
 30
0.0
 10
381.3807992607403
 20
270.9192226802102
 30
0.0
 10
381.3790116342083
 20
271.0284160029821
 30
0.0
 10
381.3735700236736
 20
271.1883933894718
 30
0.0
 10
381.3625470064528
 20
271.339151063076
 30
0.0
 10
381.347021381105
 20
271.4766567801366
 30
0.0
 10
381.3279387300988
 20
271.5972993812122
 30
0.0
 10
381.3059156709708
 20
271.698873978778
 30
0.0
 10
381.2811788292137
 20
271.7770507546749
 30
0.0
 10
381.2571623301766
 20
271.8297798295972
 30
0.0
 10
381.2291737048854
 20
271.8548831613926
 30
0.0
 10
381.2131479211582
 20
271.8610392737712
 30
0.0
 10
381.205800444491
 20
271.863861718703
 30
0.0
 11
381.381705586522
 21
270.863861718703
 31
0.0
 11
381.3784916482512
 21
271.0299369258012
 31
0.0
 11
381.3723895096693
 21
271.1913414721897
 31
0.0
 11
381.3611830722274
 21
271.3434341801636
 31
0.0
 11
381.3453295871171
 21
271.481876111477
 31
0.0
 11
381.325693587467
 21
271.6034138179549
 31
0.0
 11
381.3028004269195
 21
271.704866140621
 31
0.0
 11
381.2766617443123
 21
271.7846221193768
 31
0.0
 11
381.2482392751416
 21
271.8361587750589
 31
0.0
 11
381.2272113873296
 21
271.8542334113392
 31
0.0
 11
381.205800444491
 21
271.863861718703
 31
0.0
  0
SPLINE
  5
269
330
45
100
AcDbEntity
  8
0
  6
Continuous
 62
     7
100
AcDbSpline
210
0.0
220
0.0
230
1.0
 70
     8
 71
     3
 72
    11
 73
     7
 74
     5
 42
0.0000000001
 43
0.0000000001
 44
0.00000001
 40
0.0
 40
0.0
 40
0.0
 40
0.0
 40
0.9218246404263192
 40
1.833151101377746
 40
2.731098233411732
 40
3.621981915511694
 40
3.621981915511694
 40
3.621981915511694
 40
3.621981915511694
 10
645.9294493524189
 20
263.47526553517
 30
0.0
 10
646.2366578996807
 20
263.4692993255999
 30
0.0
 10
646.8475763564768
 20
263.4574348525051
 30
0.0
 10
647.7571559081443
 20
263.4068613295128
 30
0.0
 10
648.6500896890026
 20
263.288855827011
 30
0.0
 10
649.2376799271606
 20
263.1874937958347
 30
0.0
 10
649.5303149549118
 20
263.137012901361
 30
0.0
 11
645.9294493524189
 21
263.47526553517
 31
0.0
 11
646.8509748527562
 21
263.4517832029745
 31
0.0
 11
647.7605338422416
 21
263.3950525844642
 31
0.0
 11
648.651425030594
 21
263.2827051659627
 31
0.0
 11
649.5303149549118
 21
263.137012901361
 31
0.0
  0
SPLINE
  5
26A
330
45
100
AcDbEntity
  8
0
  6
Continuous
 62
     7
100
AcDbSpline
210
0.0
220
0.0
230
1.0
 70
     8
 71
     3
 72
    11
 73
     7
 74
     5
 42
0.0000000001
 43
0.0000000001
 44
0.00000001
 40
0.0
 40
0.0
 40
0.0
 40
0.0
 40
0.972345564220649
 40
1.937698553722941
 40
2.903050672292948
 40
3.875395352943118
 40
3.875395352943118
 40
3.875395352943118
 40
3.875395352943118
 10
649.6184106198907
 20
265.004448773915
 30
0.0
 10
649.3110393364396
 20
264.9017115189233
 30
0.0
 10
648.6985072148204
 20
264.6969758387946
 30
0.0
 10
647.7583639428364
 20
264.4571517834108
 30
0.0
 10
646.7930941813424
 20
264.3589751303974
 30
0.0
 10
646.14751576023
 20
264.3405348029219
 30
0.0
 10
645.8235617009759
 20
264.3312813664
 30
0.0
 11
649.6184106198907
 21
265.004448773915
 31
0.0
 11
648.6925234102996
 21
264.7074828307916
 31
0.0
 11
647.7541859475726
 21
264.4807027602736
 31
0.0
 11
646.795098939584
 21
264.3708991904999
 31
0.0
 11
645.8235617009759
 21
264.3312813664
 31
0.0
  0
SPLINE
  5
26B
330
45
100
AcDbEntity
  8
0
  6
Continuous
 62
     7
100
AcDbSpline
210
0.0
220
0.0
230
1.0
 70
     8
 71
     3
 72
    39
 73
    35
 74
    33
 42
0.0000000001
 43
0.0000000001
 44
0.00000001
 40
0.0
 40
0.0
 40
0.0
 40
0.0
 40
0.0217171875544927
 40
0.0628515278535656
 40
0.1194694822950366
 40
0.1976316655434566
 40
0.2949061897416079
 40
0.4301056215668211
 40
0.5875628685515732
 40
0.7667559405329738
 40
0.9979878140439618
 40
1.254456548554497
 40
1.533508231795642
 40
1.866342684050755
 40
2.219907920456283
 40
2.590395353590397
 40
3.203822337200167
 40
3.833778589869744
 40
4.463736933337394
 40
5.077165470018211
 40
5.447649323035288
 40
5.801211053130988
 40
6.134042751416387
 40
6.41309561747051
 40
6.669565751755649
 40
6.900798686563669
 40
7.079991704278783
 40
7.237448793450524
 40
7.37264843728684
 40
7.469923760099231
 40
7.548086927031322
 40
7.604705649913791
 40
7.645840222392743
 40
7.667557176709846
 40
7.667557176709846
 40
7.667557176709846
 40
7.667557176709846
 10
639.968567642376
 20
267.173599633
 30
0.0
 10
639.9670579709971
 20
267.1665197374846
 30
0.0
 10
639.9626888438947
 20
267.1460298720693
 30
0.0
 10
639.9544111053214
 20
267.1070765232156
 30
0.0
 10
639.9422274867427
 20
267.0497180623369
 30
0.0
 10
639.9261570479064
 20
266.9740543063494
 30
0.0
 10
639.9046383386246
 20
266.8727696046049
 30
0.0
 10
639.8776146730976
 20
266.7456328291449
 30
0.0
 10
639.8449086205485
 20
266.5917876637254
 30
0.0
 10
639.8055471998186
 20
266.4066311858551
 30
0.0
 10
639.7593304698063
 20
266.1891906945507
 30
0.0
 10
639.7061953386618
 20
265.9391909175151
 30
0.0
 10
639.646016229639
 20
265.6560642372065
 30
0.0
 10
639.5790996819271
 20
265.3412810786074
 30
0.0
 10
639.5058428477898
 20
264.9966860966309
 30
0.0
 10
639.4131403656521
 20
264.5606040361783
 30
0.0
 10
639.3012952627416
 20
264.0344022799001
 30
0.0
 10
639.1714752758155
 20
263.4235986550436
 30
0.0
 10
639.0416510600924
 20
262.8127953997159
 30
0.0
 10
638.9298062092638
 20
262.286593568196
 30
0.0
 10
638.8371155064275
 20
261.8505108895433
 30
0.0
 10
638.7638710330182
 20
261.5059166334536
 30
0.0
 10
638.6969635988239
 20
261.1911332679662
 30
0.0
 10
638.6367859958895
 20
260.9080063259669
 30
0.0
 10
638.583649143826
 20
260.6580056729331
 30
0.0
 10
638.5374313449165
 20
260.4405645886536
 30
0.0
 10
638.4980728497598
 20
260.2554071995069
 30
0.0
 10
638.4653690442835
 20
260.1015615563749
 30
0.0
 10
638.4383431278866
 20
259.9744249689286
 30
0.0
 10
638.4168144902621
 20
259.8731416974231
 30
0.0
 10
638.4007322674979
 20
259.7974795763042
 30
0.0
 10
638.3885388586089
 20
259.7401225188598
 30
0.0
 10
638.3802558900046
 20
259.7011700220896
 30
0.0
 10
638.3758902600164
 20
259.6806794119285
 30
0.0
 10
638.3743818131759
 20
259.673599335
 30
0.0
 11
639.968567642376
 21
267.173599633
 31
0.0
 11
639.9640403359682
 21
267.1523595828125
 31
0.0
 11
639.9554844228385
 21
267.1121248925272
 31
0.0
 11
639.9437197546744
 21
267.0567427171625
 31
0.0
 11
639.9274799271212
 21
266.9802862269788
 31
0.0
 11
639.9072642652154
 21
266.8851355040615
 31
0.0
 11
639.8791565423636
 21
266.7528901174427
 31
0.0
 11
639.846415369143
 21
266.5988745331529
 31
0.0
 11
639.809155019915
 21
266.4235981131143
 31
0.0
 11
639.7610797008675
 21
266.1974191065158
 31
0.0
 11
639.707759885415
 21
265.9465541845726
 31
0.0
 11
639.6497423974631
 21
265.6736003184863
 31
0.0
 11
639.5805361336134
 21
265.3480403921257
 31
0.0
 11
639.5070162123757
 21
265.0022034398264
 31
0.0
 11
639.4299800721762
 21
264.6398136342116
 31
0.0
 11
639.3024419230788
 21
264.0397913973359
 31
0.0
 11
639.171474727785
 21
263.4235994840212
 31
0.0
 11
639.0405050789848
 21
262.8074059546835
 31
0.0
 11
638.912969383394
 21
262.2073816085403
 31
0.0
 11
638.835942770718
 21
261.844993437809
 31
0.0
 11
638.7624345028619
 21
261.499157593014
 31
0.0
 11
638.6932368604296
 21
261.1735986495562
 31
0.0
 11
638.6352209743477
 21
260.9006432337551
 31
0.0
 11
638.5818999168262
 21
260.6497771447653
 31
0.0
 11
638.5338242379779
 21
260.4235971296375
 31
0.0
 11
638.4965661611845
 21
260.2483202820178
 31
0.0
 11
638.4638264270255
 21
260.0943045531534
 31
0.0
 11
638.4357149926783
 21
259.9620597386902
 31
0.0
 11
638.4154900235644
 21
259.8669101771957
 31
0.0
 11
638.3992386870489
 21
259.7904551268307
 31
0.0
 11
638.3874650327323
 21
259.7350740755146
 31
0.0
 11
638.3789061886686
 21
259.6948397712293
 31
0.0
 11
638.3743818131759
 21
259.673599335
 31
0.0
  0
DIMENSION
  5
282
330
45
100
AcDbEntity
  8
1
100
AcDbDimension
  2
*D2
 10
511.7228881529623
 20
139.8168073503282
 30
0.0
 11
507.0611627935929
 21
193.524842049728
 31
0.0
 70
    32
  1
<>
 71
     5
 42
-1.0
 53
87.49999999996258
  3
ME10_DIM_10
100
AcDbAlignedDimension
 13
487.004530126376
 23
251.0008295369
 33
0.0
 14
482.206397516176
 24
141.1055251629
 34
0.0
 50
87.49999999996258
100
AcDbRotatedDimension
  0
DIMENSION
  5
28D
330
45
100
AcDbEntity
  8
1
100
AcDbDimension
  2
*D3
 10
311.369151624876
 20
110.159724754394
 30
0.0
 11
393.929782623703
 21
117.159724754394
 31
0.0
 70
    32
  1
181
 71
     5
 42
-1.0
 53
0.00013888888889
  3
ME10_DIM_11
100
AcDbAlignedDimension
 13
491.847103377676
 23
247.2860638246
 33
0.0
 14
311.369151624876
 24
129.2989240194
 34
0.0
100
AcDbRotatedDimension
  0
DIMENSION
  5
298
330
45
100
AcDbEntity
  8
1
100
AcDbDimension
  2
*D4
 10
123.369151624876
 20
279.5638617187
 30
0.0
 11
116.369151624876
 21
208.468221006251
 31
0.0
 70
    32
  1
149
 71
     5
 42
-1.0
 53
90.0
  3
ME10_DIM_12
100
AcDbAlignedDimension
 13
255.695304787976
 23
131.064295503
 33
0.0
 14
133.369151624876
 24
279.5638617187
 34
0.0
 50
90.0
100
AcDbRotatedDimension
  0
DIMENSION
  5
2A3
330
45
100
AcDbEntity
  8
1
100
AcDbDimension
  2
*D5
 10
123.369151624876
 20
279.5638617187
 30
0.0
 11
116.369151624876
 21
317.971731330113
 31
0.0
 70
    32
  1
<>
 71
     5
 42
-1.0
 53
90.0
  3
ME10_DIM_13
100
AcDbAlignedDimension
 13
262.920569721176
 23
354.5638677187
 33
0.0
 14
133.369151624876
 24
279.5638617187
 34
0.0
 50
90.0
100
AcDbRotatedDimension
  0
DIMENSION
  5
2AE
330
45
100
AcDbEntity
  8
1
100
AcDbDimension
  2
*D6
 10
131.369151624876
 20
374.287434070425
 30
0.0
 11
311.876947274156
 21
381.287434070425
 31
0.0
 70
    33
  1
<>
 71
     5
 42
-1.0
 53
0.00013888888889
  3
ME10_DIM_14
100
AcDbAlignedDimension
 13
491.369151624876
 23
276.064295503
 33
0.0
 14
131.369151624876
 24
276.064295503
 34
0.0
  0
HATCH
  5
2AF
330
45
100
AcDbEntity
  8
0
  6
Continuous
 62
     7
100
AcDbHatch
 10
0.0
 20
0.0
 30
0.0
210
0.0
220
0.0
230
1.0
  2
CUSTOM0
 70
     0
 71
     0
 91
        1
 92
        1
 93
      118
 72
     1
 10
367.569151624876
 20
314.1639272187
 11
367.569151624876
 21
318.8517746185
 72
     1
 10
367.569151624876
 20
318.8517746185
 11
359.817733528576
 21
340.1486252465
 72
     1
 10
359.817733528576
 20
340.1486252465
 11
359.817733528576
 21
339.7638677187
 72
     1
 10
359.817733528576
 20
339.7638677187
 11
262.920569721176
 21
339.7638677187
 72
     1
 10
262.920569721176
 20
339.7638677187
 11
262.920569721176
 21
340.1486252465
 72
     1
 10
262.920569721176
 20
340.1486252465
 11
255.169151624876
 21
318.8517746185
 72
     1
 10
255.169151624876
 20
318.8517746185
 11
255.169151624876
 21
314.1639272187
 72
     1
 10
255.169151624876
 20
314.1639272187
 11
253.462915064276
 21
314.1639272187
 72
     1
 10
253.462915064276
 20
314.1639272187
 11
240.869523396669
 21
279.563860764671
 72
     1
 10
240.869523396669
 20
279.563860764671
 11
240.869151624876
 21
279.5638617187
 72
     1
 10
240.869151624876
 20
279.5638617187
 11
240.869151624876
 21
271.8638617187
 72
     1
 10
240.869151624876
 20
271.8638617187
 11
240.369151624876
 21
271.8638617187
 72
     1
 10
240.369151624876
 20
271.8638617187
 11
240.369151624876
 21
250.5638617187
 72
     1
 10
240.369151624876
 20
250.5638617187
 11
236.969151624876
 21
250.5638617187
 72
     1
 10
236.969151624876
 20
250.5638617187
 11
236.770482294111
 21
250.583795140861
 72
     1
 10
236.770482294111
 20
250.583795140861
 11
236.579733282598
 21
250.642800724699
 72
     1
 10
236.579733282598
 20
250.642800724699
 11
236.404509151511
 21
250.738526103792
 72
     1
 10
236.404509151511
 20
250.738526103792
 11
236.251795534007
 21
250.867155009355
 72
     1
 10
236.251795534007
 20
250.867155009355
 11
236.127680640099
 21
251.023559412834
 72
     1
 10
236.127680640099
 20
251.023559412834
 11
236.037112538939
 21
251.201503964225
 72
     1
 10
236.037112538939
 20
251.201503964225
 11
235.983701894918
 21
251.393894575802
 72
     1
 10
235.983701894918
 20
251.393894575802
 11
235.969151624876
 21
251.5638617187
 72
     1
 10
235.969151624876
 20
251.5638617187
 11
235.989085047065
 21
251.762531049497
 72
     1
 10
235.989085047065
 20
251.762531049497
 11
236.048090630904
 21
251.953280061011
 72
     1
 10
236.048090630904
 20
251.953280061011
 11
236.143816009997
 21
252.128504192097
 72
     1
 10
236.143816009997
 20
252.128504192097
 11
236.272444915559
 21
252.281217809601
 72
     1
 10
236.272444915559
 20
252.281217809601
 11
236.428849319038
 21
252.40533270351
 72
     1
 10
236.428849319038
 20
252.40533270351
 11
236.60679387043
 21
252.495900804669
 72
     1
 10
236.60679387043
 20
252.495900804669
 11
236.799184482006
 21
252.54931144869
 72
     1
 10
236.799184482006
 20
252.54931144869
 11
236.969151624876
 21
252.5638617187
 72
     1
 10
236.969151624876
 20
252.5638617187
 11
237.469151624876
 21
252.5638617187
 72
     1
 10
237.469151624876
 20
252.5638617187
 11
237.469151624876
 21
279.5638617187
 72
     1
 10
237.469151624876
 20
279.5638617187
 11
228.976253807076
 21
279.5638617187
 72
     1
 10
228.976253807076
 20
279.5638617187
 11
225.783686807076
 21
281.3881857187
 72
     1
 10
225.783686807076
 20
281.3881857187
 11
248.825180389411
 21
344.6941698137
 72
     1
 10
248.825180389411
 20
344.6941698137
 11
250.12538341946
 21
347.392226902081
 72
     1
 10
250.12538341946
 20
347.392226902081
 11
251.935690149798
 21
349.778192013631
 72
     1
 10
251.935690149798
 20
349.778192013631
 11
254.183929363855
 21
351.756944248707
 72
     1
 10
254.183929363855
 20
351.756944248707
 11
256.780470858896
 21
353.24959700001
 72
     1
 10
256.780470858896
 20
353.24959700001
 11
259.621798719375
 21
354.196642912683
 72
     1
 10
259.621798719375
 20
354.196642912683
 11
262.594638169821
 21
354.560326254764
 72
     1
 10
262.594638169821
 20
354.560326254764
 11
262.920569721176
 21
354.5638677187
 72
     1
 10
262.920569721176
 20
354.5638677187
 11
323.171416216376
 21
354.5638677187
 72
     1
 10
323.171416216376
 20
354.5638677187
 11
323.171416216376
 21
354.6638677187
 72
     1
 10
323.171416216376
 20
354.6638677187
 11
323.997470216376
 21
354.6638677187
 72
     1
 10
323.997470216376
 20
354.6638677187
 11
323.997470216376
 21
354.5638677187
 72
     1
 10
323.997470216376
 20
354.5638677187
 11
324.575092716376
 21
354.5638677187
 72
     1
 10
324.575092716376
 20
354.5638677187
 11
324.575092716376
 21
354.6638677187
 72
     1
 10
324.575092716376
 20
354.6638677187
 11
325.314194216376
 21
354.6638677187
 72
     1
 10
325.314194216376
 20
354.6638677187
 11
325.314194216376
 21
354.5638677187
 72
     1
 10
325.314194216376
 20
354.5638677187
 11
325.693057216376
 21
354.5638677187
 72
     1
 10
325.693057216376
 20
354.5638677187
 11
325.693057216376
 21
354.6638677187
 72
     1
 10
325.693057216376
 20
354.6638677187
 11
328.040790716376
 21
354.6638677187
 72
     1
 10
328.040790716376
 20
354.6638677187
 11
328.040790716376
 21
354.5638677187
 72
     1
 10
328.040790716376
 20
354.5638677187
 11
328.475557216376
 21
354.5638677187
 72
     1
 10
328.475557216376
 20
354.5638677187
 11
328.475557216376
 21
354.6638677187
 72
     1
 10
328.475557216376
 20
354.6638677187
 11
329.258135216376
 21
354.6638677187
 72
     1
 10
329.258135216376
 20
354.6638677187
 11
329.258135216376
 21
354.5638677187
 72
     1
 10
329.258135216376
 20
354.5638677187
 11
330.345049216376
 21
354.5638677187
 72
     1
 10
330.345049216376
 20
354.5638677187
 11
330.345049216376
 21
354.6638677187
 72
     1
 10
330.345049216376
 20
354.6638677187
 11
331.127628216376
 21
354.6638677187
 72
     1
 10
331.127628216376
 20
354.6638677187
 11
331.127628216376
 21
354.5638677187
 72
     1
 10
331.127628216376
 20
354.5638677187
 11
332.214542216376
 21
354.5638677187
 72
     1
 10
332.214542216376
 20
354.5638677187
 11
332.214542216376
 21
354.6638677187
 72
     1
 10
332.214542216376
 20
354.6638677187
 11
332.997120216376
 21
354.6638677187
 72
     1
 10
332.997120216376
 20
354.6638677187
 11
332.997120216376
 21
354.5638677187
 72
     1
 10
332.997120216376
 20
354.5638677187
 11
333.562315518833
 21
354.563867718703
 72
     1
 10
333.562315518833
 20
354.563867718703
 11
333.562315518876
 21
354.6638677187
 72
     1
 10
333.562315518876
 20
354.6638677187
 11
334.388370216376
 21
354.6638677187
 72
     1
 10
334.388370216376
 20
354.6638677187
 11
334.388370216376
 21
354.5638677187
 72
     1
 10
334.388370216376
 20
354.5638677187
 11
334.953565716376
 21
354.5638677187
 72
     1
 10
334.953565716376
 20
354.5638677187
 11
334.953565716376
 21
354.6638677187
 72
     1
 10
334.953565716376
 20
354.6638677187
 11
335.736143410076
 21
354.6638677187
 72
     1
 10
335.736143410076
 20
354.6638677187
 11
335.736143410076
 21
354.5638677187
 72
     1
 10
335.736143410076
 20
354.5638677187
 11
336.083957216376
 21
354.5638677187
 72
     1
 10
336.083957216376
 20
354.5638677187
 11
336.083957216376
 21
354.6638677187
 72
     1
 10
336.083957216376
 20
354.6638677187
 11
337.996926216376
 21
354.6638677187
 72
     1
 10
337.996926216376
 20
354.6638677187
 11
337.996926216376
 21
354.5638677187
 72
     1
 10
337.996926216376
 20
354.5638677187
 11
338.475167148376
 21
354.5638677187
 72
     1
 10
338.475167148376
 20
354.5638677187
 11
338.475167148376
 21
354.6638677187
 72
     1
 10
338.475167148376
 20
354.6638677187
 11
340.798233667176
 21
354.6638677187
 72
     1
 10
340.798233667176
 20
354.6638677187
 11
340.798233667176
 21
354.5638677187
 72
     1
 10
340.798233667176
 20
354.5638677187
 11
359.817733528576
 21
354.5638677187
 72
     1
 10
359.817733528576
 20
354.5638677187
 11
362.797773490546
 21
354.264866386322
 72
     1
 10
362.797773490546
 20
354.264866386322
 11
365.65900866325
 21
353.379782628746
 72
     1
 10
365.65900866325
 20
353.379782628746
 11
368.287370629546
 21
351.943901942348
 72
     1
 10
368.287370629546
 20
351.943901942348
 11
370.578074892113
 21
350.014468358911
 72
     1
 10
370.578074892113
 20
350.014468358911
 11
372.439798300739
 21
347.668402306725
 72
     1
 10
372.439798300739
 20
347.668402306725
 11
373.798319818129
 21
344.999234035853
 72
     1
 10
373.798319818129
 20
344.999234035853
 11
373.913122860376
 21
344.6941698137
 72
     1
 10
373.913122860376
 20
344.6941698137
 11
396.954616442776
 21
281.3881857187
 72
     1
 10
396.954616442776
 20
281.3881857187
 11
393.762049442776
 21
279.5638617187
 72
     1
 10
393.762049442776
 20
279.5638617187
 11
385.269151624876
 21
279.5638617187
 72
     1
 10
385.269151624876
 20
279.5638617187
 11
385.269151624876
 21
252.5638617187
 72
     1
 10
385.269151624876
 20
252.5638617187
 11
385.769151624876
 21
252.5638617187
 72
     1
 10
385.769151624876
 20
252.5638617187
 11
385.967820955702
 21
252.543928296544
 72
     1
 10
385.967820955702
 20
252.543928296544
 11
386.158569967215
 21
252.484922712706
 72
     1
 10
386.158569967215
 20
252.484922712706
 11
386.333794098302
 21
252.389197333613
 72
     1
 10
386.333794098302
 20
252.389197333613
 11
386.486507715806
 21
252.26056842805
 72
     1
 10
386.486507715806
 20
252.26056842805
 11
386.610622609714
 21
252.104164024571
 72
     1
 10
386.610622609714
 20
252.104164024571
 11
386.701190710874
 21
251.92621947318
 72
     1
 10
386.701190710874
 20
251.92621947318
 11
386.754601354895
 21
251.733828861603
 72
     1
 10
386.754601354895
 20
251.733828861603
 11
386.769151624876
 21
251.5638617187
 72
     1
 10
386.769151624876
 20
251.5638617187
 11
386.749218202748
 21
251.365192387908
 72
     1
 10
386.749218202748
 20
251.365192387908
 11
386.690212618909
 21
251.174443376394
 72
     1
 10
386.690212618909
 20
251.174443376394
 11
386.594487239816
 21
250.999219245308
 72
     1
 10
386.594487239816
 20
250.999219245308
 11
386.465858334254
 21
250.846505627803
 72
     1
 10
386.465858334254
 20
250.846505627803
 11
386.309453930775
 21
250.722390733895
 72
     1
 10
386.309453930775
 20
250.722390733895
 11
386.131509379383
 21
250.631822632736
 72
     1
 10
386.131509379383
 20
250.631822632736
 11
385.939118767807
 21
250.578411988714
 72
     1
 10
385.939118767807
 20
250.578411988714
 11
385.769151624876
 21
250.5638617187
 72
     1
 10
385.769151624876
 20
250.5638617187
 11
382.369151624876
 21
250.5638617187
 72
     1
 10
382.369151624876
 20
250.5638617187
 11
382.369151624876
 21
271.8638617187
 72
     1
 10
382.369151624876
 20
271.8638617187
 11
381.869151624876
 21
271.8638617187
 72
     1
 10
381.869151624876
 20
271.8638617187
 11
381.869151624876
 21
279.5638617187
 72
     1
 10
381.869151624876
 20
279.5638617187
 11
381.868779853143
 21
279.563860764672
 72
     1
 10
381.868779853143
 20
279.563860764672
 11
369.275388185576
 21
314.1639272187
 72
     1
 10
369.275388185576
 20
314.1639272187
 11
367.569151624876
 21
314.1639272187
 97
        0
 75
     1
 76
     2
 52
180.0
 41
0.5
 77
     0
 78
     1
 53
315.0000000000002
 43
-0.3101288139696181
 44
-0.3101288139696196
 45
-0.0000000000000053
 46
2.245064030267274
 79
     0
 98
        1
 10
0.0
 20
0.0
  0
HATCH
  5
2B0
330
45
100
AcDbEntity
  8
0
  6
Continuous
 62
     7
100
AcDbHatch
 10
0.0
 20
0.0
 30
0.0
210
0.0
220
0.0
230
1.0
  2
CUSTOM1
 70
     0
 71
     0
 91
        1
 92
        1
 93
        4
 72
     1
 10
188.169151624876
 20
258.064295503
 11
188.169151624876
 21
256.464295503
 72
     1
 10
188.169151624876
 20
256.464295503
 11
182.369151624876
 21
256.464295503
 72
     1
 10
182.369151624876
 20
256.464295503
 11
182.369151624876
 21
258.064295503
 72
     1
 10
182.369151624876
 20
258.064295503
 11
188.169151624876
 21
258.064295503
 97
        0
 75
     1
 76
     2
 52
180.0
 41
0.0625
 77
     0
 78
     1
 53
315.0000000000002
 43
-0.0294958102177693
 44
-0.0294958102177695
 45
-0.0000000000000007
 46
0.280633003783381
 79
     0
 98
        1
 10
0.0
 20
0.0
  0
HATCH
  5
2B1
330
45
100
AcDbEntity
  8
0
  6
Continuous
 62
     7
100
AcDbHatch
 10
0.0
 20
0.0
 30
0.0
210
0.0
220
0.0
230
1.0
  2
CUSTOM2
 70
     0
 71
     0
 91
        1
 92
        1
 93
        4
 72
     1
 10
194.569151624876
 20
256.464295503
 11
194.569151624876
 21
258.064295503
 72
     1
 10
194.569151624876
 20
258.064295503
 11
200.369151624876
 21
258.064295503
 72
     1
 10
200.369151624876
 20
258.064295503
 11
200.369151624876
 21
256.464295503
 72
     1
 10
200.369151624876
 20
256.464295503
 11
194.569151624876
 21
256.464295503
 97
        0
 75
     1
 76
     2
 52
180.0
 41
0.0625
 77
     0
 78
     1
 53
315.0000000000002
 43
-0.0294958102177693
 44
-0.0294958102177695
 45
-0.0000000000000007
 46
0.280633003783381
 79
     0
 98
        1
 10
0.0
 20
0.0
  0
HATCH
  5
2B2
330
45
100
AcDbEntity
  8
0
  6
Continuous
 62
     7
100
AcDbHatch
 10
0.0
 20
0.0
 30
0.0
210
0.0
220
0.0
230
1.0
  2
CUSTOM3
 70
     0
 71
     0
 91
        1
 92
        1
 93
       43
 72
     1
 10
188.369151624876
 20
256.714295503
 11
188.369151624876
 21
272.464295503
 72
     1
 10
188.369151624876
 20
272.464295503
 11
194.369151624876
 21
272.464295503
 72
     1
 10
194.369151624876
 20
272.464295503
 11
194.369151624876
 21
256.714295503
 72
     1
 10
194.369151624876
 20
256.714295503
 11
194.374134980446
 21
256.664628170309
 72
     1
 10
194.374134980446
 20
256.664628170309
 11
194.388886376406
 21
256.616940917431
 72
     1
 10
194.388886376406
 20
256.616940917431
 11
194.412817721179
 21
256.573134884659
 72
     1
 10
194.412817721179
 20
256.573134884659
 11
194.44497494757
 21
256.534956480283
 72
     1
 10
194.44497494757
 20
256.534956480283
 11
194.484076048439
 21
256.503927756806
 72
     1
 10
194.484076048439
 20
256.503927756806
 11
194.528562186287
 21
256.481285731516
 72
     1
 10
194.528562186287
 20
256.481285731516
 11
194.576659839181
 21
256.467933070511
 72
     1
 10
194.576659839181
 20
256.467933070511
 11
194.619151624876
 21
256.464295503
 72
     1
 10
194.619151624876
 20
256.464295503
 11
197.369151624876
 21
256.464295503
 72
     1
 10
197.369151624876
 20
256.464295503
 11
197.369151624876
 21
254.1390123367
 72
     1
 10
197.369151624876
 20
254.1390123367
 11
197.358387576941
 21
254.031730898047
 72
     1
 10
197.358387576941
 20
254.031730898047
 11
197.326524561668
 21
253.92872643183
 72
     1
 10
197.326524561668
 20
253.92872643183
 11
197.274832856958
 21
253.834105401043
 72
     1
 10
197.274832856958
 20
253.834105401043
 11
197.205373247954
 21
253.751640047591
 72
     1
 10
197.205373247954
 20
253.751640047591
 11
197.140821815153
 21
253.69803422781
 72
     1
 10
197.140821815153
 20
253.69803422781
 11
195.403387014077
 21
252.714161907002
 72
     1
 10
195.403387014077
 20
252.714161907002
 11
194.502167194276
 21
252.3677585846
 72
     1
 10
194.502167194276
 20
252.3677585846
 11
193.011904039576
 21
255.324295503
 72
     1
 10
193.011904039576
 20
255.324295503
 11
192.649651624876
 21
255.324295503
 72
     1
 10
192.649651624876
 20
255.324295503
 11
191.369151624876
 21
255.740355174
 72
     1
 10
191.369151624876
 20
255.740355174
 11
190.088651624876
 21
255.324295503
 72
     1
 10
190.088651624876
 20
255.324295503
 11
189.726399210276
 21
255.324295503
 72
     1
 10
189.726399210276
 20
255.324295503
 11
188.236136055469
 21
252.367758584636
 72
     1
 10
188.236136055469
 20
252.367758584636
 11
186.411917143026
 21
253.179491170632
 72
     1
 10
186.411917143026
 20
253.179491170632
 11
185.597481434601
 21
253.69803422784
 72
     1
 10
185.597481434601
 20
253.69803422784
 11
185.516085262326
 21
253.768743738754
 72
     1
 10
185.516085262326
 20
253.768743738754
 11
185.450359405504
 21
253.85421469024
 72
     1
 10
185.450359405504
 20
253.85421469024
 11
185.402924146667
 21
253.951039625159
 72
     1
 10
185.402924146667
 20
253.951039625159
 11
185.375670579894
 21
254.055358438904
 72
     1
 10
185.375670579894
 20
254.055358438904
 11
185.369151624876
 21
254.1390123367
 72
     1
 10
185.369151624876
 20
254.1390123367
 11
185.369151624876
 21
256.464295503
 72
     1
 10
185.369151624876
 20
256.464295503
 11
188.119151624876
 21
256.464295503
 72
     1
 10
188.119151624876
 20
256.464295503
 11
188.168818957605
 21
256.469278858548
 72
     1
 10
188.168818957605
 20
256.469278858548
 11
188.216506210484
 21
256.484030254507
 72
     1
 10
188.216506210484
 20
256.484030254507
 11
188.260312243255
 21
256.50796159928
 72
     1
 10
188.260312243255
 20
256.50796159928
 11
188.298490647631
 21
256.540118825671
 72
     1
 10
188.298490647631
 20
256.540118825671
 11
188.329519371108
 21
256.579219926541
 72
     1
 10
188.329519371108
 20
256.579219926541
 11
188.352161396398
 21
256.623706064389
 72
     1
 10
188.352161396398
 20
256.623706064389
 11
188.365514057404
 21
256.671803717283
 72
     1
 10
188.365514057404
 20
256.671803717283
 11
188.369151624876
 21
256.714295503
 97
        0
 75
     1
 76
     2
 52
90.00000000000001
 41
0.25
 77
     0
 78
     1
 53
224.9999999999997
 43
-0.3101288139683708
 44
0.3101288139683742
 45
1.122532015133637
 46
-0.0000000000000061
 79
     0
 98
        1
 10
0.0
 20
0.0
  0
HATCH
  5
2B3
330
45
100
AcDbEntity
  8
0
  6
Continuous
 62
     7
100
AcDbHatch
 10
0.0
 20
0.0
 30
0.0
210
0.0
220
0.0
230
1.0
  2
CUSTOM4
 70
     0
 71
     0
 91
        1
 92
        1
 93
        4
 72
     1
 10
421.369151624876
 20
276.064295503
 11
421.369151624907
 21
254.367008393019
 72
     1
 10
421.369151624907
 20
254.367008393019
 11
406.369151624876
 21
255.0219225366
 72
     1
 10
406.369151624876
 20
255.0219225366
 11
406.369151624876
 21
276.064295503
 72
     1
 10
406.369151624876
 20
276.064295503
 11
421.369151624876
 21
276.064295503
 97
        0
 75
     1
 76
     2
 52
90.00000000000001
 41
1.0
 77
     0
 78
     1
 53
225.0000000000002
 43
-1.432660829103263
 44
1.432660829103253
 45
4.490128060534548
 46
0.0000000000000151
 79
     0
 98
        1
 10
0.0
 20
0.0
  0
HATCH
  5
2B4
330
45
100
AcDbEntity
  8
0
  6
Continuous
 62
     7
100
AcDbHatch
 10
0.0
 20
0.0
 30
0.0
210
0.0
220
0.0
230
1.0
  2
CUSTOM5
 70
     0
 71
     0
 91
        1
 92
        1
 93
        4
 72
     1
 10
184.869151624876
 20
258.064295503
 11
173.374563141276
 21
258.064295503
 72
     1
 10
173.374563141276
 20
258.064295503
 11
173.374563141276
 21
276.064295503
 72
     1
 10
173.374563141276
 20
276.064295503
 11
184.869151624876
 21
276.064295503
 72
     1
 10
184.869151624876
 20
276.064295503
 11
184.869151624876
 21
258.064295503
 97
        0
 75
     1
 76
     2
 52
90.00000000000001
 41
1.0
 77
     0
 78
     1
 53
225.0000000000002
 43
-1.432660829103263
 44
1.432660829103253
 45
4.490128060534548
 46
0.0000000000000151
 79
     0
 98
        1
 10
0.0
 20
0.0
  0
HATCH
  5
2B5
330
45
100
AcDbEntity
  8
0
  6
Continuous
 62
     7
100
AcDbHatch
 10
0.0
 20
0.0
 30
0.0
210
0.0
220
0.0
230
1.0
  2
CUSTOM6
 70
     0
 71
     0
 91
        1
 92
        1
 93
       27
 72
     1
 10
253.363766497276
 20
146.064295503
 11
357.169091424776
 21
146.064295503
 72
     1
 10
357.169091424776
 20
146.064295503
 11
387.832273403676
 21
144.7255120652
 72
     1
 10
387.832273403676
 20
144.7255120652
 11
382.363887324176
 21
138.2085433093
 72
     1
 10
382.363887324176
 20
138.2085433093
 11
379.50444589345
 21
135.42101170745
 72
     1
 10
379.50444589345
 20
135.42101170745
 11
376.148205877985
 21
133.257128465314
 72
     1
 10
376.148205877985
 20
133.257128465314
 11
372.42896997598
 21
131.803160779205
 72
     1
 10
372.42896997598
 20
131.803160779205
 11
368.495012386121
 21
131.11707375251
 72
     1
 10
368.495012386121
 20
131.11707375251
 11
367.042998461776
 21
131.064295503
 72
     1
 10
367.042998461776
 20
131.064295503
 11
255.695304787976
 21
131.064295503
 72
     1
 10
255.695304787976
 20
131.064295503
 11
251.721918172106
 21
131.462963946183
 72
     1
 10
251.721918172106
 20
131.462963946183
 11
247.906937941834
 21
132.643075622951
 72
     1
 10
247.906937941834
 20
132.643075622951
 11
244.402455320106
 21
134.557583204815
 72
     1
 10
244.402455320106
 20
134.557583204815
 11
241.348182970017
 21
137.130161316065
 72
     1
 10
241.348182970017
 20
137.130161316065
 11
240.374415925676
 21
138.2085433093
 72
     1
 10
240.374415925676
 20
138.2085433093
 11
206.048262762576
 21
179.1168596613
 72
     1
 10
206.048262762576
 20
179.1168596613
 11
203.799616822873
 21
182.416909534461
 72
     1
 10
203.799616822873
 20
182.416909534461
 11
202.251412791902
 21
186.097915104342
 72
     1
 10
202.251412791902
 20
186.097915104342
 11
201.46537267869
 21
190.013126294997
 72
     1
 10
201.46537267869
 20
190.013126294997
 11
201.369151624876
 21
191.9726118551
 72
     1
 10
201.369151624876
 20
191.9726118551
 11
201.369151624876
 21
258.064295503
 72
     1
 10
201.369151624876
 20
258.064295503
 11
197.869151624876
 21
258.064295503
 72
     1
 10
197.869151624876
 20
258.064295503
 11
197.869151624876
 21
276.064295503
 72
     1
 10
197.869151624876
 20
276.064295503
 11
216.369151624876
 21
276.064295503
 72
     1
 10
216.369151624876
 20
276.064295503
 11
216.369151624876
 21
219.064295503
 72
     1
 10
216.369151624876
 20
219.064295503
 11
226.369151624876
 21
221.1898611197
 72
     1
 10
226.369151624876
 20
221.1898611197
 11
226.369151624876
 21
178.2352247578
 72
     1
 10
226.369151624876
 20
178.2352247578
 11
253.363766497276
 21
146.064295503
 97
        0
 75
     1
 76
     2
 52
90.00000000000001
 41
1.0
 77
     0
 78
     1
 53
225.0000000000002
 43
-1.432660829103263
 44
1.432660829103253
 45
4.490128060534548
 46
0.0000000000000151
 79
     0
 98
        1
 10
0.0
 20
0.0
  0
HATCH
  5
2B6
330
45
100
AcDbEntity
  8
0
  6
Continuous
 62
     7
100
AcDbHatch
 10
0.0
 20
0.0
 30
0.0
210
0.0
220
0.0
230
1.0
  2
CUSTOM7
 70
     0
 71
     0
 91
        1
 92
        1
 93
       22
 72
     1
 10
378.619151624876
 20
246.7597622701
 11
376.119151624876
 21
246.7597622701
 72
     1
 10
376.119151624876
 20
246.7597622701
 11
376.119151624876
 21
247.2597622701
 72
     1
 10
376.119151624876
 20
247.2597622701
 11
376.159018469224
 21
247.657100931712
 72
     1
 10
376.159018469224
 20
247.657100931712
 11
376.277029636901
 21
248.038598954739
 72
     1
 10
376.277029636901
 20
248.038598954739
 11
376.468480395087
 21
248.389047216912
 72
     1
 10
376.468480395087
 20
248.389047216912
 11
376.725738206212
 21
248.694474451921
 72
     1
 10
376.725738206212
 20
248.694474451921
 11
377.03854701317
 21
248.942704239738
 72
     1
 10
377.03854701317
 20
248.942704239738
 11
377.394436115953
 21
249.123840442056
 72
     1
 10
377.394436115953
 20
249.123840442056
 11
377.779217339106
 21
249.230661730099
 72
     1
 10
377.779217339106
 20
249.230661730099
 11
378.119151624876
 21
249.2597622701
 72
     1
 10
378.119151624876
 20
249.2597622701
 11
388.619151624876
 21
249.2597622701
 72
     1
 10
388.619151624876
 20
249.2597622701
 11
388.619151624876
 21
246.7597622701
 72
     1
 10
388.619151624876
 20
246.7597622701
 11
387.464451624876
 21
244.7597622701
 72
     1
 10
387.464451624876
 20
244.7597622701
 11
380.619151624876
 21
244.7597622701
 72
     1
 10
380.619151624876
 20
244.7597622701
 11
380.579284780589
 21
245.157100931712
 72
     1
 10
380.579284780589
 20
245.157100931712
 11
380.461273612912
 21
245.538598954739
 72
     1
 10
380.461273612912
 20
245.538598954739
 11
380.269822854726
 21
245.889047216912
 72
     1
 10
380.269822854726
 20
245.889047216912
 11
380.012565043601
 21
246.194474451921
 72
     1
 10
380.012565043601
 20
246.194474451921
 11
379.699756236643
 21
246.442704239738
 72
     1
 10
379.699756236643
 20
246.442704239738
 11
379.34386713386
 21
246.623840442056
 72
     1
 10
379.34386713386
 20
246.623840442056
 11
378.959085910707
 21
246.730661730099
 72
     1
 10
378.959085910707
 20
246.730661730099
 11
378.619151624876
 21
246.7597622701
 97
        0
 75
     1
 76
     2
 52
180.0
 41
0.125
 77
     0
 78
     1
 53
315.0000000000002
 43
-0.0294958101546061
 44
-0.0294958101546063
 45
-0.0000000000000014
 46
0.5612660075668752
 79
     0
 98
        1
 10
0.0
 20
0.0
  0
HATCH
  5
2B7
330
45
100
AcDbEntity
  8
0
  6
Continuous
 62
     7
100
AcDbHatch
 10
0.0
 20
0.0
 30
0.0
210
0.0
220
0.0
230
1.0
  2
CUSTOM8
 70
     0
 71
     0
 91
        1
 92
        1
 93
       22
 72
     1
 10
246.619151624876
 20
246.7597622701
 11
244.119151624876
 21
246.7597622701
 72
     1
 10
244.119151624876
 20
246.7597622701
 11
243.721812963316
 21
246.719895425803
 72
     1
 10
243.721812963316
 20
246.719895425803
 11
243.340314940289
 21
246.601884258127
 72
     1
 10
243.340314940289
 20
246.601884258127
 11
242.989866678116
 21
246.41043349994
 72
     1
 10
242.989866678116
 20
246.41043349994
 11
242.684439443107
 21
246.153175688815
 72
     1
 10
242.684439443107
 20
246.153175688815
 11
242.436209655291
 21
245.840366881857
 72
     1
 10
242.436209655291
 20
245.840366881857
 11
242.255073452972
 21
245.484477779074
 72
     1
 10
242.255073452972
 20
245.484477779074
 11
242.14825216493
 21
245.099696555921
 72
     1
 10
242.14825216493
 20
245.099696555921
 11
242.119151624876
 21
244.7597622701
 72
     1
 10
242.119151624876
 20
244.7597622701
 11
235.273851624876
 21
244.7597622701
 72
     1
 10
235.273851624876
 20
244.7597622701
 11
234.119151624876
 21
246.7597622701
 72
     1
 10
234.119151624876
 20
246.7597622701
 11
234.119151624876
 21
249.2597622701
 72
     1
 10
234.119151624876
 20
249.2597622701
 11
244.619151624876
 21
249.2597622701
 72
     1
 10
244.619151624876
 20
249.2597622701
 11
245.016490286497
 21
249.219895425803
 72
     1
 10
245.016490286497
 20
249.219895425803
 11
245.397988309524
 21
249.101884258127
 72
     1
 10
245.397988309524
 20
249.101884258127
 11
245.748436571697
 21
248.91043349994
 72
     1
 10
245.748436571697
 20
248.91043349994
 11
246.053863806706
 21
248.653175688815
 72
     1
 10
246.053863806706
 20
248.653175688815
 11
246.302093594522
 21
248.340366881857
 72
     1
 10
246.302093594522
 20
248.340366881857
 11
246.483229796841
 21
247.984477779074
 72
     1
 10
246.483229796841
 20
247.984477779074
 11
246.590051084883
 21
247.599696555921
 72
     1
 10
246.590051084883
 20
247.599696555921
 11
246.619151624876
 21
247.2597622701
 72
     1
 10
246.619151624876
 20
247.2597622701
 11
246.619151624876
 21
246.7597622701
 97
        0
 75
     1
 76
     2
 52
180.0
 41
0.125
 77
     0
 78
     1
 53
315.0000000000002
 43
-0.0294958101546061
 44
-0.0294958101546063
 45
-0.0000000000000014
 46
0.5612660075668752
 79
     0
 98
        1
 10
0.0
 20
0.0
  0
HATCH
  5
2B8
330
45
100
AcDbEntity
  8
0
  6
Continuous
 62
     7
100
AcDbHatch
 10
0.0
 20
0.0
 30
0.0
210
0.0
220
0.0
230
1.0
  2
CUSTOM9
 70
     0
 71
     0
 91
        1
 92
        1
 93
       83
 72
     1
 10
252.893314474876
 20
206.8688354986
 11
252.893314474876
 21
217.5638617187
 72
     1
 10
252.893314474876
 20
217.5638617187
 11
247.906141844276
 21
217.5638617187
 72
     1
 10
247.906141844276
 20
217.5638617187
 11
247.869195704376
 21
217.6430929712
 72
     1
 10
247.869195704376
 20
217.6430929712
 11
247.869195704476
 21
235.1122780926
 72
     1
 10
247.869195704476
 20
235.1122780926
 11
241.969195704476
 21
235.1117958122
 72
     1
 10
241.969195704476
 20
235.1117958122
 11
241.969195704476
 21
244.7597622701
 72
     1
 10
241.969195704476
 20
244.7597622701
 11
234.369151624876
 21
244.7591410239
 72
     1
 10
234.369151624876
 20
244.7591410239
 11
234.369151624876
 21
249.3639440114
 72
     1
 10
234.369151624876
 20
249.3639440114
 11
235.869151624876
 21
250.3639440114
 72
     1
 10
235.869151624876
 20
250.3639440114
 11
235.869151624876
 21
254.6208628831
 72
     1
 10
235.869151624876
 20
254.6208628831
 11
236.619063261076
 21
255.0639440114
 72
     1
 10
236.619063261076
 20
255.0639440114
 11
236.619063261076
 21
255.9639440114
 72
     1
 10
236.619063261076
 20
255.9639440114
 11
232.619195704376
 21
262.8657867536
 72
     1
 10
232.619195704376
 20
262.8657867536
 11
232.619195704376
 21
279.5638617187
 72
     1
 10
232.619195704376
 20
279.5638617187
 11
133.369151624876
 21
279.5638617187
 72
     1
 10
133.369151624876
 20
279.5638617187
 11
132.971812963316
 21
279.523994874384
 72
     1
 10
132.971812963316
 20
279.523994874384
 11
132.590314940289
 21
279.405983706707
 72
     1
 10
132.590314940289
 20
279.405983706707
 11
132.239866678116
 21
279.214532948521
 72
     1
 10
132.239866678116
 20
279.214532948521
 11
131.934439443107
 21
278.957275137396
 72
     1
 10
131.934439443107
 20
278.957275137396
 11
131.68620965529
 21
278.644466330438
 72
     1
 10
131.68620965529
 20
278.644466330438
 11
131.505073452972
 21
278.288577227655
 72
     1
 10
131.505073452972
 20
278.288577227655
 11
131.398252164929
 21
277.903796004502
 72
     1
 10
131.398252164929
 20
277.903796004502
 11
131.369151624876
 21
277.5638617187
 72
     1
 10
131.369151624876
 20
277.5638617187
 11
131.369151624876
 21
276.064295503
 72
     1
 10
131.369151624876
 20
276.064295503
 11
185.369151624876
 21
276.064295503
 72
     1
 10
185.369151624876
 20
276.064295503
 11
185.657161525476
 21
259.5642193506
 72
     1
 10
185.657161525476
 20
259.5642193506
 11
186.174847824176
 21
259.064295503
 72
     1
 10
186.174847824176
 20
259.064295503
 11
187.869151624876
 21
259.064295503
 72
     1
 10
187.869151624876
 20
259.064295503
 11
188.869151624876
 21
260.064295503
 72
     1
 10
188.869151624876
 20
260.064295503
 11
188.869151624876
 21
276.064295503
 72
     1
 10
188.869151624876
 20
276.064295503
 11
193.869151624876
 21
276.064295503
 72
     1
 10
193.869151624876
 20
276.064295503
 11
193.869151624876
 21
260.064295503
 72
     1
 10
193.869151624876
 20
260.064295503
 11
194.869151624876
 21
259.064295503
 72
     1
 10
194.869151624876
 20
259.064295503
 11
196.563455425576
 21
259.064295503
 72
     1
 10
196.563455425576
 20
259.064295503
 11
197.081141724376
 21
259.5642193506
 72
     1
 10
197.081141724376
 20
259.5642193506
 11
197.369151624876
 21
276.064295503
 72
     1
 10
197.369151624876
 20
276.064295503
 11
229.119195704376
 21
276.064295503
 72
     1
 10
229.119195704376
 20
276.064295503
 11
229.119195704376
 21
261.9248918266
 72
     1
 10
229.119195704376
 20
261.9248918266
 11
230.869151624876
 21
258.9053117035
 72
     1
 10
230.869151624876
 20
258.9053117035
 11
230.869151624876
 21
244.259100151
 72
     1
 10
230.869151624876
 20
244.259100151
 11
230.928951891383
 21
243.66309215859
 72
     1
 10
230.928951891383
 20
243.66309215859
 11
231.105968642898
 21
243.090845124049
 72
     1
 10
231.105968642898
 20
243.090845124049
 11
231.393144780177
 21
242.56517273079
 72
     1
 10
231.393144780177
 20
242.56517273079
 11
231.779031496865
 21
242.107031878276
 72
     1
 10
231.779031496865
 20
242.107031878276
 11
232.248244707302
 21
241.734687196551
 72
     1
 10
232.248244707302
 20
241.734687196551
 11
232.782078361476
 21
241.462982893073
 72
     1
 10
232.782078361476
 20
241.462982893073
 11
233.359250196206
 21
241.30275096101
 72
     1
 10
233.359250196206
 20
241.30275096101
 11
233.869396852326
 21
241.259100161023
 72
     1
 10
233.869396852326
 20
241.259100161023
 11
238.469195704376
 21
241.2594761598
 72
     1
 10
238.469195704376
 20
241.2594761598
 11
238.469195704376
 21
234.6117549393
 72
     1
 10
238.469195704376
 20
234.6117549393
 11
238.5289959709
 21
234.01574694687
 72
     1
 10
238.5289959709
 20
234.01574694687
 11
238.706012722415
 21
233.443499912329
 72
     1
 10
238.706012722415
 20
233.443499912329
 11
238.993188859695
 21
232.91782751907
 72
     1
 10
238.993188859695
 20
232.91782751907
 11
239.379075576382
 21
232.459686666557
 72
     1
 10
239.379075576382
 20
232.459686666557
 11
239.848288786819
 21
232.087341984832
 72
     1
 10
239.848288786819
 20
232.087341984832
 11
240.382122440994
 21
231.815637681354
 72
     1
 10
240.382122440994
 20
231.815637681354
 11
240.959294275723
 21
231.65540574929
 72
     1
 10
240.959294275723
 20
231.65540574929
 11
241.469440931742
 21
231.611754949323
 72
     1
 10
241.469440931742
 20
231.611754949323
 11
244.369195704376
 21
231.6119919823
 72
     1
 10
244.369195704376
 20
231.6119919823
 11
244.369195704376
 21
217.6430929712
 72
     1
 10
244.369195704376
 20
217.6430929712
 11
244.43896268198
 21
216.947750313441
 72
     1
 10
244.43896268198
 20
216.947750313441
 11
244.645482225414
 21
216.280128773144
 72
     1
 10
244.645482225414
 20
216.280128773144
 11
244.697118449748
 21
216.163929055108
 72
     1
 10
244.697118449748
 20
216.163929055108
 11
261.41126594396
 21
180.320324083462
 72
     1
 10
261.41126594396
 20
180.320324083462
 11
267.022756607142
 21
170.880600750745
 72
     1
 10
267.022756607142
 20
170.880600750745
 11
274.39777457537
 21
162.743874503119
 72
     1
 10
274.39777457537
 20
162.743874503119
 11
283.242301155488
 21
156.234530939128
 72
     1
 10
283.242301155488
 20
156.234530939128
 11
293.203732983264
 21
151.612077045245
 72
     1
 10
293.203732983264
 20
151.612077045245
 11
303.884939206839
 21
149.060795471223
 72
     1
 10
303.884939206839
 20
149.060795471223
 11
311.369151624876
 21
148.5644404024
 72
     1
 10
311.369151624876
 20
148.5644404024
 11
482.206397516176
 21
141.1055251629
 72
     1
 10
482.206397516176
 20
141.1055251629
 11
487.260077521376
 21
142.2258990468
 72
     1
 10
487.260077521376
 20
142.2258990468
 11
487.354306478976
 21
144.3840970016
 72
     1
 10
487.354306478976
 20
144.3840970016
 11
311.521819480676
 21
152.0611091779
 72
     1
 10
311.521819480676
 20
152.0611091779
 11
311.521965257176
 21
152.0644480089
 72
     1
 10
311.521965257176
 20
152.0644480089
 11
311.369151624876
 21
152.0644480089
 72
     1
 10
311.369151624876
 20
152.0644480089
 11
301.13549307527
 21
153.068973036204
 72
     1
 10
301.13549307527
 20
153.068973036204
 11
291.30539467668
 21
156.086588537752
 72
     1
 10
291.30539467668
 20
156.086588537752
 11
282.270751431621
 21
160.996991706092
 72
     1
 10
282.270751431621
 20
160.996991706092
 11
274.391746055808
 21
167.604420262576
 72
     1
 10
274.391746055808
 20
167.604420262576
 11
267.982489629935
 21
175.645456881603
 72
     1
 10
267.982489629935
 20
175.645456881603
 11
264.583343198589
 21
181.799487999554
 72
     1
 10
264.583343198589
 20
181.799487999554
 11
252.893314474876
 21
206.8688354986
 97
        0
 75
     1
 76
     2
 52
180.0
 41
1.0
 77
     0
 78
     1
 53
315.0000000000002
 43
-1.432660829103254
 44
-1.432660829103261
 45
-0.0000000000000107
 46
4.490128060534548
 79
     0
 98
        1
 10
0.0
 20
0.0
  0
HATCH
  5
2B9
330
45
100
AcDbEntity
  8
0
  6
Continuous
 62
     7
100
AcDbHatch
 10
0.0
 20
0.0
 30
0.0
210
0.0
220
0.0
230
1.0
  2
CUSTOM10
 70
     0
 71
     0
 91
        1
 92
        1
 93
       51
 72
     1
 10
386.119239988776
 20
255.9639440114
 11
390.119107545376
 21
262.8657867536
 72
     1
 10
390.119107545376
 20
262.8657867536
 11
390.119107545376
 21
279.5638617187
 72
     1
 10
390.119107545376
 20
279.5638617187
 11
489.369151624876
 21
279.5638617187
 72
     1
 10
489.369151624876
 20
279.5638617187
 11
489.766490286496
 21
279.523994874386
 72
     1
 10
489.766490286496
 20
279.523994874386
 11
490.147988309524
 21
279.405983706709
 72
     1
 10
490.147988309524
 20
279.405983706709
 11
490.498436571696
 21
279.214532948523
 72
     1
 10
490.498436571696
 20
279.214532948523
 11
490.803863806705
 21
278.957275137398
 72
     1
 10
490.803863806705
 20
278.957275137398
 11
491.052093594522
 21
278.64446633044
 72
     1
 10
491.052093594522
 20
278.64446633044
 11
491.233229796841
 21
278.288577227657
 72
     1
 10
491.233229796841
 20
278.288577227657
 11
491.340051084883
 21
277.903796004504
 72
     1
 10
491.340051084883
 20
277.903796004504
 11
491.369151624876
 21
277.5638617187
 72
     1
 10
491.369151624876
 20
277.5638617187
 11
491.369151624876
 21
276.064295503
 72
     1
 10
491.369151624876
 20
276.064295503
 11
393.619107545376
 21
276.064295503
 72
     1
 10
393.619107545376
 20
276.064295503
 11
393.619107545376
 21
261.9248918266
 72
     1
 10
393.619107545376
 20
261.9248918266
 11
391.869151624876
 21
258.9053117035
 72
     1
 10
391.869151624876
 20
258.9053117035
 11
391.869151624876
 21
255.1545298662
 72
     1
 10
391.869151624876
 20
255.1545298662
 11
487.004530126376
 21
251.0008295369
 72
     1
 10
487.004530126376
 20
251.0008295369
 11
491.941332335376
 21
249.4442617795
 72
     1
 10
491.941332335376
 20
249.4442617795
 11
491.847103377676
 21
247.2860638246
 72
     1
 10
491.847103377676
 20
247.2860638246
 11
391.869151624876
 21
251.6511954682
 72
     1
 10
391.869151624876
 20
251.6511954682
 11
391.869151624876
 21
244.259100151
 72
     1
 10
391.869151624876
 20
244.259100151
 11
391.80935135843
 21
243.663092158591
 72
     1
 10
391.80935135843
 20
243.663092158591
 11
391.632334606915
 21
243.09084512405
 72
     1
 10
391.632334606915
 20
243.09084512405
 11
391.345158469636
 21
242.565172730791
 72
     1
 10
391.345158469636
 20
242.565172730791
 11
390.959271752948
 21
242.107031878277
 72
     1
 10
390.959271752948
 20
242.107031878277
 11
390.490058542511
 21
241.734687196552
 72
     1
 10
390.490058542511
 20
241.734687196552
 11
389.956224888337
 21
241.462982893074
 72
     1
 10
389.956224888337
 20
241.462982893074
 11
389.379053053607
 21
241.302750961011
 72
     1
 10
389.379053053607
 20
241.302750961011
 11
388.868906397576
 21
241.259100161
 72
     1
 10
388.868906397576
 20
241.259100161
 11
384.269107545376
 21
241.2594761598
 72
     1
 10
384.269107545376
 20
241.2594761598
 11
384.269107545376
 21
234.6117549393
 72
     1
 10
384.269107545376
 20
234.6117549393
 11
384.209307278913
 21
234.015746946871
 72
     1
 10
384.209307278913
 20
234.015746946871
 11
384.032290527398
 21
233.44349991233
 72
     1
 10
384.032290527398
 20
233.44349991233
 11
383.745114390118
 21
232.917827519071
 72
     1
 10
383.745114390118
 20
232.917827519071
 11
383.359227673431
 21
232.459686666558
 72
     1
 10
383.359227673431
 20
232.459686666558
 11
382.890014462994
 21
232.087341984833
 72
     1
 10
382.890014462994
 20
232.087341984833
 11
382.356180808819
 21
231.815637681355
 72
     1
 10
382.356180808819
 20
231.815637681355
 11
381.77900897409
 21
231.655405749291
 72
     1
 10
381.77900897409
 20
231.655405749291
 11
381.306819643737
 21
231.611991982392
 72
     1
 10
381.306819643737
 20
231.611991982392
 11
378.369107545376
 21
231.6119919823
 72
     1
 10
378.369107545376
 20
231.6119919823
 11
378.369107545376
 21
215.3044539798
 72
     1
 10
378.369107545376
 20
215.3044539798
 11
374.869107545376
 21
215.45726728
 72
     1
 10
374.869107545376
 20
215.45726728
 11
374.869107545376
 21
235.1122780926
 72
     1
 10
374.869107545376
 20
235.1122780926
 11
380.769107545376
 21
235.1117958122
 72
     1
 10
380.769107545376
 20
235.1117958122
 11
380.769107545376
 21
244.7597622701
 72
     1
 10
380.769107545376
 20
244.7597622701
 11
388.369151624876
 21
244.7591410239
 72
     1
 10
388.369151624876
 20
244.7591410239
 11
388.369151624876
 21
249.3639440114
 72
     1
 10
388.369151624876
 20
249.3639440114
 11
386.869151624876
 21
250.3639440114
 72
     1
 10
386.869151624876
 20
250.3639440114
 11
386.869151624876
 21
254.6208628831
 72
     1
 10
386.869151624876
 20
254.6208628831
 11
386.119239988776
 21
255.0639440114
 72
     1
 10
386.119239988776
 20
255.0639440114
 11
386.119239988776
 21
255.9639440114
 97
        0
 75
     1
 76
     2
 52
180.0
 41
1.0
 77
     0
 78
     1
 53
315.0000000000002
 43
-1.432660829103254
 44
-1.432660829103261
 45
-0.0000000000000107
 46
4.490128060534548
 79
     0
 98
        1
 10
0.0
 20
0.0
  0
ENDBLK
  5
47
330
45
100
AcDbEntity
  8
0
100
AcDbBlockEnd
  0
BLOCK
  5
27F
330
277
100
AcDbEntity
  8
0
100
AcDbBlockBegin
  2
*D2
 70
     1
 10
0.0
 20
0.0
 30
0.0
  3
*D2
  1

  0
LINE
  5
278
330
277
100
AcDbEntity
  8
1
  6
Continuous
 62
     4
100
AcDbLine
 10
511.7228881529623
 20
139.8168073503282
 30
0.0
 11
516.5210207632209
 21
249.7121117243257
 31
0.0
  0
LINE
  5
279
330
277
100
AcDbEntity
  8
1
  6
Continuous
 62
     4
100
AcDbLine
 10
482.206397516176
 20
141.1055251629
 30
0.0
 11
513.720984596126
 21
139.7295685755963
 31
0.0
  0
LINE
  5
27A
330
277
100
AcDbEntity
  8
1
  6
Continuous
 62
     4
100
AcDbLine
 10
487.0045301263759
 20
251.0008295369
 30
0.0
 11
518.5191172063845
 21
249.6248729495937
 31
0.0
  0
SOLID
  5
27B
330
277
100
AcDbEntity
  8
1
 62
     4
100
AcDbTrace
 10
510.8438100908073
 20
149.8647155790462
 30
0.0
 11
513.4743539624371
 21
149.7498635532469
 31
0.0
 12
511.7228881529623
 22
139.8168073503282
 32
0.0
 13
511.7228881529623
 23
139.8168073503282
 33
0.0
  0
SOLID
  5
27C
330
277
100
AcDbEntity
  8
1
 62
     4
100
AcDbTrace
 10
517.400098825376
 20
239.6642034956078
 30
0.0
 11
514.769554953746
 21
239.7790555214071
 31
0.0
 12
516.5210207632209
 22
249.7121117243257
 32
0.0
 13
516.5210207632209
 23
249.7121117243257
 33
0.0
  0
MTEXT
  5
27E
330
277
100
AcDbEntity
  8
1
 62
     1
100
AcDbMText
 10
511.4282847234319
 20
178.9204507221197
 30
0.0
 40
10.0
 41
0.0
 71
     7
 72
     1
  1
\C1;DN\C1;110
  7
CONVERTER_11
 11
0.04361938736598887
 21
0.9990482215818293
 31
0.0
 73
     1
 44
0.60024009603842
  0
ENDBLK
  5
280
330
277
100
AcDbEntity
  8
0
100
AcDbBlockEnd
  0
BLOCK
  5
28A
330
283
100
AcDbEntity
  8
0
100
AcDbBlockBegin
  2
*D3
 70
     1
 10
0.0
 20
0.0
 30
0.0
  3
*D3
  1

  0
LINE
  5
284
330
283
100
AcDbEntity
  8
1
  6
Continuous
 62
     4
100
AcDbLine
 10
311.369151624876
 20
110.159724754394
 30
0.0
 11
491.847103377676
 21
110.159724754394
 31
0.0
  0
LINE
  5
285
330
283
100
AcDbEntity
  8
1
  6
Continuous
 62
     4
100
AcDbLine
 10
311.369151624876
 20
129.2989240194
 30
0.0
 11
311.369151624876
 21
108.159724754394
 31
0.0
  0
LINE
  5
286
330
283
100
AcDbEntity
  8
1
  6
Continuous
 62
     4
100
AcDbLine
 10
491.847103377676
 20
247.2860638246
 30
0.0
 11
491.847103377676
 21
108.159724754394
 31
0.0
  0
SOLID
  5
287
330
283
100
AcDbEntity
  8
1
 62
     4
100
AcDbTrace
 10
321.369151624876
 20
111.476249730268
 30
0.0
 11
321.369151624876
 21
108.84319977852
 31
0.0
 12
311.369151624876
 22
110.159724754394
 32
0.0
 13
311.369151624876
 23
110.159724754394
 33
0.0
  0
SOLID
  5
288
330
283
100
AcDbEntity
  8
1
 62
     4
100
AcDbTrace
 10
481.847103377676
 20
108.84319977852
 30
0.0
 11
481.847103377676
 21
111.476249730268
 31
0.0
 12
491.847103377676
 22
110.159724754394
 32
0.0
 13
491.847103377676
 23
110.159724754394
 33
0.0
  0
MTEXT
  5
289
330
283
100
AcDbEntity
  8
1
 62
     1
100
AcDbMText
 10
384.929782623703
 20
112.159724754394
 30
0.0
 40
10.0
 41
0.0
 71
     7
 72
     1
  1
181
  7
CONVERTER_11
 11
0.9999999999970619
 21
2.424068405545306E-6
 31
0.0
 73
     1
 44
0.60024009603842
  0
ENDBLK
  5
28B
330
283
100
AcDbEntity
  8
0
100
AcDbBlockEnd
  0
BLOCK
  5
295
330
28E
100
AcDbEntity
  8
0
100
AcDbBlockBegin
  2
*D4
 70
     1
 10
0.0
 20
0.0
 30
0.0
  3
*D4
  1

  0
LINE
  5
28F
330
28E
100
AcDbEntity
  8
1
  6
Continuous
 62
     4
100
AcDbLine
 10
123.369151624876
 20
279.5638617187
 30
0.0
 11
123.369151624876
 21
131.064295503
 31
0.0
  0
LINE
  5
290
330
28E
100
AcDbEntity
  8
1
  6
Continuous
 62
     4
100
AcDbLine
 10
133.369151624876
 20
279.5638617187
 30
0.0
 11
121.369151624876
 21
279.5638617187
 31
0.0
  0
LINE
  5
291
330
28E
100
AcDbEntity
  8
1
  6
Continuous
 62
     4
100
AcDbLine
 10
255.695304787976
 20
131.064295503
 30
0.0
 11
121.369151624876
 21
131.064295503
 31
0.0
  0
SOLID
  5
292
330
28E
100
AcDbEntity
  8
1
 62
     4
100
AcDbTrace
 10
124.68567660075
 20
269.5638617187
 30
0.0
 11
122.052626649002
 21
269.5638617187
 31
0.0
 12
123.369151624876
 22
279.5638617187
 32
0.0
 13
123.369151624876
 23
279.5638617187
 33
0.0
  0
SOLID
  5
293
330
28E
100
AcDbEntity
  8
1
 62
     4
100
AcDbTrace
 10
122.052626649002
 20
141.064295503
 30
0.0
 11
124.68567660075
 21
141.064295503
 31
0.0
 12
123.369151624876
 22
131.064295503
 32
0.0
 13
123.369151624876
 23
131.064295503
 33
0.0
  0
MTEXT
  5
294
330
28E
100
AcDbEntity
  8
1
 62
     1
100
AcDbMText
 10
121.369151624876
 20
197.968221006251
 30
0.0
 40
10.0
 41
0.0
 71
     7
 72
     1
  1
149
  7
CONVERTER_11
 11
0.0
 21
1.0
 31
0.0
 73
     1
 44
0.60024009603842
  0
ENDBLK
  5
296
330
28E
100
AcDbEntity
  8
0
100
AcDbBlockEnd
  0
BLOCK
  5
2A0
330
299
100
AcDbEntity
  8
0
100
AcDbBlockBegin
  2
*D5
 70
     1
 10
0.0
 20
0.0
 30
0.0
  3
*D5
  1

  0
LINE
  5
29A
330
299
100
AcDbEntity
  8
1
  6
Continuous
 62
     4
100
AcDbLine
 10
123.369151624876
 20
279.5638617187
 30
0.0
 11
123.369151624876
 21
354.5638677187
 31
0.0
  0
LINE
  5
29B
330
299
100
AcDbEntity
  8
1
  6
Continuous
 62
     4
100
AcDbLine
 10
133.369151624876
 20
279.5638617187
 30
0.0
 11
121.369151624876
 21
279.5638617187
 31
0.0
  0
LINE
  5
29C
330
299
100
AcDbEntity
  8
1
  6
Continuous
 62
     4
100
AcDbLine
 10
262.920569721176
 20
354.5638677187
 30
0.0
 11
121.369151624876
 21
354.5638677187
 31
0.0
  0
SOLID
  5
29D
330
299
100
AcDbEntity
  8
1
 62
     4
100
AcDbTrace
 10
122.052626649002
 20
289.5638617187
 30
0.0
 11
124.68567660075
 21
289.5638617187
 31
0.0
 12
123.369151624876
 22
279.5638617187
 32
0.0
 13
123.369151624876
 23
279.5638617187
 33
0.0
  0
SOLID
  5
29E
330
299
100
AcDbEntity
  8
1
 62
     4
100
AcDbTrace
 10
124.68567660075
 20
344.5638677187
 30
0.0
 11
122.052626649002
 21
344.5638677187
 31
0.0
 12
123.369151624876
 22
354.5638677187
 32
0.0
 13
123.369151624876
 23
354.5638677187
 33
0.0
  0
MTEXT
  5
29F
330
299
100
AcDbEntity
  8
1
 62
     1
100
AcDbMText
 10
121.369151624876
 20
310.471731330113
 30
0.0
 40
10.0
 41
0.0
 71
     7
 72
     1
  1
75
  7
CONVERTER_11
 11
0.0
 21
1.0
 31
0.0
 73
     1
 44
0.60024009603842
  0
ENDBLK
  5
2A1
330
299
100
AcDbEntity
  8
0
100
AcDbBlockEnd
  0
BLOCK
  5
2AB
330
2A4
100
AcDbEntity
  8
0
100
AcDbBlockBegin
  2
*D6
 70
     1
 10
0.0
 20
0.0
 30
0.0
  3
*D6
  1

  0
LINE
  5
2A5
330
2A4
100
AcDbEntity
  8
1
  6
Continuous
 62
     4
100
AcDbLine
 10
131.369151624876
 20
374.287434070425
 30
0.0
 11
491.369151624876
 21
374.287434070425
 31
0.0
  0
LINE
  5
2A6
330
2A4
100
AcDbEntity
  8
1
  6
Continuous
 62
     4
100
AcDbLine
 10
131.369151624876
 20
276.064295503
 30
0.0
 11
131.369151624876
 21
376.287434070425
 31
0.0
  0
LINE
  5
2A7
330
2A4
100
AcDbEntity
  8
1
  6
Continuous
 62
     4
100
AcDbLine
 10
491.369151624876
 20
276.064295503
 30
0.0
 11
491.369151624876
 21
376.287434070425
 31
0.0
  0
SOLID
  5
2A8
330
2A4
100
AcDbEntity
  8
1
 62
     4
100
AcDbTrace
 10
141.369151624876
 20
375.6039590462989
 30
0.0
 11
141.369151624876
 21
372.970909094551
 31
0.0
 12
131.369151624876
 22
374.287434070425
 32
0.0
 13
131.369151624876
 23
374.287434070425
 33
0.0
  0
SOLID
  5
2A9
330
2A4
100
AcDbEntity
  8
1
 62
     4
100
AcDbTrace
 10
481.369151624876
 20
372.970909094551
 30
0.0
 11
481.369151624876
 21
375.6039590462989
 31
0.0
 12
491.369151624876
 22
374.287434070425
 32
0.0
 13
491.369151624876
 23
374.287434070425
 33
0.0
  0
MTEXT
  5
2AA
330
2A4
100
AcDbEntity
  8
1
 62
     1
100
AcDbMText
 10
289.4769472742042
 20
376.2873943157031
 30
0.0
 40
10.0
 41
0.0
 71
     7
 72
     1
  1
\C1;%%c\C1;360
  7
CONVERTER_11
 11
0.9999999999970619
 21
2.424068405545306E-6
 31
0.0
 73
     1
 44
0.60024009603842
  0
ENDBLK
  5
2AC
330
2A4
100
AcDbEntity
  8
0
100
AcDbBlockEnd
  0
ENDSEC
  0
SECTION
  2
ENTITIES
  0
INSERT
  5
6A
330
1F
100
AcDbEntity
  8
0
100
AcDbBlockReference
  2
HL64_1P_1
 10
384.6691100684759
 20
247.2235794124095
 30
0.0
  0
ENDSEC
  0
SECTION
  2
OBJECTS
  0
DICTIONARY
  5
C
330
0
100
AcDbDictionary
281
     1
  3
ACAD_GROUP
350
D
  3
ACAD_LAYOUT
350
1A
  3
ACAD_MLEADERSTYLE
350
2BC
  3
ACAD_MLINESTYLE
350
17
  3
ACAD_PLOTSETTINGS
350
19
  3
ACAD_PLOTSTYLENAME
350
E
  3
ACAD_SCALELIST
350
48
  3
ACAD_VISUALSTYLE
350
2A
  3
AcDbVariableDictionary
350
2BA
  0
DICTIONARY
  5
D
102
{ACAD_REACTORS
330
C
102
}
330
C
100
AcDbDictionary
281
     1
  0
DICTIONARY
  5
1A
102
{ACAD_REACTORS
330
C
102
}
330
C
100
AcDbDictionary
281
     1
  3
Layout1
350
1E
  3
Layout2
350
26
  3
Model
350
22
  0
DICTIONARY
  5
2BC
102
{ACAD_REACTORS
330
C
102
}
330
C
100
AcDbDictionary
281
     1
  0
DICTIONARY
  5
17
102
{ACAD_REACTORS
330
C
102
}
330
C
100
AcDbDictionary
281
     1
  3
Standard
350
18
  0
DICTIONARY
  5
19
102
{ACAD_REACTORS
330
C
102
}
330
C
100
AcDbDictionary
281
     1
  0
ACDBDICTIONARYWDFLT
  5
E
102
{ACAD_REACTORS
330
C
102
}
330
C
100
AcDbDictionary
281
     1
  3
Normal
350
F
100
AcDbDictionaryWithDefault
340
F
  0
DICTIONARY
  5
48
102
{ACAD_REACTORS
330
C
102
}
330
C
100
AcDbDictionary
281
     1
  3
A0
350
49
  3
A1
350
4A
  3
A2
350
4B
  3
A3
350
4C
  3
A4
350
4D
  3
A5
350
4E
  3
A6
350
4F
  3
A7
350
50
  3
A8
350
51
  3
A9
350
52
  3
B0
350
53
  3
B1
350
54
  3
B2
350
55
  3
B3
350
56
  3
B4
350
57
  3
B5
350
58
  3
B6
350
59
  3
B7
350
5A
  3
B8
350
5B
  3
B9
350
5C
  3
C0
350
5D
  3
C1
350
5E
  3
C2
350
5F
  3
C3
350
60
  3
C4
350
61
  3
C5
350
62
  3
C6
350
63
  3
C7
350
64
  3
C8
350
65
  3
C9
350
66
  3
D0
350
67
  3
D1
350
68
  3
D2
350
69
  0
DICTIONARY
  5
2A
102
{ACAD_REACTORS
330
C
102
}
330
C
100
AcDbDictionary
281
     1
  3
2dWireframe
350
2F
  3
3D Hidden
350
31
  3
3dWireframe
350
30
  3
Basic
350
32
  3
Brighten
350
36
  3
ColorChange
350
3A
  3
Conceptual
350
34
  3
Dim
350
35
  3
Facepattern
350
39
  3
Flat
350
2B
  3
FlatWithEdges
350
2C
  3
Gouraud
350
2D
  3
GouraudWithEdges
350
2E
  3
Linepattern
350
38
  3
Realistic
350
33
  3
Thicken
350
37
  0
DICTIONARY
  5
2BA
102
{ACAD_REACTORS
330
C
102
}
330
C
100
AcDbDictionary
281
     1
  3
CANNOSCALE
350
2BD
  0
LAYOUT
  5
1E
102
{ACAD_REACTORS
330
1A
102
}
330
1A
100
AcDbPlotSettings
  1

  2
none_device
  4

  6

 40
0.0
 41
0.0
 42
0.0
 43
0.0
 44
0.0
 45
0.0
 46
0.0
 47
0.0
 48
0.0
 49
0.0
140
0.0
141
0.0
142
1.0
143
1.0
 70
   688
 72
     0
 73
     0
 74
     5
  7

 75
    16
147
1.0
148
0.0
149
0.0
100
AcDbLayout
  1
Layout1
 70
     1
 71
     1
 10
0.0
 20
0.0
 11
12.0
 21
9.0
 12
0.0
 22
0.0
 32
0.0
 14
1.00000000000000E+20
 24
1.00000000000000E+20
 34
1.00000000000000E+20
 15
-1.00000000000000E+20
 25
-1.00000000000000E+20
 35
-1.00000000000000E+20
146
0.0
 13
0.0
 23
0.0
 33
0.0
 16
1.0
 26
0.0
 36
0.0
 17
0.0
 27
1.0
 37
0.0
 76
     0
330
1B
  0
LAYOUT
  5
26
102
{ACAD_REACTORS
330
1A
102
}
330
1A
100
AcDbPlotSettings
  1

  2
none_device
  4

  6

 40
0.0
 41
0.0
 42
0.0
 43
0.0
 44
0.0
 45
0.0
 46
0.0
 47
0.0
 48
0.0
 49
0.0
140
0.0
141
0.0
142
1.0
143
1.0
 70
   688
 72
     0
 73
     0
 74
     5
  7

 75
    16
147
1.0
148
0.0
149
0.0
100
AcDbLayout
  1
Layout2
 70
     1
 71
     2
 10
0.0
 20
0.0
 11
0.0
 21
0.0
 12
0.0
 22
0.0
 32
0.0
 14
0.0
 24
0.0
 34
0.0
 15
0.0
 25
0.0
 35
0.0
146
0.0
 13
0.0
 23
0.0
 33
0.0
 16
1.0
 26
0.0
 36
0.0
 17
0.0
 27
1.0
 37
0.0
 76
     0
330
23
  0
LAYOUT
  5
22
102
{ACAD_REACTORS
330
1A
102
}
330
1A
100
AcDbPlotSettings
  1

  2
none_device
  4

  6

 40
0.0
 41
0.0
 42
0.0
 43
0.0
 44
0.0
 45
0.0
 46
0.0
 47
0.0
 48
0.0
 49
0.0
140
0.0
141
0.0
142
1.0
143
1.0
 70
  1712
 72
     0
 73
     0
 74
     0
  7

 75
     0
147
1.0
148
0.0
149
0.0
100
AcDbLayout
  1
Model
 70
     1
 71
     0
 10
0.0
 20
0.0
 11
12.0
 21
9.0
 12
0.0
 22
0.0
 32
0.0
 14
111.369151624876
 24
108.159724754394
 34
0.0
 15
657.9690685120759
 25
386.287434070425
 35
0.0
146
0.0
 13
0.0
 23
0.0
 33
0.0
 16
1.0
 26
0.0
 36
0.0
 17
0.0
 27
1.0
 37
0.0
 76
     0
330
1F
331
29
  0
MLINESTYLE
  5
18
102
{ACAD_REACTORS
330
17
102
}
330
17
100
AcDbMlineStyle
  2
Standard
 70
     0
  3

 62
   256
 51
90.0
 52
90.0
 71
     2
 49
0.5
 62
   256
  6
BYLAYER
 49
-0.5
 62
   256
  6
BYLAYER
  0
ACDBPLACEHOLDER
  5
F
102
{ACAD_REACTORS
330
E
102
}
330
E
  0
SCALE
  5
49
102
{ACAD_REACTORS
330
48
102
}
330
48
100
AcDbScale
 70
     0
300
1:1
140
1.0
141
1.0
290
     1
  0
SCALE
  5
4A
102
{ACAD_REACTORS
330
48
102
}
330
48
100
AcDbScale
 70
     0
300
1:2
140
1.0
141
2.0
290
     0
  0
SCALE
  5
4B
102
{ACAD_REACTORS
330
48
102
}
330
48
100
AcDbScale
 70
     0
300
1:4
140
1.0
141
4.0
290
     0
  0
SCALE
  5
4C
102
{ACAD_REACTORS
330
48
102
}
330
48
100
AcDbScale
 70
     0
300
1:5
140
1.0
141
5.0
290
     0
  0
SCALE
  5
4D
102
{ACAD_REACTORS
330
48
102
}
330
48
100
AcDbScale
 70
     0
300
1:8
140
1.0
141
8.0
290
     0
  0
SCALE
  5
4E
102
{ACAD_REACTORS
330
48
102
}
330
48
100
AcDbScale
 70
     0
300
1:10
140
1.0
141
10.0
290
     0
  0
SCALE
  5
4F
102
{ACAD_REACTORS
330
48
102
}
330
48
100
AcDbScale
 70
     0
300
1:16
140
1.0
141
16.0
290
     0
  0
SCALE
  5
50
102
{ACAD_REACTORS
330
48
102
}
330
48
100
AcDbScale
 70
     0
300
1:20
140
1.0
141
20.0
290
     0
  0
SCALE
  5
51
102
{ACAD_REACTORS
330
48
102
}
330
48
100
AcDbScale
 70
     0
300
1:30
140
1.0
141
30.0
290
     0
  0
SCALE
  5
52
102
{ACAD_REACTORS
330
48
102
}
330
48
100
AcDbScale
 70
     0
300
1:40
140
1.0
141
40.0
290
     0
  0
SCALE
  5
53
102
{ACAD_REACTORS
330
48
102
}
330
48
100
AcDbScale
 70
     0
300
1:50
140
1.0
141
50.0
290
     0
  0
SCALE
  5
54
102
{ACAD_REACTORS
330
48
102
}
330
48
100
AcDbScale
 70
     0
300
1:100
140
1.0
141
100.0
290
     0
  0
SCALE
  5
55
102
{ACAD_REACTORS
330
48
102
}
330
48
100
AcDbScale
 70
     0
300
2:1
140
2.0
141
1.0
290
     0
  0
SCALE
  5
56
102
{ACAD_REACTORS
330
48
102
}
330
48
100
AcDbScale
 70
     0
300
4:1
140
4.0
141
1.0
290
     0
  0
SCALE
  5
57
102
{ACAD_REACTORS
330
48
102
}
330
48
100
AcDbScale
 70
     0
300
8:1
140
8.0
141
1.0
290
     0
  0
SCALE
  5
58
102
{ACAD_REACTORS
330
48
102
}
330
48
100
AcDbScale
 70
     0
300
10:1
140
10.0
141
1.0
290
     0
  0
SCALE
  5
59
102
{ACAD_REACTORS
330
48
102
}
330
48
100
AcDbScale
 70
     0
300
100:1
140
100.0
141
1.0
290
     0
  0
SCALE
  5
5A
102
{ACAD_REACTORS
330
48
102
}
330
48
100
AcDbScale
 70
     0
300
1/128" = 1'-0"
140
0.0078125
141
12.0
290
     0
  0
SCALE
  5
5B
102
{ACAD_REACTORS
330
48
102
}
330
48
100
AcDbScale
 70
     0
300
1/64" = 1'-0"
140
0.015625
141
12.0
290
     0
  0
SCALE
  5
5C
102
{ACAD_REACTORS
330
48
102
}
330
48
100
AcDbScale
 70
     0
300
1/32" = 1'-0"
140
0.03125
141
12.0
290
     0
  0
SCALE
  5
5D
102
{ACAD_REACTORS
330
48
102
}
330
48
100
AcDbScale
 70
     0
300
1/16" = 1'-0"
140
0.0625
141
12.0
290
     0
  0
SCALE
  5
5E
102
{ACAD_REACTORS
330
48
102
}
330
48
100
AcDbScale
 70
     0
300
3/32" = 1'-0"
140
0.09375
141
12.0
290
     0
  0
SCALE
  5
5F
102
{ACAD_REACTORS
330
48
102
}
330
48
100
AcDbScale
 70
     0
300
1/8" = 1'-0"
140
0.125
141
12.0
290
     0
  0
SCALE
  5
60
102
{ACAD_REACTORS
330
48
102
}
330
48
100
AcDbScale
 70
     0
300
3/16" = 1'-0"
140
0.1875
141
12.0
290
     0
  0
SCALE
  5
61
102
{ACAD_REACTORS
330
48
102
}
330
48
100
AcDbScale
 70
     0
300
1/4" = 1'-0"
140
0.25
141
12.0
290
     0
  0
SCALE
  5
62
102
{ACAD_REACTORS
330
48
102
}
330
48
100
AcDbScale
 70
     0
300
3/8" = 1'-0"
140
0.375
141
12.0
290
     0
  0
SCALE
  5
63
102
{ACAD_REACTORS
330
48
102
}
330
48
100
AcDbScale
 70
     0
300
1/2" = 1'-0"
140
0.5
141
12.0
290
     0
  0
SCALE
  5
64
102
{ACAD_REACTORS
330
48
102
}
330
48
100
AcDbScale
 70
     0
300
3/4" = 1'-0"
140
0.75
141
12.0
290
     0
  0
SCALE
  5
65
102
{ACAD_REACTORS
330
48
102
}
330
48
100
AcDbScale
 70
     0
300
1" = 1'-0"
140
1.0
141
12.0
290
     0
  0
SCALE
  5
66
102
{ACAD_REACTORS
330
48
102
}
330
48
100
AcDbScale
 70
     0
300
1-1/2" = 1'-0"
140
1.5
141
12.0
290
     0
  0
SCALE
  5
67
102
{ACAD_REACTORS
330
48
102
}
330
48
100
AcDbScale
 70
     0
300
3" = 1'-0"
140
3.0
141
12.0
290
     0
  0
SCALE
  5
68
102
{ACAD_REACTORS
330
48
102
}
330
48
100
AcDbScale
 70
     0
300
6" = 1'-0"
140
6.0
141
12.0
290
     0
  0
SCALE
  5
69
102
{ACAD_REACTORS
330
48
102
}
330
48
100
AcDbScale
 70
     0
300
1'-0" = 1'-0"
140
12.0
141
12.0
290
     0
  0
VISUALSTYLE
  5
2F
102
{ACAD_REACTORS
330
2A
102
}
330
2A
100
AcDbVisualStyle
  2
2dWireframe
 70
     4
 71
     0
 72
     2
 73
     0
 90
        0
 40
-0.6
 41
-30.0
 62
     5
 63
     7
 74
     1
 91
        4
 64
     7
 65
   257
 75
     1
175
     1
 42
1.0
 92
        0
 66
   257
 43
1.0
 76
     1
 77
     6
 78
     2
 67
     7
 79
     5
170
     0
171
     0
290
     0
174
     0
 93
        1
 44
0.0
173
     0
291
     0
 45
0.0
1001
ACAD
1000
AcDbSavedByObjectVersion
1070
     0
  0
VISUALSTYLE
  5
31
102
{ACAD_REACTORS
330
2A
102
}
330
2A
100
AcDbVisualStyle
  2
3D Hidden
 70
     6
 71
     1
 72
     2
 73
     2
 90
        0
 40
-0.6
 41
-30.0
 62
     5
 63
     7
 74
     2
 91
        2
 64
     7
 65
   257
 75
     2
175
     1
 42
40.0
 92
        0
 66
   257
 43
1.0
 76
     1
 77
     6
 78
     2
 67
     7
 79
     3
170
     0
171
     0
290
     0
174
     0
 93
        1
 44
0.0
173
     0
291
     0
 45
0.0
1001
ACAD
1000
AcDbSavedByObjectVersion
1070
     0
  0
VISUALSTYLE
  5
30
102
{ACAD_REACTORS
330
2A
102
}
330
2A
100
AcDbVisualStyle
  2
3dWireframe
 70
     5
 71
     0
 72
     2
 73
     0
 90
        0
 40
-0.6
 41
-30.0
 62
     5
 63
     7
 74
     1
 91
        4
 64
     7
 65
   257
 75
     1
175
     1
 42
1.0
 92
        0
 66
   257
 43
1.0
 76
     1
 77
     6
 78
     2
 67
     7
 79
     5
170
     0
171
     0
290
     0
174
     0
 93
        1
 44
0.0
173
     0
291
     0
 45
0.0
1001
ACAD
1000
AcDbSavedByObjectVersion
1070
     0
  0
VISUALSTYLE
  5
32
102
{ACAD_REACTORS
330
2A
102
}
330
2A
100
AcDbVisualStyle
  2
Basic
 70
     7
 71
     1
 72
     0
 73
     1
 90
        0
 40
-0.6
 41
-30.0
 62
     5
 63
     7
 74
     0
 91
        4
 64
     7
 65
   257
 75
     1
175
     1
 42
1.0
 92
        8
 66
     7
 43
1.0
 76
     1
 77
     6
 78
     2
 67
     7
 79
     5
170
     0
171
     0
290
     0
174
     0
 93
        1
 44
0.0
173
     0
291
     1
 45
0.0
1001
ACAD
1000
AcDbSavedByObjectVersion
1070
     0
  0
VISUALSTYLE
  5
36
102
{ACAD_REACTORS
330
2A
102
}
330
2A
100
AcDbVisualStyle
  2
Brighten
 70
    12
 71
     2
 72
     2
 73
     0
 90
        0
 40
-0.6
 41
-30.0
 62
     5
 63
     7
 74
     1
 91
        4
 64
     7
 65
   257
 75
     1
175
     1
 42
1.0
 92
        8
 66
     7
 43
1.0
 76
     1
 77
     6
 78
     2
 67
     7
 79
     5
170
     0
171
     0
290
     0
174
     0
 93
        1
 44
50.0
173
     0
291
     1
 45
0.0
1001
ACAD
1000
AcDbSavedByObjectVersion
1070
     0
  0
VISUALSTYLE
  5
3A
102
{ACAD_REACTORS
330
2A
102
}
330
2A
100
AcDbVisualStyle
  2
ColorChange
 70
    16
 71
     2
 72
     2
 73
     3
 90
        0
 40
-0.6
 41
-30.0
 62
     5
 63
     8
 74
     1
 91
        4
 64
     7
 65
   257
 75
     1
175
     1
 42
1.0
 92
        8
 66
     8
 43
1.0
 76
     1
 77
     6
 78
     2
 67
     7
 79
     5
170
     0
171
     0
290
     0
174
     0
 93
        1
 44
0.0
173
     0
291
     1
 45
0.0
1001
ACAD
1000
AcDbSavedByObjectVersion
1070
     0
  0
VISUALSTYLE
  5
34
102
{ACAD_REACTORS
330
2A
102
}
330
2A
100
AcDbVisualStyle
  2
Conceptual
 70
     9
 71
     3
 72
     2
 73
     0
 90
        0
 40
-0.6
 41
-30.0
 62
     5
 63
     7
 74
     2
 91
        2
 64
     7
 65
   257
 75
     1
175
     1
 42
40.0
 92
        8
 66
     7
 43
1.0
 76
     1
 77
     6
 78
     2
 67
     7
 79
     3
170
     0
171
     0
290
     0
174
     0
 93
        1
 44
0.0
173
     0
291
     0
 45
0.0
1001
ACAD
1000
AcDbSavedByObjectVersion
1070
     0
  0
VISUALSTYLE
  5
35
102
{ACAD_REACTORS
330
2A
102
}
330
2A
100
AcDbVisualStyle
  2
Dim
 70
    11
 71
     2
 72
     2
 73
     0
 90
        0
 40
-0.6
 41
-30.0
 62
     5
 63
     7
 74
     1
 91
        4
 64
     7
 65
   257
 75
     1
175
     1
 42
1.0
 92
        8
 66
     7
 43
1.0
 76
     1
 77
     6
 78
     2
 67
     7
 79
     5
170
     0
171
     0
290
     0
174
     0
 93
        1
 44
-50.0
173
     0
291
     1
 45
0.0
1001
ACAD
1000
AcDbSavedByObjectVersion
1070
     0
  0
VISUALSTYLE
  5
39
102
{ACAD_REACTORS
330
2A
102
}
330
2A
100
AcDbVisualStyle
  2
Facepattern
 70
    15
 71
     2
 72
     2
 73
     0
 90
        0
 40
-0.6
 41
-30.0
 62
     5
 63
     7
 74
     1
 91
        4
 64
     7
 65
   257
 75
     1
175
     1
 42
1.0
 92
        8
 66
     7
 43
1.0
 76
     1
 77
     6
 78
     2
 67
     7
 79
     5
170
     0
171
     0
290
     0
174
     0
 93
        1
 44
0.0
173
     0
291
     1
 45
0.0
1001
ACAD
1000
AcDbSavedByObjectVersion
1070
     0
  0
VISUALSTYLE
  5
2B
102
{ACAD_REACTORS
330
2A
102
}
330
2A
100
AcDbVisualStyle
  2
Flat
 70
     0
 71
     2
 72
     1
 73
     1
 90
        2
 40
-0.6
 41
30.0
 62
     5
 63
     7
 74
     0
 91
        4
 64
     7
 65
   257
 75
     1
175
     1
 42
1.0
 92
        8
 66
     7
 43
1.0
 76
     1
 77
     6
 78
     2
 67
     7
 79
     5
170
     0
171
     0
290
     0
174
     0
 93
       13
 44
0.0
173
     0
291
     1
 45
0.0
1001
ACAD
1000
AcDbSavedByObjectVersion
1070
     0
  0
VISUALSTYLE
  5
2C
102
{ACAD_REACTORS
330
2A
102
}
330
2A
100
AcDbVisualStyle
  2
FlatWithEdges
 70
     1
 71
     2
 72
     1
 73
     1
 90
        2
 40
-0.6
 41
30.0
 62
     5
 63
     7
 74
     1
 91
        4
 64
     7
 65
   257
 75
     1
175
     1
 42
1.0
 92
        0
 66
   257
 43
1.0
 76
     1
 77
     6
 78
     2
 67
     7
 79
     5
170
     0
171
     0
290
     0
174
     0
 93
       13
 44
0.0
173
     0
291
     1
 45
0.0
1001
ACAD
1000
AcDbSavedByObjectVersion
1070
     0
  0
VISUALSTYLE
  5
2D
102
{ACAD_REACTORS
330
2A
102
}
330
2A
100
AcDbVisualStyle
  2
Gouraud
 70
     2
 71
     2
 72
     2
 73
     1
 90
        2
 40
-0.6
 41
30.0
 62
     5
 63
     7
 74
     0
 91
        4
 64
     7
 65
   257
 75
     1
175
     1
 42
1.0
 92
        0
 66
     7
 43
1.0
 76
     1
 77
     6
 78
     2
 67
     7
 79
     5
170
     0
171
     0
290
     0
174
     0
 93
       13
 44
0.0
173
     0
291
     1
 45
0.0
1001
ACAD
1000
AcDbSavedByObjectVersion
1070
     0
  0
VISUALSTYLE
  5
2E
102
{ACAD_REACTORS
330
2A
102
}
330
2A
100
AcDbVisualStyle
  2
GouraudWithEdges
 70
     3
 71
     2
 72
     2
 73
     1
 90
        2
 40
-0.6
 41
30.0
 62
     5
 63
     7
 74
     1
 91
        4
 64
     7
 65
   257
 75
     1
175
     1
 42
1.0
 92
        0
 66
   257
 43
1.0
 76
     1
 77
     6
 78
     2
 67
     7
 79
     5
170
     0
171
     0
290
     0
174
     0
 93
       13
 44
0.0
173
     0
291
     1
 45
0.0
1001
ACAD
1000
AcDbSavedByObjectVersion
1070
     0
  0
VISUALSTYLE
  5
38
102
{ACAD_REACTORS
330
2A
102
}
330
2A
100
AcDbVisualStyle
  2
Linepattern
 70
    14
 71
     2
 72
     2
 73
     0
 90
        0
 40
-0.6
 41
-30.0
 62
     5
 63
     7
 74
     1
 91
        4
 64
     7
 65
   257
 75
     7
175
     7
 42
1.0
 92
        8
 66
     7
 43
1.0
 76
     1
 77
     6
 78
     2
 67
     7
 79
     5
170
     0
171
     0
290
     0
174
     0
 93
        1
 44
0.0
173
     0
291
     1
 45
0.0
1001
ACAD
1000
AcDbSavedByObjectVersion
1070
     0
  0
VISUALSTYLE
  5
33
102
{ACAD_REACTORS
330
2A
102
}
330
2A
100
AcDbVisualStyle
  2
Realistic
 70
     8
 71
     2
 72
     2
 73
     0
 90
        0
 40
-0.6
 41
-30.0
 62
     5
 63
     7
 74
     1
 91
        0
 64
     7
 65
   257
 75
     1
175
     1
 42
1.0
 92
        8
 66
     8
 43
1.0
 76
     1
 77
     6
 78
     2
 67
     7
 79
     5
170
     0
171
     0
290
     0
174
     0
 93
       13
 44
0.0
173
     0
291
     0
 45
0.0
1001
ACAD
1000
AcDbSavedByObjectVersion
1070
     0
  0
VISUALSTYLE
  5
37
102
{ACAD_REACTORS
330
2A
102
}
330
2A
100
AcDbVisualStyle
  2
Thicken
 70
    13
 71
     2
 72
     2
 73
     0
 90
        0
 40
-0.6
 41
-30.0
 62
     5
 63
     7
 74
     1
 91
        4
 64
     7
 65
   257
 75
     1
175
     1
 42
1.0
 92
       12
 66
     7
 43
1.0
 76
     1
 77
     6
 78
     2
 67
     7
 79
     5
170
     0
171
     0
290
     0
174
     0
 93
        1
 44
0.0
173
     0
291
     1
 45
0.0
1001
ACAD
1000
AcDbSavedByObjectVersion
1070
     0
  0
DICTIONARYVAR
  5
2BD
102
{ACAD_REACTORS
330
2BA
102
}
330
2BA
100
DictionaryVariables
280
     0
  1
1:1
  0
ENDSEC
  0
EOF
