  0
SECTION
  2
HEADER
  9
$ACADVER
  1
AC1015
  9
$ACADMAINTVER
 70
     6
  9
$DWGCODEPAGE
  3
ANSI_1252
  9
$INSBASE
 10
0.0
 20
0.0
 30
0.0
  9
$EXTMIN
 10
109.748723687517
 20
69.639116439415
 30
0.0
  9
$EXTMAX
 10
639.1361466177441
 20
360.437846596935
 30
0.0
  9
$LIMMIN
 10
0.0
 20
0.0
  9
$LIMMAX
 10
12.0
 20
9.0
  9
$ORTHOMODE
 70
     0
  9
$REGENMODE
 70
     1
  9
$FILLMODE
 70
     1
  9
$QTEXTMODE
 70
     0
  9
$MIRRTEXT
 70
     1
  9
$LTSCALE
 40
1.0
  9
$ATTMODE
 70
     1
  9
$TEXTSIZE
 40
0.2
  9
$TRACEWID
 40
0.05
  9
$TEXTSTYLE
  7
Standard
  9
$CLAYER
  8
0
  9
$CELTYPE
  6
ByLayer
  9
$CECOLOR
 62
   256
  9
$CELTSCALE
 40
1.0
  9
$DISPSILH
 70
     0
  9
$DIMSCALE
 40
1.0
  9
$DIMASZ
 40
0.18
  9
$DIMEXO
 40
0.0625
  9
$DIMDLI
 40
0.38
  9
$DIMRND
 40
0.0
  9
$DIMDLE
 40
0.0
  9
$DIMEXE
 40
0.18
  9
$DIMTP
 40
0.0
  9
$DIMTM
 40
0.0
  9
$DIMTXT
 40
0.18
  9
$DIMCEN
 40
0.09
  9
$DIMTSZ
 40
0.0
  9
$DIMTOL
 70
     0
  9
$DIMLIM
 70
     0
  9
$DIMTIH
 70
     1
  9
$DIMTOH
 70
     1
  9
$DIMSE1
 70
     0
  9
$DIMSE2
 70
     0
  9
$DIMTAD
 70
     0
  9
$DIMZIN
 70
     0
  9
$DIMBLK
  1

  9
$DIMASO
 70
     1
  9
$DIMSHO
 70
     1
  9
$DIMPOST
  1

  9
$DIMAPOST
  1

  9
$DIMALT
 70
     0
  9
$DIMALTD
 70
     2
  9
$DIMALTF
 40
25.4
  9
$DIMLFAC
 40
1.0
  9
$DIMTOFL
 70
     0
  9
$DIMTVP
 40
0.0
  9
$DIMTIX
 70
     0
  9
$DIMSOXD
 70
     0
  9
$DIMSAH
 70
     0
  9
$DIMBLK1
  1

  9
$DIMBLK2
  1

  9
$DIMSTYLE
  2
Standard
  9
$DIMCLRD
 70
     0
  9
$DIMCLRE
 70
     0
  9
$DIMCLRT
 70
     0
  9
$DIMTFAC
 40
1.0
  9
$DIMGAP
 40
0.09
  9
$DIMJUST
 70
     0
  9
$DIMSD1
 70
     0
  9
$DIMSD2
 70
     0
  9
$DIMTOLJ
 70
     1
  9
$DIMTZIN
 70
     0
  9
$DIMALTZ
 70
     0
  9
$DIMALTTZ
 70
     0
  9
$DIMUPT
 70
     0
  9
$DIMDEC
 70
     4
  9
$DIMTDEC
 70
     4
  9
$DIMALTU
 70
     2
  9
$DIMALTTD
 70
     2
  9
$DIMTXSTY
  7
Standard
  9
$DIMAUNIT
 70
     0
  9
$DIMADEC
 70
     0
  9
$DIMALTRND
 40
0.0
  9
$DIMAZIN
 70
     0
  9
$DIMDSEP
 70
    46
  9
$DIMATFIT
 70
     3
  9
$DIMFRAC
 70
     0
  9
$DIMLDRBLK
  1

  9
$DIMLUNIT
 70
     2
  9
$DIMLWD
 70
    -2
  9
$DIMLWE
 70
    -2
  9
$DIMTMOVE
 70
     0
  9
$LUNITS
 70
     2
  9
$LUPREC
 70
     4
  9
$SKETCHINC
 40
0.1
  9
$FILLETRAD
 40
0.5
  9
$AUNITS
 70
     0
  9
$AUPREC
 70
     0
  9
$MENU
  1
.
  9
$ELEVATION
 40
0.0
  9
$PELEVATION
 40
0.0
  9
$THICKNESS
 40
0.0
  9
$LIMCHECK
 70
     0
  9
$CHAMFERA
 40
0.5
  9
$CHAMFERB
 40
0.5
  9
$CHAMFERC
 40
1.0
  9
$CHAMFERD
 40
0.0
  9
$SKPOLY
 70
     0
  9
$TDCREATE
 40
2455386.307774607
  9
$TDUCREATE
 40
2455386.224441273
  9
$TDUPDATE
 40
2455386.307774618
  9
$TDUUPDATE
 40
2455386.224441285
  9
$TDINDWG
 40
0.0000000116
  9
$TDUSRTIMER
 40
0.0000000116
  9
$USRTIMER
 70
     1
  9
$ANGBASE
 50
0.0
  9
$ANGDIR
 70
     0
  9
$PDMODE
 70
     0
  9
$PDSIZE
 40
0.0
  9
$PLINEWID
 40
0.0
  9
$SPLFRAME
 70
     0
  9
$SPLINETYPE
 70
     6
  9
$SPLINESEGS
 70
     8
  9
$HANDSEED
  5
279
  9
$SURFTAB1
 70
     6
  9
$SURFTAB2
 70
     6
  9
$SURFTYPE
 70
     6
  9
$SURFU
 70
     6
  9
$SURFV
 70
     6
  9
$UCSBASE
  2

  9
$UCSNAME
  2

  9
$UCSORG
 10
0.0
 20
0.0
 30
0.0
  9
$UCSXDIR
 10
1.0
 20
0.0
 30
0.0
  9
$UCSYDIR
 10
0.0
 20
1.0
 30
0.0
  9
$UCSORTHOREF
  2

  9
$UCSORTHOVIEW
 70
     0
  9
$UCSORGTOP
 10
0.0
 20
0.0
 30
0.0
  9
$UCSORGBOTTOM
 10
0.0
 20
0.0
 30
0.0
  9
$UCSORGLEFT
 10
0.0
 20
0.0
 30
0.0
  9
$UCSORGRIGHT
 10
0.0
 20
0.0
 30
0.0
  9
$UCSORGFRONT
 10
0.0
 20
0.0
 30
0.0
  9
$UCSORGBACK
 10
0.0
 20
0.0
 30
0.0
  9
$PUCSBASE
  2

  9
$PUCSNAME
  2

  9
$PUCSORG
 10
0.0
 20
0.0
 30
0.0
  9
$PUCSXDIR
 10
1.0
 20
0.0
 30
0.0
  9
$PUCSYDIR
 10
0.0
 20
1.0
 30
0.0
  9
$PUCSORTHOREF
  2

  9
$PUCSORTHOVIEW
 70
     0
  9
$PUCSORGTOP
 10
0.0
 20
0.0
 30
0.0
  9
$PUCSORGBOTTOM
 10
0.0
 20
0.0
 30
0.0
  9
$PUCSORGLEFT
 10
0.0
 20
0.0
 30
0.0
  9
$PUCSORGRIGHT
 10
0.0
 20
0.0
 30
0.0
  9
$PUCSORGFRONT
 10
0.0
 20
0.0
 30
0.0
  9
$PUCSORGBACK
 10
0.0
 20
0.0
 30
0.0
  9
$USERI1
 70
     0
  9
$USERI2
 70
     0
  9
$USERI3
 70
     0
  9
$USERI4
 70
     0
  9
$USERI5
 70
     0
  9
$USERR1
 40
16.5
  9
$USERR2
 40
0.0
  9
$USERR3
 40
0.0
  9
$USERR4
 40
0.0
  9
$USERR5
 40
0.0
  9
$WORLDVIEW
 70
     1
  9
$SHADEDGE
 70
     3
  9
$SHADEDIF
 70
    70
  9
$TILEMODE
 70
     1
  9
$MAXACTVP
 70
    64
  9
$PINSBASE
 10
0.0
 20
0.0
 30
0.0
  9
$PLIMCHECK
 70
     0
  9
$PEXTMIN
 10
1.00000000000000E+20
 20
1.00000000000000E+20
 30
1.00000000000000E+20
  9
$PEXTMAX
 10
-1.00000000000000E+20
 20
-1.00000000000000E+20
 30
-1.00000000000000E+20
  9
$PLIMMIN
 10
0.0
 20
0.0
  9
$PLIMMAX
 10
12.0
 20
9.0
  9
$UNITMODE
 70
     0
  9
$VISRETAIN
 70
     1
  9
$PLINEGEN
 70
     0
  9
$PSLTSCALE
 70
     1
  9
$TREEDEPTH
 70
  3020
  9
$CMLSTYLE
  2
Standard
  9
$CMLJUST
 70
     0
  9
$CMLSCALE
 40
1.0
  9
$PROXYGRAPHICS
 70
     1
  9
$MEASUREMENT
 70
     1
  9
$CELWEIGHT
370
    -1
  9
$ENDCAPS
280
     0
  9
$JOINSTYLE
280
     0
  9
$LWDISPLAY
290
     0
  9
$INSUNITS
 70
     1
  9
$HYPERLINKBASE
  1

  9
$STYLESHEET
  1

  9
$XEDIT
290
     1
  9
$CEPSNTYPE
380
     0
  9
$PSTYLEMODE
290
     1
  9
$FINGERPRINTGUID
  2
{21693BD4-34D9-4DAC-8EF1-C060154DAD75}
  9
$VERSIONGUID
  2
{FAEB1C32-E019-11D5-929B-00C0DF256EC4}
  9
$EXTNAMES
290
     1
  9
$PSVPSCALE
 40
0.0
  9
$OLESTARTUP
290
     0
  0
ENDSEC
  0
SECTION
  2
CLASSES
  0
CLASS
  1
ACDBDICTIONARYWDFLT
  2
AcDbDictionaryWithDefault
  3
ObjectDBX Classes
 90
        0
280
     0
281
     0
  0
CLASS
  1
VISUALSTYLE
  2
AcDbVisualStyle
  3
ObjectDBX Classes
 90
     4095
280
     0
281
     0
  0
CLASS
  1
SCALE
  2
AcDbScale
  3
ObjectDBX Classes
 90
     1153
280
     0
281
     0
  0
CLASS
  1

  2
exOdDbPolyline
  3

 90
        0
280
     0
281
     1
  0
CLASS
  1

  2
exOdDbSpline
  3

 90
        0
280
     0
281
     1
  0
CLASS
  1
DICTIONARYVAR
  2
AcDbDictionaryVar
  3
ObjectDBX Classes
 90
        0
280
     0
281
     0
  0
CLASS
  1
ACDBPLACEHOLDER
  2
AcDbPlaceHolder
  3
ObjectDBX Classes
 90
        0
280
     0
281
     0
  0
CLASS
  1
LAYOUT
  2
AcDbLayout
  3
ObjectDBX Classes
 90
        0
280
     0
281
     0
  0
ENDSEC
  0
SECTION
  2
TABLES
  0
TABLE
  2
VPORT
  5
8
330
0
100
AcDbSymbolTable
 70
     1
  0
VPORT
  5
29
330
8
100
AcDbSymbolTableRecord
100
AcDbViewportTableRecord
  2
*Active
 70
     0
 10
0.0
 20
0.0
 11
1.0
 21
1.0
 12
374.4424351526305
 22
215.038481518175
 13
0.0
 23
0.0
 14
0.5
 24
0.5
 15
0.5
 25
0.5
 16
0.0
 26
0.0
 36
1.0
 17
0.0
 27
0.0
 37
0.0
 40
363.3455738440334
 41
1.60267857142857
 42
50.0
 43
0.0
 44
0.0
 50
0.0
 51
0.0
 71
     0
 72
   100
 73
     1
 74
     3
 75
     0
 76
     0
 77
     0
 78
     0
281
     0
 65
     1
110
0.0
120
0.0
130
0.0
111
1.0
121
0.0
131
0.0
112
0.0
122
1.0
132
0.0
 79
     0
146
0.0
  0
ENDTAB
  0
TABLE
  2
LTYPE
  5
5
330
0
100
AcDbSymbolTable
 70
     9
  0
LTYPE
  5
14
330
5
100
AcDbSymbolTableRecord
100
AcDbLinetypeTableRecord
  2
ByBlock
 70
     0
  3

 72
    65
 73
     0
 40
0.0
  0
LTYPE
  5
15
330
5
100
AcDbSymbolTableRecord
100
AcDbLinetypeTableRecord
  2
ByLayer
 70
     0
  3

 72
    65
 73
     0
 40
0.0
  0
LTYPE
  5
16
330
5
100
AcDbSymbolTableRecord
100
AcDbLinetypeTableRecord
  2
Continuous
 70
     0
  3
Solid line
 72
    65
 73
     0
 40
0.0
  0
LTYPE
  5
3B
330
5
100
AcDbSymbolTableRecord
100
AcDbLinetypeTableRecord
  2
DASHED
 70
     0
  3
Dashed
 72
    65
 73
     2
 40
15.0
 49
7.0
 74
     0
 49
-8.0
 74
     0
  0
LTYPE
  5
3C
330
5
100
AcDbSymbolTableRecord
100
AcDbLinetypeTableRecord
  2
DOTTED
 70
     0
  3
Dotted
 72
    65
 73
     2
 40
1.0
 49
0.0
 74
     0
 49
-1.0
 74
     0
  0
LTYPE
  5
3D
330
5
100
AcDbSymbolTableRecord
100
AcDbLinetypeTableRecord
  2
DOT_CENTER
 70
     0
  3
Dot_Center
 72
    65
 73
     4
 40
14.0
 49
12.0
 74
     0
 49
-1.0
 74
     0
 49
0.0
 74
     0
 49
-1.0
 74
     0
  0
LTYPE
  5
3E
330
5
100
AcDbSymbolTableRecord
100
AcDbLinetypeTableRecord
  2
LONG_DASHED
 70
     0
  3
Long_Dashed
 72
    65
 73
     2
 40
15.0
 49
10.0
 74
     0
 49
-5.0
 74
     0
  0
LTYPE
  5
3F
330
5
100
AcDbSymbolTableRecord
100
AcDbLinetypeTableRecord
  2
DASH_CENTER
 70
     0
  3
Dash_Center
 72
    65
 73
     4
 40
14.0
 49
11.0
 74
     0
 49
-1.0
 74
     0
 49
1.0
 74
     0
 49
-1.0
 74
     0
  0
LTYPE
  5
40
330
5
100
AcDbSymbolTableRecord
100
AcDbLinetypeTableRecord
  2
PHANTOM
 70
     0
  3
Phantom
 72
    65
 73
     6
 40
13.0
 49
10.0
 74
     0
 49
-1.0
 74
     0
 49
0.0
 74
     0
 49
-1.0
 74
     0
 49
0.0
 74
     0
 49
-1.0
 74
     0
  0
LTYPE
  5
41
330
5
100
AcDbSymbolTableRecord
100
AcDbLinetypeTableRecord
  2
CENTER_DASH_DASH
 70
     0
  3
Center_Dash_Dash
 72
    65
 73
     6
 40
14.0
 49
9.0
 74
     0
 49
-1.0
 74
     0
 49
1.0
 74
     0
 49
-1.0
 74
     0
 49
1.0
 74
     0
 49
-1.0
 74
     0
  0
LTYPE
  5
42
330
5
100
AcDbSymbolTableRecord
100
AcDbLinetypeTableRecord
  2
CENTERX2
 70
     0
  3
CENTERX2
 72
    65
 73
     4
 40
22.0
 49
13.0
 74
     0
 49
-3.0
 74
     0
 49
3.0
 74
     0
 49
-3.0
 74
     0
  0
ENDTAB
  0
TABLE
  2
LAYER
  5
2
330
0
100
AcDbSymbolTable
 70
     2
  0
LAYER
  5
10
330
2
100
AcDbSymbolTableRecord
100
AcDbLayerTableRecord
  2
0
 70
     0
 62
     7
  6
Continuous
370
    -3
390
F
  0
LAYER
  5
43
330
2
100
AcDbSymbolTableRecord
100
AcDbLayerTableRecord
  2
1
 70
     0
 62
     7
  6
Continuous
370
    -3
390
F
  0
ENDTAB
  0
TABLE
  2
STYLE
  5
3
330
0
100
AcDbSymbolTable
 70
     2
  0
STYLE
  5
11
330
3
100
AcDbSymbolTableRecord
100
AcDbTextStyleTableRecord
  2
Standard
 70
     0
 40
0.0
 41
1.0
 50
0.0
 71
     0
 42
0.2
  3
txt
  4

  0
STYLE
  5
238
330
3
100
AcDbSymbolTableRecord
100
AcDbTextStyleTableRecord
  2
CONVERTER_11
 70
     0
 40
0.0
 41
0.9
 50
0.0
 71
     0
 42
0.2
  3
txt.shx
  4

  0
ENDTAB
  0
TABLE
  2
VIEW
  5
6
330
0
100
AcDbSymbolTable
 70
     0
  0
ENDTAB
  0
TABLE
  2
UCS
  5
7
330
0
100
AcDbSymbolTable
 70
     0
  0
ENDTAB
  0
TABLE
  2
APPID
  5
9
330
0
100
AcDbSymbolTable
 70
     1
  0
APPID
  5
12
330
9
100
AcDbSymbolTableRecord
100
AcDbRegAppTableRecord
  2
ACAD
 70
     0
  0
ENDTAB
  0
TABLE
  2
DIMSTYLE
  5
A
330
0
100
AcDbSymbolTable
 70
     6
100
AcDbDimStyleTable
  0
DIMSTYLE
105
27
330
A
100
AcDbSymbolTableRecord
100
AcDbDimStyleTableRecord
  2
Standard
 70
     0
340
11
  0
DIMSTYLE
105
23C
102
{ACAD_REACTORS
330
23D
102
}
330
A
100
AcDbSymbolTableRecord
100
AcDbDimStyleTableRecord
  2
ME10_DIM_10
 70
     0
 41
10.0
 42
0.0
 44
2.0
 73
     0
 74
     0
 77
     1
 78
     8
140
10.0
147
2.0
172
     1
173
     1
176
     4
177
     4
178
     1
271
     0
340
238
  0
DIMSTYLE
105
247
102
{ACAD_REACTORS
330
248
102
}
330
A
100
AcDbSymbolTableRecord
100
AcDbDimStyleTableRecord
  2
ME10_DIM_11
 70
     0
  3
Ø<>
 41
10.0
 42
0.0
 44
2.0
 73
     0
 74
     0
 77
     1
 78
     8
140
10.0
147
2.0
172
     1
173
     1
176
     4
177
     4
178
     1
271
     2
340
238
  0
DIMSTYLE
105
252
102
{ACAD_REACTORS
330
253
102
}
330
A
100
AcDbSymbolTableRecord
100
AcDbDimStyleTableRecord
  2
ME10_DIM_12
 70
     0
 41
10.0
 42
0.0
 44
2.0
 73
     0
 74
     0
 77
     1
 78
     8
140
10.0
147
2.0
172
     1
173
     1
176
     4
177
     4
178
     1
271
     2
340
238
  0
DIMSTYLE
105
25D
102
{ACAD_REACTORS
330
25E
102
}
330
A
100
AcDbSymbolTableRecord
100
AcDbDimStyleTableRecord
  2
ME10_DIM_13
 70
     0
 41
10.0
 42
0.0
 44
2.0
 73
     0
 74
     0
 77
     1
 78
     8
140
10.0
147
2.0
172
     1
173
     1
176
     4
177
     4
178
     1
271
     2
340
238
  0
DIMSTYLE
105
268
102
{ACAD_REACTORS
330
269
102
}
330
A
100
AcDbSymbolTableRecord
100
AcDbDimStyleTableRecord
  2
ME10_DIM_14
 70
     0
  3
DN<>
 41
10.0
 42
0.0
 44
2.0
 73
     0
 74
     0
 77
     1
 78
     8
140
10.0
147
2.0
172
     1
173
     1
176
     4
177
     4
178
     1
271
     2
340
238
  0
ENDTAB
  0
TABLE
  2
BLOCK_RECORD
  5
1
330
0
100
AcDbSymbolTable
 70
     7
  0
BLOCK_RECORD
  5
1F
330
1
100
AcDbSymbolTableRecord
100
AcDbBlockTableRecord
  2
*Model_Space
340
22
  0
BLOCK_RECORD
  5
1B
330
1
100
AcDbSymbolTableRecord
100
AcDbBlockTableRecord
  2
*Paper_Space
340
1E
  0
BLOCK_RECORD
  5
23
330
1
100
AcDbSymbolTableRecord
100
AcDbBlockTableRecord
  2
*Paper_Space0
340
26
  0
BLOCK_RECORD
  5
44
330
1
100
AcDbSymbolTableRecord
100
AcDbBlockTableRecord
  2
HL64_1P_7
340
0
102
{BLKREFS
331
69
102
}
  0
BLOCK_RECORD
  5
232
330
1
100
AcDbSymbolTableRecord
100
AcDbBlockTableRecord
  2
*D2
340
0
  0
BLOCK_RECORD
  5
23E
330
1
100
AcDbSymbolTableRecord
100
AcDbBlockTableRecord
  2
*D3
340
0
  0
BLOCK_RECORD
  5
249
330
1
100
AcDbSymbolTableRecord
100
AcDbBlockTableRecord
  2
*D4
340
0
  0
BLOCK_RECORD
  5
254
330
1
100
AcDbSymbolTableRecord
100
AcDbBlockTableRecord
  2
*D5
340
0
  0
BLOCK_RECORD
  5
25F
330
1
100
AcDbSymbolTableRecord
100
AcDbBlockTableRecord
  2
*D6
340
0
  0
ENDTAB
  0
ENDSEC
  0
SECTION
  2
BLOCKS
  0
BLOCK
  5
20
330
1F
100
AcDbEntity
  8
0
100
AcDbBlockBegin
  2
*Model_Space
 70
     0
 10
0.0
 20
0.0
 30
0.0
  3
*Model_Space
  1

  0
ENDBLK
  5
21
330
1F
100
AcDbEntity
  8
0
100
AcDbBlockEnd
  0
BLOCK
  5
1C
330
1B
100
AcDbEntity
 67
     1
  8
0
100
AcDbBlockBegin
  2
*Paper_Space
 70
     0
 10
0.0
 20
0.0
 30
0.0
  3
*Paper_Space
  1

  0
ENDBLK
  5
1D
330
1B
100
AcDbEntity
 67
     1
  8
0
100
AcDbBlockEnd
  0
BLOCK
  5
24
330
23
100
AcDbEntity
  8
0
100
AcDbBlockBegin
  2
*Paper_Space0
 70
     0
 10
0.0
 20
0.0
 30
0.0
  3
*Paper_Space0
  1

  0
ENDBLK
  5
25
330
23
100
AcDbEntity
  8
0
100
AcDbBlockEnd
  0
BLOCK
  5
45
330
44
100
AcDbEntity
  8
0
100
AcDbBlockBegin
  2
HL64_1P_7
 70
     0
 10
374.4424351526305
 20
215.038481518175
 30
0.0
  3
HL64_1P_7
  1

  0
POINT
  5
6A
330
44
100
AcDbEntity
  8
0
 62
     7
100
AcDbPoint
 10
139.0611434958
 20
243.9138463731
 30
0.0
  0
POINT
  5
6B
330
44
100
AcDbEntity
  8
0
 62
     7
100
AcDbPoint
 10
261.3872966589
 20
95.4142801574
 30
0.0
  0
POINT
  5
6C
330
44
100
AcDbEntity
  8
0
 62
     7
100
AcDbPoint
 10
137.0611434958
 20
240.4142801574
 30
0.0
  0
POINT
  5
6D
330
44
100
AcDbEntity
  8
0
 62
     7
100
AcDbPoint
 10
497.0611434958
 20
241.9138463731
 30
0.0
  0
POINT
  5
6E
330
44
100
AcDbEntity
  8
0
 62
     7
100
AcDbPoint
 10
478.1822165576
 20
180.9511784717
 30
0.0
  0
POINT
  5
6F
330
44
100
AcDbEntity
  8
0
 62
     7
100
AcDbPoint
 10
474.9107625052
 20
106.0225618531
 30
0.0
  0
POINT
  5
70
330
44
100
AcDbEntity
  8
0
 62
     7
100
AcDbPoint
 10
268.6125615921
 20
318.9138523731
 30
0.0
  0
POINT
  5
71
330
44
100
AcDbEntity
  8
0
 62
     7
100
AcDbPoint
 10
238.3111875753
 20
243.9138463731
 30
0.0
  0
LINE
  5
72
330
44
100
AcDbEntity
  8
0
  6
Continuous
 62
     7
100
AcDbLine
 10
316.9501861019
 20
112.9143131335
 30
0.0
 11
317.0611434958
 21
112.9143131335
 31
0.0
  0
LINE
  5
73
330
44
100
AcDbEntity
  8
0
  6
Continuous
 62
     7
100
AcDbLine
 10
252.3111434958
 20
211.6097469245
 30
0.0
 11
252.3111434958
 21
211.1097469245
 31
0.0
  0
LINE
  5
74
330
44
100
AcDbEntity
  8
0
  6
Continuous
 62
     7
100
AcDbLine
 10
252.3111434958
 20
211.6097469245
 30
0.0
 11
381.8111434958
 21
211.6097469245
 31
0.0
  0
LINE
  5
75
330
44
100
AcDbEntity
  8
0
  6
Continuous
 62
     7
100
AcDbLine
 10
381.8111434958
 20
211.1097469245
 30
0.0
 11
381.8111434958
 21
211.6097469245
 31
0.0
  0
LINE
  5
76
330
44
100
AcDbEntity
  8
0
  6
Continuous
 62
     7
100
AcDbLine
 10
252.3111434958
 20
211.1097469245
 30
0.0
 11
381.8111434958
 21
211.1097469245
 31
0.0
  0
LINE
  5
77
330
44
100
AcDbEntity
  8
0
  6
Continuous
 62
     7
100
AcDbLine
 10
250.3111434958
 20
213.6097469245
 30
0.0
 11
383.8111434958
 21
213.6097469245
 31
0.0
  0
LINE
  5
78
330
44
100
AcDbEntity
  8
0
  6
Continuous
 62
     7
100
AcDbLine
 10
247.8111434958
 20
209.1097469245
 30
0.0
 11
386.3111434958
 21
209.1097469245
 31
0.0
  0
LINE
  5
79
330
44
100
AcDbEntity
  8
0
  6
Continuous
 62
     7
100
AcDbLine
 10
240.9658434958
 20
209.1097469245
 30
0.0
 11
239.8111434958
 21
211.1097469245
 31
0.0
  0
LINE
  5
7A
330
44
100
AcDbEntity
  8
0
  6
Continuous
 62
     7
100
AcDbLine
 10
239.8111434958
 20
211.1097469245
 30
0.0
 11
239.8111434958
 21
213.6097469245
 31
0.0
  0
LINE
  5
7B
330
44
100
AcDbEntity
  8
0
  6
Continuous
 62
     7
100
AcDbLine
 10
239.8111434958
 20
213.6097469245
 30
0.0
 11
250.3111434958
 21
213.6097469245
 31
0.0
  0
LINE
  5
7C
330
44
100
AcDbEntity
  8
0
  6
Continuous
 62
     7
100
AcDbLine
 10
247.8111434958
 20
209.1097469245
 30
0.0
 11
240.9658434958
 21
209.1097469245
 31
0.0
  0
LINE
  5
7D
330
44
100
AcDbEntity
  8
0
  6
Continuous
 62
     7
100
AcDbLine
 10
252.3111434958
 20
211.1097469245
 30
0.0
 11
249.8111434958
 21
211.1097469245
 31
0.0
  0
LINE
  5
7E
330
44
100
AcDbEntity
  8
0
  6
Continuous
 62
     7
100
AcDbLine
 10
383.8111434958
 20
213.6097469245
 30
0.0
 11
394.3111434958
 21
213.6097469245
 31
0.0
  0
LINE
  5
7F
330
44
100
AcDbEntity
  8
0
  6
Continuous
 62
     7
100
AcDbLine
 10
394.3111434958
 20
213.6097469245
 30
0.0
 11
394.3111434958
 21
211.1097469245
 31
0.0
  0
LINE
  5
80
330
44
100
AcDbEntity
  8
0
  6
Continuous
 62
     7
100
AcDbLine
 10
394.3111434958
 20
211.1097469245
 30
0.0
 11
393.1564434958
 21
209.1097469245
 31
0.0
  0
LINE
  5
81
330
44
100
AcDbEntity
  8
0
  6
Continuous
 62
     7
100
AcDbLine
 10
393.1564434958
 20
209.1097469245
 30
0.0
 11
386.3111434958
 21
209.1097469245
 31
0.0
  0
LINE
  5
82
330
44
100
AcDbEntity
  8
0
  6
Continuous
 62
     7
100
AcDbLine
 10
384.3111434958
 20
211.1097469245
 30
0.0
 11
381.8111434958
 21
211.1097469245
 31
0.0
  0
LINE
  5
83
330
44
100
AcDbEntity
  8
0
  6
Continuous
 62
     7
100
AcDbLine
 10
317.0611434958
 20
112.9144250568
 30
0.0
 11
474.9107625052
 21
106.0225618531
 31
0.0
  0
LINE
  5
84
330
44
100
AcDbEntity
  8
0
  6
Continuous
 62
     7
100
AcDbLine
 10
478.1822165576
 20
180.9511784717
 30
0.0
 11
384.0610994163
 21
185.0605951937
 31
0.0
  0
LINE
  5
85
330
44
100
AcDbEntity
  8
0
  6
Continuous
 62
     7
100
AcDbLine
 10
250.0611875753
 20
181.9930776256
 30
0.0
 11
250.0611875753
 21
195.9619766367
 31
0.0
  0
LINE
  5
86
330
44
100
AcDbEntity
  8
0
  6
Continuous
 62
     7
100
AcDbLine
 10
384.0610994163
 20
195.9619766367
 30
0.0
 11
384.0610994163
 21
185.0605951937
 31
0.0
  0
LINE
  5
87
330
44
100
AcDbEntity
  8
0
  6
Continuous
 62
     7
100
AcDbLine
 10
253.5611875753
 20
181.9930776256
 30
0.0
 11
317.0611434958
 21
181.993077625627
 31
0.0
  0
LINE
  5
88
330
44
100
AcDbEntity
  8
0
  6
Continuous
 62
     7
100
AcDbLine
 10
253.5611875753
 20
199.462262747
 30
0.0
 11
253.5611875753
 21
181.9930776256
 31
0.0
  0
LINE
  5
89
330
44
100
AcDbEntity
  8
0
  6
Continuous
 62
     7
100
AcDbLine
 10
253.5611875753
 20
199.462262747
 30
0.0
 11
380.5610994163
 21
199.462262747
 31
0.0
  0
LINE
  5
8A
330
44
100
AcDbEntity
  8
0
  6
Continuous
 62
     7
100
AcDbLine
 10
380.5610994163
 20
181.7100740958
 30
0.0
 11
380.5610994163
 21
199.462262747
 31
0.0
  0
LINE
  5
8B
330
44
100
AcDbEntity
  8
0
  6
Continuous
 62
     7
100
AcDbLine
 10
317.2138113516
 20
116.4110938323
 30
0.0
 11
479.0596232478
 21
109.3447530791
 31
0.0
  0
LINE
  5
8C
330
44
100
AcDbEntity
  8
0
  6
Continuous
 62
     7
100
AcDbLine
 10
482.0257415887
 20
177.2800321467
 30
0.0
 11
380.5610994163
 21
181.7100740958
 31
0.0
  0
LINE
  5
8D
330
44
100
AcDbEntity
  8
0
  6
Continuous
 62
     7
100
AcDbLine
 10
479.0596232478
 20
109.3447530791
 30
0.0
 11
482.0257415887
 21
177.2800321467
 31
0.0
  0
LINE
  5
8E
330
44
100
AcDbEntity
  8
0
  6
Continuous
 62
     7
100
AcDbLine
 10
317.2139571281
 20
116.4144326632
 30
0.0
 11
317.0611434958
 21
116.4144326632
 31
0.0
  0
LINE
  5
8F
330
44
100
AcDbEntity
  8
0
  6
Continuous
 62
     7
100
AcDbLine
 10
317.2140662802
 20
116.4169326591
 30
0.0
 11
317.2139571281
 21
116.4144326632
 31
0.0
  0
LINE
  5
90
330
44
100
AcDbEntity
  8
0
  6
Continuous
 62
     7
100
AcDbLine
 10
247.1614328027
 20
195.9617396037
 30
0.0
 11
250.0611875753
 21
195.9617396037
 31
0.0
  0
LINE
  5
91
330
44
100
AcDbEntity
  8
0
  6
Continuous
 62
     7
100
AcDbLine
 10
244.1611875753
 20
198.9617395936
 30
0.0
 11
244.1611875753
 21
205.6094608142
 31
0.0
  0
LINE
  5
92
330
44
100
AcDbEntity
  8
0
  6
Continuous
 62
     7
100
AcDbLine
 10
389.9610994163
 20
205.6094608142
 30
0.0
 11
389.9610994163
 21
198.9617395936
 31
0.0
  0
LINE
  5
93
330
44
100
AcDbEntity
  8
0
  6
Continuous
 62
     7
100
AcDbLine
 10
236.5611434958
 20
208.6090848053
 30
0.0
 11
236.5611434958
 21
223.2552963579
 31
0.0
  0
LINE
  5
94
330
44
100
AcDbEntity
  8
0
  6
Continuous
 62
     7
100
AcDbLine
 10
397.5611434958
 20
223.2552963579
 30
0.0
 11
397.5611434958
 21
208.6090848053
 31
0.0
  0
LINE
  5
95
330
44
100
AcDbEntity
  8
0
  6
Continuous
 62
     7
100
AcDbLine
 10
244.1611875753
 20
205.6094608142
 30
0.0
 11
239.5613887232
 21
205.6090848154
 31
0.0
  0
LINE
  5
96
330
44
100
AcDbEntity
  8
0
  6
Continuous
 62
     7
100
AcDbLine
 10
394.5608982683
 20
205.6090848154
 30
0.0
 11
389.9610994163
 21
205.6094608142
 31
0.0
  0
LINE
  5
97
330
44
100
AcDbEntity
  8
0
  6
Continuous
 62
     7
100
AcDbLine
 10
239.5613887232
 20
205.6090848154
 30
0.0
 11
244.1611875753
 21
205.6090848154
 31
0.0
  0
LINE
  5
98
330
44
100
AcDbEntity
  8
0
  6
Continuous
 62
     7
100
AcDbLine
 10
389.9610994163
 20
205.6090848154
 30
0.0
 11
394.5608982683
 21
205.6090848154
 31
0.0
  0
LINE
  5
99
330
44
100
AcDbEntity
  8
0
  6
Continuous
 62
     7
100
AcDbLine
 10
250.0611875753
 20
195.9619766367
 30
0.0
 11
247.1614328027
 21
195.9617396037
 31
0.0
  0
LINE
  5
9A
330
44
100
AcDbEntity
  8
0
  6
Continuous
 62
     7
100
AcDbLine
 10
137.0611434958
 20
240.4142801574
 30
0.0
 11
137.0611434958
 21
241.9138463731
 31
0.0
  0
LINE
  5
9B
330
44
100
AcDbEntity
  8
0
  6
Continuous
 62
     7
100
AcDbLine
 10
497.0611434958
 20
241.9138463731
 30
0.0
 11
497.0611434958
 21
240.4142801574
 31
0.0
  0
LINE
  5
9C
330
44
100
AcDbEntity
  8
0
  6
Continuous
 62
     7
100
AcDbLine
 10
267.103257814884
 20
144.670308737762
 30
0.0
 11
250.389110320672
 21
180.513913709508
 31
0.0
  0
LINE
  5
9D
330
44
100
AcDbEntity
  8
0
  6
Continuous
 62
     7
100
AcDbLine
 10
242.3110551319
 20
220.3139286658
 30
0.0
 11
242.3110551319
 21
219.4139286658
 31
0.0
  0
LINE
  5
9E
330
44
100
AcDbEntity
  8
0
  6
Continuous
 62
     7
100
AcDbLine
 10
242.3110551319
 20
220.3139286658
 30
0.0
 11
243.1611434958
 21
220.3139286658
 31
0.0
  0
LINE
  5
9F
330
44
100
AcDbEntity
  8
0
  6
Continuous
 62
     7
100
AcDbLine
 10
247.0485895342
 20
220.3139286658
 30
0.0
 11
305.2611610076
 21
220.3139286658
 31
0.0
  0
LINE
  5
A0
330
44
100
AcDbEntity
  8
0
  6
Continuous
 62
     7
100
AcDbLine
 10
328.8612404349
 20
220.3139286658
 30
0.0
 11
387.0737167472
 21
220.3139286658
 31
0.0
  0
LINE
  5
A1
330
44
100
AcDbEntity
  8
0
  6
Continuous
 62
     7
100
AcDbLine
 10
390.9611434958
 20
220.3139286658
 30
0.0
 11
391.8112318596
 21
220.3139286658
 31
0.0
  0
LINE
  5
A2
330
44
100
AcDbEntity
  8
0
  6
Continuous
 62
     7
100
AcDbLine
 10
391.8112318596
 20
219.4139286658
 30
0.0
 11
391.8112318596
 21
220.3139286658
 31
0.0
  0
LINE
  5
A3
330
44
100
AcDbEntity
  8
0
  6
Continuous
 62
     7
100
AcDbLine
 10
242.3110551319
 20
219.4139286658
 30
0.0
 11
243.1611434958
 21
219.4139286658
 31
0.0
  0
LINE
  5
A4
330
44
100
AcDbEntity
  8
0
  6
Continuous
 62
     7
100
AcDbLine
 10
247.0485895342
 20
219.4139286658
 30
0.0
 11
305.2611610076
 21
219.4139286658
 31
0.0
  0
LINE
  5
A5
330
44
100
AcDbEntity
  8
0
  6
Continuous
 62
     7
100
AcDbLine
 10
328.8612404349
 20
219.4139286658
 30
0.0
 11
387.0737167472
 21
219.4139286658
 31
0.0
  0
LINE
  5
A6
330
44
100
AcDbEntity
  8
0
  6
Continuous
 62
     7
100
AcDbLine
 10
390.9611434958
 20
219.4139286658
 30
0.0
 11
391.8112318596
 21
219.4139286658
 31
0.0
  0
LINE
  5
A7
330
44
100
AcDbEntity
  8
0
  6
Continuous
 62
     7
100
AcDbLine
 10
202.2554472965
 20
223.4142801574
 30
0.0
 11
202.7731335952
 21
223.914204005
 31
0.0
  0
LINE
  5
A8
330
44
100
AcDbEntity
  8
0
  6
Continuous
 62
     7
100
AcDbLine
 10
191.3491533963
 20
223.914204005
 30
0.0
 11
191.8668396951
 21
223.4142801574
 31
0.0
  0
LINE
  5
A9
330
44
100
AcDbEntity
  8
0
  6
Continuous
 62
     7
100
AcDbLine
 10
399.3110994163
 20
226.274876481
 30
0.0
 11
397.5611434958
 21
223.2552963579
 31
0.0
  0
LINE
  5
AA
330
44
100
AcDbEntity
  8
0
  6
Continuous
 62
     7
100
AcDbLine
 10
236.5611434958
 20
223.2552963579
 30
0.0
 11
234.8111875753
 21
226.274876481
 31
0.0
  0
LINE
  5
AB
330
44
100
AcDbEntity
  8
0
  6
Continuous
 62
     7
100
AcDbLine
 10
193.5611434958
 20
223.4142801574
 30
0.0
 11
194.5611434958
 21
224.4142801574
 31
0.0
  0
LINE
  5
AC
330
44
100
AcDbEntity
  8
0
  6
Continuous
 62
     7
100
AcDbLine
 10
199.5611434958
 20
224.4142801574
 30
0.0
 11
200.5611434958
 21
223.4142801574
 31
0.0
  0
LINE
  5
AD
330
44
100
AcDbEntity
  8
0
  6
Continuous
 62
     7
100
AcDbLine
 10
200.5611434958
 20
223.4142801574
 30
0.0
 11
200.0611434958
 21
223.4142801574
 31
0.0
  0
LINE
  5
AE
330
44
100
AcDbEntity
  8
0
  6
Continuous
 62
     7
100
AcDbLine
 10
194.0611434958
 20
223.4142801574
 30
0.0
 11
193.5611434958
 21
223.4142801574
 31
0.0
  0
LINE
  5
AF
330
44
100
AcDbEntity
  8
0
  6
Continuous
 62
     7
100
AcDbLine
 10
241.5611434958
 20
218.9708475375
 30
0.0
 11
241.5611434958
 21
214.7139286658
 31
0.0
  0
LINE
  5
B0
330
44
100
AcDbEntity
  8
0
  6
Continuous
 62
     7
100
AcDbLine
 10
241.5611434958
 20
218.9708475375
 30
0.0
 11
243.1611434958
 21
218.9708475375
 31
0.0
  0
LINE
  5
B1
330
44
100
AcDbEntity
  8
0
  6
Continuous
 62
     7
100
AcDbLine
 10
247.0485895342
 20
218.9708475375
 30
0.0
 11
305.2611610076
 21
218.9708475375
 31
0.0
  0
LINE
  5
B2
330
44
100
AcDbEntity
  8
0
  6
Continuous
 62
     7
100
AcDbLine
 10
328.8612404349
 20
218.9708475375
 30
0.0
 11
387.0737167472
 21
218.9708475375
 31
0.0
  0
LINE
  5
B3
330
44
100
AcDbEntity
  8
0
  6
Continuous
 62
     7
100
AcDbLine
 10
390.9611434958
 20
218.9708475375
 30
0.0
 11
392.5611434958
 21
218.9708475375
 31
0.0
  0
LINE
  5
B4
330
44
100
AcDbEntity
  8
0
  6
Continuous
 62
     7
100
AcDbLine
 10
392.5611434958
 20
214.7139286658
 30
0.0
 11
392.5611434958
 21
218.9708475375
 31
0.0
  0
LINE
  5
B5
330
44
100
AcDbEntity
  8
0
  6
Continuous
 62
     7
100
AcDbLine
 10
241.5611434958
 20
214.7139286658
 30
0.0
 11
392.5611434958
 21
214.7139286658
 31
0.0
  0
LINE
  5
B6
330
44
100
AcDbEntity
  8
0
  6
Continuous
 62
     7
100
AcDbLine
 10
203.0611434958
 20
240.4142801574
 30
0.0
 11
202.7731335952
 21
223.914204005
 31
0.0
  0
LINE
  5
B7
330
44
100
AcDbEntity
  8
0
  6
Continuous
 62
     7
100
AcDbLine
 10
191.3491533963
 20
223.914204005
 30
0.0
 11
191.0611434958
 21
240.4142801574
 31
0.0
  0
LINE
  5
B8
330
44
100
AcDbEntity
  8
0
  6
Continuous
 62
     7
100
AcDbLine
 10
258.5853063457
 20
171.218820153
 30
0.0
 11
270.275335069512
 21
146.149472653854
 31
0.0
  0
LINE
  5
B9
330
44
100
AcDbEntity
  8
0
  6
Continuous
 62
     7
100
AcDbLine
 10
253.5611875753
 20
181.9930776256
 30
0.0
 11
253.5981337151
 21
181.9138463731
 31
0.0
  0
LINE
  5
BA
330
44
100
AcDbEntity
  8
0
  6
Continuous
 62
     7
100
AcDbLine
 10
234.8111875753
 20
226.274876481
 30
0.0
 11
234.8111875753
 21
240.4142801574
 31
0.0
  0
LINE
  5
BB
330
44
100
AcDbEntity
  8
0
  6
Continuous
 62
     7
100
AcDbLine
 10
399.3110994163
 20
240.4142801574
 30
0.0
 11
399.3110994163
 21
226.274876481
 31
0.0
  0
LINE
  5
BC
330
44
100
AcDbEntity
  8
0
  6
Continuous
 62
     7
100
AcDbLine
 10
478.9537065105
 20
106.9188609604
 30
0.0
 11
479.0596232478
 21
109.3447530791
 31
0.0
  0
LINE
  5
BD
330
44
100
AcDbEntity
  8
0
  6
Continuous
 62
     7
100
AcDbLine
 10
474.9107625052
 20
106.0225618531
 30
0.0
 11
478.9537065105
 21
106.9188609604
 31
0.0
  0
LINE
  5
BE
330
44
100
AcDbEntity
  8
0
  6
Continuous
 62
     7
100
AcDbLine
 10
234.8111875753
 20
240.4142801574
 30
0.0
 11
203.0611434958
 21
240.4142801574
 31
0.0
  0
LINE
  5
BF
330
44
100
AcDbEntity
  8
0
  6
Continuous
 62
     7
100
AcDbLine
 10
199.5611434958
 20
224.4142801574
 30
0.0
 11
199.5611434958
 21
240.4142801574
 31
0.0
  0
LINE
  5
C0
330
44
100
AcDbEntity
  8
0
  6
Continuous
 62
     7
100
AcDbLine
 10
194.5611434958
 20
240.4142801574
 30
0.0
 11
199.5611434958
 21
240.4142801574
 31
0.0
  0
LINE
  5
C1
330
44
100
AcDbEntity
  8
0
  6
Continuous
 62
     7
100
AcDbLine
 10
194.5611434958
 20
240.4142801574
 30
0.0
 11
194.5611434958
 21
224.4142801574
 31
0.0
  0
LINE
  5
C2
330
44
100
AcDbEntity
  8
0
  6
Continuous
 62
     7
100
AcDbLine
 10
191.0611434958
 20
240.4142801574
 30
0.0
 11
137.0611434958
 21
240.4142801574
 31
0.0
  0
LINE
  5
C3
330
44
100
AcDbEntity
  8
0
  6
Continuous
 62
     7
100
AcDbLine
 10
238.3111875753
 20
243.9138463731
 30
0.0
 11
238.3111875753
 21
227.215771408
 31
0.0
  0
LINE
  5
C4
330
44
100
AcDbEntity
  8
0
  6
Continuous
 62
     7
100
AcDbLine
 10
238.3111875753
 20
227.215771408
 30
0.0
 11
242.3110551319
 21
220.3139286658
 31
0.0
  0
LINE
  5
C5
330
44
100
AcDbEntity
  8
0
  6
Continuous
 62
     7
100
AcDbLine
 10
242.3110551319
 20
219.4139286658
 30
0.0
 11
241.5611434958
 21
218.9708475375
 31
0.0
  0
LINE
  5
C6
330
44
100
AcDbEntity
  8
0
  6
Continuous
 62
     7
100
AcDbLine
 10
241.5611434958
 20
214.7139286658
 30
0.0
 11
240.0611434958
 21
213.7139286658
 31
0.0
  0
LINE
  5
C7
330
44
100
AcDbEntity
  8
0
  6
Continuous
 62
     7
100
AcDbLine
 10
240.0611434958
 20
213.7139286658
 30
0.0
 11
240.0611434958
 21
209.1091256782
 31
0.0
  0
LINE
  5
C8
330
44
100
AcDbEntity
  8
0
  6
Continuous
 62
     7
100
AcDbLine
 10
240.0611434958
 20
209.1091256782
 30
0.0
 11
247.6611875753
 21
209.1097469245
 31
0.0
  0
LINE
  5
C9
330
44
100
AcDbEntity
  8
0
  6
Continuous
 62
     7
100
AcDbLine
 10
247.6611875753
 20
209.1097469245
 30
0.0
 11
247.6611875753
 21
199.4617804665
 31
0.0
  0
LINE
  5
CA
330
44
100
AcDbEntity
  8
0
  6
Continuous
 62
     7
100
AcDbLine
 10
247.6611875753
 20
199.4617804665
 30
0.0
 11
253.5611875753
 21
199.462262747
 31
0.0
  0
LINE
  5
CB
330
44
100
AcDbEntity
  8
0
  6
Continuous
 62
     7
100
AcDbLine
 10
258.5853063457
 20
181.9138463731
 30
0.0
 11
253.5981337151
 21
181.9138463731
 31
0.0
  0
LINE
  5
CC
330
44
100
AcDbEntity
  8
0
  6
Continuous
 62
     7
100
AcDbLine
 10
258.5853063457
 20
171.218820153
 30
0.0
 11
258.5853063457
 21
181.9138463731
 31
0.0
  0
LINE
  5
CD
330
44
100
AcDbEntity
  8
0
  6
Continuous
 62
     7
100
AcDbLine
 10
317.2138113516
 20
116.4110938323
 30
0.0
 11
317.2139571281
 21
116.4144326632
 31
0.0
  0
LINE
  5
CE
330
44
100
AcDbEntity
  8
0
  6
Continuous
 62
     7
100
AcDbLine
 10
200.5611434958
 20
223.4142801574
 30
0.0
 11
202.2554472965
 21
223.4142801574
 31
0.0
  0
LINE
  5
CF
330
44
100
AcDbEntity
  8
0
  6
Continuous
 62
     7
100
AcDbLine
 10
191.8668396951
 20
223.4142801574
 30
0.0
 11
193.5611434958
 21
223.4142801574
 31
0.0
  0
LINE
  5
D0
330
44
100
AcDbEntity
  8
0
  6
Continuous
 62
     7
100
AcDbLine
 10
139.0611434958
 20
243.9138463731
 30
0.0
 11
238.3111875753
 21
243.9138463731
 31
0.0
  0
LINE
  5
D1
330
44
100
AcDbEntity
  8
0
  6
Continuous
 62
     7
100
AcDbLine
 10
392.5611434958
 20
218.9708475375
 30
0.0
 11
391.8112318596
 21
219.4139286658
 31
0.0
  0
LINE
  5
D2
330
44
100
AcDbEntity
  8
0
  6
Continuous
 62
     7
100
AcDbLine
 10
391.8112318596
 20
220.3139286658
 30
0.0
 11
395.8110994163
 21
227.215771408
 31
0.0
  0
LINE
  5
D3
330
44
100
AcDbEntity
  8
0
  6
Continuous
 62
     7
100
AcDbLine
 10
238.3111875753
 20
227.215771408
 30
0.0
 11
241.0430641702
 21
227.215771408
 31
0.0
  0
LINE
  5
D4
330
44
100
AcDbEntity
  8
0
  6
Continuous
 62
     7
100
AcDbLine
 10
303.2611610076
 20
227.215771408
 30
0.0
 11
305.2611610076
 21
227.215771408
 31
0.0
  0
LINE
  5
D5
330
44
100
AcDbEntity
  8
0
  6
Continuous
 62
     7
100
AcDbLine
 10
328.8612404349
 20
227.215771408
 30
0.0
 11
330.8612404349
 21
227.215771408
 31
0.0
  0
LINE
  5
D6
330
44
100
AcDbEntity
  8
0
  6
Continuous
 62
     7
100
AcDbLine
 10
393.0792228214
 20
227.215771408
 30
0.0
 11
395.8110994163
 21
227.215771408
 31
0.0
  0
LINE
  5
D7
330
44
100
AcDbEntity
  8
0
  6
Continuous
 62
     7
100
AcDbLine
 10
386.4610994163
 20
199.4617804665
 30
0.0
 11
386.4610994163
 21
209.1097469245
 31
0.0
  0
LINE
  5
D8
330
44
100
AcDbEntity
  8
0
  6
Continuous
 62
     7
100
AcDbLine
 10
482.131658326
 20
179.7059242654
 30
0.0
 11
478.1822165576
 21
180.9511784717
 31
0.0
  0
LINE
  5
D9
330
44
100
AcDbEntity
  8
0
  6
Continuous
 62
     7
100
AcDbLine
 10
240.0611434958
 20
213.7139286658
 30
0.0
 11
394.0611434958
 21
213.7139286658
 31
0.0
  0
LINE
  5
DA
330
44
100
AcDbEntity
  8
0
  6
Continuous
 62
     7
100
AcDbLine
 10
394.0611434958
 20
209.1091256782
 30
0.0
 11
394.0611434958
 21
213.7139286658
 31
0.0
  0
LINE
  5
DB
330
44
100
AcDbEntity
  8
0
  6
Continuous
 62
     7
100
AcDbLine
 10
394.0611434958
 20
213.7139286658
 30
0.0
 11
392.5611434958
 21
214.7139286658
 31
0.0
  0
LINE
  5
DC
330
44
100
AcDbEntity
  8
0
  6
Continuous
 62
     7
100
AcDbLine
 10
395.8110994163
 20
227.215771408
 30
0.0
 11
395.8110994163
 21
243.9138463731
 31
0.0
  0
LINE
  5
DD
330
44
100
AcDbEntity
  8
0
  6
Continuous
 62
     7
100
AcDbLine
 10
380.5610994163
 20
199.462262747
 30
0.0
 11
386.4610994163
 21
199.4617804665
 31
0.0
  0
LINE
  5
DE
330
44
100
AcDbEntity
  8
0
  6
Continuous
 62
     7
100
AcDbLine
 10
386.4610994163
 20
209.1097469245
 30
0.0
 11
394.0611434958
 21
209.1091256782
 31
0.0
  0
LINE
  5
DF
330
44
100
AcDbEntity
  8
0
  6
Continuous
 62
     7
100
AcDbLine
 10
482.0257415887
 20
177.2800321467
 30
0.0
 11
482.131658326
 21
179.7059242654
 31
0.0
  0
LINE
  5
E0
330
44
100
AcDbEntity
  8
0
  6
Continuous
 62
     7
100
AcDbLine
 10
497.0611434958
 20
240.4142801574
 30
0.0
 11
399.3110994163
 21
240.4142801574
 31
0.0
  0
LINE
  5
E1
330
44
100
AcDbEntity
  8
0
  6
Continuous
 62
     7
100
AcDbLine
 10
395.8110994163
 20
243.9138463731
 30
0.0
 11
495.0611434958
 21
243.9138463731
 31
0.0
  0
LINE
  5
E2
330
44
100
AcDbEntity
  8
0
  6
Continuous
 62
     7
100
AcDbLine
 10
386.998811514661
 20
195.961976636692
 30
0.0
 11
384.0610994163
 21
195.9619766367
 31
0.0
  0
LINE
  5
E3
330
44
100
AcDbEntity
  8
0
  6
Continuous
 62
     7
100
AcDbLine
 10
339.2543070872
 20
319.0138523731
 30
0.0
 11
339.2543070872
 21
318.9138523731
 31
0.0
  0
LINE
  5
E4
330
44
100
AcDbEntity
  8
0
  6
Continuous
 62
     7
100
AcDbLine
 10
339.2543075872
 20
318.9138523731
 30
0.0
 11
339.2543073897
 21
319.0138523731
 31
0.0
  0
LINE
  5
E5
330
44
100
AcDbEntity
  8
0
  6
Continuous
 62
     7
100
AcDbLine
 10
339.2543070872
 20
319.0138523731
 30
0.0
 11
339.2543073897
 21
319.0138523731
 31
0.0
  0
LINE
  5
E6
330
44
100
AcDbEntity
  8
0
  6
Continuous
 62
     7
100
AcDbLine
 10
247.0485895342
 20
235.2138463731
 30
0.0
 11
247.0485895342
 21
214.9138463731
 31
0.0
  0
LINE
  5
E7
330
44
100
AcDbEntity
  8
0
  6
Continuous
 62
     7
100
AcDbLine
 10
246.0611434958
 20
214.9138463731
 30
0.0
 11
247.0485895342
 21
214.9138463731
 31
0.0
  0
LINE
  5
E8
330
44
100
AcDbEntity
  8
0
  6
Continuous
 62
     7
100
AcDbLine
 10
246.0611434958
 20
214.9138463731
 30
0.0
 11
246.0611434958
 21
236.2138463731
 31
0.0
  0
LINE
  5
E9
330
44
100
AcDbEntity
  8
0
  6
Continuous
 62
     7
100
AcDbLine
 10
346.5148948389
 20
319.0138523731
 30
0.0
 11
346.5148948389
 21
318.9138523731
 31
0.0
  0
LINE
  5
EA
330
44
100
AcDbEntity
  8
0
  6
Continuous
 62
     7
100
AcDbLine
 10
346.490225538
 20
319.0138523731
 30
0.0
 11
346.490225538
 21
318.9138523731
 31
0.0
  0
LINE
  5
EB
330
44
100
AcDbEntity
  8
0
  6
Continuous
 62
     7
100
AcDbLine
 10
346.490225538
 20
319.0138523731
 30
0.0
 11
346.5148948389
 21
319.0138523731
 31
0.0
  0
LINE
  5
EC
330
44
100
AcDbEntity
  8
0
  6
Continuous
 62
     7
100
AcDbLine
 10
262.4898364434
 20
283.8206182972
 30
0.0
 11
261.0863897129
 21
283.8206182972
 31
0.0
  0
LINE
  5
ED
330
44
100
AcDbEntity
  8
0
  6
Continuous
 62
     7
100
AcDbLine
 10
262.4898364434
 20
283.8206182972
 30
0.0
 11
262.4898364434
 21
283.2340895227
 31
0.0
  0
LINE
  5
EE
330
44
100
AcDbEntity
  8
0
  6
Continuous
 62
     7
100
AcDbLine
 10
267.8257065372
 20
283.8206182972
 30
0.0
 11
263.2913250986
 21
283.8206182972
 31
0.0
  0
LINE
  5
EF
330
44
100
AcDbEntity
  8
0
  6
Continuous
 62
     7
100
AcDbLine
 10
267.8257065372
 20
283.8206182972
 30
0.0
 11
267.8257065372
 21
283.2340895227
 31
0.0
  0
LINE
  5
F0
330
44
100
AcDbEntity
  8
0
  6
Continuous
 62
     7
100
AcDbLine
 10
276.5168902943
 20
283.8206182972
 30
0.0
 11
269.1605847492
 21
283.8206182972
 31
0.0
  0
LINE
  5
F1
330
44
100
AcDbEntity
  8
0
  6
Continuous
 62
     7
100
AcDbLine
 10
276.5168902943
 20
283.8206182972
 30
0.0
 11
276.5168902943
 21
283.2340895227
 31
0.0
  0
LINE
  5
F2
330
44
100
AcDbEntity
  8
0
  6
Continuous
 62
     7
100
AcDbLine
 10
287.9710979045
 20
283.8206182972
 30
0.0
 11
278.294188319
 21
283.8206182972
 31
0.0
  0
LINE
  5
F3
330
44
100
AcDbEntity
  8
0
  6
Continuous
 62
     7
100
AcDbLine
 10
287.9710979045
 20
283.8206182972
 30
0.0
 11
287.9710979045
 21
283.2340895227
 31
0.0
  0
LINE
  5
F4
330
44
100
AcDbEntity
  8
0
  6
Continuous
 62
     7
100
AcDbLine
 10
301.4077440482
 20
283.8206182972
 30
0.0
 11
289.9629563332
 21
283.8206182972
 31
0.0
  0
LINE
  5
F5
330
44
100
AcDbEntity
  8
0
  6
Continuous
 62
     7
100
AcDbLine
 10
301.4077440482
 20
283.8206182972
 30
0.0
 11
301.4077440482
 21
283.2340895227
 31
0.0
  0
LINE
  5
F6
330
44
100
AcDbEntity
  8
0
  6
Continuous
 62
     7
100
AcDbLine
 10
315.9111434958
 20
283.8206182972
 30
0.0
 11
303.6293734487
 21
283.8206182972
 31
0.0
  0
LINE
  5
F7
330
44
100
AcDbEntity
  8
0
  6
Continuous
 62
     7
100
AcDbLine
 10
330.4929135429
 20
283.8206182972
 30
0.0
 11
318.2111434958
 21
283.8206182972
 31
0.0
  0
LINE
  5
F8
330
44
100
AcDbEntity
  8
0
  6
Continuous
 62
     7
100
AcDbLine
 10
332.7145429434
 20
283.8206182972
 30
0.0
 11
332.714542943438
 21
283.234089522743
 31
0.0
  0
LINE
  5
F9
330
44
100
AcDbEntity
  8
0
  6
Continuous
 62
     7
100
AcDbLine
 10
344.1593306584
 20
283.8206182972
 30
0.0
 11
332.7145429434
 21
283.8206182972
 31
0.0
  0
LINE
  5
FA
330
44
100
AcDbEntity
  8
0
  6
Continuous
 62
     7
100
AcDbLine
 10
346.1511890871
 20
283.8206182972
 30
0.0
 11
346.151189087046
 21
283.234089522732
 31
0.0
  0
LINE
  5
FB
330
44
100
AcDbEntity
  8
0
  6
Continuous
 62
     7
100
AcDbLine
 10
355.8280986726
 20
283.8206182972
 30
0.0
 11
346.1511890871
 21
283.8206182972
 31
0.0
  0
LINE
  5
FC
330
44
100
AcDbEntity
  8
0
  6
Continuous
 62
     7
100
AcDbLine
 10
357.6053966973
 20
283.8206182972
 30
0.0
 11
357.605396697105
 21
283.234089522685
 31
0.0
  0
LINE
  5
FD
330
44
100
AcDbEntity
  8
0
  6
Continuous
 62
     7
100
AcDbLine
 10
364.9617022423
 20
283.8206182972
 30
0.0
 11
357.6053966973
 21
283.8206182972
 31
0.0
  0
LINE
  5
FE
330
44
100
AcDbEntity
  8
0
  6
Continuous
 62
     7
100
AcDbLine
 10
366.2965804544
 20
283.8206182972
 30
0.0
 11
366.296580454565
 21
283.234089522797
 31
0.0
  0
LINE
  5
FF
330
44
100
AcDbEntity
  8
0
  6
Continuous
 62
     7
100
AcDbLine
 10
370.830961893
 20
283.8206182972
 30
0.0
 11
366.2965804544
 21
283.8206182972
 31
0.0
  0
LINE
  5
100
330
44
100
AcDbEntity
  8
0
  6
Continuous
 62
     7
100
AcDbLine
 10
371.6324505481
 20
283.8206182972
 30
0.0
 11
371.632450548132
 21
283.234089522732
 31
0.0
  0
LINE
  5
101
330
44
100
AcDbEntity
  8
0
  6
Continuous
 62
     7
100
AcDbLine
 10
373.0358972787
 20
283.8206182972
 30
0.0
 11
371.6324505481
 21
283.8206182972
 31
0.0
  0
LINE
  5
102
330
44
100
AcDbEntity
  8
0
  6
Continuous
 62
     7
100
AcDbLine
 10
373.2611434958
 20
278.5139118731
 30
0.0
 11
373.2611434958
 21
283.2017592729
 31
0.0
  0
LINE
  5
103
330
44
100
AcDbEntity
  8
0
  6
Continuous
 62
     7
100
AcDbLine
 10
373.2611434958
 20
278.5139118731
 30
0.0
 11
260.8611434958
 21
278.5139118731
 31
0.0
  0
LINE
  5
104
330
44
100
AcDbEntity
  8
0
  6
Continuous
 62
     7
100
AcDbLine
 10
260.8611434958
 20
283.2017592729
 30
0.0
 11
260.8611434958
 21
278.5139118731
 31
0.0
  0
LINE
  5
105
330
44
100
AcDbEntity
  8
0
  6
Continuous
 62
     7
100
AcDbLine
 10
390.9611434958
 20
243.9138463731
 30
0.0
 11
390.9611434958
 21
216.9138463731
 31
0.0
  0
LINE
  5
106
330
44
100
AcDbEntity
  8
0
  6
Continuous
 62
     7
100
AcDbLine
 10
373.2611434958
 20
283.2017592729
 30
0.0
 11
365.5097253995
 21
304.4986099008
 31
0.0
  0
LINE
  5
107
330
44
100
AcDbEntity
  8
0
  6
Continuous
 62
     7
100
AcDbLine
 10
365.5097253995
 20
304.4986099008
 30
0.0
 11
365.5097253995
 21
304.1138523731
 31
0.0
  0
LINE
  5
108
330
44
100
AcDbEntity
  8
0
  6
Continuous
 62
     7
100
AcDbLine
 10
365.5097253995
 20
304.1138523731
 30
0.0
 11
268.6125615921
 21
304.1138523731
 31
0.0
  0
LINE
  5
109
330
44
100
AcDbEntity
  8
0
  6
Continuous
 62
     7
100
AcDbLine
 10
260.8611434958
 20
278.5139118731
 30
0.0
 11
259.1549069352
 21
278.5139118731
 31
0.0
  0
LINE
  5
10A
330
44
100
AcDbEntity
  8
0
  6
Continuous
 62
     7
100
AcDbLine
 10
246.5615152675
 20
243.9138463731
 30
0.0
 11
246.5611434958
 21
243.9138463731
 31
0.0
  0
LINE
  5
10B
330
44
100
AcDbEntity
  8
0
  6
Continuous
 62
     7
100
AcDbLine
 10
246.5611434958
 20
236.2138463731
 30
0.0
 11
246.5611434958
 21
243.9138463731
 31
0.0
  0
LINE
  5
10C
330
44
100
AcDbEntity
  8
0
  6
Continuous
 62
     7
100
AcDbLine
 10
242.6611434958
 20
214.9138463731
 30
0.0
 11
246.0611434958
 21
214.9138463731
 31
0.0
  0
LINE
  5
10D
330
44
100
AcDbEntity
  8
0
  6
Continuous
 62
     7
100
AcDbLine
 10
242.6611434958
 20
216.9138463731
 30
0.0
 11
243.1611434958
 21
216.9138463731
 31
0.0
  0
LINE
  5
10E
330
44
100
AcDbEntity
  8
0
  6
Continuous
 62
     7
100
AcDbLine
 10
243.1611434958
 20
216.9138463731
 30
0.0
 11
243.1611434958
 21
243.9138463731
 31
0.0
  0
LINE
  5
10F
330
44
100
AcDbEntity
  8
0
  6
Continuous
 62
     7
100
AcDbLine
 10
243.1611434958
 20
243.9138463731
 30
0.0
 11
234.6682456779
 21
243.9138463731
 31
0.0
  0
LINE
  5
110
330
44
100
AcDbEntity
  8
0
  6
Continuous
 62
     7
100
AcDbLine
 10
231.4756786779
 20
245.7381703731
 30
0.0
 11
234.6682456779
 21
243.9138463731
 31
0.0
  0
LINE
  5
111
330
44
100
AcDbEntity
  8
0
  6
Continuous
 62
     7
100
AcDbLine
 10
254.5171722603
 20
309.0441544681
 30
0.0
 11
231.4756786779
 21
245.7381703731
 31
0.0
  0
LINE
  5
112
330
44
100
AcDbEntity
  8
0
  6
Continuous
 62
     7
100
AcDbLine
 10
328.8634080872
 20
318.9138523731
 30
0.0
 11
328.8634080872
 21
319.0138523731
 31
0.0
  0
LINE
  5
113
330
44
100
AcDbEntity
  8
0
  6
Continuous
 62
     7
100
AcDbLine
 10
329.6894620872
 20
319.0138523731
 30
0.0
 11
328.8634080872
 21
319.0138523731
 31
0.0
  0
LINE
  5
114
330
44
100
AcDbEntity
  8
0
  6
Continuous
 62
     7
100
AcDbLine
 10
329.6894620872
 20
318.9138523731
 30
0.0
 11
329.6894620872
 21
319.0138523731
 31
0.0
  0
LINE
  5
115
330
44
100
AcDbEntity
  8
0
  6
Continuous
 62
     7
100
AcDbLine
 10
329.6894620872
 20
318.9138523731
 30
0.0
 11
330.2670845872
 21
318.9138523731
 31
0.0
  0
LINE
  5
116
330
44
100
AcDbEntity
  8
0
  6
Continuous
 62
     7
100
AcDbLine
 10
331.0061860872
 20
319.0138523731
 30
0.0
 11
330.2670845872
 21
319.0138523731
 31
0.0
  0
LINE
  5
117
330
44
100
AcDbEntity
  8
0
  6
Continuous
 62
     7
100
AcDbLine
 10
331.0061860872
 20
319.0138523731
 30
0.0
 11
331.0061860872
 21
318.9138523731
 31
0.0
  0
LINE
  5
118
330
44
100
AcDbEntity
  8
0
  6
Continuous
 62
     7
100
AcDbLine
 10
334.1675490872
 20
318.9138523731
 30
0.0
 11
334.1675490872
 21
319.0138523731
 31
0.0
  0
LINE
  5
119
330
44
100
AcDbEntity
  8
0
  6
Continuous
 62
     7
100
AcDbLine
 10
334.1675490872
 20
319.0138523731
 30
0.0
 11
334.9501270872
 21
319.0138523731
 31
0.0
  0
LINE
  5
11A
330
44
100
AcDbEntity
  8
0
  6
Continuous
 62
     7
100
AcDbLine
 10
334.9501270872
 20
319.0138523731
 30
0.0
 11
334.9501270872
 21
318.9138523731
 31
0.0
  0
LINE
  5
11B
330
44
100
AcDbEntity
  8
0
  6
Continuous
 62
     7
100
AcDbLine
 10
336.0370410872
 20
318.9138523731
 30
0.0
 11
336.0370410872
 21
319.0138523731
 31
0.0
  0
LINE
  5
11C
330
44
100
AcDbEntity
  8
0
  6
Continuous
 62
     7
100
AcDbLine
 10
337.9065340872
 20
318.9138523731
 30
0.0
 11
337.9065340872
 21
319.0138523731
 31
0.0
  0
LINE
  5
11D
330
44
100
AcDbEntity
  8
0
  6
Continuous
 62
     7
100
AcDbLine
 10
338.6891120872
 20
319.0138523731
 30
0.0
 11
338.6891120872
 21
318.9138523731
 31
0.0
  0
LINE
  5
11E
330
44
100
AcDbEntity
  8
0
  6
Continuous
 62
     7
100
AcDbLine
 10
340.0803620872
 20
319.0138523731
 30
0.0
 11
340.0803620872
 21
318.9138523731
 31
0.0
  0
LINE
  5
11F
330
44
100
AcDbEntity
  8
0
  6
Continuous
 62
     7
100
AcDbLine
 10
341.4281352809
 20
319.0138523731
 30
0.0
 11
341.4281352809
 21
318.9138523731
 31
0.0
  0
LINE
  5
120
330
44
100
AcDbEntity
  8
0
  6
Continuous
 62
     7
100
AcDbLine
 10
388.0611434958
 20
236.2138463731
 30
0.0
 11
388.0611434958
 21
214.9138463731
 31
0.0
  0
LINE
  5
121
330
44
100
AcDbEntity
  8
0
  6
Continuous
 62
     7
100
AcDbLine
 10
387.5611434958
 20
243.9138463731
 30
0.0
 11
387.5611434958
 21
236.2138463731
 31
0.0
  0
LINE
  5
122
330
44
100
AcDbEntity
  8
0
  6
Continuous
 62
     7
100
AcDbLine
 10
387.560771724
 20
243.9138463731
 30
0.0
 11
374.9673800564
 21
278.5139118731
 31
0.0
  0
LINE
  5
123
330
44
100
AcDbEntity
  8
0
  6
Continuous
 62
     7
100
AcDbLine
 10
374.9673800564
 20
278.5139118731
 30
0.0
 11
373.2611434958
 21
278.5139118731
 31
0.0
  0
LINE
  5
124
330
44
100
AcDbEntity
  8
0
  6
Continuous
 62
     7
100
AcDbLine
 10
336.8196200872
 20
319.0138523731
 30
0.0
 11
336.8196200872
 21
318.9138523731
 31
0.0
  0
LINE
  5
125
330
44
100
AcDbEntity
  8
0
  6
Continuous
 62
     7
100
AcDbLine
 10
331.3850490872
 20
318.9138523731
 30
0.0
 11
331.3850490872
 21
319.0138523731
 31
0.0
  0
LINE
  5
126
330
44
100
AcDbEntity
  8
0
  6
Continuous
 62
     7
100
AcDbLine
 10
343.6889180872
 20
319.0138523731
 30
0.0
 11
343.6889180872
 21
318.9138523731
 31
0.0
  0
LINE
  5
127
330
44
100
AcDbEntity
  8
0
  6
Continuous
 62
     7
100
AcDbLine
 10
399.4540413136
 20
243.9138463731
 30
0.0
 11
390.9611434958
 21
243.9138463731
 31
0.0
  0
LINE
  5
128
330
44
100
AcDbEntity
  8
0
  6
Continuous
 62
     7
100
AcDbLine
 10
333.7327825872
 20
319.0138523731
 30
0.0
 11
331.3850490872
 21
319.0138523731
 31
0.0
  0
LINE
  5
129
330
44
100
AcDbEntity
  8
0
  6
Continuous
 62
     7
100
AcDbLine
 10
346.490225538
 20
318.9138523731
 30
0.0
 11
365.5097253995
 21
318.9138523731
 31
0.0
  0
LINE
  5
12A
330
44
100
AcDbEntity
  8
0
  6
Continuous
 62
     7
100
AcDbLine
 10
343.6889180872
 20
318.9138523731
 30
0.0
 11
344.1671590193
 21
318.9138523731
 31
0.0
  0
LINE
  5
12B
330
44
100
AcDbEntity
  8
0
  6
Continuous
 62
     7
100
AcDbLine
 10
341.4281352809
 20
318.9138523731
 30
0.0
 11
341.7759490872
 21
318.9138523731
 31
0.0
  0
LINE
  5
12C
330
44
100
AcDbEntity
  8
0
  6
Continuous
 62
     7
100
AcDbLine
 10
336.8196200872
 20
318.9138523731
 30
0.0
 11
337.9065340872
 21
318.9138523731
 31
0.0
  0
LINE
  5
12D
330
44
100
AcDbEntity
  8
0
  6
Continuous
 62
     7
100
AcDbLine
 10
334.9501270872
 20
318.9138523731
 30
0.0
 11
336.0370410872
 21
318.9138523731
 31
0.0
  0
LINE
  5
12E
330
44
100
AcDbEntity
  8
0
  6
Continuous
 62
     7
100
AcDbLine
 10
333.7327825872
 20
318.9138523731
 30
0.0
 11
334.1675490872
 21
318.9138523731
 31
0.0
  0
LINE
  5
12F
330
44
100
AcDbEntity
  8
0
  6
Continuous
 62
     7
100
AcDbLine
 10
331.0061860872
 20
318.9138523731
 30
0.0
 11
331.3850490872
 21
318.9138523731
 31
0.0
  0
LINE
  5
130
330
44
100
AcDbEntity
  8
0
  6
Continuous
 62
     7
100
AcDbLine
 10
268.6125615921
 20
318.9138523731
 30
0.0
 11
328.8634080872
 21
318.9138523731
 31
0.0
  0
LINE
  5
131
330
44
100
AcDbEntity
  8
0
  6
Continuous
 62
     7
100
AcDbLine
 10
344.1671590193
 20
318.9138523731
 30
0.0
 11
344.1671590193
 21
319.0138523731
 31
0.0
  0
LINE
  5
132
330
44
100
AcDbEntity
  8
0
  6
Continuous
 62
     7
100
AcDbLine
 10
387.5611434958
 20
236.2138463731
 30
0.0
 11
388.0611434958
 21
236.2138463731
 31
0.0
  0
LINE
  5
133
330
44
100
AcDbEntity
  8
0
  6
Continuous
 62
     7
100
AcDbLine
 10
246.0611434958
 20
236.2138463731
 30
0.0
 11
246.5611434958
 21
236.2138463731
 31
0.0
  0
LINE
  5
134
330
44
100
AcDbEntity
  8
0
  6
Continuous
 62
     7
100
AcDbLine
 10
346.490225538
 20
319.0138523731
 30
0.0
 11
344.1671590193
 21
319.0138523731
 31
0.0
  0
LINE
  5
135
330
44
100
AcDbEntity
  8
0
  6
Continuous
 62
     7
100
AcDbLine
 10
341.7759490872
 20
319.0138523731
 30
0.0
 11
343.6889180872
 21
319.0138523731
 31
0.0
  0
LINE
  5
136
330
44
100
AcDbEntity
  8
0
  6
Continuous
 62
     7
100
AcDbLine
 10
390.9611434958
 20
216.9138463731
 30
0.0
 11
391.4611434958
 21
216.9138463731
 31
0.0
  0
LINE
  5
137
330
44
100
AcDbEntity
  8
0
  6
Continuous
 62
     7
100
AcDbLine
 10
341.7759490872
 20
318.9138523731
 30
0.0
 11
341.7759490872
 21
319.0138523731
 31
0.0
  0
LINE
  5
138
330
44
100
AcDbEntity
  8
0
  6
Continuous
 62
     7
100
AcDbLine
 10
333.7327825872
 20
319.0138523731
 30
0.0
 11
333.7327825872
 21
318.9138523731
 31
0.0
  0
LINE
  5
139
330
44
100
AcDbEntity
  8
0
  6
Continuous
 62
     7
100
AcDbLine
 10
387.5611434958
 20
243.9138463731
 30
0.0
 11
387.560771724
 21
243.9138463731
 31
0.0
  0
LINE
  5
13A
330
44
100
AcDbEntity
  8
0
  6
Continuous
 62
     7
100
AcDbLine
 10
399.4540413136
 20
243.9138463731
 30
0.0
 11
402.6466083136
 21
245.7381703731
 31
0.0
  0
LINE
  5
13B
330
44
100
AcDbEntity
  8
0
  6
Continuous
 62
     7
100
AcDbLine
 10
259.1549069352
 20
278.5139118731
 30
0.0
 11
246.5615152675
 21
243.9138463731
 31
0.0
  0
LINE
  5
13C
330
44
100
AcDbEntity
  8
0
  6
Continuous
 62
     7
100
AcDbLine
 10
336.0370410872
 20
319.0138523731
 30
0.0
 11
336.8196200872
 21
319.0138523731
 31
0.0
  0
LINE
  5
13D
330
44
100
AcDbEntity
  8
0
  6
Continuous
 62
     7
100
AcDbLine
 10
388.0611434958
 20
214.9138463731
 30
0.0
 11
391.4611434958
 21
214.9138463731
 31
0.0
  0
LINE
  5
13E
330
44
100
AcDbEntity
  8
0
  6
Continuous
 62
     7
100
AcDbLine
 10
340.0803620872
 20
318.9138523731
 30
0.0
 11
340.6455575872
 21
318.9138523731
 31
0.0
  0
LINE
  5
13F
330
44
100
AcDbEntity
  8
0
  6
Continuous
 62
     7
100
AcDbLine
 10
330.2670845872
 20
319.0138523731
 30
0.0
 11
330.2670845872
 21
318.9138523731
 31
0.0
  0
LINE
  5
140
330
44
100
AcDbEntity
  8
0
  6
Continuous
 62
     7
100
AcDbLine
 10
340.6455575872
 20
318.9138523731
 30
0.0
 11
340.6455575872
 21
319.0138523731
 31
0.0
  0
LINE
  5
141
330
44
100
AcDbEntity
  8
0
  6
Continuous
 62
     7
100
AcDbLine
 10
402.6466083136
 20
245.7381703731
 30
0.0
 11
379.605114731265
 21
309.0441544681
 31
0.0
  0
LINE
  5
142
330
44
100
AcDbEntity
  8
0
  6
Continuous
 62
     7
100
AcDbLine
 10
338.6891120872
 20
318.9138523731
 30
0.0
 11
339.2543075872
 21
318.9138523731
 31
0.0
  0
LINE
  5
143
330
44
100
AcDbEntity
  8
0
  6
Continuous
 62
     7
100
AcDbLine
 10
268.6125615921
 20
304.4986099008
 30
0.0
 11
260.8611434958
 21
283.2017592729
 31
0.0
  0
LINE
  5
144
330
44
100
AcDbEntity
  8
0
  6
Continuous
 62
     7
100
AcDbLine
 10
268.6125615921
 20
304.1138523731
 30
0.0
 11
268.6125615921
 21
304.4986099008
 31
0.0
  0
LINE
  5
145
330
44
100
AcDbEntity
  8
0
  6
Continuous
 62
     7
100
AcDbLine
 10
340.0803620872
 20
319.0138523731
 30
0.0
 11
339.2543073897
 21
319.0138523731
 31
0.0
  0
LINE
  5
146
330
44
100
AcDbEntity
  8
0
  6
Continuous
 62
     7
100
AcDbLine
 10
338.6891120872
 20
319.0138523731
 30
0.0
 11
337.9065340872
 21
319.0138523731
 31
0.0
  0
LINE
  5
147
330
44
100
AcDbEntity
  8
0
  6
Continuous
 62
     7
100
AcDbLine
 10
341.4281352809
 20
319.0138523731
 30
0.0
 11
340.6455575872
 21
319.0138523731
 31
0.0
  0
LINE
  5
148
330
44
100
AcDbEntity
  8
0
  6
Continuous
 62
     7
100
AcDbLine
 10
387.0737167472
 20
214.9138463731
 30
0.0
 11
387.0737167472
 21
235.2138463731
 31
0.0
  0
LINE
  5
149
330
44
100
AcDbEntity
  8
0
  6
Continuous
 62
     7
100
AcDbLine
 10
387.0737167472
 20
214.9138463731
 30
0.0
 11
388.0611434958
 21
214.9138463731
 31
0.0
  0
LINE
  5
14A
330
44
100
AcDbEntity
  8
0
  6
Continuous
 62
     7
100
AcDbLine
 10
246.5615152675
 20
243.9138463731
 30
0.0
 11
248.9044743341
 21
243.9138463731
 31
0.0
  0
LINE
  5
14B
330
44
100
AcDbEntity
  8
0
  6
Continuous
 62
     7
100
AcDbLine
 10
249.0229893586
 20
243.9138463731
 30
0.0
 11
255.8921977699
 21
243.9138463731
 31
0.0
  0
LINE
  5
14C
330
44
100
AcDbEntity
  8
0
  6
Continuous
 62
     7
100
AcDbLine
 10
256.1211512157
 20
243.9138463731
 30
0.0
 11
267.0484837703
 21
243.9138463731
 31
0.0
  0
LINE
  5
14D
330
44
100
AcDbEntity
  8
0
  6
Continuous
 62
     7
100
AcDbLine
 10
267.3722728386
 20
243.9138463731
 30
0.0
 11
281.6130498813
 21
243.9138463731
 31
0.0
  0
LINE
  5
14E
330
44
100
AcDbEntity
  8
0
  6
Continuous
 62
     7
100
AcDbLine
 10
282.009608882
 20
243.9138463731
 30
0.0
 11
298.5933449913
 21
243.9138463731
 31
0.0
  0
LINE
  5
14F
330
44
100
AcDbEntity
  8
0
  6
Continuous
 62
     7
100
AcDbLine
 10
299.035649084
 20
243.9138463731
 30
0.0
 11
316.83219005
 21
243.9138463731
 31
0.0
  0
LINE
  5
150
330
44
100
AcDbEntity
  8
0
  6
Continuous
 62
     7
100
AcDbLine
 10
317.2900969416
 20
243.9138463731
 30
0.0
 11
335.0866379076
 21
243.9138463731
 31
0.0
  0
LINE
  5
151
330
44
100
AcDbEntity
  8
0
  6
Continuous
 62
     7
100
AcDbLine
 10
335.5289420002
 20
243.9138463731
 30
0.0
 11
352.1126781095
 21
243.9138463731
 31
0.0
  0
LINE
  5
152
330
44
100
AcDbEntity
  8
0
  6
Continuous
 62
     7
100
AcDbLine
 10
352.5092371103
 20
243.9138463731
 30
0.0
 11
366.750014153
 21
243.9138463731
 31
0.0
  0
LINE
  5
153
330
44
100
AcDbEntity
  8
0
  6
Continuous
 62
     7
100
AcDbLine
 10
367.0738032212
 20
243.9138463731
 30
0.0
 11
378.0011357759
 21
243.9138463731
 31
0.0
  0
LINE
  5
154
330
44
100
AcDbEntity
  8
0
  6
Continuous
 62
     7
100
AcDbLine
 10
378.2300892217
 20
243.9138463731
 30
0.0
 11
385.099297633
 21
243.9138463731
 31
0.0
  0
LINE
  5
155
330
44
100
AcDbEntity
  8
0
  6
Continuous
 62
     7
100
AcDbLine
 10
385.2178126574
 20
243.9138463731
 30
0.0
 11
387.560771724
 21
243.9138463731
 31
0.0
  0
LINE
  5
156
330
44
100
AcDbEntity
  8
0
  6
Continuous
 62
     7
100
AcDbLine
 10
246.5611434958
 20
236.2138463731
 30
0.0
 11
387.5611434958
 21
236.2138463731
 31
0.0
  0
LINE
  5
157
330
44
100
AcDbEntity
  8
0
  6
Continuous
 62
     7
100
AcDbLine
 10
330.1366550872
 20
319.0138523731
 30
0.0
 11
330.1366550872
 21
318.9138523731
 31
0.0
  0
LINE
  5
158
330
44
100
AcDbEntity
  8
0
  6
Continuous
 62
     7
100
AcDbLine
 10
330.2670845872
 20
319.0138523731
 30
0.0
 11
330.1366550872
 21
319.0138523731
 31
0.0
  0
LINE
  5
159
330
44
100
AcDbEntity
  8
0
  6
Continuous
 62
     7
100
AcDbLine
 10
340.1673155872
 20
319.0138523731
 30
0.0
 11
340.1673155872
 21
318.9138523731
 31
0.0
  0
LINE
  5
15A
330
44
100
AcDbEntity
  8
0
  6
Continuous
 62
     7
100
AcDbLine
 10
340.0803620872
 20
319.0138523731
 30
0.0
 11
340.1673155872
 21
319.0138523731
 31
0.0
  0
LINE
  5
15B
330
44
100
AcDbEntity
  8
0
  6
Continuous
 62
     7
100
AcDbLine
 10
339.1673540872
 20
319.0138523731
 30
0.0
 11
339.1673540872
 21
318.9138523731
 31
0.0
  0
LINE
  5
15C
330
44
100
AcDbEntity
  8
0
  6
Continuous
 62
     7
100
AcDbLine
 10
339.1673540872
 20
319.0138523731
 30
0.0
 11
339.2543070872
 21
319.0138523731
 31
0.0
  0
LINE
  5
15D
330
44
100
AcDbEntity
  8
0
  6
Continuous
 62
     7
100
AcDbLine
 10
338.7760650872
 20
319.0138523731
 30
0.0
 11
338.7760650872
 21
318.9138523731
 31
0.0
  0
LINE
  5
15E
330
44
100
AcDbEntity
  8
0
  6
Continuous
 62
     7
100
AcDbLine
 10
338.6891120872
 20
319.0138523731
 30
0.0
 11
338.7760650872
 21
319.0138523731
 31
0.0
  0
LINE
  5
15F
330
44
100
AcDbEntity
  8
0
  6
Continuous
 62
     7
100
AcDbLine
 10
340.5586045872
 20
319.0138523731
 30
0.0
 11
340.5586045872
 21
318.9138523731
 31
0.0
  0
LINE
  5
160
330
44
100
AcDbEntity
  8
0
  6
Continuous
 62
     7
100
AcDbLine
 10
340.5586045872
 20
319.0138523731
 30
0.0
 11
340.6455575872
 21
319.0138523731
 31
0.0
  0
LINE
  5
161
330
44
100
AcDbEntity
  8
0
  6
Continuous
 62
     7
100
AcDbLine
 10
330.1366550872
 20
319.0138523731
 30
0.0
 11
329.6894620872
 21
319.0138523731
 31
0.0
  0
LINE
  5
162
330
44
100
AcDbEntity
  8
0
  6
Continuous
 62
     7
100
AcDbLine
 10
338.7760650872
 20
319.0138523731
 30
0.0
 11
339.1673540872
 21
319.0138523731
 31
0.0
  0
LINE
  5
163
330
44
100
AcDbEntity
  8
0
  6
Continuous
 62
     7
100
AcDbLine
 10
340.1673155872
 20
319.0138523731
 30
0.0
 11
340.5586045872
 21
319.0138523731
 31
0.0
  0
LINE
  5
164
330
44
100
AcDbEntity
  8
0
  6
Continuous
 62
     7
100
AcDbLine
 10
357.605396697105
 20
283.234089522685
 30
0.0
 11
352.2316605134
 21
304.1138523731
 31
0.0
  0
LINE
  5
165
330
44
100
AcDbEntity
  8
0
  6
Continuous
 62
     7
100
AcDbLine
 10
376.1348930628
 20
243.9138463731
 30
0.0
 11
377.255232548
 21
244.8192173985
 31
0.0
  0
LINE
  5
166
330
44
100
AcDbEntity
  8
0
  6
Continuous
 62
     7
100
AcDbLine
 10
367.7250814855
 20
243.913845419
 30
0.0
 11
358.8202088392
 21
278.5139118731
 31
0.0
  0
LINE
  5
167
330
44
100
AcDbEntity
  8
0
  6
Continuous
 62
     7
100
AcDbLine
 10
257.9873939288
 20
243.9138463731
 30
0.0
 11
256.8670544435
 21
244.8192173985
 31
0.0
  0
LINE
  5
168
330
44
100
AcDbEntity
  8
0
  6
Continuous
 62
     7
100
AcDbLine
 10
276.5168902943
 20
283.2340895227
 30
0.0
 11
281.8906264781
 21
304.1138523731
 31
0.0
  0
LINE
  5
169
330
44
100
AcDbEntity
  8
0
  6
Continuous
 62
     7
100
AcDbLine
 10
266.3972055061
 20
243.913845419
 30
0.0
 11
275.3020781524
 21
278.5139118731
 31
0.0
  0
LINE
  5
16A
330
44
100
AcDbEntity
  8
0
  6
Continuous
 62
     7
100
AcDbLine
 10
243.1611434958
 20
227.2138463731
 30
0.0
 11
241.0430641702
 21
227.2138463731
 31
0.0
  0
LINE
  5
16B
330
44
100
AcDbEntity
  8
0
  6
Continuous
 62
     7
100
AcDbLine
 10
241.0430641702
 20
227.2138463731
 30
0.0
 11
241.0430641702
 21
243.9138463731
 31
0.0
  0
LINE
  5
16C
330
44
100
AcDbEntity
  8
0
  6
Continuous
 62
     7
100
AcDbLine
 10
262.4898364434
 20
283.2340895227
 30
0.0
 11
269.8304965838
 21
304.1138523731
 31
0.0
  0
LINE
  5
16D
330
44
100
AcDbEntity
  8
0
  6
Continuous
 62
     7
100
AcDbLine
 10
248.6660899445
 20
243.913845419
 30
0.0
 11
260.8303721968
 21
278.5139118731
 31
0.0
  0
LINE
  5
16E
330
44
100
AcDbEntity
  8
0
  6
Continuous
 62
     7
100
AcDbLine
 10
371.632450548132
 20
283.234089522732
 30
0.0
 11
364.2917904078
 21
304.1138523731
 31
0.0
  0
LINE
  5
16F
330
44
100
AcDbEntity
  8
0
  6
Continuous
 62
     7
100
AcDbLine
 10
393.0792228214
 20
227.2138463731
 30
0.0
 11
393.0792228214
 21
243.9138463731
 31
0.0
  0
LINE
  5
170
330
44
100
AcDbEntity
  8
0
  6
Continuous
 62
     7
100
AcDbLine
 10
393.0792228214
 20
227.2138463731
 30
0.0
 11
390.9611434958
 21
227.2138463731
 31
0.0
  0
LINE
  5
171
330
44
100
AcDbEntity
  8
0
  6
Continuous
 62
     7
100
AcDbLine
 10
385.4561970471
 20
243.913845419
 30
0.0
 11
373.2919147948
 21
278.5139118731
 31
0.0
  0
LINE
  5
172
330
44
100
AcDbEntity
  8
0
  6
Continuous
 62
     7
100
AcDbLine
 10
371.037166744334
 20
283.23408952271
 30
0.0
 11
363.696506604
 21
304.1138523731
 31
0.0
  0
LINE
  5
173
330
44
100
AcDbEntity
  8
0
  6
Continuous
 62
     7
100
AcDbLine
 10
263.085120247268
 20
283.234089522711
 30
0.0
 11
270.4257803875
 21
304.1138523731
 31
0.0
  0
LINE
  5
174
330
44
100
AcDbEntity
  8
0
  6
Continuous
 62
     7
100
AcDbLine
 10
303.2611610076
 20
235.2138463731
 30
0.0
 11
303.2611610076
 21
227.2138463731
 31
0.0
  0
LINE
  5
175
330
44
100
AcDbEntity
  8
0
  6
Continuous
 62
     7
100
AcDbLine
 10
247.4152008683
 20
227.2138463731
 30
0.0
 11
303.2611610076
 21
227.2138463731
 31
0.0
  0
LINE
  5
176
330
44
100
AcDbEntity
  8
0
  6
Continuous
 62
     7
100
AcDbLine
 10
247.4152008683
 20
227.2138463731
 30
0.0
 11
247.4152008683
 21
235.2138463731
 31
0.0
  0
LINE
  5
177
330
44
100
AcDbEntity
  8
0
  6
Continuous
 62
     7
100
AcDbLine
 10
386.7071088012
 20
235.2138463731
 30
0.0
 11
386.7071088012
 21
227.2138463731
 31
0.0
  0
LINE
  5
178
330
44
100
AcDbEntity
  8
0
  6
Continuous
 62
     7
100
AcDbLine
 10
330.8612404349
 20
227.2138463731
 30
0.0
 11
386.7071088012
 21
227.2138463731
 31
0.0
  0
LINE
  5
179
330
44
100
AcDbEntity
  8
0
  6
Continuous
 62
     7
100
AcDbLine
 10
330.8612404349
 20
227.2138463731
 30
0.0
 11
330.8612404349
 21
235.2138463731
 31
0.0
  0
LINE
  5
17A
330
44
100
AcDbEntity
  8
0
  6
Continuous
 62
     7
100
AcDbLine
 10
386.7071088012
 20
227.2138463731
 30
0.0
 11
387.0737167472
 21
227.2138463731
 31
0.0
  0
LINE
  5
17B
330
44
100
AcDbEntity
  8
0
  6
Continuous
 62
     7
100
AcDbLine
 10
247.0485895342
 20
227.2138463731
 30
0.0
 11
247.4152008683
 21
227.2138463731
 31
0.0
  0
LINE
  5
17C
330
44
100
AcDbEntity
  8
0
  6
Continuous
 62
     7
100
AcDbLine
 10
385.099297633
 20
243.9138463731
 30
0.0
 11
385.2178126574
 21
243.9138463731
 31
0.0
  0
LINE
  5
17D
330
44
100
AcDbEntity
  8
0
  6
Continuous
 62
     7
100
AcDbLine
 10
384.8609132433
 20
243.913845419
 30
0.0
 11
372.696630991
 21
278.5139118731
 31
0.0
  0
LINE
  5
17E
330
44
100
AcDbEntity
  8
0
  6
Continuous
 62
     7
100
AcDbLine
 10
248.9044743341
 20
243.9138463731
 30
0.0
 11
249.0229893586
 21
243.9138463731
 31
0.0
  0
LINE
  5
17F
330
44
100
AcDbEntity
  8
0
  6
Continuous
 62
     7
100
AcDbLine
 10
249.2613737482
 20
243.913845419
 30
0.0
 11
261.4256560005
 21
278.5139118731
 31
0.0
  0
LINE
  5
180
330
44
100
AcDbEntity
  8
0
  6
Continuous
 62
     7
100
AcDbLine
 10
366.296580454565
 20
283.234089522797
 30
0.0
 11
359.715124623
 21
304.1138523731
 31
0.0
  0
LINE
  5
181
330
44
100
AcDbEntity
  8
0
  6
Continuous
 62
     7
100
AcDbLine
 10
378.6906124988
 20
243.913845419
 30
0.0
 11
367.7844153948
 21
278.5139118731
 31
0.0
  0
LINE
  5
182
330
44
100
AcDbEntity
  8
0
  6
Continuous
 62
     7
100
AcDbLine
 10
267.8257065372
 20
283.2340895227
 30
0.0
 11
274.4071623686
 21
304.1138523731
 31
0.0
  0
LINE
  5
183
330
44
100
AcDbEntity
  8
0
  6
Continuous
 62
     7
100
AcDbLine
 10
255.4316744928
 20
243.913845419
 30
0.0
 11
266.3378715967
 21
278.5139118731
 31
0.0
  0
LINE
  5
184
330
44
100
AcDbEntity
  8
0
  6
Continuous
 62
     7
100
AcDbLine
 10
365.146580454793
 20
283.234089522871
 30
0.0
 11
358.565124623
 21
304.1138523731
 31
0.0
  0
LINE
  5
185
330
44
100
AcDbEntity
  8
0
  6
Continuous
 62
     7
100
AcDbLine
 10
268.97570653681
 20
283.234089522871
 30
0.0
 11
275.5571623686
 21
304.1138523731
 31
0.0
  0
LINE
  5
186
330
44
100
AcDbEntity
  8
0
  6
Continuous
 62
     7
100
AcDbLine
 10
378.0011357759
 20
243.9138463731
 30
0.0
 11
378.2300892217
 21
243.9138463731
 31
0.0
  0
LINE
  5
187
330
44
100
AcDbEntity
  8
0
  6
Continuous
 62
     7
100
AcDbLine
 10
377.5406124988
 20
243.913845419
 30
0.0
 11
366.6344153948
 21
278.5139118731
 31
0.0
  0
LINE
  5
188
330
44
100
AcDbEntity
  8
0
  6
Continuous
 62
     7
100
AcDbLine
 10
255.8921977699
 20
243.9138463731
 30
0.0
 11
256.1211512157
 21
243.9138463731
 31
0.0
  0
LINE
  5
189
330
44
100
AcDbEntity
  8
0
  6
Continuous
 62
     7
100
AcDbLine
 10
256.5816744928
 20
243.913845419
 30
0.0
 11
267.4878715967
 21
278.5139118731
 31
0.0
  0
LINE
  5
18A
330
44
100
AcDbEntity
  8
0
  6
Continuous
 62
     7
100
AcDbLine
 10
355.979051100205
 20
283.234089522638
 30
0.0
 11
350.6053149167
 21
304.1138523731
 31
0.0
  0
LINE
  5
18B
330
44
100
AcDbEntity
  8
0
  6
Continuous
 62
     7
100
AcDbLine
 10
278.143235891397
 20
283.234089522638
 30
0.0
 11
283.5169720749
 21
304.1138523731
 31
0.0
  0
LINE
  5
18C
330
44
100
AcDbEntity
  8
0
  6
Continuous
 62
     7
100
AcDbLine
 10
346.151189087046
 20
283.234089522732
 30
0.0
 11
342.3513837912
 21
304.1138523731
 31
0.0
  0
LINE
  5
18D
330
44
100
AcDbEntity
  8
0
  6
Continuous
 62
     7
100
AcDbLine
 10
360.8498051191
 20
245.7381703731
 30
0.0
 11
354.8851080353
 21
278.5139118731
 31
0.0
  0
LINE
  5
18E
330
44
100
AcDbEntity
  8
0
  6
Continuous
 62
     7
100
AcDbLine
 10
353.9193664568
 20
283.8206182972
 30
0.0
 11
350.2262999213
 21
304.1138523731
 31
0.0
  0
LINE
  5
18F
330
44
100
AcDbEntity
  8
0
  6
Continuous
 62
     7
100
AcDbLine
 10
359.2535216191
 20
243.9138463731
 30
0.0
 11
360.8498051191
 21
245.7381703731
 31
0.0
  0
LINE
  5
190
330
44
100
AcDbEntity
  8
0
  6
Continuous
 62
     7
100
AcDbLine
 10
353.3068868243
 20
243.913845419
 30
0.0
 11
347.0101909905
 21
278.5139118731
 31
0.0
  0
LINE
  5
191
330
44
100
AcDbEntity
  8
0
  6
Continuous
 62
     7
100
AcDbLine
 10
274.8687653725
 20
243.9138463731
 30
0.0
 11
273.2724818725
 21
245.7381703731
 31
0.0
  0
LINE
  5
192
330
44
100
AcDbEntity
  8
0
  6
Continuous
 62
     7
100
AcDbLine
 10
273.2724818725
 20
245.7381703731
 30
0.0
 11
279.2371789562
 21
278.5139118731
 31
0.0
  0
LINE
  5
193
330
44
100
AcDbEntity
  8
0
  6
Continuous
 62
     7
100
AcDbLine
 10
280.2029205347
 20
283.8206182972
 30
0.0
 11
283.8959870703
 21
304.1138523731
 31
0.0
  0
LINE
  5
194
330
44
100
AcDbEntity
  8
0
  6
Continuous
 62
     7
100
AcDbLine
 10
287.9710979045
 20
283.2340895227
 30
0.0
 11
291.7709032004
 21
304.1138523731
 31
0.0
  0
LINE
  5
195
330
44
100
AcDbEntity
  8
0
  6
Continuous
 62
     7
100
AcDbLine
 10
280.8154001673
 20
243.913845419
 30
0.0
 11
287.1120960011
 21
278.5139118731
 31
0.0
  0
LINE
  5
196
330
44
100
AcDbEntity
  8
0
  6
Continuous
 62
     7
100
AcDbLine
 10
344.159330658315
 20
283.234089522726
 30
0.0
 11
340.3595253625
 21
304.1138523731
 31
0.0
  0
LINE
  5
197
330
44
100
AcDbEntity
  8
0
  6
Continuous
 62
     7
100
AcDbLine
 10
289.962956333288
 20
283.234089522726
 30
0.0
 11
293.7627616291
 21
304.1138523731
 31
0.0
  0
LINE
  5
198
330
44
100
AcDbEntity
  8
0
  6
Continuous
 62
     7
100
AcDbLine
 10
366.750014153
 20
243.9138463731
 30
0.0
 11
367.0738032212
 21
243.9138463731
 31
0.0
  0
LINE
  5
199
330
44
100
AcDbEntity
  8
0
  6
Continuous
 62
     7
100
AcDbLine
 10
366.0987358887
 20
243.913845419
 30
0.0
 11
357.1938632424
 21
278.5139118731
 31
0.0
  0
LINE
  5
19A
330
44
100
AcDbEntity
  8
0
  6
Continuous
 62
     7
100
AcDbLine
 10
267.0484837703
 20
243.9138463731
 30
0.0
 11
267.3722728386
 21
243.9138463731
 31
0.0
  0
LINE
  5
19B
330
44
100
AcDbEntity
  8
0
  6
Continuous
 62
     7
100
AcDbLine
 10
268.0235511028
 20
243.913845419
 30
0.0
 11
276.9284237491
 21
278.5139118731
 31
0.0
  0
LINE
  5
19C
330
44
100
AcDbEntity
  8
0
  6
Continuous
 62
     7
100
AcDbLine
 10
332.714542943438
 20
283.234089522743
 30
0.0
 11
330.7476189868
 21
304.1138523731
 31
0.0
  0
LINE
  5
19D
330
44
100
AcDbEntity
  8
0
  6
Continuous
 62
     7
100
AcDbLine
 10
340.3231064748
 20
245.7381703731
 30
0.0
 11
337.2355520678
 21
278.5139118731
 31
0.0
  0
LINE
  5
19E
330
44
100
AcDbEntity
  8
0
  6
Continuous
 62
     7
100
AcDbLine
 10
336.7356474414
 20
283.8206182972
 30
0.0
 11
334.823975533
 21
304.1138523731
 31
0.0
  0
LINE
  5
19F
330
44
100
AcDbEntity
  8
0
  6
Continuous
 62
     7
100
AcDbLine
 10
339.4968093325
 20
243.9138463731
 30
0.0
 11
340.3231064748
 21
245.7381703731
 31
0.0
  0
LINE
  5
1A0
330
44
100
AcDbEntity
  8
0
  6
Continuous
 62
     7
100
AcDbLine
 10
336.4186046541
 20
243.913845419
 30
0.0
 11
333.1591950481
 21
278.5139118731
 31
0.0
  0
LINE
  5
1A1
330
44
100
AcDbEntity
  8
0
  6
Continuous
 62
     7
100
AcDbLine
 10
294.6254776591
 20
243.9138463731
 30
0.0
 11
293.7991805167
 21
245.7381703731
 31
0.0
  0
LINE
  5
1A2
330
44
100
AcDbEntity
  8
0
  6
Continuous
 62
     7
100
AcDbLine
 10
293.7991805167
 20
245.7381703731
 30
0.0
 11
296.8867349238
 21
278.5139118731
 31
0.0
  0
LINE
  5
1A3
330
44
100
AcDbEntity
  8
0
  6
Continuous
 62
     7
100
AcDbLine
 10
297.3866395501
 20
283.8206182972
 30
0.0
 11
299.2983114586
 21
304.1138523731
 31
0.0
  0
LINE
  5
1A4
330
44
100
AcDbEntity
  8
0
  6
Continuous
 62
     7
100
AcDbLine
 10
301.4077440482
 20
283.2340895227
 30
0.0
 11
303.3746680047
 21
304.1138523731
 31
0.0
  0
LINE
  5
1A5
330
44
100
AcDbEntity
  8
0
  6
Continuous
 62
     7
100
AcDbLine
 10
297.7036823374
 20
243.913845419
 30
0.0
 11
300.9630919435
 21
278.5139118731
 31
0.0
  0
LINE
  5
1A6
330
44
100
AcDbEntity
  8
0
  6
Continuous
 62
     7
100
AcDbLine
 10
330.492913543114
 20
283.234089522758
 30
0.0
 11
328.5259895864
 21
304.1138523731
 31
0.0
  0
LINE
  5
1A7
330
44
100
AcDbEntity
  8
0
  6
Continuous
 62
     7
100
AcDbLine
 10
303.629373448488
 20
283.234089522759
 30
0.0
 11
305.5962974052
 21
304.1138523731
 31
0.0
  0
LINE
  5
1A8
330
44
100
AcDbEntity
  8
0
  6
Continuous
 62
     7
100
AcDbLine
 10
315.911143495772
 20
283.234089522737
 30
0.0
 11
315.9111434958
 21
304.1138523731
 31
0.0
  0
LINE
  5
1A9
330
44
100
AcDbEntity
  8
0
  6
Continuous
 62
     7
100
AcDbLine
 10
318.211143495831
 20
283.234089522737
 30
0.0
 11
318.2111434958
 21
304.1138523731
 31
0.0
  0
LINE
  5
1AA
330
44
100
AcDbEntity
  8
0
  6
Continuous
 62
     7
100
AcDbLine
 10
352.1126781095
 20
243.9138463731
 30
0.0
 11
352.5092371103
 21
243.9138463731
 31
0.0
  0
LINE
  5
1AB
330
44
100
AcDbEntity
  8
0
  6
Continuous
 62
     7
100
AcDbLine
 10
351.3150283956
 20
243.913845419
 30
0.0
 11
345.0183325617
 21
278.5139118731
 31
0.0
  0
LINE
  5
1AC
330
44
100
AcDbEntity
  8
0
  6
Continuous
 62
     7
100
AcDbLine
 10
281.6130498813
 20
243.9138463731
 30
0.0
 11
282.009608882
 21
243.9138463731
 31
0.0
  0
LINE
  5
1AD
330
44
100
AcDbEntity
  8
0
  6
Continuous
 62
     7
100
AcDbLine
 10
282.807258596
 20
243.913845419
 30
0.0
 11
289.1039544298
 21
278.5139118731
 31
0.0
  0
LINE
  5
1AE
330
44
100
AcDbEntity
  8
0
  6
Continuous
 62
     7
100
AcDbLine
 10
335.0866379076
 20
243.9138463731
 30
0.0
 11
335.5289420002
 21
243.9138463731
 31
0.0
  0
LINE
  5
1AF
330
44
100
AcDbEntity
  8
0
  6
Continuous
 62
     7
100
AcDbLine
 10
334.1969752537
 20
243.913845419
 30
0.0
 11
330.9375656477
 21
278.5139118731
 31
0.0
  0
LINE
  5
1B0
330
44
100
AcDbEntity
  8
0
  6
Continuous
 62
     7
100
AcDbLine
 10
298.5933449913
 20
243.9138463731
 30
0.0
 11
299.035649084
 21
243.9138463731
 31
0.0
  0
LINE
  5
1B1
330
44
100
AcDbEntity
  8
0
  6
Continuous
 62
     7
100
AcDbLine
 10
299.9253117379
 20
243.913845419
 30
0.0
 11
303.1847213439
 21
278.5139118731
 31
0.0
  0
LINE
  5
1B2
330
44
100
AcDbEntity
  8
0
  6
Continuous
 62
     7
100
AcDbLine
 10
316.83219005
 20
243.9138463731
 30
0.0
 11
317.2900969416
 21
243.9138463731
 31
0.0
  0
LINE
  5
1B3
330
44
100
AcDbEntity
  8
0
  6
Continuous
 62
     7
100
AcDbLine
 10
315.9111434958
 20
243.913845419
 30
0.0
 11
315.9111434958
 21
278.5139118731
 31
0.0
  0
LINE
  5
1B4
330
44
100
AcDbEntity
  8
0
  6
Continuous
 62
     7
100
AcDbLine
 10
318.2111434958
 20
243.913845419
 30
0.0
 11
318.2111434958
 21
278.5139118731
 31
0.0
  0
LINE
  5
1B5
330
44
100
AcDbEntity
  8
0
  6
Continuous
 62
     7
100
AcDbLine
 10
328.8612404349
 20
235.2138463731
 30
0.0
 11
328.8612404349
 21
214.9138463731
 31
0.0
  0
LINE
  5
1B6
330
44
100
AcDbEntity
  8
0
  6
Continuous
 62
     7
100
AcDbLine
 10
305.2611610076
 20
214.9138463731
 30
0.0
 11
328.8612404349
 21
214.9138463731
 31
0.0
  0
LINE
  5
1B7
330
44
100
AcDbEntity
  8
0
  6
Continuous
 62
     7
100
AcDbLine
 10
305.2611610076
 20
214.9138463731
 30
0.0
 11
305.2611610076
 21
235.2138463731
 31
0.0
  0
LINE
  5
1B8
330
44
100
AcDbEntity
  8
0
  6
Continuous
 62
     7
100
AcDbLine
 10
206.0611434958
 20
222.4142801574
 30
0.0
 11
206.0611434958
 21
220.8142801574
 31
0.0
  0
LINE
  5
1B9
330
44
100
AcDbEntity
  8
0
  6
Continuous
 62
     7
100
AcDbLine
 10
188.0611434958
 20
220.8142801574
 30
0.0
 11
188.0611434958
 21
222.4142801574
 31
0.0
  0
LINE
  5
1BA
330
44
100
AcDbEntity
  8
0
  6
Continuous
 62
     7
100
AcDbLine
 10
200.2611434958
 20
220.8142801574
 30
0.0
 11
200.2611434958
 21
222.4142801574
 31
0.0
  0
LINE
  5
1BB
330
44
100
AcDbEntity
  8
0
  6
Continuous
 62
     7
100
AcDbLine
 10
193.8611434958
 20
222.4142801574
 30
0.0
 11
193.8611434958
 21
220.8142801574
 31
0.0
  0
LINE
  5
1BC
330
44
100
AcDbEntity
  8
0
  6
Continuous
 62
     7
100
AcDbLine
 10
200.2611434958
 20
222.4142801574
 30
0.0
 11
200.0611434958
 21
222.4142801574
 31
0.0
  0
LINE
  5
1BD
330
44
100
AcDbEntity
  8
0
  6
Continuous
 62
     7
100
AcDbLine
 10
194.0611434958
 20
222.4142801574
 30
0.0
 11
193.8611434958
 21
222.4142801574
 31
0.0
  0
LINE
  5
1BE
330
44
100
AcDbEntity
  8
0
  6
Continuous
 62
     7
100
AcDbLine
 10
200.2611434958
 20
222.4142801574
 30
0.0
 11
206.0611434958
 21
222.4142801574
 31
0.0
  0
LINE
  5
1BF
330
44
100
AcDbEntity
  8
0
  6
Continuous
 62
     7
100
AcDbLine
 10
206.0611434958
 20
220.8142801574
 30
0.0
 11
200.2611434958
 21
220.8142801574
 31
0.0
  0
LINE
  5
1C0
330
44
100
AcDbEntity
  8
0
  6
Continuous
 62
     7
100
AcDbLine
 10
188.0611434958
 20
222.4142801574
 30
0.0
 11
193.8611434958
 21
222.4142801574
 31
0.0
  0
LINE
  5
1C1
330
44
100
AcDbEntity
  8
0
  6
Continuous
 62
     7
100
AcDbLine
 10
193.8611434958
 20
220.8142801574
 30
0.0
 11
188.0611434958
 21
220.8142801574
 31
0.0
  0
LINE
  5
1C2
330
44
100
AcDbEntity
  8
0
  6
Continuous
 62
     7
100
AcDbLine
 10
200.3111434958
 20
220.8142801574
 30
0.0
 11
203.0611434958
 21
220.8142801574
 31
0.0
  0
LINE
  5
1C3
330
44
100
AcDbEntity
  8
0
  6
Continuous
 62
     7
100
AcDbLine
 10
203.0611434958
 20
218.4889969911
 30
0.0
 11
203.0611434958
 21
220.8142801574
 31
0.0
  0
LINE
  5
1C4
330
44
100
AcDbEntity
  8
0
  6
Continuous
 62
     7
100
AcDbLine
 10
200.194159065207
 20
216.717743239036
 30
0.0
 11
198.7038959104
 21
219.6742801574
 31
0.0
  0
LINE
  5
1C5
330
44
100
AcDbEntity
  8
0
  6
Continuous
 62
     7
100
AcDbLine
 10
198.3416434958
 20
219.6742801574
 30
0.0
 11
198.7038959104
 21
219.6742801574
 31
0.0
  0
LINE
  5
1C6
330
44
100
AcDbEntity
  8
0
  6
Continuous
 62
     7
100
AcDbLine
 10
197.0611434958
 20
220.0903398284
 30
0.0
 11
198.3416434958
 21
219.6742801574
 31
0.0
  0
LINE
  5
1C7
330
44
100
AcDbEntity
  8
0
  6
Continuous
 62
     7
100
AcDbLine
 10
195.7806434958
 20
219.6742801574
 30
0.0
 11
197.0611434958
 21
220.0903398284
 31
0.0
  0
LINE
  5
1C8
330
44
100
AcDbEntity
  8
0
  6
Continuous
 62
     7
100
AcDbLine
 10
195.4183910811
 20
219.6742801574
 30
0.0
 11
195.7806434958
 21
219.6742801574
 31
0.0
  0
LINE
  5
1C9
330
44
100
AcDbEntity
  8
0
  6
Continuous
 62
     7
100
AcDbLine
 10
195.4183910811
 20
219.6742801574
 30
0.0
 11
193.9281279264
 21
216.717743239
 31
0.0
  0
LINE
  5
1CA
330
44
100
AcDbEntity
  8
0
  6
Continuous
 62
     7
100
AcDbLine
 10
191.0611434958
 20
220.8142801574
 30
0.0
 11
191.0611434958
 21
218.4889969911
 31
0.0
  0
LINE
  5
1CB
330
44
100
AcDbEntity
  8
0
  6
Continuous
 62
     7
100
AcDbLine
 10
191.0611434958
 20
220.8142801574
 30
0.0
 11
193.8111434958
 21
220.8142801574
 31
0.0
  0
LINE
  5
1CC
330
44
100
AcDbEntity
  8
0
  6
Continuous
 62
     7
100
AcDbLine
 10
194.0611434958
 20
236.8142801574
 30
0.0
 11
194.0611434958
 21
221.0642801574
 31
0.0
  0
LINE
  5
1CD
330
44
100
AcDbEntity
  8
0
  6
Continuous
 62
     7
100
AcDbLine
 10
200.0611434958
 20
236.8142801574
 30
0.0
 11
194.0611434958
 21
236.8142801574
 31
0.0
  0
LINE
  5
1CE
330
44
100
AcDbEntity
  8
0
  6
Continuous
 62
     7
100
AcDbLine
 10
200.0611434958
 20
221.0642801574
 30
0.0
 11
200.0611434958
 21
236.8142801574
 31
0.0
  0
LINE
  5
1CF
330
44
100
AcDbEntity
  8
0
  6
Continuous
 62
     7
100
AcDbLine
 10
195.842410404314
 20
216.329612869176
 30
0.0
 11
196.5554802278
 21
216.3296128692
 31
0.0
  0
LINE
  5
1D0
330
44
100
AcDbEntity
  8
0
  6
Continuous
 62
     7
100
AcDbLine
 10
197.9600552005
 20
216.3296128692
 30
0.0
 11
198.488608823
 21
216.3296128692
 31
0.0
  0
LINE
  5
1D1
330
44
100
AcDbEntity
  8
0
  6
Continuous
 62
     7
100
AcDbLine
 10
198.2195700113
 20
219.6742801574
 30
0.0
 11
198.3416434958
 21
219.6742801574
 31
0.0
  0
LINE
  5
1D2
330
44
100
AcDbEntity
  8
0
  6
Continuous
 62
     7
100
AcDbLine
 10
197.9200736589
 20
219.6742801574
 30
0.0
 11
198.2195700113
 21
219.6742801574
 31
0.0
  0
LINE
  5
1D3
330
44
100
AcDbEntity
  8
0
  6
Continuous
 62
     7
100
AcDbLine
 10
196.5154986862
 20
219.6742801574
 30
0.0
 11
197.9200736589
 21
219.6742801574
 31
0.0
  0
LINE
  5
1D4
330
44
100
AcDbEntity
  8
0
  6
Continuous
 62
     7
100
AcDbLine
 10
196.1114492161
 20
219.6742801574
 30
0.0
 11
196.5154986862
 21
219.6742801574
 31
0.0
  0
LINE
  5
1D5
330
44
100
AcDbEntity
  8
0
  6
Continuous
 62
     7
100
AcDbLine
 10
195.7806434958
 20
219.6742801574
 30
0.0
 11
196.1114492161
 21
219.6742801574
 31
0.0
  0
LINE
  5
1D6
330
44
100
AcDbEntity
  8
0
  6
Continuous
 62
     7
100
AcDbLine
 10
194.106716340799
 20
216.730976113918
 30
0.0
 11
195.5582527952
 21
219.6742801574
 31
0.0
  0
LINE
  5
1D7
330
44
100
AcDbEntity
  8
0
  6
Continuous
 62
     7
100
AcDbLine
 10
196.813419682504
 20
216.730976113897
 30
0.0
 11
196.5977085561
 21
219.6742801574
 31
0.0
  0
LINE
  5
1D8
330
44
100
AcDbEntity
  8
0
  6
Continuous
 62
     7
100
AcDbLine
 10
363.6138758828
 20
110.4142801574
 30
0.0
 11
393.5508698136
 21
109.1072027745
 31
0.0
  0
LINE
  5
1D9
330
44
100
AcDbEntity
  8
0
  6
Continuous
 62
     7
100
AcDbLine
 10
363.6138758828
 20
110.4142801574
 30
0.0
 11
374.3238761087
 21
110.4142801574
 31
0.0
  0
LINE
  5
1DA
330
44
100
AcDbEntity
  8
0
  6
Continuous
 62
     7
100
AcDbLine
 10
427.0611434958
 20
183.7165167008
 30
0.0
 11
412.0611434958
 21
184.3714308445
 31
0.0
  0
LINE
  5
1DB
330
44
100
AcDbEntity
  8
0
  6
Continuous
 62
     7
100
AcDbLine
 10
393.5508698136
 20
109.1072027745
 30
0.0
 11
388.0558791951
 21
102.5585279637
 31
0.0
  0
LINE
  5
1DC
330
44
100
AcDbEntity
  8
0
  6
Continuous
 62
     7
100
AcDbLine
 10
246.0664077965
 20
102.5585279637
 30
0.0
 11
211.7402546334
 21
143.4668443157
 31
0.0
  0
LINE
  5
1DD
330
44
100
AcDbEntity
  8
0
  6
Continuous
 62
     7
100
AcDbLine
 10
412.0611434958
 20
184.3714308445
 30
0.0
 11
412.0611434958
 21
240.4142801574
 31
0.0
  0
LINE
  5
1DE
330
44
100
AcDbEntity
  8
0
  6
Continuous
 62
     7
100
AcDbLine
 10
404.1300816999
 20
184.184364504
 30
0.0
 11
404.1300816999
 21
222.114227649
 31
0.0
  0
LINE
  5
1DF
330
44
100
AcDbEntity
  8
0
  6
Continuous
 62
     7
100
AcDbLine
 10
222.0611434958
 20
240.4142801574
 30
0.0
 11
222.0611434958
 21
183.4142801574
 31
0.0
  0
LINE
  5
1E0
330
44
100
AcDbEntity
  8
0
  6
Continuous
 62
     7
100
AcDbLine
 10
207.0611434958
 20
156.3225965094
 30
0.0
 11
207.0611434958
 21
222.4142801574
 31
0.0
  0
LINE
  5
1E1
330
44
100
AcDbEntity
  8
0
  6
Continuous
 62
     7
100
AcDbLine
 10
427.0611434958
 20
240.4142801574
 30
0.0
 11
427.0611434958
 21
183.7165167008
 31
0.0
  0
LINE
  5
1E2
330
44
100
AcDbEntity
  8
0
  6
Continuous
 62
     7
100
AcDbLine
 10
393.0940311169
 20
184.6662088784
 30
0.0
 11
393.0940311169
 21
205.6090848154
 31
0.0
  0
LINE
  5
1E3
330
44
100
AcDbEntity
  8
0
  6
Continuous
 62
     7
100
AcDbLine
 10
232.0611434958
 20
142.5852094122
 30
0.0
 11
268.129734397
 21
142.5852094122
 31
0.0
  0
LINE
  5
1E4
330
44
100
AcDbEntity
  8
0
  6
Continuous
 62
     7
100
AcDbLine
 10
232.0611434958
 20
185.5398457741
 30
0.0
 11
232.0611434958
 21
142.5852094122
 31
0.0
  0
LINE
  5
1E5
330
44
100
AcDbEntity
  8
0
  6
Continuous
 62
     7
100
AcDbLine
 10
232.0611434958
 20
185.5398457741
 30
0.0
 11
250.0611875753
 21
189.3658732535
 31
0.0
  0
LINE
  5
1E6
330
44
100
AcDbEntity
  8
0
  6
Continuous
 62
     7
100
AcDbLine
 10
232.0611434958
 20
142.5852094122
 30
0.0
 11
259.0557583681
 21
110.4142801574
 31
0.0
  0
LINE
  5
1E7
330
44
100
AcDbEntity
  8
0
  6
Continuous
 62
     7
100
AcDbLine
 10
190.5611434958
 20
240.4142801574
 30
0.0
 11
190.5611434958
 21
222.4142801574
 31
0.0
  0
LINE
  5
1E8
330
44
100
AcDbEntity
  8
0
  6
Continuous
 62
     7
100
AcDbLine
 10
203.5611434958
 20
222.4142801574
 30
0.0
 11
203.5611434958
 21
240.4142801574
 31
0.0
  0
LINE
  5
1E9
330
44
100
AcDbEntity
  8
0
  6
Continuous
 62
     7
100
AcDbLine
 10
190.5611434958
 20
222.4142801574
 30
0.0
 11
179.0665550122
 21
222.4142801574
 31
0.0
  0
LINE
  5
1EA
330
44
100
AcDbEntity
  8
0
  6
Continuous
 62
     7
100
AcDbLine
 10
179.0665550122
 20
240.4142801574
 30
0.0
 11
179.0665550122
 21
222.4142801574
 31
0.0
  0
LINE
  5
1EB
330
44
100
AcDbEntity
  8
0
  6
Continuous
 62
     7
100
AcDbLine
 10
179.0665550122
 20
240.4142801574
 30
0.0
 11
190.5611434958
 21
240.4142801574
 31
0.0
  0
LINE
  5
1EC
330
44
100
AcDbEntity
  8
0
  6
Continuous
 62
     7
100
AcDbLine
 10
412.0611434958
 20
240.4142801574
 30
0.0
 11
427.0611434958
 21
240.4142801574
 31
0.0
  0
LINE
  5
1ED
330
44
100
AcDbEntity
  8
0
  6
Continuous
 62
     7
100
AcDbLine
 10
372.7349903327
 20
95.4142801574
 30
0.0
 11
261.3872966589
 21
95.4142801574
 31
0.0
  0
LINE
  5
1EE
330
44
100
AcDbEntity
  8
0
  6
Continuous
 62
     7
100
AcDbLine
 10
232.0611434958
 20
185.5398457741
 30
0.0
 11
222.0611434958
 21
183.4142801574
 31
0.0
  0
LINE
  5
1EF
330
44
100
AcDbEntity
  8
0
  6
Continuous
 62
     7
100
AcDbLine
 10
207.0611434958
 20
222.4142801574
 30
0.0
 11
203.5611434958
 21
222.4142801574
 31
0.0
  0
LINE
  5
1F0
330
44
100
AcDbEntity
  8
0
  6
Continuous
 62
     7
100
AcDbLine
 10
259.0557583681
 20
110.4142801574
 30
0.0
 11
363.6138758828
 21
110.4142801574
 31
0.0
  0
LINE
  5
1F1
330
44
100
AcDbEntity
  8
0
  6
Continuous
 62
     7
100
AcDbLine
 10
203.5611434958
 20
240.4142801574
 30
0.0
 11
222.0611434958
 21
240.4142801574
 31
0.0
  0
LINE
  5
1F2
330
44
100
AcDbEntity
  8
0
  6
Continuous
 62
     7
100
AcDbLine
 10
404.1300816999
 20
222.114227649
 30
0.0
 11
397.5611434958
 21
220.7179567305
 31
0.0
  0
LINE
  5
1F3
330
44
100
AcDbEntity
  8
0
  6
Continuous
 62
     7
100
AcDbLine
 10
247.4152008683
 20
235.2138463731
 30
0.0
 11
247.0485895342
 21
235.2138463731
 31
0.0
  0
LINE
  5
1F4
330
44
100
AcDbEntity
  8
0
  6
Continuous
 62
     7
100
AcDbLine
 10
387.0737167472
 20
235.2138463731
 30
0.0
 11
386.7071088012
 21
235.2138463731
 31
0.0
  0
LINE
  5
1F5
330
44
100
AcDbEntity
  8
0
  6
CENTERX2
 62
     7
100
AcDbLine
 10
346.8893589408
 20
149.1478227388
 30
0.0
 11
482.5407788614
 21
143.2251538382
 31
0.0
  0
LINE
  5
1F6
330
44
100
AcDbEntity
  8
0
  6
CENTERX2
 62
     7
100
AcDbLine
 10
317.0611434958
 20
93.9028166229
 30
0.0
 11
317.0611434958
 21
324.4362801829
 31
0.0
  0
LWPOLYLINE
  5
1F7
330
44
100
AcDbEntity
  8
0
  6
Continuous
 62
     7
100
AcDbPolyline
 90
        2
 70
     0
 43
0.15
 10
427.061141670644
 20
223.773579944697
 10
639.061146617744
 20
223.773579944697
  0
LWPOLYLINE
  5
1F8
330
44
100
AcDbEntity
  8
0
  6
Continuous
 62
     7
100
AcDbPolyline
 90
        2
 70
     0
 43
0.15
 10
639.061146617744
 20
231.773580324597
 10
427.061141670644
 20
231.773580324597
  0
LWPOLYLINE
  5
1F9
330
44
100
AcDbEntity
  8
0
  6
Continuous
 62
     7
100
AcDbPolyline
 90
        2
 70
     0
 43
0.15
 10
639.061146617744
 20
231.773580324597
 10
639.061146617744
 20
223.773579944697
  0
ARC
  5
1FA
330
44
100
AcDbEntity
  8
0
  6
Continuous
 62
     7
100
AcDbCircle
 10
250.3111434958
 20
211.6097469245
 30
0.0
 40
2.0
100
AcDbArc
 50
0.0
 51
90.0
  0
ARC
  5
1FB
330
44
100
AcDbEntity
  8
0
  6
Continuous
 62
     7
100
AcDbCircle
 10
383.8111434958
 20
211.6097469245
 30
0.0
 40
2.0
100
AcDbArc
 50
90.0
 51
180.0
  0
ARC
  5
1FC
330
44
100
AcDbEntity
  8
0
  6
Continuous
 62
     7
100
AcDbCircle
 10
249.8111434958
 20
209.1097469245
 30
0.0
 40
2.0
100
AcDbArc
 50
90.0
 51
180.0
  0
ARC
  5
1FD
330
44
100
AcDbEntity
  8
0
  6
Continuous
 62
     7
100
AcDbCircle
 10
384.3111434958
 20
209.1097469245
 30
0.0
 40
2.0
100
AcDbArc
 50
0.0
 51
90.0
  0
ARC
  5
1FE
330
44
100
AcDbEntity
  8
0
  6
Continuous
 62
     7
100
AcDbCircle
 10
253.5611875753
 20
181.9930776256
 30
0.0
 40
3.5
100
AcDbArc
 50
180.0
 51
204.9999999999952
  0
ARC
  5
1FF
330
44
100
AcDbEntity
  8
0
  6
Continuous
 62
     7
100
AcDbCircle
 10
386.9610994163
 20
198.9617395936
 30
0.0
 40
3.000000000000037
100
AcDbArc
 50
270.7202669948019
 51
0.0
  0
ARC
  5
200
330
44
100
AcDbEntity
  8
0
  6
Continuous
 62
     7
100
AcDbCircle
 10
247.1611875753
 20
198.9617395936
 30
0.0
 40
3.0
100
AcDbArc
 50
180.0
 51
270.0046834983523
  0
ARC
  5
201
330
44
100
AcDbEntity
  8
0
  6
Continuous
 62
     7
100
AcDbCircle
 10
139.0611434958
 20
241.9138463731
 30
0.0
 40
2.0
100
AcDbArc
 50
90.0
 51
180.0
  0
ARC
  5
202
330
44
100
AcDbEntity
  8
0
  6
Continuous
 62
     7
100
AcDbCircle
 10
495.0611434958
 20
241.9138463731
 30
0.0
 40
2.0
100
AcDbArc
 50
0.0
 51
90.0
  0
ARC
  5
203
330
44
100
AcDbEntity
  8
0
  6
Continuous
 62
     7
100
AcDbCircle
 10
316.9501861019
 20
167.9143131335
 30
0.0
 40
51.50000000000048
100
AcDbArc
 50
204.9999999999997
 51
270.1234445688286
  0
ARC
  5
204
330
44
100
AcDbEntity
  8
0
  6
Continuous
 62
     7
100
AcDbCircle
 10
394.5611434958
 20
208.6090848053
 30
0.0
 40
2.999999999922759
100
AcDbArc
 50
269.9953164997369
 51
0.0
  0
ARC
  5
205
330
44
100
AcDbEntity
  8
0
  6
Continuous
 62
     7
100
AcDbCircle
 10
239.5611434958
 20
208.6090848053
 30
0.0
 40
3.0
100
AcDbArc
 50
180.0
 51
270.0046834983523
  0
ARC
  5
206
330
44
100
AcDbEntity
  8
0
  6
Continuous
 62
     7
100
AcDbCircle
 10
316.9501861019
 20
167.9143131335
 30
0.0
 40
55.00000000000002
100
AcDbArc
 50
204.9999999999994
 51
270.1155889943385
  0
ARC
  5
207
330
44
100
AcDbEntity
  8
0
  6
Continuous
 62
     7
100
AcDbCircle
 10
391.4611434958
 20
215.9138463731
 30
0.0
 40
1.0
100
AcDbArc
 50
0.0
 51
90.0
  0
ARC
  5
208
330
44
100
AcDbEntity
  8
0
  6
Continuous
 62
     7
100
AcDbCircle
 10
242.6611434958
 20
215.9138463731
 30
0.0
 40
1.0
100
AcDbArc
 50
180.0
 51
270.0
  0
ARC
  5
209
330
44
100
AcDbEntity
  8
0
  6
Continuous
 62
     7
100
AcDbCircle
 10
242.6611434958
 20
215.9138463731
 30
0.0
 40
1.0
100
AcDbArc
 50
90.0
 51
180.0
  0
ARC
  5
20A
330
44
100
AcDbEntity
  8
0
  6
Continuous
 62
     7
100
AcDbCircle
 10
268.6125615921
 20
303.9138523731
 30
0.0
 40
15.0
100
AcDbArc
 50
90.0
 51
160.0000002231455
  0
ARC
  5
20B
330
44
100
AcDbEntity
  8
0
  6
Continuous
 62
     7
100
AcDbCircle
 10
365.5097253995
 20
303.9138523731
 30
0.0
 40
14.99999999999989
100
AcDbArc
 50
19.99999977690016
 51
90.0
  0
ARC
  5
20C
330
44
100
AcDbEntity
  8
0
  6
Continuous
 62
     7
100
AcDbCircle
 10
391.4611434958
 20
215.9138463731
 30
0.0
 40
1.0
100
AcDbArc
 50
270.0
 51
0.0
  0
ARC
  5
20D
330
44
100
AcDbEntity
  8
0
  6
Continuous
 62
     7
100
AcDbCircle
 10
200.3111434958
 20
221.0642801574
 30
0.0
 40
0.25
100
AcDbArc
 50
180.0
 51
270.0
  0
ARC
  5
20E
330
44
100
AcDbEntity
  8
0
  6
Continuous
 62
     7
100
AcDbCircle
 10
202.5211434958
 20
218.4889969911
 30
0.0
 40
0.5399999999998241
100
AcDbArc
 50
305.2515315420175
 51
0.0
  0
ARC
  5
20F
330
44
100
AcDbEntity
  8
0
  6
Continuous
 62
     7
100
AcDbCircle
 10
197.0611434958
 20
226.2142801574
 30
0.0
 40
9.999999999999858
100
AcDbArc
 50
288.2583107463982
 51
305.2515315420875
  0
ARC
  5
210
330
44
100
AcDbEntity
  8
0
  6
Continuous
 62
     7
100
AcDbCircle
 10
197.0611434958
 20
226.2142801574
 30
0.0
 40
10.00000000000001
100
AcDbArc
 50
234.7484684580024
 51
251.7416892537046
  0
ARC
  5
211
330
44
100
AcDbEntity
  8
0
  6
Continuous
 62
     7
100
AcDbCircle
 10
191.6011434958
 20
218.4889969911
 30
0.0
 40
0.539999999999992
100
AcDbArc
 50
180.0
 51
234.7484684596481
  0
ARC
  5
212
330
44
100
AcDbEntity
  8
0
  6
Continuous
 62
     7
100
AcDbCircle
 10
193.8111434958
 20
221.0642801574
 30
0.0
 40
0.25
100
AcDbArc
 50
270.0
 51
0.0
  0
ARC
  5
213
330
44
100
AcDbEntity
  8
0
  6
Continuous
 62
     7
100
AcDbCircle
 10
193.9981669562
 20
216.9842239635
 30
0.0
 40
0.2755312000942495
100
AcDbArc
 50
255.2740287065185
 51
293.2013795126683
  0
ARC
  5
214
330
44
100
AcDbEntity
  8
0
  6
Continuous
 62
     7
100
AcDbCircle
 10
197.1678408166
 20
226.0151157576
 30
0.0
 40
9.775772704995541
100
AcDbArc
 50
251.7518126358516
 51
262.2076559288978
  0
ARC
  5
215
330
44
100
AcDbEntity
  8
0
  6
Continuous
 62
     7
100
AcDbCircle
 10
195.648548707
 20
217.1960251147
 30
0.0
 40
1.254270689513613
100
AcDbArc
 50
316.3089281482921
 51
338.2367366151797
  0
ARC
  5
216
330
44
100
AcDbEntity
  8
0
  6
Continuous
 62
     7
100
AcDbCircle
 10
197.5157071688
 20
227.5199194247
 30
0.0
 40
10.81177624061509
100
AcDbArc
 50
266.2756851659373
 51
273.7243148342012
  0
ARC
  5
217
330
44
100
AcDbEntity
  8
0
  6
Continuous
 62
     7
100
AcDbCircle
 10
197.1631784108
 20
226.0151157576
 30
0.0
 40
9.775772704947144
100
AcDbArc
 50
277.7923440706218
 51
288.2481873643022
  0
ARC
  5
218
330
44
100
AcDbEntity
  8
0
  6
Continuous
 62
     7
100
AcDbCircle
 10
227.0611434958
 20
156.3225965094
 30
0.0
 40
20.0
100
AcDbArc
 50
180.0
 51
219.9999999998948
  0
ARC
  5
219
330
44
100
AcDbEntity
  8
0
  6
Continuous
 62
     7
100
AcDbCircle
 10
372.7349903327
 20
115.4142801574
 30
0.0
 40
20.0
100
AcDbArc
 50
270.0
 51
320.0000000001052
  0
ARC
  5
21A
330
44
100
AcDbEntity
  8
0
  6
Continuous
 62
     7
100
AcDbCircle
 10
261.3872966589
 20
115.4142801574
 30
0.0
 40
19.9999999999959
100
AcDbArc
 50
219.9999999998947
 51
270.0
  0
SPLINE
  5
21B
330
44
100
AcDbEntity
  8
0
  6
Continuous
 62
     7
100
AcDbSpline
210
0.0
220
0.0
230
1.0
 70
     8
 71
     3
 72
    13
 73
     9
 74
     7
 42
0.0000000001
 43
0.0000000001
 44
0.00000001
 40
0.0
 40
0.0
 40
0.0
 40
0.0
 40
15.82060774535633
 40
31.63993090390513
 40
38.03196116386804
 40
44.42245640679479
 40
51.56698702622285
 40
58.67667924903871
 40
58.67667924903871
 40
58.67667924903871
 40
58.67667924903871
 10
359.995192130383
 20
146.149472653932
 30
0.0
 10
357.4389877023278
 20
150.7702058838803
 30
0.0
 10
352.3267864024971
 20
160.0112971538319
 30
0.0
 10
343.9427902225056
 20
169.7108668174815
 30
0.0
 10
336.4690662110892
 20
175.6703793361412
 30
0.0
 10
330.7135359990738
 20
179.0182258797565
 30
0.0
 10
324.1957629176992
 20
181.4747148391933
 30
0.0
 10
319.4354717994913
 20
181.8205717969865
 30
0.0
 10
317.0611434958
 20
181.993077625627
 30
0.0
 11
359.995192130383
 21
146.149472653932
 31
0.0
 11
351.8608667919202
 21
159.7187165798282
 31
0.0
 11
341.4042632730666
 21
171.5892864079408
 31
0.0
 11
336.3806752832883
 21
175.541705231046
 31
0.0
 11
330.8502160852583
 21
178.7436500320685
 31
0.0
 11
324.1194282570946
 21
181.1396494027256
 31
0.0
 11
317.0611434958
 21
181.993077625627
 31
0.0
  0
SPLINE
  5
21C
330
44
100
AcDbEntity
  8
0
  6
Continuous
 62
     7
100
AcDbSpline
210
0.0
220
0.0
230
1.0
 70
    24
 71
     3
 72
     9
 73
     5
 74
     3
 42
0.0000000001
 43
0.0000000001
 44
0.00000001
 40
0.0
 40
0.0
 40
0.0
 40
0.0
 40
0.2976419019606169
 40
0.5952838038679715
 40
0.5952838038679715
 40
0.5952838038679715
 40
0.5952838038679715
 10
262.4898364434
 20
283.2340895227
 30
0.0
 10
262.5890504107202
 20
283.2340895227079
 30
0.0
 10
262.7874783453429
 20
283.2340895227236
 30
0.0
 10
262.9859062799655
 20
283.2340895227151
 30
0.0
 10
263.085120247268
 20
283.234089522711
 30
0.0
 11
262.4898364434
 21
283.2340895227
 31
0.0
 11
262.7874783453606
 21
283.2340895227175
 31
0.0
 11
263.085120247268
 21
283.234089522711
 31
0.0
  0
SPLINE
  5
21D
330
44
100
AcDbEntity
  8
0
  6
Continuous
 62
     7
100
AcDbSpline
210
0.0
220
0.0
230
1.0
 70
    24
 71
     3
 72
     9
 73
     5
 74
     3
 42
0.0000000001
 43
0.0000000001
 44
0.00000001
 40
0.0
 40
0.0
 40
0.0
 40
0.0
 40
0.5749999997438522
 40
1.149999999609975
 40
1.149999999609975
 40
1.149999999609975
 40
1.149999999609975
 10
267.8257065372
 20
283.2340895227
 30
0.0
 10
268.0173732037813
 20
283.2340895227469
 30
0.0
 10
268.4007065369846
 20
283.2340895228406
 30
0.0
 10
268.7840398701879
 20
283.2340895228609
 30
0.0
 10
268.97570653681
 20
283.234089522871
 30
0.0
 11
267.8257065372
 21
283.2340895227
 31
0.0
 11
268.4007065369439
 21
283.2340895228223
 31
0.0
 11
268.97570653681
 21
283.234089522871
 31
0.0
  0
SPLINE
  5
21E
330
44
100
AcDbEntity
  8
0
  6
Continuous
 62
     7
100
AcDbSpline
210
0.0
220
0.0
230
1.0
 70
    24
 71
     3
 72
     9
 73
     5
 74
     3
 42
0.0000000001
 43
0.0000000001
 44
0.00000001
 40
0.0
 40
0.0
 40
0.0
 40
0.0
 40
0.8131727986223609
 40
1.626345597096986
 40
1.626345597096986
 40
1.626345597096986
 40
1.626345597096986
 10
276.5168902943
 20
283.2340895227
 30
0.0
 10
276.7879478938409
 20
283.2340895226869
 30
0.0
 10
277.3300630928732
 20
283.2340895226606
 30
0.0
 10
277.8721782919055
 20
283.2340895226455
 30
0.0
 10
278.143235891397
 20
283.234089522638
 30
0.0
 11
276.5168902943
 21
283.2340895227
 31
0.0
 11
277.3300630929224
 21
283.2340895226634
 31
0.0
 11
278.143235891397
 21
283.234089522638
 31
0.0
  0
SPLINE
  5
21F
330
44
100
AcDbEntity
  8
0
  6
Continuous
 62
     7
100
AcDbSpline
210
0.0
220
0.0
230
1.0
 70
    24
 71
     3
 72
     9
 73
     5
 74
     3
 42
0.0000000001
 43
0.0000000001
 44
0.00000001
 40
0.0
 40
0.0
 40
0.0
 40
0.0
 40
0.9959292144149572
 40
1.991858428787964
 40
1.991858428787964
 40
1.991858428787964
 40
1.991858428787964
 10
287.9710979045
 20
283.2340895227
 30
0.0
 10
288.303074309305
 20
283.2340895227103
 30
0.0
 10
288.967027118901
 20
283.234089522731
 30
0.0
 10
289.630979928497
 20
283.2340895227276
 30
0.0
 10
289.962956333288
 20
283.234089522726
 30
0.0
 11
287.9710979045
 21
283.2340895227
 31
0.0
 11
288.967027118915
 21
283.234089522725
 31
0.0
 11
289.962956333288
 21
283.234089522726
 31
0.0
  0
SPLINE
  5
220
330
44
100
AcDbEntity
  8
0
  6
Continuous
 62
     7
100
AcDbSpline
210
0.0
220
0.0
230
1.0
 70
    24
 71
     3
 72
     9
 73
     5
 74
     3
 42
0.0000000001
 43
0.0000000001
 44
0.00000001
 40
0.0
 40
0.0
 40
0.0
 40
0.0
 40
1.110814700130845
 40
2.221629400288009
 40
2.221629400288009
 40
2.221629400288009
 40
2.221629400288009
 10
301.4077440482
 20
283.2340895227
 30
0.0
 10
301.7780156149103
 20
283.2340895227177
 30
0.0
 10
302.5185587483396
 20
283.2340895227531
 30
0.0
 10
303.259101881769
 20
283.234089522757
 30
0.0
 10
303.629373448488
 20
283.234089522759
 30
0.0
 11
301.4077440482
 21
283.2340895227
 31
0.0
 11
302.5185587483309
 21
283.2340895227453
 31
0.0
 11
303.629373448488
 21
283.234089522759
 31
0.0
  0
SPLINE
  5
221
330
44
100
AcDbEntity
  8
0
  6
Continuous
 62
     7
100
AcDbSpline
210
0.0
220
0.0
230
1.0
 70
    24
 71
     3
 72
     9
 73
     5
 74
     3
 42
0.0000000001
 43
0.0000000001
 44
0.00000001
 40
0.0
 40
0.0
 40
0.0
 40
0.0
 40
1.150000000029081
 40
2.300000000058958
 40
2.300000000058958
 40
2.300000000058958
 40
2.300000000058958
 10
315.911143495772
 20
283.234089522737
 30
0.0
 10
316.294476829115
 20
283.234089522737
 30
0.0
 10
317.0611434958013
 20
283.234089522737
 30
0.0
 10
317.8278101624877
 20
283.234089522737
 30
0.0
 10
318.211143495831
 20
283.234089522737
 30
0.0
 11
315.911143495772
 21
283.234089522737
 31
0.0
 11
317.0611434958011
 21
283.234089522737
 31
0.0
 11
318.211143495831
 21
283.234089522737
 31
0.0
  0
SPLINE
  5
222
330
44
100
AcDbEntity
  8
0
  6
Continuous
 62
     7
100
AcDbSpline
210
0.0
220
0.0
230
1.0
 70
    24
 71
     3
 72
     9
 73
     5
 74
     3
 42
0.0000000001
 43
0.0000000001
 44
0.00000001
 40
0.0
 40
0.0
 40
0.0
 40
0.0
 40
1.110814700162393
 40
2.221629400323991
 40
2.221629400323991
 40
2.221629400323991
 40
2.221629400323991
 10
330.492913543114
 20
283.234089522758
 30
0.0
 10
330.8631851098348
 20
283.2340895227555
 30
0.0
 10
331.6037282432761
 20
283.2340895227505
 30
0.0
 10
332.3442713767175
 20
283.2340895227455
 30
0.0
 10
332.714542943438
 20
283.234089522743
 30
0.0
 11
330.492913543114
 21
283.234089522758
 31
0.0
 11
331.6037282432764
 21
283.2340895227505
 31
0.0
 11
332.714542943438
 21
283.234089522743
 31
0.0
  0
SPLINE
  5
223
330
44
100
AcDbEntity
  8
0
  6
Continuous
 62
     7
100
AcDbSpline
210
0.0
220
0.0
230
1.0
 70
    24
 71
     3
 72
     9
 73
     5
 74
     3
 42
0.0000000001
 43
0.0000000001
 44
0.00000001
 40
0.0
 40
0.0
 40
0.0
 40
0.0
 40
0.9959292143655034
 40
1.991858428731007
 40
1.991858428731007
 40
1.991858428731007
 40
1.991858428731007
 10
344.159330658315
 20
283.234089522726
 30
0.0
 10
344.4913070631035
 20
283.234089522727
 30
0.0
 10
345.1552598726804
 20
283.234089522729
 30
0.0
 10
345.8192126822576
 20
283.234089522731
 30
0.0
 10
346.151189087046
 20
283.234089522732
 30
0.0
 11
344.159330658315
 21
283.234089522726
 31
0.0
 11
345.1552598726805
 21
283.234089522729
 31
0.0
 11
346.151189087046
 21
283.234089522732
 31
0.0
  0
SPLINE
  5
224
330
44
100
AcDbEntity
  8
0
  6
Continuous
 62
     7
100
AcDbSpline
210
0.0
220
0.0
230
1.0
 70
    24
 71
     3
 72
     9
 73
     5
 74
     3
 42
0.0000000001
 43
0.0000000001
 44
0.00000001
 40
0.0
 40
0.0
 40
0.0
 40
0.0
 40
0.8131727984503527
 40
1.626345596899966
 40
1.626345596899966
 40
1.626345596899966
 40
1.626345596899966
 10
355.979051100205
 20
283.234089522638
 30
0.0
 10
356.2501086996886
 20
283.2340895226459
 30
0.0
 10
356.7922238986552
 20
283.2340895226615
 30
0.0
 10
357.3343390976218
 20
283.2340895226772
 30
0.0
 10
357.605396697105
 20
283.234089522685
 30
0.0
 11
355.979051100205
 21
283.234089522638
 31
0.0
 11
356.7922238986554
 21
283.2340895226615
 31
0.0
 11
357.605396697105
 21
283.234089522685
 31
0.0
  0
SPLINE
  5
225
330
44
100
AcDbEntity
  8
0
  6
Continuous
 62
     7
100
AcDbSpline
210
0.0
220
0.0
230
1.0
 70
    24
 71
     3
 72
     9
 73
     5
 74
     3
 42
0.0000000001
 43
0.0000000001
 44
0.00000001
 40
0.0
 40
0.0
 40
0.0
 40
0.0
 40
0.5749999998859607
 40
1.149999999771978
 40
1.149999999771978
 40
1.149999999771978
 40
1.149999999771978
 10
365.146580454793
 20
283.234089522871
 30
0.0
 10
365.3382471214217
 20
283.2340895228586
 30
0.0
 10
365.721580454679
 20
283.2340895228339
 30
0.0
 10
366.1049137879363
 20
283.2340895228093
 30
0.0
 10
366.296580454565
 20
283.234089522797
 30
0.0
 11
365.146580454793
 21
283.234089522871
 31
0.0
 11
365.721580454679
 21
283.2340895228339
 31
0.0
 11
366.296580454565
 21
283.234089522797
 31
0.0
  0
SPLINE
  5
226
330
44
100
AcDbEntity
  8
0
  6
Continuous
 62
     7
100
AcDbSpline
210
0.0
220
0.0
230
1.0
 70
    24
 71
     3
 72
     9
 73
     5
 74
     3
 42
0.0000000001
 43
0.0000000001
 44
0.00000001
 40
0.0
 40
0.0
 40
0.0
 40
0.0
 40
0.2976419018993965
 40
0.5952838037979973
 40
0.5952838037979973
 40
0.5952838037979973
 40
0.5952838037979973
 10
371.037166744334
 20
283.23408952271
 30
0.0
 10
371.1363807116338
 20
283.2340895227137
 30
0.0
 10
371.3348086462331
 20
283.234089522721
 30
0.0
 10
371.5332365808325
 20
283.2340895227283
 30
0.0
 10
371.632450548132
 20
283.234089522732
 30
0.0
 11
371.037166744334
 21
283.23408952271
 31
0.0
 11
371.3348086462334
 21
283.234089522721
 31
0.0
 11
371.632450548132
 21
283.234089522732
 31
0.0
  0
DIMENSION
  5
23D
330
44
100
AcDbEntity
  8
1
100
AcDbDimension
  2
*D2
 10
317.0611434958
 20
71.639116439415
 30
0.0
 11
399.58041726875
 21
78.639116439415
 31
0.0
 70
    32
  1
<>
 71
     5
 42
-1.0
 53
0.00013888888889
  3
ME10_DIM_10
100
AcDbAlignedDimension
 13
482.131658326
 23
179.7059242654
 33
0.0
 14
317.0611434958
 24
93.9028166229
 34
0.0
100
AcDbRotatedDimension
  0
DIMENSION
  5
248
330
44
100
AcDbEntity
  8
1
100
AcDbDimension
  2
*D3
 10
137.0611434958
 20
348.437846596935
 30
0.0
 11
316.872358927727
 21
355.437846596935
 31
0.0
 70
    33
  1
<>
 71
     5
 42
-1.0
 53
0.00013888888889
  3
ME10_DIM_11
100
AcDbAlignedDimension
 13
497.0611434958
 23
241.9138463731
 33
0.0
 14
137.0611434958
 24
241.9138463731
 34
0.0
  0
DIMENSION
  5
253
330
44
100
AcDbEntity
  8
1
100
AcDbDimension
  2
*D4
 10
203.225314545321
 20
318.9138523731
 30
0.0
 11
196.225314545321
 21
282.480780587848
 31
0.0
 70
    32
  1
<>
 71
     5
 42
-1.0
 53
90.0
  3
ME10_DIM_12
100
AcDbAlignedDimension
 13
238.3111875753
 23
243.9138463731
 33
0.0
 14
268.6125615921
 24
318.9138523731
 34
0.0
 50
90.0
100
AcDbRotatedDimension
  0
DIMENSION
  5
25E
330
44
100
AcDbEntity
  8
1
100
AcDbDimension
  2
*D5
 10
121.748723687517
 20
243.9138463731
 30
0.0
 11
114.748723687517
 21
172.25890372872
 31
0.0
 70
    32
  1
149
 71
     5
 42
-1.0
 53
90.0
  3
ME10_DIM_13
100
AcDbAlignedDimension
 13
261.3872966589
 23
95.4142801574
 33
0.0
 14
139.0611434958
 24
243.9138463731
 34
0.0
 50
90.0
100
AcDbRotatedDimension
  0
DIMENSION
  5
269
330
44
100
AcDbEntity
  8
1
100
AcDbDimension
  2
*D6
 10
505.2752271693
 20
179.7682720821605
 30
0.0
 11
496.651018846695
 21
142.7205260028347
 31
0.0
 70
    32
  1
<>
 71
     5
 42
-1.0
 53
87.49999999999493
  3
ME10_DIM_14
100
AcDbAlignedDimension
 13
474.9107625052
 23
106.0225618531
 33
0.0
 14
478.1822165576
 24
180.9511784717
 34
0.0
 50
87.49999999999493
100
AcDbRotatedDimension
  0
HATCH
  5
26A
330
44
100
AcDbEntity
  8
0
  6
Continuous
 62
     7
100
AcDbHatch
 10
0.0
 20
0.0
 30
0.0
210
0.0
220
0.0
230
1.0
  2
CUSTOM0
 70
     0
 71
     0
 91
        1
 92
        1
 93
        4
 72
     1
 10
190.5611434958
 20
240.4142801574
 11
179.0665550122
 21
240.4142801574
 72
     1
 10
179.0665550122
 20
240.4142801574
 11
179.0665550122
 21
222.4142801574
 72
     1
 10
179.0665550122
 20
222.4142801574
 11
190.5611434958
 21
222.4142801574
 72
     1
 10
190.5611434958
 20
222.4142801574
 11
190.5611434958
 21
240.4142801574
 97
        0
 75
     1
 76
     2
 52
0.0
 41
1.0
 77
     0
 78
     1
 53
44.99999999999998
 43
0.0
 44
0.0
 45
-4.490128060534577
 46
0.0000000000000018
 79
     0
 98
        1
 10
0.0
 20
0.0
  0
HATCH
  5
26B
330
44
100
AcDbEntity
  8
0
  6
Continuous
 62
     7
100
AcDbHatch
 10
0.0
 20
0.0
 30
0.0
210
0.0
220
0.0
230
1.0
  2
CUSTOM1
 70
     0
 71
     0
 91
        1
 92
        1
 93
       27
 72
     1
 10
363.6138758828
 20
110.4142801574
 11
259.0557583681
 21
110.4142801574
 72
     1
 10
259.0557583681
 20
110.4142801574
 11
232.0611434958
 21
142.5852094122
 72
     1
 10
232.0611434958
 20
142.5852094122
 11
232.0611434958
 21
185.5398457741
 72
     1
 10
232.0611434958
 20
185.5398457741
 11
222.0611434958
 21
183.4142801574
 72
     1
 10
222.0611434958
 20
183.4142801574
 11
222.0611434958
 21
240.4142801574
 72
     1
 10
222.0611434958
 20
240.4142801574
 11
203.5611434958
 21
240.4142801574
 72
     1
 10
203.5611434958
 20
240.4142801574
 11
203.5611434958
 21
222.4142801574
 72
     1
 10
203.5611434958
 20
222.4142801574
 11
207.0611434958
 21
222.4142801574
 72
     1
 10
207.0611434958
 20
222.4142801574
 11
207.0611434958
 21
156.3225965094
 72
     1
 10
207.0611434958
 20
156.3225965094
 11
207.459811938961
 21
152.349209893545
 72
     1
 10
207.459811938961
 20
152.349209893545
 11
208.639923615728
 21
148.534229663273
 72
     1
 10
208.639923615728
 20
148.534229663273
 11
210.554431197592
 21
145.029747041546
 72
     1
 10
210.554431197592
 20
145.029747041546
 11
211.7402546334
 21
143.4668443157
 72
     1
 10
211.7402546334
 20
143.4668443157
 11
246.0664077965
 21
102.5585279637
 72
     1
 10
246.0664077965
 20
102.5585279637
 11
248.925849227243
 21
99.7709963618234
 72
     1
 10
248.925849227243
 20
99.7709963618234
 11
252.282089242708
 21
97.6071131196873
 72
     1
 10
252.282089242708
 20
97.6071131196873
 11
256.001325144713
 21
96.153145433579
 72
     1
 10
256.001325144713
 20
96.153145433579
 11
259.935282734571
 21
95.4670584068834
 72
     1
 10
259.935282734571
 20
95.4670584068834
 11
261.3872966589
 21
95.4142801574
 72
     1
 10
261.3872966589
 20
95.4142801574
 11
372.7349903327
 21
95.4142801574
 72
     1
 10
372.7349903327
 20
95.4142801574
 11
376.708376948587
 21
95.812948600558
 72
     1
 10
376.708376948587
 20
95.812948600558
 11
380.523357178859
 21
96.9930602773252
 72
     1
 10
380.523357178859
 20
96.9930602773252
 11
384.027839800586
 21
98.9075678591894
 72
     1
 10
384.027839800586
 20
98.9075678591894
 11
387.082112150676
 21
101.48014597044
 72
     1
 10
387.082112150676
 20
101.48014597044
 11
388.0558791951
 21
102.5585279637
 72
     1
 10
388.0558791951
 20
102.5585279637
 11
393.5508698136
 21
109.1072027745
 72
     1
 10
393.5508698136
 20
109.1072027745
 11
363.6138758828
 21
110.4142801574
 97
        0
 75
     1
 76
     2
 52
0.0
 41
1.0
 77
     0
 78
     1
 53
44.99999999999998
 43
0.0
 44
0.0
 45
-4.490128060534577
 46
0.0000000000000018
 79
     0
 98
        1
 10
0.0
 20
0.0
  0
HATCH
  5
26C
330
44
100
AcDbEntity
  8
0
  6
Continuous
 62
     7
100
AcDbHatch
 10
0.0
 20
0.0
 30
0.0
210
0.0
220
0.0
230
1.0
  2
CUSTOM2
 70
     0
 71
     0
 91
        1
 92
        1
 93
        4
 72
     1
 10
412.0611434958
 20
184.3714308445
 11
427.0611434958
 21
183.7165167008
 72
     1
 10
427.0611434958
 20
183.7165167008
 11
427.0611434958
 21
240.4142801574
 72
     1
 10
427.0611434958
 20
240.4142801574
 11
412.0611434958
 21
240.4142801574
 72
     1
 10
412.0611434958
 20
240.4142801574
 11
412.0611434958
 21
184.3714308445
 97
        0
 75
     1
 76
     2
 52
0.0
 41
1.0
 77
     0
 78
     1
 53
44.99999999999998
 43
0.0
 44
0.0
 45
-4.490128060534577
 46
0.0000000000000018
 79
     0
 98
        1
 10
0.0
 20
0.0
  0
HATCH
  5
26D
330
44
100
AcDbEntity
  8
0
  6
Continuous
 62
     7
100
AcDbHatch
 10
0.0
 20
0.0
 30
0.0
210
0.0
220
0.0
230
1.0
  2
CUSTOM3
 70
     0
 71
     0
 91
        1
 92
        1
 93
       43
 72
     1
 10
200.0611434958
 20
221.0642801574
 11
200.0611434958
 21
236.8142801574
 72
     1
 10
200.0611434958
 20
236.8142801574
 11
194.0611434958
 21
236.8142801574
 72
     1
 10
194.0611434958
 20
236.8142801574
 11
194.0611434958
 21
221.0642801574
 72
     1
 10
194.0611434958
 20
221.0642801574
 11
194.056160140246
 21
221.014612824684
 72
     1
 10
194.056160140246
 20
221.014612824684
 11
194.041408744286
 21
220.966925571806
 72
     1
 10
194.041408744286
 20
220.966925571806
 11
194.017477399513
 21
220.923119539034
 72
     1
 10
194.017477399513
 20
220.923119539034
 11
193.985320173122
 21
220.884941134658
 72
     1
 10
193.985320173122
 20
220.884941134658
 11
193.946219072252
 21
220.853912411181
 72
     1
 10
193.946219072252
 20
220.853912411181
 11
193.901732934405
 21
220.831270385891
 72
     1
 10
193.901732934405
 20
220.831270385891
 11
193.85363528151
 21
220.817917724886
 72
     1
 10
193.85363528151
 20
220.817917724886
 11
193.8111434958
 21
220.8142801574
 72
     1
 10
193.8111434958
 20
220.8142801574
 11
191.0611434958
 21
220.8142801574
 72
     1
 10
191.0611434958
 20
220.8142801574
 11
191.0611434958
 21
218.4889969911
 72
     1
 10
191.0611434958
 20
218.4889969911
 11
191.071907543751
 21
218.381715552422
 72
     1
 10
191.071907543751
 20
218.381715552422
 11
191.103770559024
 21
218.278711086205
 72
     1
 10
191.103770559024
 20
218.278711086205
 11
191.155462263734
 21
218.184090055418
 72
     1
 10
191.155462263734
 20
218.184090055418
 11
191.224921872738
 21
218.101624701966
 72
     1
 10
191.224921872738
 20
218.101624701966
 11
191.289473305523
 21
218.04801888221
 72
     1
 10
191.289473305523
 20
218.04801888221
 11
193.026908106614
 21
217.064146561377
 72
     1
 10
193.026908106614
 20
217.064146561377
 11
193.9281279264
 21
216.717743239
 72
     1
 10
193.9281279264
 20
216.717743239
 11
195.4183910811
 21
219.6742801574
 72
     1
 10
195.4183910811
 20
219.6742801574
 11
195.7806434958
 21
219.6742801574
 72
     1
 10
195.7806434958
 20
219.6742801574
 11
197.0611434958
 21
220.0903398284
 72
     1
 10
197.0611434958
 20
220.0903398284
 11
198.3416434958
 21
219.6742801574
 72
     1
 10
198.3416434958
 20
219.6742801574
 11
198.7038959104
 21
219.6742801574
 72
     1
 10
198.7038959104
 20
219.6742801574
 11
200.194159065207
 21
216.717743239036
 72
     1
 10
200.194159065207
 20
216.717743239036
 11
202.018377977665
 21
217.529475825007
 72
     1
 10
202.018377977665
 20
217.529475825007
 11
202.832813686075
 21
218.04801888224
 72
     1
 10
202.832813686075
 20
218.04801888224
 11
202.914209858366
 21
218.118728393129
 72
     1
 10
202.914209858366
 20
218.118728393129
 11
202.979935715188
 21
218.204199344615
 72
     1
 10
202.979935715188
 20
218.204199344615
 11
203.027370974025
 21
218.301024279534
 72
     1
 10
203.027370974025
 20
218.301024279534
 11
203.054624540798
 21
218.405343093279
 72
     1
 10
203.054624540798
 20
218.405343093279
 11
203.0611434958
 21
218.4889969911
 72
     1
 10
203.0611434958
 20
218.4889969911
 11
203.0611434958
 21
220.8142801574
 72
     1
 10
203.0611434958
 20
220.8142801574
 11
200.3111434958
 21
220.8142801574
 72
     1
 10
200.3111434958
 20
220.8142801574
 11
200.261476163087
 21
220.819263512922
 72
     1
 10
200.261476163087
 20
220.819263512922
 11
200.213788910208
 21
220.834014908882
 72
     1
 10
200.213788910208
 20
220.834014908882
 11
200.169982877437
 21
220.857946253655
 72
     1
 10
200.169982877437
 20
220.857946253655
 11
200.131804473061
 21
220.890103480046
 72
     1
 10
200.131804473061
 20
220.890103480046
 11
200.100775749583
 21
220.929204580916
 72
     1
 10
200.100775749583
 20
220.929204580916
 11
200.078133724294
 21
220.973690718764
 72
     1
 10
200.078133724294
 20
220.973690718764
 11
200.064781063288
 21
221.021788371658
 72
     1
 10
200.064781063288
 20
221.021788371658
 11
200.0611434958
 21
221.0642801574
 97
        0
 75
     1
 76
     2
 52
0.0
 41
1.0
 77
     0
 78
     1
 53
44.99999999999998
 43
0.0
 44
0.0
 45
-4.490128060534577
 46
0.0000000000000018
 79
     0
 98
        1
 10
0.0
 20
0.0
  0
HATCH
  5
26E
330
44
100
AcDbEntity
  8
0
  6
Continuous
 62
     7
100
AcDbHatch
 10
0.0
 20
0.0
 30
0.0
210
0.0
220
0.0
230
1.0
  2
CUSTOM4
 70
     0
 71
     0
 91
        1
 92
        1
 93
        4
 72
     1
 10
193.8611434958
 20
220.8142801574
 11
193.8611434958
 21
222.4142801574
 72
     1
 10
193.8611434958
 20
222.4142801574
 11
188.0611434958
 21
222.4142801574
 72
     1
 10
188.0611434958
 20
222.4142801574
 11
188.0611434958
 21
220.8142801574
 72
     1
 10
188.0611434958
 20
220.8142801574
 11
193.8611434958
 21
220.8142801574
 97
        0
 75
     1
 76
     2
 52
0.0
 41
1.0
 77
     0
 78
     1
 53
44.99999999999998
 43
0.0
 44
0.0
 45
-4.490128060534577
 46
0.0000000000000018
 79
     0
 98
        1
 10
0.0
 20
0.0
  0
HATCH
  5
26F
330
44
100
AcDbEntity
  8
0
  6
Continuous
 62
     7
100
AcDbHatch
 10
0.0
 20
0.0
 30
0.0
210
0.0
220
0.0
230
1.0
  2
CUSTOM5
 70
     0
 71
     0
 91
        1
 92
        1
 93
        4
 72
     1
 10
200.2611434958
 20
222.4142801574
 11
200.2611434958
 21
220.8142801574
 72
     1
 10
200.2611434958
 20
220.8142801574
 11
206.0611434958
 21
220.8142801574
 72
     1
 10
206.0611434958
 20
220.8142801574
 11
206.0611434958
 21
222.4142801574
 72
     1
 10
206.0611434958
 20
222.4142801574
 11
200.2611434958
 21
222.4142801574
 97
        0
 75
     1
 76
     2
 52
0.0
 41
1.0
 77
     0
 78
     1
 53
44.99999999999998
 43
0.0
 44
0.0
 45
-4.490128060534577
 46
0.0000000000000018
 79
     0
 98
        1
 10
0.0
 20
0.0
  0
HATCH
  5
270
330
44
100
AcDbEntity
  8
0
  6
Continuous
 62
     7
100
AcDbHatch
 10
0.0
 20
0.0
 30
0.0
210
0.0
220
0.0
230
1.0
  2
CUSTOM6
 70
     0
 71
     0
 91
        1
 92
        1
 93
      118
 72
     1
 10
373.2611434958
 20
283.2017592729
 11
373.2611434958
 21
278.5139118731
 72
     1
 10
373.2611434958
 20
278.5139118731
 11
374.9673800564
 21
278.5139118731
 72
     1
 10
374.9673800564
 20
278.5139118731
 11
387.560771724023
 21
243.913845419045
 72
     1
 10
387.560771724023
 20
243.913845419045
 11
387.5611434958
 21
243.9138463731
 72
     1
 10
387.5611434958
 20
243.9138463731
 11
387.5611434958
 21
236.2138463731
 72
     1
 10
387.5611434958
 20
236.2138463731
 11
388.0611434958
 21
236.2138463731
 72
     1
 10
388.0611434958
 20
236.2138463731
 11
388.0611434958
 21
214.9138463731
 72
     1
 10
388.0611434958
 20
214.9138463731
 11
391.4611434958
 21
214.9138463731
 72
     1
 10
391.4611434958
 20
214.9138463731
 11
391.65981282658
 21
214.933779795235
 72
     1
 10
391.65981282658
 20
214.933779795235
 11
391.850561838094
 21
214.992785379074
 72
     1
 10
391.850561838094
 20
214.992785379074
 11
392.02578596918
 21
215.088510758167
 72
     1
 10
392.02578596918
 20
215.088510758167
 11
392.178499586685
 21
215.217139663729
 72
     1
 10
392.178499586685
 20
215.217139663729
 11
392.302614480593
 21
215.373544067208
 72
     1
 10
392.302614480593
 20
215.373544067208
 11
392.393182581753
 21
215.5514886186
 72
     1
 10
392.393182581753
 20
215.5514886186
 11
392.446593225774
 21
215.743879230176
 72
     1
 10
392.446593225774
 20
215.743879230176
 11
392.4611434958
 21
215.9138463731
 72
     1
 10
392.4611434958
 20
215.9138463731
 11
392.441210073627
 21
216.112515703872
 72
     1
 10
392.441210073627
 20
216.112515703872
 11
392.382204489788
 21
216.303264715385
 72
     1
 10
392.382204489788
 20
216.303264715385
 11
392.286479110695
 21
216.478488846472
 72
     1
 10
392.286479110695
 20
216.478488846472
 11
392.157850205133
 21
216.631202463976
 72
     1
 10
392.157850205133
 20
216.631202463976
 11
392.001445801654
 21
216.755317357885
 72
     1
 10
392.001445801654
 20
216.755317357885
 11
391.823501250262
 21
216.845885459044
 72
     1
 10
391.823501250262
 20
216.845885459044
 11
391.631110638686
 21
216.899296103065
 72
     1
 10
391.631110638686
 20
216.899296103065
 11
391.4611434958
 21
216.9138463731
 72
     1
 10
391.4611434958
 20
216.9138463731
 11
390.9611434958
 21
216.9138463731
 72
     1
 10
390.9611434958
 20
216.9138463731
 11
390.9611434958
 21
243.9138463731
 72
     1
 10
390.9611434958
 20
243.9138463731
 11
399.4540413136
 21
243.9138463731
 72
     1
 10
399.4540413136
 20
243.9138463731
 11
402.6466083136
 21
245.7381703731
 72
     1
 10
402.6466083136
 20
245.7381703731
 11
379.605114731265
 21
309.0441544681
 72
     1
 10
379.605114731265
 20
309.0441544681
 11
378.304911701231
 21
311.742211556456
 72
     1
 10
378.304911701231
 20
311.742211556456
 11
376.494604970893
 21
314.128176668006
 72
     1
 10
376.494604970893
 20
314.128176668006
 11
374.246365756836
 21
316.106928903082
 72
     1
 10
374.246365756836
 20
316.106928903082
 11
371.649824261795
 21
317.599581654384
 72
     1
 10
371.649824261795
 20
317.599581654384
 11
368.808496401317
 21
318.546627567057
 72
     1
 10
368.808496401317
 20
318.546627567057
 11
365.83565695087
 21
318.910310909138
 72
     1
 10
365.83565695087
 20
318.910310909138
 11
365.5097253995
 21
318.9138523731
 72
     1
 10
365.5097253995
 20
318.9138523731
 11
346.490225538
 21
318.9138523731
 72
     1
 10
346.490225538
 20
318.9138523731
 11
346.490225538
 21
319.0138523731
 72
     1
 10
346.490225538
 20
319.0138523731
 11
344.1671590193
 21
319.0138523731
 72
     1
 10
344.1671590193
 20
319.0138523731
 11
344.1671590193
 21
318.9138523731
 72
     1
 10
344.1671590193
 20
318.9138523731
 11
343.6889180872
 21
318.9138523731
 72
     1
 10
343.6889180872
 20
318.9138523731
 11
343.6889180872
 21
319.0138523731
 72
     1
 10
343.6889180872
 20
319.0138523731
 11
341.7759490872
 21
319.0138523731
 72
     1
 10
341.7759490872
 20
319.0138523731
 11
341.7759490872
 21
318.9138523731
 72
     1
 10
341.7759490872
 20
318.9138523731
 11
341.4281352809
 21
318.9138523731
 72
     1
 10
341.4281352809
 20
318.9138523731
 11
341.4281352809
 21
319.0138523731
 72
     1
 10
341.4281352809
 20
319.0138523731
 11
340.6455575872
 21
319.0138523731
 72
     1
 10
340.6455575872
 20
319.0138523731
 11
340.6455575872
 21
318.9138523731
 72
     1
 10
340.6455575872
 20
318.9138523731
 11
340.0803620872
 21
318.9138523731
 72
     1
 10
340.0803620872
 20
318.9138523731
 11
340.0803620872
 21
319.0138523731
 72
     1
 10
340.0803620872
 20
319.0138523731
 11
339.2543073897
 21
319.0138523731
 72
     1
 10
339.2543073897
 20
319.0138523731
 11
339.254307389713
 21
318.913852373077
 72
     1
 10
339.254307389713
 20
318.913852373077
 11
338.6891120872
 21
318.9138523731
 72
     1
 10
338.6891120872
 20
318.9138523731
 11
338.6891120872
 21
319.0138523731
 72
     1
 10
338.6891120872
 20
319.0138523731
 11
337.9065340872
 21
319.0138523731
 72
     1
 10
337.9065340872
 20
319.0138523731
 11
337.9065340872
 21
318.9138523731
 72
     1
 10
337.9065340872
 20
318.9138523731
 11
336.8196200872
 21
318.9138523731
 72
     1
 10
336.8196200872
 20
318.9138523731
 11
336.8196200872
 21
319.0138523731
 72
     1
 10
336.8196200872
 20
319.0138523731
 11
336.0370410872
 21
319.0138523731
 72
     1
 10
336.0370410872
 20
319.0138523731
 11
336.0370410872
 21
318.9138523731
 72
     1
 10
336.0370410872
 20
318.9138523731
 11
334.9501270872
 21
318.9138523731
 72
     1
 10
334.9501270872
 20
318.9138523731
 11
334.9501270872
 21
319.0138523731
 72
     1
 10
334.9501270872
 20
319.0138523731
 11
334.1675490872
 21
319.0138523731
 72
     1
 10
334.1675490872
 20
319.0138523731
 11
334.1675490872
 21
318.9138523731
 72
     1
 10
334.1675490872
 20
318.9138523731
 11
333.7327825872
 21
318.9138523731
 72
     1
 10
333.7327825872
 20
318.9138523731
 11
333.7327825872
 21
319.0138523731
 72
     1
 10
333.7327825872
 20
319.0138523731
 11
331.3850490872
 21
319.0138523731
 72
     1
 10
331.3850490872
 20
319.0138523731
 11
331.3850490872
 21
318.9138523731
 72
     1
 10
331.3850490872
 20
318.9138523731
 11
331.0061860872
 21
318.9138523731
 72
     1
 10
331.0061860872
 20
318.9138523731
 11
331.0061860872
 21
319.0138523731
 72
     1
 10
331.0061860872
 20
319.0138523731
 11
330.2670845872
 21
319.0138523731
 72
     1
 10
330.2670845872
 20
319.0138523731
 11
330.2670845872
 21
318.9138523731
 72
     1
 10
330.2670845872
 20
318.9138523731
 11
329.6894620872
 21
318.9138523731
 72
     1
 10
329.6894620872
 20
318.9138523731
 11
329.6894620872
 21
319.0138523731
 72
     1
 10
329.6894620872
 20
319.0138523731
 11
328.8634080872
 21
319.0138523731
 72
     1
 10
328.8634080872
 20
319.0138523731
 11
328.8634080872
 21
318.9138523731
 72
     1
 10
328.8634080872
 20
318.9138523731
 11
268.6125615921
 21
318.9138523731
 72
     1
 10
268.6125615921
 20
318.9138523731
 11
265.632521630145
 21
318.614851040695
 72
     1
 10
265.632521630145
 20
318.614851040695
 11
262.771286457441
 21
317.72976728312
 72
     1
 10
262.771286457441
 20
317.72976728312
 11
260.142924491146
 21
316.293886596722
 72
     1
 10
260.142924491146
 20
316.293886596722
 11
257.852220228578
 21
314.364453013284
 72
     1
 10
257.852220228578
 20
314.364453013284
 11
255.990496819953
 21
312.018386961099
 72
     1
 10
255.990496819953
 20
312.018386961099
 11
254.631975302563
 21
309.349218690227
 72
     1
 10
254.631975302563
 20
309.349218690227
 11
254.5171722603
 21
309.0441544681
 72
     1
 10
254.5171722603
 20
309.0441544681
 11
231.4756786779
 21
245.7381703731
 72
     1
 10
231.4756786779
 20
245.7381703731
 11
234.6682456779
 21
243.9138463731
 72
     1
 10
234.6682456779
 20
243.9138463731
 11
243.1611434958
 21
243.9138463731
 72
     1
 10
243.1611434958
 20
243.9138463731
 11
243.1611434958
 21
216.9138463731
 72
     1
 10
243.1611434958
 20
216.9138463731
 11
242.6611434958
 21
216.9138463731
 72
     1
 10
242.6611434958
 20
216.9138463731
 11
242.46247416499
 21
216.893912950918
 72
     1
 10
242.46247416499
 20
216.893912950918
 11
242.271725153477
 21
216.83490736708
 72
     1
 10
242.271725153477
 20
216.83490736708
 11
242.09650102239
 21
216.739181987986
 72
     1
 10
242.09650102239
 20
216.739181987986
 11
241.943787404886
 21
216.610553082424
 72
     1
 10
241.943787404886
 20
216.610553082424
 11
241.819672510978
 21
216.454148678945
 72
     1
 10
241.819672510978
 20
216.454148678945
 11
241.729104409818
 21
216.276204127553
 72
     1
 10
241.729104409818
 20
216.276204127553
 11
241.675693765797
 21
216.083813515977
 72
     1
 10
241.675693765797
 20
216.083813515977
 11
241.6611434958
 21
215.9138463731
 72
     1
 10
241.6611434958
 20
215.9138463731
 11
241.681076917944
 21
215.715177042282
 72
     1
 10
241.681076917944
 20
215.715177042282
 11
241.740082501783
 21
215.524428030768
 72
     1
 10
241.740082501783
 20
215.524428030768
 11
241.835807880876
 21
215.349203899682
 72
     1
 10
241.835807880876
 20
215.349203899682
 11
241.964436786438
 21
215.196490282177
 72
     1
 10
241.964436786438
 20
215.196490282177
 11
242.120841189917
 21
215.072375388269
 72
     1
 10
242.120841189917
 20
215.072375388269
 11
242.298785741309
 21
214.981807287109
 72
     1
 10
242.298785741309
 20
214.981807287109
 11
242.491176352885
 21
214.928396643088
 72
     1
 10
242.491176352885
 20
214.928396643088
 11
242.6611434958
 21
214.9138463731
 72
     1
 10
242.6611434958
 20
214.9138463731
 11
246.0611434958
 21
214.9138463731
 72
     1
 10
246.0611434958
 20
214.9138463731
 11
246.0611434958
 21
236.2138463731
 72
     1
 10
246.0611434958
 20
236.2138463731
 11
246.5611434958
 21
236.2138463731
 72
     1
 10
246.5611434958
 20
236.2138463731
 11
246.5611434958
 21
243.9138463731
 72
     1
 10
246.5611434958
 20
243.9138463731
 11
246.561515267548
 21
243.913845419045
 72
     1
 10
246.561515267548
 20
243.913845419045
 11
259.1549069352
 21
278.5139118731
 72
     1
 10
259.1549069352
 20
278.5139118731
 11
260.8611434958
 21
278.5139118731
 72
     1
 10
260.8611434958
 20
278.5139118731
 11
260.8611434958
 21
283.2017592729
 72
     1
 10
260.8611434958
 20
283.2017592729
 11
268.6125615921
 21
304.4986099008
 72
     1
 10
268.6125615921
 20
304.4986099008
 11
268.6125615921
 21
304.1138523731
 72
     1
 10
268.6125615921
 20
304.1138523731
 11
365.5097253995
 21
304.1138523731
 72
     1
 10
365.5097253995
 20
304.1138523731
 11
365.5097253995
 21
304.4986099008
 72
     1
 10
365.5097253995
 20
304.4986099008
 11
373.2611434958
 21
283.2017592729
 97
        0
 75
     1
 76
     2
 52
0.0
 41
1.0
 77
     0
 78
     1
 53
44.99999999999998
 43
0.0
 44
0.0
 45
-4.490128060534577
 46
0.0000000000000018
 79
     0
 98
        1
 10
0.0
 20
0.0
  0
HATCH
  5
271
330
44
100
AcDbEntity
  8
0
  6
Continuous
 62
     7
100
AcDbHatch
 10
0.0
 20
0.0
 30
0.0
210
0.0
220
0.0
230
1.0
  2
CUSTOM7
 70
     0
 71
     0
 91
        1
 92
        1
 93
       83
 72
     1
 10
317.0611434958
 20
116.4144326632
 11
306.827484946148
 21
117.418957690578
 72
     1
 10
306.827484946148
 20
117.418957690578
 11
296.997386547558
 21
120.436573192126
 72
     1
 10
296.997386547558
 20
120.436573192126
 11
287.962743302499
 21
125.346976360466
 72
     1
 10
287.962743302499
 20
125.346976360466
 11
280.083737926686
 21
131.95440491695
 72
     1
 10
280.083737926686
 20
131.95440491695
 11
273.674481500813
 21
139.995441535977
 72
     1
 10
273.674481500813
 20
139.995441535977
 11
270.275335069512
 21
146.149472653854
 72
     1
 10
270.275335069512
 20
146.149472653854
 11
258.5853063457
 21
171.218820153
 72
     1
 10
258.5853063457
 20
171.218820153
 11
258.5853063457
 21
181.9138463731
 72
     1
 10
258.5853063457
 20
181.9138463731
 11
253.5981337151
 21
181.9138463731
 72
     1
 10
253.5981337151
 20
181.9138463731
 11
253.5611875753
 21
181.9930776256
 72
     1
 10
253.5611875753
 20
181.9930776256
 11
253.5611875753
 21
199.462262747
 72
     1
 10
253.5611875753
 20
199.462262747
 11
247.6611875753
 21
199.4617804665
 72
     1
 10
247.6611875753
 20
199.4617804665
 11
247.6611875753
 21
209.1097469245
 72
     1
 10
247.6611875753
 20
209.1097469245
 11
240.0611434958
 21
209.1091256782
 72
     1
 10
240.0611434958
 20
209.1091256782
 11
240.0611434958
 21
213.7139286658
 72
     1
 10
240.0611434958
 20
213.7139286658
 11
241.5611434958
 21
214.7139286658
 72
     1
 10
241.5611434958
 20
214.7139286658
 11
241.5611434958
 21
218.9708475375
 72
     1
 10
241.5611434958
 20
218.9708475375
 11
242.3110551319
 21
219.4139286658
 72
     1
 10
242.3110551319
 20
219.4139286658
 11
242.3110551319
 21
220.3139286658
 72
     1
 10
242.3110551319
 20
220.3139286658
 11
238.3111875753
 21
227.215771408
 72
     1
 10
238.3111875753
 20
227.215771408
 11
238.3111875753
 21
243.9138463731
 72
     1
 10
238.3111875753
 20
243.9138463731
 11
139.0611434958
 21
243.9138463731
 72
     1
 10
139.0611434958
 20
243.9138463731
 11
138.663804834195
 21
243.873979528759
 72
     1
 10
138.663804834195
 20
243.873979528759
 11
138.282306811168
 21
243.755968361082
 72
     1
 10
138.282306811168
 20
243.755968361082
 11
137.931858548995
 21
243.564517602896
 72
     1
 10
137.931858548995
 20
243.564517602896
 11
137.626431313986
 21
243.307259791771
 72
     1
 10
137.626431313986
 20
243.307259791771
 11
137.37820152617
 21
242.994450984813
 72
     1
 10
137.37820152617
 20
242.994450984813
 11
137.197065323851
 21
242.63856188203
 72
     1
 10
137.197065323851
 20
242.63856188203
 11
137.090244035808
 21
242.253780658877
 72
     1
 10
137.090244035808
 20
242.253780658877
 11
137.0611434958
 21
241.9138463731
 72
     1
 10
137.0611434958
 20
241.9138463731
 11
137.0611434958
 21
240.4142801574
 72
     1
 10
137.0611434958
 20
240.4142801574
 11
191.0611434958
 21
240.4142801574
 72
     1
 10
191.0611434958
 20
240.4142801574
 11
191.3491533963
 21
223.914204005
 72
     1
 10
191.3491533963
 20
223.914204005
 11
191.8668396951
 21
223.4142801574
 72
     1
 10
191.8668396951
 20
223.4142801574
 11
193.5611434958
 21
223.4142801574
 72
     1
 10
193.5611434958
 20
223.4142801574
 11
194.5611434958
 21
224.4142801574
 72
     1
 10
194.5611434958
 20
224.4142801574
 11
194.5611434958
 21
240.4142801574
 72
     1
 10
194.5611434958
 20
240.4142801574
 11
199.5611434958
 21
240.4142801574
 72
     1
 10
199.5611434958
 20
240.4142801574
 11
199.5611434958
 21
224.4142801574
 72
     1
 10
199.5611434958
 20
224.4142801574
 11
200.5611434958
 21
223.4142801574
 72
     1
 10
200.5611434958
 20
223.4142801574
 11
202.2554472965
 21
223.4142801574
 72
     1
 10
202.2554472965
 20
223.4142801574
 11
202.7731335952
 21
223.914204005
 72
     1
 10
202.7731335952
 20
223.914204005
 11
203.0611434958
 21
240.4142801574
 72
     1
 10
203.0611434958
 20
240.4142801574
 11
234.8111875753
 21
240.4142801574
 72
     1
 10
234.8111875753
 20
240.4142801574
 11
234.8111875753
 21
226.274876481
 72
     1
 10
234.8111875753
 20
226.274876481
 11
236.5611434958
 21
223.2552963579
 72
     1
 10
236.5611434958
 20
223.2552963579
 11
236.5611434958
 21
208.6090848053
 72
     1
 10
236.5611434958
 20
208.6090848053
 11
236.620943762262
 21
208.013076812964
 72
     1
 10
236.620943762262
 20
208.013076812964
 11
236.797960513777
 21
207.440829778424
 72
     1
 10
236.797960513777
 20
207.440829778424
 11
237.085136651056
 21
206.915157385164
 72
     1
 10
237.085136651056
 20
206.915157385164
 11
237.471023367744
 21
206.457016532651
 72
     1
 10
237.471023367744
 20
206.457016532651
 11
237.940236578181
 21
206.084671850926
 72
     1
 10
237.940236578181
 20
206.084671850926
 11
238.474070232355
 21
205.812967547448
 72
     1
 10
238.474070232355
 20
205.812967547448
 11
239.051242067085
 21
205.652735615384
 72
     1
 10
239.051242067085
 20
205.652735615384
 11
239.5613887232
 21
205.6090848154
 72
     1
 10
239.5613887232
 20
205.6090848154
 11
244.1611875753
 21
205.6094608142
 72
     1
 10
244.1611875753
 20
205.6094608142
 11
244.1611875753
 21
198.9617395936
 72
     1
 10
244.1611875753
 20
198.9617395936
 11
244.220987841779
 21
198.365731601245
 72
     1
 10
244.220987841779
 20
198.365731601245
 11
244.398004593294
 21
197.793484566704
 72
     1
 10
244.398004593294
 20
197.793484566704
 11
244.685180730574
 21
197.267812173445
 72
     1
 10
244.685180730574
 20
197.267812173445
 11
245.071067447261
 21
196.809671320931
 72
     1
 10
245.071067447261
 20
196.809671320931
 11
245.540280657698
 21
196.437326639206
 72
     1
 10
245.540280657698
 20
196.437326639206
 11
246.074114311873
 21
196.165622335728
 72
     1
 10
246.074114311873
 20
196.165622335728
 11
246.651286146602
 21
196.005390403665
 72
     1
 10
246.651286146602
 20
196.005390403665
 11
247.1614328027
 21
195.9617396037
 72
     1
 10
247.1614328027
 20
195.9617396037
 11
250.0611875753
 21
195.9619766367
 72
     1
 10
250.0611875753
 20
195.9619766367
 11
250.0611875753
 21
181.9930776256
 72
     1
 10
250.0611875753
 20
181.9930776256
 11
250.130954552858
 21
181.297734967816
 72
     1
 10
250.130954552858
 20
181.297734967816
 11
250.337474096293
 21
180.630113427518
 72
     1
 10
250.337474096293
 20
180.630113427518
 11
250.389110320672
 21
180.513913709508
 72
     1
 10
250.389110320672
 20
180.513913709508
 11
267.103257814884
 21
144.670308737762
 72
     1
 10
267.103257814884
 20
144.670308737762
 11
272.714748478021
 21
135.230585405118
 72
     1
 10
272.714748478021
 20
135.230585405118
 11
280.08976644625
 21
127.093859157493
 72
     1
 10
280.08976644625
 20
127.093859157493
 11
288.934293026368
 21
120.584515593501
 72
     1
 10
288.934293026368
 20
120.584515593501
 11
298.895724854143
 21
115.962061699619
 72
     1
 10
298.895724854143
 20
115.962061699619
 11
309.576931077719
 21
113.410780125597
 72
     1
 10
309.576931077719
 20
113.410780125597
 11
317.0611434958
 21
112.9144250568
 72
     1
 10
317.0611434958
 20
112.9144250568
 11
474.9107625052
 21
106.0225618531
 72
     1
 10
474.9107625052
 20
106.0225618531
 11
478.9537065105
 21
106.9188609604
 72
     1
 10
478.9537065105
 20
106.9188609604
 11
479.0596232478
 21
109.3447530791
 72
     1
 10
479.0596232478
 20
109.3447530791
 11
317.2138113516
 21
116.4110938323
 72
     1
 10
317.2138113516
 20
116.4110938323
 11
317.2139571281
 21
116.4144326632
 72
     1
 10
317.2139571281
 20
116.4144326632
 11
317.0611434958
 21
116.4144326632
 97
        0
 75
     1
 76
     2
 52
0.0
 41
1.0
 77
     0
 78
     1
 53
44.99999999999998
 43
0.0
 44
0.0
 45
-4.490128060534577
 46
0.0000000000000018
 79
     0
 98
        1
 10
0.0
 20
0.0
  0
HATCH
  5
272
330
44
100
AcDbEntity
  8
0
  6
Continuous
 62
     7
100
AcDbHatch
 10
0.0
 20
0.0
 30
0.0
210
0.0
220
0.0
230
1.0
  2
CUSTOM8
 70
     0
 71
     0
 91
        1
 92
        1
 93
       49
 72
     1
 10
392.5611434958
 20
214.7139286658
 11
394.0611434958
 21
213.7139286658
 72
     1
 10
394.0611434958
 20
213.7139286658
 11
394.0611434958
 21
209.1091256782
 72
     1
 10
394.0611434958
 20
209.1091256782
 11
386.4610994163
 21
209.1097469245
 72
     1
 10
386.4610994163
 20
209.1097469245
 11
386.4610994163
 21
199.4617804665
 72
     1
 10
386.4610994163
 20
199.4617804665
 11
380.5610994163
 21
199.462262747
 72
     1
 10
380.5610994163
 20
199.462262747
 11
380.5610994163
 21
181.7100740958
 72
     1
 10
380.5610994163
 20
181.7100740958
 11
482.0257415887
 21
177.2800321467
 72
     1
 10
482.0257415887
 20
177.2800321467
 11
482.131658326
 21
179.7059242654
 72
     1
 10
482.131658326
 20
179.7059242654
 11
478.1822165576
 21
180.9511784717
 72
     1
 10
478.1822165576
 20
180.9511784717
 11
384.0610994163
 21
185.0605951937
 72
     1
 10
384.0610994163
 20
185.0605951937
 11
384.0610994163
 21
195.9619766367
 72
     1
 10
384.0610994163
 20
195.9619766367
 11
386.998811514661
 21
195.961976636692
 72
     1
 10
386.998811514661
 20
195.961976636692
 11
387.594020682644
 21
196.029264415462
 72
     1
 10
387.594020682644
 20
196.029264415462
 11
388.163997277068
 21
196.213460725596
 72
     1
 10
388.163997277068
 20
196.213460725596
 11
388.686018129745
 21
196.507222241502
 72
     1
 10
388.686018129745
 20
196.507222241502
 11
389.139271916612
 21
196.89883761856
 72
     1
 10
389.139271916612
 20
196.89883761856
 11
389.505688839511
 21
197.372694387501
 72
     1
 10
389.505688839511
 20
197.372694387501
 11
389.770661012022
 21
197.909901374288
 72
     1
 10
389.770661012022
 20
197.909901374288
 11
389.923624829794
 21
198.489041831613
 72
     1
 10
389.923624829794
 20
198.489041831613
 11
389.9610994163
 21
198.9617395936
 72
     1
 10
389.9610994163
 20
198.9617395936
 11
389.9610994163
 21
205.6094608142
 72
     1
 10
389.9610994163
 20
205.6094608142
 11
394.5608982683
 21
205.6090848154
 72
     1
 10
394.5608982683
 20
205.6090848154
 11
395.156911147041
 21
205.668836362493
 72
     1
 10
395.156911147041
 20
205.668836362493
 11
395.729172649453
 21
205.845806336541
 72
     1
 10
395.729172649453
 20
205.845806336541
 11
396.254868515438
 21
206.13293950311
 72
     1
 10
396.254868515438
 20
206.13293950311
 11
396.713040909748
 21
206.518788768951
 72
     1
 10
396.713040909748
 20
206.518788768951
 11
397.085423944868
 21
206.987971541453
 72
     1
 10
397.085423944868
 20
206.987971541453
 11
397.35717188431
 21
207.521782984068
 72
     1
 10
397.35717188431
 20
207.521782984068
 11
397.51745099528
 21
208.098941719117
 72
     1
 10
397.51745099528
 20
208.098941719117
 11
397.5611434958
 21
208.6090848053
 72
     1
 10
397.5611434958
 20
208.6090848053
 11
397.5611434958
 21
223.2552963579
 72
     1
 10
397.5611434958
 20
223.2552963579
 11
399.3110994163
 21
226.274876481
 72
     1
 10
399.3110994163
 20
226.274876481
 11
399.3110994163
 21
240.4142801574
 72
     1
 10
399.3110994163
 20
240.4142801574
 11
497.0611434958
 21
240.4142801574
 72
     1
 10
497.0611434958
 20
240.4142801574
 11
497.0611434958
 21
241.9138463731
 72
     1
 10
497.0611434958
 20
241.9138463731
 11
497.021276651468
 21
242.311185034667
 72
     1
 10
497.021276651468
 20
242.311185034667
 11
496.903265483791
 21
242.692683057694
 72
     1
 10
496.903265483791
 20
242.692683057694
 11
496.711814725605
 21
243.043131319867
 72
     1
 10
496.711814725605
 20
243.043131319867
 11
496.45455691448
 21
243.348558554876
 72
     1
 10
496.45455691448
 20
243.348558554876
 11
496.141748107522
 21
243.596788342692
 72
     1
 10
496.141748107522
 20
243.596788342692
 11
495.785859004739
 21
243.777924545011
 72
     1
 10
495.785859004739
 20
243.777924545011
 11
495.401077781586
 21
243.884745833054
 72
     1
 10
495.401077781586
 20
243.884745833054
 11
495.0611434958
 21
243.9138463731
 72
     1
 10
495.0611434958
 20
243.9138463731
 11
395.8110994163
 21
243.9138463731
 72
     1
 10
395.8110994163
 20
243.9138463731
 11
395.8110994163
 21
227.215771408
 72
     1
 10
395.8110994163
 20
227.215771408
 11
391.8112318596
 21
220.3139286658
 72
     1
 10
391.8112318596
 20
220.3139286658
 11
391.8112318596
 21
219.4139286658
 72
     1
 10
391.8112318596
 20
219.4139286658
 11
392.5611434958
 21
218.9708475375
 72
     1
 10
392.5611434958
 20
218.9708475375
 11
392.5611434958
 21
214.7139286658
 97
        0
 75
     1
 76
     2
 52
0.0
 41
1.0
 77
     0
 78
     1
 53
44.99999999999998
 43
0.0
 44
0.0
 45
-4.490128060534577
 46
0.0000000000000018
 79
     0
 98
        1
 10
0.0
 20
0.0
  0
HATCH
  5
273
330
44
100
AcDbEntity
  8
0
  6
Continuous
 62
     7
100
AcDbHatch
 10
0.0
 20
0.0
 30
0.0
210
0.0
220
0.0
230
1.0
  2
CUSTOM9
 70
     0
 71
     0
 91
        1
 92
        1
 93
       22
 72
     1
 10
381.8111434958
 20
211.1097469245
 11
384.3111434958
 21
211.1097469245
 72
     1
 10
384.3111434958
 20
211.1097469245
 11
384.708482157376
 21
211.069880080178
 72
     1
 10
384.708482157376
 20
211.069880080178
 11
385.089980180403
 21
210.951868912501
 72
     1
 10
385.089980180403
 20
210.951868912501
 11
385.440428442576
 21
210.760418154315
 72
     1
 10
385.440428442576
 20
210.760418154315
 11
385.745855677584
 21
210.50316034319
 72
     1
 10
385.745855677584
 20
210.50316034319
 11
385.994085465401
 21
210.190351536232
 72
     1
 10
385.994085465401
 20
210.190351536232
 11
386.17522166772
 21
209.834462433449
 72
     1
 10
386.17522166772
 20
209.834462433449
 11
386.282042955762
 21
209.449681210296
 72
     1
 10
386.282042955762
 20
209.449681210296
 11
386.3111434958
 21
209.1097469245
 72
     1
 10
386.3111434958
 20
209.1097469245
 11
393.1564434958
 21
209.1097469245
 72
     1
 10
393.1564434958
 20
209.1097469245
 11
394.3111434958
 21
211.1097469245
 72
     1
 10
394.3111434958
 20
211.1097469245
 11
394.3111434958
 21
213.6097469245
 72
     1
 10
394.3111434958
 20
213.6097469245
 11
383.8111434958
 21
213.6097469245
 72
     1
 10
383.8111434958
 20
213.6097469245
 11
383.413804834195
 21
213.569880080178
 72
     1
 10
383.413804834195
 20
213.569880080178
 11
383.032306811168
 21
213.451868912501
 72
     1
 10
383.032306811168
 20
213.451868912501
 11
382.681858548995
 21
213.260418154315
 72
     1
 10
382.681858548995
 20
213.260418154315
 11
382.376431313986
 21
213.00316034319
 72
     1
 10
382.376431313986
 20
213.00316034319
 11
382.12820152617
 21
212.690351536232
 72
     1
 10
382.12820152617
 20
212.690351536232
 11
381.947065323851
 21
212.334462433449
 72
     1
 10
381.947065323851
 20
212.334462433449
 11
381.840244035809
 21
211.949681210296
 72
     1
 10
381.840244035809
 20
211.949681210296
 11
381.8111434958
 21
211.6097469245
 72
     1
 10
381.8111434958
 20
211.6097469245
 11
381.8111434958
 21
211.1097469245
 97
        0
 75
     1
 76
     2
 52
0.0
 41
1.0
 77
     0
 78
     1
 53
44.99999999999998
 43
0.0
 44
0.0
 45
-4.490128060534577
 46
0.0000000000000018
 79
     0
 98
        1
 10
0.0
 20
0.0
  0
HATCH
  5
274
330
44
100
AcDbEntity
  8
0
  6
Continuous
 62
     7
100
AcDbHatch
 10
0.0
 20
0.0
 30
0.0
210
0.0
220
0.0
230
1.0
  2
CUSTOM10
 70
     0
 71
     0
 91
        1
 92
        1
 93
       22
 72
     1
 10
249.8111434958
 20
211.1097469245
 11
252.3111434958
 21
211.1097469245
 72
     1
 10
252.3111434958
 20
211.1097469245
 11
252.3111434958
 21
211.6097469245
 72
     1
 10
252.3111434958
 20
211.6097469245
 11
252.271276651468
 21
212.007085586086
 72
     1
 10
252.271276651468
 20
212.007085586086
 11
252.153265483791
 21
212.388583609113
 72
     1
 10
252.153265483791
 20
212.388583609113
 11
251.961814725605
 21
212.739031871286
 72
     1
 10
251.961814725605
 20
212.739031871286
 11
251.70455691448
 21
213.044459106295
 72
     1
 10
251.70455691448
 20
213.044459106295
 11
251.391748107522
 21
213.292688894111
 72
     1
 10
251.391748107522
 20
213.292688894111
 11
251.035859004739
 21
213.47382509643
 72
     1
 10
251.035859004739
 20
213.47382509643
 11
250.651077781586
 21
213.580646384472
 72
     1
 10
250.651077781586
 20
213.580646384472
 11
250.3111434958
 21
213.6097469245
 72
     1
 10
250.3111434958
 20
213.6097469245
 11
239.8111434958
 21
213.6097469245
 72
     1
 10
239.8111434958
 20
213.6097469245
 11
239.8111434958
 21
211.1097469245
 72
     1
 10
239.8111434958
 20
211.1097469245
 11
240.9658434958
 21
209.1097469245
 72
     1
 10
240.9658434958
 20
209.1097469245
 11
247.8111434958
 21
209.1097469245
 72
     1
 10
247.8111434958
 20
209.1097469245
 11
247.851010340103
 21
209.507085586086
 72
     1
 10
247.851010340103
 20
209.507085586086
 11
247.96902150778
 21
209.888583609113
 72
     1
 10
247.96902150778
 20
209.888583609113
 11
248.160472265966
 21
210.239031871286
 72
     1
 10
248.160472265966
 20
210.239031871286
 11
248.417730077091
 21
210.544459106295
 72
     1
 10
248.417730077091
 20
210.544459106295
 11
248.730538884049
 21
210.792688894111
 72
     1
 10
248.730538884049
 20
210.792688894111
 11
249.086427986832
 21
210.97382509643
 72
     1
 10
249.086427986832
 20
210.97382509643
 11
249.471209209985
 21
211.080646384472
 72
     1
 10
249.471209209985
 20
211.080646384472
 11
249.8111434958
 21
211.1097469245
 97
        0
 75
     1
 76
     2
 52
0.0
 41
1.0
 77
     0
 78
     1
 53
44.99999999999998
 43
0.0
 44
0.0
 45
-4.490128060534577
 46
0.0000000000000018
 79
     0
 98
        1
 10
0.0
 20
0.0
  0
ENDBLK
  5
46
330
44
100
AcDbEntity
  8
0
100
AcDbBlockEnd
  0
BLOCK
  5
23A
330
232
100
AcDbEntity
  8
0
100
AcDbBlockBegin
  2
*D2
 70
     1
 10
0.0
 20
0.0
 30
0.0
  3
*D2
  1

  0
LINE
  5
233
330
232
100
AcDbEntity
  8
1
  6
Continuous
 62
     4
100
AcDbLine
 10
317.0611434958
 20
71.639116439415
 30
0.0
 11
482.131658326
 21
71.639116439415
 31
0.0
  0
LINE
  5
234
330
232
100
AcDbEntity
  8
1
  6
Continuous
 62
     4
100
AcDbLine
 10
482.131658326
 20
179.7059242654
 30
0.0
 11
482.131658326
 21
69.639116439415
 31
0.0
  0
LINE
  5
235
330
232
100
AcDbEntity
  8
1
  6
Continuous
 62
     4
100
AcDbLine
 10
317.0611434958
 20
93.9028166229
 30
0.0
 11
317.0611434958
 21
69.639116439415
 31
0.0
  0
SOLID
  5
236
330
232
100
AcDbEntity
  8
1
 62
     4
100
AcDbTrace
 10
327.0611434958
 20
72.95564141528897
 30
0.0
 11
327.0611434958
 21
70.32259146354104
 31
0.0
 12
317.0611434958
 22
71.639116439415
 32
0.0
 13
317.0611434958
 23
71.639116439415
 33
0.0
  0
SOLID
  5
237
330
232
100
AcDbEntity
  8
1
 62
     4
100
AcDbTrace
 10
472.131658326
 20
70.32259146354104
 30
0.0
 11
472.131658326
 21
72.95564141528897
 31
0.0
 12
482.131658326
 22
71.639116439415
 32
0.0
 13
482.131658326
 23
71.639116439415
 33
0.0
  0
MTEXT
  5
239
330
232
100
AcDbEntity
  8
1
 62
     1
100
AcDbMText
 10
389.08041726875
 20
73.639116439415
 30
0.0
 40
10.0
 41
0.0
 71
     7
 72
     1
  1
165
  7
CONVERTER_11
 11
0.9999999999970619
 21
2.424068405545306E-6
 31
0.0
 73
     1
 44
0.60024009603842
  0
ENDBLK
  5
23B
330
232
100
AcDbEntity
  8
0
100
AcDbBlockEnd
  0
BLOCK
  5
245
330
23E
100
AcDbEntity
  8
0
100
AcDbBlockBegin
  2
*D3
 70
     1
 10
0.0
 20
0.0
 30
0.0
  3
*D3
  1

  0
LINE
  5
23F
330
23E
100
AcDbEntity
  8
1
  6
Continuous
 62
     4
100
AcDbLine
 10
137.0611434958
 20
348.437846596935
 30
0.0
 11
497.0611434958
 21
348.437846596935
 31
0.0
  0
LINE
  5
240
330
23E
100
AcDbEntity
  8
1
  6
Continuous
 62
     4
100
AcDbLine
 10
497.0611434958
 20
241.9138463731
 30
0.0
 11
497.0611434958
 21
350.437846596935
 31
0.0
  0
LINE
  5
241
330
23E
100
AcDbEntity
  8
1
  6
Continuous
 62
     4
100
AcDbLine
 10
137.0611434958
 20
241.9138463731
 30
0.0
 11
137.0611434958
 21
350.437846596935
 31
0.0
  0
SOLID
  5
242
330
23E
100
AcDbEntity
  8
1
 62
     4
100
AcDbTrace
 10
147.0611434958
 20
349.754371572809
 30
0.0
 11
147.0611434958
 21
347.121321621061
 31
0.0
 12
137.0611434958
 22
348.437846596935
 32
0.0
 13
137.0611434958
 23
348.437846596935
 33
0.0
  0
SOLID
  5
243
330
23E
100
AcDbEntity
  8
1
 62
     4
100
AcDbTrace
 10
487.0611434958
 20
347.121321621061
 30
0.0
 11
487.0611434958
 21
349.754371572809
 31
0.0
 12
497.0611434958
 22
348.437846596935
 32
0.0
 13
497.0611434958
 23
348.437846596935
 33
0.0
  0
MTEXT
  5
244
330
23E
100
AcDbEntity
  8
1
 62
     1
100
AcDbMText
 10
294.4723589277752
 20
350.4378068422131
 30
0.0
 40
10.0
 41
0.0
 71
     7
 72
     1
  1
\C1;%%c\C1;360
  7
CONVERTER_11
 11
0.9999999999970619
 21
2.424068405545306E-6
 31
0.0
 73
     1
 44
0.60024009603842
  0
ENDBLK
  5
246
330
23E
100
AcDbEntity
  8
0
100
AcDbBlockEnd
  0
BLOCK
  5
250
330
249
100
AcDbEntity
  8
0
100
AcDbBlockBegin
  2
*D4
 70
     1
 10
0.0
 20
0.0
 30
0.0
  3
*D4
  1

  0
LINE
  5
24A
330
249
100
AcDbEntity
  8
1
  6
Continuous
 62
     4
100
AcDbLine
 10
203.225314545321
 20
318.9138523731
 30
0.0
 11
203.225314545321
 21
243.9138463731
 31
0.0
  0
LINE
  5
24B
330
249
100
AcDbEntity
  8
1
  6
Continuous
 62
     4
100
AcDbLine
 10
238.3111875753
 20
243.9138463731
 30
0.0
 11
201.225314545321
 21
243.9138463731
 31
0.0
  0
LINE
  5
24C
330
249
100
AcDbEntity
  8
1
  6
Continuous
 62
     4
100
AcDbLine
 10
268.6125615921
 20
318.9138523731
 30
0.0
 11
201.225314545321
 21
318.9138523731
 31
0.0
  0
SOLID
  5
24D
330
249
100
AcDbEntity
  8
1
 62
     4
100
AcDbTrace
 10
204.541839521195
 20
308.9138523731
 30
0.0
 11
201.908789569447
 21
308.9138523731
 31
0.0
 12
203.225314545321
 22
318.9138523731
 32
0.0
 13
203.225314545321
 23
318.9138523731
 33
0.0
  0
SOLID
  5
24E
330
249
100
AcDbEntity
  8
1
 62
     4
100
AcDbTrace
 10
201.908789569447
 20
253.9138463731
 30
0.0
 11
204.541839521195
 21
253.9138463731
 31
0.0
 12
203.225314545321
 22
243.9138463731
 32
0.0
 13
203.225314545321
 23
243.9138463731
 33
0.0
  0
MTEXT
  5
24F
330
249
100
AcDbEntity
  8
1
 62
     1
100
AcDbMText
 10
201.225314545321
 20
274.980780587848
 30
0.0
 40
10.0
 41
0.0
 71
     7
 72
     1
  1
75
  7
CONVERTER_11
 11
0.0
 21
1.0
 31
0.0
 73
     1
 44
0.60024009603842
  0
ENDBLK
  5
251
330
249
100
AcDbEntity
  8
0
100
AcDbBlockEnd
  0
BLOCK
  5
25B
330
254
100
AcDbEntity
  8
0
100
AcDbBlockBegin
  2
*D5
 70
     1
 10
0.0
 20
0.0
 30
0.0
  3
*D5
  1

  0
LINE
  5
255
330
254
100
AcDbEntity
  8
1
  6
Continuous
 62
     4
100
AcDbLine
 10
121.748723687517
 20
243.9138463731
 30
0.0
 11
121.748723687517
 21
95.41428015740001
 31
0.0
  0
LINE
  5
256
330
254
100
AcDbEntity
  8
1
  6
Continuous
 62
     4
100
AcDbLine
 10
261.3872966589
 20
95.4142801574
 30
0.0
 11
119.748723687517
 21
95.4142801574
 31
0.0
  0
LINE
  5
257
330
254
100
AcDbEntity
  8
1
  6
Continuous
 62
     4
100
AcDbLine
 10
139.0611434958
 20
243.9138463731
 30
0.0
 11
119.748723687517
 21
243.9138463731
 31
0.0
  0
SOLID
  5
258
330
254
100
AcDbEntity
  8
1
 62
     4
100
AcDbTrace
 10
123.065248663391
 20
233.9138463731
 30
0.0
 11
120.432198711643
 21
233.9138463731
 31
0.0
 12
121.748723687517
 22
243.9138463731
 32
0.0
 13
121.748723687517
 23
243.9138463731
 33
0.0
  0
SOLID
  5
259
330
254
100
AcDbEntity
  8
1
 62
     4
100
AcDbTrace
 10
120.432198711643
 20
105.4142801574
 30
0.0
 11
123.065248663391
 21
105.4142801574
 31
0.0
 12
121.748723687517
 22
95.41428015740001
 32
0.0
 13
121.748723687517
 23
95.41428015740001
 33
0.0
  0
MTEXT
  5
25A
330
254
100
AcDbEntity
  8
1
 62
     1
100
AcDbMText
 10
119.748723687517
 20
161.75890372872
 30
0.0
 40
10.0
 41
0.0
 71
     7
 72
     1
  1
149
  7
CONVERTER_11
 11
0.0
 21
1.0
 31
0.0
 73
     1
 44
0.60024009603842
  0
ENDBLK
  5
25C
330
254
100
AcDbEntity
  8
0
100
AcDbBlockEnd
  0
BLOCK
  5
266
330
25F
100
AcDbEntity
  8
0
100
AcDbBlockBegin
  2
*D6
 70
     1
 10
0.0
 20
0.0
 30
0.0
  3
*D6
  1

  0
LINE
  5
260
330
25F
100
AcDbEntity
  8
1
  6
Continuous
 62
     4
100
AcDbLine
 10
505.2752271693
 20
179.7682720821605
 30
0.0
 11
502.0037731168949
 21
104.8396554635607
 31
0.0
  0
LINE
  5
261
330
25F
100
AcDbEntity
  8
1
  6
Continuous
 62
     4
100
AcDbLine
 10
474.9107625052
 20
106.0225618531001
 30
0.0
 11
504.0018695600587
 21
104.7524166888299
 31
0.0
  0
LINE
  5
262
330
25F
100
AcDbEntity
  8
1
  6
Continuous
 62
     4
100
AcDbLine
 10
478.1822165576
 20
180.9511784717001
 30
0.0
 11
507.2733236124637
 21
179.6810333074297
 31
0.0
  0
SOLID
  5
263
330
25F
100
AcDbEntity
  8
1
 62
     4
100
AcDbTrace
 10
506.1543052314607
 20
169.7203638534431
 30
0.0
 11
503.5237613598308
 21
169.8352158792409
 31
0.0
 12
505.2752271693
 22
179.7682720821605
 32
0.0
 13
505.2752271693
 23
179.7682720821605
 33
0.0
  0
SOLID
  5
264
330
25F
100
AcDbEntity
  8
1
 62
     4
100
AcDbTrace
 10
501.1246950547342
 20
114.8875636922782
 30
0.0
 11
503.7552389263641
 21
114.7727116664804
 31
0.0
 12
502.0037731168949
 22
104.8396554635607
 32
0.0
 13
502.0037731168949
 23
104.8396554635607
 33
0.0
  0
MTEXT
  5
265
330
25F
100
AcDbEntity
  8
1
 62
     1
100
AcDbMText
 10
501.0835698575904
 20
129.6147070076017
 30
0.0
 40
10.0
 41
0.0
 71
     7
 72
     1
  1
\C1;DN\C1;75
  7
CONVERTER_11
 11
0.04361938736542474
 21
0.9990482215818539
 31
0.0
 73
     1
 44
0.60024009603842
  0
ENDBLK
  5
267
330
25F
100
AcDbEntity
  8
0
100
AcDbBlockEnd
  0
ENDSEC
  0
SECTION
  2
ENTITIES
  0
INSERT
  5
69
330
1F
100
AcDbEntity
  8
0
100
AcDbBlockReference
  2
HL64_1P_7
 10
374.4424351526305
 20
215.038481518175
 30
0.0
  0
ENDSEC
  0
SECTION
  2
OBJECTS
  0
DICTIONARY
  5
C
330
0
100
AcDbDictionary
281
     1
  3
ACAD_GROUP
350
D
  3
ACAD_LAYOUT
350
1A
  3
ACAD_MLEADERSTYLE
350
277
  3
ACAD_MLINESTYLE
350
17
  3
ACAD_PLOTSETTINGS
350
19
  3
ACAD_PLOTSTYLENAME
350
E
  3
ACAD_SCALELIST
350
47
  3
ACAD_VISUALSTYLE
350
2A
  3
AcDbVariableDictionary
350
275
  0
DICTIONARY
  5
D
102
{ACAD_REACTORS
330
C
102
}
330
C
100
AcDbDictionary
281
     1
  0
DICTIONARY
  5
1A
102
{ACAD_REACTORS
330
C
102
}
330
C
100
AcDbDictionary
281
     1
  3
Layout1
350
1E
  3
Layout2
350
26
  3
Model
350
22
  0
DICTIONARY
  5
277
102
{ACAD_REACTORS
330
C
102
}
330
C
100
AcDbDictionary
281
     1
  0
DICTIONARY
  5
17
102
{ACAD_REACTORS
330
C
102
}
330
C
100
AcDbDictionary
281
     1
  3
Standard
350
18
  0
DICTIONARY
  5
19
102
{ACAD_REACTORS
330
C
102
}
330
C
100
AcDbDictionary
281
     1
  0
ACDBDICTIONARYWDFLT
  5
E
102
{ACAD_REACTORS
330
C
102
}
330
C
100
AcDbDictionary
281
     1
  3
Normal
350
F
100
AcDbDictionaryWithDefault
340
F
  0
DICTIONARY
  5
47
102
{ACAD_REACTORS
330
C
102
}
330
C
100
AcDbDictionary
281
     1
  3
A0
350
48
  3
A1
350
49
  3
A2
350
4A
  3
A3
350
4B
  3
A4
350
4C
  3
A5
350
4D
  3
A6
350
4E
  3
A7
350
4F
  3
A8
350
50
  3
A9
350
51
  3
B0
350
52
  3
B1
350
53
  3
B2
350
54
  3
B3
350
55
  3
B4
350
56
  3
B5
350
57
  3
B6
350
58
  3
B7
350
59
  3
B8
350
5A
  3
B9
350
5B
  3
C0
350
5C
  3
C1
350
5D
  3
C2
350
5E
  3
C3
350
5F
  3
C4
350
60
  3
C5
350
61
  3
C6
350
62
  3
C7
350
63
  3
C8
350
64
  3
C9
350
65
  3
D0
350
66
  3
D1
350
67
  3
D2
350
68
  0
DICTIONARY
  5
2A
102
{ACAD_REACTORS
330
C
102
}
330
C
100
AcDbDictionary
281
     1
  3
2dWireframe
350
2F
  3
3D Hidden
350
31
  3
3dWireframe
350
30
  3
Basic
350
32
  3
Brighten
350
36
  3
ColorChange
350
3A
  3
Conceptual
350
34
  3
Dim
350
35
  3
Facepattern
350
39
  3
Flat
350
2B
  3
FlatWithEdges
350
2C
  3
Gouraud
350
2D
  3
GouraudWithEdges
350
2E
  3
Linepattern
350
38
  3
Realistic
350
33
  3
Thicken
350
37
  0
DICTIONARY
  5
275
102
{ACAD_REACTORS
330
C
102
}
330
C
100
AcDbDictionary
281
     1
  3
CANNOSCALE
350
278
  0
LAYOUT
  5
1E
102
{ACAD_REACTORS
330
1A
102
}
330
1A
100
AcDbPlotSettings
  1

  2
none_device
  4

  6

 40
0.0
 41
0.0
 42
0.0
 43
0.0
 44
0.0
 45
0.0
 46
0.0
 47
0.0
 48
0.0
 49
0.0
140
0.0
141
0.0
142
1.0
143
1.0
 70
   688
 72
     0
 73
     0
 74
     5
  7

 75
    16
147
1.0
148
0.0
149
0.0
100
AcDbLayout
  1
Layout1
 70
     1
 71
     1
 10
0.0
 20
0.0
 11
12.0
 21
9.0
 12
0.0
 22
0.0
 32
0.0
 14
1.00000000000000E+20
 24
1.00000000000000E+20
 34
1.00000000000000E+20
 15
-1.00000000000000E+20
 25
-1.00000000000000E+20
 35
-1.00000000000000E+20
146
0.0
 13
0.0
 23
0.0
 33
0.0
 16
1.0
 26
0.0
 36
0.0
 17
0.0
 27
1.0
 37
0.0
 76
     0
330
1B
  0
LAYOUT
  5
26
102
{ACAD_REACTORS
330
1A
102
}
330
1A
100
AcDbPlotSettings
  1

  2
none_device
  4

  6

 40
0.0
 41
0.0
 42
0.0
 43
0.0
 44
0.0
 45
0.0
 46
0.0
 47
0.0
 48
0.0
 49
0.0
140
0.0
141
0.0
142
1.0
143
1.0
 70
   688
 72
     0
 73
     0
 74
     5
  7

 75
    16
147
1.0
148
0.0
149
0.0
100
AcDbLayout
  1
Layout2
 70
     1
 71
     2
 10
0.0
 20
0.0
 11
0.0
 21
0.0
 12
0.0
 22
0.0
 32
0.0
 14
0.0
 24
0.0
 34
0.0
 15
0.0
 25
0.0
 35
0.0
146
0.0
 13
0.0
 23
0.0
 33
0.0
 16
1.0
 26
0.0
 36
0.0
 17
0.0
 27
1.0
 37
0.0
 76
     0
330
23
  0
LAYOUT
  5
22
102
{ACAD_REACTORS
330
1A
102
}
330
1A
100
AcDbPlotSettings
  1

  2
none_device
  4

  6

 40
0.0
 41
0.0
 42
0.0
 43
0.0
 44
0.0
 45
0.0
 46
0.0
 47
0.0
 48
0.0
 49
0.0
140
0.0
141
0.0
142
1.0
143
1.0
 70
  1712
 72
     0
 73
     0
 74
     0
  7

 75
     0
147
1.0
148
0.0
149
0.0
100
AcDbLayout
  1
Model
 70
     1
 71
     0
 10
0.0
 20
0.0
 11
12.0
 21
9.0
 12
0.0
 22
0.0
 32
0.0
 14
109.748723687517
 24
69.639116439415
 34
0.0
 15
639.1361466177441
 25
360.437846596935
 35
0.0
146
0.0
 13
0.0
 23
0.0
 33
0.0
 16
1.0
 26
0.0
 36
0.0
 17
0.0
 27
1.0
 37
0.0
 76
     0
330
1F
331
29
  0
MLINESTYLE
  5
18
102
{ACAD_REACTORS
330
17
102
}
330
17
100
AcDbMlineStyle
  2
Standard
 70
     0
  3

 62
   256
 51
90.0
 52
90.0
 71
     2
 49
0.5
 62
   256
  6
BYLAYER
 49
-0.5
 62
   256
  6
BYLAYER
  0
ACDBPLACEHOLDER
  5
F
102
{ACAD_REACTORS
330
E
102
}
330
E
  0
SCALE
  5
48
102
{ACAD_REACTORS
330
47
102
}
330
47
100
AcDbScale
 70
     0
300
1:1
140
1.0
141
1.0
290
     1
  0
SCALE
  5
49
102
{ACAD_REACTORS
330
47
102
}
330
47
100
AcDbScale
 70
     0
300
1:2
140
1.0
141
2.0
290
     0
  0
SCALE
  5
4A
102
{ACAD_REACTORS
330
47
102
}
330
47
100
AcDbScale
 70
     0
300
1:4
140
1.0
141
4.0
290
     0
  0
SCALE
  5
4B
102
{ACAD_REACTORS
330
47
102
}
330
47
100
AcDbScale
 70
     0
300
1:5
140
1.0
141
5.0
290
     0
  0
SCALE
  5
4C
102
{ACAD_REACTORS
330
47
102
}
330
47
100
AcDbScale
 70
     0
300
1:8
140
1.0
141
8.0
290
     0
  0
SCALE
  5
4D
102
{ACAD_REACTORS
330
47
102
}
330
47
100
AcDbScale
 70
     0
300
1:10
140
1.0
141
10.0
290
     0
  0
SCALE
  5
4E
102
{ACAD_REACTORS
330
47
102
}
330
47
100
AcDbScale
 70
     0
300
1:16
140
1.0
141
16.0
290
     0
  0
SCALE
  5
4F
102
{ACAD_REACTORS
330
47
102
}
330
47
100
AcDbScale
 70
     0
300
1:20
140
1.0
141
20.0
290
     0
  0
SCALE
  5
50
102
{ACAD_REACTORS
330
47
102
}
330
47
100
AcDbScale
 70
     0
300
1:30
140
1.0
141
30.0
290
     0
  0
SCALE
  5
51
102
{ACAD_REACTORS
330
47
102
}
330
47
100
AcDbScale
 70
     0
300
1:40
140
1.0
141
40.0
290
     0
  0
SCALE
  5
52
102
{ACAD_REACTORS
330
47
102
}
330
47
100
AcDbScale
 70
     0
300
1:50
140
1.0
141
50.0
290
     0
  0
SCALE
  5
53
102
{ACAD_REACTORS
330
47
102
}
330
47
100
AcDbScale
 70
     0
300
1:100
140
1.0
141
100.0
290
     0
  0
SCALE
  5
54
102
{ACAD_REACTORS
330
47
102
}
330
47
100
AcDbScale
 70
     0
300
2:1
140
2.0
141
1.0
290
     0
  0
SCALE
  5
55
102
{ACAD_REACTORS
330
47
102
}
330
47
100
AcDbScale
 70
     0
300
4:1
140
4.0
141
1.0
290
     0
  0
SCALE
  5
56
102
{ACAD_REACTORS
330
47
102
}
330
47
100
AcDbScale
 70
     0
300
8:1
140
8.0
141
1.0
290
     0
  0
SCALE
  5
57
102
{ACAD_REACTORS
330
47
102
}
330
47
100
AcDbScale
 70
     0
300
10:1
140
10.0
141
1.0
290
     0
  0
SCALE
  5
58
102
{ACAD_REACTORS
330
47
102
}
330
47
100
AcDbScale
 70
     0
300
100:1
140
100.0
141
1.0
290
     0
  0
SCALE
  5
59
102
{ACAD_REACTORS
330
47
102
}
330
47
100
AcDbScale
 70
     0
300
1/128" = 1'-0"
140
0.0078125
141
12.0
290
     0
  0
SCALE
  5
5A
102
{ACAD_REACTORS
330
47
102
}
330
47
100
AcDbScale
 70
     0
300
1/64" = 1'-0"
140
0.015625
141
12.0
290
     0
  0
SCALE
  5
5B
102
{ACAD_REACTORS
330
47
102
}
330
47
100
AcDbScale
 70
     0
300
1/32" = 1'-0"
140
0.03125
141
12.0
290
     0
  0
SCALE
  5
5C
102
{ACAD_REACTORS
330
47
102
}
330
47
100
AcDbScale
 70
     0
300
1/16" = 1'-0"
140
0.0625
141
12.0
290
     0
  0
SCALE
  5
5D
102
{ACAD_REACTORS
330
47
102
}
330
47
100
AcDbScale
 70
     0
300
3/32" = 1'-0"
140
0.09375
141
12.0
290
     0
  0
SCALE
  5
5E
102
{ACAD_REACTORS
330
47
102
}
330
47
100
AcDbScale
 70
     0
300
1/8" = 1'-0"
140
0.125
141
12.0
290
     0
  0
SCALE
  5
5F
102
{ACAD_REACTORS
330
47
102
}
330
47
100
AcDbScale
 70
     0
300
3/16" = 1'-0"
140
0.1875
141
12.0
290
     0
  0
SCALE
  5
60
102
{ACAD_REACTORS
330
47
102
}
330
47
100
AcDbScale
 70
     0
300
1/4" = 1'-0"
140
0.25
141
12.0
290
     0
  0
SCALE
  5
61
102
{ACAD_REACTORS
330
47
102
}
330
47
100
AcDbScale
 70
     0
300
3/8" = 1'-0"
140
0.375
141
12.0
290
     0
  0
SCALE
  5
62
102
{ACAD_REACTORS
330
47
102
}
330
47
100
AcDbScale
 70
     0
300
1/2" = 1'-0"
140
0.5
141
12.0
290
     0
  0
SCALE
  5
63
102
{ACAD_REACTORS
330
47
102
}
330
47
100
AcDbScale
 70
     0
300
3/4" = 1'-0"
140
0.75
141
12.0
290
     0
  0
SCALE
  5
64
102
{ACAD_REACTORS
330
47
102
}
330
47
100
AcDbScale
 70
     0
300
1" = 1'-0"
140
1.0
141
12.0
290
     0
  0
SCALE
  5
65
102
{ACAD_REACTORS
330
47
102
}
330
47
100
AcDbScale
 70
     0
300
1-1/2" = 1'-0"
140
1.5
141
12.0
290
     0
  0
SCALE
  5
66
102
{ACAD_REACTORS
330
47
102
}
330
47
100
AcDbScale
 70
     0
300
3" = 1'-0"
140
3.0
141
12.0
290
     0
  0
SCALE
  5
67
102
{ACAD_REACTORS
330
47
102
}
330
47
100
AcDbScale
 70
     0
300
6" = 1'-0"
140
6.0
141
12.0
290
     0
  0
SCALE
  5
68
102
{ACAD_REACTORS
330
47
102
}
330
47
100
AcDbScale
 70
     0
300
1'-0" = 1'-0"
140
12.0
141
12.0
290
     0
  0
VISUALSTYLE
  5
2F
102
{ACAD_REACTORS
330
2A
102
}
330
2A
100
AcDbVisualStyle
  2
2dWireframe
 70
     4
 71
     0
 72
     2
 73
     0
 90
        0
 40
-0.6
 41
-30.0
 62
     5
 63
     7
 74
     1
 91
        4
 64
     7
 65
   257
 75
     1
175
     1
 42
1.0
 92
        0
 66
   257
 43
1.0
 76
     1
 77
     6
 78
     2
 67
     7
 79
     5
170
     0
171
     0
290
     0
174
     0
 93
        1
 44
0.0
173
     0
291
     0
 45
0.0
1001
ACAD
1000
AcDbSavedByObjectVersion
1070
     0
  0
VISUALSTYLE
  5
31
102
{ACAD_REACTORS
330
2A
102
}
330
2A
100
AcDbVisualStyle
  2
3D Hidden
 70
     6
 71
     1
 72
     2
 73
     2
 90
        0
 40
-0.6
 41
-30.0
 62
     5
 63
     7
 74
     2
 91
        2
 64
     7
 65
   257
 75
     2
175
     1
 42
40.0
 92
        0
 66
   257
 43
1.0
 76
     1
 77
     6
 78
     2
 67
     7
 79
     3
170
     0
171
     0
290
     0
174
     0
 93
        1
 44
0.0
173
     0
291
     0
 45
0.0
1001
ACAD
1000
AcDbSavedByObjectVersion
1070
     0
  0
VISUALSTYLE
  5
30
102
{ACAD_REACTORS
330
2A
102
}
330
2A
100
AcDbVisualStyle
  2
3dWireframe
 70
     5
 71
     0
 72
     2
 73
     0
 90
        0
 40
-0.6
 41
-30.0
 62
     5
 63
     7
 74
     1
 91
        4
 64
     7
 65
   257
 75
     1
175
     1
 42
1.0
 92
        0
 66
   257
 43
1.0
 76
     1
 77
     6
 78
     2
 67
     7
 79
     5
170
     0
171
     0
290
     0
174
     0
 93
        1
 44
0.0
173
     0
291
     0
 45
0.0
1001
ACAD
1000
AcDbSavedByObjectVersion
1070
     0
  0
VISUALSTYLE
  5
32
102
{ACAD_REACTORS
330
2A
102
}
330
2A
100
AcDbVisualStyle
  2
Basic
 70
     7
 71
     1
 72
     0
 73
     1
 90
        0
 40
-0.6
 41
-30.0
 62
     5
 63
     7
 74
     0
 91
        4
 64
     7
 65
   257
 75
     1
175
     1
 42
1.0
 92
        8
 66
     7
 43
1.0
 76
     1
 77
     6
 78
     2
 67
     7
 79
     5
170
     0
171
     0
290
     0
174
     0
 93
        1
 44
0.0
173
     0
291
     1
 45
0.0
1001
ACAD
1000
AcDbSavedByObjectVersion
1070
     0
  0
VISUALSTYLE
  5
36
102
{ACAD_REACTORS
330
2A
102
}
330
2A
100
AcDbVisualStyle
  2
Brighten
 70
    12
 71
     2
 72
     2
 73
     0
 90
        0
 40
-0.6
 41
-30.0
 62
     5
 63
     7
 74
     1
 91
        4
 64
     7
 65
   257
 75
     1
175
     1
 42
1.0
 92
        8
 66
     7
 43
1.0
 76
     1
 77
     6
 78
     2
 67
     7
 79
     5
170
     0
171
     0
290
     0
174
     0
 93
        1
 44
50.0
173
     0
291
     1
 45
0.0
1001
ACAD
1000
AcDbSavedByObjectVersion
1070
     0
  0
VISUALSTYLE
  5
3A
102
{ACAD_REACTORS
330
2A
102
}
330
2A
100
AcDbVisualStyle
  2
ColorChange
 70
    16
 71
     2
 72
     2
 73
     3
 90
        0
 40
-0.6
 41
-30.0
 62
     5
 63
     8
 74
     1
 91
        4
 64
     7
 65
   257
 75
     1
175
     1
 42
1.0
 92
        8
 66
     8
 43
1.0
 76
     1
 77
     6
 78
     2
 67
     7
 79
     5
170
     0
171
     0
290
     0
174
     0
 93
        1
 44
0.0
173
     0
291
     1
 45
0.0
1001
ACAD
1000
AcDbSavedByObjectVersion
1070
     0
  0
VISUALSTYLE
  5
34
102
{ACAD_REACTORS
330
2A
102
}
330
2A
100
AcDbVisualStyle
  2
Conceptual
 70
     9
 71
     3
 72
     2
 73
     0
 90
        0
 40
-0.6
 41
-30.0
 62
     5
 63
     7
 74
     2
 91
        2
 64
     7
 65
   257
 75
     1
175
     1
 42
40.0
 92
        8
 66
     7
 43
1.0
 76
     1
 77
     6
 78
     2
 67
     7
 79
     3
170
     0
171
     0
290
     0
174
     0
 93
        1
 44
0.0
173
     0
291
     0
 45
0.0
1001
ACAD
1000
AcDbSavedByObjectVersion
1070
     0
  0
VISUALSTYLE
  5
35
102
{ACAD_REACTORS
330
2A
102
}
330
2A
100
AcDbVisualStyle
  2
Dim
 70
    11
 71
     2
 72
     2
 73
     0
 90
        0
 40
-0.6
 41
-30.0
 62
     5
 63
     7
 74
     1
 91
        4
 64
     7
 65
   257
 75
     1
175
     1
 42
1.0
 92
        8
 66
     7
 43
1.0
 76
     1
 77
     6
 78
     2
 67
     7
 79
     5
170
     0
171
     0
290
     0
174
     0
 93
        1
 44
-50.0
173
     0
291
     1
 45
0.0
1001
ACAD
1000
AcDbSavedByObjectVersion
1070
     0
  0
VISUALSTYLE
  5
39
102
{ACAD_REACTORS
330
2A
102
}
330
2A
100
AcDbVisualStyle
  2
Facepattern
 70
    15
 71
     2
 72
     2
 73
     0
 90
        0
 40
-0.6
 41
-30.0
 62
     5
 63
     7
 74
     1
 91
        4
 64
     7
 65
   257
 75
     1
175
     1
 42
1.0
 92
        8
 66
     7
 43
1.0
 76
     1
 77
     6
 78
     2
 67
     7
 79
     5
170
     0
171
     0
290
     0
174
     0
 93
        1
 44
0.0
173
     0
291
     1
 45
0.0
1001
ACAD
1000
AcDbSavedByObjectVersion
1070
     0
  0
VISUALSTYLE
  5
2B
102
{ACAD_REACTORS
330
2A
102
}
330
2A
100
AcDbVisualStyle
  2
Flat
 70
     0
 71
     2
 72
     1
 73
     1
 90
        2
 40
-0.6
 41
30.0
 62
     5
 63
     7
 74
     0
 91
        4
 64
     7
 65
   257
 75
     1
175
     1
 42
1.0
 92
        8
 66
     7
 43
1.0
 76
     1
 77
     6
 78
     2
 67
     7
 79
     5
170
     0
171
     0
290
     0
174
     0
 93
       13
 44
0.0
173
     0
291
     1
 45
0.0
1001
ACAD
1000
AcDbSavedByObjectVersion
1070
     0
  0
VISUALSTYLE
  5
2C
102
{ACAD_REACTORS
330
2A
102
}
330
2A
100
AcDbVisualStyle
  2
FlatWithEdges
 70
     1
 71
     2
 72
     1
 73
     1
 90
        2
 40
-0.6
 41
30.0
 62
     5
 63
     7
 74
     1
 91
        4
 64
     7
 65
   257
 75
     1
175
     1
 42
1.0
 92
        0
 66
   257
 43
1.0
 76
     1
 77
     6
 78
     2
 67
     7
 79
     5
170
     0
171
     0
290
     0
174
     0
 93
       13
 44
0.0
173
     0
291
     1
 45
0.0
1001
ACAD
1000
AcDbSavedByObjectVersion
1070
     0
  0
VISUALSTYLE
  5
2D
102
{ACAD_REACTORS
330
2A
102
}
330
2A
100
AcDbVisualStyle
  2
Gouraud
 70
     2
 71
     2
 72
     2
 73
     1
 90
        2
 40
-0.6
 41
30.0
 62
     5
 63
     7
 74
     0
 91
        4
 64
     7
 65
   257
 75
     1
175
     1
 42
1.0
 92
        0
 66
     7
 43
1.0
 76
     1
 77
     6
 78
     2
 67
     7
 79
     5
170
     0
171
     0
290
     0
174
     0
 93
       13
 44
0.0
173
     0
291
     1
 45
0.0
1001
ACAD
1000
AcDbSavedByObjectVersion
1070
     0
  0
VISUALSTYLE
  5
2E
102
{ACAD_REACTORS
330
2A
102
}
330
2A
100
AcDbVisualStyle
  2
GouraudWithEdges
 70
     3
 71
     2
 72
     2
 73
     1
 90
        2
 40
-0.6
 41
30.0
 62
     5
 63
     7
 74
     1
 91
        4
 64
     7
 65
   257
 75
     1
175
     1
 42
1.0
 92
        0
 66
   257
 43
1.0
 76
     1
 77
     6
 78
     2
 67
     7
 79
     5
170
     0
171
     0
290
     0
174
     0
 93
       13
 44
0.0
173
     0
291
     1
 45
0.0
1001
ACAD
1000
AcDbSavedByObjectVersion
1070
     0
  0
VISUALSTYLE
  5
38
102
{ACAD_REACTORS
330
2A
102
}
330
2A
100
AcDbVisualStyle
  2
Linepattern
 70
    14
 71
     2
 72
     2
 73
     0
 90
        0
 40
-0.6
 41
-30.0
 62
     5
 63
     7
 74
     1
 91
        4
 64
     7
 65
   257
 75
     7
175
     7
 42
1.0
 92
        8
 66
     7
 43
1.0
 76
     1
 77
     6
 78
     2
 67
     7
 79
     5
170
     0
171
     0
290
     0
174
     0
 93
        1
 44
0.0
173
     0
291
     1
 45
0.0
1001
ACAD
1000
AcDbSavedByObjectVersion
1070
     0
  0
VISUALSTYLE
  5
33
102
{ACAD_REACTORS
330
2A
102
}
330
2A
100
AcDbVisualStyle
  2
Realistic
 70
     8
 71
     2
 72
     2
 73
     0
 90
        0
 40
-0.6
 41
-30.0
 62
     5
 63
     7
 74
     1
 91
        0
 64
     7
 65
   257
 75
     1
175
     1
 42
1.0
 92
        8
 66
     8
 43
1.0
 76
     1
 77
     6
 78
     2
 67
     7
 79
     5
170
     0
171
     0
290
     0
174
     0
 93
       13
 44
0.0
173
     0
291
     0
 45
0.0
1001
ACAD
1000
AcDbSavedByObjectVersion
1070
     0
  0
VISUALSTYLE
  5
37
102
{ACAD_REACTORS
330
2A
102
}
330
2A
100
AcDbVisualStyle
  2
Thicken
 70
    13
 71
     2
 72
     2
 73
     0
 90
        0
 40
-0.6
 41
-30.0
 62
     5
 63
     7
 74
     1
 91
        4
 64
     7
 65
   257
 75
     1
175
     1
 42
1.0
 92
       12
 66
     7
 43
1.0
 76
     1
 77
     6
 78
     2
 67
     7
 79
     5
170
     0
171
     0
290
     0
174
     0
 93
        1
 44
0.0
173
     0
291
     1
 45
0.0
1001
ACAD
1000
AcDbSavedByObjectVersion
1070
     0
  0
DICTIONARYVAR
  5
278
102
{ACAD_REACTORS
330
275
102
}
330
275
100
DictionaryVariables
280
     0
  1
1:1
  0
ENDSEC
  0
EOF
