  0
SECTION
  2
HEADER
  9
$ACADVER
  1
AC1014
  9
$ACADMAINTVER
 70
             0
  9
$DWGCODEPAGE
  3
ANSI_1252
  9
$INSBASE
 10
0.0
 20
0.0
 30
0.0
  9
$EXTMIN
 10
-249.99983800000001
 20
-201.88586818648699
 30
0.0
  9
$EXTMAX
 10
342.4379797379288
 20
107.921913220739
 30
0.0
  9
$LIMMIN
 10
0.0
 20
0.0
  9
$LIMMAX
 10
0.0
 20
0.0
  9
$ORTHOMODE
 70
             0
  9
$REGENMODE
 70
             1
  9
$FILLMODE
 70
             1
  9
$QTEXTMODE
 70
             0
  9
$MIRRTEXT
 70
             1
  9
$DRAGMODE
 70
             2
  9
$LTSCALE
 40
1.0
  9
$OSMODE
 70
             0
  9
$ATTMODE
 70
             1
  9
$TEXTSIZE
 40
0.2
  9
$TRACEWID
 40
0.05
  9
$TEXTSTYLE
  7
STANDARD
  9
$CLAYER
  8
0
  9
$CELTYPE
  6
CONTINUOUS
  9
$CECOLOR
 62
           256
  9
$CELTSCALE
 40
1.0
  9
$DELOBJ
 70
             1
  9
$DISPSILH
 70
             0
  9
$DIMSCALE
 40
1.0
  9
$DIMASZ
 40
0.18
  9
$DIMEXO
 40
0.0625
  9
$DIMDLI
 40
0.38
  9
$DIMRND
 40
0.0
  9
$DIMDLE
 40
0.0
  9
$DIMEXE
 40
0.18
  9
$DIMTP
 40
0.0
  9
$DIMTM
 40
0.0
  9
$DIMTXT
 40
0.18
  9
$DIMCEN
 40
0.09
  9
$DIMTSZ
 40
0.0
  9
$DIMTOL
 70
             0
  9
$DIMLIM
 70
             0
  9
$DIMTIH
 70
             1
  9
$DIMTOH
 70
             1
  9
$DIMSE1
 70
             0
  9
$DIMSE2
 70
             0
  9
$DIMTAD
 70
             0
  9
$DIMZIN
 70
             0
  9
$DIMBLK
  1

  9
$DIMASO
 70
             1
  9
$DIMSHO
 70
             1
  9
$DIMPOST
  1

  9
$DIMAPOST
  1

  9
$DIMALT
 70
             0
  9
$DIMALTD
 70
             2
  9
$DIMALTF
 40
25.4
  9
$DIMLFAC
 40
1.0
  9
$DIMTOFL
 70
             0
  9
$DIMTVP
 40
0.0
  9
$DIMTIX
 70
             0
  9
$DIMSOXD
 70
             0
  9
$DIMSAH
 70
             0
  9
$DIMBLK1
  1

  9
$DIMBLK2
  1

  9
$DIMSTYLE
  2
STANDARD
  9
$DIMCLRD
 70
             0
  9
$DIMCLRE
 70
             0
  9
$DIMCLRT
 70
             0
  9
$DIMTFAC
 40
1.0
  9
$DIMGAP
 40
0.09
  9
$DIMJUST
 70
             0
  9
$DIMSD1
 70
             0
  9
$DIMSD2
 70
             0
  9
$DIMTOLJ
 70
             1
  9
$DIMTZIN
 70
             0
  9
$DIMALTZ
 70
             0
  9
$DIMALTTZ
 70
             0
  9
$DIMFIT
 70
             3
  9
$DIMUPT
 70
             0
  9
$DIMUNIT
 70
             2
  9
$DIMDEC
 70
             4
  9
$DIMTDEC
 70
             4
  9
$DIMALTU
 70
             2
  9
$DIMALTTD
 70
             2
  9
$DIMTXSTY
  7
STANDARD
  9
$DIMAUNIT
 70
             0
  9
$LUNITS
 70
             2
  9
$LUPREC
 70
             4
  9
$SKETCHINC
 40
0.1
  9
$FILLETRAD
 40
0.0
  9
$AUNITS
 70
             0
  9
$AUPREC
 70
             0
  9
$MENU
  1
acad
  9
$ELEVATION
 40
0.0
  9
$PELEVATION
 40
0.0
  9
$THICKNESS
 40
0.0
  9
$LIMCHECK
 70
             0
  9
$BLIPMODE
 70
             1
  9
$CHAMFERA
 40
0.0
  9
$CHAMFERB
 40
0.0
  9
$CHAMFERC
 40
0.0
  9
$CHAMFERD
 40
0.0
  9
$SKPOLY
 70
             0
  9
$TDCREATE
 40
0.000000000
  9
$TDUPDATE
 40
0.000000000
  9
$TDINDWG
 40
0.0000000000
  9
$TDUSRTIMER
 40
0.0000000000
  9
$USRTIMER
 70
             1
  9
$ANGBASE
 50
0.0
  9
$ANGDIR
 70
             0
  9
$PDMODE
 70
             0
  9
$PDSIZE
 40
0.0
  9
$PLINEWID
 40
0.0
  9
$COORDS
 70
             0
  9
$SPLFRAME
 70
             0
  9
$SPLINETYPE
 70
             6
  9
$SPLINESEGS
 70
             8
  9
$ATTDIA
 70
             0
  9
$ATTREQ
 70
             1
  9
$HANDLING
 70
             1
  9
$HANDSEED
  5
166
  9
$SURFTAB1
 70
             6
  9
$SURFTAB2
 70
             6
  9
$SURFTYPE
 70
             6
  9
$SURFU
 70
             6
  9
$SURFV
 70
             6
  9
$UCSNAME
  2

  9
$UCSORG
 10
0.0
 20
0.0
 30
0.0
  9
$UCSXDIR
 10
1.0
 20
0.0
 30
0.0
  9
$UCSYDIR
 10
0.0
 20
1.0
 30
0.0
  9
$PUCSNAME
  2

  9
$PUCSORG
 10
0.0
 20
0.0
 30
0.0
  9
$PUCSXDIR
 10
1.0
 20
0.0
 30
0.0
  9
$PUCSYDIR
 10
0.0
 20
1.0
 30
0.0
  9
$USERI1
 70
             0
  9
$USERI2
 70
             0
  9
$USERI3
 70
             0
  9
$USERI4
 70
             0
  9
$USERI5
 70
             0
  9
$USERR1
 40
12.01
  9
$USERR2
 40
0.0
  9
$USERR3
 40
0.0
  9
$USERR4
 40
0.0
  9
$USERR5
 40
0.0
  9
$WORLDVIEW
 70
             1
  9
$SHADEDGE
 70
             3
  9
$SHADEDIF
 70
            70
  9
$TILEMODE
 70
             1
  9
$MAXACTVP
 70
            16
  9
$PINSBASE
 10
0.0
 20
0.0
 30
0.0
  9
$PLIMCHECK
 70
             0
  9
$PEXTMIN
 10
1.00000000000000E+20
 20
1.00000000000000E+20
 30
1.00000000000000E+20
  9
$PEXTMAX
 10
-1.00000000000000E+20
 20
-1.00000000000000E+20
 30
-1.00000000000000E+20
  9
$PLIMMIN
 10
0.0
 20
0.0
  9
$PLIMMAX
 10
12.0
 20
9.0
  9
$UNITMODE
 70
             0
  9
$VISRETAIN
 70
             0
  9
$PLINEGEN
 70
             1
  9
$PSLTSCALE
 70
             0
  9
$TREEDEPTH
 70
          3020
  9
$PICKSTYLE
 70
             1
  9
$CMLSTYLE
  2
STANDARD
  9
$CMLJUST
 70
             0
  9
$CMLSCALE
 40
1.0
  9
$PROXYGRAPHICS
 70
             0
  9
$MEASUREMENT
 70
             1
  0
ENDSEC
  0
SECTION
  2
CLASSES
  0
CLASS
  1
LWPOLYLINE
  2
AcDbPolyline
  3
"AutoCAD"
 90
        0
280
             0
281
             1
  0
CLASS
  1
IMAGE
  2
AcDbRasterImage
  3
ISM
 90
      127
280
             0
281
             1
  0
CLASS
  1
OLE2FRAME
  2
AcDbOle2Frame
  3
""
 90
        0
280
             0
281
             1
  0
CLASS
  1
HATCH
  2
AcDbHatch
  3
"ACAD_SEDONA"
 90
        0
280
             0
281
             1
  0
CLASS
  1
DICTIONARYVAR
  2
AcDbDictionaryVar
  3
"AutoCAD"
 90
        0
280
             0
281
             0
  0
CLASS
  1
RASTERVARIABLES
  2
AcDbRasterVariables
  3
ISM
 90
        0
280
             0
281
             0
  0
CLASS
  1
IMAGEDEF
  2
AcDbRasterImageDef
  3
ISM
 90
        0
280
             0
281
             0
  0
CLASS
  1
IMAGEDEF_REACTOR
  2
AcDbRasterImageDefReactor
  3
ISM
 90
        1
280
             0
281
             0
  0
CLASS
  1
IDBUFFER
  2
AcDbIdBuffer
  3
"Acad"
 90
        0
280
             0
281
             0
  0
CLASS
  1
SPATIAL_FILTER
  2
AcDbSpatialFilter
  3
"Acad"
 90
        0
280
             0
281
             0
  0
CLASS
  1
XRECORD
  2
AcDbXrecord
  3
"<Built In>"
 90
        0
280
             0
281
             0
  0
CLASS
  1
SORTENTSTABLE
  2
AcDbSortentsTable
  3
"AutoCAD"
 90
        0
280
             0
281
             0
  0
CLASS
  1
LAYER_INDEX
  2
AcDbLayerIndex
  3
"Acad"
 90
        0
280
             0
281
             0
  0
CLASS
  1
SPATIAL_INDEX
  2
AcDbSpatialIndex
  3
"Acad"
 90
        0
280
             0
281
             0
  0
CLASS
  1
OBJECT_PTR
  2
CAseDLPNTableRecord
  3
"ASE-LPNTableRecord"
 90
        1
280
             0
281
             0
  0
CLASS
  1
LAYOUT
  2
AcDbLayout
  3
"AutoCAD 2000"
 90
        0
280
             0
281
             0
  0
CLASS
  1
PLOTSETTINGS
  2
AcDbPlotSettings
  3
"AutoCAD 2000"
 90
        0
280
             0
281
             0
  0
CLASS
  1
ACDBDICTIONARYWDFLT
  2
AcDbDictionaryWithDefault
  3
"AutoCAD 2000"
 90
        0
280
             0
281
             0
  0
CLASS
  1
ACDBPLACEHOLDER
  2
AcDbPlaceHolder
  3
"AutoCAD 2000"
 90
        0
280
             0
281
             0
  0
ENDSEC
  0
SECTION
  2
TABLES
  0
TABLE
  2
VPORT
  5
7
100
AcDbSymbolTable
 70
             1
  0
VPORT
  5
15
100
AcDbSymbolTableRecord
100
AcDbViewportTableRecord
  2
*ACTIVE
 70
             0
 10
0.0
 20
0.0
 11
1.0
 21
1.0
 12
46.21907086896439
 22
-46.98197748287399
 13
0.0
 23
0.0
 14
1.0
 24
1.0
 15
0.0
 25
0.0
 16
0.0
 26
0.0
 36
1.0
 17
0.0
 27
0.0
 37
0.0
 40
406.62027379004377
 41
1.60267857142857
 42
50.0
 43
0.0
 44
0.0
 50
0.0
 51
0.0
 71
             0
 72
           100
 73
             1
 74
             1
 75
             0
 76
             0
 77
             0
 78
             0
  0
ENDTAB
  0
TABLE
  2
LTYPE
  5
4
100
AcDbSymbolTable
 70
            11
  0
LTYPE
  5
11
100
AcDbSymbolTableRecord
100
AcDbLinetypeTableRecord
  2
BYBLOCK
 70
            64
  3

 72
            65
 73
             0
 40
0.0
  0
LTYPE
  5
12
100
AcDbSymbolTableRecord
100
AcDbLinetypeTableRecord
  2
BYLAYER
 70
            64
  3

 72
            65
 73
             0
 40
0.0
  0
LTYPE
  5
13
100
AcDbSymbolTableRecord
100
AcDbLinetypeTableRecord
  2
CONTINUOUS
 70
            64
  3
Solid line
 72
            65
 73
             0
 40
0.0
  0
LTYPE
  5
1D
100
AcDbSymbolTableRecord
100
AcDbLinetypeTableRecord
  2
DASHED
 70
            64
  3
Dashed
 72
            65
 73
             2
 40
15.0
 49
7.0
 74
             0
 49
-8.0
 74
             0
  0
LTYPE
  5
1E
100
AcDbSymbolTableRecord
100
AcDbLinetypeTableRecord
  2
DOTTED
 70
            64
  3
Dotted
 72
            65
 73
             2
 40
1.0
 49
0.0
 74
             0
 49
-1.0
 74
             0
  0
LTYPE
  5
1F
100
AcDbSymbolTableRecord
100
AcDbLinetypeTableRecord
  2
DOT_CENTER
 70
            64
  3
Dot_Center
 72
            65
 73
             4
 40
14.0
 49
12.0
 74
             0
 49
-1.0
 74
             0
 49
0.0
 74
             0
 49
-1.0
 74
             0
  0
LTYPE
  5
20
100
AcDbSymbolTableRecord
100
AcDbLinetypeTableRecord
  2
LONG_DASHED
 70
            64
  3
Long_Dashed
 72
            65
 73
             2
 40
15.0
 49
10.0
 74
             0
 49
-5.0
 74
             0
  0
LTYPE
  5
21
100
AcDbSymbolTableRecord
100
AcDbLinetypeTableRecord
  2
DASH_CENTER
 70
            64
  3
Dash_Center
 72
            65
 73
             4
 40
14.0
 49
11.0
 74
             0
 49
-1.0
 74
             0
 49
1.0
 74
             0
 49
-1.0
 74
             0
  0
LTYPE
  5
22
100
AcDbSymbolTableRecord
100
AcDbLinetypeTableRecord
  2
PHANTOM
 70
            64
  3
Phantom
 72
            65
 73
             6
 40
13.0
 49
10.0
 74
             0
 49
-1.0
 74
             0
 49
0.0
 74
             0
 49
-1.0
 74
             0
 49
0.0
 74
             0
 49
-1.0
 74
             0
  0
LTYPE
  5
23
100
AcDbSymbolTableRecord
100
AcDbLinetypeTableRecord
  2
CENTER_DASH_DASH
 70
            64
  3
Center_Dash_Dash
 72
            65
 73
             6
 40
14.0
 49
9.0
 74
             0
 49
-1.0
 74
             0
 49
1.0
 74
             0
 49
-1.0
 74
             0
 49
1.0
 74
             0
 49
-1.0
 74
             0
  0
LTYPE
  5
24
100
AcDbSymbolTableRecord
100
AcDbLinetypeTableRecord
  2
DASHDOT
 70
            64
  3
DASHDOT
 72
            65
 73
             4
 40
16.0
 49
10.0
 74
             0
 49
-3.0
 74
             0
 49
0.0
 74
             0
 49
-3.0
 74
             0
  0
ENDTAB
  0
TABLE
  2
LAYER
  5
2
100
AcDbSymbolTable
 70
             7
  0
LAYER
  5
14
100
AcDbSymbolTableRecord
100
AcDbLayerTableRecord
  2
0
 70
             0
 62
             7
  6
CONTINUOUS
  0
LAYER
  5
25
100
AcDbSymbolTableRecord
100
AcDbLayerTableRecord
  2
1
 70
             0
 62
             7
  6
CONTINUOUS
  0
LAYER
  5
26
100
AcDbSymbolTableRecord
100
AcDbLayerTableRecord
  2
LC-001-002-----0
 70
             0
 62
             7
  6
CONTINUOUS
  0
LAYER
  5
27
100
AcDbSymbolTableRecord
100
AcDbLayerTableRecord
  2
LC-002-002-----0
 70
             0
 62
             7
  6
CONTINUOUS
  0
LAYER
  5
28
100
AcDbSymbolTableRecord
100
AcDbLayerTableRecord
  2
LC-003-002-RND-0
 70
             0
 62
             7
  6
CONTINUOUS
  0
LAYER
  5
29
100
AcDbSymbolTableRecord
100
AcDbLayerTableRecord
  2
LC-003-005-----0
 70
             0
 62
             7
  6
CONTINUOUS
  0
LAYER
  5
2A
100
AcDbSymbolTableRecord
100
AcDbLayerTableRecord
  2
LC-004-002-RND-0
 70
             0
 62
             7
  6
CONTINUOUS
  0
ENDTAB
  0
TABLE
  2
STYLE
  5
3
100
AcDbSymbolTable
 70
             2
  0
STYLE
  5
17
100
AcDbSymbolTableRecord
100
AcDbTextStyleTableRecord
  2
STANDARD
 70
             0
 40
0.0
 41
1.0
 50
0.0
 71
             0
 42
0.0
  3
txt
  4

  0
STYLE
  5
13D
100
AcDbSymbolTableRecord
100
AcDbTextStyleTableRecord
  2
CONVERTER_1
 70
             0
 40
0.0
 41
0.9
 50
0.0
 71
             0
 42
0.0
  3
txt.shx
  4

  0
ENDTAB
  0
TABLE
  2
VIEW
  5
5
100
AcDbSymbolTable
 70
             0
  0
ENDTAB
  0
TABLE
  2
UCS
  5
6
100
AcDbSymbolTable
 70
             0
  0
ENDTAB
  0
TABLE
  2
APPID
  5
8
100
AcDbSymbolTable
 70
             1
  0
APPID
  5
16
100
AcDbSymbolTableRecord
100
AcDbRegAppTableRecord
  2
ACAD
 70
             0
  0
ENDTAB
  0
TABLE
  2
DIMSTYLE
  5
9
100
AcDbSymbolTable
 70
             5
  0
DIMSTYLE
105
18
100
AcDbSymbolTableRecord
100
AcDbDimStyleTableRecord
  2
STANDARD
 70
             0
  3

  4

  5

  6

  7

 40
1.0
 41
0.18
 42
0.0625
 43
0.38
 44
0.18
 45
0.0
 46
0.0
 47
0.0
 48
0.0
 71
             0
 72
             0
 73
             1
 74
             1
 75
             0
 76
             0
 77
             0
 78
             0
140
0.18
141
0.09
142
0.0
143
25.4
144
1.0
145
0.0
146
1.0
147
0.09
170
             0
171
             2
172
             0
173
             0
174
             0
175
             0
176
             0
177
             0
178
             0
270
             2
271
             4
272
             4
273
             2
274
             2
275
             0
280
             0
281
             0
282
             0
283
             1
284
             0
285
             0
286
             0
287
             3
288
             0
340
17
  0
DIMSTYLE
105
140
100
AcDbSymbolTableRecord
100
AcDbDimStyleTableRecord
  2
ME10_DIM_0
 70
             0
  3

  4

  5

  6

  7

 40
1.0
 41
10.0
 42
0.0
 43
0.38
 44
2.0
 45
0.0
 46
0.0
 47
0.0
 48
0.0
 71
             0
 72
             0
 73
             0
 74
             0
 75
             0
 76
             0
 77
             1
 78
             8
140
10.0
141
0.09
142
0.0
143
25.4
144
1.0
145
0.0
146
1.0
147
0.625
170
             0
171
             2
172
             1
173
             1
174
             0
175
             0
176
             4
177
             4
178
             1
270
             2
271
             0
272
             4
273
             2
274
             2
275
             0
280
             0
281
             0
282
             0
283
             1
284
             0
285
             0
286
             0
287
             3
288
             0
340
13D
  0
DIMSTYLE
105
14B
100
AcDbSymbolTableRecord
100
AcDbDimStyleTableRecord
  2
ME10_DIM_1
 70
             0
  3
Ø<>
  4

  5

  6

  7

 40
1.0
 41
10.0
 42
0.0
 43
0.38
 44
2.0
 45
0.0
 46
0.0
 47
0.0
 48
0.0
 71
             0
 72
             0
 73
             0
 74
             0
 75
             0
 76
             0
 77
             1
 78
             8
140
10.0
141
0.09
142
0.0
143
25.4
144
1.0
145
0.0
146
1.0
147
0.625
170
             0
171
             2
172
             1
173
             1
174
             0
175
             0
176
             4
177
             4
178
             1
270
             2
271
             2
272
             4
273
             2
274
             2
275
             0
280
             0
281
             0
282
             0
283
             1
284
             0
285
             0
286
             0
287
             3
288
             0
340
13D
  0
DIMSTYLE
105
156
100
AcDbSymbolTableRecord
100
AcDbDimStyleTableRecord
  2
ME10_DIM_2
 70
             0
  3
DN<>
  4

  5

  6

  7

 40
1.0
 41
10.0
 42
0.0
 43
0.38
 44
2.0
 45
0.0
 46
0.0
 47
0.0
 48
0.0
 71
             0
 72
             0
 73
             0
 74
             0
 75
             0
 76
             0
 77
             1
 78
             8
140
10.0
141
0.09
142
0.0
143
25.4
144
1.0
145
0.0
146
1.0
147
0.625
170
             0
171
             2
172
             1
173
             1
174
             0
175
             0
176
             4
177
             4
178
             1
270
             2
271
             2
272
             4
273
             2
274
             2
275
             0
280
             0
281
             0
282
             0
283
             1
284
             0
285
             0
286
             0
287
             3
288
             0
340
13D
  0
DIMSTYLE
105
161
100
AcDbSymbolTableRecord
100
AcDbDimStyleTableRecord
  2
ME10_DIM_3
 70
             0
  3
DN<>
  4

  5

  6

  7

 40
1.0
 41
10.0
 42
0.0
 43
0.38
 44
2.0
 45
0.0
 46
0.0
 47
0.0
 48
0.0
 71
             0
 72
             0
 73
             0
 74
             0
 75
             0
 76
             0
 77
             1
 78
             8
140
10.0
141
0.09
142
0.0
143
25.4
144
1.0
145
0.0
146
1.0
147
0.625
170
             0
171
             2
172
             1
173
             1
174
             0
175
             0
176
             4
177
             4
178
             1
270
             2
271
             2
272
             4
273
             2
274
             2
275
             0
280
             0
281
             0
282
             0
283
             1
284
             0
285
             0
286
             0
287
             3
288
             0
340
13D
  0
ENDTAB
  0
TABLE
  2
BLOCK_RECORD
  5
1
100
AcDbSymbolTable
 70
            22
  0
BLOCK_RECORD
  5
A
100
AcDbSymbolTableRecord
100
AcDbBlockTableRecord
  2
*MODEL_SPACE
  0
BLOCK_RECORD
  5
B
100
AcDbSymbolTableRecord
100
AcDbBlockTableRecord
  2
*PAPER_SPACE
  0
BLOCK_RECORD
  5
2B
100
AcDbSymbolTableRecord
100
AcDbBlockTableRecord
  2
062_1E_LAUBFANGKORB
  0
BLOCK_RECORD
  5
2D
100
AcDbSymbolTableRecord
100
AcDbBlockTableRecord
  2
HL_64_FLACHDACHABLAUF__1
  0
BLOCK_RECORD
  5
30
100
AcDbSymbolTableRecord
100
AcDbBlockTableRecord
  2
0317_4E_REDUKTION__2
  0
BLOCK_RECORD
  5
32
100
AcDbSymbolTableRecord
100
AcDbBlockTableRecord
  2
HL_64B_FLACHDACHABLAUF__3
  0
BLOCK_RECORD
  5
35
100
AcDbSymbolTableRecord
100
AcDbBlockTableRecord
  2
HL64BH__4
  0
BLOCK_RECORD
  5
38
100
AcDbSymbolTableRecord
100
AcDbBlockTableRecord
  2
HL_64H_FLACHDACHABLAUF
  0
BLOCK_RECORD
  5
3C
100
AcDbSymbolTableRecord
100
AcDbBlockTableRecord
  2
HL64H_K_RPER
  0
BLOCK_RECORD
  5
3E
100
AcDbSymbolTableRecord
100
AcDbBlockTableRecord
  2
HL64BH__5
  0
BLOCK_RECORD
  5
41
100
AcDbSymbolTableRecord
100
AcDbBlockTableRecord
  2
HL_64_1BH_FLACHDACHABL_110
  0
BLOCK_RECORD
  5
44
100
AcDbSymbolTableRecord
100
AcDbBlockTableRecord
  2
0317_4E_REDUKTION__6
  0
BLOCK_RECORD
  5
46
100
AcDbSymbolTableRecord
100
AcDbBlockTableRecord
  2
HL_64_1_FLACHDACHABLAUF__7
  0
BLOCK_RECORD
  5
49
100
AcDbSymbolTableRecord
100
AcDbBlockTableRecord
  2
HL_64_1_FLACHDACHABLAUF__8
  0
BLOCK_RECORD
  5
4C
100
AcDbSymbolTableRecord
100
AcDbBlockTableRecord
  2
HL_64_FLACHDACHABLAUF__9
  0
BLOCK_RECORD
  5
4F
100
AcDbSymbolTableRecord
100
AcDbBlockTableRecord
  2
HL_64_1B_FLACHDACHABLAUF
  0
BLOCK_RECORD
  5
51
100
AcDbSymbolTableRecord
100
AcDbBlockTableRecord
  2
HL_64_FLACHDACHABLAUF__10
  0
BLOCK_RECORD
  5
54
100
AcDbSymbolTableRecord
100
AcDbBlockTableRecord
  2
HL_64_1B_FLACHDACHABLA__11
  0
BLOCK_RECORD
  5
57
100
AcDbSymbolTableRecord
100
AcDbBlockTableRecord
  2
HL_64B_FLACHDACHABLAUF__12
  0
BLOCK_RECORD
  5
5B
100
AcDbSymbolTableRecord
100
AcDbBlockTableRecord
  2
HL_64_1B_FLACHDACHABLA__13
  0
BLOCK_RECORD
  5
136
100
AcDbSymbolTableRecord
100
AcDbBlockTableRecord
  2
*D18
  0
BLOCK_RECORD
  5
142
100
AcDbSymbolTableRecord
100
AcDbBlockTableRecord
  2
*D19
  0
BLOCK_RECORD
  5
14D
100
AcDbSymbolTableRecord
100
AcDbBlockTableRecord
  2
*D20
  0
BLOCK_RECORD
  5
158
100
AcDbSymbolTableRecord
100
AcDbBlockTableRecord
  2
*D21
  0
ENDTAB
  0
ENDSEC
  0
SECTION
  2
BLOCKS
  0
BLOCK
  5
D
100
AcDbEntity
  8
0
100
AcDbBlockBegin
  2
*MODEL_SPACE
 70
             0
 10
0.0
 20
0.0
 30
0.0
  3
*MODEL_SPACE
  1

  0
ENDBLK
  5
E
100
AcDbEntity
  8
0
100
AcDbBlockEnd
  0
BLOCK
  5
F
100
AcDbEntity
 67
             1
  8
0
100
AcDbBlockBegin
  2
*PAPER_SPACE
 70
             0
 10
0.0
 20
0.0
 30
0.0
  3
*PAPER_SPACE
  1

  0
ENDBLK
  5
10
100
AcDbEntity
 67
             1
  8
0
100
AcDbBlockEnd
  0
BLOCK
  5
2C
100
AcDbEntity
  8
0
100
AcDbBlockBegin
  2
062_1E_LAUBFANGKORB
 70
             0
 10
-86.08186099999995
 20
632.02984501233732
 30
0.0
  3
062_1E_LAUBFANGKORB
  1

  0
ARC
  5
B0
100
AcDbEntity
  8
LC-004-002-RND-0
  6
CONTINUOUS
 62
             7
100
AcDbCircle
 10
48.94498000000006
 20
53.33904879408323
 40
15.00000000000033
100
AcDbArc
 50
19.99999999999933
 51
89.99992099999859
  0
ARC
  5
AF
100
AcDbEntity
  8
LC-004-002-RND-0
  6
CONTINUOUS
 62
             7
100
AcDbCircle
 10
-48.94497999999992
 20
53.33904879408323
 40
15.00000000000015
100
AcDbArc
 50
90.00007900000152
 51
160.00000000000071
  0
LINE
  5
AE
100
AcDbEntity
  8
LC-002-002-----0
  6
CONTINUOUS
 62
             7
100
AcDbLine
 10
-84.32147324694856
 20
0.0
 11
-82.45907199999994
 21
5.11690479408321
  0
LINE
  5
AD
100
AcDbEntity
  8
LC-002-002-----0
  6
CONTINUOUS
 62
             7
100
AcDbLine
 10
-82.45907199999994
 20
5.11690479408321
 11
-63.04036999999993
 21
58.46935079408303
  0
LINE
  5
AC
100
AcDbEntity
  8
LC-002-002-----0
  6
CONTINUOUS
 62
             7
100
AcDbLine
 10
84.32147333858893
 20
0.0
 11
83.75270300000005
 21
1.56268379408323
  0
LINE
  5
AB
100
AcDbEntity
  8
LC-002-002-----0
  6
CONTINUOUS
 62
             7
100
AcDbLine
 10
83.75270300000005
 20
1.56268379408323
 11
63.04036900000006
 21
58.46935079408303
  0
LINE
  5
AA
100
AcDbEntity
  8
LC-002-002-----0
  6
CONTINUOUS
 62
             7
100
AcDbLine
 10
1.64603200000005
 20
27.97673279408303
 11
1.64603200000005
 21
0.0
  0
LINE
  5
A9
100
AcDbEntity
  8
LC-002-002-----0
  6
CONTINUOUS
 62
             7
100
AcDbLine
 10
58.50836409298275
 20
0.0
 11
48.17888200000004
 21
27.97673279408303
  0
LINE
  5
A8
100
AcDbEntity
  8
LC-002-002-----0
  6
CONTINUOUS
 62
             7
100
AcDbLine
 10
33.32551570200719
 20
0.0
 11
27.36178800000005
 21
27.97673279408303
  0
LINE
  5
A7
100
AcDbEntity
  8
LC-002-002-----0
  6
CONTINUOUS
 62
             7
100
AcDbLine
 10
35.31737370200715
 20
0.0
 11
29.35364600000009
 21
27.97673279408303
  0
LINE
  5
A6
100
AcDbEntity
  8
LC-002-002-----0
  6
CONTINUOUS
 62
             7
100
AcDbLine
 10
19.11616837125605
 20
0.0
 11
16.02911700000011
 21
27.97673279408303
  0
LINE
  5
A5
100
AcDbEntity
  8
LC-002-002-----0
  6
CONTINUOUS
 62
             7
100
AcDbLine
 10
16.89453937125608
 20
0.0
 11
13.8074880000001
 21
27.97673279408303
  0
LINE
  5
A4
100
AcDbEntity
  8
LC-002-002-----0
  6
CONTINUOUS
 62
             7
100
AcDbLine
 10
59.65836409298274
 20
0.0
 11
49.32888200000008
 21
27.97673279408303
  0
LINE
  5
A3
100
AcDbEntity
  8
LC-002-002-----0
  6
CONTINUOUS
 62
             7
100
AcDbLine
 10
47.51571079306169
 20
0.0
 11
39.06700400000005
 21
27.97673279408303
  0
LINE
  5
A2
100
AcDbEntity
  8
LC-002-002-----0
  6
CONTINUOUS
 62
             7
100
AcDbLine
 10
49.14556171756062
 20
0.0
 11
40.71157600000011
 21
27.97673279408303
  0
LINE
  5
A1
100
AcDbEntity
  8
LC-002-002-----0
  6
CONTINUOUS
 62
             7
100
AcDbLine
 10
65.54406793499527
 20
0.0
 11
54.02302600000009
 21
27.97673279408303
  0
LINE
  5
A0
100
AcDbEntity
  8
LC-002-002-----0
  6
CONTINUOUS
 62
             7
100
AcDbLine
 10
68.57164182403304
 20
0.0
 11
43.69826000000006
 21
68.33905679408321
  0
LINE
  5
9F
100
AcDbEntity
  8
LC-002-002-----0
  6
CONTINUOUS
 62
             7
100
AcDbLine
 10
-1.64603199999993
 20
27.97673279408303
 11
-1.64603199999993
 21
0.0
  0
LINE
  5
9E
100
AcDbEntity
  8
LC-002-002-----0
  6
CONTINUOUS
 62
             7
100
AcDbLine
 10
-58.50836490067903
 20
0.0
 11
-48.17888199999994
 21
27.97673279408303
  0
LINE
  5
9D
100
AcDbEntity
  8
LC-002-002-----0
  6
CONTINUOUS
 62
             7
100
AcDbLine
 10
-34.74541299999992
 20
-6.66094920591678
 11
-27.36178799999994
 21
27.97673279408303
  0
LINE
  5
9C
100
AcDbEntity
  8
LC-002-002-----0
  6
CONTINUOUS
 62
             7
100
AcDbLine
 10
-36.73727099999991
 20
-6.66094920591678
 11
-29.35364599999992
 21
27.97673279408303
  0
LINE
  5
9B
100
AcDbEntity
  8
LC-002-002-----0
  6
CONTINUOUS
 62
             7
100
AcDbLine
 10
-19.11616917895237
 20
0.0
 11
-16.02911699999993
 21
27.97673279408303
  0
LINE
  5
9A
100
AcDbEntity
  8
LC-002-002-----0
  6
CONTINUOUS
 62
             7
100
AcDbLine
 10
-16.8945393712559
 20
0.0
 11
-13.80748799999993
 21
27.97673279408303
  0
LINE
  5
99
100
AcDbEntity
  8
LC-002-002-----0
  6
CONTINUOUS
 62
             7
100
AcDbLine
 10
-59.658364900679
 20
0.0
 11
-49.32888199999991
 21
27.97673279408303
  0
LINE
  5
98
100
AcDbEntity
  8
LC-002-002-----0
  6
CONTINUOUS
 62
             7
100
AcDbLine
 10
-47.51571160075798
 20
0.0
 11
-39.06700399999993
 21
27.97673279408303
  0
LINE
  5
97
100
AcDbEntity
  8
LC-002-002-----0
  6
CONTINUOUS
 62
             7
100
AcDbLine
 10
-49.14556171756045
 20
0.0
 11
-40.71157599999992
 21
27.97673279408303
  0
LINE
  5
96
100
AcDbEntity
  8
LC-002-002-----0
  6
CONTINUOUS
 62
             7
100
AcDbLine
 10
-65.54406793499514
 20
0.0
 11
-54.02302599999992
 21
27.97673279408303
  0
LINE
  5
95
100
AcDbEntity
  8
LC-002-002-----0
  6
CONTINUOUS
 62
             7
100
AcDbLine
 10
-68.57164273522022
 20
0.0
 11
-43.69825999999994
 21
68.33905679408321
  0
LINE
  5
94
100
AcDbEntity
  8
LC-002-002-----0
  6
CONTINUOUS
 62
             7
100
AcDbLine
 10
-66.13935193499515
 20
0.0
 11
-54.61830999999995
 21
27.97673279408303
  0
LINE
  5
93
100
AcDbEntity
  8
LC-002-002-----0
  6
CONTINUOUS
 62
             7
100
AcDbLine
 10
66.13935193499526
 20
0.0
 11
54.61831000000007
 21
27.97673279408303
  0
LINE
  5
92
100
AcDbEntity
  8
LC-003-005-----0
  6
CONTINUOUS
 62
             3
100
AcDbLine
 10
41.8836070000001
 20
67.27520479408321
 11
42.94745900000009
 21
68.3390577940832
  0
LINE
  5
91
100
AcDbEntity
  8
LC-003-005-----0
  6
CONTINUOUS
 62
             3
100
AcDbLine
 10
42.63836200000009
 20
65.20153279408322
 11
44.2526660000001
 21
66.81583679408317
  0
LINE
  5
90
100
AcDbEntity
  8
LC-003-005-----0
  6
CONTINUOUS
 62
             3
100
AcDbLine
 10
44.28895200000005
 20
64.02369579408304
 11
45.00742100000009
 21
64.74216479408318
  0
LINE
  5
8F
100
AcDbEntity
  8
LC-003-005-----0
  6
CONTINUOUS
 62
             3
100
AcDbLine
 10
56.69199900000007
 20
31.17190879408321
 11
57.08350000000007
 21
31.56340979408327
  0
LINE
  5
8E
100
AcDbEntity
  8
LC-003-005-----0
  6
CONTINUOUS
 62
             3
100
AcDbLine
 10
56.69199900000007
 20
28.34348179408329
 11
57.83825500000007
 21
29.48973779408328
  0
LINE
  5
8D
100
AcDbEntity
  8
LC-003-005-----0
  6
CONTINUOUS
 62
             3
100
AcDbLine
 10
-44.72425499999991
 20
65.52015679408322
 11
-41.90535299999993
 21
68.3390587940832
  0
LINE
  5
8C
100
AcDbEntity
  8
LC-003-005-----0
  6
CONTINUOUS
 62
             3
100
AcDbLine
 10
-43.20033699999993
 20
64.21564779408317
 11
-42.88094599999994
 21
64.53503879408316
  0
LINE
  5
8B
100
AcDbEntity
  8
LC-003-005-----0
  6
CONTINUOUS
 62
             3
100
AcDbLine
 10
-57.67287299999992
 20
29.94412179408317
 11
-56.69199899999995
 21
30.92499579408303
  0
LINE
  5
8A
100
AcDbEntity
  8
LC-002-002-----0
  6
CONTINUOUS
 62
             7
100
AcDbLine
 10
56.69199900000007
 20
32.63905079408318
 11
0.49634600000007
 21
32.63905079408318
  0
LINE
  5
89
100
AcDbEntity
  8
LC-002-002-----0
  6
CONTINUOUS
 62
             7
100
AcDbLine
 10
49.0850220000001
 20
53.53904879408316
 11
0.49637500000006
 21
53.53911579408322
  0
LINE
  5
88
100
AcDbEntity
  8
LC-002-002-----0
  6
CONTINUOUS
 62
             7
100
AcDbLine
 10
28.35979200000008
 20
32.63905079408318
 11
23.90458600000006
 21
53.53908379408318
  0
LINE
  5
87
100
AcDbEntity
  8
LC-002-002-----0
  6
CONTINUOUS
 62
             7
100
AcDbLine
 10
48.94500100000005
 20
68.33904879408323
 11
0.49639500000006
 21
68.33911579408317
  0
LINE
  5
86
100
AcDbEntity
  8
LC-002-002-----0
  6
CONTINUOUS
 62
             7
100
AcDbLine
 10
39.30605300000008
 20
32.63905079408318
 11
33.00544300000008
 21
53.53907079408322
  0
LINE
  5
85
100
AcDbEntity
  8
LC-002-002-----0
  6
CONTINUOUS
 62
             7
100
AcDbLine
 10
58.3889440000001
 20
27.97673279408303
 11
56.69199900000007
 21
28.27594979408303
  0
LINE
  5
84
100
AcDbEntity
  8
LC-002-002-----0
  6
CONTINUOUS
 62
             7
100
AcDbLine
 10
37.65902800000009
 20
32.63905079408318
 11
31.34742000000006
 21
53.53907279408321
  0
LINE
  5
83
100
AcDbEntity
  8
LC-002-002-----0
  6
CONTINUOUS
 62
             7
100
AcDbLine
 10
56.69199900000007
 20
32.63905079408318
 11
56.69199900000007
 21
28.27594979408303
  0
LINE
  5
82
100
AcDbEntity
  8
LC-002-002-----0
  6
CONTINUOUS
 62
             7
100
AcDbLine
 10
1.64603200000005
 20
53.53911379408322
 11
1.64603200000005
 21
32.63905079408318
  0
LINE
  5
81
100
AcDbEntity
  8
LC-002-002-----0
  6
CONTINUOUS
 62
             7
100
AcDbLine
 10
52.10304700000007
 20
32.63905079408318
 11
43.49625700000006
 21
53.53905679408302
  0
LINE
  5
80
100
AcDbEntity
  8
LC-002-002-----0
  6
CONTINUOUS
 62
             7
100
AcDbLine
 10
52.69833000000006
 20
32.63905079408318
 11
44.09154100000008
 21
53.53905579408314
  0
LINE
  5
7F
100
AcDbEntity
  8
LC-002-002-----0
  6
CONTINUOUS
 62
             7
100
AcDbLine
 10
15.51466000000006
 20
32.63905079408318
 11
13.20847500000008
 21
53.53909779408303
  0
LINE
  5
7E
100
AcDbEntity
  8
LC-002-002-----0
  6
CONTINUOUS
 62
             7
100
AcDbLine
 10
47.60747500000009
 20
32.63905079408318
 11
39.89083800000009
 21
53.53906179408313
  0
LINE
  5
7D
100
AcDbEntity
  8
LC-002-002-----0
  6
CONTINUOUS
 62
             7
100
AcDbLine
 10
46.45747500000005
 20
32.63905079408318
 11
38.74083800000007
 21
53.53906279408312
  0
LINE
  5
7C
100
AcDbEntity
  8
LC-002-002-----0
  6
CONTINUOUS
 62
             7
100
AcDbLine
 10
13.29303100000011
 20
32.63905079408318
 11
10.98684600000008
 21
53.53910079408314
  0
LINE
  5
7B
100
AcDbEntity
  8
LC-002-002-----0
  6
CONTINUOUS
 62
             7
100
AcDbLine
 10
45.33612800000009
 20
63.83905079408322
 11
42.98326300000009
 21
64.25392379408316
  0
LINE
  5
7A
100
AcDbEntity
  8
LC-002-002-----0
  6
CONTINUOUS
 62
             7
100
AcDbLine
 10
42.98326300000009
 20
64.25392379408316
 11
41.49639500000008
 21
68.3390597940832
  0
LINE
  5
79
100
AcDbEntity
  8
LC-002-002-----0
  6
CONTINUOUS
 62
             7
100
AcDbLine
 10
26.36793400000004
 20
32.63905079408318
 11
21.91272800000008
 21
53.53908579408318
  0
LINE
  5
78
100
AcDbEntity
  8
LC-002-002-----0
  6
CONTINUOUS
 62
             7
100
AcDbLine
 10
-13.29303099999993
 20
32.63905079408318
 11
-10.98684599999989
 21
53.53910079408314
  0
LINE
  5
77
100
AcDbEntity
  8
LC-002-002-----0
  6
CONTINUOUS
 62
             7
100
AcDbLine
 10
-56.69199899999995
 20
32.63905079408318
 11
0.49634600000007
 21
32.63905079408318
  0
LINE
  5
76
100
AcDbEntity
  8
LC-002-002-----0
  6
CONTINUOUS
 62
             7
100
AcDbLine
 10
-49.08502199999992
 20
53.53904879408316
 11
0.49637500000006
 21
53.53911679408321
  0
LINE
  5
75
100
AcDbEntity
  8
LC-002-002-----0
  6
CONTINUOUS
 62
             7
100
AcDbLine
 10
-28.35979199999992
 20
32.63905079408318
 11
-23.90458699999993
 21
53.53908379408318
  0
LINE
  5
74
100
AcDbEntity
  8
LC-002-002-----0
  6
CONTINUOUS
 62
             7
100
AcDbLine
 10
-48.94500099999993
 20
68.33904879408323
 11
0.49639500000006
 21
68.33911679408328
  0
LINE
  5
73
100
AcDbEntity
  8
LC-002-002-----0
  6
CONTINUOUS
 62
             7
100
AcDbLine
 10
-39.30605299999991
 20
32.63905079408318
 11
-33.00544399999994
 21
53.53907079408322
  0
LINE
  5
72
100
AcDbEntity
  8
LC-002-002-----0
  6
CONTINUOUS
 62
             7
100
AcDbLine
 10
-58.38894399999992
 20
27.97673279408303
 11
-56.69199899999995
 21
28.27594979408303
  0
LINE
  5
71
100
AcDbEntity
  8
LC-002-002-----0
  6
CONTINUOUS
 62
             7
100
AcDbLine
 10
-37.65902899999991
 20
32.63905079408318
 11
-31.34741999999995
 21
53.53907279408321
  0
LINE
  5
70
100
AcDbEntity
  8
LC-002-002-----0
  6
CONTINUOUS
 62
             7
100
AcDbLine
 10
-56.69199899999995
 20
32.63905079408318
 11
-56.69199899999995
 21
28.27594979408303
  0
LINE
  5
6F
100
AcDbEntity
  8
LC-002-002-----0
  6
CONTINUOUS
 62
             7
100
AcDbLine
 10
-1.64603199999993
 20
53.53911379408322
 11
-1.64603199999993
 21
32.63905079408318
  0
LINE
  5
6E
100
AcDbEntity
  8
LC-002-002-----0
  6
CONTINUOUS
 62
             7
100
AcDbLine
 10
-52.10304699999995
 20
32.63905079408318
 11
-43.49625699999991
 21
53.53905679408302
  0
LINE
  5
6D
100
AcDbEntity
  8
LC-002-002-----0
  6
CONTINUOUS
 62
             7
100
AcDbLine
 10
-52.69832999999996
 20
32.63905079408318
 11
-44.09154099999994
 21
53.53905579408314
  0
LINE
  5
6C
100
AcDbEntity
  8
LC-002-002-----0
  6
CONTINUOUS
 62
             7
100
AcDbLine
 10
-15.51466099999994
 20
32.63905079408318
 11
-13.2084749999999
 21
53.53909779408303
  0
LINE
  5
6B
100
AcDbEntity
  8
LC-002-002-----0
  6
CONTINUOUS
 62
             7
100
AcDbLine
 10
-47.6074749999999
 20
32.63905079408318
 11
-39.89083799999992
 21
53.53906179408313
  0
LINE
  5
6A
100
AcDbEntity
  8
LC-002-002-----0
  6
CONTINUOUS
 62
             7
100
AcDbLine
 10
-46.45747599999992
 20
32.63905079408318
 11
-38.74083799999993
 21
53.53906279408312
  0
LINE
  5
69
100
AcDbEntity
  8
LC-002-002-----0
  6
CONTINUOUS
 62
             7
100
AcDbLine
 10
-45.33612799999992
 20
63.83905079408322
 11
-42.9832629999999
 21
64.25392379408316
  0
LINE
  5
68
100
AcDbEntity
  8
LC-002-002-----0
  6
CONTINUOUS
 62
             7
100
AcDbLine
 10
-42.9832629999999
 20
64.25392379408316
 11
-41.49639499999994
 21
68.3390597940832
  0
LINE
  5
67
100
AcDbEntity
  8
LC-002-002-----0
  6
CONTINUOUS
 62
             7
100
AcDbLine
 10
-26.36793399999992
 20
32.63905079408318
 11
-21.91272799999991
 21
53.53908579408318
  0
LINE
  5
66
100
AcDbEntity
  8
LC-002-002-----0
  6
CONTINUOUS
 62
             7
100
AcDbLine
 10
-58.38894399999992
 20
27.97673279408303
 11
0.49634000000009
 21
27.97673279408303
  0
LINE
  5
65
100
AcDbEntity
  8
LC-002-002-----0
  6
CONTINUOUS
 62
             7
100
AcDbLine
 10
-3.8017089999999
 20
53.53911079408312
 11
-3.8017089999999
 21
68.33911079408318
  0
LINE
  5
64
100
AcDbEntity
  8
LC-002-002-----0
  6
CONTINUOUS
 62
             7
100
AcDbLine
 10
58.3889440000001
 20
27.97673279408303
 11
0.49634000000009
 21
27.97673279408303
  0
LINE
  5
63
100
AcDbEntity
  8
LC-002-002-----0
  6
CONTINUOUS
 62
             7
100
AcDbLine
 10
3.80170900000007
 20
53.53911079408312
 11
3.80170900000007
 21
68.33911079408318
  0
ENDBLK
  5
B1
100
AcDbEntity
  8
0
100
AcDbBlockEnd
  0
BLOCK
  5
2E
100
AcDbEntity
  8
0
100
AcDbBlockBegin
  2
HL_64_FLACHDACHABLAUF__1
 70
             0
 10
0.00000000000023
 20
661.05836093503854
 30
0.0
  3
HL_64_FLACHDACHABLAUF__1
  1

  0
INSERT
  5
2F
100
AcDbEntity
  8
1
100
AcDbBlockReference
  2
062_1E_LAUBFANGKORB
 10
-86.08186099999995
 20
632.02984501233732
  0
ENDBLK
  5
B2
100
AcDbEntity
  8
0
100
AcDbBlockEnd
  0
BLOCK
  5
31
100
AcDbEntity
  8
0
100
AcDbBlockBegin
  2
0317_4E_REDUKTION__2
 70
             0
 10
201.5511994671869
 20
452.68543097239291
 30
0.0
  3
0317_4E_REDUKTION__2
  1

  0
ENDBLK
  5
B3
100
AcDbEntity
  8
0
100
AcDbBlockEnd
  0
BLOCK
  5
33
100
AcDbEntity
  8
0
100
AcDbBlockBegin
  2
HL_64B_FLACHDACHABLAUF__3
 70
             0
 10
-404.37268699999998
 20
12.5071437544985
 30
0.0
  3
HL_64B_FLACHDACHABLAUF__3
  1

  0
INSERT
  5
34
100
AcDbEntity
  8
1
100
AcDbBlockReference
  2
0317_4E_REDUKTION__2
 10
201.5511994671869
 20
452.68543097239291
  0
ENDBLK
  5
B4
100
AcDbEntity
  8
0
100
AcDbBlockEnd
  0
BLOCK
  5
36
100
AcDbEntity
  8
0
100
AcDbBlockBegin
  2
HL64BH__4
 70
             0
 10
0.0
 20
319.56571432307561
 30
0.0
  3
HL64BH__4
  1

  0
INSERT
  5
37
100
AcDbEntity
  8
0
100
AcDbBlockReference
  2
HL_64B_FLACHDACHABLAUF__3
 10
-404.37268699999998
 20
12.5071437544985
  0
ENDBLK
  5
B5
100
AcDbEntity
  8
0
100
AcDbBlockEnd
  0
BLOCK
  5
39
100
AcDbEntity
  8
0
100
AcDbBlockBegin
  2
HL_64H_FLACHDACHABLAUF
 70
             0
 10
0.49645299999997
 20
-0.0000970115634
 30
0.0
  3
HL_64H_FLACHDACHABLAUF
  1

  0
INSERT
  5
3A
100
AcDbEntity
  8
0
100
AcDbBlockReference
  2
HL_64_FLACHDACHABLAUF__1
 10
0.00000000000023
 20
661.05836093503854
  0
INSERT
  5
3B
100
AcDbEntity
  8
0
100
AcDbBlockReference
  2
HL64BH__4
 10
0.0
 20
319.56571432307561
  0
ENDBLK
  5
B6
100
AcDbEntity
  8
0
100
AcDbBlockEnd
  0
BLOCK
  5
3D
100
AcDbEntity
  8
0
100
AcDbBlockBegin
  2
HL64H_K_RPER
 70
             0
 10
15.94269505482073
 20
556.66280002006806
 30
0.0
  3
HL64H_K_RPER
  1

  0
LINE
  5
B8
100
AcDbEntity
  8
LC-001-002-----0
  6
CONTINUOUS
 62
             7
100
AcDbLine
 10
-249.99983800000001
 20
-2.766437
 11
-249.99983800000001
 21
-3.766437
  0
POINT
  5
B7
100
AcDbEntity
  8
0
 62
             7
100
AcDbPoint
 10
-150.62803299999999
 20
-3.77168599999999
  0
ENDBLK
  5
B9
100
AcDbEntity
  8
0
100
AcDbBlockEnd
  0
BLOCK
  5
3F
100
AcDbEntity
  8
0
100
AcDbBlockBegin
  2
HL64BH__5
 70
             0
 10
15.94269505482073
 20
556.66280002006806
 30
0.0
  3
HL64BH__5
  1

  0
INSERT
  5
40
100
AcDbEntity
  8
1
100
AcDbBlockReference
  2
HL64H_K_RPER
 10
15.94269505482073
 20
556.66280002006806
  0
ENDBLK
  5
BA
100
AcDbEntity
  8
0
100
AcDbBlockEnd
  0
BLOCK
  5
42
100
AcDbEntity
  8
0
100
AcDbBlockBegin
  2
HL_64_1BH_FLACHDACHABL_110
 70
             0
 10
15.94269505482073
 20
239.19683967718311
 30
0.0
  3
HL_64_1BH_FLACHDACHABL_110
  1

  0
INSERT
  5
43
100
AcDbEntity
  8
0
100
AcDbBlockReference
  2
HL64BH__5
 10
15.94269505482073
 20
556.66280002006806
  0
ENDBLK
  5
BB
100
AcDbEntity
  8
0
100
AcDbBlockEnd
  0
BLOCK
  5
45
100
AcDbEntity
  8
0
100
AcDbBlockBegin
  2
0317_4E_REDUKTION__6
 70
             0
 10
217.49389452200711
 20
983.49339745501311
 30
0.0
  3
0317_4E_REDUKTION__6
  1

  0
ARC
  5
D3
100
AcDbEntity
  8
LC-003-002-RND-0
  6
CONTINUOUS
 62
             7
100
AcDbCircle
 10
221.0287214671869
 20
-170.3475418069809
 40
1.99999999999985
100
AcDbArc
 50
177.00000000000233
 51
-93.00000000000307
  0
ARC
  5
D2
100
AcDbEntity
  8
LC-003-002-RND-0
  6
CONTINUOUS
 62
             7
100
AcDbCircle
 10
215.24369046718689
 20
-71.9098718069809
 40
5.00000000000016
100
AcDbArc
 50
86.99999999999808
 51
131.99999999999793
  0
ARC
  5
D1
100
AcDbEntity
  8
LC-003-002-RND-0
  6
CONTINUOUS
 62
             7
100
AcDbCircle
 10
226.576333467187
 20
-64.4928118069808
 40
1.99999999999977
100
AcDbArc
 50
86.99999999999895
 51
177.00000000000233
  0
ARC
  5
D0
100
AcDbEntity
  8
LC-003-002-RND-0
  6
CONTINUOUS
 62
             7
100
AcDbCircle
 10
211.1614864671869
 20
-149.80297580698101
 40
4.99999999999976
100
AcDbArc
 50
-138.00000000000369
 51
-93.0000000000033
  0
LINE
  5
CF
100
AcDbEntity
  8
1
  6
CONTINUOUS
 62
             7
100
AcDbLine
 10
201.6558714671869
 20
-148.3034348069809
 11
205.63340346718689
 21
-72.40758980698098
  0
LINE
  5
CE
100
AcDbEntity
  8
LC-002-002-----0
  6
CONTINUOUS
 62
             7
100
AcDbLine
 10
288.83085846718689
 20
-175.9036468069809
 11
294.87800446718688
 21
-175.161149806981
  0
LINE
  5
CD
100
AcDbEntity
  8
LC-002-002-----0
  6
CONTINUOUS
 62
             7
100
AcDbLine
 10
220.9240494671869
 20
-172.34480180698091
 11
288.83085846718689
 21
-175.9036468069809
  0
LINE
  5
CC
100
AcDbEntity
  8
LC-002-002-----0
  6
CONTINUOUS
 62
             7
100
AcDbLine
 10
294.58781346718678
 20
-66.054397806981
 11
300.52422146718698
 21
-67.42492480698098
  0
LINE
  5
CB
100
AcDbEntity
  8
LC-002-002-----0
  6
CONTINUOUS
 62
             7
100
AcDbLine
 10
215.50537046718691
 20
-66.91672380698088
 11
224.42206646718691
 21
-67.38402780698078
  0
LINE
  5
CA
100
AcDbEntity
  8
LC-002-002-----0
  6
CONTINUOUS
 62
             7
100
AcDbLine
 10
224.57907346718679
 20
-64.38813980698086
 11
224.42206646718691
 21
-67.38402780698078
  0
LINE
  5
C9
100
AcDbEntity
  8
LC-002-002-----0
  6
CONTINUOUS
 62
             7
100
AcDbLine
 10
294.87800446718688
 20
-175.161149806981
 11
297.49176946718688
 21
-125.2875558069809
  0
LINE
  5
C8
100
AcDbEntity
  8
LC-002-002-----0
  6
CONTINUOUS
 62
             7
100
AcDbLine
 10
300.52422146718698
 20
-67.42492480698098
 11
297.49176946718688
 21
-125.2875558069809
  0
LINE
  5
C7
100
AcDbEntity
  8
LC-002-002-----0
  6
CONTINUOUS
 62
             7
100
AcDbLine
 10
201.55119946718679
 20
-150.300693806981
 11
205.04640246718699
 21
-150.48386980698089
  0
LINE
  5
C6
100
AcDbEntity
  8
LC-002-002-----0
  6
CONTINUOUS
 62
             7
100
AcDbLine
 10
205.04640246718699
 20
-150.48386980698089
 11
207.44576246718691
 21
-153.14862880698089
  0
LINE
  5
C5
100
AcDbEntity
  8
LC-002-002-----0
  6
CONTINUOUS
 62
             7
100
AcDbLine
 10
210.89980646718689
 20
-154.79612280698089
 11
219.8165014671869
 21
-155.2634278069809
  0
LINE
  5
C4
100
AcDbEntity
  8
LC-002-002-----0
  6
CONTINUOUS
 62
             7
100
AcDbLine
 10
219.031462467187
 20
-170.2428708069809
 11
219.8165014671869
 21
-155.2634278069809
  0
LINE
  5
C3
100
AcDbEntity
  8
LC-002-002-----0
  6
CONTINUOUS
 62
             7
100
AcDbLine
 10
201.6558714671869
 20
-148.3034348069809
 11
201.55119946718679
 21
-150.300693806981
  0
LINE
  5
C2
100
AcDbEntity
  8
LC-002-002-----0
  6
CONTINUOUS
 62
             7
100
AcDbLine
 10
209.23327946718689
 20
-70.59350680698077
 11
211.8980374671869
 21
-68.19414780698088
  0
LINE
  5
C1
100
AcDbEntity
  8
LC-002-002-----0
  6
CONTINUOUS
 62
             7
100
AcDbLine
 10
205.73807546718689
 20
-70.41033080698077
 11
209.23327946718689
 21
-70.59350680698077
  0
LINE
  5
C0
100
AcDbEntity
  8
LC-002-002-----0
  6
CONTINUOUS
 62
             7
100
AcDbLine
 10
205.73807546718689
 20
-70.41033080698077
 11
205.63340346718689
 21
-72.40758980698098
  0
LINE
  5
BF
100
AcDbEntity
  8
1
  6
CONTINUOUS
 62
             7
100
AcDbLine
 10
226.68100537967291
 20
-62.49555273747188
 11
294.58781346718678
 21
-66.054397806981
  0
LINE
  5
BE
100
AcDbEntity
  8
1
  6
CONTINUOUS
 62
             7
100
AcDbLine
 10
219.8165014671869
 20
-155.2634278069809
 11
224.42206646718691
 21
-67.38402780698078
  0
LINE
  5
BD
100
AcDbEntity
  8
1
  6
CONTINUOUS
 62
             7
100
AcDbLine
 10
288.83085846718689
 20
-175.9036468069809
 11
294.58781346718678
 21
-66.054397806981
  0
LINE
  5
BC
100
AcDbEntity
  8
1
  6
CONTINUOUS
 62
             7
100
AcDbLine
 10
205.04640246718699
 20
-150.48386980698089
 11
209.23327946718689
 21
-70.59350680698077
  0
ENDBLK
  5
D4
100
AcDbEntity
  8
0
100
AcDbBlockEnd
  0
BLOCK
  5
47
100
AcDbEntity
  8
0
100
AcDbBlockBegin
  2
HL_64_1_FLACHDACHABLAUF__7
 70
             0
 10
282.37502602228381
 20
748.2856145821404
 30
0.0
  3
HL_64_1_FLACHDACHABLAUF__7
  1

  0
INSERT
  5
48
100
AcDbEntity
  8
1
100
AcDbBlockReference
  2
0317_4E_REDUKTION__6
 10
217.49389452200711
 20
983.49339745501311
  0
ENDBLK
  5
D5
100
AcDbEntity
  8
0
100
AcDbBlockEnd
  0
BLOCK
  5
4A
100
AcDbEntity
  8
0
100
AcDbBlockBegin
  2
HL_64_1_FLACHDACHABLAUF__8
 70
             0
 10
15.94269505482038
 20
821.09509415327318
 30
0.0
  3
HL_64_1_FLACHDACHABLAUF__8
  1

  0
INSERT
  5
4B
100
AcDbEntity
  8
0
100
AcDbBlockReference
  2
HL_64_1_FLACHDACHABLAUF__7
 10
282.37502602228381
 20
748.2856145821404
  0
ENDBLK
  5
D6
100
AcDbEntity
  8
0
100
AcDbBlockEnd
  0
BLOCK
  5
4D
100
AcDbEntity
  8
0
100
AcDbBlockBegin
  2
HL_64_FLACHDACHABLAUF__9
 70
             0
 10
15.94269505482038
 20
821.09509415327318
 30
0.0
  3
HL_64_FLACHDACHABLAUF__9
  1

  0
INSERT
  5
4E
100
AcDbEntity
  8
0
100
AcDbBlockReference
  2
HL_64_1_FLACHDACHABLAUF__8
 10
15.94269505482038
 20
821.09509415327318
  0
ENDBLK
  5
D7
100
AcDbEntity
  8
0
100
AcDbBlockEnd
  0
BLOCK
  5
50
100
AcDbEntity
  8
0
100
AcDbBlockBegin
  2
HL_64_1B_FLACHDACHABLAUF
 70
             0
 10
418.18428741529772
 20
1429.1127058799459
 30
0.0
  3
HL_64_1B_FLACHDACHABLAUF
  1

  0
ARC
  5
131
100
AcDbEntity
  8
LC-003-002-RND-0
  6
CONTINUOUS
 62
             7
100
AcDbCircle
 10
-113.3022660000001
 20
-143.76607318648689
 40
46.5
100
AcDbArc
 50
-90.0
 51
0.0
  0
ARC
  5
130
100
AcDbEntity
  8
LC-003-002-RND-0
  6
CONTINUOUS
 62
             7
100
AcDbCircle
 10
-113.3022660000001
 20
-143.76607318648689
 40
40.0
100
AcDbArc
 50
-90.0
 51
0.0
  0
ARC
  5
12F
100
AcDbEntity
  8
LC-004-002-RND-0
  6
CONTINUOUS
 62
             7
100
AcDbCircle
 10
174.50000400000019
 20
-5.998784186487
 40
2.0
100
AcDbArc
 50
0.0
 51
90.0822269942296
  0
ARC
  5
12E
100
AcDbEntity
  8
LC-002-002-----0
  6
CONTINUOUS
 62
             7
100
AcDbCircle
 10
-175.499987
 20
-6.00007718648698
 40
1.99999999999976
100
AcDbArc
 50
90.00021199999625
 51
-179.99975200000208
  0
ARC
  5
12D
100
AcDbEntity
  8
LC-004-002-RND-0
  6
CONTINUOUS
 62
             7
100
AcDbCircle
 10
82.00000000000011
 20
-144.32101518648699
 40
5.0
100
AcDbArc
 50
-90.0
 51
0.0
  0
ARC
  5
12C
100
AcDbEntity
  8
LC-004-002-RND-0
  6
CONTINUOUS
 62
             7
100
AcDbCircle
 10
-33.30642499999999
 20
-144.32101518648699
 40
4.99999999999983
100
AcDbArc
 50
-149.99999999999886
 51
-90.0
  0
ARC
  5
12B
100
AcDbEntity
  8
LC-004-002-RND-0
  6
CONTINUOUS
 62
             7
100
AcDbCircle
 10
-82.0
 20
-59.981269186487
 40
5.0
100
AcDbArc
 50
180.0
 51
-149.99999999999881
  0
LINE
  5
12A
100
AcDbEntity
  8
LC-002-002-----0
  6
CONTINUOUS
 62
             7
100
AcDbLine
 10
-113.3022660000001
 20
-183.76607318648689
 11
-153.7280030000002
 21
-183.76607318648689
  0
LINE
  5
129
100
AcDbEntity
  8
LC-002-002-----0
  6
CONTINUOUS
 62
             7
100
AcDbLine
 10
-113.3022660000001
 20
-190.26607318648689
 11
-153.7280030000002
 21
-190.26607318648689
  0
LINE
  5
128
100
AcDbEntity
  8
LC-002-002-----0
  6
CONTINUOUS
 62
             7
100
AcDbLine
 10
-155.7280030000002
 20
-190.26607318648689
 11
-203.4819190000004
 21
-190.26607318648689
  0
LINE
  5
127
100
AcDbEntity
  8
LC-002-002-----0
  6
CONTINUOUS
 62
             7
100
AcDbLine
 10
-155.7280030000002
 20
-183.76607318648689
 11
-203.4819190000004
 21
-183.76607318648689
  0
LINE
  5
126
100
AcDbEntity
  8
LC-002-002-----0
  6
CONTINUOUS
 62
             7
100
AcDbLine
 10
-203.4819190000004
 20
-183.76607318648689
 11
-203.4819190000004
 21
-190.26607318648689
  0
LINE
  5
125
100
AcDbEntity
  8
LC-002-002-----0
  6
CONTINUOUS
 62
             7
100
AcDbLine
 10
-203.4819190000004
 20
-184.76401418648709
 11
-228.22873100000021
 21
-183.46708918648699
  0
LINE
  5
124
100
AcDbEntity
  8
LC-002-002-----0
  6
CONTINUOUS
 62
             7
100
AcDbLine
 10
-203.4819190000004
 20
-186.26607318648689
 11
-228.39725300000021
 21
-184.96031518648689
  0
LINE
  5
123
100
AcDbEntity
  8
LC-002-002-----0
  6
CONTINUOUS
 62
             7
100
AcDbLine
 10
-203.4819190000004
 20
-186.26607318648689
 11
-228.4819190000002
 21
-186.26607318648689
  0
LINE
  5
122
100
AcDbEntity
  8
LC-002-002-----0
  6
CONTINUOUS
 62
             7
100
AcDbLine
 10
-203.4819190000004
 20
-187.76607318648689
 11
-228.4819190000002
 21
-187.76607318648689
  0
LINE
  5
121
100
AcDbEntity
  8
LC-002-002-----0
  6
CONTINUOUS
 62
             7
100
AcDbLine
 10
-203.4819190000004
 20
-187.76607318648689
 11
-228.39725300000021
 21
-189.07183018648709
  0
LINE
  5
120
100
AcDbEntity
  8
LC-002-002-----0
  6
CONTINUOUS
 62
             7
100
AcDbLine
 10
-203.4819190000004
 20
-189.2681311864871
 11
-228.22873100000021
 21
-190.565057186487
  0
LINE
  5
11F
100
AcDbEntity
  8
LC-002-002-----0
  6
CONTINUOUS
 62
             7
100
AcDbLine
 10
-228.25681800000021
 20
-190.31618618648699
 11
-235.27103500000021
 21
-190.68378518648689
  0
LINE
  5
11E
100
AcDbEntity
  8
LC-002-002-----0
  6
CONTINUOUS
 62
             7
100
AcDbLine
 10
-228.36916600000021
 20
-189.32070118648701
 11
-235.37020600000019
 21
-189.68761018648689
  0
LINE
  5
11D
100
AcDbEntity
  8
LC-002-002-----0
  6
CONTINUOUS
 62
             7
100
AcDbLine
 10
-228.4819190000002
 20
-187.51607318648689
 11
-235.4819190000002
 21
-187.51607318648689
  0
LINE
  5
11C
100
AcDbEntity
  8
LC-002-002-----0
  6
CONTINUOUS
 62
             7
100
AcDbLine
 10
-228.4819190000002
 20
-186.51607318648689
 11
-235.4819190000002
 21
-186.51607318648689
  0
LINE
  5
11B
100
AcDbEntity
  8
LC-002-002-----0
  6
CONTINUOUS
 62
             7
100
AcDbLine
 10
-228.36916600000021
 20
-184.71144418648711
 11
-235.37020600000019
 21
-184.34453518648689
  0
LINE
  5
11A
100
AcDbEntity
  8
LC-002-002-----0
  6
CONTINUOUS
 62
             7
100
AcDbLine
 10
-228.25681800000021
 20
-183.715960186487
 11
-235.27103500000021
 21
-183.3483601864869
  0
LINE
  5
119
100
AcDbEntity
  8
LC-002-002-----0
  6
CONTINUOUS
 62
             7
100
AcDbLine
 10
-228.22873100000021
 20
-183.46708918648699
 11
-228.39725300000021
 21
-184.96031518648689
  0
LINE
  5
118
100
AcDbEntity
  8
LC-002-002-----0
  6
CONTINUOUS
 62
             7
100
AcDbLine
 10
-228.4819190000002
 20
-186.26607318648689
 11
-228.4819190000002
 21
-187.76607318648689
  0
LINE
  5
117
100
AcDbEntity
  8
LC-002-002-----0
  6
CONTINUOUS
 62
             7
100
AcDbLine
 10
-228.22873100000021
 20
-190.565057186487
 11
-228.39725300000021
 21
-189.07183018648709
  0
LINE
  5
116
100
AcDbEntity
  8
LC-002-002-----0
  6
CONTINUOUS
 62
             7
100
AcDbLine
 10
-235.27103500000021
 20
-190.68378518648689
 11
-235.37020600000019
 21
-189.68761018648689
  0
LINE
  5
115
100
AcDbEntity
  8
LC-002-002-----0
  6
CONTINUOUS
 62
             7
100
AcDbLine
 10
-235.4819190000002
 20
-186.51607318648689
 11
-235.4819190000002
 21
-187.51607318648689
  0
LINE
  5
114
100
AcDbEntity
  8
LC-002-002-----0
  6
CONTINUOUS
 62
             7
100
AcDbLine
 10
-235.27103500000021
 20
-183.3483601864869
 11
-235.37020600000019
 21
-184.34453518648689
  0
LINE
  5
113
100
AcDbEntity
  8
LC-002-002-----0
  6
DASHDOT
 62
             3
100
AcDbLine
 10
-153.7280030000002
 20
-174.22647818648699
 11
-153.7280030000002
 21
-201.88586818648699
  0
LINE
  5
112
100
AcDbEntity
  8
LC-002-002-----0
  6
DASHDOT
 62
             3
100
AcDbLine
 10
-155.7280030000002
 20
-174.22647818648699
 11
-155.7280030000002
 21
-201.88586818648699
  0
LINE
  5
111
100
AcDbEntity
  8
LC-002-002-----0
  6
CONTINUOUS
 62
             7
100
AcDbLine
 10
-66.80226600000026
 20
-96.30451664086417
 11
-66.80226600000026
 21
-143.76607318648689
  0
LINE
  5
110
100
AcDbEntity
  8
LC-002-002-----0
  6
CONTINUOUS
 62
             7
100
AcDbLine
 10
-73.30226600000026
 20
-85.04618637860676
 11
-73.30226600000026
 21
-143.76607318648689
  0
LINE
  5
10F
100
AcDbEntity
  8
1
  6
CONTINUOUS
 62
             7
100
AcDbLine
 10
126.7004340000002
 20
-6.99854518648698
 11
-127.6967029999998
 21
-6.99854518648698
  0
LINE
  5
10E
100
AcDbEntity
  8
LC-002-002-----0
  6
CONTINUOUS
 62
             7
100
AcDbLine
 10
-122.3621684629459
 20
-8.57490618648689
 11
-126.7004340000001
 21
-6.99854518648698
  0
LINE
  5
10D
100
AcDbEntity
  8
1
  6
PHANTOM
 62
             2
100
AcDbLine
 10
0.0
 20
66.05805391014127
 11
0.0
 21
-135.06586520547671
  0
LINE
  5
10C
100
AcDbEntity
  8
1
  6
CONTINUOUS
 62
             7
100
AcDbLine
 10
125.23006600000031
 20
-9.38223718648686
 11
-125.23006599999989
 21
-9.38223718648686
  0
LINE
  5
10B
100
AcDbEntity
  8
1
  6
CONTINUOUS
 62
             7
100
AcDbLine
 10
122.3621684629459
 20
-8.57490618648689
 11
-124.9362209999999
 21
-8.57490618648689
  0
LINE
  5
10A
100
AcDbEntity
  8
1
  6
CONTINUOUS
 62
             7
100
AcDbLine
 10
104.0000000000001
 20
-16.54895618648686
 11
-104.0
 21
-16.54895618648686
  0
LINE
  5
109
100
AcDbEntity
  8
1
  6
CONTINUOUS
 62
             7
100
AcDbLine
 10
-87.0
 20
-37.32101518648688
 11
87.00000000000011
 21
-37.32101518648688
  0
LINE
  5
108
100
AcDbEntity
  8
1
  6
CONTINUOUS
 62
             7
100
AcDbLine
 10
124.9362210000003
 20
-8.57490618648689
 11
122.3621684629459
 21
-8.57490618648689
  0
LINE
  5
107
100
AcDbEntity
  8
LC-002-002-----0
  6
CONTINUOUS
 62
             7
100
AcDbLine
 10
87.00000000000011
 20
-128.52031345699541
 11
87.00000000000011
 21
-37.32101518648688
  0
LINE
  5
106
100
AcDbEntity
  8
1
  6
CONTINUOUS
 62
             7
100
AcDbLine
 10
90.28922300000011
 20
-66.37573518648696
 11
87.00000000000011
 21
-128.52031345699541
  0
LINE
  5
105
100
AcDbEntity
  8
LC-002-002-----0
  6
CONTINUOUS
 62
             7
100
AcDbLine
 10
87.00000000000011
 20
-137.3605626560788
 11
87.00000000000011
 21
-128.52031345699541
  0
LINE
  5
104
100
AcDbEntity
  8
1
  6
CONTINUOUS
 62
             7
100
AcDbLine
 10
90.73114700000008
 20
-66.86654118648687
 11
87.00000000000011
 21
-137.3605626560788
  0
LINE
  5
103
100
AcDbEntity
  8
LC-002-002-----0
  6
CONTINUOUS
 62
             7
100
AcDbLine
 10
87.00000000000011
 20
-66.20162233677991
 11
90.28922300000011
 21
-66.37573518648696
  0
LINE
  5
102
100
AcDbEntity
  8
LC-002-002-----0
  6
CONTINUOUS
 62
             7
100
AcDbLine
 10
-177.499987
 20
-6.0000861864869
 11
-177.4999829999999
 21
-7.00797518648676
  0
LINE
  5
101
100
AcDbEntity
  8
LC-002-002-----0
  6
CONTINUOUS
 62
             7
100
AcDbLine
 10
-175.49999399999979
 20
-4.00007718648698
 11
-90.60746728525024
 21
-3.99976406622557
  0
LINE
  5
100
100
AcDbEntity
  8
LC-002-002-----0
  6
CONTINUOUS
 62
             7
100
AcDbLine
 10
-177.4999819999999
 20
-7.0000841864869
 11
-127.6967029999998
 21
-6.99990118648697
  0
LINE
  5
FF
100
AcDbEntity
  8
LC-002-002-----0
  6
CONTINUOUS
 62
             7
100
AcDbLine
 10
176.50000400000019
 20
-5.998784186487
 11
176.50000400000019
 21
-6.99847418648676
  0
LINE
  5
FE
100
AcDbEntity
  8
LC-002-002-----0
  6
CONTINUOUS
 62
             7
100
AcDbLine
 10
176.4998210000002
 20
-6.99847418648676
 11
126.7004340000002
 21
-6.99854518648698
  0
LINE
  5
FD
100
AcDbEntity
  8
LC-002-002-----0
  6
CONTINUOUS
 62
             7
100
AcDbLine
 10
90.73114700000008
 20
-66.86654118648687
 11
90.28922300000011
 21
-66.37573518648696
  0
LINE
  5
FC
100
AcDbEntity
  8
LC-002-002-----0
  6
CONTINUOUS
 62
             7
100
AcDbLine
 10
126.7004340000002
 20
-6.99854518648698
 11
122.3621684629459
 21
-8.57490618648689
  0
LINE
  5
FB
100
AcDbEntity
  8
LC-002-002-----0
  6
CONTINUOUS
 62
             7
100
AcDbLine
 10
125.23006600000031
 20
-9.38223718648686
 11
124.9362210000003
 21
-8.57490618648689
  0
LINE
  5
FA
100
AcDbEntity
  8
LC-002-002-----0
  6
CONTINUOUS
 62
             7
100
AcDbLine
 10
104.0000000000001
 20
-16.54895618648686
 11
105.53966800000001
 21
-16.54895618648686
  0
LINE
  5
F9
100
AcDbEntity
  8
LC-002-002-----0
  6
CONTINUOUS
 62
             7
100
AcDbLine
 10
125.23006600000031
 20
-9.38223718648686
 11
105.53966800000001
 21
-16.54895618648686
  0
LINE
  5
F8
100
AcDbEntity
  8
LC-002-002-----0
  6
CONTINUOUS
 62
             7
100
AcDbLine
 10
87.00000000000011
 20
-37.32101518648688
 11
89.25000000000011
 21
-37.32101518648688
  0
LINE
  5
F7
100
AcDbEntity
  8
LC-002-002-----0
  6
CONTINUOUS
 62
             7
100
AcDbLine
 10
-125.23006599999989
 20
-9.38223718648686
 11
-124.9362209999999
 21
-8.57490618648689
  0
LINE
  5
F6
100
AcDbEntity
  8
LC-002-002-----0
  6
CONTINUOUS
 62
             7
100
AcDbLine
 10
-104.0
 20
-16.54895618648686
 11
-105.53966799999991
 21
-16.54895618648686
  0
LINE
  5
F5
100
AcDbEntity
  8
LC-002-002-----0
  6
CONTINUOUS
 62
             7
100
AcDbLine
 10
-125.23006599999989
 20
-9.38223718648686
 11
-105.53966799999991
 21
-16.54895618648686
  0
LINE
  5
F4
100
AcDbEntity
  8
LC-002-002-----0
  6
CONTINUOUS
 62
             7
100
AcDbLine
 10
89.25000000000011
 20
-37.32101518648688
 11
104.0000000000001
 21
-37.32101518648688
  0
LINE
  5
F3
100
AcDbEntity
  8
LC-002-002-----0
  6
CONTINUOUS
 62
             7
100
AcDbLine
 10
-33.30642499999999
 20
-149.32101518648699
 11
82.00000000000011
 21
-149.32101518648699
  0
LINE
  5
F2
100
AcDbEntity
  8
LC-002-002-----0
  6
CONTINUOUS
 62
             7
100
AcDbLine
 10
-87.0
 20
-37.32101518648688
 11
-87.0
 21
-59.981269186487
  0
LINE
  5
F1
100
AcDbEntity
  8
LC-002-002-----0
  6
CONTINUOUS
 62
             7
100
AcDbLine
 10
-104.0
 20
-16.54895618648686
 11
-104.0
 21
-37.32101518648688
  0
LINE
  5
F0
100
AcDbEntity
  8
LC-002-002-----0
  6
CONTINUOUS
 62
             7
100
AcDbLine
 10
87.00000000000011
 20
-144.32101518648699
 11
87.00000000000011
 21
-137.3605626560788
  0
LINE
  5
EF
100
AcDbEntity
  8
LC-002-002-----0
  6
CONTINUOUS
 62
             7
100
AcDbLine
 10
104.0000000000001
 20
-37.32101518648688
 11
104.0000000000001
 21
-16.54895618648686
  0
LINE
  5
EE
100
AcDbEntity
  8
LC-002-002-----0
  6
CONTINUOUS
 62
             7
100
AcDbLine
 10
-86.33012699999995
 20
-62.481269186487
 11
-37.63655199999995
 21
-146.82101518648699
  0
LINE
  5
ED
100
AcDbEntity
  8
LC-002-002-----0
  6
CONTINUOUS
 62
             7
100
AcDbLine
 10
-87.0
 20
-37.32101518648688
 11
-104.0
 21
-37.32101518648688
  0
LINE
  5
EC
100
AcDbEntity
  8
LC-002-002-----0
  6
CONTINUOUS
 62
             7
100
AcDbLine
 10
91.23114700000002
 20
-66.8665411864871
 11
154.67534500000011
 21
-70.22455118648696
  0
LINE
  5
EB
100
AcDbEntity
  8
LC-002-002-----0
  6
CONTINUOUS
 62
             7
100
AcDbLine
 10
87.3046950000001
 20
-141.78770618648699
 11
150.7523470000001
 21
-145.07981718648699
  0
LINE
  5
EA
100
AcDbEntity
  8
LC-002-002-----0
  6
CONTINUOUS
 62
             7
100
AcDbLine
 10
154.67534500000011
 20
-70.22455118648696
 11
158.61376999999999
 21
-71.50422218648697
  0
LINE
  5
E9
100
AcDbEntity
  8
LC-002-002-----0
  6
CONTINUOUS
 62
             7
100
AcDbLine
 10
158.5395280000001
 20
-72.92083418648696
 11
158.61376999999999
 21
-71.50422218648697
  0
LINE
  5
E8
100
AcDbEntity
  8
LC-002-002-----0
  6
CONTINUOUS
 62
             7
100
AcDbLine
 10
150.7523470000001
 20
-145.07981718648699
 11
154.8029590000001
 21
-144.21883218648699
  0
LINE
  5
E7
100
AcDbEntity
  8
LC-002-002-----0
  6
CONTINUOUS
 62
             7
100
AcDbLine
 10
154.8029590000001
 20
-144.21883218648699
 11
158.5395280000001
 21
-72.92083418648696
  0
LINE
  5
E6
100
AcDbEntity
  8
1
  6
CONTINUOUS
 62
             7
100
AcDbLine
 10
150.7523470000001
 20
-145.07981718648699
 11
154.67534500000011
 21
-70.22455118648696
  0
LINE
  5
E5
100
AcDbEntity
  8
1
  6
PHANTOM
 62
             2
100
AcDbLine
 10
89.26792078579652
 20
-104.3271236753464
 11
160.54081457529799
 21
-108.06237828574361
  0
LINE
  5
E4
100
AcDbEntity
  8
LC-001-002-----0
  6
CONTINUOUS
 62
             7
100
AcDbLine
 10
147.5271119999999
 20
0.0
 11
-249.93274400000001
 21
0.0
  0
LINE
  5
E3
100
AcDbEntity
  8
LC-001-002-----0
  6
CONTINUOUS
 62
             7
100
AcDbLine
 10
-147.3629930000001
 20
-4.0
 11
-249.93273600000001
 21
-4.0
  0
LINE
  5
E2
100
AcDbEntity
  8
LC-001-002-----0
  6
CONTINUOUS
 62
             7
100
AcDbLine
 10
-249.93274400000001
 20
0.0
 11
-249.93273600000001
 21
-4.0
  0
LINE
  5
E1
100
AcDbEntity
  8
LC-002-002-----0
  6
CONTINUOUS
 62
             7
100
AcDbLine
 10
-90.60746728525024
 20
-3.99976406622557
 11
174.49713373741881
 21
-3.99878624609011
  0
LINE
  5
E0
100
AcDbEntity
  8
LC-001-002-----0
  6
CONTINUOUS
 62
             7
100
AcDbLine
 10
249.93273600000001
 20
-4.0
 11
249.9327440000001
 21
0.0
  0
LINE
  5
DF
100
AcDbEntity
  8
LC-001-002-----0
  6
CONTINUOUS
 62
             7
100
AcDbLine
 10
249.93273600000001
 20
-4.0
 11
147.36299299999999
 21
-4.0
  0
LINE
  5
DE
100
AcDbEntity
  8
LC-001-002-----0
  6
CONTINUOUS
 62
             7
100
AcDbLine
 10
249.9327440000001
 20
0.0
 11
147.5271119999999
 21
0.0
  0
POINT
  5
DD
100
AcDbEntity
  8
0
 62
             7
100
AcDbPoint
 10
176.50000400000019
 20
-6.99847418648676
  0
POINT
  5
DC
100
AcDbEntity
  8
0
 62
             7
100
AcDbPoint
 10
-177.4999829999999
 20
-7.00797518648676
  0
POINT
  5
DB
100
AcDbEntity
  8
0
 62
             7
100
AcDbPoint
 10
-33.30642499999999
 20
-149.32101518648699
  0
POINT
  5
DA
100
AcDbEntity
  8
0
 62
             7
100
AcDbPoint
 10
-175.49999399999979
 20
-4.00007718648698
  0
POINT
  5
D9
100
AcDbEntity
  8
0
 62
             7
100
AcDbPoint
 10
-104.0
 20
-37.32101518648688
  0
POINT
  5
D8
100
AcDbEntity
  8
0
 62
             7
100
AcDbPoint
 10
159.0395280000001
 20
-72.92083418648696
  0
ENDBLK
  5
132
100
AcDbEntity
  8
0
100
AcDbBlockEnd
  0
BLOCK
  5
52
100
AcDbEntity
  8
0
100
AcDbBlockBegin
  2
HL_64_FLACHDACHABLAUF__10
 70
             0
 10
418.18428741529772
 20
1429.1127058799459
 30
0.0
  3
HL_64_FLACHDACHABLAUF__10
  1

  0
INSERT
  5
53
100
AcDbEntity
  8
1
100
AcDbBlockReference
  2
HL_64_1B_FLACHDACHABLAUF
 10
418.18428741529772
 20
1429.1127058799459
  0
ENDBLK
  5
133
100
AcDbEntity
  8
0
100
AcDbBlockEnd
  0
BLOCK
  5
55
100
AcDbEntity
  8
0
100
AcDbBlockBegin
  2
HL_64_1B_FLACHDACHABLA__11
 70
             0
 10
920.31538205482059
 20
1501.1172356827849
 30
0.0
  3
HL_64_1B_FLACHDACHABLA__11
  1

  0
INSERT
  5
56
100
AcDbEntity
  8
0
100
AcDbBlockReference
  2
HL_64_FLACHDACHABLAUF__10
 10
418.18428741529772
 20
1429.1127058799459
  0
ENDBLK
  5
134
100
AcDbEntity
  8
0
100
AcDbBlockEnd
  0
BLOCK
  5
58
100
AcDbEntity
  8
0
100
AcDbBlockBegin
  2
HL_64B_FLACHDACHABLAUF__12
 70
             0
 10
15.94269505482038
 20
821.09509415327307
 30
0.0
  3
HL_64B_FLACHDACHABLAUF__12
  1

  0
INSERT
  5
59
100
AcDbEntity
  8
0
100
AcDbBlockReference
  2
HL_64_FLACHDACHABLAUF__9
 10
15.94269505482038
 20
821.09509415327318
  0
INSERT
  5
5A
100
AcDbEntity
  8
0
100
AcDbBlockReference
  2
HL_64_1B_FLACHDACHABLA__11
 10
920.31538205482059
 20
1501.1172356827849
  0
ENDBLK
  5
135
100
AcDbEntity
  8
0
100
AcDbBlockEnd
  0
BLOCK
  5
5C
100
AcDbEntity
  8
0
100
AcDbBlockBegin
  2
HL_64_1B_FLACHDACHABLA__13
 70
             0
 10
1.64603199999993
 20
570.66151954894212
 30
0.0
  3
HL_64_1B_FLACHDACHABLA__13
  1

  0
DIMENSION
  5
162
100
AcDbEntity
  8
1
100
AcDbDimension
  2
*D21
 10
340.44072066843012
 20
-68.45744685167831
 11
330.74310896506609
 21
-119.7476429439249
 31
0.0
 53
86.99999999425673
  1
<>
  3
ME10_DIM_3
100
AcDbAlignedDimension
 13
288.83085846718689
 23
-175.9036468069809
 14
294.58781346718678
 24
-66.054397806981
 50
86.99999999425673
100
AcDbRotatedDimension
  0
DIMENSION
  5
157
100
AcDbEntity
  8
1
100
AcDbDimension
  2
*D20
 10
184.30790859773518
 20
-71.77752825688947
 11
175.42216770763801
 21
-107.5763014158707
 31
0.0
 53
86.99999958006349
  1
DN75
  3
ME10_DIM_2
100
AcDbAlignedDimension
 13
150.7523470000001
 23
-145.07981718648699
 14
154.67534500000011
 24
-70.22455118648696
 50
86.99999958006349
100
AcDbRotatedDimension
  0
DIMENSION
  5
14C
100
AcDbEntity
  8
1
100
AcDbDimension
  2
*D19
 10
176.50000400000013
 20
95.921913220739
 11
11.68859748878822
 21
102.921913220739
 31
0.0
 53
180.0
  1
<>
  3
ME10_DIM_1
100
AcDbAlignedDimension
 13
-177.4999829999999
 23
-7.00797518648676
 14
176.50000400000019
 24
-5.998784186487
 50
180.0
100
AcDbRotatedDimension
  0
DIMENSION
  5
141
100
AcDbEntity
  8
1
100
AcDbDimension
  2
*D18
 10
-192.3757748646486
 20
-149.32101518648699
 11
-199.3757748646486
 21
-83.31135650288167
 31
0.0
 53
90.0
  1
<>
  3
ME10_DIM_0
100
AcDbAlignedDimension
 13
-175.49999399999979
 23
-4.00007718648698
 14
-33.30642499999999
 24
-149.32101518648699
 50
90.0
100
AcDbRotatedDimension
  0
INSERT
  5
5D
100
AcDbEntity
  8
0
100
AcDbBlockReference
  2
HL_64_1BH_FLACHDACHABL_110
 10
15.94269505482073
 20
239.19683967718311
  0
INSERT
  5
5E
100
AcDbEntity
  8
0
100
AcDbBlockReference
  2
HL_64B_FLACHDACHABLAUF__12
 10
15.94269505482038
 20
821.09509415327307
  0
ENDBLK
  5
163
100
AcDbEntity
  8
0
100
AcDbBlockEnd
  0
BLOCK
  5
137
100
AcDbEntity
  8
0
100
AcDbBlockBegin
  2
*D18
 70
             1
 10
0.0
 20
0.0
 30
0.0
  3
*D18
  1

  0
LINE
  5
138
100
AcDbEntity
  8
0
  6
CONTINUOUS
 62
             4
100
AcDbLine
 10
-192.3757748646486
 20
-149.32101518648699
 11
-192.3757748646486
 21
-4.00007718648698
  0
LINE
  5
139
100
AcDbEntity
  8
0
  6
CONTINUOUS
 62
             4
100
AcDbLine
 10
-175.49999399999982
 20
-4.00007718648698
 11
-194.3757748646486
 21
-4.00007718648698
  0
LINE
  5
13A
100
AcDbEntity
  8
0
  6
CONTINUOUS
 62
             4
100
AcDbLine
 10
-33.30642500000002
 20
-149.32101518648699
 11
-194.3757748646486
 21
-149.32101518648699
  0
SOLID
  5
13B
100
AcDbEntity
  8
0
 62
             4
100
AcDbTrace
 10
-193.69229984052257
 20
-139.32101518648699
 11
-191.05924988877464
 21
-139.32101518648699
 12
-192.3757748646486
 22
-149.32101518648699
 13
-192.3757748646486
 23
-149.32101518648699
  0
SOLID
  5
13C
100
AcDbEntity
  8
0
 62
             4
100
AcDbTrace
 10
-191.05924988877464
 20
-14.00007718648698
 11
-193.69229984052257
 21
-14.00007718648698
 12
-192.3757748646486
 22
-4.00007718648698
 13
-192.3757748646486
 23
-4.00007718648698
  0
MTEXT
  5
13E
100
AcDbEntity
  8
0
 62
             1
100
AcDbMText
 10
-194.3757748646486
 20
-93.81135650288167
 30
0.0
 40
10.0
 41
0.0
 71
             7
 72
             1
  1
145
  7
CONVERTER_1
 11
0.0
 21
1.0
 31
0.0
  0
ENDBLK
  5
13F
100
AcDbEntity
  8
0
100
AcDbBlockEnd
  0
BLOCK
  5
143
100
AcDbEntity
  8
0
100
AcDbBlockBegin
  2
*D19
 70
             1
 10
0.0
 20
0.0
 30
0.0
  3
*D19
  1

  0
LINE
  5
144
100
AcDbEntity
  8
0
  6
CONTINUOUS
 62
             4
100
AcDbLine
 10
176.50000400000013
 20
95.921913220739
 11
-177.49998299999999
 21
95.921913220739
  0
LINE
  5
145
100
AcDbEntity
  8
0
  6
CONTINUOUS
 62
             4
100
AcDbLine
 10
-177.49998299999999
 20
-7.0079751864868
 11
-177.49998299999999
 21
97.921913220739
  0
LINE
  5
146
100
AcDbEntity
  8
0
  6
CONTINUOUS
 62
             4
100
AcDbLine
 10
176.50000400000013
 20
-5.998784186487
 11
176.50000400000013
 21
97.921913220739
  0
SOLID
  5
147
100
AcDbEntity
  8
0
 62
             4
100
AcDbTrace
 10
166.50000400000013
 20
94.60538824486504
 11
166.50000400000013
 21
97.23843819661296
 12
176.50000400000013
 22
95.921913220739
 13
176.50000400000013
 23
95.921913220739
  0
SOLID
  5
148
100
AcDbEntity
  8
0
 62
             4
100
AcDbTrace
 10
-167.49998299999999
 20
97.23843819661296
 11
-167.49998299999999
 21
94.60538824486504
 12
-177.49998299999999
 22
95.921913220739
 13
-177.49998299999999
 23
95.921913220739
  0
MTEXT
  5
149
100
AcDbEntity
  8
0
 62
             1
100
AcDbMText
 10
-2.51140251118769
 20
97.92189334337807
 30
0.0
 40
10.0
 41
0.0
 71
             7
 72
             1
  1
\C1;Ø\C1;354
  7
CONVERTER_1
 11
0.99999999999706
 21
0.00000242406841
 31
0.0
  0
ENDBLK
  5
14A
100
AcDbEntity
  8
0
100
AcDbBlockEnd
  0
BLOCK
  5
14E
100
AcDbEntity
  8
0
100
AcDbBlockBegin
  2
*D20
 70
             1
 10
0.0
 20
0.0
 30
0.0
  3
*D20
  1

  0
LINE
  5
14F
100
AcDbEntity
  8
0
  6
CONTINUOUS
 62
             4
100
AcDbLine
 10
184.30790859773518
 20
-71.77752825688947
 11
180.38490979110762
 21
-146.6327942146159
  0
LINE
  5
150
100
AcDbEntity
  8
0
  6
CONTINUOUS
 62
             4
100
AcDbLine
 10
150.75234700000013
 20
-145.07981718648699
 11
182.3821688598496
 21
-146.73746614174024
  0
LINE
  5
151
100
AcDbEntity
  8
0
  6
CONTINUOUS
 62
             4
100
AcDbLine
 10
154.67534500000014
 20
-70.22455118648696
 11
186.30516766647716
 21
-71.88220018401381
  0
SOLID
  5
152
100
AcDbEntity
  8
0
 62
             4
100
AcDbTrace
 10
185.09926968575826
 20
-81.83272520376539
 11
182.46982823846866
 21
-81.69492199743334
 12
184.30790859773518
 22
-71.77752825688947
 13
184.30790859773518
 23
-71.77752825688947
  0
SOLID
  5
153
100
AcDbEntity
  8
0
 62
             4
100
AcDbTrace
 10
179.59354870308454
 20
-136.57759726773997
 11
182.22299015037413
 21
-136.71540047407203
 12
180.38490979110762
 22
-146.6327942146159
 13
180.38490979110762
 23
-146.6327942146159
  0
MTEXT
  5
154
100
AcDbEntity
  8
0
 62
             1
100
AcDbMText
 10
179.7401814495409
 20
-120.72030222706732
 30
0.0
 40
10.0
 41
0.0
 71
             7
 72
             1
  1
\C1;DN\C1;75
  7
CONVERTER_1
 11
0.05233596356217
 21
0.99862953437099
 31
0.0
  0
ENDBLK
  5
155
100
AcDbEntity
  8
0
100
AcDbBlockEnd
  0
BLOCK
  5
159
100
AcDbEntity
  8
0
100
AcDbBlockBegin
  2
*D21
 70
             1
 10
0.0
 20
0.0
 30
0.0
  3
*D21
  1

  0
LINE
  5
15A
100
AcDbEntity
  8
0
  6
CONTINUOUS
 62
             4
100
AcDbLine
 10
340.44072066843012
 20
-68.45744685167831
 11
334.68376546195594
 21
-178.30669584085746
  0
LINE
  5
15B
100
AcDbEntity
  8
0
  6
CONTINUOUS
 62
             4
100
AcDbLine
 10
288.83085846718694
 20
-175.9036468069809
 11
336.68102453145463
 21
-178.41136775354352
  0
LINE
  5
15C
100
AcDbEntity
  8
0
  6
CONTINUOUS
 62
             4
100
AcDbLine
 10
294.58781346718683
 20
-66.0543978069809
 11
342.4379797379288
 21
-68.5621187643644
  0
SOLID
  5
15D
100
AcDbEntity
  8
0
 62
             4
100
AcDbTrace
 10
341.23208182914271
 20
-78.51264379283344
 11
338.60264038085694
 21
-78.37484060550975
 12
340.44072066843012
 22
-68.45744685167831
 13
340.44072066843012
 23
-68.45744685167831
  0
SOLID
  5
15E
100
AcDbEntity
  8
0
 62
             4
100
AcDbTrace
 10
333.89240430124335
 20
-168.25149889970231
 11
336.52184574952912
 21
-168.38930208702601
 12
334.68376546195594
 22
-178.30669584085746
 13
334.68376546195594
 23
-178.30669584085746
  0
MTEXT
  5
15F
100
AcDbEntity
  8
0
 62
             1
100
AcDbMText
 10
334.98261886747287
 20
-134.38958802603045
 30
0.0
 40
10.0
 41
0.0
 71
             7
 72
             1
  1
\C1;DN\C1;110
  7
CONVERTER_1
 11
0.05233595634305
 21
0.99862953474933
 31
0.0
  0
ENDBLK
  5
160
100
AcDbEntity
  8
0
100
AcDbBlockEnd
  0
ENDSEC
  0
SECTION
  2
ENTITIES
  0
INSERT
  5
61
100
AcDbEntity
  8
0
100
AcDbBlockReference
  2
HL_64H_FLACHDACHABLAUF
 10
0.49645299999997
 20
-0.0000970115634
  0
INSERT
  5
62
100
AcDbEntity
  8
0
100
AcDbBlockReference
  2
HL_64_1B_FLACHDACHABLA__13
 10
1.64603199999993
 20
570.66151954894212
  0
ENDSEC
  0
SECTION
  2
OBJECTS
  0
DICTIONARY
  5
19
100
AcDbDictionary
  3
ACAD_GROUP
350
1A
  3
ACAD_MLINESTYLE
350
1B
  0
DICTIONARY
  5
1A
102
{ACAD_REACTORS
330
19
102
}
100
AcDbDictionary
  0
DICTIONARY
  5
1B
102
{ACAD_REACTORS
330
19
102
}
100
AcDbDictionary
  3
STANDARD
350
1C
  0
MLINESTYLE
  5
1C
102
{ACAD_REACTORS
330
1B
102
}
100
AcDbMlineStyle
  2
STANDARD
 70
             0
  3

 62
             0
 51
90.0
 52
90.0
 71
             2
 49
0.5
 62
           256
  6
BYLAYER
 49
-0.5
 62
           256
  6
BYLAYER
  0
ENDSEC
  0
EOF
