  0
SECTION
  2
HEADER
  9
$ACADVER
  1
AC1015
  9
$ACADMAINTVER
 70
     6
  9
$DWGCODEPAGE
  3
ANSI_1252
  9
$INSBASE
 10
0.0
 20
0.0
 30
0.0
  9
$EXTMIN
 10
-249.9997419679248
 20
-1112.185757130937
 30
0.0
  9
$EXTMAX
 10
250.0002580320752
 20
152.48972161057
 30
0.0
  9
$LIMMIN
 10
0.0
 20
0.0
  9
$LIMMAX
 10
12.0
 20
9.0
  9
$ORTHOMODE
 70
     0
  9
$REGENMODE
 70
     1
  9
$FILLMODE
 70
     1
  9
$QTEXTMODE
 70
     0
  9
$MIRRTEXT
 70
     1
  9
$LTSCALE
 40
1.0
  9
$ATTMODE
 70
     1
  9
$TEXTSIZE
 40
0.2
  9
$TRACEWID
 40
0.05
  9
$TEXTSTYLE
  7
Standard
  9
$CLAYER
  8
0
  9
$CELTYPE
  6
ByLayer
  9
$CECOLOR
 62
   256
  9
$CELTSCALE
 40
1.0
  9
$DISPSILH
 70
     0
  9
$DIMSCALE
 40
1.0
  9
$DIMASZ
 40
0.18
  9
$DIMEXO
 40
0.0625
  9
$DIMDLI
 40
0.38
  9
$DIMRND
 40
0.0
  9
$DIMDLE
 40
0.0
  9
$DIMEXE
 40
0.18
  9
$DIMTP
 40
0.0
  9
$DIMTM
 40
0.0
  9
$DIMTXT
 40
0.18
  9
$DIMCEN
 40
0.09
  9
$DIMTSZ
 40
0.0
  9
$DIMTOL
 70
     0
  9
$DIMLIM
 70
     0
  9
$DIMTIH
 70
     1
  9
$DIMTOH
 70
     1
  9
$DIMSE1
 70
     0
  9
$DIMSE2
 70
     0
  9
$DIMTAD
 70
     0
  9
$DIMZIN
 70
     0
  9
$DIMBLK
  1

  9
$DIMASO
 70
     1
  9
$DIMSHO
 70
     1
  9
$DIMPOST
  1

  9
$DIMAPOST
  1

  9
$DIMALT
 70
     0
  9
$DIMALTD
 70
     2
  9
$DIMALTF
 40
25.4
  9
$DIMLFAC
 40
1.0
  9
$DIMTOFL
 70
     0
  9
$DIMTVP
 40
0.0
  9
$DIMTIX
 70
     0
  9
$DIMSOXD
 70
     0
  9
$DIMSAH
 70
     0
  9
$DIMBLK1
  1

  9
$DIMBLK2
  1

  9
$DIMSTYLE
  2
Standard
  9
$DIMCLRD
 70
     0
  9
$DIMCLRE
 70
     0
  9
$DIMCLRT
 70
     0
  9
$DIMTFAC
 40
1.0
  9
$DIMGAP
 40
0.09
  9
$DIMJUST
 70
     0
  9
$DIMSD1
 70
     0
  9
$DIMSD2
 70
     0
  9
$DIMTOLJ
 70
     1
  9
$DIMTZIN
 70
     0
  9
$DIMALTZ
 70
     0
  9
$DIMALTTZ
 70
     0
  9
$DIMUPT
 70
     0
  9
$DIMDEC
 70
     4
  9
$DIMTDEC
 70
     4
  9
$DIMALTU
 70
     2
  9
$DIMALTTD
 70
     2
  9
$DIMTXSTY
  7
Standard
  9
$DIMAUNIT
 70
     0
  9
$DIMADEC
 70
     0
  9
$DIMALTRND
 40
0.0
  9
$DIMAZIN
 70
     0
  9
$DIMDSEP
 70
    46
  9
$DIMATFIT
 70
     3
  9
$DIMFRAC
 70
     0
  9
$DIMLDRBLK
  1

  9
$DIMLUNIT
 70
     2
  9
$DIMLWD
 70
    -2
  9
$DIMLWE
 70
    -2
  9
$DIMTMOVE
 70
     0
  9
$LUNITS
 70
     2
  9
$LUPREC
 70
     4
  9
$SKETCHINC
 40
0.1
  9
$FILLETRAD
 40
0.5
  9
$AUNITS
 70
     0
  9
$AUPREC
 70
     0
  9
$MENU
  1
.
  9
$ELEVATION
 40
0.0
  9
$PELEVATION
 40
0.0
  9
$THICKNESS
 40
0.0
  9
$LIMCHECK
 70
     0
  9
$CHAMFERA
 40
0.5
  9
$CHAMFERB
 40
0.5
  9
$CHAMFERC
 40
1.0
  9
$CHAMFERD
 40
0.0
  9
$SKPOLY
 70
     0
  9
$TDCREATE
 40
2454721.598622106
  9
$TDUCREATE
 40
2454721.515288773
  9
$TDUPDATE
 40
2454721.598622118
  9
$TDUUPDATE
 40
2454721.515288785
  9
$TDINDWG
 40
0.0000000116
  9
$TDUSRTIMER
 40
0.0000000116
  9
$USRTIMER
 70
     1
  9
$ANGBASE
 50
0.0
  9
$ANGDIR
 70
     0
  9
$PDMODE
 70
     0
  9
$PDSIZE
 40
0.0
  9
$PLINEWID
 40
0.0
  9
$SPLFRAME
 70
     0
  9
$SPLINETYPE
 70
     6
  9
$SPLINESEGS
 70
     8
  9
$HANDSEED
  5
52E
  9
$SURFTAB1
 70
     6
  9
$SURFTAB2
 70
     6
  9
$SURFTYPE
 70
     6
  9
$SURFU
 70
     6
  9
$SURFV
 70
     6
  9
$UCSBASE
  2

  9
$UCSNAME
  2

  9
$UCSORG
 10
0.0
 20
0.0
 30
0.0
  9
$UCSXDIR
 10
1.0
 20
0.0
 30
0.0
  9
$UCSYDIR
 10
0.0
 20
1.0
 30
0.0
  9
$UCSORTHOREF
  2

  9
$UCSORTHOVIEW
 70
     0
  9
$UCSORGTOP
 10
0.0
 20
0.0
 30
0.0
  9
$UCSORGBOTTOM
 10
0.0
 20
0.0
 30
0.0
  9
$UCSORGLEFT
 10
0.0
 20
0.0
 30
0.0
  9
$UCSORGRIGHT
 10
0.0
 20
0.0
 30
0.0
  9
$UCSORGFRONT
 10
0.0
 20
0.0
 30
0.0
  9
$UCSORGBACK
 10
0.0
 20
0.0
 30
0.0
  9
$PUCSBASE
  2

  9
$PUCSNAME
  2

  9
$PUCSORG
 10
0.0
 20
0.0
 30
0.0
  9
$PUCSXDIR
 10
1.0
 20
0.0
 30
0.0
  9
$PUCSYDIR
 10
0.0
 20
1.0
 30
0.0
  9
$PUCSORTHOREF
  2

  9
$PUCSORTHOVIEW
 70
     0
  9
$PUCSORGTOP
 10
0.0
 20
0.0
 30
0.0
  9
$PUCSORGBOTTOM
 10
0.0
 20
0.0
 30
0.0
  9
$PUCSORGLEFT
 10
0.0
 20
0.0
 30
0.0
  9
$PUCSORGRIGHT
 10
0.0
 20
0.0
 30
0.0
  9
$PUCSORGFRONT
 10
0.0
 20
0.0
 30
0.0
  9
$PUCSORGBACK
 10
0.0
 20
0.0
 30
0.0
  9
$USERI1
 70
     0
  9
$USERI2
 70
     0
  9
$USERI3
 70
     0
  9
$USERI4
 70
     0
  9
$USERI5
 70
     0
  9
$USERR1
 40
15.5
  9
$USERR2
 40
0.0
  9
$USERR3
 40
0.0
  9
$USERR4
 40
0.0
  9
$USERR5
 40
0.0
  9
$WORLDVIEW
 70
     1
  9
$SHADEDGE
 70
     3
  9
$SHADEDIF
 70
    70
  9
$TILEMODE
 70
     1
  9
$MAXACTVP
 70
    64
  9
$PINSBASE
 10
0.0
 20
0.0
 30
0.0
  9
$PLIMCHECK
 70
     0
  9
$PEXTMIN
 10
1.00000000000000E+20
 20
1.00000000000000E+20
 30
1.00000000000000E+20
  9
$PEXTMAX
 10
-1.00000000000000E+20
 20
-1.00000000000000E+20
 30
-1.00000000000000E+20
  9
$PLIMMIN
 10
0.0
 20
0.0
  9
$PLIMMAX
 10
12.0
 20
9.0
  9
$UNITMODE
 70
     0
  9
$VISRETAIN
 70
     1
  9
$PLINEGEN
 70
     0
  9
$PSLTSCALE
 70
     1
  9
$TREEDEPTH
 70
  3020
  9
$CMLSTYLE
  2
Standard
  9
$CMLJUST
 70
     0
  9
$CMLSCALE
 40
1.0
  9
$PROXYGRAPHICS
 70
     1
  9
$MEASUREMENT
 70
     1
  9
$CELWEIGHT
370
    -1
  9
$ENDCAPS
280
     0
  9
$JOINSTYLE
280
     0
  9
$LWDISPLAY
290
     0
  9
$INSUNITS
 70
     1
  9
$HYPERLINKBASE
  1

  9
$STYLESHEET
  1

  9
$XEDIT
290
     1
  9
$CEPSNTYPE
380
     0
  9
$PSTYLEMODE
290
     1
  9
$FINGERPRINTGUID
  2
{1F6572F3-8B0B-457D-9045-9D52175EB1D9}
  9
$VERSIONGUID
  2
{FAEB1C32-E019-11D5-929B-00C0DF256EC4}
  9
$EXTNAMES
290
     1
  9
$PSVPSCALE
 40
0.0
  9
$OLESTARTUP
290
     0
  0
ENDSEC
  0
SECTION
  2
CLASSES
  0
CLASS
  1
ACDBDICTIONARYWDFLT
  2
AcDbDictionaryWithDefault
  3
ObjectDBX Classes
 90
        0
280
     0
281
     0
  0
CLASS
  1
VISUALSTYLE
  2
AcDbVisualStyle
  3
ObjectDBX Classes
 90
     4095
280
     0
281
     0
  0
CLASS
  1

  2
exOdDbCircle
  3

 90
        0
280
     0
281
     1
  0
CLASS
  1

  2
exOdDbPolyline
  3

 90
        0
280
     0
281
     1
  0
CLASS
  1
ACDBPLACEHOLDER
  2
AcDbPlaceHolder
  3
ObjectDBX Classes
 90
        0
280
     0
281
     0
  0
CLASS
  1
LAYOUT
  2
AcDbLayout
  3
ObjectDBX Classes
 90
        0
280
     0
281
     0
  0
ENDSEC
  0
SECTION
  2
TABLES
  0
TABLE
  2
VPORT
  5
8
330
0
100
AcDbSymbolTable
 70
     1
  0
VPORT
  5
29
330
8
100
AcDbSymbolTableRecord
100
AcDbViewportTableRecord
  2
*Active
 70
     0
 10
0.0
 20
0.0
 11
1.0
 21
1.0
 12
0.00025803207521
 22
-479.8480177601835
 13
0.0
 23
0.0
 14
0.5
 24
0.5
 15
0.5
 25
0.5
 16
0.0
 26
0.0
 36
1.0
 17
0.0
 27
0.0
 37
0.0
 40
1391.143026615658
 41
1.60267857142857
 42
50.0
 43
0.0
 44
0.0
 50
0.0
 51
0.0
 71
     0
 72
   100
 73
     1
 74
     3
 75
     0
 76
     0
 77
     0
 78
     0
281
     0
 65
     1
110
0.0
120
0.0
130
0.0
111
1.0
121
0.0
131
0.0
112
0.0
122
1.0
132
0.0
 79
     0
146
0.0
  0
ENDTAB
  0
TABLE
  2
LTYPE
  5
5
330
0
100
AcDbSymbolTable
 70
    10
  0
LTYPE
  5
14
330
5
100
AcDbSymbolTableRecord
100
AcDbLinetypeTableRecord
  2
ByBlock
 70
     0
  3

 72
    65
 73
     0
 40
0.0
  0
LTYPE
  5
15
330
5
100
AcDbSymbolTableRecord
100
AcDbLinetypeTableRecord
  2
ByLayer
 70
     0
  3

 72
    65
 73
     0
 40
0.0
  0
LTYPE
  5
16
330
5
100
AcDbSymbolTableRecord
100
AcDbLinetypeTableRecord
  2
Continuous
 70
     0
  3
Solid line
 72
    65
 73
     0
 40
0.0
  0
LTYPE
  5
3B
330
5
100
AcDbSymbolTableRecord
100
AcDbLinetypeTableRecord
  2
DASHED
 70
     0
  3
Dashed
 72
    65
 73
     2
 40
15.0
 49
7.0
 74
     0
 49
-8.0
 74
     0
  0
LTYPE
  5
3C
330
5
100
AcDbSymbolTableRecord
100
AcDbLinetypeTableRecord
  2
DOTTED
 70
     0
  3
Dotted
 72
    65
 73
     2
 40
1.0
 49
0.0
 74
     0
 49
-1.0
 74
     0
  0
LTYPE
  5
3D
330
5
100
AcDbSymbolTableRecord
100
AcDbLinetypeTableRecord
  2
DOT_CENTER
 70
     0
  3
Dot_Center
 72
    65
 73
     4
 40
14.0
 49
12.0
 74
     0
 49
-1.0
 74
     0
 49
0.0
 74
     0
 49
-1.0
 74
     0
  0
LTYPE
  5
3E
330
5
100
AcDbSymbolTableRecord
100
AcDbLinetypeTableRecord
  2
LONG_DASHED
 70
     0
  3
Long_Dashed
 72
    65
 73
     2
 40
15.0
 49
10.0
 74
     0
 49
-5.0
 74
     0
  0
LTYPE
  5
3F
330
5
100
AcDbSymbolTableRecord
100
AcDbLinetypeTableRecord
  2
DASH_CENTER
 70
     0
  3
Dash_Center
 72
    65
 73
     4
 40
14.0
 49
11.0
 74
     0
 49
-1.0
 74
     0
 49
1.0
 74
     0
 49
-1.0
 74
     0
  0
LTYPE
  5
40
330
5
100
AcDbSymbolTableRecord
100
AcDbLinetypeTableRecord
  2
PHANTOM
 70
     0
  3
Phantom
 72
    65
 73
     6
 40
13.0
 49
10.0
 74
     0
 49
-1.0
 74
     0
 49
0.0
 74
     0
 49
-1.0
 74
     0
 49
0.0
 74
     0
 49
-1.0
 74
     0
  0
LTYPE
  5
41
330
5
100
AcDbSymbolTableRecord
100
AcDbLinetypeTableRecord
  2
CENTER_DASH_DASH
 70
     0
  3
Center_Dash_Dash
 72
    65
 73
     6
 40
14.0
 49
9.0
 74
     0
 49
-1.0
 74
     0
 49
1.0
 74
     0
 49
-1.0
 74
     0
 49
1.0
 74
     0
 49
-1.0
 74
     0
  0
LTYPE
  5
42
330
5
100
AcDbSymbolTableRecord
100
AcDbLinetypeTableRecord
  2
DASHDOT
 70
     0
  3
DASHDOT
 72
    65
 73
     4
 40
16.0
 49
10.0
 74
     0
 49
-3.0
 74
     0
 49
0.0
 74
     0
 49
-3.0
 74
     0
  0
LTYPE
  5
43
330
5
100
AcDbSymbolTableRecord
100
AcDbLinetypeTableRecord
  2
CENTER
 70
     0
  3
CENTER
 72
    65
 73
     4
 40
16.0
 49
10.0
 74
     0
 49
-3.0
 74
     0
 49
0.0
 74
     0
 49
-3.0
 74
     0
  0
ENDTAB
  0
TABLE
  2
LAYER
  5
2
330
0
100
AcDbSymbolTable
 70
    14
  0
LAYER
  5
10
330
2
100
AcDbSymbolTableRecord
100
AcDbLayerTableRecord
  2
0
 70
     0
 62
     7
  6
Continuous
370
    -3
390
F
  0
LAYER
  5
44
330
2
100
AcDbSymbolTableRecord
100
AcDbLayerTableRecord
  2
1
 70
     0
 62
     7
  6
Continuous
370
    -3
390
F
  0
LAYER
  5
45
330
2
100
AcDbSymbolTableRecord
100
AcDbLayerTableRecord
  2
LC-001-002-----0
 70
     0
 62
     7
  6
Continuous
370
    -3
390
F
  0
LAYER
  5
46
330
2
100
AcDbSymbolTableRecord
100
AcDbLayerTableRecord
  2
LC-001-002-RND-0
 70
     0
 62
     7
  6
Continuous
370
    -3
390
F
  0
LAYER
  5
47
330
2
100
AcDbSymbolTableRecord
100
AcDbLayerTableRecord
  2
LC-002-002-----0
 70
     0
 62
     7
  6
Continuous
370
    -3
390
F
  0
LAYER
  5
48
330
2
100
AcDbSymbolTableRecord
100
AcDbLayerTableRecord
  2
LC-002-002-RND-0
 70
     0
 62
     7
  6
Continuous
370
    -3
390
F
  0
LAYER
  5
49
330
2
100
AcDbSymbolTableRecord
100
AcDbLayerTableRecord
  2
LC-003-002-----0
 70
     0
 62
     7
  6
Continuous
370
    -3
390
F
  0
LAYER
  5
4A
330
2
100
AcDbSymbolTableRecord
100
AcDbLayerTableRecord
  2
LC-004-003-----0
 70
     0
 62
     7
  6
Continuous
370
    -3
390
F
  0
LAYER
  5
4B
330
2
100
AcDbSymbolTableRecord
100
AcDbLayerTableRecord
  2
LC-004-006-MLN-0
 70
     0
 62
     7
  6
Continuous
370
    -3
390
F
  0
LAYER
  5
4C
330
2
100
AcDbSymbolTableRecord
100
AcDbLayerTableRecord
  2
LC-005-002-----0
 70
     0
 62
     7
  6
Continuous
370
    -3
390
F
  0
LAYER
  5
4D
330
2
100
AcDbSymbolTableRecord
100
AcDbLayerTableRecord
  2
LC-005-003-----0
 70
     0
 62
     7
  6
Continuous
370
    -3
390
F
  0
LAYER
  5
4E
330
2
100
AcDbSymbolTableRecord
100
AcDbLayerTableRecord
  2
LC-006-003-----0
 70
     0
 62
     7
  6
Continuous
370
    -3
390
F
  0
LAYER
  5
4F
330
2
100
AcDbSymbolTableRecord
100
AcDbLayerTableRecord
  2
LC-006-005-----0
 70
     0
 62
     7
  6
Continuous
370
    -3
390
F
  0
LAYER
  5
50
330
2
100
AcDbSymbolTableRecord
100
AcDbLayerTableRecord
  2
LC-009-002-RND-0
 70
     0
 62
     7
  6
Continuous
370
    -3
390
F
  0
ENDTAB
  0
TABLE
  2
STYLE
  5
3
330
0
100
AcDbSymbolTable
 70
     2
  0
STYLE
  5
11
330
3
100
AcDbSymbolTableRecord
100
AcDbTextStyleTableRecord
  2
Standard
 70
     0
 40
0.0
 41
1.0
 50
0.0
 71
     0
 42
0.2
  3
txt
  4

  0
STYLE
  5
4E4
330
3
100
AcDbSymbolTableRecord
100
AcDbTextStyleTableRecord
  2
CONVERTER_11
 70
     0
 40
0.0
 41
0.9
 50
0.0
 71
     0
 42
0.2
  3
txt.shx
  4

  0
ENDTAB
  0
TABLE
  2
VIEW
  5
6
330
0
100
AcDbSymbolTable
 70
     0
  0
ENDTAB
  0
TABLE
  2
UCS
  5
7
330
0
100
AcDbSymbolTable
 70
     0
  0
ENDTAB
  0
TABLE
  2
APPID
  5
9
330
0
100
AcDbSymbolTable
 70
     1
  0
APPID
  5
12
330
9
100
AcDbSymbolTableRecord
100
AcDbRegAppTableRecord
  2
ACAD
 70
     0
  0
ENDTAB
  0
TABLE
  2
DIMSTYLE
  5
A
330
0
100
AcDbSymbolTable
 70
     8
100
AcDbDimStyleTable
  0
DIMSTYLE
105
27
330
A
100
AcDbSymbolTableRecord
100
AcDbDimStyleTableRecord
  2
Standard
 70
     0
340
11
  0
DIMSTYLE
105
4E8
102
{ACAD_REACTORS
330
4E9
102
}
330
A
100
AcDbSymbolTableRecord
100
AcDbDimStyleTableRecord
  2
ME10_DIM_10
 70
     0
 41
12.0
 42
0.0
 44
2.0
 73
     0
 74
     0
 77
     1
 78
     8
140
12.0
147
2.0
172
     1
173
     1
176
     4
177
     4
178
     1
271
     2
340
4E4
  0
DIMSTYLE
105
4F4
102
{ACAD_REACTORS
330
4F5
102
}
330
A
100
AcDbSymbolTableRecord
100
AcDbDimStyleTableRecord
  2
ME10_DIM_11
 70
     0
  3
Ø<>
 41
14.0
 42
0.0
 44
2.0
 73
     0
 74
     0
 77
     1
 78
     8
140
14.0
147
2.0
172
     1
173
     1
176
     4
177
     4
178
     1
271
     2
340
4E4
  0
DIMSTYLE
105
4FF
102
{ACAD_REACTORS
330
500
102
}
330
A
100
AcDbSymbolTableRecord
100
AcDbDimStyleTableRecord
  2
ME10_DIM_12
 70
     0
  3
DN<>
 41
14.0
 42
0.0
 44
2.0
 73
     0
 74
     0
 77
     1
 78
     8
140
14.0
147
2.0
172
     1
173
     1
176
     4
177
     4
178
     1
271
     2
340
4E4
  0
DIMSTYLE
105
50A
102
{ACAD_REACTORS
330
50B
102
}
330
A
100
AcDbSymbolTableRecord
100
AcDbDimStyleTableRecord
  2
ME10_DIM_13
 70
     0
  3
Ø<>
 41
14.0
 42
0.0
 44
2.0
 73
     0
 74
     0
 77
     1
 78
     8
140
14.0
147
2.0
172
     1
173
     1
176
     4
177
     4
178
     1
271
     2
340
4E4
  0
DIMSTYLE
105
515
102
{ACAD_REACTORS
330
516
102
}
330
A
100
AcDbSymbolTableRecord
100
AcDbDimStyleTableRecord
  2
ME10_DIM_14
 70
     0
 41
14.0
 42
0.0
 44
2.0
 73
     0
 74
     0
 77
     1
 78
     8
140
14.0
147
2.0
172
     1
173
     1
176
     4
177
     4
178
     1
271
     2
340
4E4
  0
DIMSTYLE
105
520
102
{ACAD_REACTORS
330
521
102
}
330
A
100
AcDbSymbolTableRecord
100
AcDbDimStyleTableRecord
  2
ME10_DIM_15
 70
     0
 41
14.0
 42
0.0
 44
2.0
 73
     0
 74
     0
 77
     1
 78
     8
140
14.0
147
2.0
172
     1
173
     1
176
     4
177
     4
178
     1
271
     2
340
4E4
  0
DIMSTYLE
105
52B
102
{ACAD_REACTORS
330
52C
102
}
330
A
100
AcDbSymbolTableRecord
100
AcDbDimStyleTableRecord
  2
ME10_DIM_16
 70
     0
 41
14.0
 42
0.0
 44
2.0
 73
     0
 74
     0
 77
     1
 78
     8
140
14.0
147
2.0
172
     1
173
     1
176
     4
177
     4
178
     1
271
     2
340
4E4
  0
ENDTAB
  0
TABLE
  2
BLOCK_RECORD
  5
1
330
0
100
AcDbSymbolTable
 70
    15
  0
BLOCK_RECORD
  5
1F
330
1
100
AcDbSymbolTableRecord
100
AcDbBlockTableRecord
  2
*Model_Space
340
22
  0
BLOCK_RECORD
  5
1B
330
1
100
AcDbSymbolTableRecord
100
AcDbBlockTableRecord
  2
*Paper_Space
340
1E
  0
BLOCK_RECORD
  5
23
330
1
100
AcDbSymbolTableRecord
100
AcDbBlockTableRecord
  2
*Paper_Space0
340
26
  0
BLOCK_RECORD
  5
51
330
1
100
AcDbSymbolTableRecord
100
AcDbBlockTableRecord
  2
Draufsicht
340
0
102
{BLKREFS
331
68
102
}
  0
BLOCK_RECORD
  5
54
330
1
100
AcDbSymbolTableRecord
100
AcDbBlockTableRecord
  2
Schraube
340
0
102
{BLKREFS
331
69
102
}
  0
BLOCK_RECORD
  5
57
330
1
100
AcDbSymbolTableRecord
100
AcDbBlockTableRecord
  2
TOP__1
340
0
102
{BLKREFS
331
6A
102
}
  0
BLOCK_RECORD
  5
5A
330
1
100
AcDbSymbolTableRecord
100
AcDbBlockTableRecord
  2
TOP__2
340
0
102
{BLKREFS
331
6B
102
}
  0
BLOCK_RECORD
  5
5D
330
1
100
AcDbSymbolTableRecord
100
AcDbBlockTableRecord
  2
062B_2E_Aufsatzrahmen
340
0
102
{BLKREFS
331
61
102
}
  0
BLOCK_RECORD
  5
60
330
1
100
AcDbSymbolTableRecord
100
AcDbBlockTableRecord
  2
HL_66_0_Aufsatzrahmen
340
0
102
{BLKREFS
331
65
102
}
  0
BLOCK_RECORD
  5
64
330
1
100
AcDbSymbolTableRecord
100
AcDbBlockTableRecord
  2
HL_62BH_1_DN110_Dachablauf
340
0
102
{BLKREFS
331
6C
102
}
  0
BLOCK_RECORD
  5
4DE
330
1
100
AcDbSymbolTableRecord
100
AcDbBlockTableRecord
  2
*D8
340
0
  0
BLOCK_RECORD
  5
4EA
330
1
100
AcDbSymbolTableRecord
100
AcDbBlockTableRecord
  2
*D9
340
0
  0
BLOCK_RECORD
  5
4F6
330
1
100
AcDbSymbolTableRecord
100
AcDbBlockTableRecord
  2
*D10
340
0
  0
BLOCK_RECORD
  5
501
330
1
100
AcDbSymbolTableRecord
100
AcDbBlockTableRecord
  2
*D11
340
0
  0
BLOCK_RECORD
  5
50C
330
1
100
AcDbSymbolTableRecord
100
AcDbBlockTableRecord
  2
*D12
340
0
  0
BLOCK_RECORD
  5
517
330
1
100
AcDbSymbolTableRecord
100
AcDbBlockTableRecord
  2
*D13
340
0
  0
BLOCK_RECORD
  5
522
330
1
100
AcDbSymbolTableRecord
100
AcDbBlockTableRecord
  2
*D14
340
0
  0
ENDTAB
  0
ENDSEC
  0
SECTION
  2
BLOCKS
  0
BLOCK
  5
20
330
1F
100
AcDbEntity
  8
0
100
AcDbBlockBegin
  2
*Model_Space
 70
     0
 71
     0
 10
0.0
 20
0.0
 30
0.0
  3
*Model_Space
  1

  0
ENDBLK
  5
21
330
1F
100
AcDbEntity
  8
0
100
AcDbBlockEnd
  0
BLOCK
  5
1C
330
1B
100
AcDbEntity
 67
     1
  8
0
100
AcDbBlockBegin
  2
*Paper_Space
 70
     0
 71
     0
 10
0.0
 20
0.0
 30
0.0
  3
*Paper_Space
  1

  0
ENDBLK
  5
1D
330
1B
100
AcDbEntity
 67
     1
  8
0
100
AcDbBlockEnd
  0
BLOCK
  5
24
330
23
100
AcDbEntity
  8
0
100
AcDbBlockBegin
  2
*Paper_Space0
 70
     0
 71
     0
 10
0.0
 20
0.0
 30
0.0
  3
*Paper_Space0
  1

  0
ENDBLK
  5
25
330
23
100
AcDbEntity
  8
0
100
AcDbBlockEnd
  0
BLOCK
  5
52
330
51
100
AcDbEntity
  8
0
100
AcDbBlockBegin
  2
Draufsicht
 70
     0
 71
     0
 10
-182.1042262227247
 20
-1039.185757130937
 30
0.0
  3
Draufsicht
  1

  0
LINE
  5
6D
330
51
100
AcDbEntity
  8
0
  6
Continuous
 62
     3
100
AcDbLine
 10
-68.9777419679258
 20
-927.3737571309375
 30
0.0
 11
-66.4777419679258
 21
-927.3737571309375
 31
0.0
  0
LINE
  5
6E
330
51
100
AcDbEntity
  8
0
  6
Continuous
 62
     3
100
AcDbLine
 10
-65.18774196792492
 20
-928.6637571309384
 30
0.0
 11
-65.18774196792492
 21
-931.1637571309348
 31
0.0
  0
LINE
  5
6F
330
51
100
AcDbEntity
  8
0
  6
Continuous
 62
     3
100
AcDbLine
 10
-66.09990971565549
 20
-928.2859248786681
 30
0.0
 11
-67.86767666862124
 21
-930.0536918316338
 31
0.0
  0
LINE
  5
70
330
51
100
AcDbEntity
  8
0
  6
Continuous
 62
     3
100
AcDbLine
 10
66.47825803207616
 20
-927.3737571309375
 30
0.0
 11
68.97825803207616
 21
-927.3737571309375
 31
0.0
  0
LINE
  5
71
330
51
100
AcDbEntity
  8
0
  6
Continuous
 62
     3
100
AcDbLine
 10
66.10042577980585
 20
-928.2859248786681
 30
0.0
 11
67.8681927327716
 21
-930.0536918316338
 31
0.0
  0
LINE
  5
72
330
51
100
AcDbEntity
  8
0
  6
Continuous
 62
     3
100
AcDbLine
 10
65.18825803207528
 20
-931.1637571309384
 30
0.0
 11
65.18825803207528
 21
-928.6637571309384
 31
0.0
  0
LINE
  5
73
330
51
100
AcDbEntity
  8
0
  6
Continuous
 62
     7
100
AcDbLine
 10
59.47825803210162
 20
-902.6857571309647
 30
0.0
 11
59.47825803209798
 21
-821.6857571309647
 31
0.0
  0
LINE
  5
74
330
51
100
AcDbEntity
  8
0
  6
Continuous
 62
     7
100
AcDbLine
 10
52.47825803210162
 20
-821.6857571309647
 30
0.0
 11
52.47825803209798
 21
-902.6857571309647
 31
0.0
  0
LINE
  5
75
330
51
100
AcDbEntity
  8
0
  6
Continuous
 62
     3
100
AcDbLine
 10
65.18825803207528
 20
-793.2077571309364
 30
0.0
 11
65.18825803207528
 21
-795.7077571309364
 31
0.0
  0
LINE
  5
76
330
51
100
AcDbEntity
  8
0
  6
Continuous
 62
     3
100
AcDbLine
 10
68.97825803207616
 20
-796.9977571309373
 30
0.0
 11
66.47825803207616
 21
-796.9977571309373
 31
0.0
  0
LINE
  5
77
330
51
100
AcDbEntity
  8
0
  6
Continuous
 62
     3
100
AcDbLine
 10
66.10042577980585
 20
-796.0855893832068
 30
0.0
 11
67.8681927327716
 21
-794.317822430241
 31
0.0
  0
LINE
  5
78
330
51
100
AcDbEntity
  8
0
  6
Continuous
 62
     3
100
AcDbLine
 10
-66.4777419679258
 20
-796.9977571309373
 30
0.0
 11
-68.9777419679258
 21
-796.9977571309373
 31
0.0
  0
LINE
  5
79
330
51
100
AcDbEntity
  8
0
  6
Continuous
 62
     3
100
AcDbLine
 10
-65.18774196792492
 20
-793.2077571309364
 30
0.0
 11
-65.18774196792492
 21
-795.7077571309364
 31
0.0
  0
LINE
  5
7A
330
51
100
AcDbEntity
  8
0
  6
Continuous
 62
     3
100
AcDbLine
 10
-66.09990971565549
 20
-796.0855893832068
 30
0.0
 11
-67.86767666862124
 21
-794.317822430241
 31
0.0
  0
LINE
  5
7B
330
51
100
AcDbEntity
  8
0
  6
Continuous
 62
     7
100
AcDbLine
 10
-65.18774196792492
 20
-793.2077571309364
 30
0.0
 11
65.18825803207528
 21
-793.2077571309364
 31
0.0
  0
LINE
  5
7C
330
51
100
AcDbEntity
  8
0
  6
Continuous
 62
     3
100
AcDbLine
 10
-40.49974196791936
 20
-800.2077571309364
 30
0.0
 11
40.50025803208064
 21
-800.2077571309364
 31
0.0
  0
LINE
  5
7D
330
51
100
AcDbEntity
  8
0
  6
Continuous
 62
     7
100
AcDbLine
 10
-40.49974196791936
 20
-809.7077571309364
 30
0.0
 11
40.50025803208064
 21
-809.7077571309364
 31
0.0
  0
LINE
  5
7E
330
51
100
AcDbEntity
  8
0
  6
Continuous
 62
     7
100
AcDbLine
 10
40.50025803208064
 20
-802.7077571309364
 30
0.0
 11
-40.49974196791936
 21
-802.7077571309364
 31
0.0
  0
LINE
  5
7F
330
51
100
AcDbEntity
  8
0
  6
Continuous
 62
     3
100
AcDbLine
 10
24.500258032077
 20
-816.2077571309364
 30
0.0
 11
24.500258032077
 21
-818.7077571309292
 31
0.0
  0
LINE
  5
80
330
51
100
AcDbEntity
  8
0
  6
Continuous
 62
     3
100
AcDbLine
 10
40.50025803208064
 20
-800.2077571309364
 30
0.0
 11
40.50025803208064
 21
-802.7077571309364
 31
0.0
  0
LINE
  5
81
330
51
100
AcDbEntity
  8
0
  6
Continuous
 62
     3
100
AcDbLine
 10
14.500258032077
 20
-838.2077571309364
 30
0.0
 11
12.000258032077
 21
-838.2077571309364
 31
0.0
  0
LINE
  5
82
330
51
100
AcDbEntity
  8
0
  6
Continuous
 62
     3
100
AcDbLine
 10
8.500258032077
 20
-832.2077571309364
 30
0.0
 11
8.500258032077
 21
-834.7077571309328
 31
0.0
  0
LINE
  5
83
330
51
100
AcDbEntity
  8
0
  6
Continuous
 62
     3
100
AcDbLine
 10
-40.49974196791936
 20
-800.2077571309364
 30
0.0
 11
-40.49974196791936
 21
-802.7077571309364
 31
0.0
  0
LINE
  5
84
330
51
100
AcDbEntity
  8
0
  6
Continuous
 62
     7
100
AcDbLine
 10
24.500258032077
 20
-818.7077571309292
 30
0.0
 11
-24.499741967923
 21
-818.7077571309364
 31
0.0
  0
LINE
  5
85
330
51
100
AcDbEntity
  8
0
  6
Continuous
 62
     7
100
AcDbLine
 10
8.500258032077
 20
-834.7077571309328
 30
0.0
 11
-8.499741967923
 21
-834.7077571309364
 31
0.0
  0
LINE
  5
86
330
51
100
AcDbEntity
  8
0
  6
Continuous
 62
     3
100
AcDbLine
 10
8.500258032077
 20
-841.7077571309364
 30
0.0
 11
8.500258032077
 21
-844.2077571309364
 31
0.0
  0
LINE
  5
87
330
51
100
AcDbEntity
  8
0
  6
Continuous
 62
     3
100
AcDbLine
 10
-8.499741967923
 20
-834.7077571309364
 30
0.0
 11
-8.499741967923
 21
-832.2077571309364
 31
0.0
  0
LINE
  5
88
330
51
100
AcDbEntity
  8
0
  6
Continuous
 62
     3
100
AcDbLine
 10
30.500258032077
 20
-822.2077571309364
 30
0.0
 11
28.000258032077
 21
-822.2077571309364
 31
0.0
  0
LINE
  5
89
330
51
100
AcDbEntity
  8
0
  6
Continuous
 62
     3
100
AcDbLine
 10
24.500258032077
 20
-825.7077571309364
 30
0.0
 11
24.500258032077
 21
-828.2077571309364
 31
0.0
  0
LINE
  5
8A
330
51
100
AcDbEntity
  8
0
  6
Continuous
 62
     3
100
AcDbLine
 10
-24.499741967923
 20
-816.2077571309364
 30
0.0
 11
24.500258032077
 21
-816.2077571309364
 31
0.0
  0
LINE
  5
8B
330
51
100
AcDbEntity
  8
0
  6
Continuous
 62
     3
100
AcDbLine
 10
-8.499741967923
 20
-832.2077571309364
 30
0.0
 11
8.500258032077
 21
-832.2077571309364
 31
0.0
  0
LINE
  5
8C
330
51
100
AcDbEntity
  8
0
  6
Continuous
 62
     3
100
AcDbLine
 10
-24.499741967923
 20
-818.7077571309364
 30
0.0
 11
-24.499741967923
 21
-816.2077571309364
 31
0.0
  0
LINE
  5
8D
330
51
100
AcDbEntity
  8
0
  6
Continuous
 62
     3
100
AcDbLine
 10
-46.49974196791936
 20
-806.2077571309364
 30
0.0
 11
-43.99974196791936
 21
-806.2077571309364
 31
0.0
  0
LINE
  5
8E
330
51
100
AcDbEntity
  8
0
  6
Continuous
 62
     3
100
AcDbLine
 10
46.50025803208064
 20
-806.2077571309364
 30
0.0
 11
44.00025803208064
 21
-806.2077571309364
 31
0.0
  0
LINE
  5
8F
330
51
100
AcDbEntity
  8
0
  6
Continuous
 62
     3
100
AcDbLine
 10
40.50025803208064
 20
-812.2077571309364
 30
0.0
 11
40.50025803208064
 21
-809.7077571309364
 31
0.0
  0
LINE
  5
90
330
51
100
AcDbEntity
  8
0
  6
Continuous
 62
     3
100
AcDbLine
 10
40.50025803208064
 20
-812.2077571309364
 30
0.0
 11
-40.49974196791936
 21
-812.2077571309364
 31
0.0
  0
LINE
  5
91
330
51
100
AcDbEntity
  8
0
  6
Continuous
 62
     3
100
AcDbLine
 10
-40.49974196791936
 20
-809.7077571309364
 30
0.0
 11
-40.49974196791936
 21
-812.2077571309364
 31
0.0
  0
LINE
  5
92
330
51
100
AcDbEntity
  8
0
  6
Continuous
 62
     7
100
AcDbLine
 10
-24.499741967923
 20
-825.7077571309364
 30
0.0
 11
24.500258032077
 21
-825.7077571309364
 31
0.0
  0
LINE
  5
93
330
51
100
AcDbEntity
  8
0
  6
Continuous
 62
     3
100
AcDbLine
 10
-30.499741967923
 20
-822.2077571309364
 30
0.0
 11
-27.999741967923
 21
-822.2077571309364
 31
0.0
  0
LINE
  5
94
330
51
100
AcDbEntity
  8
0
  6
Continuous
 62
     3
100
AcDbLine
 10
17.97825803209798
 20
-853.6857571309611
 30
0.0
 11
20.47825803209435
 21
-853.6857571309611
 31
0.0
  0
LINE
  5
95
330
51
100
AcDbEntity
  8
0
  6
Continuous
 62
     3
100
AcDbLine
 10
23.97825803209798
 20
-847.6857571309611
 30
0.0
 11
23.97825803209798
 21
-850.1857571309611
 31
0.0
  0
LINE
  5
96
330
51
100
AcDbEntity
  8
0
  6
Continuous
 62
     3
100
AcDbLine
 10
-66.4777419679258
 20
-796.9977571309373
 30
0.0
 11
-66.4777419679258
 21
-927.3737571309375
 31
0.0
  0
LINE
  5
97
330
51
100
AcDbEntity
  8
0
  6
Continuous
 62
     7
100
AcDbLine
 10
-68.9777419679258
 20
-927.3737571309375
 30
0.0
 11
-68.9777419679258
 21
-796.9977571309373
 31
0.0
  0
LINE
  5
98
330
51
100
AcDbEntity
  8
0
  6
Continuous
 62
     3
100
AcDbLine
 10
-49.97774196794762
 20
-902.6857571309538
 30
0.0
 11
-52.47774196794762
 21
-902.6857571309538
 31
0.0
  0
LINE
  5
99
330
51
100
AcDbEntity
  8
0
  6
Continuous
 62
     3
100
AcDbLine
 10
-61.97774196794762
 20
-902.6857571309538
 30
0.0
 11
-59.47774196794762
 21
-902.6857571309538
 31
0.0
  0
LINE
  5
9A
330
51
100
AcDbEntity
  8
0
  6
Continuous
 62
     3
100
AcDbLine
 10
-55.97774196794762
 20
-908.6857571309538
 30
0.0
 11
-55.97774196794762
 21
-906.1857571309538
 31
0.0
  0
LINE
  5
9B
330
51
100
AcDbEntity
  8
0
  6
Continuous
 62
     3
100
AcDbLine
 10
-23.97774196794762
 20
-876.6857571309574
 30
0.0
 11
-23.97774196794762
 21
-874.1857571309574
 31
0.0
  0
LINE
  5
9C
330
51
100
AcDbEntity
  8
0
  6
Continuous
 62
     3
100
AcDbLine
 10
-61.97774196794762
 20
-821.6857571309538
 30
0.0
 11
-59.47774196794762
 21
-821.6857571309538
 31
0.0
  0
LINE
  5
9D
330
51
100
AcDbEntity
  8
0
  6
Continuous
 62
     3
100
AcDbLine
 10
-52.47774196794762
 20
-821.6857571309538
 30
0.0
 11
-49.97774196794762
 21
-821.6857571309538
 31
0.0
  0
LINE
  5
9E
330
51
100
AcDbEntity
  8
0
  6
Continuous
 62
     3
100
AcDbLine
 10
-55.97774196794762
 20
-815.6857571309538
 30
0.0
 11
-55.97774196794762
 21
-818.1857571309538
 31
0.0
  0
LINE
  5
9F
330
51
100
AcDbEntity
  8
0
  6
Continuous
 62
     3
100
AcDbLine
 10
-49.97774196794762
 20
-821.6857571309538
 30
0.0
 11
-49.97774196794762
 21
-902.6857571309538
 31
0.0
  0
LINE
  5
A0
330
51
100
AcDbEntity
  8
0
  6
Continuous
 62
     7
100
AcDbLine
 10
-59.47774196794762
 20
-821.6857571309538
 30
0.0
 11
-59.47774196794762
 21
-902.6857571309538
 31
0.0
  0
LINE
  5
A1
330
51
100
AcDbEntity
  8
0
  6
Continuous
 62
     3
100
AcDbLine
 10
-61.97774196794762
 20
-902.6857571309538
 30
0.0
 11
-61.97774196794762
 21
-821.6857571309538
 31
0.0
  0
LINE
  5
A2
330
51
100
AcDbEntity
  8
0
  6
Continuous
 62
     3
100
AcDbLine
 10
-39.97774196794762
 20
-831.6857571309538
 30
0.0
 11
-39.97774196794762
 21
-834.1857571309538
 31
0.0
  0
LINE
  5
A3
330
51
100
AcDbEntity
  8
0
  6
Continuous
 62
     3
100
AcDbLine
 10
-45.97774196794762
 20
-886.6857571309538
 30
0.0
 11
-45.97774196794762
 21
-837.6857571309538
 31
0.0
  0
LINE
  5
A4
330
51
100
AcDbEntity
  8
0
  6
Continuous
 62
     3
100
AcDbLine
 10
-33.97774196794762
 20
-837.6857571309538
 30
0.0
 11
-36.47774196794762
 21
-837.6857571309538
 31
0.0
  0
LINE
  5
A5
330
51
100
AcDbEntity
  8
0
  6
Continuous
 62
     3
100
AcDbLine
 10
-29.97774196794762
 20
-853.6857571309574
 30
0.0
 11
-27.47774196794762
 21
-853.6857571309574
 31
0.0
  0
LINE
  5
A6
330
51
100
AcDbEntity
  8
0
  6
Continuous
 62
     3
100
AcDbLine
 10
-23.97774196794762
 20
-847.6857571309574
 30
0.0
 11
-23.97774196794762
 21
-850.1857571309574
 31
0.0
  0
LINE
  5
A7
330
51
100
AcDbEntity
  8
0
  6
Continuous
 62
     7
100
AcDbLine
 10
-43.47774196795126
 20
-837.6857571309538
 30
0.0
 11
-43.47774196794762
 21
-886.6857571309538
 31
0.0
  0
LINE
  5
A8
330
51
100
AcDbEntity
  8
0
  6
Continuous
 62
     3
100
AcDbLine
 10
-29.97774196794762
 20
-870.6857571309574
 30
0.0
 11
-29.97774196794762
 21
-853.6857571309574
 31
0.0
  0
LINE
  5
A9
330
51
100
AcDbEntity
  8
0
  6
Continuous
 62
     3
100
AcDbLine
 10
-17.97774196794762
 20
-853.6857571309574
 30
0.0
 11
-20.47774196794762
 21
-853.6857571309574
 31
0.0
  0
LINE
  5
AA
330
51
100
AcDbEntity
  8
0
  6
Continuous
 62
     3
100
AcDbLine
 10
-45.97774196794762
 20
-886.6857571309538
 30
0.0
 11
-43.47774196794762
 21
-886.6857571309538
 31
0.0
  0
LINE
  5
AB
330
51
100
AcDbEntity
  8
0
  6
Continuous
 62
     3
100
AcDbLine
 10
-45.97774196794762
 20
-837.6857571309538
 30
0.0
 11
-43.47774196795126
 21
-837.6857571309538
 31
0.0
  0
LINE
  5
AC
330
51
100
AcDbEntity
  8
0
  6
Continuous
 62
     7
100
AcDbLine
 10
-52.47774196794762
 20
-902.6857571309538
 30
0.0
 11
-52.47774196794762
 21
-821.6857571309538
 31
0.0
  0
LINE
  5
AD
330
51
100
AcDbEntity
  8
0
  6
Continuous
 62
     3
100
AcDbLine
 10
-29.97774196794762
 20
-870.6857571309574
 30
0.0
 11
-27.47774196794762
 21
-870.6857571309574
 31
0.0
  0
LINE
  5
AE
330
51
100
AcDbEntity
  8
0
  6
Continuous
 62
     7
100
AcDbLine
 10
-27.47774196794762
 20
-853.6857571309574
 30
0.0
 11
-27.47774196794762
 21
-870.6857571309574
 31
0.0
  0
LINE
  5
AF
330
51
100
AcDbEntity
  8
0
  6
Continuous
 62
     3
100
AcDbLine
 10
-39.97774196794762
 20
-892.6857571309538
 30
0.0
 11
-39.97774196794762
 21
-890.1857571309538
 31
0.0
  0
LINE
  5
B0
330
51
100
AcDbEntity
  8
0
  6
Continuous
 62
     7
100
AcDbLine
 10
-36.47774196795126
 20
-886.6857571309538
 30
0.0
 11
-36.47774196794762
 21
-837.6857571309538
 31
0.0
  0
LINE
  5
B1
330
51
100
AcDbEntity
  8
0
  6
Continuous
 62
     3
100
AcDbLine
 10
-33.97774196794762
 20
-837.6857571309538
 30
0.0
 11
-33.97774196794762
 21
-886.6857571309538
 31
0.0
  0
LINE
  5
B2
330
51
100
AcDbEntity
  8
0
  6
Continuous
 62
     3
100
AcDbLine
 10
-33.97774196794762
 20
-886.6857571309538
 30
0.0
 11
-36.47774196795126
 21
-886.6857571309538
 31
0.0
  0
LINE
  5
B3
330
51
100
AcDbEntity
  8
0
  6
Continuous
 62
     3
100
AcDbLine
 10
-14.499741967923
 20
-838.2077571309364
 30
0.0
 11
-11.999741967923
 21
-838.2077571309364
 31
0.0
  0
LINE
  5
B4
330
51
100
AcDbEntity
  8
0
  6
Continuous
 62
     3
100
AcDbLine
 10
-8.499741967923
 20
-844.2077571309364
 30
0.0
 11
-8.499741967923
 21
-841.7077571309364
 31
0.0
  0
LINE
  5
B5
330
51
100
AcDbEntity
  8
0
  6
Continuous
 62
     7
100
AcDbLine
 10
-20.47774196794762
 20
-870.6857571309574
 30
0.0
 11
-20.47774196794762
 21
-853.6857571309574
 31
0.0
  0
LINE
  5
B6
330
51
100
AcDbEntity
  8
0
  6
Continuous
 62
     3
100
AcDbLine
 10
-17.97774196794762
 20
-853.6857571309574
 30
0.0
 11
-17.97774196794762
 21
-870.6857571309574
 31
0.0
  0
LINE
  5
B7
330
51
100
AcDbEntity
  8
0
  6
Continuous
 62
     3
100
AcDbLine
 10
-17.97774196794762
 20
-870.6857571309574
 30
0.0
 11
-20.47774196794762
 21
-870.6857571309574
 31
0.0
  0
LINE
  5
B8
330
51
100
AcDbEntity
  8
0
  6
Continuous
 62
     3
100
AcDbLine
 10
-24.499741967923
 20
-828.2077571309364
 30
0.0
 11
-24.499741967923
 21
-825.7077571309364
 31
0.0
  0
LINE
  5
B9
330
51
100
AcDbEntity
  8
0
  6
Continuous
 62
     7
100
AcDbLine
 10
68.97825803207616
 20
-796.9977571309373
 30
0.0
 11
68.97825803207616
 21
-927.3737571309375
 31
0.0
  0
LINE
  5
BA
330
51
100
AcDbEntity
  8
0
  6
Continuous
 62
     3
100
AcDbLine
 10
49.97825803209798
 20
-902.6857571309647
 30
0.0
 11
49.97825803209798
 21
-821.6857571309647
 31
0.0
  0
LINE
  5
BB
330
51
100
AcDbEntity
  8
0
  6
Continuous
 62
     7
100
AcDbLine
 10
36.47825803209071
 20
-837.6857571309611
 30
0.0
 11
36.47825803209798
 21
-886.6857571309611
 31
0.0
  0
LINE
  5
BC
330
51
100
AcDbEntity
  8
0
  6
Continuous
 62
     3
100
AcDbLine
 10
33.97825803209798
 20
-886.6857571309611
 30
0.0
 11
33.97825803209798
 21
-837.6857571309611
 31
0.0
  0
LINE
  5
BD
330
51
100
AcDbEntity
  8
0
  6
Continuous
 62
     3
100
AcDbLine
 10
23.97825803209798
 20
-876.6857571309611
 30
0.0
 11
23.97825803209798
 21
-874.1857571309611
 31
0.0
  0
LINE
  5
BE
330
51
100
AcDbEntity
  8
0
  6
Continuous
 62
     3
100
AcDbLine
 10
17.97825803209798
 20
-870.6857571309611
 30
0.0
 11
20.47825803209798
 21
-870.6857571309611
 31
0.0
  0
LINE
  5
BF
330
51
100
AcDbEntity
  8
0
  6
Continuous
 62
     7
100
AcDbLine
 10
27.47825803209435
 20
-870.6857571309611
 30
0.0
 11
27.47825803209435
 21
-853.6857571309611
 31
0.0
  0
LINE
  5
C0
330
51
100
AcDbEntity
  8
0
  6
Continuous
 62
     3
100
AcDbLine
 10
29.97825803209798
 20
-853.6857571309611
 30
0.0
 11
27.47825803209435
 21
-853.6857571309611
 31
0.0
  0
LINE
  5
C1
330
51
100
AcDbEntity
  8
0
  6
Continuous
 62
     3
100
AcDbLine
 10
29.97825803209798
 20
-870.6857571309611
 30
0.0
 11
27.47825803209435
 21
-870.6857571309611
 31
0.0
  0
LINE
  5
C2
330
51
100
AcDbEntity
  8
0
  6
Continuous
 62
     3
100
AcDbLine
 10
39.97825803209798
 20
-831.6857571309611
 30
0.0
 11
39.97825803209798
 21
-834.1857571309611
 31
0.0
  0
LINE
  5
C3
330
51
100
AcDbEntity
  8
0
  6
Continuous
 62
     3
100
AcDbLine
 10
61.97825803209798
 20
-821.6857571309647
 30
0.0
 11
61.97825803209798
 21
-902.6857571309647
 31
0.0
  0
LINE
  5
C4
330
51
100
AcDbEntity
  8
0
  6
Continuous
 62
     3
100
AcDbLine
 10
61.97825803209798
 20
-902.6857571309647
 30
0.0
 11
59.47825803210162
 21
-902.6857571309647
 31
0.0
  0
LINE
  5
C5
330
51
100
AcDbEntity
  8
0
  6
Continuous
 62
     3
100
AcDbLine
 10
45.97825803209798
 20
-886.6857571309611
 30
0.0
 11
43.47825803209798
 21
-886.6857571309611
 31
0.0
  0
LINE
  5
C6
330
51
100
AcDbEntity
  8
0
  6
Continuous
 62
     7
100
AcDbLine
 10
43.47825803209798
 20
-886.6857571309611
 30
0.0
 11
43.47825803209798
 21
-837.6857571309611
 31
0.0
  0
LINE
  5
C7
330
51
100
AcDbEntity
  8
0
  6
Continuous
 62
     3
100
AcDbLine
 10
45.97825803209798
 20
-837.6857571309611
 30
0.0
 11
45.97825803209798
 21
-886.6857571309611
 31
0.0
  0
LINE
  5
C8
330
51
100
AcDbEntity
  8
0
  6
Continuous
 62
     3
100
AcDbLine
 10
43.47825803209798
 20
-837.6857571309611
 30
0.0
 11
45.97825803209798
 21
-837.6857571309611
 31
0.0
  0
LINE
  5
C9
330
51
100
AcDbEntity
  8
0
  6
Continuous
 62
     3
100
AcDbLine
 10
29.97825803209798
 20
-853.6857571309611
 30
0.0
 11
29.97825803209798
 21
-870.6857571309611
 31
0.0
  0
LINE
  5
CA
330
51
100
AcDbEntity
  8
0
  6
Continuous
 62
     3
100
AcDbLine
 10
59.47825803209798
 20
-821.6857571309647
 30
0.0
 11
61.97825803209798
 21
-821.6857571309647
 31
0.0
  0
LINE
  5
CB
330
51
100
AcDbEntity
  8
0
  6
Continuous
 62
     3
100
AcDbLine
 10
39.97825803209798
 20
-892.6857571309611
 30
0.0
 11
39.97825803209798
 21
-890.1857571309611
 31
0.0
  0
LINE
  5
CC
330
51
100
AcDbEntity
  8
0
  6
Continuous
 62
     3
100
AcDbLine
 10
33.97825803209798
 20
-886.6857571309611
 30
0.0
 11
36.47825803209798
 21
-886.6857571309611
 31
0.0
  0
LINE
  5
CD
330
51
100
AcDbEntity
  8
0
  6
Continuous
 62
     3
100
AcDbLine
 10
49.97825803209798
 20
-902.6857571309647
 30
0.0
 11
52.47825803209798
 21
-902.6857571309647
 31
0.0
  0
LINE
  5
CE
330
51
100
AcDbEntity
  8
0
  6
Continuous
 62
     3
100
AcDbLine
 10
55.97825803209798
 20
-908.6857571309647
 30
0.0
 11
55.97825803209798
 21
-906.1857571309647
 31
0.0
  0
LINE
  5
CF
330
51
100
AcDbEntity
  8
0
  6
Continuous
 62
     3
100
AcDbLine
 10
8.50025803207336
 20
-880.163757130982
 30
0.0
 11
8.50025803207336
 21
-882.6637571309784
 31
0.0
  0
LINE
  5
D0
330
51
100
AcDbEntity
  8
0
  6
Continuous
 62
     3
100
AcDbLine
 10
14.50025803207336
 20
-886.163757130982
 30
0.0
 11
12.00025803207336
 21
-886.163757130982
 31
0.0
  0
LINE
  5
D1
330
51
100
AcDbEntity
  8
0
  6
Continuous
 62
     3
100
AcDbLine
 10
66.47825803207616
 20
-927.3737571309375
 30
0.0
 11
66.47825803207616
 21
-796.9977571309373
 31
0.0
  0
LINE
  5
D2
330
51
100
AcDbEntity
  8
0
  6
Continuous
 62
     3
100
AcDbLine
 10
55.97825803209798
 20
-815.6857571309647
 30
0.0
 11
55.97825803209798
 21
-818.1857571309647
 31
0.0
  0
LINE
  5
D3
330
51
100
AcDbEntity
  8
0
  6
Continuous
 62
     3
100
AcDbLine
 10
49.97825803209798
 20
-821.6857571309647
 30
0.0
 11
52.47825803210162
 21
-821.6857571309647
 31
0.0
  0
LINE
  5
D4
330
51
100
AcDbEntity
  8
0
  6
Continuous
 62
     3
100
AcDbLine
 10
33.97825803209798
 20
-837.6857571309611
 30
0.0
 11
36.47825803209071
 21
-837.6857571309611
 31
0.0
  0
LINE
  5
D5
330
51
100
AcDbEntity
  8
0
  6
Continuous
 62
     3
100
AcDbLine
 10
-40.49974196793028
 20
-912.163757130982
 30
0.0
 11
40.50025803206972
 21
-912.163757130982
 31
0.0
  0
LINE
  5
D6
330
51
100
AcDbEntity
  8
0
  6
Continuous
 62
     3
100
AcDbLine
 10
40.50025803206972
 20
-924.163757130982
 30
0.0
 11
-40.49974196793028
 21
-924.163757130982
 31
0.0
  0
LINE
  5
D7
330
51
100
AcDbEntity
  8
0
  6
Continuous
 62
     7
100
AcDbLine
 10
24.50025803206972
 20
-898.6637571309857
 30
0.0
 11
-24.49974196793028
 21
-898.663757130982
 31
0.0
  0
LINE
  5
D8
330
51
100
AcDbEntity
  8
0
  6
Continuous
 62
     7
100
AcDbLine
 10
-24.49974196793028
 20
-905.6637571309639
 30
0.0
 11
24.50025803206972
 21
-905.663757130982
 31
0.0
  0
LINE
  5
D9
330
51
100
AcDbEntity
  8
0
  6
Continuous
 62
     3
100
AcDbLine
 10
24.50025803206972
 20
-908.163757130982
 30
0.0
 11
-24.49974196793028
 21
-908.163757130982
 31
0.0
  0
LINE
  5
DA
330
51
100
AcDbEntity
  8
0
  6
Continuous
 62
     3
100
AcDbLine
 10
-24.49974196793028
 20
-896.163757130982
 30
0.0
 11
24.50025803206972
 21
-896.163757130982
 31
0.0
  0
LINE
  5
DB
330
51
100
AcDbEntity
  8
0
  6
Continuous
 62
     7
100
AcDbLine
 10
-8.49974196792664
 20
-889.663757130982
 30
0.0
 11
8.50025803207336
 21
-889.663757130982
 31
0.0
  0
LINE
  5
DC
330
51
100
AcDbEntity
  8
0
  6
Continuous
 62
     3
100
AcDbLine
 10
8.50025803207336
 20
-892.163757130982
 30
0.0
 11
-8.49974196792664
 21
-892.163757130982
 31
0.0
  0
LINE
  5
DD
330
51
100
AcDbEntity
  8
0
  6
Continuous
 62
     3
100
AcDbLine
 10
8.50025803207336
 20
-889.663757130982
 30
0.0
 11
8.50025803207336
 21
-892.163757130982
 31
0.0
  0
LINE
  5
DE
330
51
100
AcDbEntity
  8
0
  6
Continuous
 62
     3
100
AcDbLine
 10
-8.49974196792664
 20
-889.663757130982
 30
0.0
 11
-8.49974196792664
 21
-892.163757130982
 31
0.0
  0
LINE
  5
DF
330
51
100
AcDbEntity
  8
0
  6
Continuous
 62
     3
100
AcDbLine
 10
-14.49974196792664
 20
-886.163757130982
 30
0.0
 11
-11.99974196792664
 21
-886.163757130982
 31
0.0
  0
LINE
  5
E0
330
51
100
AcDbEntity
  8
0
  6
Continuous
 62
     7
100
AcDbLine
 10
8.50025803207336
 20
-882.6637571309784
 30
0.0
 11
-8.49974196792664
 21
-882.663757130982
 31
0.0
  0
LINE
  5
E1
330
51
100
AcDbEntity
  8
0
  6
Continuous
 62
     3
100
AcDbLine
 10
-8.49974196792664
 20
-880.163757130982
 30
0.0
 11
8.50025803207336
 21
-880.163757130982
 31
0.0
  0
LINE
  5
E2
330
51
100
AcDbEntity
  8
0
  6
Continuous
 62
     3
100
AcDbLine
 10
-8.49974196792664
 20
-882.663757130982
 30
0.0
 11
-8.49974196792664
 21
-880.163757130982
 31
0.0
  0
LINE
  5
E3
330
51
100
AcDbEntity
  8
0
  6
Continuous
 62
     3
100
AcDbLine
 10
-24.49974196793028
 20
-898.663757130982
 30
0.0
 11
-24.49974196793028
 21
-896.163757130982
 31
0.0
  0
LINE
  5
E4
330
51
100
AcDbEntity
  8
0
  6
Continuous
 62
     3
100
AcDbLine
 10
-30.49974196793028
 20
-902.163757130982
 30
0.0
 11
-27.99974196793028
 21
-902.163757130982
 31
0.0
  0
LINE
  5
E5
330
51
100
AcDbEntity
  8
0
  6
Continuous
 62
     3
100
AcDbLine
 10
24.50025803206972
 20
-896.163757130982
 30
0.0
 11
24.50025803206972
 21
-898.6637571309857
 31
0.0
  0
LINE
  5
E6
330
51
100
AcDbEntity
  8
0
  6
Continuous
 62
     3
100
AcDbLine
 10
30.50025803206972
 20
-902.163757130982
 30
0.0
 11
28.00025803206972
 21
-902.163757130982
 31
0.0
  0
LINE
  5
E7
330
51
100
AcDbEntity
  8
0
  6
Continuous
 62
     3
100
AcDbLine
 10
24.50025803206972
 20
-905.663757130982
 30
0.0
 11
24.50025803206972
 21
-908.163757130982
 31
0.0
  0
LINE
  5
E8
330
51
100
AcDbEntity
  8
0
  6
Continuous
 62
     3
100
AcDbLine
 10
-24.49974196793028
 20
-908.163757130982
 30
0.0
 11
-24.49974196793028
 21
-905.6637571309639
 31
0.0
  0
LINE
  5
E9
330
51
100
AcDbEntity
  8
0
  6
Continuous
 62
     3
100
AcDbLine
 10
24.500258032077
 20
-828.2077571309364
 30
0.0
 11
-24.499741967923
 21
-828.2077571309364
 31
0.0
  0
LINE
  5
EA
330
51
100
AcDbEntity
  8
0
  6
Continuous
 62
     3
100
AcDbLine
 10
8.500258032077
 20
-844.2077571309364
 30
0.0
 11
-8.499741967923
 21
-844.2077571309364
 31
0.0
  0
LINE
  5
EB
330
51
100
AcDbEntity
  8
0
  6
Continuous
 62
     7
100
AcDbLine
 10
-8.499741967923
 20
-841.7077571309364
 30
0.0
 11
8.500258032077
 21
-841.7077571309364
 31
0.0
  0
LINE
  5
EC
330
51
100
AcDbEntity
  8
0
  6
Continuous
 62
     7
100
AcDbLine
 10
20.47825803209435
 20
-853.6857571309611
 30
0.0
 11
20.47825803209798
 21
-870.6857571309611
 31
0.0
  0
LINE
  5
ED
330
51
100
AcDbEntity
  8
0
  6
Continuous
 62
     3
100
AcDbLine
 10
17.97825803209798
 20
-870.6857571309611
 30
0.0
 11
17.97825803209798
 21
-853.6857571309611
 31
0.0
  0
LINE
  5
EE
330
51
100
AcDbEntity
  8
0
  6
Continuous
 62
     3
100
AcDbLine
 10
46.50025803206972
 20
-918.163757130982
 30
0.0
 11
44.00025803206972
 21
-918.163757130982
 31
0.0
  0
LINE
  5
EF
330
51
100
AcDbEntity
  8
0
  6
Continuous
 62
     3
100
AcDbLine
 10
40.50025803206972
 20
-912.163757130982
 30
0.0
 11
40.50025803206972
 21
-914.6637571309711
 31
0.0
  0
LINE
  5
F0
330
51
100
AcDbEntity
  8
0
  6
Continuous
 62
     3
100
AcDbLine
 10
40.50025803206972
 20
-921.663757130982
 30
0.0
 11
40.50025803206972
 21
-924.163757130982
 31
0.0
  0
LINE
  5
F1
330
51
100
AcDbEntity
  8
0
  6
Continuous
 62
     7
100
AcDbLine
 10
40.50025803206972
 20
-914.6637571309711
 30
0.0
 11
-40.49974196793028
 21
-914.663757130982
 31
0.0
  0
LINE
  5
F2
330
51
100
AcDbEntity
  8
0
  6
Continuous
 62
     7
100
AcDbLine
 10
-40.49974196793028
 20
-921.663757130982
 30
0.0
 11
40.50025803206972
 21
-921.663757130982
 31
0.0
  0
LINE
  5
F3
330
51
100
AcDbEntity
  8
0
  6
Continuous
 62
     3
100
AcDbLine
 10
-40.49974196793028
 20
-914.663757130982
 30
0.0
 11
-40.49974196793028
 21
-912.163757130982
 31
0.0
  0
LINE
  5
F4
330
51
100
AcDbEntity
  8
0
  6
Continuous
 62
     3
100
AcDbLine
 10
-46.49974196793028
 20
-918.163757130982
 30
0.0
 11
-43.99974196793028
 21
-918.163757130982
 31
0.0
  0
LINE
  5
F5
330
51
100
AcDbEntity
  8
0
  6
Continuous
 62
     3
100
AcDbLine
 10
-40.49974196793028
 20
-924.163757130982
 30
0.0
 11
-40.49974196793028
 21
-921.663757130982
 31
0.0
  0
LINE
  5
F6
330
51
100
AcDbEntity
  8
0
  6
Continuous
 62
     3
100
AcDbLine
 10
65.18825803207528
 20
-795.7077571309364
 30
0.0
 11
-65.18774196792492
 21
-795.7077571309364
 31
0.0
  0
LINE
  5
F7
330
51
100
AcDbEntity
  8
0
  6
Continuous
 62
     7
100
AcDbLine
 10
65.18825803207528
 20
-931.1637571309384
 30
0.0
 11
-65.18774196792492
 21
-931.1637571309348
 31
0.0
  0
LINE
  5
F8
330
51
100
AcDbEntity
  8
0
  6
Continuous
 62
     3
100
AcDbLine
 10
-65.18774196792492
 20
-928.6637571309384
 30
0.0
 11
65.18825803207528
 21
-928.6637571309384
 31
0.0
  0
LINE
  5
F9
330
51
100
AcDbEntity
  8
1
  6
PHANTOM
 62
     2
100
AcDbLine
 10
-86.15762560390226
 20
-818.930859105603
 30
0.0
 11
-76.65463424342371
 21
-811.4406551562685
 31
0.0
  0
LINE
  5
FA
330
51
100
AcDbEntity
  8
1
  6
PHANTOM
 62
     2
100
AcDbLine
 10
-85.15123189832875
 20
-810.4342614506944
 30
0.0
 11
-77.66102794899362
 21
-819.9372528111766
 31
0.0
  0
LINE
  5
FB
330
51
100
AcDbEntity
  8
1
  6
Continuous
 62
     7
100
AcDbLine
 10
-79.03045102185732
 20
-819.0075564134089
 30
0.0
 11
-81.48930295718017
 21
-815.8879552842345
 31
0.0
  0
LINE
  5
FC
330
51
100
AcDbEntity
  8
1
  6
Continuous
 62
     7
100
AcDbLine
 10
-81.48930295718017
 20
-815.8879552842345
 30
0.0
 11
-84.60890408635456
 21
-818.3468072195573
 31
0.0
  0
LINE
  5
FD
330
51
100
AcDbEntity
  8
1
  6
Continuous
 62
     7
100
AcDbLine
 10
-85.22792920613404
 20
-817.5614360327429
 30
0.0
 11
-82.10832807696016
 21
-815.1025840974165
 31
0.0
  0
LINE
  5
FE
330
51
100
AcDbEntity
  8
1
  6
Continuous
 62
     7
100
AcDbLine
 10
-82.10832807696016
 20
-815.1025840974165
 30
0.0
 11
-84.5671800122866
 21
-811.9829829682426
 31
0.0
  0
LINE
  5
FF
330
51
100
AcDbEntity
  8
1
  6
Continuous
 62
     7
100
AcDbLine
 10
-83.78180882546866
 20
-811.3639578484626
 30
0.0
 11
-81.3229568901458
 21
-814.483558977637
 31
0.0
  0
LINE
  5
100
330
51
100
AcDbEntity
  8
1
  6
Continuous
 62
     7
100
AcDbLine
 10
-81.3229568901458
 20
-814.483558977637
 30
0.0
 11
-78.20335576096781
 21
-812.0247070423136
 31
0.0
  0
LINE
  5
101
330
51
100
AcDbEntity
  8
1
  6
Continuous
 62
     7
100
AcDbLine
 10
-77.58433064118833
 20
-812.8100782291281
 30
0.0
 11
-80.70393177036578
 21
-815.268930164455
 31
0.0
  0
LINE
  5
102
330
51
100
AcDbEntity
  8
1
  6
Continuous
 62
     7
100
AcDbLine
 10
-80.70393177036578
 20
-815.268930164455
 30
0.0
 11
-78.24507983503935
 21
-818.3885312936288
 31
0.0
  0
LINE
  5
103
330
51
100
AcDbEntity
  8
1
  6
PHANTOM
 62
     2
100
AcDbLine
 10
-5.61884325787106
 20
-765.9433921532119
 30
0.0
 11
5.61935932202198
 21
-770.4281221086629
 31
0.0
  0
LINE
  5
104
330
51
100
AcDbEntity
  8
1
  6
PHANTOM
 62
     2
100
AcDbLine
 10
2.24262300980095
 20
-762.566655840991
 30
0.0
 11
-2.24210694565002
 21
-773.8048584208839
 31
0.0
  0
LINE
  5
105
330
51
100
AcDbEntity
  8
1
  6
Continuous
 62
     7
100
AcDbLine
 10
-2.12167778380967
 20
-772.1540550523738
 30
0.0
 11
-0.64944992393106
 21
-768.4648262476506
 31
0.0
  0
LINE
  5
106
330
51
100
AcDbEntity
  8
1
  6
Continuous
 62
     7
100
AcDbLine
 10
-0.64944992393106
 20
-768.4648262476506
 30
0.0
 11
-4.33867872865419
 21
-766.9925983877721
 31
0.0
  0
LINE
  5
107
330
51
100
AcDbEntity
  8
1
  6
Continuous
 62
     7
100
AcDbLine
 10
-3.96803988936034
 20
-766.063821315056
 30
0.0
 11
-0.27881108463772
 21
-767.5360491749309
 31
0.0
  0
LINE
  5
108
330
51
100
AcDbEntity
  8
1
  6
Continuous
 62
     7
100
AcDbLine
 10
-0.27881108463772
 20
-767.5360491749309
 30
0.0
 11
1.19341677524085
 21
-763.8468203702079
 31
0.0
  0
LINE
  5
109
330
51
100
AcDbEntity
  8
1
  6
Continuous
 62
     7
100
AcDbLine
 10
2.12219384795698
 20
-764.2174592095017
 30
0.0
 11
0.649965988082
 21
-767.9066880142243
 31
0.0
  0
LINE
  5
10A
330
51
100
AcDbEntity
  8
1
  6
Continuous
 62
     7
100
AcDbLine
 10
0.649965988082
 20
-767.9066880142243
 30
0.0
 11
4.3391947928051
 21
-769.3789158741029
 31
0.0
  0
LINE
  5
10B
330
51
100
AcDbEntity
  8
1
  6
Continuous
 62
     7
100
AcDbLine
 10
3.96855595351175
 20
-770.3076929468225
 30
0.0
 11
0.27932714878867
 21
-768.8354650869439
 31
0.0
  0
LINE
  5
10C
330
51
100
AcDbEntity
  8
1
  6
Continuous
 62
     7
100
AcDbLine
 10
0.27932714878867
 20
-768.8354650869439
 30
0.0
 11
-1.19290071108995
 21
-772.5246938916671
 31
0.0
  0
LINE
  5
10D
330
51
100
AcDbEntity
  8
1
  6
PHANTOM
 62
     2
100
AcDbLine
 10
80.53904037810585
 20
-809.1982901785428
 30
0.0
 11
82.27425159751728
 21
-821.1732240833325
 31
0.0
  0
LINE
  5
10E
330
51
100
AcDbEntity
  8
1
  6
PHANTOM
 62
     2
100
AcDbLine
 10
87.39411294020486
 20
-814.318151521234
 30
0.0
 11
75.41917903541878
 21
-816.0533627406448
 31
0.0
  0
LINE
  5
10F
330
51
100
AcDbEntity
  8
1
  6
Continuous
 62
     7
100
AcDbLine
 10
76.90903127011923
 20
-815.3322557699029
 30
0.0
 11
80.84011106532427
 21
-814.7626280943537
 31
0.0
  0
LINE
  5
110
330
51
100
AcDbEntity
  8
1
  6
Continuous
 62
     7
100
AcDbLine
 10
80.84011106532427
 20
-814.7626280943537
 30
0.0
 11
80.27048338977501
 21
-810.8315482991486
 31
0.0
  0
LINE
  5
111
330
51
100
AcDbEntity
  8
1
  6
Continuous
 62
     7
100
AcDbLine
 10
81.26014734884836
 20
-810.6881424132469
 30
0.0
 11
81.82977502439762
 21
-814.6192222084519
 31
0.0
  0
LINE
  5
112
330
51
100
AcDbEntity
  8
1
  6
Continuous
 62
     7
100
AcDbLine
 10
81.82977502439762
 20
-814.6192222084519
 30
0.0
 11
85.76085481959906
 21
-814.0495945329031
 31
0.0
  0
LINE
  5
113
330
51
100
AcDbEntity
  8
1
  6
Continuous
 62
     7
100
AcDbLine
 10
85.9042607055008
 20
-815.0392584919765
 30
0.0
 11
81.97318091029936
 21
-815.6088861675253
 31
0.0
  0
LINE
  5
114
330
51
100
AcDbEntity
  8
1
  6
Continuous
 62
     7
100
AcDbLine
 10
81.97318091029936
 20
-815.6088861675253
 30
0.0
 11
82.5428085858481
 21
-819.5399659627267
 31
0.0
  0
LINE
  5
115
330
51
100
AcDbEntity
  8
1
  6
Continuous
 62
     7
100
AcDbLine
 10
81.55314462677475
 20
-819.6833718486284
 30
0.0
 11
80.98351695122601
 21
-815.752292053427
 31
0.0
  0
LINE
  5
116
330
51
100
AcDbEntity
  8
1
  6
Continuous
 62
     7
100
AcDbLine
 10
80.98351695122601
 20
-815.752292053427
 30
0.0
 11
77.05243715602097
 21
-816.3219197289762
 31
0.0
  0
LINE
  5
117
330
51
100
AcDbEntity
  8
1
  6
PHANTOM
 62
     2
100
AcDbLine
 10
86.15814166805208
 20
-905.4406551562683
 30
0.0
 11
76.65515030756995
 21
-912.9308591056034
 31
0.0
  0
LINE
  5
118
330
51
100
AcDbEntity
  8
1
  6
PHANTOM
 62
     2
100
AcDbLine
 10
85.15174796247857
 20
-913.9372528111769
 30
0.0
 11
77.66154401314398
 21
-904.4342614506984
 31
0.0
  0
LINE
  5
119
330
51
100
AcDbEntity
  8
1
  6
Continuous
 62
     7
100
AcDbLine
 10
79.03096708600354
 20
-905.363957848463
 30
0.0
 11
81.48981902133052
 21
-908.4835589776405
 31
0.0
  0
LINE
  5
11A
330
51
100
AcDbEntity
  8
1
  6
Continuous
 62
     7
100
AcDbLine
 10
81.48981902133052
 20
-908.4835589776405
 30
0.0
 11
84.60942015050438
 21
-906.024707042314
 31
0.0
  0
LINE
  5
11B
330
51
100
AcDbEntity
  8
1
  6
Continuous
 62
     7
100
AcDbLine
 10
85.22844527028438
 20
-906.8100782291319
 30
0.0
 11
82.10884414111001
 21
-909.2689301644549
 31
0.0
  0
LINE
  5
11C
330
51
100
AcDbEntity
  8
1
  6
Continuous
 62
     7
100
AcDbLine
 10
82.10884414111001
 20
-909.2689301644549
 30
0.0
 11
84.56769607643285
 21
-912.3885312936293
 31
0.0
  0
LINE
  5
11D
330
51
100
AcDbEntity
  8
1
  6
Continuous
 62
     7
100
AcDbLine
 10
83.78232488961847
 20
-913.0075564134088
 30
0.0
 11
81.32347295429203
 21
-909.8879552842349
 31
0.0
  0
LINE
  5
11E
330
51
100
AcDbEntity
  8
1
  6
Continuous
 62
     7
100
AcDbLine
 10
81.32347295429203
 20
-909.8879552842349
 30
0.0
 11
78.20387182511818
 21
-912.3468072195614
 31
0.0
  0
LINE
  5
11F
330
51
100
AcDbEntity
  8
1
  6
Continuous
 62
     7
100
AcDbLine
 10
77.58484670533817
 20
-911.5614360327434
 30
0.0
 11
80.70444783451255
 21
-909.1025840974205
 31
0.0
  0
LINE
  5
120
330
51
100
AcDbEntity
  8
1
  6
Continuous
 62
     7
100
AcDbLine
 10
80.70444783451255
 20
-909.1025840974205
 30
0.0
 11
78.24559589918557
 21
-905.982982968243
 31
0.0
  0
LINE
  5
121
330
51
100
AcDbEntity
  8
1
  6
PHANTOM
 62
     2
100
AcDbLine
 10
5.6193593220214
 20
-958.4281221086629
 30
0.0
 11
-5.61884325787162
 21
-953.943392153212
 31
0.0
  0
LINE
  5
122
330
51
100
AcDbEntity
  8
1
  6
PHANTOM
 62
     2
100
AcDbLine
 10
-2.24210694565059
 20
-961.804858420884
 30
0.0
 11
2.24262300980038
 21
-950.566655840991
 31
0.0
  0
LINE
  5
123
330
51
100
AcDbEntity
  8
1
  6
Continuous
 62
     7
100
AcDbLine
 10
2.12219384795641
 20
-952.2174592095017
 30
0.0
 11
0.64996598808142
 21
-955.9066880142243
 31
0.0
  0
LINE
  5
124
330
51
100
AcDbEntity
  8
1
  6
Continuous
 62
     7
100
AcDbLine
 10
0.64996598808142
 20
-955.9066880142243
 30
0.0
 11
4.33919479280453
 21
-957.3789158741029
 31
0.0
  0
LINE
  5
125
330
51
100
AcDbEntity
  8
1
  6
Continuous
 62
     7
100
AcDbLine
 10
3.96855595351067
 20
-958.307692946819
 30
0.0
 11
0.27932714878807
 21
-956.835465086944
 31
0.0
  0
LINE
  5
126
330
51
100
AcDbEntity
  8
1
  6
Continuous
 62
     7
100
AcDbLine
 10
0.27932714878807
 20
-956.835465086944
 30
0.0
 11
-1.1929007110905
 21
-960.5246938916672
 31
0.0
  0
LINE
  5
127
330
51
100
AcDbEntity
  8
1
  6
Continuous
 62
     7
100
AcDbLine
 10
-2.12167778381023
 20
-960.1540550523738
 30
0.0
 11
-0.64944992393164
 21
-956.4648262476508
 31
0.0
  0
LINE
  5
128
330
51
100
AcDbEntity
  8
1
  6
Continuous
 62
     7
100
AcDbLine
 10
-0.64944992393164
 20
-956.4648262476508
 30
0.0
 11
-4.33867872865476
 21
-954.9925983877721
 31
0.0
  0
LINE
  5
129
330
51
100
AcDbEntity
  8
1
  6
Continuous
 62
     7
100
AcDbLine
 10
-3.96803988936089
 20
-954.063821315056
 30
0.0
 11
-0.27881108463831
 21
-955.536049174931
 31
0.0
  0
LINE
  5
12A
330
51
100
AcDbEntity
  8
1
  6
Continuous
 62
     7
100
AcDbLine
 10
-0.27881108463831
 20
-955.536049174931
 30
0.0
 11
1.19341677524029
 21
-951.8468203702079
 31
0.0
  0
LINE
  5
12B
330
51
100
AcDbEntity
  8
1
  6
Continuous
 62
     7
100
AcDbLine
 10
-80.98300088707515
 20
-908.6192222084516
 30
0.0
 11
-77.05192109187374
 21
-908.0495945329028
 31
0.0
  0
LINE
  5
12C
330
51
100
AcDbEntity
  8
1
  6
Continuous
 62
     7
100
AcDbLine
 10
-81.55262856262388
 20
-904.6881424132501
 30
0.0
 11
-80.98300088707515
 21
-908.6192222084516
 31
0.0
  0
LINE
  5
12D
330
51
100
AcDbEntity
  8
1
  6
Continuous
 62
     7
100
AcDbLine
 10
-81.97266484614852
 20
-908.7626280943533
 30
0.0
 11
-82.54229252169722
 21
-904.8315482991519
 31
0.0
  0
LINE
  5
12E
330
51
100
AcDbEntity
  8
1
  6
Continuous
 62
     7
100
AcDbLine
 10
-85.90374464135354
 20
-909.3322557699025
 30
0.0
 11
-81.97266484614852
 21
-908.7626280943533
 31
0.0
  0
LINE
  5
12F
330
51
100
AcDbEntity
  8
1
  6
Continuous
 62
     7
100
AcDbLine
 10
-81.82925896024676
 20
-909.7522920534267
 30
0.0
 11
-85.76033875545178
 21
-910.3219197289759
 31
0.0
  0
LINE
  5
130
330
51
100
AcDbEntity
  8
1
  6
Continuous
 62
     7
100
AcDbLine
 10
-81.259631284698
 20
-913.6833718486281
 30
0.0
 11
-81.82925896024676
 21
-909.7522920534267
 31
0.0
  0
LINE
  5
131
330
51
100
AcDbEntity
  8
1
  6
Continuous
 62
     7
100
AcDbLine
 10
-80.8395950011734
 20
-909.6088861675249
 30
0.0
 11
-80.26996732562466
 21
-913.5399659627263
 31
0.0
  0
LINE
  5
132
330
51
100
AcDbEntity
  8
1
  6
Continuous
 62
     7
100
AcDbLine
 10
-76.90851520597198
 20
-909.0392584919762
 30
0.0
 11
-80.8395950011734
 21
-909.6088861675249
 31
0.0
  0
LINE
  5
133
330
51
100
AcDbEntity
  8
1
  6
PHANTOM
 62
     2
100
AcDbLine
 10
-80.53852431395549
 20
-915.1732240833322
 30
0.0
 11
-82.27373553336639
 21
-903.1982901785461
 31
0.0
  0
LINE
  5
134
330
51
100
AcDbEntity
  8
1
  6
PHANTOM
 62
     2
100
AcDbLine
 10
-87.39359687605759
 20
-910.0533627406451
 30
0.0
 11
-75.4186629712679
 21
-908.3181515212336
 31
0.0
  0
LINE
  5
135
330
51
100
AcDbEntity
  8
1
  6
Continuous
 62
     7
100
AcDbLine
 10
-249.9997419679248
 20
-1112.185757130937
 30
0.0
 11
-249.9997419679248
 21
-612.1857571309374
 31
0.0
  0
LINE
  5
136
330
51
100
AcDbEntity
  8
1
  6
Continuous
 62
     7
100
AcDbLine
 10
250.0002580320752
 20
-1112.185757130937
 30
0.0
 11
-249.9997419679248
 21
-1112.185757130937
 31
0.0
  0
LINE
  5
137
330
51
100
AcDbEntity
  8
1
  6
Continuous
 62
     7
100
AcDbLine
 10
250.0002580320752
 20
-612.1857571309374
 30
0.0
 11
250.0002580320752
 21
-1112.185757130937
 31
0.0
  0
LINE
  5
138
330
51
100
AcDbEntity
  8
1
  6
Continuous
 62
     7
100
AcDbLine
 10
-249.9997419679248
 20
-612.1857571309374
 30
0.0
 11
250.0002580320752
 21
-612.1857571309374
 31
0.0
  0
ARC
  5
139
330
51
100
AcDbEntity
  8
0
  6
Continuous
 62
     3
100
AcDbCircle
 10
-65.18774196792492
 20
-927.3737571309375
 30
0.0
 40
1.290000000000873
100
AcDbArc
 50
180.0
 51
-135.0
  0
ARC
  5
13A
330
51
100
AcDbEntity
  8
0
  6
Continuous
 62
     3
100
AcDbCircle
 10
-65.18774196792492
 20
-927.3737571309375
 30
0.0
 40
1.289999999999883
100
AcDbArc
 50
-135.0
 51
-90.0
  0
ARC
  5
13B
330
51
100
AcDbEntity
  8
0
  6
Continuous
 62
     7
100
AcDbCircle
 10
-65.18774196792492
 20
-927.3737571309375
 30
0.0
 40
3.789999999999019
100
AcDbArc
 50
-135.0
 51
-90.0
  0
ARC
  5
13C
330
51
100
AcDbEntity
  8
0
  6
Continuous
 62
     7
100
AcDbCircle
 10
-65.18774196792492
 20
-927.3737571309375
 30
0.0
 40
3.790000000000873
100
AcDbArc
 50
180.0
 51
-135.0
  0
ARC
  5
13D
330
51
100
AcDbEntity
  8
0
  6
Continuous
 62
     7
100
AcDbCircle
 10
65.18825803207528
 20
-927.3737571309375
 30
0.0
 40
3.789999999999019
100
AcDbArc
 50
-45.0
 51
0.0
  0
ARC
  5
13E
330
51
100
AcDbEntity
  8
0
  6
Continuous
 62
     3
100
AcDbCircle
 10
65.18825803207528
 20
-927.3737571309375
 30
0.0
 40
1.289999999999883
100
AcDbArc
 50
-45.0
 51
0.0
  0
ARC
  5
13F
330
51
100
AcDbEntity
  8
0
  6
Continuous
 62
     3
100
AcDbCircle
 10
65.18825803207528
 20
-927.3737571309375
 30
0.0
 40
1.290000000000873
100
AcDbArc
 50
-90.0
 51
-45.0
  0
ARC
  5
140
330
51
100
AcDbEntity
  8
0
  6
Continuous
 62
     7
100
AcDbCircle
 10
65.18825803207528
 20
-927.3737571309375
 30
0.0
 40
3.790000000000873
100
AcDbArc
 50
-90.0
 51
-45.0
  0
ARC
  5
141
330
51
100
AcDbEntity
  8
0
  6
Continuous
 62
     7
100
AcDbCircle
 10
65.18825803207528
 20
-796.9977571309373
 30
0.0
 40
3.789999999999019
100
AcDbArc
 50
45.0
 51
90.0
  0
ARC
  5
142
330
51
100
AcDbEntity
  8
0
  6
Continuous
 62
     3
100
AcDbCircle
 10
65.18825803207528
 20
-796.9977571309373
 30
0.0
 40
1.289999999999883
100
AcDbArc
 50
45.0
 51
90.0
  0
ARC
  5
143
330
51
100
AcDbEntity
  8
0
  6
Continuous
 62
     7
100
AcDbCircle
 10
65.18825803207528
 20
-796.9977571309373
 30
0.0
 40
3.790000000000873
100
AcDbArc
 50
0.0
 51
45.0
  0
ARC
  5
144
330
51
100
AcDbEntity
  8
0
  6
Continuous
 62
     3
100
AcDbCircle
 10
65.18825803207528
 20
-796.9977571309373
 30
0.0
 40
1.290000000000873
100
AcDbArc
 50
0.0
 51
45.0
  0
ARC
  5
145
330
51
100
AcDbEntity
  8
0
  6
Continuous
 62
     7
100
AcDbCircle
 10
-65.18774196792492
 20
-796.9977571309373
 30
0.0
 40
3.789999999999019
100
AcDbArc
 50
135.0
 51
180.0
  0
ARC
  5
146
330
51
100
AcDbEntity
  8
0
  6
Continuous
 62
     3
100
AcDbCircle
 10
-65.18774196792492
 20
-796.9977571309373
 30
0.0
 40
1.290000000000873
100
AcDbArc
 50
90.0
 51
135.0
  0
ARC
  5
147
330
51
100
AcDbEntity
  8
0
  6
Continuous
 62
     3
100
AcDbCircle
 10
-65.18774196792492
 20
-796.9977571309373
 30
0.0
 40
1.289999999999883
100
AcDbArc
 50
135.0
 51
180.0
  0
ARC
  5
148
330
51
100
AcDbEntity
  8
0
  6
Continuous
 62
     7
100
AcDbCircle
 10
-65.18774196792492
 20
-796.9977571309373
 30
0.0
 40
3.790000000000873
100
AcDbArc
 50
90.0
 51
135.0
  0
ARC
  5
149
330
51
100
AcDbEntity
  8
0
  6
Continuous
 62
     3
100
AcDbCircle
 10
-24.499741967923
 20
-822.2077571309364
 30
0.0
 40
6.0
100
AcDbArc
 50
90.0
 51
180.0
  0
ARC
  5
14A
330
51
100
AcDbEntity
  8
0
  6
Continuous
 62
     3
100
AcDbCircle
 10
23.97825803209798
 20
-853.6857571309611
 30
0.0
 40
6.0
100
AcDbArc
 50
90.0
 51
180.0
  0
ARC
  5
14B
330
51
100
AcDbEntity
  8
0
  6
Continuous
 62
     3
100
AcDbCircle
 10
-40.49974196791936
 20
-806.2077571309364
 30
0.0
 40
6.0
100
AcDbArc
 50
180.0
 51
-90.0
  0
ARC
  5
14C
330
51
100
AcDbEntity
  8
0
  6
Continuous
 62
     3
100
AcDbCircle
 10
8.500258032077
 20
-838.2077571309364
 30
0.0
 40
6.0
100
AcDbArc
 50
0.0
 51
90.0
  0
ARC
  5
14D
330
51
100
AcDbEntity
  8
0
  6
Continuous
 62
     7
100
AcDbCircle
 10
8.50025803207336
 20
-838.2077571309328
 30
0.0
 40
3.500000000003638
100
AcDbArc
 50
-0.00000000005955
 51
89.99999999994044
  0
ARC
  5
14E
330
51
100
AcDbEntity
  8
0
  6
Continuous
 62
     7
100
AcDbCircle
 10
-40.49974196791936
 20
-806.2077571309364
 30
0.0
 40
3.5
100
AcDbArc
 50
90.0
 51
180.0
  0
ARC
  5
14F
330
51
100
AcDbEntity
  8
0
  6
Continuous
 62
     7
100
AcDbCircle
 10
8.500258032077
 20
-838.2077571309364
 30
0.0
 40
3.5
100
AcDbArc
 50
-90.0
 51
0.0
  0
ARC
  5
150
330
51
100
AcDbEntity
  8
0
  6
Continuous
 62
     3
100
AcDbCircle
 10
8.500258032077
 20
-838.2077571309364
 30
0.0
 40
6.0
100
AcDbArc
 50
-90.0
 51
0.0
  0
ARC
  5
151
330
51
100
AcDbEntity
  8
0
  6
Continuous
 62
     7
100
AcDbCircle
 10
24.500258032077
 20
-822.2077571309328
 30
0.0
 40
3.5
100
AcDbArc
 50
-0.00000000005955
 51
90.0
  0
ARC
  5
152
330
51
100
AcDbEntity
  8
0
  6
Continuous
 62
     7
100
AcDbCircle
 10
24.500258032077
 20
-822.2077571309364
 30
0.0
 40
3.5
100
AcDbArc
 50
-90.0
 51
0.0
  0
ARC
  5
153
330
51
100
AcDbEntity
  8
0
  6
Continuous
 62
     3
100
AcDbCircle
 10
24.500258032077
 20
-822.2077571309364
 30
0.0
 40
6.0
100
AcDbArc
 50
0.0
 51
90.0
  0
ARC
  5
154
330
51
100
AcDbEntity
  8
0
  6
Continuous
 62
     7
100
AcDbCircle
 10
40.50025803208064
 20
-806.2077571309364
 30
0.0
 40
3.5
100
AcDbArc
 50
0.0
 51
90.0
  0
ARC
  5
155
330
51
100
AcDbEntity
  8
0
  6
Continuous
 62
     3
100
AcDbCircle
 10
24.500258032077
 20
-822.2077571309364
 30
0.0
 40
6.0
100
AcDbArc
 50
-90.0
 51
0.0
  0
ARC
  5
156
330
51
100
AcDbEntity
  8
0
  6
Continuous
 62
     3
100
AcDbCircle
 10
-40.49974196791936
 20
-806.2077571309364
 30
0.0
 40
6.0
100
AcDbArc
 50
90.0
 51
180.0
  0
ARC
  5
157
330
51
100
AcDbEntity
  8
0
  6
Continuous
 62
     7
100
AcDbCircle
 10
40.50025803208064
 20
-806.2077571309364
 30
0.0
 40
3.5
100
AcDbArc
 50
-90.0
 51
0.0
  0
ARC
  5
158
330
51
100
AcDbEntity
  8
0
  6
Continuous
 62
     7
100
AcDbCircle
 10
-40.49974196791936
 20
-806.2077571309364
 30
0.0
 40
3.5
100
AcDbArc
 50
180.0
 51
-90.0
  0
ARC
  5
159
330
51
100
AcDbEntity
  8
0
  6
Continuous
 62
     3
100
AcDbCircle
 10
40.50025803208064
 20
-806.2077571309364
 30
0.0
 40
6.0
100
AcDbArc
 50
0.0
 51
90.0
  0
ARC
  5
15A
330
51
100
AcDbEntity
  8
0
  6
Continuous
 62
     3
100
AcDbCircle
 10
40.50025803208064
 20
-806.2077571309364
 30
0.0
 40
6.0
100
AcDbArc
 50
-90.0
 51
0.0
  0
ARC
  5
15B
330
51
100
AcDbEntity
  8
0
  6
Continuous
 62
     7
100
AcDbCircle
 10
-24.499741967923
 20
-822.2077571309364
 30
0.0
 40
3.5
100
AcDbArc
 50
180.0
 51
-90.0
  0
ARC
  5
15C
330
51
100
AcDbEntity
  8
0
  6
Continuous
 62
     7
100
AcDbCircle
 10
-24.499741967923
 20
-822.2077571309364
 30
0.0
 40
3.5
100
AcDbArc
 50
90.0
 51
180.0
  0
ARC
  5
15D
330
51
100
AcDbEntity
  8
0
  6
Continuous
 62
     7
100
AcDbCircle
 10
23.97825803209798
 20
-853.6857571309611
 30
0.0
 40
3.5
100
AcDbArc
 50
90.0
 51
180.0
  0
ARC
  5
15E
330
51
100
AcDbEntity
  8
0
  6
Continuous
 62
     3
100
AcDbCircle
 10
-40.49974196793028
 20
-918.163757130982
 30
0.0
 40
6.0
100
AcDbArc
 50
90.0
 51
180.0
  0
ARC
  5
15F
330
51
100
AcDbEntity
  8
0
  6
Continuous
 62
     3
100
AcDbCircle
 10
-39.97774196794762
 20
-886.6857571309538
 30
0.0
 40
6.0
100
AcDbArc
 50
-90.0
 51
0.0
  0
ARC
  5
160
330
51
100
AcDbEntity
  8
0
  6
Continuous
 62
     3
100
AcDbCircle
 10
-55.97774196794762
 20
-902.6857571309538
 30
0.0
 40
6.0
100
AcDbArc
 50
-90.0
 51
0.0
  0
ARC
  5
161
330
51
100
AcDbEntity
  8
0
  6
Continuous
 62
     3
100
AcDbCircle
 10
-55.97774196794762
 20
-902.6857571309538
 30
0.0
 40
6.0
100
AcDbArc
 50
180.0
 51
-90.0
  0
ARC
  5
162
330
51
100
AcDbEntity
  8
0
  6
Continuous
 62
     7
100
AcDbCircle
 10
-55.97774196794762
 20
-902.6857571309538
 30
0.0
 40
3.5
100
AcDbArc
 50
-90.0
 51
0.0
  0
ARC
  5
163
330
51
100
AcDbEntity
  8
0
  6
Continuous
 62
     7
100
AcDbCircle
 10
-55.97774196794762
 20
-902.6857571309538
 30
0.0
 40
3.5
100
AcDbArc
 50
180.0
 51
-90.0
  0
ARC
  5
164
330
51
100
AcDbEntity
  8
0
  6
Continuous
 62
     3
100
AcDbCircle
 10
-23.97774196794762
 20
-870.6857571309538
 30
0.0
 40
6.0
100
AcDbArc
 50
-179.9999999999653
 51
-90.0
  0
ARC
  5
165
330
51
100
AcDbEntity
  8
0
  6
Continuous
 62
     3
100
AcDbCircle
 10
-23.97774196794762
 20
-870.6857571309538
 30
0.0
 40
6.000000000003638
100
AcDbArc
 50
-90.0
 51
-0.00000000003474
  0
ARC
  5
166
330
51
100
AcDbEntity
  8
0
  6
Continuous
 62
     7
100
AcDbCircle
 10
-23.97774196794762
 20
-870.6857571309538
 30
0.0
 40
3.500000000003638
100
AcDbArc
 50
-90.0
 51
-0.00000000005955
  0
ARC
  5
167
330
51
100
AcDbEntity
  8
0
  6
Continuous
 62
     7
100
AcDbCircle
 10
-23.97774196794762
 20
-870.6857571309538
 30
0.0
 40
3.5
100
AcDbArc
 50
-179.9999999999405
 51
-90.0
  0
ARC
  5
168
330
51
100
AcDbEntity
  8
0
  6
Continuous
 62
     7
100
AcDbCircle
 10
-55.97774196794762
 20
-821.6857571309538
 30
0.0
 40
3.5
100
AcDbArc
 50
90.0
 51
180.0
  0
ARC
  5
169
330
51
100
AcDbEntity
  8
0
  6
Continuous
 62
     3
100
AcDbCircle
 10
-55.97774196794762
 20
-821.6857571309538
 30
0.0
 40
6.0
100
AcDbArc
 50
90.0
 51
180.0
  0
ARC
  5
16A
330
51
100
AcDbEntity
  8
0
  6
Continuous
 62
     3
100
AcDbCircle
 10
-55.97774196794762
 20
-821.6857571309538
 30
0.0
 40
6.0
100
AcDbArc
 50
0.0
 51
90.0
  0
ARC
  5
16B
330
51
100
AcDbEntity
  8
0
  6
Continuous
 62
     7
100
AcDbCircle
 10
-55.97774196794762
 20
-821.6857571309538
 30
0.0
 40
3.5
100
AcDbArc
 50
0.0
 51
90.0
  0
ARC
  5
16C
330
51
100
AcDbEntity
  8
0
  6
Continuous
 62
     3
100
AcDbCircle
 10
-39.97774196794762
 20
-837.6857571309538
 30
0.0
 40
6.0
100
AcDbArc
 50
0.0
 51
90.0
  0
ARC
  5
16D
330
51
100
AcDbEntity
  8
0
  6
Continuous
 62
     3
100
AcDbCircle
 10
-39.97774196794762
 20
-837.6857571309538
 30
0.0
 40
6.0
100
AcDbArc
 50
90.0
 51
180.0
  0
ARC
  5
16E
330
51
100
AcDbEntity
  8
0
  6
Continuous
 62
     7
100
AcDbCircle
 10
-39.97774196794762
 20
-837.6857571309574
 30
0.0
 40
3.500000000003638
100
AcDbArc
 50
90.0
 51
179.9999999999405
  0
ARC
  5
16F
330
51
100
AcDbEntity
  8
0
  6
Continuous
 62
     7
100
AcDbCircle
 10
-39.97774196794762
 20
-837.6857571309538
 30
0.0
 40
3.5
100
AcDbArc
 50
0.0
 51
90.0
  0
ARC
  5
170
330
51
100
AcDbEntity
  8
0
  6
Continuous
 62
     7
100
AcDbCircle
 10
-23.97774196794762
 20
-853.6857571309574
 30
0.0
 40
3.5
100
AcDbArc
 50
90.0
 51
180.0
  0
ARC
  5
171
330
51
100
AcDbEntity
  8
0
  6
Continuous
 62
     7
100
AcDbCircle
 10
-23.97774196794762
 20
-853.6857571309574
 30
0.0
 40
3.5
100
AcDbArc
 50
0.0
 51
90.0
  0
ARC
  5
172
330
51
100
AcDbEntity
  8
0
  6
Continuous
 62
     3
100
AcDbCircle
 10
-23.97774196794762
 20
-853.6857571309574
 30
0.0
 40
6.0
100
AcDbArc
 50
0.0
 51
90.0
  0
ARC
  5
173
330
51
100
AcDbEntity
  8
0
  6
Continuous
 62
     3
100
AcDbCircle
 10
-23.97774196794762
 20
-853.6857571309574
 30
0.0
 40
6.0
100
AcDbArc
 50
90.0
 51
180.0
  0
ARC
  5
174
330
51
100
AcDbEntity
  8
0
  6
Continuous
 62
     3
100
AcDbCircle
 10
-39.97774196794762
 20
-886.6857571309538
 30
0.0
 40
6.0
100
AcDbArc
 50
180.0
 51
-90.0
  0
ARC
  5
175
330
51
100
AcDbEntity
  8
0
  6
Continuous
 62
     7
100
AcDbCircle
 10
-39.97774196794762
 20
-886.6857571309538
 30
0.0
 40
3.5
100
AcDbArc
 50
180.0
 51
-90.0
  0
ARC
  5
176
330
51
100
AcDbEntity
  8
0
  6
Continuous
 62
     7
100
AcDbCircle
 10
-39.97774196795126
 20
-886.6857571309574
 30
0.0
 40
3.499999999996362
100
AcDbArc
 50
-89.99999999994044
 51
0.00000000005955
  0
ARC
  5
177
330
51
100
AcDbEntity
  8
0
  6
Continuous
 62
     3
100
AcDbCircle
 10
-24.499741967923
 20
-822.2077571309364
 30
0.0
 40
6.0
100
AcDbArc
 50
180.0
 51
-90.0
  0
ARC
  5
178
330
51
100
AcDbEntity
  8
0
  6
Continuous
 62
     3
100
AcDbCircle
 10
-8.499741967923
 20
-838.2077571309364
 30
0.0
 40
6.0
100
AcDbArc
 50
180.0
 51
-90.0
  0
ARC
  5
179
330
51
100
AcDbEntity
  8
0
  6
Continuous
 62
     7
100
AcDbCircle
 10
-8.499741967923
 20
-838.2077571309364
 30
0.0
 40
3.5
100
AcDbArc
 50
180.0
 51
-90.0
  0
ARC
  5
17A
330
51
100
AcDbEntity
  8
0
  6
Continuous
 62
     3
100
AcDbCircle
 10
39.97825803209798
 20
-837.6857571309611
 30
0.0
 40
6.0
100
AcDbArc
 50
0.0
 51
90.0
  0
ARC
  5
17B
330
51
100
AcDbEntity
  8
0
  6
Continuous
 62
     7
100
AcDbCircle
 10
39.97825803209798
 20
-837.6857571309611
 30
0.0
 40
3.5
100
AcDbArc
 50
0.0
 51
90.0
  0
ARC
  5
17C
330
51
100
AcDbEntity
  8
0
  6
Continuous
 62
     7
100
AcDbCircle
 10
23.97825803209798
 20
-870.6857571309611
 30
0.0
 40
3.5
100
AcDbArc
 50
180.0
 51
-90.0
  0
ARC
  5
17D
330
51
100
AcDbEntity
  8
0
  6
Continuous
 62
     7
100
AcDbCircle
 10
23.97825803209798
 20
-870.6857571309611
 30
0.0
 40
3.5
100
AcDbArc
 50
-90.0
 51
0.0
  0
ARC
  5
17E
330
51
100
AcDbEntity
  8
0
  6
Continuous
 62
     7
100
AcDbCircle
 10
39.97825803209435
 20
-837.6857571309647
 30
0.0
 40
3.500000000003638
100
AcDbArc
 50
89.99999999994056
 51
179.9999999999405
  0
ARC
  5
17F
330
51
100
AcDbEntity
  8
0
  6
Continuous
 62
     3
100
AcDbCircle
 10
39.97825803209798
 20
-886.6857571309611
 30
0.0
 40
6.0
100
AcDbArc
 50
180.0
 51
-90.0
  0
ARC
  5
180
330
51
100
AcDbEntity
  8
0
  6
Continuous
 62
     3
100
AcDbCircle
 10
55.97825803209798
 20
-902.6857571309647
 30
0.0
 40
6.0
100
AcDbArc
 50
-90.0
 51
0.0
  0
ARC
  5
181
330
51
100
AcDbEntity
  8
0
  6
Continuous
 62
     7
100
AcDbCircle
 10
55.97825803209798
 20
-902.6857571309611
 30
0.0
 40
3.500000000003638
100
AcDbArc
 50
-90.0
 51
-0.00000000005955
  0
ARC
  5
182
330
51
100
AcDbEntity
  8
0
  6
Continuous
 62
     3
100
AcDbCircle
 10
23.97825803209798
 20
-870.6857571309611
 30
0.0
 40
6.0
100
AcDbArc
 50
-90.0
 51
0.0
  0
ARC
  5
183
330
51
100
AcDbEntity
  8
0
  6
Continuous
 62
     7
100
AcDbCircle
 10
39.97825803209798
 20
-886.6857571309611
 30
0.0
 40
3.5
100
AcDbArc
 50
-90.0
 51
0.0
  0
ARC
  5
184
330
51
100
AcDbEntity
  8
0
  6
Continuous
 62
     3
100
AcDbCircle
 10
23.97825803209798
 20
-870.6857571309611
 30
0.0
 40
6.0
100
AcDbArc
 50
180.0
 51
-90.0
  0
ARC
  5
185
330
51
100
AcDbEntity
  8
0
  6
Continuous
 62
     7
100
AcDbCircle
 10
39.97825803209798
 20
-886.6857571309611
 30
0.0
 40
3.5
100
AcDbArc
 50
180.0
 51
-90.0
  0
ARC
  5
186
330
51
100
AcDbEntity
  8
0
  6
Continuous
 62
     3
100
AcDbCircle
 10
39.97825803209798
 20
-886.6857571309611
 30
0.0
 40
6.0
100
AcDbArc
 50
-90.0
 51
0.0
  0
ARC
  5
187
330
51
100
AcDbEntity
  8
0
  6
Continuous
 62
     7
100
AcDbCircle
 10
55.97825803209798
 20
-821.6857571309647
 30
0.0
 40
3.5
100
AcDbArc
 50
0.0
 51
90.0
  0
ARC
  5
188
330
51
100
AcDbEntity
  8
0
  6
Continuous
 62
     7
100
AcDbCircle
 10
55.97825803209798
 20
-902.6857571309647
 30
0.0
 40
3.5
100
AcDbArc
 50
180.0
 51
-90.0
  0
ARC
  5
189
330
51
100
AcDbEntity
  8
0
  6
Continuous
 62
     3
100
AcDbCircle
 10
55.97825803209798
 20
-902.6857571309647
 30
0.0
 40
6.0
100
AcDbArc
 50
180.0
 51
-90.0
  0
ARC
  5
18A
330
51
100
AcDbEntity
  8
0
  6
Continuous
 62
     7
100
AcDbCircle
 10
55.97825803209798
 20
-821.6857571309611
 30
0.0
 40
3.499999999996362
100
AcDbArc
 50
90.0
 51
-179.9999999999405
  0
ARC
  5
18B
330
51
100
AcDbEntity
  8
0
  6
Continuous
 62
     3
100
AcDbCircle
 10
8.50025803207336
 20
-886.163757130982
 30
0.0
 40
5.999999999999998
100
AcDbArc
 50
0.0
 51
90.0
  0
ARC
  5
18C
330
51
100
AcDbEntity
  8
0
  6
Continuous
 62
     7
100
AcDbCircle
 10
8.50025803207336
 20
-886.163757130982
 30
0.0
 40
3.499999999999998
100
AcDbArc
 50
0.0
 51
90.0
  0
ARC
  5
18D
330
51
100
AcDbEntity
  8
0
  6
Continuous
 62
     3
100
AcDbCircle
 10
55.97825803209798
 20
-821.6857571309647
 30
0.0
 40
6.0
100
AcDbArc
 50
0.0
 51
90.0
  0
ARC
  5
18E
330
51
100
AcDbEntity
  8
0
  6
Continuous
 62
     3
100
AcDbCircle
 10
55.97825803209798
 20
-821.6857571309647
 30
0.0
 40
6.0
100
AcDbArc
 50
90.0
 51
180.0
  0
ARC
  5
18F
330
51
100
AcDbEntity
  8
0
  6
Continuous
 62
     3
100
AcDbCircle
 10
39.97825803209798
 20
-837.6857571309611
 30
0.0
 40
6.0
100
AcDbArc
 50
90.0
 51
180.0
  0
ARC
  5
190
330
51
100
AcDbEntity
  8
0
  6
Continuous
 62
     3
100
AcDbCircle
 10
-8.49974196792664
 20
-886.163757130982
 30
0.0
 40
6.000000000000002
100
AcDbArc
 50
180.0
 51
-90.0
  0
ARC
  5
191
330
51
100
AcDbEntity
  8
0
  6
Continuous
 62
     7
100
AcDbCircle
 10
8.50025803207336
 20
-886.163757130982
 30
0.0
 40
3.5
100
AcDbArc
 50
-90.0
 51
0.0
  0
ARC
  5
192
330
51
100
AcDbEntity
  8
0
  6
Continuous
 62
     3
100
AcDbCircle
 10
8.50025803207336
 20
-886.163757130982
 30
0.0
 40
6.0
100
AcDbArc
 50
-90.0
 51
0.0
  0
ARC
  5
193
330
51
100
AcDbEntity
  8
0
  6
Continuous
 62
     7
100
AcDbCircle
 10
-8.49974196792664
 20
-886.163757130982
 30
0.0
 40
3.5
100
AcDbArc
 50
90.0
 51
180.0
  0
ARC
  5
194
330
51
100
AcDbEntity
  8
0
  6
Continuous
 62
     3
100
AcDbCircle
 10
-8.49974196792664
 20
-886.163757130982
 30
0.0
 40
6.0
100
AcDbArc
 50
90.0
 51
180.0
  0
ARC
  5
195
330
51
100
AcDbEntity
  8
0
  6
Continuous
 62
     7
100
AcDbCircle
 10
-8.49974196792664
 20
-886.163757130982
 30
0.0
 40
3.500000000000002
100
AcDbArc
 50
180.0
 51
-90.0
  0
ARC
  5
196
330
51
100
AcDbEntity
  8
0
  6
Continuous
 62
     7
100
AcDbCircle
 10
-24.49974196793755
 20
-902.1637571309748
 30
0.0
 40
3.499999999992731
100
AcDbArc
 50
-179.9999999998809
 51
-89.99999999988101
  0
ARC
  5
197
330
51
100
AcDbEntity
  8
0
  6
Continuous
 62
     7
100
AcDbCircle
 10
-24.49974196793028
 20
-902.163757130982
 30
0.0
 40
3.5
100
AcDbArc
 50
90.0
 51
180.0
  0
ARC
  5
198
330
51
100
AcDbEntity
  8
0
  6
Continuous
 62
     3
100
AcDbCircle
 10
-24.49974196793028
 20
-902.163757130982
 30
0.0
 40
6.0
100
AcDbArc
 50
90.0
 51
180.0
  0
ARC
  5
199
330
51
100
AcDbEntity
  8
0
  6
Continuous
 62
     3
100
AcDbCircle
 10
24.50025803206972
 20
-902.163757130982
 30
0.0
 40
6.0
100
AcDbArc
 50
-90.0
 51
0.0
  0
ARC
  5
19A
330
51
100
AcDbEntity
  8
0
  6
Continuous
 62
     3
100
AcDbCircle
 10
24.50025803206972
 20
-902.163757130982
 30
0.0
 40
6.0
100
AcDbArc
 50
0.0
 51
90.0
  0
ARC
  5
19B
330
51
100
AcDbEntity
  8
0
  6
Continuous
 62
     7
100
AcDbCircle
 10
24.50025803207336
 20
-902.163757130982
 30
0.0
 40
3.499999999996358
100
AcDbArc
 50
0.0
 51
90.00000000005961
  0
ARC
  5
19C
330
51
100
AcDbEntity
  8
0
  6
Continuous
 62
     7
100
AcDbCircle
 10
24.50025803206972
 20
-902.163757130982
 30
0.0
 40
3.5
100
AcDbArc
 50
-90.0
 51
0.0
  0
ARC
  5
19D
330
51
100
AcDbEntity
  8
0
  6
Continuous
 62
     3
100
AcDbCircle
 10
-8.499741967923
 20
-838.2077571309364
 30
0.0
 40
6.0
100
AcDbArc
 50
90.0
 51
180.0
  0
ARC
  5
19E
330
51
100
AcDbEntity
  8
0
  6
Continuous
 62
     7
100
AcDbCircle
 10
-8.499741967923
 20
-838.2077571309364
 30
0.0
 40
3.5
100
AcDbArc
 50
90.0
 51
180.0
  0
ARC
  5
19F
330
51
100
AcDbEntity
  8
0
  6
Continuous
 62
     3
100
AcDbCircle
 10
23.97825803209798
 20
-853.6857571309611
 30
0.0
 40
6.0
100
AcDbArc
 50
0.0
 51
90.0
  0
ARC
  5
1A0
330
51
100
AcDbEntity
  8
0
  6
Continuous
 62
     7
100
AcDbCircle
 10
23.97825803209798
 20
-853.6857571309611
 30
0.0
 40
3.499999999996369
100
AcDbArc
 50
0.0
 51
90.0
  0
ARC
  5
1A1
330
51
100
AcDbEntity
  8
0
  6
Continuous
 62
     3
100
AcDbCircle
 10
-24.49974196793028
 20
-902.163757130982
 30
0.0
 40
6.0
100
AcDbArc
 50
180.0
 51
-90.0
  0
ARC
  5
1A2
330
51
100
AcDbEntity
  8
0
  6
Continuous
 62
     3
100
AcDbCircle
 10
40.50025803206972
 20
-918.163757130982
 30
0.0
 40
6.0
100
AcDbArc
 50
-90.0
 51
0.0
  0
ARC
  5
1A3
330
51
100
AcDbEntity
  8
0
  6
Continuous
 62
     7
100
AcDbCircle
 10
40.50025803206972
 20
-918.163757130982
 30
0.0
 40
3.5
100
AcDbArc
 50
-90.0
 51
0.0
  0
ARC
  5
1A4
330
51
100
AcDbEntity
  8
0
  6
Continuous
 62
     7
100
AcDbCircle
 10
40.50025803206245
 20
-918.1637571309748
 30
0.0
 40
3.500000000007276
100
AcDbArc
 50
-0.00000000011911
 51
89.9999999998809
  0
ARC
  5
1A5
330
51
100
AcDbEntity
  8
0
  6
Continuous
 62
     3
100
AcDbCircle
 10
40.50025803206972
 20
-918.163757130982
 30
0.0
 40
6.0
100
AcDbArc
 50
0.0
 51
90.0
  0
ARC
  5
1A6
330
51
100
AcDbEntity
  8
0
  6
Continuous
 62
     7
100
AcDbCircle
 10
-40.49974196793028
 20
-918.163757130982
 30
0.0
 40
3.5
100
AcDbArc
 50
90.0
 51
180.0
  0
ARC
  5
1A7
330
51
100
AcDbEntity
  8
0
  6
Continuous
 62
     7
100
AcDbCircle
 10
-40.49974196793028
 20
-918.163757130982
 30
0.0
 40
3.5
100
AcDbArc
 50
180.0
 51
-90.0
  0
ARC
  5
1A8
330
51
100
AcDbEntity
  8
0
  6
Continuous
 62
     3
100
AcDbCircle
 10
-40.49974196793028
 20
-918.163757130982
 30
0.0
 40
6.0
100
AcDbArc
 50
180.0
 51
-90.0
  0
ARC
  5
1A9
330
51
100
AcDbEntity
  8
0
  6
Continuous
 62
     3
100
AcDbCircle
 10
0.00025803207518
 20
-862.1857571309374
 30
0.0
 40
76.99999999999973
100
AcDbArc
 50
73.95376591949936
 51
106.0462340805033
  0
ARC
  5
1AA
330
51
100
AcDbEntity
  8
0
  6
Continuous
 62
     7
100
AcDbCircle
 10
0.0002580321152
 20
-862.1857571309338
 30
0.0
 40
75.9999999999988
100
AcDbArc
 50
96.23037614072281
 51
96.26137646257372
  0
ARC
  5
1AB
330
51
100
AcDbEntity
  8
0
  6
Continuous
 62
     7
100
AcDbCircle
 10
0.00025803207518
 20
-862.1857571309374
 30
0.0
 40
76.00000000000006
100
AcDbArc
 50
96.26137646254342
 51
103.173551107259
  0
ARC
  5
1AC
330
51
100
AcDbEntity
  8
0
  6
Continuous
 62
     7
100
AcDbCircle
 10
0.0002580320679
 20
-862.1857571309374
 30
0.0
 40
76.00000000000168
100
AcDbArc
 50
76.82644889273567
 51
79.08024705858803
  0
ARC
  5
1AD
330
51
100
AcDbEntity
  8
0
  6
Continuous
 62
     7
100
AcDbCircle
 10
0.00025803207518
 20
-862.1857571309374
 30
0.0
 40
75.99999999999936
100
AcDbArc
 50
79.08024705859343
 51
84.42979603406313
  0
ARC
  5
1AE
330
51
100
AcDbEntity
  8
0
  6
Continuous
 62
     7
100
AcDbCircle
 10
0.00025803207518
 20
-862.1857571309374
 30
0.0
 40
76.00000000000045
100
AcDbArc
 50
84.42979603406313
 51
96.23037614069253
  0
ARC
  5
1AF
330
51
100
AcDbEntity
  8
0
  6
Continuous
 62
     7
100
AcDbCircle
 10
0.00025803207154
 20
-862.1857571309483
 30
0.0
 40
75.99999999999896
100
AcDbArc
 50
166.8264488927324
 51
169.0802470585827
  0
ARC
  5
1B0
330
51
100
AcDbEntity
  8
0
  6
Continuous
 62
     3
100
AcDbCircle
 10
0.00025803207518
 20
-862.1857571309374
 30
0.0
 40
77.00000000000074
100
AcDbArc
 50
163.9537659194968
 51
-163.9537659194968
  0
ARC
  5
1B1
330
51
100
AcDbEntity
  8
0
  6
Continuous
 62
     7
100
AcDbCircle
 10
0.00025803207518
 20
-862.185757130941
 30
0.0
 40
76.0000000000013
100
AcDbArc
 50
-173.7696238593105
 51
-173.7386235374593
  0
ARC
  5
1B2
330
51
100
AcDbEntity
  8
0
  6
Continuous
 62
     7
100
AcDbCircle
 10
0.00025803207518
 20
-862.1857571309374
 30
0.0
 40
76.00000000000045
100
AcDbArc
 50
174.4297960340631
 51
-173.7696238593078
  0
ARC
  5
1B3
330
51
100
AcDbEntity
  8
0
  6
Continuous
 62
     7
100
AcDbCircle
 10
0.00025803207518
 20
-862.1857571309374
 30
0.0
 40
76.00000000000006
100
AcDbArc
 50
-173.7386235374566
 51
-166.826448892741
  0
ARC
  5
1B4
330
51
100
AcDbEntity
  8
0
  6
Continuous
 62
     7
100
AcDbCircle
 10
0.00025803207518
 20
-862.1857571309374
 30
0.0
 40
76.00000000000362
100
AcDbArc
 50
169.0802470585913
 51
174.4297960340631
  0
ARC
  5
1B5
330
51
100
AcDbEntity
  8
0
  6
Continuous
 62
     7
100
AcDbCircle
 10
70.61629174741302
 20
-867.3660557836411
 30
0.0
 40
2.50000000000317
100
AcDbArc
 50
132.7544049108006
 51
133.2026488314951
  0
ARC
  5
1B6
330
51
100
AcDbEntity
  8
0
  6
Continuous
 62
     7
100
AcDbCircle
 10
0.0002580320679
 20
-862.1857571308683
 30
0.0
 40
75.99999999999743
100
AcDbArc
 50
6.2303761406374
 51
6.26137646249102
  0
ARC
  5
1B7
330
51
100
AcDbEntity
  8
0
  6
Continuous
 62
     7
100
AcDbCircle
 10
0.00025803207518
 20
-862.1857571309374
 30
0.0
 40
75.99999999999683
100
AcDbArc
 50
-5.57020396593714
 51
6.23037614068979
  0
ARC
  5
1B8
330
51
100
AcDbEntity
  8
0
  6
Continuous
 62
     7
100
AcDbCircle
 10
0.00025803207518
 20
-862.1857571309374
 30
0.0
 40
76.00000000000006
100
AcDbArc
 50
6.26137646254342
 51
13.17355110725898
  0
ARC
  5
1B9
330
51
100
AcDbEntity
  8
0
  6
Continuous
 62
     3
100
AcDbCircle
 10
0.00025803207518
 20
-862.1857571309374
 30
0.0
 40
76.99999999999973
100
AcDbArc
 50
-16.04623408050064
 51
16.04623408050064
  0
ARC
  5
1BA
330
51
100
AcDbEntity
  8
0
  6
Continuous
 62
     7
100
AcDbCircle
 10
0.00025803207518
 20
-862.1857571309374
 30
0.0
 40
76.00000000000006
100
AcDbArc
 50
-10.91975294140927
 51
-5.57020396593714
  0
ARC
  5
1BB
330
51
100
AcDbEntity
  8
0
  6
Continuous
 62
     7
100
AcDbCircle
 10
0.00025803207154
 20
-862.1857571309483
 30
0.0
 40
76.00000000000107
100
AcDbArc
 50
-13.17355110725034
 51
-10.91975294140068
  0
ARC
  5
1BC
330
51
100
AcDbEntity
  8
0
  6
Continuous
 62
     7
100
AcDbCircle
 10
0.00025803211156
 20
-862.1857571309338
 30
0.0
 40
76.00000000000097
100
AcDbArc
 50
-83.76962385933807
 51
-83.73862353748687
  0
ARC
  5
1BD
330
51
100
AcDbEntity
  8
0
  6
Continuous
 62
     7
100
AcDbCircle
 10
0.00025803207518
 20
-862.1857571309374
 30
0.0
 40
75.99999999999966
100
AcDbArc
 50
-83.7386235374593
 51
-76.82644889274101
  0
ARC
  5
1BE
330
51
100
AcDbEntity
  8
0
  6
Continuous
 62
     7
100
AcDbCircle
 10
0.00025803207518
 20
-862.1857571309374
 30
0.0
 40
76.00000000000081
100
AcDbArc
 50
-95.57020396593961
 51
-83.76962385931051
  0
ARC
  5
1BF
330
51
100
AcDbEntity
  8
0
  6
Continuous
 62
     3
100
AcDbCircle
 10
0.00025803207518
 20
-862.1857571309374
 30
0.0
 40
76.99999999999973
100
AcDbArc
 50
-106.0462340805006
 51
-73.95376591949936
  0
ARC
  5
1C0
330
51
100
AcDbEntity
  8
0
  6
Continuous
 62
     7
100
AcDbCircle
 10
0.00025803207518
 20
-862.1857571309374
 30
0.0
 40
76.00000000000006
100
AcDbArc
 50
-100.9197529414093
 51
-95.57020396593961
  0
ARC
  5
1C1
330
51
100
AcDbEntity
  8
0
  6
Continuous
 62
     7
100
AcDbCircle
 10
0.0002580320679
 20
-862.1857571309374
 30
0.0
 40
75.99999999999837
100
AcDbArc
 50
-103.1735511072536
 51
-100.9197529414039
  0
ARC
  5
1C2
330
51
100
AcDbEntity
  8
0
  6
Continuous
 62
     3
100
AcDbCircle
 10
0.00025803207518
 20
-862.1857571309374
 30
0.0
 40
85.37783315493913
100
AcDbArc
 50
60.08147285557541
 51
119.9185271444246
  0
ARC
  5
1C3
330
51
100
AcDbEntity
  8
0
  6
Continuous
 62
     7
100
AcDbCircle
 10
0.0002580321152
 20
-862.1857571309338
 30
0.0
 40
75.9999999999988
100
AcDbArc
 50
96.23037614072281
 51
96.26137646257372
  0
ARC
  5
1C4
330
51
100
AcDbEntity
  8
0
  6
Continuous
 62
     7
100
AcDbCircle
 10
0.00025803207518
 20
-862.1857571309374
 30
0.0
 40
76.00000000000006
100
AcDbArc
 50
96.26137646254342
 51
103.173551107259
  0
ARC
  5
1C5
330
51
100
AcDbEntity
  8
0
  6
Continuous
 62
     7
100
AcDbCircle
 10
0.0002580320679
 20
-862.1857571309374
 30
0.0
 40
76.00000000000168
100
AcDbArc
 50
76.82644889273567
 51
79.08024705858803
  0
ARC
  5
1C6
330
51
100
AcDbEntity
  8
0
  6
Continuous
 62
     7
100
AcDbCircle
 10
0.00025803207518
 20
-862.1857571309374
 30
0.0
 40
75.99999999999936
100
AcDbArc
 50
79.08024705859343
 51
84.42979603406313
  0
ARC
  5
1C7
330
51
100
AcDbEntity
  8
0
  6
Continuous
 62
     7
100
AcDbCircle
 10
0.00025803207518
 20
-862.1857571309374
 30
0.0
 40
76.00000000000045
100
AcDbArc
 50
84.42979603406313
 51
96.23037614069253
  0
ARC
  5
1C8
330
51
100
AcDbEntity
  8
0
  6
Continuous
 62
     7
100
AcDbCircle
 10
0.00025803207518
 20
-862.1857571309374
 30
0.0
 40
74.80000000000052
100
AcDbArc
 50
83.6703441407098
 51
98.38725134133583
  0
ARC
  5
1C9
330
51
100
AcDbEntity
  8
0
  6
Continuous
 62
     7
100
AcDbCircle
 10
0.00025803207154
 20
-862.1857571309483
 30
0.0
 40
75.99999999999896
100
AcDbArc
 50
166.8264488927324
 51
169.0802470585827
  0
ARC
  5
1CA
330
51
100
AcDbEntity
  8
0
  6
Continuous
 62
     7
100
AcDbCircle
 10
0.00025803207518
 20
-862.185757130941
 30
0.0
 40
76.0000000000013
100
AcDbArc
 50
-173.7696238593105
 51
-173.7386235374593
  0
ARC
  5
1CB
330
51
100
AcDbEntity
  8
0
  6
Continuous
 62
     7
100
AcDbCircle
 10
0.00025803207518
 20
-862.1857571309374
 30
0.0
 40
76.00000000000045
100
AcDbArc
 50
174.4297960340631
 51
-173.7696238593078
  0
ARC
  5
1CC
330
51
100
AcDbEntity
  8
0
  6
Continuous
 62
     7
100
AcDbCircle
 10
0.00025803207518
 20
-862.1857571309374
 30
0.0
 40
76.00000000000006
100
AcDbArc
 50
-173.7386235374566
 51
-166.826448892741
  0
ARC
  5
1CD
330
51
100
AcDbEntity
  8
0
  6
Continuous
 62
     7
100
AcDbCircle
 10
0.00025803207518
 20
-862.1857571309374
 30
0.0
 40
76.00000000000362
100
AcDbArc
 50
169.0802470585913
 51
174.4297960340631
  0
ARC
  5
1CE
330
51
100
AcDbEntity
  8
0
  6
Continuous
 62
     3
100
AcDbCircle
 10
0.00025803207518
 20
-862.1857571309374
 30
0.0
 40
85.37783315493913
100
AcDbArc
 50
150.0814728555754
 51
-150.0814728555754
  0
ARC
  5
1CF
330
51
100
AcDbEntity
  8
0
  6
Continuous
 62
     7
100
AcDbCircle
 10
0.0002580320679
 20
-862.1857571308683
 30
0.0
 40
75.99999999999743
100
AcDbArc
 50
6.2303761406374
 51
6.26137646249102
  0
ARC
  5
1D0
330
51
100
AcDbEntity
  8
0
  6
Continuous
 62
     7
100
AcDbCircle
 10
0.00025803207518
 20
-862.1857571309374
 30
0.0
 40
75.99999999999683
100
AcDbArc
 50
-5.57020396593714
 51
6.23037614068979
  0
ARC
  5
1D1
330
51
100
AcDbEntity
  8
0
  6
Continuous
 62
     7
100
AcDbCircle
 10
0.00025803207518
 20
-862.1857571309374
 30
0.0
 40
76.00000000000006
100
AcDbArc
 50
6.26137646254342
 51
13.17355110725898
  0
ARC
  5
1D2
330
51
100
AcDbEntity
  8
0
  6
Continuous
 62
     3
100
AcDbCircle
 10
0.00025803207518
 20
-862.1857571309374
 30
0.0
 40
85.37783315493913
100
AcDbArc
 50
-29.91852714442458
 51
29.91852714442458
  0
ARC
  5
1D3
330
51
100
AcDbEntity
  8
0
  6
Continuous
 62
     7
100
AcDbCircle
 10
0.00025803207518
 20
-862.1857571309374
 30
0.0
 40
76.00000000000006
100
AcDbArc
 50
-10.91975294140927
 51
-5.57020396593714
  0
ARC
  5
1D4
330
51
100
AcDbEntity
  8
0
  6
Continuous
 62
     7
100
AcDbCircle
 10
0.00025803207154
 20
-862.1857571309483
 30
0.0
 40
76.00000000000107
100
AcDbArc
 50
-13.17355110725034
 51
-10.91975294140068
  0
ARC
  5
1D5
330
51
100
AcDbEntity
  8
0
  6
Continuous
 62
     7
100
AcDbCircle
 10
0.00025803211156
 20
-862.1857571309338
 30
0.0
 40
76.00000000000097
100
AcDbArc
 50
-83.76962385933807
 51
-83.73862353748687
  0
ARC
  5
1D6
330
51
100
AcDbEntity
  8
0
  6
Continuous
 62
     7
100
AcDbCircle
 10
0.00025803207518
 20
-862.1857571309374
 30
0.0
 40
75.99999999999966
100
AcDbArc
 50
-83.7386235374593
 51
-76.82644889274101
  0
ARC
  5
1D7
330
51
100
AcDbEntity
  8
0
  6
Continuous
 62
     7
100
AcDbCircle
 10
0.00025803207518
 20
-862.1857571309374
 30
0.0
 40
74.80000000000052
100
AcDbArc
 50
-6.32965585929021
 51
8.38725134133582
  0
ARC
  5
1D8
330
51
100
AcDbEntity
  8
0
  6
Continuous
 62
     7
100
AcDbCircle
 10
0.00025803207518
 20
-862.1857571309374
 30
0.0
 40
76.00000000000081
100
AcDbArc
 50
-95.57020396593961
 51
-83.76962385931051
  0
ARC
  5
1D9
330
51
100
AcDbEntity
  8
0
  6
Continuous
 62
     7
100
AcDbCircle
 10
0.00025803207518
 20
-862.1857571309374
 30
0.0
 40
76.00000000000006
100
AcDbArc
 50
-100.9197529414093
 51
-95.57020396593961
  0
ARC
  5
1DA
330
51
100
AcDbEntity
  8
0
  6
Continuous
 62
     7
100
AcDbCircle
 10
0.0002580320679
 20
-862.1857571309374
 30
0.0
 40
75.99999999999837
100
AcDbArc
 50
-103.1735511072536
 51
-100.9197529414039
  0
ARC
  5
1DB
330
51
100
AcDbEntity
  8
0
  6
Continuous
 62
     7
100
AcDbCircle
 10
0.00025803207518
 20
-862.1857571309374
 30
0.0
 40
74.80000000000052
100
AcDbArc
 50
173.6703441407098
 51
-171.6127486586642
  0
ARC
  5
1DC
330
51
100
AcDbEntity
  8
0
  6
Continuous
 62
     7
100
AcDbCircle
 10
0.00025803207518
 20
-862.1857571309374
 30
0.0
 40
74.80000000000094
100
AcDbArc
 50
-96.32965585929297
 51
-81.61274865866693
  0
ARC
  5
1DD
330
51
100
AcDbEntity
  8
0
  6
Continuous
 62
     3
100
AcDbCircle
 10
0.00025803207518
 20
-862.1857571309374
 30
0.0
 40
85.37783315493913
100
AcDbArc
 50
-119.9185271444246
 51
-60.08147285557541
  0
ARC
  5
1DE
330
51
100
AcDbEntity
  8
1
  6
Continuous
 62
     7
100
AcDbCircle
 10
-81.40612992366323
 20
-815.185757130934
 30
0.0
 40
4.499999999998018
100
AcDbArc
 50
121.8656082452237
 51
134.6243486621292
  0
ARC
  5
1DF
330
51
100
AcDbEntity
  8
1
  6
Continuous
 62
     7
100
AcDbCircle
 10
-81.40612992366323
 20
-815.185757130934
 30
0.0
 40
4.500000000001282
100
AcDbArc
 50
31.86560824520548
 51
44.62434866206659
  0
ARC
  5
1E0
330
51
100
AcDbEntity
  8
1
  6
Continuous
 62
     7
100
AcDbCircle
 10
-81.40612992366323
 20
-815.185757130934
 30
0.0
 40
4.500000000001267
100
AcDbArc
 50
-58.13439175479483
 51
-45.37565133789666
  0
ARC
  5
1E1
330
51
100
AcDbEntity
  8
1
  6
Continuous
 62
     7
100
AcDbCircle
 10
-81.40612992366323
 20
-815.185757130934
 30
0.0
 40
4.499999999999366
100
AcDbArc
 50
-148.134391754735
 51
-135.3756513378711
  0
ARC
  5
1E2
330
51
100
AcDbEntity
  8
1
  6
Continuous
 62
     7
100
AcDbCircle
 10
0.00025803207393
 20
-768.1857571309395
 30
0.0
 40
4.500000000001593
100
AcDbArc
 50
61.86560824524201
 51
74.62434866209755
  0
ARC
  5
1E3
330
51
100
AcDbEntity
  8
1
  6
Continuous
 62
     7
100
AcDbCircle
 10
0.00025803207393
 20
-768.1857571309395
 30
0.0
 40
4.500000000001661
100
AcDbArc
 50
-28.13439175475732
 51
-15.37565133786063
  0
ARC
  5
1E4
330
51
100
AcDbEntity
  8
1
  6
Continuous
 62
     7
100
AcDbCircle
 10
0.00025803207393
 20
-768.1857571309395
 30
0.0
 40
4.499999999998846
100
AcDbArc
 50
-118.1343917547847
 51
-105.3756513378786
  0
ARC
  5
1E5
330
51
100
AcDbEntity
  8
1
  6
Continuous
 62
     7
100
AcDbCircle
 10
0.00025803207393
 20
-768.1857571309395
 30
0.0
 40
4.499999999998742
100
AcDbArc
 50
151.8656082452162
 51
164.6243486620802
  0
ARC
  5
1E6
330
51
100
AcDbEntity
  8
1
  6
Continuous
 62
     7
100
AcDbCircle
 10
81.40664598781183
 20
-815.1857571309395
 30
0.0
 40
4.499999999998942
100
AcDbArc
 50
1.86560824522863
 51
14.62434866211747
  0
ARC
  5
1E7
330
51
100
AcDbEntity
  8
1
  6
Continuous
 62
     7
100
AcDbCircle
 10
81.40664598781183
 20
-815.1857571309395
 30
0.0
 40
4.499999999998941
100
AcDbArc
 50
-88.13439175477174
 51
-75.375651337883
  0
ARC
  5
1E8
330
51
100
AcDbEntity
  8
1
  6
Continuous
 62
     7
100
AcDbCircle
 10
81.40664598781183
 20
-815.1857571309395
 30
0.0
 40
4.500000000002579
100
AcDbArc
 50
-178.1343917547671
 51
-165.3756513378886
  0
ARC
  5
1E9
330
51
100
AcDbEntity
  8
1
  6
Continuous
 62
     7
100
AcDbCircle
 10
81.40664598781183
 20
-815.1857571309395
 30
0.0
 40
4.500000000002595
100
AcDbArc
 50
91.86560824523364
 51
104.624348662112
  0
ARC
  5
1EA
330
51
100
AcDbEntity
  8
1
  6
Continuous
 62
     7
100
AcDbCircle
 10
81.40664598780948
 20
-909.1857571309379
 30
0.0
 40
4.499999999999507
100
AcDbArc
 50
-58.13439175473489
 51
-45.37565133787079
  0
ARC
  5
1EB
330
51
100
AcDbEntity
  8
1
  6
Continuous
 62
     7
100
AcDbCircle
 10
81.40664598780948
 20
-909.1857571309379
 30
0.0
 40
4.499999999998
100
AcDbArc
 50
-148.1343917547754
 51
-135.3756513378688
  0
ARC
  5
1EC
330
51
100
AcDbEntity
  8
1
  6
Continuous
 62
     7
100
AcDbCircle
 10
81.40664598780948
 20
-909.1857571309379
 30
0.0
 40
4.500000000001282
100
AcDbArc
 50
121.8656082452055
 51
134.6243486621036
  0
ARC
  5
1ED
330
51
100
AcDbEntity
  8
1
  6
Continuous
 62
     7
100
AcDbCircle
 10
81.40664598780948
 20
-909.1857571309379
 30
0.0
 40
4.500000000001282
100
AcDbArc
 50
31.86560824520548
 51
44.62434866210219
  0
ARC
  5
1EE
330
51
100
AcDbEntity
  8
1
  6
Continuous
 62
     7
100
AcDbCircle
 10
0.00025803207282
 20
-956.1857571309359
 30
0.0
 40
4.500000000001693
100
AcDbArc
 50
-118.1343917547573
 51
-105.3756513378595
  0
ARC
  5
1EF
330
51
100
AcDbEntity
  8
1
  6
Continuous
 62
     7
100
AcDbCircle
 10
0.00025803207282
 20
-956.1857571309359
 30
0.0
 40
4.499999999996592
100
AcDbArc
 50
151.8656082452525
 51
164.6243486621216
  0
ARC
  5
1F0
330
51
100
AcDbEntity
  8
1
  6
Continuous
 62
     7
100
AcDbCircle
 10
0.00025803207282
 20
-956.1857571309359
 30
0.0
 40
4.499999999998739
100
AcDbArc
 50
61.86560824521479
 51
74.62434866207884
  0
ARC
  5
1F1
330
51
100
AcDbEntity
  8
1
  6
Continuous
 62
     7
100
AcDbCircle
 10
0.00025803207282
 20
-956.1857571309359
 30
0.0
 40
4.500000000001686
100
AcDbArc
 50
-28.13439175475715
 51
-15.37565133790207
  0
ARC
  5
1F2
330
51
100
AcDbEntity
  8
1
  6
Continuous
 62
     7
100
AcDbCircle
 10
-81.40612992366096
 20
-909.1857571309391
 30
0.0
 40
4.499999999998942
100
AcDbArc
 50
-88.13439175477137
 51
-75.37565133788284
  0
ARC
  5
1F3
330
51
100
AcDbEntity
  8
1
  6
Continuous
 62
     7
100
AcDbCircle
 10
-81.40612992366096
 20
-909.1857571309391
 30
0.0
 40
4.499999999998942
100
AcDbArc
 50
1.86560824522863
 51
14.62434866211752
  0
ARC
  5
1F4
330
51
100
AcDbEntity
  8
1
  6
Continuous
 62
     7
100
AcDbCircle
 10
-81.40612992366096
 20
-909.1857571309391
 30
0.0
 40
4.499999999998941
100
AcDbArc
 50
91.86560824522827
 51
104.6243486621168
  0
ARC
  5
1F5
330
51
100
AcDbEntity
  8
1
  6
Continuous
 62
     7
100
AcDbCircle
 10
-81.40612992366096
 20
-909.1857571309391
 30
0.0
 40
4.500000000002565
100
AcDbArc
 50
-178.1343917547671
 51
-165.3756513378885
  0
CIRCLE
  5
1F6
330
51
100
AcDbEntity
  8
0
  6
Continuous
 62
     7
100
AcDbCircle
 10
0.00025803207518
 20
-862.1857571309374
 30
0.0
 40
109.9989998999781
  0
CIRCLE
  5
1F7
330
51
100
AcDbEntity
  8
0
  6
Continuous
 62
     7
100
AcDbCircle
 10
0.00025803207518
 20
-862.1857571309374
 30
0.0
 40
108.9597979746449
  0
CIRCLE
  5
1F8
330
51
100
AcDbEntity
  8
0
  6
Continuous
 62
     7
100
AcDbCircle
 10
0.00025803207518
 20
-862.1857571309374
 30
0.0
 40
105.5262389627567
  0
CIRCLE
  5
1F9
330
51
100
AcDbEntity
  8
0
  6
Continuous
 62
     7
100
AcDbCircle
 10
-81.40612992366943
 20
-815.1857571309422
 30
0.0
 40
6.899999999997338
  0
CIRCLE
  5
1FA
330
51
100
AcDbEntity
  8
1
  6
Continuous
 62
     7
100
AcDbCircle
 10
-81.40612992366323
 20
-815.185757130934
 30
0.0
 40
5.499999999999143
  0
CIRCLE
  5
1FB
330
51
100
AcDbEntity
  8
0
  6
Continuous
 62
     7
100
AcDbCircle
 10
0.00025803206978
 20
-768.1857571309364
 30
0.0
 40
6.899999999995316
  0
CIRCLE
  5
1FC
330
51
100
AcDbEntity
  8
1
  6
Continuous
 62
     7
100
AcDbCircle
 10
0.00025803207393
 20
-768.1857571309395
 30
0.0
 40
5.500000000002187
  0
CIRCLE
  5
1FD
330
51
100
AcDbEntity
  8
0
  6
Continuous
 62
     7
100
AcDbCircle
 10
81.40664598781078
 20
-815.1857571309323
 30
0.0
 40
6.899999999996122
  0
CIRCLE
  5
1FE
330
51
100
AcDbEntity
  8
1
  6
Continuous
 62
     7
100
AcDbCircle
 10
81.40664598781183
 20
-815.1857571309395
 30
0.0
 40
5.500000000000002
  0
CIRCLE
  5
1FF
330
51
100
AcDbEntity
  8
0
  6
Continuous
 62
     7
100
AcDbCircle
 10
81.40664598781615
 20
-909.1857571309332
 30
0.0
 40
6.899999999995101
  0
CIRCLE
  5
200
330
51
100
AcDbEntity
  8
1
  6
Continuous
 62
     7
100
AcDbCircle
 10
81.40664598780948
 20
-909.1857571309379
 30
0.0
 40
5.499999999999134
  0
CIRCLE
  5
201
330
51
100
AcDbEntity
  8
0
  6
Continuous
 62
     7
100
AcDbCircle
 10
0.00025803208108
 20
-956.1857571309421
 30
0.0
 40
6.899999999995885
  0
CIRCLE
  5
202
330
51
100
AcDbEntity
  8
1
  6
Continuous
 62
     7
100
AcDbCircle
 10
0.00025803207282
 20
-956.1857571309359
 30
0.0
 40
5.500000000002187
  0
CIRCLE
  5
203
330
51
100
AcDbEntity
  8
1
  6
Continuous
 62
     7
100
AcDbCircle
 10
-81.40612992366096
 20
-909.1857571309391
 30
0.0
 40
5.499999999999986
  0
CIRCLE
  5
204
330
51
100
AcDbEntity
  8
0
  6
Continuous
 62
     7
100
AcDbCircle
 10
-81.4061299236599
 20
-909.1857571309463
 30
0.0
 40
6.899999999996077
  0
CIRCLE
  5
205
330
51
100
AcDbEntity
  8
0
  6
Continuous
 62
     7
100
AcDbCircle
 10
0.00025803207518
 20
-862.1857571309374
 30
0.0
 40
101.7999999999977
  0
CIRCLE
  5
206
330
51
100
AcDbEntity
  8
0
  6
Continuous
 62
     7
100
AcDbCircle
 10
0.00025803207518
 20
-862.1857571309374
 30
0.0
 40
124.4999999999978
  0
CIRCLE
  5
207
330
51
100
AcDbEntity
  8
0
  6
Continuous
 62
     7
100
AcDbCircle
 10
0.00025803207518
 20
-862.1857571309374
 30
0.0
 40
123.3859144827011
  0
ENDBLK
  5
53
330
51
100
AcDbEntity
  8
0
100
AcDbBlockEnd
  0
BLOCK
  5
55
330
54
100
AcDbEntity
  8
0
100
AcDbBlockBegin
  2
Schraube
 70
     0
 71
     0
 10
-176.9500377851109
 20
173.2622577632319
 30
0.0
  3
Schraube
  1

  0
LINE
  5
208
330
54
100
AcDbEntity
  8
LC-001-002-----0
  6
Continuous
 62
     7
100
AcDbLine
 10
40.74995600000045
 20
0.00326900000073
 30
0.0
 11
40.74118600000008
 21
0.00326900000073
 31
0.0
  0
LINE
  5
209
330
54
100
AcDbEntity
  8
LC-001-002-----0
  6
Continuous
 62
     7
100
AcDbLine
 10
43.24995600000045
 20
0.0001889999985
 30
0.0
 11
40.99996000000181
 21
0.00030300000071
 31
0.0
  0
LINE
  5
20A
330
54
100
AcDbEntity
  8
LC-001-002-----0
  6
Continuous
 62
     7
100
AcDbLine
 10
50.74995600000045
 20
-0.00018900000214
 30
0.0
 11
51.97878199999911
 21
-0.0002510000013
 31
0.0
  0
LINE
  5
20B
330
54
100
AcDbEntity
  8
LC-001-002-----0
  6
Continuous
 62
     7
100
AcDbLine
 10
53.24995600000045
 20
-0.00030200000037
 30
0.0
 11
40.74995600000045
 21
0.00030200000037
 31
0.0
  0
LINE
  5
20C
330
54
100
AcDbEntity
  8
LC-001-002-----0
  6
Continuous
 62
     7
100
AcDbLine
 10
40.74995600000045
 20
0.00030200000037
 30
0.0
 11
40.75002400000165
 21
1.53480399999899
 31
0.0
  0
LINE
  5
20D
330
54
100
AcDbEntity
  8
LC-001-002-----0
  6
Continuous
 62
     7
100
AcDbLine
 10
53.24995600000045
 20
-0.00030200000037
 30
0.0
 11
53.25002400000165
 21
1.53427799999918
 31
0.0
  0
LINE
  5
20E
330
54
100
AcDbEntity
  8
LC-001-002-----0
  6
Continuous
 62
     7
100
AcDbLine
 10
-40.75836699999934
 20
-0.00030200000037
 30
0.0
 11
-40.75829899999815
 21
1.53427799999918
 31
0.0
  0
LINE
  5
20F
330
54
100
AcDbEntity
  8
LC-001-002-----0
  6
Continuous
 62
     7
100
AcDbLine
 10
-53.25836699999934
 20
0.00030200000037
 30
0.0
 11
-53.25829899999815
 21
1.53480399999899
 31
0.0
  0
LINE
  5
210
330
54
100
AcDbEntity
  8
LC-001-002-----0
  6
Continuous
 62
     7
100
AcDbLine
 10
-40.75836699999934
 20
-0.00030200000037
 30
0.0
 11
-53.25836699999934
 21
0.00030200000037
 31
0.0
  0
LINE
  5
211
330
54
100
AcDbEntity
  8
LC-001-002-----0
  6
Continuous
 62
     7
100
AcDbLine
 10
-43.25836699999934
 20
-0.00018900000214
 30
0.0
 11
-42.02954100000068
 21
-0.0002510000013
 31
0.0
  0
LINE
  5
212
330
54
100
AcDbEntity
  8
LC-001-002-----0
  6
Continuous
 62
     7
100
AcDbLine
 10
-50.75836699999934
 20
0.0001889999985
 30
0.0
 11
-53.00836299999799
 21
0.00030300000071
 31
0.0
  0
LINE
  5
213
330
54
100
AcDbEntity
  8
LC-001-002-----0
  6
Continuous
 62
     7
100
AcDbLine
 10
-53.25836699999934
 20
0.00326900000073
 30
0.0
 11
-53.26713699999971
 21
0.00326900000073
 31
0.0
  0
LINE
  5
214
330
54
100
AcDbEntity
  8
LC-001-002-----0
  6
Continuous
 62
     7
100
AcDbLine
 10
-100.2583369999993
 20
0.00326900000073
 30
0.0
 11
-100.2671069999997
 21
0.00326900000073
 31
0.0
  0
LINE
  5
215
330
54
100
AcDbEntity
  8
LC-001-002-----0
  6
Continuous
 62
     7
100
AcDbLine
 10
-97.7583369999993
 20
0.0001889999985
 30
0.0
 11
-100.008332999998
 21
0.00030300000071
 31
0.0
  0
LINE
  5
216
330
54
100
AcDbEntity
  8
LC-001-002-----0
  6
Continuous
 62
     7
100
AcDbLine
 10
-90.2583369999993
 20
-0.00018900000214
 30
0.0
 11
-89.02951100000064
 21
-0.0002510000013
 31
0.0
  0
LINE
  5
217
330
54
100
AcDbEntity
  8
LC-001-002-----0
  6
Continuous
 62
     7
100
AcDbLine
 10
-87.7583369999993
 20
-0.00030200000037
 30
0.0
 11
-100.2583369999993
 21
0.00030200000037
 31
0.0
  0
LINE
  5
218
330
54
100
AcDbEntity
  8
LC-001-002-----0
  6
Continuous
 62
     7
100
AcDbLine
 10
-100.2583369999993
 20
0.00030200000037
 30
0.0
 11
-100.2582689999981
 21
1.53480399999899
 31
0.0
  0
LINE
  5
219
330
54
100
AcDbEntity
  8
LC-001-002-----0
  6
Continuous
 62
     7
100
AcDbLine
 10
-87.7583369999993
 20
-0.00030200000037
 30
0.0
 11
-87.75826899999811
 21
1.53427799999918
 31
0.0
  0
LINE
  5
21A
330
54
100
AcDbEntity
  8
LC-001-002-----0
  6
Continuous
 62
     7
100
AcDbLine
 10
100.2499260000004
 20
-0.00030200000037
 30
0.0
 11
100.2499940000016
 21
1.53427799999918
 31
0.0
  0
LINE
  5
21B
330
54
100
AcDbEntity
  8
LC-001-002-----0
  6
Continuous
 62
     7
100
AcDbLine
 10
87.74992600000041
 20
0.00030200000037
 30
0.0
 11
87.7499940000016
 21
1.53480399999899
 31
0.0
  0
LINE
  5
21C
330
54
100
AcDbEntity
  8
LC-001-002-----0
  6
Continuous
 62
     7
100
AcDbLine
 10
100.2499260000004
 20
-0.00030200000037
 30
0.0
 11
87.74992600000041
 21
0.00030200000037
 31
0.0
  0
LINE
  5
21D
330
54
100
AcDbEntity
  8
LC-001-002-----0
  6
Continuous
 62
     7
100
AcDbLine
 10
97.74992600000041
 20
-0.00018900000214
 30
0.0
 11
98.97875199999908
 21
-0.0002510000013
 31
0.0
  0
LINE
  5
21E
330
54
100
AcDbEntity
  8
LC-001-002-----0
  6
Continuous
 62
     7
100
AcDbLine
 10
90.24992600000041
 20
0.0001889999985
 30
0.0
 11
87.99993000000177
 21
0.00030300000071
 31
0.0
  0
LINE
  5
21F
330
54
100
AcDbEntity
  8
LC-001-002-----0
  6
Continuous
 62
     7
100
AcDbLine
 10
87.74992600000041
 20
0.00326900000073
 30
0.0
 11
87.74115600000005
 21
0.00326900000073
 31
0.0
  0
ARC
  5
220
330
54
100
AcDbEntity
  8
LC-002-002-RND-0
  6
Continuous
 62
     7
100
AcDbCircle
 10
51.25002400000165
 20
1.53436599999986
 30
0.0
 40
1.999999999999862
100
AcDbArc
 50
-0.0025299999949
 51
63.12196099999171
  0
ARC
  5
221
330
54
100
AcDbEntity
  8
LC-001-002-----0
  6
Continuous
 62
     7
100
AcDbCircle
 10
46.99967800000093
 20
-6.85148699999991
 30
0.0
 40
11.4014874978041
100
AcDbArc
 50
63.12196099999268
 51
116.8733200000052
  0
ARC
  5
222
330
54
100
AcDbEntity
  8
LC-002-002-RND-0
  6
Continuous
 62
     7
100
AcDbCircle
 10
42.75002400000165
 20
1.5347159999983
 30
0.0
 40
1.99999999999966
100
AcDbArc
 50
116.8733199999784
 51
179.9974700000051
  0
ARC
  5
223
330
54
100
AcDbEntity
  8
LC-002-002-RND-0
  6
Continuous
 62
     7
100
AcDbCircle
 10
-51.25829899999815
 20
1.5347159999983
 30
0.0
 40
1.999999999999654
100
AcDbArc
 50
116.8733199999781
 51
179.9974700000051
  0
ARC
  5
224
330
54
100
AcDbEntity
  8
LC-001-002-----0
  6
Continuous
 62
     7
100
AcDbCircle
 10
-47.00864499999886
 20
-6.85148699999991
 30
0.0
 40
11.4014874978041
100
AcDbArc
 50
63.12196099999268
 51
116.8733200000053
  0
ARC
  5
225
330
54
100
AcDbEntity
  8
LC-002-002-RND-0
  6
Continuous
 62
     7
100
AcDbCircle
 10
-42.75829899999815
 20
1.53436599999986
 30
0.0
 40
1.999999999999876
100
AcDbArc
 50
-0.0025299999949
 51
63.12196099999134
  0
ARC
  5
226
330
54
100
AcDbEntity
  8
LC-002-002-RND-0
  6
Continuous
 62
     7
100
AcDbCircle
 10
-89.75826899999811
 20
1.53436599999986
 30
0.0
 40
1.999999999999869
100
AcDbArc
 50
-0.0025299999949
 51
63.12196099999152
  0
ARC
  5
227
330
54
100
AcDbEntity
  8
LC-001-002-----0
  6
Continuous
 62
     7
100
AcDbCircle
 10
-94.00861499999883
 20
-6.85148699999991
 30
0.0
 40
11.4014874978041
100
AcDbArc
 50
63.12196099999268
 51
116.8733200000052
  0
ARC
  5
228
330
54
100
AcDbEntity
  8
LC-002-002-RND-0
  6
Continuous
 62
     7
100
AcDbCircle
 10
-98.25826899999811
 20
1.5347159999983
 30
0.0
 40
1.999999999999657
100
AcDbArc
 50
116.8733199999782
 51
179.9974700000051
  0
ARC
  5
229
330
54
100
AcDbEntity
  8
LC-002-002-RND-0
  6
Continuous
 62
     7
100
AcDbCircle
 10
89.7499940000016
 20
1.5347159999983
 30
0.0
 40
1.999999999999657
100
AcDbArc
 50
116.8733199999782
 51
179.9974700000051
  0
ARC
  5
22A
330
54
100
AcDbEntity
  8
LC-001-002-----0
  6
Continuous
 62
     7
100
AcDbCircle
 10
93.99964800000089
 20
-6.85148699999991
 30
0.0
 40
11.4014874978041
100
AcDbArc
 50
63.12196099999268
 51
116.8733200000052
  0
ARC
  5
22B
330
54
100
AcDbEntity
  8
LC-002-002-RND-0
  6
Continuous
 62
     7
100
AcDbCircle
 10
98.2499940000016
 20
1.53436599999986
 30
0.0
 40
1.999999999999926
100
AcDbArc
 50
-0.0025299999949
 51
63.12196099999152
  0
ENDBLK
  5
56
330
54
100
AcDbEntity
  8
0
100
AcDbBlockEnd
  0
BLOCK
  5
58
330
57
100
AcDbEntity
  8
0
100
AcDbBlockBegin
  2
TOP__1
 70
     0
 71
     0
 10
254.218635433561
 20
-433.5098803396908
 30
0.0
  3
TOP__1
  1

  0
LINE
  5
22C
330
57
100
AcDbEntity
  8
LC-002-002-----0
  6
DASHDOT
 62
     2
100
AcDbLine
 10
-0.00003696792487
 20
-152.7578793396908
 30
0.0
 11
0.00025803207518
 21
-464.0083303396908
 31
0.0
  0
ENDBLK
  5
59
330
57
100
AcDbEntity
  8
0
100
AcDbBlockEnd
  0
BLOCK
  5
5B
330
5A
100
AcDbEntity
  8
0
100
AcDbBlockBegin
  2
TOP__2
 70
     0
 71
     0
 10
0.00000000000004
 20
-159.9823824999999
 30
0.0
  3
TOP__2
  1

  0
POINT
  5
22D
330
5A
100
AcDbEntity
  8
LC-006-003-----0
 62
     7
100
AcDbPoint
 10
48.97592203207523
 20
-154.0083303396908
 30
0.0
  0
POINT
  5
22E
330
5A
100
AcDbEntity
  8
LC-006-003-----0
 62
     7
100
AcDbPoint
 10
43.79414303207523
 20
-464.0083303396908
 30
0.0
  0
POINT
  5
22F
330
5A
100
AcDbEntity
  8
LC-006-003-----0
 62
     7
100
AcDbPoint
 10
41.99991403207514
 20
-464.0083303396908
 30
0.0
  0
POINT
  5
230
330
5A
100
AcDbEntity
  8
LC-006-003-----0
 62
     7
100
AcDbPoint
 10
48.97592203207523
 20
-228.0081833396908
 30
0.0
  0
POINT
  5
231
330
5A
100
AcDbEntity
  8
LC-006-003-----0
 62
     7
100
AcDbPoint
 10
41.99991403207514
 20
-464.0083303396908
 30
0.0
  0
POINT
  5
232
330
5A
100
AcDbEntity
  8
LC-006-003-----0
 62
     7
100
AcDbPoint
 10
-45.00008596792486
 20
-459.5083303396908
 30
0.0
  0
POINT
  5
233
330
5A
100
AcDbEntity
  8
LC-006-003-----0
 62
     7
100
AcDbPoint
 10
44.99991403207514
 20
-459.5083303396908
 30
0.0
  0
POINT
  5
234
330
5A
100
AcDbEntity
  8
LC-006-003-----0
 62
     7
100
AcDbPoint
 10
-53.49800096792478
 20
-450.4513943396908
 30
0.0
  0
POINT
  5
235
330
5A
100
AcDbEntity
  8
LC-006-003-----0
 62
     7
100
AcDbPoint
 10
53.49991403207514
 20
-450.4991543396908
 30
0.0
  0
POINT
  5
236
330
5A
100
AcDbEntity
  8
LC-005-003-----0
 62
     7
100
AcDbPoint
 10
77.75
 20
-47.18575713093564
 30
0.0
  0
POINT
  5
237
330
5A
100
AcDbEntity
  8
LC-005-003-----0
 62
     7
100
AcDbPoint
 10
-73.5
 20
-47.18575713093564
 30
0.0
  0
POINT
  5
238
330
5A
100
AcDbEntity
  8
LC-005-003-----0
 62
     7
100
AcDbPoint
 10
77.75
 20
-47.18575713093564
 30
0.0
  0
POINT
  5
239
330
5A
100
AcDbEntity
  8
LC-005-003-----0
 62
     7
100
AcDbPoint
 10
-73.5
 20
-47.18575713093564
 30
0.0
  0
POINT
  5
23A
330
5A
100
AcDbEntity
  8
LC-005-003-----0
 62
     7
100
AcDbPoint
 10
73.5
 20
-47.18575713093564
 30
0.0
  0
POINT
  5
23B
330
5A
100
AcDbEntity
  8
LC-004-003-----0
 62
     7
100
AcDbPoint
 10
70.00123499999995
 20
-47.18897299999998
 30
0.0
  0
POINT
  5
23C
330
5A
100
AcDbEntity
  8
LC-006-003-----0
 62
     7
100
AcDbPoint
 10
-177.0
 20
-6.236469
 30
0.0
  0
POINT
  5
23D
330
5A
100
AcDbEntity
  8
LC-006-003-----0
 62
     7
100
AcDbPoint
 10
177.0000000000001
 20
-6.236469
 30
0.0
  0
POINT
  5
23E
330
5A
100
AcDbEntity
  8
LC-006-003-----0
 62
     7
100
AcDbPoint
 10
-231.995428
 20
0.0
 30
0.0
  0
POINT
  5
23F
330
5A
100
AcDbEntity
  8
LC-006-003-----0
 62
     7
100
AcDbPoint
 10
231.9937100000001
 20
0.0
 30
0.0
  0
POINT
  5
240
330
5A
100
AcDbEntity
  8
LC-006-003-----0
 62
     7
100
AcDbPoint
 10
175.0000000000001
 20
-3.236469
 30
0.0
  0
LINE
  5
241
330
5A
100
AcDbEntity
  8
LC-002-002-----0
  6
Continuous
 62
     7
100
AcDbLine
 10
-46.00008596792486
 20
-227.4893233396909
 30
0.0
 11
-46.00008596792486
 21
-218.8285173396909
 31
0.0
  0
LINE
  5
242
330
5A
100
AcDbEntity
  8
LC-002-002-----0
  6
Continuous
 62
     7
100
AcDbLine
 10
-46.00008596792486
 20
-227.4893233396909
 30
0.0
 11
-46.00008596792486
 21
-218.8285173396909
 31
0.0
  0
LINE
  5
243
330
5A
100
AcDbEntity
  8
LC-002-002-----0
  6
Continuous
 62
     7
100
AcDbLine
 10
45.99991403207514
 20
-227.4893233396909
 30
0.0
 11
45.99991403207514
 21
-218.8285173396909
 31
0.0
  0
LINE
  5
244
330
5A
100
AcDbEntity
  8
LC-002-002-----0
  6
Continuous
 62
     7
100
AcDbLine
 10
-46.00008596792486
 20
-156.1928813396908
 30
0.0
 11
45.99991403207514
 21
-156.1928813396908
 31
0.0
  0
LINE
  5
245
330
5A
100
AcDbEntity
  8
LC-002-002-----0
  6
Continuous
 62
     7
100
AcDbLine
 10
-46.00008596792486
 20
-168.5230473396908
 30
0.0
 11
45.99991403207514
 21
-168.5230473396908
 31
0.0
  0
LINE
  5
246
330
5A
100
AcDbEntity
  8
LC-002-002-----0
  6
Continuous
 62
     7
100
AcDbLine
 10
-46.00008596792486
 20
-180.8532133396908
 30
0.0
 11
45.99991403207514
 21
-180.8532133396908
 31
0.0
  0
LINE
  5
247
330
5A
100
AcDbEntity
  8
LC-002-002-----0
  6
Continuous
 62
     7
100
AcDbLine
 10
-46.00008596792486
 20
-193.1833783396907
 30
0.0
 11
45.99991403207514
 21
-193.1833783396907
 31
0.0
  0
LINE
  5
248
330
5A
100
AcDbEntity
  8
LC-002-002-----0
  6
Continuous
 62
     7
100
AcDbLine
 10
-46.00008596792486
 20
-205.5135443396908
 30
0.0
 11
45.99991403207514
 21
-205.5135443396908
 31
0.0
  0
LINE
  5
249
330
5A
100
AcDbEntity
  8
LC-002-002-----0
  6
Continuous
 62
     7
100
AcDbLine
 10
-46.00008596792486
 20
-217.8437103396908
 30
0.0
 11
45.99991403207514
 21
-217.8437103396908
 31
0.0
  0
LINE
  5
24A
330
5A
100
AcDbEntity
  8
LC-002-002-----0
  6
Continuous
 62
     7
100
AcDbLine
 10
-46.50008596792486
 20
-203.3289923396908
 30
0.0
 11
46.49991403207514
 21
-203.3289923396908
 31
0.0
  0
LINE
  5
24B
330
5A
100
AcDbEntity
  8
LC-002-002-----0
  6
Continuous
 62
     7
100
AcDbLine
 10
53.0470820320752
 20
-155.0959843396908
 30
0.0
 11
46.82626603207518
 21
-156.1928813396908
 31
0.0
  0
LINE
  5
24C
330
5A
100
AcDbEntity
  8
LC-002-002-----0
  6
Continuous
 62
     7
100
AcDbLine
 10
-53.0472539679248
 20
-155.0959843396908
 30
0.0
 11
-46.82643796792479
 21
-156.1928813396908
 31
0.0
  0
LINE
  5
24D
330
5A
100
AcDbEntity
  8
LC-002-002-----0
  6
Continuous
 62
     7
100
AcDbLine
 10
52.99991403207514
 20
-203.3289923396908
 30
0.0
 11
46.49991403207514
 21
-203.3289923396908
 31
0.0
  0
LINE
  5
24E
330
5A
100
AcDbEntity
  8
LC-002-002-----0
  6
Continuous
 62
     7
100
AcDbLine
 10
-53.00008596792486
 20
-203.3289923396908
 30
0.0
 11
-46.50008596792486
 21
-203.3289923396908
 31
0.0
  0
LINE
  5
24F
330
5A
100
AcDbEntity
  8
LC-002-002-----0
  6
Continuous
 62
     7
100
AcDbLine
 10
-49.75008596792486
 20
-215.6591583396908
 30
0.0
 11
52.99991403207514
 21
-215.6591583396908
 31
0.0
  0
LINE
  5
250
330
5A
100
AcDbEntity
  8
LC-002-002-----0
  6
Continuous
 62
     7
100
AcDbLine
 10
45.99991403207514
 20
-215.1591583396908
 30
0.0
 11
45.99991403207514
 21
-206.4983523396907
 31
0.0
  0
LINE
  5
251
330
5A
100
AcDbEntity
  8
LC-002-002-----0
  6
Continuous
 62
     7
100
AcDbLine
 10
-46.50008596792486
 20
-215.6591583396908
 30
0.0
 11
-53.00008596792486
 21
-215.6591583396908
 31
0.0
  0
LINE
  5
252
330
5A
100
AcDbEntity
  8
LC-002-002-----0
  6
Continuous
 62
     7
100
AcDbLine
 10
-46.00008596792486
 20
-215.1591583396908
 30
0.0
 11
-46.00008596792486
 21
-206.4983523396907
 31
0.0
  0
LINE
  5
253
330
5A
100
AcDbEntity
  8
LC-002-002-----0
  6
Continuous
 62
     7
100
AcDbLine
 10
45.99991403207514
 20
-165.8384953396908
 30
0.0
 11
45.99991403207514
 21
-157.1776893396908
 31
0.0
  0
LINE
  5
254
330
5A
100
AcDbEntity
  8
LC-002-002-----0
  6
Continuous
 62
     7
100
AcDbLine
 10
45.99991403207514
 20
-178.1686613396908
 30
0.0
 11
45.99991403207514
 21
-169.5078553396908
 31
0.0
  0
LINE
  5
255
330
5A
100
AcDbEntity
  8
LC-002-002-----0
  6
Continuous
 62
     7
100
AcDbLine
 10
45.99991403207514
 20
-190.4988273396908
 30
0.0
 11
45.99991403207514
 21
-181.8380203396908
 31
0.0
  0
LINE
  5
256
330
5A
100
AcDbEntity
  8
LC-002-002-----0
  6
Continuous
 62
     7
100
AcDbLine
 10
45.99991403207514
 20
-202.8289923396908
 30
0.0
 11
45.99991403207514
 21
-194.1681863396908
 31
0.0
  0
LINE
  5
257
330
5A
100
AcDbEntity
  8
LC-002-002-----0
  6
Continuous
 62
     7
100
AcDbLine
 10
53.0470820320752
 20
-216.7468123396909
 30
0.0
 11
46.82626603207518
 21
-217.8437103396908
 31
0.0
  0
LINE
  5
258
330
5A
100
AcDbEntity
  8
LC-002-002-----0
  6
Continuous
 62
     7
100
AcDbLine
 10
53.0470820320752
 20
-204.4166463396908
 30
0.0
 11
46.82626603207518
 21
-205.5135443396908
 31
0.0
  0
LINE
  5
259
330
5A
100
AcDbEntity
  8
LC-002-002-----0
  6
Continuous
 62
     7
100
AcDbLine
 10
53.0470820320752
 20
-192.0864813396908
 30
0.0
 11
46.82626603207518
 21
-193.1833783396907
 31
0.0
  0
LINE
  5
25A
330
5A
100
AcDbEntity
  8
LC-002-002-----0
  6
Continuous
 62
     7
100
AcDbLine
 10
52.95192503207522
 20
-154.0083303396908
 30
0.0
 11
44.99991903207524
 21
-154.0083303396908
 31
0.0
  0
LINE
  5
25B
330
5A
100
AcDbEntity
  8
LC-002-002-----0
  6
Continuous
 62
     7
100
AcDbLine
 10
-46.00008596792486
 20
-165.8384953396908
 30
0.0
 11
-46.00008596792486
 21
-157.1776893396908
 31
0.0
  0
LINE
  5
25C
330
5A
100
AcDbEntity
  8
LC-002-002-----0
  6
Continuous
 62
     7
100
AcDbLine
 10
-46.00008596792486
 20
-178.1686613396908
 30
0.0
 11
-46.00008596792486
 21
-169.5078553396908
 31
0.0
  0
LINE
  5
25D
330
5A
100
AcDbEntity
  8
LC-002-002-----0
  6
Continuous
 62
     7
100
AcDbLine
 10
-46.00008596792486
 20
-190.4988273396908
 30
0.0
 11
-46.00008596792486
 21
-181.8380203396908
 31
0.0
  0
LINE
  5
25E
330
5A
100
AcDbEntity
  8
LC-002-002-----0
  6
Continuous
 62
     7
100
AcDbLine
 10
-46.00008596792486
 20
-202.8289923396908
 30
0.0
 11
-46.00008596792486
 21
-194.1681863396908
 31
0.0
  0
LINE
  5
25F
330
5A
100
AcDbEntity
  8
LC-002-002-----0
  6
Continuous
 62
     7
100
AcDbLine
 10
-53.0472539679248
 20
-216.7468123396909
 30
0.0
 11
-46.82643796792479
 21
-217.8437103396908
 31
0.0
  0
LINE
  5
260
330
5A
100
AcDbEntity
  8
LC-002-002-----0
  6
Continuous
 62
     7
100
AcDbLine
 10
-53.0472539679248
 20
-204.4166463396908
 30
0.0
 11
-46.82643796792479
 21
-205.5135443396908
 31
0.0
  0
LINE
  5
261
330
5A
100
AcDbEntity
  8
LC-002-002-----0
  6
Continuous
 62
     7
100
AcDbLine
 10
-53.0472539679248
 20
-192.0864813396908
 30
0.0
 11
-46.82643796792479
 21
-193.1833783396907
 31
0.0
  0
LINE
  5
262
330
5A
100
AcDbEntity
  8
LC-002-002-----0
  6
Continuous
 62
     7
100
AcDbLine
 10
52.99991403207514
 20
-166.3384953396908
 30
0.0
 11
-46.50008596792486
 21
-166.3384953396908
 31
0.0
  0
LINE
  5
263
330
5A
100
AcDbEntity
  8
LC-002-002-----0
  6
Continuous
 62
     7
100
AcDbLine
 10
52.99991403207514
 20
-178.6686613396908
 30
0.0
 11
46.49991403207514
 21
-178.6686613396908
 31
0.0
  0
LINE
  5
264
330
5A
100
AcDbEntity
  8
LC-002-002-----0
  6
Continuous
 62
     7
100
AcDbLine
 10
52.99991403207514
 20
-190.9988273396908
 30
0.0
 11
-49.75008596792486
 21
-190.9988273396908
 31
0.0
  0
LINE
  5
265
330
5A
100
AcDbEntity
  8
LC-002-002-----0
  6
Continuous
 62
     7
100
AcDbLine
 10
-52.95209596792483
 20
-154.0083303396908
 30
0.0
 11
-45.0
 21
-154.0083303396908
 31
0.0
  0
LINE
  5
266
330
5A
100
AcDbEntity
  8
LC-002-002-----0
  6
Continuous
 62
     7
100
AcDbLine
 10
-53.00008596792486
 20
-166.3384953396908
 30
0.0
 11
-46.50008596792486
 21
-166.3384953396908
 31
0.0
  0
LINE
  5
267
330
5A
100
AcDbEntity
  8
LC-002-002-----0
  6
Continuous
 62
     7
100
AcDbLine
 10
-53.00008596792486
 20
-178.6686613396908
 30
0.0
 11
46.49991403207514
 21
-178.6686613396908
 31
0.0
  0
LINE
  5
268
330
5A
100
AcDbEntity
  8
LC-002-002-----0
  6
Continuous
 62
     7
100
AcDbLine
 10
-53.00008596792486
 20
-190.9988273396908
 30
0.0
 11
-46.50008596792486
 21
-190.9988273396908
 31
0.0
  0
LINE
  5
269
330
5A
100
AcDbEntity
  8
LC-002-002-----0
  6
Continuous
 62
     7
100
AcDbLine
 10
53.0470820320752
 20
-179.7563153396908
 30
0.0
 11
46.82626603207518
 21
-180.8532133396908
 31
0.0
  0
LINE
  5
26A
330
5A
100
AcDbEntity
  8
LC-002-002-----0
  6
Continuous
 62
     7
100
AcDbLine
 10
53.0470820320752
 20
-167.4261493396908
 30
0.0
 11
46.82626603207518
 21
-168.5230473396908
 31
0.0
  0
LINE
  5
26B
330
5A
100
AcDbEntity
  8
LC-002-002-----0
  6
Continuous
 62
     7
100
AcDbLine
 10
-53.0472539679248
 20
-179.7563153396908
 30
0.0
 11
-46.82643796792479
 21
-180.8532133396908
 31
0.0
  0
LINE
  5
26C
330
5A
100
AcDbEntity
  8
LC-002-002-----0
  6
Continuous
 62
     7
100
AcDbLine
 10
-53.0472539679248
 20
-167.4261493396908
 30
0.0
 11
-46.82643796792479
 21
-168.5230473396908
 31
0.0
  0
LINE
  5
26D
330
5A
100
AcDbEntity
  8
LC-002-002-----0
  6
Continuous
 62
     7
100
AcDbLine
 10
-45.0
 20
-154.0083303396908
 30
0.0
 11
44.99994803207517
 21
-154.0083303396908
 31
0.0
  0
LINE
  5
26E
330
5A
100
AcDbEntity
  8
LC-002-002-----0
  6
Continuous
 62
     7
100
AcDbLine
 10
-45.0
 20
-228.0081833396908
 30
0.0
 11
44.99994803207517
 21
-228.0081833396908
 31
0.0
  0
LINE
  5
26F
330
5A
100
AcDbEntity
  8
LC-002-002-----0
  6
Continuous
 62
     7
100
AcDbLine
 10
0.00025803207518
 20
-464.0083303396908
 30
0.0
 11
41.99991403207514
 21
-464.0083303396908
 31
0.0
  0
LINE
  5
270
330
5A
100
AcDbEntity
  8
LC-002-002-----0
  6
Continuous
 62
     7
100
AcDbLine
 10
43.79414303207523
 20
-464.0083303396908
 30
0.0
 11
44.99991403207514
 21
-459.5083303396908
 31
0.0
  0
LINE
  5
271
330
5A
100
AcDbEntity
  8
LC-002-002-----0
  6
Continuous
 62
     7
100
AcDbLine
 10
-43.79431396792484
 20
-464.0083303396908
 30
0.0
 11
-45.00008596792486
 21
-459.5083303396908
 31
0.0
  0
LINE
  5
272
330
5A
100
AcDbEntity
  8
LC-002-002-----0
  6
Continuous
 62
     7
100
AcDbLine
 10
0.00025803207518
 20
-464.0083303396908
 30
0.0
 11
-42.00008596792486
 21
-464.0083303396908
 31
0.0
  0
LINE
  5
273
330
5A
100
AcDbEntity
  8
LC-002-002-----0
  6
Continuous
 62
     7
100
AcDbLine
 10
-42.00008596792486
 20
-464.0083303396908
 30
0.0
 11
-43.79431396792484
 21
-464.0083303396908
 31
0.0
  0
LINE
  5
274
330
5A
100
AcDbEntity
  8
LC-002-002-----0
  6
Continuous
 62
     7
100
AcDbLine
 10
41.99991403207514
 20
-464.0083303396908
 30
0.0
 11
43.79414303207523
 21
-464.0083303396908
 31
0.0
  0
LINE
  5
275
330
5A
100
AcDbEntity
  8
LC-002-002-----0
  6
Continuous
 62
     7
100
AcDbLine
 10
-53.0472539679248
 20
-241.4260023396908
 30
0.0
 11
-46.82643796792479
 21
-242.5229003396908
 31
0.0
  0
LINE
  5
276
330
5A
100
AcDbEntity
  8
LC-002-002-----0
  6
Continuous
 62
     7
100
AcDbLine
 10
-53.0472539679248
 20
-253.7561683396908
 30
0.0
 11
-46.82643796792479
 21
-254.8530663396908
 31
0.0
  0
LINE
  5
277
330
5A
100
AcDbEntity
  8
LC-002-002-----0
  6
Continuous
 62
     7
100
AcDbLine
 10
53.0470820320752
 20
-241.4260023396908
 30
0.0
 11
46.82626603207518
 21
-242.5229003396908
 31
0.0
  0
LINE
  5
278
330
5A
100
AcDbEntity
  8
LC-002-002-----0
  6
Continuous
 62
     7
100
AcDbLine
 10
53.0470820320752
 20
-253.7561683396908
 30
0.0
 11
46.82626603207518
 21
-254.8530663396908
 31
0.0
  0
LINE
  5
279
330
5A
100
AcDbEntity
  8
LC-002-002-----0
  6
Continuous
 62
     7
100
AcDbLine
 10
-53.00008596792486
 20
-264.9986803396908
 30
0.0
 11
-46.50008596792486
 21
-264.9986803396908
 31
0.0
  0
LINE
  5
27A
330
5A
100
AcDbEntity
  8
LC-002-002-----0
  6
Continuous
 62
     7
100
AcDbLine
 10
-53.00008596792486
 20
-252.6685143396908
 30
0.0
 11
46.49991403207514
 21
-252.6685143396908
 31
0.0
  0
LINE
  5
27B
330
5A
100
AcDbEntity
  8
LC-002-002-----0
  6
Continuous
 62
     7
100
AcDbLine
 10
-53.00008596792486
 20
-240.3383483396908
 30
0.0
 11
-46.50008596792486
 21
-240.3383483396908
 31
0.0
  0
LINE
  5
27C
330
5A
100
AcDbEntity
  8
LC-002-002-----0
  6
Continuous
 62
     7
100
AcDbLine
 10
-52.95209596792483
 20
-228.0081833396908
 30
0.0
 11
-45.0
 21
-228.0081833396908
 31
0.0
  0
LINE
  5
27D
330
5A
100
AcDbEntity
  8
LC-002-002-----0
  6
Continuous
 62
     7
100
AcDbLine
 10
52.99991403207514
 20
-264.9986803396908
 30
0.0
 11
-49.75008596792486
 21
-264.9986803396908
 31
0.0
  0
LINE
  5
27E
330
5A
100
AcDbEntity
  8
LC-002-002-----0
  6
Continuous
 62
     7
100
AcDbLine
 10
52.99991403207514
 20
-252.6685143396908
 30
0.0
 11
46.49991403207514
 21
-252.6685143396908
 31
0.0
  0
LINE
  5
27F
330
5A
100
AcDbEntity
  8
LC-002-002-----0
  6
Continuous
 62
     7
100
AcDbLine
 10
52.99991403207514
 20
-240.3383483396908
 30
0.0
 11
-46.50008596792486
 21
-240.3383483396908
 31
0.0
  0
LINE
  5
280
330
5A
100
AcDbEntity
  8
LC-002-002-----0
  6
Continuous
 62
     7
100
AcDbLine
 10
-53.0472539679248
 20
-266.0863343396908
 30
0.0
 11
-46.82643796792479
 21
-267.1832313396907
 31
0.0
  0
LINE
  5
281
330
5A
100
AcDbEntity
  8
LC-002-002-----0
  6
Continuous
 62
     7
100
AcDbLine
 10
-53.0472539679248
 20
-278.4164993396908
 30
0.0
 11
-46.82643796792479
 21
-279.5133973396908
 31
0.0
  0
LINE
  5
282
330
5A
100
AcDbEntity
  8
LC-002-002-----0
  6
Continuous
 62
     7
100
AcDbLine
 10
-53.0472539679248
 20
-290.7466653396908
 30
0.0
 11
-46.82643796792479
 21
-291.8435633396908
 31
0.0
  0
LINE
  5
283
330
5A
100
AcDbEntity
  8
LC-002-002-----0
  6
Continuous
 62
     7
100
AcDbLine
 10
-46.00008596792486
 20
-276.8288453396908
 30
0.0
 11
-46.00008596792486
 21
-268.1680393396908
 31
0.0
  0
LINE
  5
284
330
5A
100
AcDbEntity
  8
LC-002-002-----0
  6
Continuous
 62
     7
100
AcDbLine
 10
-46.00008596792486
 20
-264.4986803396908
 30
0.0
 11
-46.00008596792486
 21
-255.8378733396908
 31
0.0
  0
LINE
  5
285
330
5A
100
AcDbEntity
  8
LC-002-002-----0
  6
Continuous
 62
     7
100
AcDbLine
 10
-46.00008596792486
 20
-252.1685143396908
 30
0.0
 11
-46.00008596792486
 21
-243.5077083396908
 31
0.0
  0
LINE
  5
286
330
5A
100
AcDbEntity
  8
LC-002-002-----0
  6
Continuous
 62
     7
100
AcDbLine
 10
-46.00008596792486
 20
-239.8383483396908
 30
0.0
 11
-46.00008596792486
 21
-231.1775423396908
 31
0.0
  0
LINE
  5
287
330
5A
100
AcDbEntity
  8
LC-002-002-----0
  6
Continuous
 62
     7
100
AcDbLine
 10
52.95192503207522
 20
-228.0081833396908
 30
0.0
 11
44.99991903207524
 21
-228.0081833396908
 31
0.0
  0
LINE
  5
288
330
5A
100
AcDbEntity
  8
LC-002-002-----0
  6
Continuous
 62
     7
100
AcDbLine
 10
53.0470820320752
 20
-266.0863343396908
 30
0.0
 11
46.82626603207518
 21
-267.1832313396907
 31
0.0
  0
LINE
  5
289
330
5A
100
AcDbEntity
  8
LC-002-002-----0
  6
Continuous
 62
     7
100
AcDbLine
 10
53.0470820320752
 20
-278.4164993396908
 30
0.0
 11
46.82626603207518
 21
-279.5133973396908
 31
0.0
  0
LINE
  5
28A
330
5A
100
AcDbEntity
  8
LC-002-002-----0
  6
Continuous
 62
     7
100
AcDbLine
 10
53.0470820320752
 20
-290.7466653396908
 30
0.0
 11
46.82626603207518
 21
-291.8435633396908
 31
0.0
  0
LINE
  5
28B
330
5A
100
AcDbEntity
  8
LC-002-002-----0
  6
Continuous
 62
     7
100
AcDbLine
 10
45.99991403207514
 20
-276.8288453396908
 30
0.0
 11
45.99991403207514
 21
-268.1680393396908
 31
0.0
  0
LINE
  5
28C
330
5A
100
AcDbEntity
  8
LC-002-002-----0
  6
Continuous
 62
     7
100
AcDbLine
 10
45.99991403207514
 20
-264.4986803396908
 30
0.0
 11
45.99991403207514
 21
-255.8378733396908
 31
0.0
  0
LINE
  5
28D
330
5A
100
AcDbEntity
  8
LC-002-002-----0
  6
Continuous
 62
     7
100
AcDbLine
 10
45.99991403207514
 20
-252.1685143396908
 30
0.0
 11
45.99991403207514
 21
-243.5077083396908
 31
0.0
  0
LINE
  5
28E
330
5A
100
AcDbEntity
  8
LC-002-002-----0
  6
Continuous
 62
     7
100
AcDbLine
 10
45.99991403207514
 20
-239.8383483396908
 30
0.0
 11
45.99991403207514
 21
-231.1775423396908
 31
0.0
  0
LINE
  5
28F
330
5A
100
AcDbEntity
  8
LC-002-002-----0
  6
Continuous
 62
     7
100
AcDbLine
 10
-46.00008596792486
 20
-453.1205243396908
 30
0.0
 11
-46.00008596792486
 21
-453.5083303396908
 31
0.0
  0
LINE
  5
290
330
5A
100
AcDbEntity
  8
LC-002-002-----0
  6
Continuous
 62
     7
100
AcDbLine
 10
-46.00008596792486
 20
-449.4511643396908
 30
0.0
 11
-46.00008596792486
 21
-440.7903583396908
 31
0.0
  0
LINE
  5
291
330
5A
100
AcDbEntity
  8
LC-002-002-----0
  6
Continuous
 62
     7
100
AcDbLine
 10
-46.00008596792486
 20
-289.1590113396908
 30
0.0
 11
-46.00008596792486
 21
-280.4982053396907
 31
0.0
  0
LINE
  5
292
330
5A
100
AcDbEntity
  8
LC-002-002-----0
  6
Continuous
 62
     7
100
AcDbLine
 10
-46.50008596792486
 20
-449.9511643396908
 30
0.0
 11
-53.00008596792486
 21
-449.9511643396908
 31
0.0
  0
LINE
  5
293
330
5A
100
AcDbEntity
  8
LC-002-002-----0
  6
Continuous
 62
     7
100
AcDbLine
 10
-46.00008596792486
 20
-301.4891763396908
 30
0.0
 11
-46.00008596792486
 21
-292.8283703396908
 31
0.0
  0
LINE
  5
294
330
5A
100
AcDbEntity
  8
LC-002-002-----0
  6
Continuous
 62
     7
100
AcDbLine
 10
-46.00008596792486
 20
-313.8193423396908
 30
0.0
 11
-46.00008596792486
 21
-305.1585363396908
 31
0.0
  0
LINE
  5
295
330
5A
100
AcDbEntity
  8
LC-002-002-----0
  6
Continuous
 62
     7
100
AcDbLine
 10
-46.00008596792486
 20
-326.1495083396908
 30
0.0
 11
-46.00008596792486
 21
-317.4887023396908
 31
0.0
  0
LINE
  5
296
330
5A
100
AcDbEntity
  8
LC-002-002-----0
  6
Continuous
 62
     7
100
AcDbLine
 10
-46.50008596792486
 20
-437.6209993396907
 30
0.0
 11
-53.00008596792486
 21
-437.6209993396907
 31
0.0
  0
LINE
  5
297
330
5A
100
AcDbEntity
  8
LC-002-002-----0
  6
Continuous
 62
     7
100
AcDbLine
 10
-53.0472539679248
 20
-303.0768313396907
 30
0.0
 11
-46.82643796792479
 21
-304.1737283396907
 31
0.0
  0
LINE
  5
298
330
5A
100
AcDbEntity
  8
LC-002-002-----0
  6
Continuous
 62
     7
100
AcDbLine
 10
-46.50008596792486
 20
-425.2908333396908
 30
0.0
 11
-53.00008596792486
 21
-425.2908333396908
 31
0.0
  0
LINE
  5
299
330
5A
100
AcDbEntity
  8
LC-002-002-----0
  6
Continuous
 62
     7
100
AcDbLine
 10
-53.0472539679248
 20
-315.4069963396908
 30
0.0
 11
-46.82643796792479
 21
-316.5038943396908
 31
0.0
  0
LINE
  5
29A
330
5A
100
AcDbEntity
  8
LC-002-002-----0
  6
Continuous
 62
     7
100
AcDbLine
 10
-46.50008596792486
 20
-412.9606673396908
 30
0.0
 11
-53.00008596792486
 21
-412.9606673396908
 31
0.0
  0
LINE
  5
29B
330
5A
100
AcDbEntity
  8
LC-002-002-----0
  6
Continuous
 62
     7
100
AcDbLine
 10
-53.0472539679248
 20
-327.7371623396908
 30
0.0
 11
-46.82643796792479
 21
-328.8340603396908
 31
0.0
  0
LINE
  5
29C
330
5A
100
AcDbEntity
  8
LC-002-002-----0
  6
Continuous
 62
     7
100
AcDbLine
 10
-46.50008596792486
 20
-400.6305023396907
 30
0.0
 11
-53.00008596792486
 21
-400.6305023396907
 31
0.0
  0
LINE
  5
29D
330
5A
100
AcDbEntity
  8
LC-002-002-----0
  6
Continuous
 62
     7
100
AcDbLine
 10
-53.0472539679248
 20
-340.0673283396907
 30
0.0
 11
-46.82643796792479
 21
-341.1642253396907
 31
0.0
  0
LINE
  5
29E
330
5A
100
AcDbEntity
  8
LC-002-002-----0
  6
Continuous
 62
     7
100
AcDbLine
 10
-53.0472539679248
 20
-352.3974933396908
 30
0.0
 11
-46.82643796792479
 21
-353.4943913396908
 31
0.0
  0
LINE
  5
29F
330
5A
100
AcDbEntity
  8
LC-002-002-----0
  6
Continuous
 62
     7
100
AcDbLine
 10
46.49991403207514
 20
-388.3003363396908
 30
0.0
 11
-53.00008596792486
 21
-388.3003363396908
 31
0.0
  0
LINE
  5
2A0
330
5A
100
AcDbEntity
  8
LC-002-002-----0
  6
Continuous
 62
     7
100
AcDbLine
 10
-53.0472539679248
 20
-364.7276593396908
 30
0.0
 11
-46.82643796792479
 21
-365.8245573396908
 31
0.0
  0
LINE
  5
2A1
330
5A
100
AcDbEntity
  8
LC-002-002-----0
  6
Continuous
 62
     7
100
AcDbLine
 10
-46.50008596792486
 20
-375.9701703396908
 30
0.0
 11
-53.00008596792486
 21
-375.9701703396908
 31
0.0
  0
LINE
  5
2A2
330
5A
100
AcDbEntity
  8
LC-002-002-----0
  6
Continuous
 62
     7
100
AcDbLine
 10
-46.00008596792486
 20
-338.4796733396908
 30
0.0
 11
-46.00008596792486
 21
-329.8188673396908
 31
0.0
  0
LINE
  5
2A3
330
5A
100
AcDbEntity
  8
LC-002-002-----0
  6
Continuous
 62
     7
100
AcDbLine
 10
-46.00008596792486
 20
-350.8098393396908
 30
0.0
 11
-46.00008596792486
 21
-342.1490333396908
 31
0.0
  0
LINE
  5
2A4
330
5A
100
AcDbEntity
  8
LC-002-002-----0
  6
Continuous
 62
     7
100
AcDbLine
 10
-53.0472539679248
 20
-377.0578253396907
 30
0.0
 11
-46.82643796792479
 21
-378.1547223396908
 31
0.0
  0
LINE
  5
2A5
330
5A
100
AcDbEntity
  8
LC-002-002-----0
  6
Continuous
 62
     7
100
AcDbLine
 10
46.49991403207514
 20
-363.6400053396908
 30
0.0
 11
-53.00008596792486
 21
-363.6400053396908
 31
0.0
  0
LINE
  5
2A6
330
5A
100
AcDbEntity
  8
LC-002-002-----0
  6
Continuous
 62
     7
100
AcDbLine
 10
-53.0472539679248
 20
-389.3879903396908
 30
0.0
 11
-46.82643796792479
 21
-390.4848883396908
 31
0.0
  0
LINE
  5
2A7
330
5A
100
AcDbEntity
  8
LC-002-002-----0
  6
Continuous
 62
     7
100
AcDbLine
 10
-46.50008596792486
 20
-351.3098393396908
 30
0.0
 11
-53.00008596792486
 21
-351.3098393396908
 31
0.0
  0
LINE
  5
2A8
330
5A
100
AcDbEntity
  8
LC-002-002-----0
  6
Continuous
 62
     7
100
AcDbLine
 10
-46.00008596792486
 20
-375.4701703396908
 30
0.0
 11
-46.00008596792486
 21
-366.8093643396908
 31
0.0
  0
LINE
  5
2A9
330
5A
100
AcDbEntity
  8
LC-002-002-----0
  6
Continuous
 62
     7
100
AcDbLine
 10
-46.00008596792486
 20
-400.1305023396907
 30
0.0
 11
-46.00008596792486
 21
-391.4696963396908
 31
0.0
  0
LINE
  5
2AA
330
5A
100
AcDbEntity
  8
LC-002-002-----0
  6
Continuous
 62
     7
100
AcDbLine
 10
-46.00008596792486
 20
-412.4606673396908
 30
0.0
 11
-46.00008596792486
 21
-403.7998613396908
 31
0.0
  0
LINE
  5
2AB
330
5A
100
AcDbEntity
  8
LC-002-002-----0
  6
Continuous
 62
     7
100
AcDbLine
 10
-46.00008596792486
 20
-424.7908333396908
 30
0.0
 11
-46.00008596792486
 21
-416.1300273396907
 31
0.0
  0
LINE
  5
2AC
330
5A
100
AcDbEntity
  8
LC-002-002-----0
  6
Continuous
 62
     7
100
AcDbLine
 10
-46.00008596792486
 20
-437.1209993396907
 30
0.0
 11
-46.00008596792486
 21
-428.4601933396908
 31
0.0
  0
LINE
  5
2AD
330
5A
100
AcDbEntity
  8
LC-002-002-----0
  6
Continuous
 62
     7
100
AcDbLine
 10
-53.0472539679248
 20
-401.7181563396908
 30
0.0
 11
-46.82643796792479
 21
-402.8150543396908
 31
0.0
  0
LINE
  5
2AE
330
5A
100
AcDbEntity
  8
LC-002-002-----0
  6
Continuous
 62
     7
100
AcDbLine
 10
-53.0472539679248
 20
-414.0483223396907
 30
0.0
 11
-46.82643796792479
 21
-415.1452193396908
 31
0.0
  0
LINE
  5
2AF
330
5A
100
AcDbEntity
  8
LC-002-002-----0
  6
Continuous
 62
     7
100
AcDbLine
 10
-46.00008596792486
 20
-387.8003363396908
 30
0.0
 11
-46.00008596792486
 21
-379.1395303396908
 31
0.0
  0
LINE
  5
2B0
330
5A
100
AcDbEntity
  8
LC-002-002-----0
  6
Continuous
 62
     7
100
AcDbLine
 10
-53.0472539679248
 20
-426.3784873396908
 30
0.0
 11
-46.82643796792479
 21
-427.4753853396908
 31
0.0
  0
LINE
  5
2B1
330
5A
100
AcDbEntity
  8
LC-002-002-----0
  6
Continuous
 62
     7
100
AcDbLine
 10
-46.00008596792486
 20
-363.1400053396908
 30
0.0
 11
-46.00008596792486
 21
-354.4791993396908
 31
0.0
  0
LINE
  5
2B2
330
5A
100
AcDbEntity
  8
LC-002-002-----0
  6
Continuous
 62
     7
100
AcDbLine
 10
-53.0472539679248
 20
-438.7086533396908
 30
0.0
 11
-46.82643796792479
 21
-439.8055513396908
 31
0.0
  0
LINE
  5
2B3
330
5A
100
AcDbEntity
  8
LC-002-002-----0
  6
Continuous
 62
     7
100
AcDbLine
 10
-53.0472539679248
 20
-451.0388193396908
 30
0.0
 11
-46.82643796792479
 21
-452.1357163396908
 31
0.0
  0
LINE
  5
2B4
330
5A
100
AcDbEntity
  8
LC-002-002-----0
  6
Continuous
 62
     7
100
AcDbLine
 10
-45.50008596792486
 20
-454.0083303396908
 30
0.0
 11
-45.00008596792486
 21
-454.0083303396908
 31
0.0
  0
LINE
  5
2B5
330
5A
100
AcDbEntity
  8
LC-002-002-----0
  6
Continuous
 62
     7
100
AcDbLine
 10
-46.00008596792486
 20
-453.5083303396908
 30
0.0
 11
-45.50008596792486
 21
-454.0083303396908
 31
0.0
  0
LINE
  5
2B6
330
5A
100
AcDbEntity
  8
LC-002-002-----0
  6
Continuous
 62
     7
100
AcDbLine
 10
46.49991403207514
 20
-338.9796733396908
 30
0.0
 11
-53.00008596792486
 21
-338.9796733396908
 31
0.0
  0
LINE
  5
2B7
330
5A
100
AcDbEntity
  8
LC-002-002-----0
  6
Continuous
 62
     7
100
AcDbLine
 10
-46.50008596792486
 20
-326.6495083396908
 30
0.0
 11
-53.00008596792486
 21
-326.6495083396908
 31
0.0
  0
LINE
  5
2B8
330
5A
100
AcDbEntity
  8
LC-002-002-----0
  6
Continuous
 62
     7
100
AcDbLine
 10
-46.50008596792486
 20
-314.3193423396908
 30
0.0
 11
-53.00008596792486
 21
-314.3193423396908
 31
0.0
  0
LINE
  5
2B9
330
5A
100
AcDbEntity
  8
LC-002-002-----0
  6
Continuous
 62
     7
100
AcDbLine
 10
46.49991403207514
 20
-301.9891763396908
 30
0.0
 11
-53.00008596792486
 21
-301.9891763396908
 31
0.0
  0
LINE
  5
2BA
330
5A
100
AcDbEntity
  8
LC-002-002-----0
  6
Continuous
 62
     7
100
AcDbLine
 10
-46.50008596792486
 20
-289.6590113396908
 30
0.0
 11
-53.00008596792486
 21
-289.6590113396908
 31
0.0
  0
LINE
  5
2BB
330
5A
100
AcDbEntity
  8
LC-002-002-----0
  6
Continuous
 62
     7
100
AcDbLine
 10
45.99991403207514
 20
-453.1205243396908
 30
0.0
 11
45.99991403207514
 21
-453.5083303396908
 31
0.0
  0
LINE
  5
2BC
330
5A
100
AcDbEntity
  8
LC-002-002-----0
  6
Continuous
 62
     7
100
AcDbLine
 10
45.99991403207514
 20
-449.4511643396908
 30
0.0
 11
45.99991403207514
 21
-440.7903583396908
 31
0.0
  0
LINE
  5
2BD
330
5A
100
AcDbEntity
  8
LC-002-002-----0
  6
Continuous
 62
     7
100
AcDbLine
 10
45.99991403207514
 20
-289.1590113396908
 30
0.0
 11
45.99991403207514
 21
-280.4982053396907
 31
0.0
  0
LINE
  5
2BE
330
5A
100
AcDbEntity
  8
LC-002-002-----0
  6
Continuous
 62
     7
100
AcDbLine
 10
46.49991403207514
 20
-449.9511643396908
 30
0.0
 11
52.99991403207514
 21
-449.9511643396908
 31
0.0
  0
LINE
  5
2BF
330
5A
100
AcDbEntity
  8
LC-002-002-----0
  6
Continuous
 62
     7
100
AcDbLine
 10
45.99991403207514
 20
-301.4891763396908
 30
0.0
 11
45.99991403207514
 21
-292.8283703396908
 31
0.0
  0
LINE
  5
2C0
330
5A
100
AcDbEntity
  8
LC-002-002-----0
  6
Continuous
 62
     7
100
AcDbLine
 10
45.99991403207514
 20
-313.8193423396908
 30
0.0
 11
45.99991403207514
 21
-305.1585363396908
 31
0.0
  0
LINE
  5
2C1
330
5A
100
AcDbEntity
  8
LC-002-002-----0
  6
Continuous
 62
     7
100
AcDbLine
 10
45.99991403207514
 20
-326.1495083396908
 30
0.0
 11
45.99991403207514
 21
-317.4887023396908
 31
0.0
  0
LINE
  5
2C2
330
5A
100
AcDbEntity
  8
LC-002-002-----0
  6
Continuous
 62
     7
100
AcDbLine
 10
46.49991403207514
 20
-437.6209993396907
 30
0.0
 11
52.99991403207514
 21
-437.6209993396907
 31
0.0
  0
LINE
  5
2C3
330
5A
100
AcDbEntity
  8
LC-002-002-----0
  6
Continuous
 62
     7
100
AcDbLine
 10
53.0470820320752
 20
-303.0768313396907
 30
0.0
 11
46.82626603207518
 21
-304.1737283396907
 31
0.0
  0
LINE
  5
2C4
330
5A
100
AcDbEntity
  8
LC-002-002-----0
  6
Continuous
 62
     7
100
AcDbLine
 10
46.49991403207514
 20
-425.2908333396908
 30
0.0
 11
52.99991403207514
 21
-425.2908333396908
 31
0.0
  0
LINE
  5
2C5
330
5A
100
AcDbEntity
  8
LC-002-002-----0
  6
Continuous
 62
     7
100
AcDbLine
 10
53.0470820320752
 20
-315.4069963396908
 30
0.0
 11
46.82626603207518
 21
-316.5038943396908
 31
0.0
  0
LINE
  5
2C6
330
5A
100
AcDbEntity
  8
LC-002-002-----0
  6
Continuous
 62
     7
100
AcDbLine
 10
46.49991403207514
 20
-412.9606673396908
 30
0.0
 11
52.99991403207514
 21
-412.9606673396908
 31
0.0
  0
LINE
  5
2C7
330
5A
100
AcDbEntity
  8
LC-002-002-----0
  6
Continuous
 62
     7
100
AcDbLine
 10
53.0470820320752
 20
-327.7371623396908
 30
0.0
 11
46.82626603207518
 21
-328.8340603396908
 31
0.0
  0
LINE
  5
2C8
330
5A
100
AcDbEntity
  8
LC-002-002-----0
  6
Continuous
 62
     7
100
AcDbLine
 10
46.49991403207514
 20
-400.6305023396907
 30
0.0
 11
52.99991403207514
 21
-400.6305023396907
 31
0.0
  0
LINE
  5
2C9
330
5A
100
AcDbEntity
  8
LC-002-002-----0
  6
Continuous
 62
     7
100
AcDbLine
 10
53.0470820320752
 20
-340.0673283396907
 30
0.0
 11
46.82626603207518
 21
-341.1642253396907
 31
0.0
  0
LINE
  5
2CA
330
5A
100
AcDbEntity
  8
LC-002-002-----0
  6
Continuous
 62
     7
100
AcDbLine
 10
53.0470820320752
 20
-352.3974933396908
 30
0.0
 11
46.82626603207518
 21
-353.4943913396908
 31
0.0
  0
LINE
  5
2CB
330
5A
100
AcDbEntity
  8
LC-002-002-----0
  6
Continuous
 62
     7
100
AcDbLine
 10
46.49991403207514
 20
-388.3003363396908
 30
0.0
 11
52.99991403207514
 21
-388.3003363396908
 31
0.0
  0
LINE
  5
2CC
330
5A
100
AcDbEntity
  8
LC-002-002-----0
  6
Continuous
 62
     7
100
AcDbLine
 10
53.0470820320752
 20
-364.7276593396908
 30
0.0
 11
46.82626603207518
 21
-365.8245573396908
 31
0.0
  0
LINE
  5
2CD
330
5A
100
AcDbEntity
  8
LC-002-002-----0
  6
Continuous
 62
     7
100
AcDbLine
 10
-46.50008596792486
 20
-375.9701703396908
 30
0.0
 11
52.99991403207514
 21
-375.9701703396908
 31
0.0
  0
LINE
  5
2CE
330
5A
100
AcDbEntity
  8
LC-002-002-----0
  6
Continuous
 62
     7
100
AcDbLine
 10
45.99991403207514
 20
-338.4796733396908
 30
0.0
 11
45.99991403207514
 21
-329.8188673396908
 31
0.0
  0
LINE
  5
2CF
330
5A
100
AcDbEntity
  8
LC-002-002-----0
  6
Continuous
 62
     7
100
AcDbLine
 10
45.99991403207514
 20
-350.8098393396908
 30
0.0
 11
45.99991403207514
 21
-342.1490333396908
 31
0.0
  0
LINE
  5
2D0
330
5A
100
AcDbEntity
  8
LC-002-002-----0
  6
Continuous
 62
     7
100
AcDbLine
 10
53.0470820320752
 20
-377.0578253396907
 30
0.0
 11
46.82626603207518
 21
-378.1547223396908
 31
0.0
  0
LINE
  5
2D1
330
5A
100
AcDbEntity
  8
LC-002-002-----0
  6
Continuous
 62
     7
100
AcDbLine
 10
46.49991403207514
 20
-363.6400053396908
 30
0.0
 11
52.99991403207514
 21
-363.6400053396908
 31
0.0
  0
LINE
  5
2D2
330
5A
100
AcDbEntity
  8
LC-002-002-----0
  6
Continuous
 62
     7
100
AcDbLine
 10
53.0470820320752
 20
-389.3879903396908
 30
0.0
 11
46.82626603207518
 21
-390.4848883396908
 31
0.0
  0
LINE
  5
2D3
330
5A
100
AcDbEntity
  8
LC-002-002-----0
  6
Continuous
 62
     7
100
AcDbLine
 10
-46.50008596792486
 20
-351.3098393396908
 30
0.0
 11
52.99991403207514
 21
-351.3098393396908
 31
0.0
  0
LINE
  5
2D4
330
5A
100
AcDbEntity
  8
LC-002-002-----0
  6
Continuous
 62
     7
100
AcDbLine
 10
45.99991403207514
 20
-375.4701703396908
 30
0.0
 11
45.99991403207514
 21
-366.8093643396908
 31
0.0
  0
LINE
  5
2D5
330
5A
100
AcDbEntity
  8
LC-002-002-----0
  6
Continuous
 62
     7
100
AcDbLine
 10
45.99991403207514
 20
-400.1305023396907
 30
0.0
 11
45.99991403207514
 21
-391.4696963396908
 31
0.0
  0
LINE
  5
2D6
330
5A
100
AcDbEntity
  8
LC-002-002-----0
  6
Continuous
 62
     7
100
AcDbLine
 10
45.99991403207514
 20
-412.4606673396908
 30
0.0
 11
45.99991403207514
 21
-403.7998613396908
 31
0.0
  0
LINE
  5
2D7
330
5A
100
AcDbEntity
  8
LC-002-002-----0
  6
Continuous
 62
     7
100
AcDbLine
 10
45.99991403207514
 20
-424.7908333396908
 30
0.0
 11
45.99991403207514
 21
-416.1300273396907
 31
0.0
  0
LINE
  5
2D8
330
5A
100
AcDbEntity
  8
LC-002-002-----0
  6
Continuous
 62
     7
100
AcDbLine
 10
45.99991403207514
 20
-437.1209993396907
 30
0.0
 11
45.99991403207514
 21
-428.4601933396908
 31
0.0
  0
LINE
  5
2D9
330
5A
100
AcDbEntity
  8
LC-002-002-----0
  6
Continuous
 62
     7
100
AcDbLine
 10
53.0470820320752
 20
-401.7181563396908
 30
0.0
 11
46.82626603207518
 21
-402.8150543396908
 31
0.0
  0
LINE
  5
2DA
330
5A
100
AcDbEntity
  8
LC-002-002-----0
  6
Continuous
 62
     7
100
AcDbLine
 10
53.0470820320752
 20
-414.0483223396907
 30
0.0
 11
46.82626603207518
 21
-415.1452193396908
 31
0.0
  0
LINE
  5
2DB
330
5A
100
AcDbEntity
  8
LC-002-002-----0
  6
Continuous
 62
     7
100
AcDbLine
 10
45.99991403207514
 20
-387.8003363396908
 30
0.0
 11
45.99991403207514
 21
-379.1395303396908
 31
0.0
  0
LINE
  5
2DC
330
5A
100
AcDbEntity
  8
LC-002-002-----0
  6
Continuous
 62
     7
100
AcDbLine
 10
53.0470820320752
 20
-426.3784873396908
 30
0.0
 11
46.82626603207518
 21
-427.4753853396908
 31
0.0
  0
LINE
  5
2DD
330
5A
100
AcDbEntity
  8
LC-002-002-----0
  6
Continuous
 62
     7
100
AcDbLine
 10
45.99991403207514
 20
-363.1400053396908
 30
0.0
 11
45.99991403207514
 21
-354.4791993396908
 31
0.0
  0
LINE
  5
2DE
330
5A
100
AcDbEntity
  8
LC-002-002-----0
  6
Continuous
 62
     7
100
AcDbLine
 10
53.0470820320752
 20
-438.7086533396908
 30
0.0
 11
46.82626603207518
 21
-439.8055513396908
 31
0.0
  0
LINE
  5
2DF
330
5A
100
AcDbEntity
  8
LC-002-002-----0
  6
Continuous
 62
     7
100
AcDbLine
 10
53.0470820320752
 20
-451.0388193396908
 30
0.0
 11
46.82626603207518
 21
-452.1357163396908
 31
0.0
  0
LINE
  5
2E0
330
5A
100
AcDbEntity
  8
LC-002-002-----0
  6
Continuous
 62
     7
100
AcDbLine
 10
45.49991403207514
 20
-454.0083303396908
 30
0.0
 11
44.99991403207514
 21
-454.0083303396908
 31
0.0
  0
LINE
  5
2E1
330
5A
100
AcDbEntity
  8
LC-002-002-----0
  6
Continuous
 62
     7
100
AcDbLine
 10
45.99991403207514
 20
-453.5083303396908
 30
0.0
 11
45.49991403207514
 21
-454.0083303396908
 31
0.0
  0
LINE
  5
2E2
330
5A
100
AcDbEntity
  8
LC-002-002-----0
  6
Continuous
 62
     7
100
AcDbLine
 10
46.49991403207514
 20
-338.9796733396908
 30
0.0
 11
52.99991403207514
 21
-338.9796733396908
 31
0.0
  0
LINE
  5
2E3
330
5A
100
AcDbEntity
  8
LC-002-002-----0
  6
Continuous
 62
     7
100
AcDbLine
 10
-46.50008596792486
 20
-326.6495083396908
 30
0.0
 11
52.99991403207514
 21
-326.6495083396908
 31
0.0
  0
LINE
  5
2E4
330
5A
100
AcDbEntity
  8
LC-002-002-----0
  6
Continuous
 62
     7
100
AcDbLine
 10
-46.50008596792486
 20
-314.3193423396908
 30
0.0
 11
52.99991403207514
 21
-314.3193423396908
 31
0.0
  0
LINE
  5
2E5
330
5A
100
AcDbEntity
  8
LC-002-002-----0
  6
Continuous
 62
     7
100
AcDbLine
 10
46.49991403207514
 20
-301.9891763396908
 30
0.0
 11
52.99991403207514
 21
-301.9891763396908
 31
0.0
  0
LINE
  5
2E6
330
5A
100
AcDbEntity
  8
LC-002-002-----0
  6
Continuous
 62
     7
100
AcDbLine
 10
-49.75008596792486
 20
-289.6590113396908
 30
0.0
 11
52.99991403207514
 21
-289.6590113396908
 31
0.0
  0
LINE
  5
2E7
330
5A
100
AcDbEntity
  8
LC-002-002-----0
  6
Continuous
 62
     7
100
AcDbLine
 10
-53.00008596792486
 20
-277.3288453396908
 30
0.0
 11
-46.50008596792486
 21
-277.3288453396908
 31
0.0
  0
LINE
  5
2E8
330
5A
100
AcDbEntity
  8
LC-002-002-----0
  6
Continuous
 62
     7
100
AcDbLine
 10
52.99991403207514
 20
-277.3288453396908
 30
0.0
 11
46.49991403207514
 21
-277.3288453396908
 31
0.0
  0
LINE
  5
2E9
330
5A
100
AcDbEntity
  8
LC-002-002-----0
  6
Continuous
 62
     7
100
AcDbLine
 10
-53.0472539679248
 20
-229.0958373396908
 30
0.0
 11
-46.82643796792479
 21
-230.1927343396908
 31
0.0
  0
LINE
  5
2EA
330
5A
100
AcDbEntity
  8
LC-002-002-----0
  6
Continuous
 62
     7
100
AcDbLine
 10
53.0470820320752
 20
-229.0958373396908
 30
0.0
 11
46.82626603207518
 21
-230.1927343396908
 31
0.0
  0
LINE
  5
2EB
330
5A
100
AcDbEntity
  8
LC-002-002-----0
  6
Continuous
 62
     7
100
AcDbLine
 10
-45.00008596792486
 20
-454.0083303396908
 30
0.0
 11
-45.00008596792486
 21
-459.5083303396908
 31
0.0
  0
LINE
  5
2EC
330
5A
100
AcDbEntity
  8
LC-002-002-----0
  6
Continuous
 62
     7
100
AcDbLine
 10
-45.00008596792486
 20
-459.5083303396908
 30
0.0
 11
44.99991403207514
 21
-459.5083303396908
 31
0.0
  0
LINE
  5
2ED
330
5A
100
AcDbEntity
  8
LC-002-002-----0
  6
Continuous
 62
     7
100
AcDbLine
 10
44.99991403207514
 20
-454.0083303396908
 30
0.0
 11
-45.00008596792486
 21
-454.0083303396908
 31
0.0
  0
LINE
  5
2EE
330
5A
100
AcDbEntity
  8
LC-002-002-----0
  6
Continuous
 62
     7
100
AcDbLine
 10
-46.00008596792486
 20
-453.5083303396908
 30
0.0
 11
45.99991403207514
 21
-453.5083303396908
 31
0.0
  0
LINE
  5
2EF
330
5A
100
AcDbEntity
  8
LC-002-002-----0
  6
Continuous
 62
     7
100
AcDbLine
 10
-46.50008596792486
 20
-449.9511643396908
 30
0.0
 11
46.49991403207514
 21
-449.9511643396908
 31
0.0
  0
LINE
  5
2F0
330
5A
100
AcDbEntity
  8
LC-002-002-----0
  6
Continuous
 62
     7
100
AcDbLine
 10
46.49991403207514
 20
-437.6209993396907
 30
0.0
 11
-46.50008596792486
 21
-437.6209993396907
 31
0.0
  0
LINE
  5
2F1
330
5A
100
AcDbEntity
  8
LC-002-002-----0
  6
Continuous
 62
     7
100
AcDbLine
 10
-46.50008596792486
 20
-425.2908333396908
 30
0.0
 11
46.49991403207514
 21
-425.2908333396908
 31
0.0
  0
LINE
  5
2F2
330
5A
100
AcDbEntity
  8
LC-002-002-----0
  6
Continuous
 62
     7
100
AcDbLine
 10
46.49991403207514
 20
-412.9606673396908
 30
0.0
 11
-46.50008596792486
 21
-412.9606673396908
 31
0.0
  0
LINE
  5
2F3
330
5A
100
AcDbEntity
  8
LC-002-002-----0
  6
Continuous
 62
     7
100
AcDbLine
 10
-46.50008596792486
 20
-400.6305023396907
 30
0.0
 11
46.49991403207514
 21
-400.6305023396907
 31
0.0
  0
LINE
  5
2F4
330
5A
100
AcDbEntity
  8
LC-002-002-----0
  6
Continuous
 62
     7
100
AcDbLine
 10
-46.50008596792486
 20
-277.3288453396908
 30
0.0
 11
46.49991403207514
 21
-277.3288453396908
 31
0.0
  0
LINE
  5
2F5
330
5A
100
AcDbEntity
  8
LC-002-002-----0
  6
Continuous
 62
     7
100
AcDbLine
 10
45.00057403207518
 20
-454.0082073396908
 30
0.0
 11
45.00058903207514
 21
-459.5082073396908
 31
0.0
  0
LINE
  5
2F6
330
5A
100
AcDbEntity
  8
LC-002-002-----0
  6
Continuous
 62
     7
100
AcDbLine
 10
-46.00008596792486
 20
-439.8055513396908
 30
0.0
 11
45.99991403207514
 21
-439.8055513396908
 31
0.0
  0
LINE
  5
2F7
330
5A
100
AcDbEntity
  8
LC-002-002-----0
  6
Continuous
 62
     7
100
AcDbLine
 10
-46.00008596792486
 20
-427.4753853396908
 30
0.0
 11
45.99991403207514
 21
-427.4753853396908
 31
0.0
  0
LINE
  5
2F8
330
5A
100
AcDbEntity
  8
LC-002-002-----0
  6
Continuous
 62
     7
100
AcDbLine
 10
-46.00008596792486
 20
-415.1452193396908
 30
0.0
 11
45.99991403207514
 21
-415.1452193396908
 31
0.0
  0
LINE
  5
2F9
330
5A
100
AcDbEntity
  8
LC-002-002-----0
  6
Continuous
 62
     7
100
AcDbLine
 10
-46.00008596792486
 20
-402.8150543396908
 30
0.0
 11
45.99991403207514
 21
-402.8150543396908
 31
0.0
  0
LINE
  5
2FA
330
5A
100
AcDbEntity
  8
LC-002-002-----0
  6
Continuous
 62
     7
100
AcDbLine
 10
-46.00008596792486
 20
-390.4848883396908
 30
0.0
 11
45.99991403207514
 21
-390.4848883396908
 31
0.0
  0
LINE
  5
2FB
330
5A
100
AcDbEntity
  8
LC-002-002-----0
  6
Continuous
 62
     7
100
AcDbLine
 10
-46.00008596792486
 20
-378.1547223396908
 30
0.0
 11
45.99991403207514
 21
-378.1547223396908
 31
0.0
  0
LINE
  5
2FC
330
5A
100
AcDbEntity
  8
LC-002-002-----0
  6
Continuous
 62
     7
100
AcDbLine
 10
-46.00008596792486
 20
-365.8245573396908
 30
0.0
 11
45.99991403207514
 21
-365.8245573396908
 31
0.0
  0
LINE
  5
2FD
330
5A
100
AcDbEntity
  8
LC-002-002-----0
  6
Continuous
 62
     7
100
AcDbLine
 10
-46.00008596792486
 20
-353.4943913396908
 30
0.0
 11
45.99991403207514
 21
-353.4943913396908
 31
0.0
  0
LINE
  5
2FE
330
5A
100
AcDbEntity
  8
LC-002-002-----0
  6
Continuous
 62
     7
100
AcDbLine
 10
-46.00008596792486
 20
-341.1642253396907
 30
0.0
 11
45.99991403207514
 21
-341.1642253396907
 31
0.0
  0
LINE
  5
2FF
330
5A
100
AcDbEntity
  8
LC-002-002-----0
  6
Continuous
 62
     7
100
AcDbLine
 10
-46.00008596792486
 20
-328.8340603396908
 30
0.0
 11
45.99991403207514
 21
-328.8340603396908
 31
0.0
  0
LINE
  5
300
330
5A
100
AcDbEntity
  8
LC-002-002-----0
  6
Continuous
 62
     7
100
AcDbLine
 10
-46.00008596792486
 20
-316.5038943396908
 30
0.0
 11
45.99991403207514
 21
-316.5038943396908
 31
0.0
  0
LINE
  5
301
330
5A
100
AcDbEntity
  8
LC-002-002-----0
  6
Continuous
 62
     7
100
AcDbLine
 10
-46.00008596792486
 20
-304.1737283396907
 30
0.0
 11
45.99991403207514
 21
-304.1737283396907
 31
0.0
  0
LINE
  5
302
330
5A
100
AcDbEntity
  8
LC-002-002-----0
  6
Continuous
 62
     7
100
AcDbLine
 10
-46.00008596792486
 20
-291.8435633396908
 30
0.0
 11
45.99991403207514
 21
-291.8435633396908
 31
0.0
  0
LINE
  5
303
330
5A
100
AcDbEntity
  8
LC-002-002-----0
  6
Continuous
 62
     7
100
AcDbLine
 10
-46.00008596792486
 20
-279.5133973396908
 30
0.0
 11
45.99991403207514
 21
-279.5133973396908
 31
0.0
  0
LINE
  5
304
330
5A
100
AcDbEntity
  8
LC-002-002-----0
  6
Continuous
 62
     7
100
AcDbLine
 10
-46.00008596792486
 20
-267.1832313396907
 30
0.0
 11
45.99991403207514
 21
-267.1832313396907
 31
0.0
  0
LINE
  5
305
330
5A
100
AcDbEntity
  8
LC-002-002-----0
  6
Continuous
 62
     7
100
AcDbLine
 10
-46.00008596792486
 20
-254.8530663396908
 30
0.0
 11
45.99991403207514
 21
-254.8530663396908
 31
0.0
  0
LINE
  5
306
330
5A
100
AcDbEntity
  8
LC-002-002-----0
  6
Continuous
 62
     7
100
AcDbLine
 10
-46.00008596792486
 20
-242.5229003396908
 30
0.0
 11
45.99991403207514
 21
-242.5229003396908
 31
0.0
  0
LINE
  5
307
330
5A
100
AcDbEntity
  8
LC-002-002-----0
  6
Continuous
 62
     7
100
AcDbLine
 10
-46.00008596792486
 20
-230.1927343396908
 30
0.0
 11
45.99991403207514
 21
-230.1927343396908
 31
0.0
  0
LINE
  5
308
330
5A
100
AcDbEntity
  8
LC-001-002-----0
  6
Continuous
 62
     7
100
AcDbLine
 10
80.75
 20
-32.736469
 30
0.0
 11
80.75
 21
-44.18575713093564
 31
0.0
  0
LINE
  5
309
330
5A
100
AcDbEntity
  8
LC-001-002-----0
  6
Continuous
 62
     7
100
AcDbLine
 10
73.5
 20
-47.18575713093564
 30
0.0
 11
77.75
 21
-47.18575713093564
 31
0.0
  0
LINE
  5
30A
330
5A
100
AcDbEntity
  8
LC-001-002-----0
  6
Continuous
 62
     7
100
AcDbLine
 10
-63.00000499999999
 20
-65.37228213093564
 30
0.0
 11
-73.5
 21
-47.18575713093564
 31
0.0
  0
LINE
  5
30B
330
5A
100
AcDbEntity
  8
LC-001-002-----0
  6
Continuous
 62
     7
100
AcDbLine
 10
-73.5
 20
-47.18575713093564
 30
0.0
 11
-77.75
 21
-47.18575713093564
 31
0.0
  0
LINE
  5
30C
330
5A
100
AcDbEntity
  8
LC-001-002-----0
  6
Continuous
 62
     7
100
AcDbLine
 10
-73.5
 20
-47.18575713093564
 30
0.0
 11
73.5
 21
-47.18575713093564
 31
0.0
  0
LINE
  5
30D
330
5A
100
AcDbEntity
  8
LC-001-002-----0
  6
Continuous
 62
     7
100
AcDbLine
 10
73.5
 20
-47.18575713093564
 30
0.0
 11
77.75
 21
-47.18575713093564
 31
0.0
  0
LINE
  5
30E
330
5A
100
AcDbEntity
  8
LC-001-002-----0
  6
Continuous
 62
     7
100
AcDbLine
 10
-45.0
 20
-101.1861031309357
 30
0.0
 11
-45.0
 21
-154.0083303396908
 31
0.0
  0
LINE
  5
30F
330
5A
100
AcDbEntity
  8
LC-001-002-----0
  6
Continuous
 62
     7
100
AcDbLine
 10
45.00000499999999
 20
-101.1861031309357
 30
0.0
 11
45.00000499999999
 21
-154.0083303396908
 31
0.0
  0
LINE
  5
310
330
5A
100
AcDbEntity
  8
LC-001-002-----0
  6
Continuous
 62
     7
100
AcDbLine
 10
63.00000499999999
 20
-65.37228213093564
 30
0.0
 11
73.5
 21
-47.18575713093564
 31
0.0
  0
LINE
  5
311
330
5A
100
AcDbEntity
  8
LC-001-002-----0
  6
Continuous
 62
     7
100
AcDbLine
 10
63.00000499999999
 20
-98.18610313093566
 30
0.0
 11
63.00000499999999
 21
-65.37228213093564
 31
0.0
  0
LINE
  5
312
330
5A
100
AcDbEntity
  8
LC-001-002-----0
  6
Continuous
 62
     7
100
AcDbLine
 10
45.00000499999999
 20
-101.1861031309357
 30
0.0
 11
60.00000499999999
 21
-101.1861031309357
 31
0.0
  0
LINE
  5
313
330
5A
100
AcDbEntity
  8
LC-001-002-----0
  6
Continuous
 62
     7
100
AcDbLine
 10
-45.00000499999999
 20
-101.1861031309357
 30
0.0
 11
-60.00000499999999
 21
-101.1861031309357
 31
0.0
  0
LINE
  5
314
330
5A
100
AcDbEntity
  8
LC-001-002-----0
  6
Continuous
 62
     7
100
AcDbLine
 10
-63.00000499999999
 20
-98.18610313093566
 30
0.0
 11
-63.00000499999999
 21
-65.37228213093564
 31
0.0
  0
LINE
  5
315
330
5A
100
AcDbEntity
  8
LC-001-002-----0
  6
Continuous
 62
     7
100
AcDbLine
 10
-63.00000499999999
 20
-65.37228213093564
 30
0.0
 11
-73.5
 21
-47.18575713093564
 31
0.0
  0
LINE
  5
316
330
5A
100
AcDbEntity
  8
LC-001-002-----0
  6
Continuous
 62
     7
100
AcDbLine
 10
-73.5
 20
-47.18575713093564
 30
0.0
 11
-77.75
 21
-47.18575713093564
 31
0.0
  0
LINE
  5
317
330
5A
100
AcDbEntity
  8
LC-001-002-----0
  6
Continuous
 62
     7
100
AcDbLine
 10
-45.0
 20
-101.1861031309357
 30
0.0
 11
45.00000499999999
 21
-101.1861031309357
 31
0.0
  0
LINE
  5
318
330
5A
100
AcDbEntity
  8
LC-001-002-----0
  6
Continuous
 62
     7
100
AcDbLine
 10
-63.00000499999999
 20
-65.37228213093564
 30
0.0
 11
0.0
 21
-65.37228213093564
 31
0.0
  0
LINE
  5
319
330
5A
100
AcDbEntity
  8
LC-001-002-----0
  6
Continuous
 62
     7
100
AcDbLine
 10
0.0
 20
-65.37228213093564
 30
0.0
 11
63.00000499999999
 21
-65.37228213093564
 31
0.0
  0
LINE
  5
31A
330
5A
100
AcDbEntity
  8
LC-001-002-----0
  6
Continuous
 62
     7
100
AcDbLine
 10
-73.5
 20
-47.18575713093564
 30
0.0
 11
73.5
 21
-47.18575713093564
 31
0.0
  0
LINE
  5
31B
330
5A
100
AcDbEntity
  8
LC-004-006-MLN-0
  6
CENTER
 62
     2
100
AcDbLine
 10
0.0
 20
-159.7897571309357
 30
0.0
 11
0.0
 21
-472.1857571309357
 31
0.0
  0
LINE
  5
31C
330
5A
100
AcDbEntity
  8
LC-001-002-----0
  6
Continuous
 62
     7
100
AcDbLine
 10
-80.75
 20
-32.736469
 30
0.0
 11
-80.75
 21
-44.13170600226366
 31
0.0
  0
LINE
  5
31D
330
5A
100
AcDbEntity
  8
LC-001-002-----0
  6
Continuous
 62
     7
100
AcDbLine
 10
-90.5014829999999
 20
-30.24411199999997
 30
0.0
 11
-87.00147400000003
 21
-30.24411199999997
 31
0.0
  0
LINE
  5
31E
330
5A
100
AcDbEntity
  8
LC-001-002-----0
  6
Continuous
 62
     7
100
AcDbLine
 10
-231.995428
 20
0.0
 30
0.0
 11
-231.995428
 21
-3.236469
 31
0.0
  0
LINE
  5
31F
330
5A
100
AcDbEntity
  8
LC-001-002-----0
  6
Continuous
 62
     7
100
AcDbLine
 10
-140.919893
 20
-3.236469
 30
0.0
 11
-221.995428
 21
-3.236469
 31
0.0
  0
LINE
  5
320
330
5A
100
AcDbEntity
  8
LC-001-002-----0
  6
Continuous
 62
     7
100
AcDbLine
 10
-221.995428
 20
0.0
 30
0.0
 11
-231.995428
 21
0.0
 31
0.0
  0
LINE
  5
321
330
5A
100
AcDbEntity
  8
LC-001-002-----0
  6
Continuous
 62
     7
100
AcDbLine
 10
-221.995428
 20
-3.236469
 30
0.0
 11
-231.995428
 21
-3.236469
 31
0.0
  0
LINE
  5
322
330
5A
100
AcDbEntity
  8
LC-001-002-----0
  6
Continuous
 62
     7
100
AcDbLine
 10
-85.500001
 20
-31.736469
 30
0.0
 11
-81.75
 21
-31.736469
 31
0.0
  0
LINE
  5
323
330
5A
100
AcDbEntity
  8
LC-001-002-----0
  6
Continuous
 62
     7
100
AcDbLine
 10
-103.951415
 20
-14.995091
 30
0.0
 11
-101.005186
 21
-14.99480499999999
 31
0.0
  0
LINE
  5
324
330
5A
100
AcDbEntity
  8
LC-001-002-----0
  6
Continuous
 62
     7
100
AcDbLine
 10
-81.75
 20
-31.736469
 30
0.0
 11
-80.75
 21
-32.736469
 31
0.0
  0
LINE
  5
325
330
5A
100
AcDbEntity
  8
LC-001-002-----0
  6
Continuous
 62
     7
100
AcDbLine
 10
85.500001
 20
-31.736469
 30
0.0
 11
81.75
 21
-31.736469
 31
0.0
  0
LINE
  5
326
330
5A
100
AcDbEntity
  8
LC-001-002-----0
  6
Continuous
 62
     7
100
AcDbLine
 10
81.75
 20
-31.736469
 30
0.0
 11
80.75
 21
-32.736469
 31
0.0
  0
LINE
  5
327
330
5A
100
AcDbEntity
  8
LC-001-002-----0
  6
Continuous
 62
     7
100
AcDbLine
 10
-85.500001
 20
-31.736469
 30
0.0
 11
-85.500001
 21
-30.23617300000001
 31
0.0
  0
LINE
  5
328
330
5A
100
AcDbEntity
  8
LC-001-002-----0
  6
Continuous
 62
     7
100
AcDbLine
 10
103.938662
 20
-14.99508900000001
 30
0.0
 11
101.005186
 21
-14.99480499999999
 31
0.0
  0
LINE
  5
329
330
5A
100
AcDbEntity
  8
LC-001-002-----0
  6
Continuous
 62
     7
100
AcDbLine
 10
85.500001
 20
-31.736469
 30
0.0
 11
85.500001
 21
-30.23620999999997
 31
0.0
  0
LINE
  5
32A
330
5A
100
AcDbEntity
  8
LC-001-002-----0
  6
Continuous
 62
     7
100
AcDbLine
 10
-128.015855
 20
-6.236469
 30
0.0
 11
-103.951415
 21
-14.995091
 31
0.0
  0
LINE
  5
32B
330
5A
100
AcDbEntity
  8
LC-001-002-----0
  6
Continuous
 62
     7
100
AcDbLine
 10
-100.00518
 20
-15.99461600000001
 30
0.0
 11
-100.005098
 21
-29.73649499999999
 31
0.0
  0
LINE
  5
32C
330
5A
100
AcDbEntity
  8
LC-001-002-----0
  6
Continuous
 62
     7
100
AcDbLine
 10
-99.50509599999998
 20
-30.236492
 30
0.0
 11
-94.00348999999994
 21
-30.23645899999997
 31
0.0
  0
LINE
  5
32D
330
5A
100
AcDbEntity
  8
LC-001-002-----0
  6
Continuous
 62
     7
100
AcDbLine
 10
-94.00348899999995
 20
-30.23658499999999
 30
0.0
 11
-85.500001
 21
-30.23617300000001
 31
0.0
  0
LINE
  5
32E
330
5A
100
AcDbEntity
  8
LC-001-002-----0
  6
Continuous
 62
     7
100
AcDbLine
 10
128.010255
 20
-6.236469
 30
0.0
 11
103.938662
 21
-14.99508900000001
 31
0.0
  0
LINE
  5
32F
330
5A
100
AcDbEntity
  8
LC-001-002-----0
  6
Continuous
 62
     7
100
AcDbLine
 10
100.005186
 20
-15.99460999999997
 30
0.0
 11
100.0051970000001
 21
-29.736468
 31
0.0
  0
LINE
  5
330
330
5A
100
AcDbEntity
  8
LC-001-002-----0
  6
Continuous
 62
     7
100
AcDbLine
 10
99.50519700000007
 20
-30.236469
 30
0.0
 11
96.49993700000005
 21
-30.23646299999996
 31
0.0
  0
LINE
  5
331
330
5A
100
AcDbEntity
  8
LC-001-002-----0
  6
Continuous
 62
     7
100
AcDbLine
 10
96.49993700000005
 20
-30.23645799999997
 30
0.0
 11
85.500001
 21
-30.23620999999997
 31
0.0
  0
LINE
  5
332
330
5A
100
AcDbEntity
  8
LC-001-002-----0
  6
Continuous
 62
     7
100
AcDbLine
 10
177.0000000000001
 20
-5.236469
 30
0.0
 11
177.0000000000001
 21
-6.236469
 31
0.0
  0
LINE
  5
333
330
5A
100
AcDbEntity
  8
LC-001-002-----0
  6
Continuous
 62
     7
100
AcDbLine
 10
127.736207
 20
-3.236469
 30
0.0
 11
175.0000000000001
 21
-3.236469
 31
0.0
  0
LINE
  5
334
330
5A
100
AcDbEntity
  8
LC-001-002-----0
  6
Continuous
 62
     7
100
AcDbLine
 10
128.010255
 20
-6.236469
 30
0.0
 11
177.0000000000001
 21
-6.236469
 31
0.0
  0
LINE
  5
335
330
5A
100
AcDbEntity
  8
LC-001-002-----0
  6
Continuous
 62
     7
100
AcDbLine
 10
-127.599904
 20
-3.236469
 30
0.0
 11
-175.0
 21
-3.236469
 31
0.0
  0
LINE
  5
336
330
5A
100
AcDbEntity
  8
LC-001-002-----0
  6
Continuous
 62
     7
100
AcDbLine
 10
-128.010255
 20
-6.236469
 30
0.0
 11
-177.0
 21
-6.236469
 31
0.0
  0
LINE
  5
337
330
5A
100
AcDbEntity
  8
LC-001-002-----0
  6
Continuous
 62
     7
100
AcDbLine
 10
-177.0
 20
-5.236469
 30
0.0
 11
-177.0
 21
-6.236469
 31
0.0
  0
LINE
  5
338
330
5A
100
AcDbEntity
  8
LC-001-002-----0
  6
Continuous
 62
     7
100
AcDbLine
 10
-101.005186
 20
-14.99480499999999
 30
0.0
 11
-100.00518
 21
-15.99461600000001
 31
0.0
  0
LINE
  5
339
330
5A
100
AcDbEntity
  8
LC-001-002-----0
  6
Continuous
 62
     7
100
AcDbLine
 10
101.005186
 20
-14.99480499999999
 30
0.0
 11
100.005186
 21
-15.99460999999997
 31
0.0
  0
LINE
  5
33A
330
5A
100
AcDbEntity
  8
LC-001-002-----0
  6
DASHDOT
 62
     2
100
AcDbLine
 10
0.0
 20
70.79348700000003
 30
0.0
 11
0.0
 21
-54.37111799999997
 31
0.0
  0
LINE
  5
33B
330
5A
100
AcDbEntity
  8
LC-001-002-----0
  6
DASHDOT
 62
     2
100
AcDbLine
 10
0.0
 20
-54.80111799999997
 30
0.0
 11
0.0
 21
-348.236469
 31
0.0
  0
LINE
  5
33C
330
5A
100
AcDbEntity
  8
LC-001-002-----0
  6
Continuous
 62
     7
100
AcDbLine
 10
127.246697
 20
0.0
 30
0.0
 11
-231.993711
 21
0.0
 31
0.0
  0
LINE
  5
33D
330
5A
100
AcDbEntity
  8
LC-001-002-----0
  6
Continuous
 62
     7
100
AcDbLine
 10
231.9954280000001
 20
0.0
 30
0.0
 11
231.9954280000001
 21
-3.236469
 31
0.0
  0
LINE
  5
33E
330
5A
100
AcDbEntity
  8
LC-001-002-----0
  6
Continuous
 62
     7
100
AcDbLine
 10
221.9954280000001
 20
0.0
 30
0.0
 11
231.9954280000001
 21
0.0
 31
0.0
  0
LINE
  5
33F
330
5A
100
AcDbEntity
  8
LC-001-002-----0
  6
Continuous
 62
     7
100
AcDbLine
 10
127.246697
 20
0.0
 30
0.0
 11
231.9937100000001
 21
0.0
 31
0.0
  0
LINE
  5
340
330
5A
100
AcDbEntity
  8
LC-001-002-----0
  6
Continuous
 62
     7
100
AcDbLine
 10
140.919893
 20
-3.236469
 30
0.0
 11
231.9954280000001
 21
-3.236469
 31
0.0
  0
LINE
  5
341
330
5A
100
AcDbEntity
  8
LC-001-002-----0
  6
Continuous
 62
     7
100
AcDbLine
 10
90.99993700000005
 20
-37.23642599999999
 30
0.0
 11
90.99993700000005
 21
-30.236334
 31
0.0
  0
LINE
  5
342
330
5A
100
AcDbEntity
  8
LC-001-002-----0
  6
Continuous
 62
     7
100
AcDbLine
 10
96.49993700000005
 20
-37.73642599999999
 30
0.0
 11
91.49993700000005
 21
-37.73642599999999
 31
0.0
  0
LINE
  5
343
330
5A
100
AcDbEntity
  8
LC-001-002-----0
  6
Continuous
 62
     7
100
AcDbLine
 10
96.99993700000005
 20
-37.23642599999999
 30
0.0
 11
96.99993700000005
 21
-30.23646399999996
 31
0.0
  0
LINE
  5
344
330
5A
100
AcDbEntity
  8
LC-001-002-----0
  6
Continuous
 62
     7
100
AcDbLine
 10
96.49993700000005
 20
-37.73642599999999
 30
0.0
 11
96.99993700000005
 21
-37.23642599999999
 31
0.0
  0
LINE
  5
345
330
5A
100
AcDbEntity
  8
LC-001-002-----0
  6
Continuous
 62
     7
100
AcDbLine
 10
91.49993700000005
 20
-37.73642599999999
 30
0.0
 11
90.99993700000005
 21
-37.23642599999999
 31
0.0
  0
LINE
  5
346
330
5A
100
AcDbEntity
  8
LC-001-002-----0
  6
Continuous
 62
     7
100
AcDbLine
 10
-90.99993699999993
 20
-37.23642599999999
 30
0.0
 11
-90.99993699999993
 21
-30.23643999999996
 31
0.0
  0
LINE
  5
347
330
5A
100
AcDbEntity
  8
LC-001-002-----0
  6
Continuous
 62
     7
100
AcDbLine
 10
-96.49993699999993
 20
-37.73642599999999
 30
0.0
 11
-91.49993699999993
 21
-37.73642599999999
 31
0.0
  0
LINE
  5
348
330
5A
100
AcDbEntity
  8
LC-001-002-----0
  6
Continuous
 62
     7
100
AcDbLine
 10
-96.99993699999993
 20
-37.23642599999999
 30
0.0
 11
-96.99993699999993
 21
-30.23647699999998
 31
0.0
  0
LINE
  5
349
330
5A
100
AcDbEntity
  8
LC-001-002-----0
  6
Continuous
 62
     7
100
AcDbLine
 10
-96.49993699999993
 20
-37.73642599999999
 30
0.0
 11
-96.99993699999993
 21
-37.23642599999999
 31
0.0
  0
LINE
  5
34A
330
5A
100
AcDbEntity
  8
LC-001-002-----0
  6
Continuous
 62
     7
100
AcDbLine
 10
-91.49993699999993
 20
-37.73642599999999
 30
0.0
 11
-90.99993699999993
 21
-37.23642599999999
 31
0.0
  0
LINE
  5
34B
330
5A
100
AcDbEntity
  8
LC-001-002-----0
  6
Continuous
 62
     7
100
AcDbLine
 10
-80.75
 20
-32.736469
 30
0.0
 11
-49.99996699999997
 21
-32.736469
 31
0.0
  0
LINE
  5
34C
330
5A
100
AcDbEntity
  8
LC-001-002-----0
  6
Continuous
 62
     7
100
AcDbLine
 10
81.75
 20
-31.736469
 30
0.0
 11
49.99996700000008
 21
-31.736469
 31
0.0
  0
LINE
  5
34D
330
5A
100
AcDbEntity
  8
LC-001-002-----0
  6
Continuous
 62
     7
100
AcDbLine
 10
-85.500001
 20
-30.23617300000001
 30
0.0
 11
85.500001
 21
-30.23617300000001
 31
0.0
  0
LINE
  5
34E
330
5A
100
AcDbEntity
  8
LC-001-002-----0
  6
Continuous
 62
     7
100
AcDbLine
 10
100.005186
 20
-15.99460999999997
 30
0.0
 11
-100.00518
 21
-15.99460999999997
 31
0.0
  0
LINE
  5
34F
330
5A
100
AcDbEntity
  8
LC-001-002-----0
  6
Continuous
 62
     7
100
AcDbLine
 10
-101.005186
 20
-14.99480499999999
 30
0.0
 11
101.005186
 21
-14.99480499999999
 31
0.0
  0
LINE
  5
350
330
5A
100
AcDbEntity
  8
LC-001-002-----0
  6
Continuous
 62
     7
100
AcDbLine
 10
128.010255
 20
-6.236469
 30
0.0
 11
-128.015855
 21
-6.236469
 31
0.0
  0
LINE
  5
351
330
5A
100
AcDbEntity
  8
LC-001-002-----0
  6
Continuous
 62
     7
100
AcDbLine
 10
-127.741663
 20
-3.236469
 30
0.0
 11
128.010255
 21
-3.236469
 31
0.0
  0
LINE
  5
352
330
5A
100
AcDbEntity
  8
LC-001-002-----0
  6
DASHDOT
 62
     2
100
AcDbLine
 10
93.99993700000005
 20
12.26357400000001
 30
0.0
 11
93.99993700000005
 21
-37.73642599999999
 31
0.0
  0
LINE
  5
353
330
5A
100
AcDbEntity
  8
LC-001-002-----0
  6
DASHDOT
 62
     2
100
AcDbLine
 10
-93.99993699999993
 20
12.26357400000001
 30
0.0
 11
-93.99993699999993
 21
-37.73642599999999
 31
0.0
  0
LINE
  5
354
330
5A
100
AcDbEntity
  8
LC-001-002-----0
  6
Continuous
 62
     7
100
AcDbLine
 10
-43.99996699999997
 20
-37.23642599999999
 30
0.0
 11
-43.99996699999997
 21
-30.23643999999996
 31
0.0
  0
LINE
  5
355
330
5A
100
AcDbEntity
  8
LC-001-002-----0
  6
Continuous
 62
     7
100
AcDbLine
 10
-49.49996699999997
 20
-37.73642599999999
 30
0.0
 11
-44.49996699999997
 21
-37.73642599999999
 31
0.0
  0
LINE
  5
356
330
5A
100
AcDbEntity
  8
LC-001-002-----0
  6
Continuous
 62
     7
100
AcDbLine
 10
-49.99996699999997
 20
-37.23642599999999
 30
0.0
 11
-49.99996699999997
 21
-30.23647699999998
 31
0.0
  0
LINE
  5
357
330
5A
100
AcDbEntity
  8
LC-001-002-----0
  6
Continuous
 62
     7
100
AcDbLine
 10
-49.49996699999997
 20
-37.73642599999999
 30
0.0
 11
-49.99996699999997
 21
-37.23642599999999
 31
0.0
  0
LINE
  5
358
330
5A
100
AcDbEntity
  8
LC-001-002-----0
  6
Continuous
 62
     7
100
AcDbLine
 10
-44.49996699999997
 20
-37.73642599999999
 30
0.0
 11
-43.99996699999997
 21
-37.23642599999999
 31
0.0
  0
LINE
  5
359
330
5A
100
AcDbEntity
  8
LC-001-002-----0
  6
Continuous
 62
     7
100
AcDbLine
 10
-43.99996699999997
 20
-32.736469
 30
0.0
 11
43.99996700000008
 21
-32.736469
 31
0.0
  0
LINE
  5
35A
330
5A
100
AcDbEntity
  8
LC-001-002-----0
  6
Continuous
 62
     7
100
AcDbLine
 10
-49.99996699999997
 20
-31.736469
 30
0.0
 11
-81.75
 21
-31.736469
 31
0.0
  0
LINE
  5
35B
330
5A
100
AcDbEntity
  8
LC-001-002-----0
  6
DASHDOT
 62
     2
100
AcDbLine
 10
46.99996700000008
 20
12.26357400000001
 30
0.0
 11
46.99996700000008
 21
-37.73642599999999
 31
0.0
  0
LINE
  5
35C
330
5A
100
AcDbEntity
  8
LC-001-002-----0
  6
Continuous
 62
     7
100
AcDbLine
 10
43.99996700000008
 20
-37.23642599999999
 30
0.0
 11
43.99996700000008
 21
-30.23643999999996
 31
0.0
  0
LINE
  5
35D
330
5A
100
AcDbEntity
  8
LC-001-002-----0
  6
Continuous
 62
     7
100
AcDbLine
 10
49.49996700000008
 20
-37.73642599999999
 30
0.0
 11
44.49996700000008
 21
-37.73642599999999
 31
0.0
  0
LINE
  5
35E
330
5A
100
AcDbEntity
  8
LC-001-002-----0
  6
Continuous
 62
     7
100
AcDbLine
 10
49.99996700000008
 20
-37.23642599999999
 30
0.0
 11
49.99996700000008
 21
-30.23647699999998
 31
0.0
  0
LINE
  5
35F
330
5A
100
AcDbEntity
  8
LC-001-002-----0
  6
Continuous
 62
     7
100
AcDbLine
 10
49.49996700000008
 20
-37.73642599999999
 30
0.0
 11
49.99996700000008
 21
-37.23642599999999
 31
0.0
  0
LINE
  5
360
330
5A
100
AcDbEntity
  8
LC-001-002-----0
  6
Continuous
 62
     7
100
AcDbLine
 10
44.49996700000008
 20
-37.73642599999999
 30
0.0
 11
43.99996700000008
 21
-37.23642599999999
 31
0.0
  0
LINE
  5
361
330
5A
100
AcDbEntity
  8
LC-001-002-----0
  6
Continuous
 62
     7
100
AcDbLine
 10
43.99996700000008
 20
-31.736469
 30
0.0
 11
-43.99996699999997
 21
-31.736469
 31
0.0
  0
LINE
  5
362
330
5A
100
AcDbEntity
  8
LC-001-002-----0
  6
Continuous
 62
     7
100
AcDbLine
 10
49.99996700000008
 20
-32.736469
 30
0.0
 11
80.75
 21
-32.736469
 31
0.0
  0
LINE
  5
363
330
5A
100
AcDbEntity
  8
1
  6
Continuous
 62
     7
100
AcDbLine
 10
32.00002699999959
 20
-514.7072741309356
 30
0.0
 11
55.00002734934026
 21
-512.099531370463
 31
0.0
  0
LINE
  5
364
330
5A
100
AcDbEntity
  8
1
  6
Continuous
 62
     7
100
AcDbLine
 10
13.00002699999959
 20
-511.7072741309356
 30
0.0
 11
32.00002699999959
 21
-514.7072741309356
 31
0.0
  0
LINE
  5
365
330
5A
100
AcDbEntity
  8
1
  6
Continuous
 62
     7
100
AcDbLine
 10
-10.99997300000041
 20
-514.7072741309356
 30
0.0
 11
13.00002699999959
 21
-511.7072741309356
 31
0.0
  0
LINE
  5
366
330
5A
100
AcDbEntity
  8
1
  6
Continuous
 62
     7
100
AcDbLine
 10
-37.4999730000004
 20
-509.7072741309356
 30
0.0
 11
-10.99997300000041
 21
-514.7072741309356
 31
0.0
  0
LINE
  5
367
330
5A
100
AcDbEntity
  8
1
  6
Continuous
 62
     7
100
AcDbLine
 10
-54.99997250254592
 20
-512.2072740314445
 30
0.0
 11
-37.4999730000004
 21
-509.7072741309356
 31
0.0
  0
LWPOLYLINE
  5
368
330
5A
100
AcDbEntity
  8
LC-006-005-----0
  6
Continuous
 62
     3
100
AcDbPolyline
 90
        2
 70
     0
 43
1.0
 10
0.04459799999961
 20
-491.8470091309357
 10
-0.05812100000037
 20
-491.7442901309357
  0
LWPOLYLINE
  5
369
330
5A
100
AcDbEntity
  8
LC-006-005-----0
  6
Continuous
 62
     3
100
AcDbPolyline
 90
        2
 70
     0
 43
1.0
 10
0.11040699999967
 20
-491.3471331309356
 10
-0.14388800000029
 20
-491.0928381309357
  0
LWPOLYLINE
  5
36A
330
5A
100
AcDbEntity
  8
LC-006-005-----0
  6
Continuous
 62
     3
100
AcDbPolyline
 90
        2
 70
     0
 43
1.0
 10
0.17621699999961
 20
-490.8472581309356
 10
-0.22965500000032
 20
-490.4413851309357
  0
LWPOLYLINE
  5
36B
330
5A
100
AcDbEntity
  8
LC-006-005-----0
  6
Continuous
 62
     3
100
AcDbPolyline
 90
        2
 70
     0
 43
1.0
 10
0.24202699999967
 20
-490.3473821309356
 10
-0.31542300000035
 20
-489.7899321309357
  0
LWPOLYLINE
  5
36C
330
5A
100
AcDbEntity
  8
LC-006-005-----0
  6
Continuous
 62
     3
100
AcDbPolyline
 90
        2
 70
     0
 43
1.0
 10
0.30783699999961
 20
-489.8475061309356
 10
-0.40119000000038
 20
-489.1384801309357
  0
LWPOLYLINE
  5
36D
330
5A
100
AcDbEntity
  8
LC-006-005-----0
  6
Continuous
 62
     3
100
AcDbPolyline
 90
        2
 70
     0
 43
1.0
 10
0.37364699999966
 20
-489.3476311309357
 10
-0.4869570000003
 20
-488.4870271309356
  0
LWPOLYLINE
  5
36E
330
5A
100
AcDbEntity
  8
LC-006-005-----0
  6
Continuous
 62
     3
100
AcDbPolyline
 90
        2
 70
     0
 43
1.0
 10
0.43945699999972
 20
-488.8477551309356
 10
-0.57272400000033
 20
-487.8355741309356
  0
LWPOLYLINE
  5
36F
330
5A
100
AcDbEntity
  8
LC-006-005-----0
  6
Continuous
 62
     3
100
AcDbPolyline
 90
        2
 70
     0
 43
1.0
 10
0.50526699999966
 20
-488.3478801309357
 10
-0.65849100000037
 20
-487.1841221309356
  0
LWPOLYLINE
  5
370
330
5A
100
AcDbEntity
  8
LC-006-005-----0
  6
Continuous
 62
     3
100
AcDbPolyline
 90
        2
 70
     0
 43
1.0
 10
0.57107599999972
 20
-487.8480041309356
 10
-0.7442580000004
 20
-486.5326691309356
  0
LWPOLYLINE
  5
371
330
5A
100
AcDbEntity
  8
LC-006-005-----0
  6
Continuous
 62
     3
100
AcDbPolyline
 90
        2
 70
     0
 43
1.0
 10
0.63688599999966
 20
-487.3481291309357
 10
-0.83002600000032
 20
-485.8812171309356
  0
LWPOLYLINE
  5
372
330
5A
100
AcDbEntity
  8
LC-006-005-----0
  6
Continuous
 62
     3
100
AcDbPolyline
 90
        2
 70
     0
 43
1.0
 10
0.70269599999961
 20
-486.8482531309356
 10
-0.91579300000035
 20
-485.2297641309356
  0
LWPOLYLINE
  5
373
330
5A
100
AcDbEntity
  8
LC-006-005-----0
  6
Continuous
 62
     3
100
AcDbPolyline
 90
        2
 70
     0
 43
1.0
 10
0.76850599999966
 20
-486.3483781309357
 10
-1.00156000000038
 20
-484.5783111309356
  0
LWPOLYLINE
  5
374
330
5A
100
AcDbEntity
  8
LC-006-005-----0
  6
Continuous
 62
     3
100
AcDbPolyline
 90
        2
 70
     0
 43
1.0
 10
0.83431599999972
 20
-485.8485021309356
 10
-1.08732700000041
 20
-483.9268591309357
  0
LWPOLYLINE
  5
375
330
5A
100
AcDbEntity
  8
LC-006-005-----0
  6
Continuous
 62
     3
100
AcDbPolyline
 90
        2
 70
     0
 43
1.0
 10
0.90012599999966
 20
-485.3486261309357
 10
-1.17309400000033
 20
-483.2754061309357
  0
LWPOLYLINE
  5
376
330
5A
100
AcDbEntity
  8
LC-006-005-----0
  6
Continuous
 62
     3
100
AcDbPolyline
 90
        2
 70
     0
 43
1.0
 10
0.9659359999996
 20
-484.8487511309356
 10
-1.25886200000036
 20
-482.6239541309357
  0
LWPOLYLINE
  5
377
330
5A
100
AcDbEntity
  8
LC-006-005-----0
  6
Continuous
 62
     3
100
AcDbPolyline
 90
        2
 70
     0
 43
1.0
 10
1.03174599999966
 20
-484.3488751309357
 10
-1.3446290000004
 20
-481.9725011309357
  0
LWPOLYLINE
  5
378
330
5A
100
AcDbEntity
  8
LC-006-005-----0
  6
Continuous
 62
     3
100
AcDbPolyline
 90
        2
 70
     0
 43
1.0
 10
1.0975549999996
 20
-483.8490001309356
 10
-1.43039600000031
 20
-481.3210481309357
  0
LWPOLYLINE
  5
379
330
5A
100
AcDbEntity
  8
LC-006-005-----0
  6
Continuous
 62
     3
100
AcDbPolyline
 90
        2
 70
     0
 43
1.0
 10
1.16336499999966
 20
-483.3491241309357
 10
-1.51616300000035
 20
-480.6695961309356
  0
LWPOLYLINE
  5
37A
330
5A
100
AcDbEntity
  8
LC-006-005-----0
  6
Continuous
 62
     3
100
AcDbPolyline
 90
        2
 70
     0
 43
1.0
 10
1.22917499999971
 20
-482.8492491309356
 10
-1.60193000000038
 20
-480.0181431309356
  0
LWPOLYLINE
  5
37B
330
5A
100
AcDbEntity
  8
LC-006-005-----0
  6
Continuous
 62
     3
100
AcDbPolyline
 90
        2
 70
     0
 43
1.0
 10
1.29498499999966
 20
-482.3493731309357
 10
-1.68769700000041
 20
-479.3666911309356
  0
LWPOLYLINE
  5
37C
330
5A
100
AcDbEntity
  8
LC-006-005-----0
  6
Continuous
 62
     3
100
AcDbPolyline
 90
        2
 70
     0
 43
1.0
 10
1.36079499999971
 20
-481.8494971309356
 10
-1.77346500000033
 20
-478.7152381309356
  0
LWPOLYLINE
  5
37D
330
5A
100
AcDbEntity
  8
LC-006-005-----0
  6
Continuous
 62
     3
100
AcDbPolyline
 90
        2
 70
     0
 43
1.0
 10
1.42660499999965
 20
-481.3496221309356
 10
-1.85923200000036
 20
-478.0637851309356
  0
LWPOLYLINE
  5
37E
330
5A
100
AcDbEntity
  8
LC-006-005-----0
  6
Continuous
 62
     3
100
AcDbPolyline
 90
        2
 70
     0
 43
1.0
 10
1.49241499999971
 20
-480.8497461309356
 10
-1.33752800000036
 20
-478.0198041309357
  0
LWPOLYLINE
  5
37F
330
5A
100
AcDbEntity
  8
LC-006-005-----0
  6
Continuous
 62
     3
100
AcDbPolyline
 90
        2
 70
     0
 43
1.0
 10
1.55822399999965
 20
-480.3498711309356
 10
-0.77184200000033
 20
-478.0198041309357
  0
LWPOLYLINE
  5
380
330
5A
100
AcDbEntity
  8
LC-006-005-----0
  6
Continuous
 62
     3
100
AcDbPolyline
 90
        2
 70
     0
 43
1.0
 10
1.6240339999996
 20
-479.8499951309357
 10
-0.2061570000003
 20
-478.0198041309357
  0
LWPOLYLINE
  5
381
330
5A
100
AcDbEntity
  8
LC-006-005-----0
  6
Continuous
 62
     3
100
AcDbPolyline
 90
        2
 70
     0
 43
1.0
 10
1.68984399999965
 20
-479.3501201309356
 10
0.35952799999961
 20
-478.0198041309357
  0
LWPOLYLINE
  5
382
330
5A
100
AcDbEntity
  8
LC-006-005-----0
  6
Continuous
 62
     3
100
AcDbPolyline
 90
        2
 70
     0
 43
1.0
 10
1.7556539999996
 20
-478.8502441309357
 10
0.92521399999964
 20
-478.0198041309357
  0
LWPOLYLINE
  5
383
330
5A
100
AcDbEntity
  8
LC-006-005-----0
  6
Continuous
 62
     3
100
AcDbPolyline
 90
        2
 70
     0
 43
1.0
 10
1.82146399999965
 20
-478.3503691309356
 10
1.49089899999967
 20
-478.0198041309357
  0
LWPOLYLINE
  5
384
330
5A
100
AcDbEntity
  8
LC-005-002-----0
  6
Continuous
 62
     7
100
AcDbPolyline
 90
        2
 70
     0
 43
1.0
 10
-1.86502200000041
 20
-478.0198041309357
 10
1.86498399999959
 20
-478.0198041309357
  0
LWPOLYLINE
  5
385
330
5A
100
AcDbEntity
  8
LC-005-002-----0
  6
Continuous
 62
     7
100
AcDbPolyline
 90
        2
 70
     0
 43
1.0
 10
-0.00000000000034
 20
-492.1857571309357
 10
-1.86502200000041
 20
-478.0198041309357
  0
LWPOLYLINE
  5
386
330
5A
100
AcDbEntity
  8
LC-005-002-----0
  6
Continuous
 62
     7
100
AcDbPolyline
 90
        2
 70
     0
 43
1.0
 10
-0.00000000000034
 20
-492.1857571309357
 10
1.86498399999959
 20
-478.0197991309357
  0
LINE
  5
387
330
5A
100
AcDbEntity
  8
LC-005-002-----0
  6
Continuous
 62
     7
100
AcDbLine
 10
2.79499899999973
 20
-492.1857571309357
 30
0.0
 11
54.99999999999967
 21
-492.1857571309357
 31
0.0
  0
LINE
  5
388
330
5A
100
AcDbEntity
  8
LC-005-002-----0
  6
Continuous
 62
     7
100
AcDbLine
 10
54.99999999999967
 20
-492.1857571309357
 30
0.0
 11
55.00002734934026
 21
-512.099531370463
 31
0.0
  0
LINE
  5
389
330
5A
100
AcDbEntity
  8
LC-005-002-----0
  6
Continuous
 62
     7
100
AcDbLine
 10
-55.00000000000034
 20
-492.1856541309356
 30
0.0
 11
-2.29995800000029
 21
-492.1856541309356
 31
0.0
  0
LINE
  5
38A
330
5A
100
AcDbEntity
  8
LC-005-002-----0
  6
Continuous
 62
     7
100
AcDbLine
 10
-55.00000000000034
 20
-492.1856541309356
 30
0.0
 11
-54.99997250254592
 21
-512.2072740314445
 31
0.0
  0
LINE
  5
38B
330
5A
100
AcDbEntity
  8
1
  6
PHANTOM
 62
     2
100
AcDbLine
 10
-0.00000000017481
 20
-492.1855785945904
 30
0.0
 11
0.00002749727961
 21
-512.2071984950993
 31
0.0
  0
LINE
  5
38C
330
5A
100
AcDbEntity
  8
LC-001-002-----0
  6
DASHDOT
 62
     2
100
AcDbLine
 10
-46.99996699999997
 20
12.26357400000001
 30
0.0
 11
-46.99996699999997
 21
-37.73642599999999
 31
0.0
  0
ARC
  5
38D
330
5A
100
AcDbEntity
  8
LC-001-002-RND-0
  6
Continuous
 62
     7
100
AcDbCircle
 10
-46.50008596792486
 20
-227.4893233396909
 30
0.0
 40
0.5
100
AcDbArc
 50
-90.0
 51
0.0
  0
ARC
  5
38E
330
5A
100
AcDbEntity
  8
LC-001-002-RND-0
  6
Continuous
 62
     7
100
AcDbCircle
 10
46.49991403207514
 20
-227.4893233396909
 30
0.0
 40
0.5
100
AcDbArc
 50
180.0
 51
-90.0
  0
ARC
  5
38F
330
5A
100
AcDbEntity
  8
LC-001-002-RND-0
  6
Continuous
 62
     7
100
AcDbCircle
 10
46.49991403207514
 20
-215.1591583396908
 30
0.0
 40
0.5
100
AcDbArc
 50
180.0
 51
-90.0
  0
ARC
  5
390
330
5A
100
AcDbEntity
  8
LC-001-002-RND-0
  6
Continuous
 62
     7
100
AcDbCircle
 10
46.99991403207514
 20
-218.8285173396909
 30
0.0
 40
1.000000000000013
100
AcDbArc
 50
100.000000000005
 51
180.0
  0
ARC
  5
391
330
5A
100
AcDbEntity
  8
LC-001-002-RND-0
  6
Continuous
 62
     7
100
AcDbCircle
 10
46.99991403207514
 20
-206.4983523396907
 30
0.0
 40
0.999999999999621
100
AcDbArc
 50
100.000000000009
 51
180.0
  0
ARC
  5
392
330
5A
100
AcDbEntity
  8
LC-001-002-RND-0
  6
Continuous
 62
     7
100
AcDbCircle
 10
46.99991403207514
 20
-194.1681863396908
 30
0.0
 40
0.9999999999998168
100
AcDbArc
 50
100.000000000007
 51
180.0
  0
ARC
  5
393
330
5A
100
AcDbEntity
  8
LC-001-002-RND-0
  6
Continuous
 62
     7
100
AcDbCircle
 10
46.99991403207514
 20
-181.8380203396908
 30
0.0
 40
0.9999999999997888
100
AcDbArc
 50
100.0000000000073
 51
180.0
  0
ARC
  5
394
330
5A
100
AcDbEntity
  8
LC-001-002-RND-0
  6
Continuous
 62
     7
100
AcDbCircle
 10
46.99991403207514
 20
-169.5078553396908
 30
0.0
 40
0.9999999999997888
100
AcDbArc
 50
100.0000000000073
 51
180.0
  0
ARC
  5
395
330
5A
100
AcDbEntity
  8
LC-001-002-RND-0
  6
Continuous
 62
     7
100
AcDbCircle
 10
-46.50008596792486
 20
-215.1591583396908
 30
0.0
 40
0.5
100
AcDbArc
 50
-90.0
 51
0.0
  0
ARC
  5
396
330
5A
100
AcDbEntity
  8
LC-001-002-RND-0
  6
Continuous
 62
     7
100
AcDbCircle
 10
46.49991403207514
 20
-165.8384953396908
 30
0.0
 40
0.5
100
AcDbArc
 50
180.0
 51
-90.0
  0
ARC
  5
397
330
5A
100
AcDbEntity
  8
LC-001-002-RND-0
  6
Continuous
 62
     7
100
AcDbCircle
 10
-47.00008596792486
 20
-218.8285173396909
 30
0.0
 40
1.0
100
AcDbArc
 50
0.0
 51
79.99999999999498
  0
ARC
  5
398
330
5A
100
AcDbEntity
  8
LC-001-002-RND-0
  6
Continuous
 62
     7
100
AcDbCircle
 10
-47.00008596792486
 20
-206.4983523396907
 30
0.0
 40
1.0
100
AcDbArc
 50
0.0
 51
79.99999999999102
  0
ARC
  5
399
330
5A
100
AcDbEntity
  8
LC-001-002-RND-0
  6
Continuous
 62
     7
100
AcDbCircle
 10
-47.00008596792486
 20
-194.1681863396908
 30
0.0
 40
1.0
100
AcDbArc
 50
0.0
 51
79.999999999993
  0
ARC
  5
39A
330
5A
100
AcDbEntity
  8
LC-001-002-RND-0
  6
Continuous
 62
     7
100
AcDbCircle
 10
-47.00008596792486
 20
-181.8380203396908
 30
0.0
 40
1.0
100
AcDbArc
 50
0.0
 51
79.99999999999272
  0
ARC
  5
39B
330
5A
100
AcDbEntity
  8
LC-001-002-RND-0
  6
Continuous
 62
     7
100
AcDbCircle
 10
-47.00008596792486
 20
-169.5078553396908
 30
0.0
 40
1.0
100
AcDbArc
 50
0.0
 51
79.99999999999272
  0
ARC
  5
39C
330
5A
100
AcDbEntity
  8
LC-001-002-RND-0
  6
Continuous
 62
     7
100
AcDbCircle
 10
46.49991403207514
 20
-178.1686613396908
 30
0.0
 40
0.5
100
AcDbArc
 50
180.0
 51
-90.0
  0
ARC
  5
39D
330
5A
100
AcDbEntity
  8
LC-001-002-RND-0
  6
Continuous
 62
     7
100
AcDbCircle
 10
46.49991403207514
 20
-190.4988273396908
 30
0.0
 40
0.5
100
AcDbArc
 50
180.0
 51
-90.0
  0
ARC
  5
39E
330
5A
100
AcDbEntity
  8
LC-001-002-RND-0
  6
Continuous
 62
     7
100
AcDbCircle
 10
46.49991403207514
 20
-202.8289923396908
 30
0.0
 40
0.5
100
AcDbArc
 50
180.0
 51
-90.0
  0
ARC
  5
39F
330
5A
100
AcDbEntity
  8
LC-002-002-----0
  6
Continuous
 62
     7
100
AcDbCircle
 10
52.95192503207522
 20
-216.2071473396908
 30
0.0
 40
0.547989999999902
100
AcDbArc
 50
-79.99999999996612
 51
90.0
  0
ARC
  5
3A0
330
5A
100
AcDbEntity
  8
LC-002-002-----0
  6
Continuous
 62
     7
100
AcDbCircle
 10
52.95192503207522
 20
-203.8769823396908
 30
0.0
 40
0.54798999999979
100
AcDbArc
 50
-79.99999999996406
 51
90.0
  0
ARC
  5
3A1
330
5A
100
AcDbEntity
  8
LC-002-002-----0
  6
Continuous
 62
     7
100
AcDbCircle
 10
52.95192503207522
 20
-154.5563193396908
 30
0.0
 40
0.547989999999902
100
AcDbArc
 50
-79.99999999996612
 51
90.0
  0
ARC
  5
3A2
330
5A
100
AcDbEntity
  8
LC-002-002-----0
  6
Continuous
 62
     7
100
AcDbCircle
 10
52.95192503207522
 20
-191.5468163396909
 30
0.0
 40
0.54798999999979
100
AcDbArc
 50
-79.99999999996406
 51
90.0
  0
ARC
  5
3A3
330
5A
100
AcDbEntity
  8
LC-002-002-----0
  6
Continuous
 62
     7
100
AcDbCircle
 10
52.95192503207522
 20
-179.2166503396908
 30
0.0
 40
0.547989999999902
100
AcDbArc
 50
-79.99999999996612
 51
90.0
  0
ARC
  5
3A4
330
5A
100
AcDbEntity
  8
LC-001-002-RND-0
  6
Continuous
 62
     7
100
AcDbCircle
 10
-46.50008596792486
 20
-165.8384953396908
 30
0.0
 40
0.5
100
AcDbArc
 50
-90.0
 51
0.0
  0
ARC
  5
3A5
330
5A
100
AcDbEntity
  8
LC-001-002-RND-0
  6
Continuous
 62
     7
100
AcDbCircle
 10
-46.50008596792486
 20
-178.1686613396908
 30
0.0
 40
0.5
100
AcDbArc
 50
-90.0
 51
0.0
  0
ARC
  5
3A6
330
5A
100
AcDbEntity
  8
LC-001-002-RND-0
  6
Continuous
 62
     7
100
AcDbCircle
 10
-46.50008596792486
 20
-190.4988273396908
 30
0.0
 40
0.5
100
AcDbArc
 50
-90.0
 51
0.0
  0
ARC
  5
3A7
330
5A
100
AcDbEntity
  8
LC-001-002-RND-0
  6
Continuous
 62
     7
100
AcDbCircle
 10
-46.50008596792486
 20
-202.8289923396908
 30
0.0
 40
0.5
100
AcDbArc
 50
-90.0
 51
0.0
  0
ARC
  5
3A8
330
5A
100
AcDbEntity
  8
LC-002-002-----0
  6
Continuous
 62
     7
100
AcDbCircle
 10
-52.95209596792483
 20
-216.2071473396908
 30
0.0
 40
0.5479899999999986
100
AcDbArc
 50
90.0
 51
-100.0000000000339
  0
ARC
  5
3A9
330
5A
100
AcDbEntity
  8
LC-002-002-----0
  6
Continuous
 62
     7
100
AcDbCircle
 10
-52.95209596792483
 20
-203.8769823396908
 30
0.0
 40
0.5479899999999986
100
AcDbArc
 50
90.0
 51
-100.000000000036
  0
ARC
  5
3AA
330
5A
100
AcDbEntity
  8
LC-002-002-----0
  6
Continuous
 62
     7
100
AcDbCircle
 10
-52.95209596792483
 20
-154.5563193396908
 30
0.0
 40
0.5479899999999986
100
AcDbArc
 50
90.0
 51
-100.0000000000339
  0
ARC
  5
3AB
330
5A
100
AcDbEntity
  8
LC-002-002-----0
  6
Continuous
 62
     7
100
AcDbCircle
 10
-52.95209596792483
 20
-191.5468163396909
 30
0.0
 40
0.5479900000001123
100
AcDbArc
 50
90.0
 51
-100.000000000036
  0
ARC
  5
3AC
330
5A
100
AcDbEntity
  8
LC-002-002-----0
  6
Continuous
 62
     7
100
AcDbCircle
 10
-52.95209596792483
 20
-179.2166503396908
 30
0.0
 40
0.5479899999999986
100
AcDbArc
 50
90.0
 51
-100.0000000000339
  0
ARC
  5
3AD
330
5A
100
AcDbEntity
  8
LC-001-002-RND-0
  6
Continuous
 62
     7
100
AcDbCircle
 10
46.99991403207514
 20
-157.1776893396908
 30
0.0
 40
0.9999999999998168
100
AcDbArc
 50
100.000000000007
 51
180.0
  0
ARC
  5
3AE
330
5A
100
AcDbEntity
  8
LC-002-002-----0
  6
Continuous
 62
     7
100
AcDbCircle
 10
52.95192503207522
 20
-166.8864853396908
 30
0.0
 40
0.5479899999998741
100
AcDbArc
 50
-79.9999999999656
 51
90.0
  0
ARC
  5
3AF
330
5A
100
AcDbEntity
  8
LC-001-002-RND-0
  6
Continuous
 62
     7
100
AcDbCircle
 10
-47.00008596792486
 20
-157.1776893396908
 30
0.0
 40
1.0
100
AcDbArc
 50
0.0
 51
79.999999999993
  0
ARC
  5
3B0
330
5A
100
AcDbEntity
  8
LC-002-002-----0
  6
Continuous
 62
     7
100
AcDbCircle
 10
-52.95209596792483
 20
-166.8864853396908
 30
0.0
 40
0.5479899999999986
100
AcDbArc
 50
90.0
 51
-100.0000000000344
  0
ARC
  5
3B1
330
5A
100
AcDbEntity
  8
LC-002-002-----0
  6
Continuous
 62
     7
100
AcDbCircle
 10
-52.95209596792483
 20
-240.8863383396908
 30
0.0
 40
0.5479899999999986
100
AcDbArc
 50
90.0
 51
-100.0000000000344
  0
ARC
  5
3B2
330
5A
100
AcDbEntity
  8
LC-001-002-RND-0
  6
Continuous
 62
     7
100
AcDbCircle
 10
-47.00008596792486
 20
-231.1775423396908
 30
0.0
 40
1.0
100
AcDbArc
 50
0.0
 51
79.999999999993
  0
ARC
  5
3B3
330
5A
100
AcDbEntity
  8
LC-002-002-----0
  6
Continuous
 62
     7
100
AcDbCircle
 10
52.95192503207522
 20
-240.8863383396908
 30
0.0
 40
0.5479899999998741
100
AcDbArc
 50
-79.9999999999656
 51
90.0
  0
ARC
  5
3B4
330
5A
100
AcDbEntity
  8
LC-001-002-RND-0
  6
Continuous
 62
     7
100
AcDbCircle
 10
46.99991403207514
 20
-231.1775423396908
 30
0.0
 40
0.9999999999998168
100
AcDbArc
 50
100.000000000007
 51
180.0
  0
ARC
  5
3B5
330
5A
100
AcDbEntity
  8
LC-002-002-----0
  6
Continuous
 62
     7
100
AcDbCircle
 10
-52.95209596792483
 20
-253.2165033396908
 30
0.0
 40
0.5479899999999986
100
AcDbArc
 50
90.0
 51
-100.0000000000339
  0
ARC
  5
3B6
330
5A
100
AcDbEntity
  8
LC-002-002-----0
  6
Continuous
 62
     7
100
AcDbCircle
 10
-52.95209596792483
 20
-265.5466693396908
 30
0.0
 40
0.5479900000000271
100
AcDbArc
 50
90.0
 51
-100.0000000000349
  0
ARC
  5
3B7
330
5A
100
AcDbEntity
  8
LC-002-002-----0
  6
Continuous
 62
     7
100
AcDbCircle
 10
-52.95209596792483
 20
-228.5561723396908
 30
0.0
 40
0.5479899999999986
100
AcDbArc
 50
90.0
 51
-100.0000000000339
  0
ARC
  5
3B8
330
5A
100
AcDbEntity
  8
LC-002-002-----0
  6
Continuous
 62
     7
100
AcDbCircle
 10
-52.95209596792483
 20
-277.8768353396908
 30
0.0
 40
0.5479899999999702
100
AcDbArc
 50
90.0
 51
-100.000000000036
  0
ARC
  5
3B9
330
5A
100
AcDbEntity
  8
LC-002-002-----0
  6
Continuous
 62
     7
100
AcDbCircle
 10
-52.95209596792483
 20
-290.2070003396908
 30
0.0
 40
0.5479900000000271
100
AcDbArc
 50
90.0
 51
-100.0000000000339
  0
ARC
  5
3BA
330
5A
100
AcDbEntity
  8
LC-001-002-RND-0
  6
Continuous
 62
     7
100
AcDbCircle
 10
-46.50008596792486
 20
-276.8288453396908
 30
0.0
 40
0.5
100
AcDbArc
 50
-90.0
 51
0.0
  0
ARC
  5
3BB
330
5A
100
AcDbEntity
  8
LC-001-002-RND-0
  6
Continuous
 62
     7
100
AcDbCircle
 10
-46.50008596792486
 20
-264.4986803396908
 30
0.0
 40
0.5
100
AcDbArc
 50
-90.0
 51
0.0
  0
ARC
  5
3BC
330
5A
100
AcDbEntity
  8
LC-001-002-RND-0
  6
Continuous
 62
     7
100
AcDbCircle
 10
-46.50008596792486
 20
-252.1685143396908
 30
0.0
 40
0.5
100
AcDbArc
 50
-90.0
 51
0.0
  0
ARC
  5
3BD
330
5A
100
AcDbEntity
  8
LC-001-002-RND-0
  6
Continuous
 62
     7
100
AcDbCircle
 10
-46.50008596792486
 20
-239.8383483396908
 30
0.0
 40
0.5
100
AcDbArc
 50
-90.0
 51
0.0
  0
ARC
  5
3BE
330
5A
100
AcDbEntity
  8
LC-002-002-----0
  6
Continuous
 62
     7
100
AcDbCircle
 10
52.95192503207522
 20
-253.2165033396908
 30
0.0
 40
0.547989999999902
100
AcDbArc
 50
-79.99999999996612
 51
90.0
  0
ARC
  5
3BF
330
5A
100
AcDbEntity
  8
LC-002-002-----0
  6
Continuous
 62
     7
100
AcDbCircle
 10
52.95192503207522
 20
-265.5466693396908
 30
0.0
 40
0.5479899999998461
100
AcDbArc
 50
-79.99999999996508
 51
90.0
  0
ARC
  5
3C0
330
5A
100
AcDbEntity
  8
LC-002-002-----0
  6
Continuous
 62
     7
100
AcDbCircle
 10
52.95192503207522
 20
-228.5561723396908
 30
0.0
 40
0.547989999999902
100
AcDbArc
 50
-79.99999999996612
 51
90.0
  0
ARC
  5
3C1
330
5A
100
AcDbEntity
  8
LC-002-002-----0
  6
Continuous
 62
     7
100
AcDbCircle
 10
52.95192503207522
 20
-277.8768353396908
 30
0.0
 40
0.54798999999979
100
AcDbArc
 50
-79.99999999996406
 51
90.0
  0
ARC
  5
3C2
330
5A
100
AcDbEntity
  8
LC-002-002-----0
  6
Continuous
 62
     7
100
AcDbCircle
 10
52.95192503207522
 20
-290.2070003396908
 30
0.0
 40
0.547989999999902
100
AcDbArc
 50
-79.99999999996612
 51
90.0
  0
ARC
  5
3C3
330
5A
100
AcDbEntity
  8
LC-001-002-RND-0
  6
Continuous
 62
     7
100
AcDbCircle
 10
46.49991403207514
 20
-276.8288453396908
 30
0.0
 40
0.5
100
AcDbArc
 50
180.0
 51
-90.0
  0
ARC
  5
3C4
330
5A
100
AcDbEntity
  8
LC-001-002-RND-0
  6
Continuous
 62
     7
100
AcDbCircle
 10
46.49991403207514
 20
-264.4986803396908
 30
0.0
 40
0.5
100
AcDbArc
 50
180.0
 51
-90.0
  0
ARC
  5
3C5
330
5A
100
AcDbEntity
  8
LC-001-002-RND-0
  6
Continuous
 62
     7
100
AcDbCircle
 10
46.49991403207514
 20
-252.1685143396908
 30
0.0
 40
0.5
100
AcDbArc
 50
180.0
 51
-90.0
  0
ARC
  5
3C6
330
5A
100
AcDbEntity
  8
LC-002-002-----0
  6
Continuous
 62
     7
100
AcDbCircle
 10
-52.95209596792483
 20
-302.5371663396908
 30
0.0
 40
0.5479900000000271
100
AcDbArc
 50
90.0
 51
-100.0000000000349
  0
ARC
  5
3C7
330
5A
100
AcDbEntity
  8
LC-002-002-----0
  6
Continuous
 62
     7
100
AcDbCircle
 10
-52.95209596792483
 20
-314.8673323396908
 30
0.0
 40
0.5479899999999702
100
AcDbArc
 50
90.0
 51
-100.000000000036
  0
ARC
  5
3C8
330
5A
100
AcDbEntity
  8
LC-002-002-----0
  6
Continuous
 62
     7
100
AcDbCircle
 10
-52.95209596792483
 20
-327.1974973396908
 30
0.0
 40
0.5479900000000271
100
AcDbArc
 50
90.0
 51
-100.0000000000339
  0
ARC
  5
3C9
330
5A
100
AcDbEntity
  8
LC-002-002-----0
  6
Continuous
 62
     7
100
AcDbCircle
 10
-52.95209596792483
 20
-339.5276633396908
 30
0.0
 40
0.5479899999999702
100
AcDbArc
 50
90.0
 51
-100.0000000000298
  0
ARC
  5
3CA
330
5A
100
AcDbEntity
  8
LC-002-002-----0
  6
Continuous
 62
     7
100
AcDbCircle
 10
-52.95209596792483
 20
-351.8578293396908
 30
0.0
 40
0.5479899999999702
100
AcDbArc
 50
90.0
 51
-100.0000000000308
  0
ARC
  5
3CB
330
5A
100
AcDbEntity
  8
LC-002-002-----0
  6
Continuous
 62
     7
100
AcDbCircle
 10
-52.95209596792483
 20
-364.1879943396908
 30
0.0
 40
0.5479900000001408
100
AcDbArc
 50
90.0
 51
-100.0000000000329
  0
ARC
  5
3CC
330
5A
100
AcDbEntity
  8
LC-002-002-----0
  6
Continuous
 62
     7
100
AcDbCircle
 10
-52.95209596792483
 20
-376.5181603396908
 30
0.0
 40
0.5479899999999702
100
AcDbArc
 50
90.0
 51
-100.0000000000298
  0
ARC
  5
3CD
330
5A
100
AcDbEntity
  8
LC-002-002-----0
  6
Continuous
 62
     7
100
AcDbCircle
 10
-52.95209596792483
 20
-388.8483263396907
 30
0.0
 40
0.5479899999999134
100
AcDbArc
 50
90.0
 51
-100.0000000000287
  0
ARC
  5
3CE
330
5A
100
AcDbEntity
  8
LC-002-002-----0
  6
Continuous
 62
     7
100
AcDbCircle
 10
-52.95209596792483
 20
-401.1784913396908
 30
0.0
 40
0.5479900000001408
100
AcDbArc
 50
90.0
 51
-100.0000000000329
  0
ARC
  5
3CF
330
5A
100
AcDbEntity
  8
LC-002-002-----0
  6
Continuous
 62
     7
100
AcDbCircle
 10
-52.95209596792483
 20
-413.5086573396908
 30
0.0
 40
0.5479899999999702
100
AcDbArc
 50
90.0
 51
-100.0000000000298
  0
ARC
  5
3D0
330
5A
100
AcDbEntity
  8
LC-002-002-----0
  6
Continuous
 62
     7
100
AcDbCircle
 10
-52.95209596792483
 20
-425.8388233396908
 30
0.0
 40
0.5479900000000271
100
AcDbArc
 50
90.0
 51
-100.0000000000318
  0
ARC
  5
3D1
330
5A
100
AcDbEntity
  8
LC-002-002-----0
  6
Continuous
 62
     7
100
AcDbCircle
 10
-52.95209596792483
 20
-438.1689883396908
 30
0.0
 40
0.5479900000001408
100
AcDbArc
 50
90.0
 51
-100.0000000000308
  0
ARC
  5
3D2
330
5A
100
AcDbEntity
  8
LC-002-002-----0
  6
Continuous
 62
     7
100
AcDbCircle
 10
-52.95209596792483
 20
-450.4991543396908
 30
0.0
 40
0.5479899999999702
100
AcDbArc
 50
90.0
 51
-100.0000000000298
  0
ARC
  5
3D3
330
5A
100
AcDbEntity
  8
LC-001-002-RND-0
  6
Continuous
 62
     7
100
AcDbCircle
 10
-47.00008596792486
 20
-243.5077083396908
 30
0.0
 40
1.0
100
AcDbArc
 50
0.0
 51
79.999999999993
  0
ARC
  5
3D4
330
5A
100
AcDbEntity
  8
LC-001-002-RND-0
  6
Continuous
 62
     7
100
AcDbCircle
 10
-47.00008596792486
 20
-255.8378733396908
 30
0.0
 40
1.0
100
AcDbArc
 50
0.0
 51
79.99999999999272
  0
ARC
  5
3D5
330
5A
100
AcDbEntity
  8
LC-001-002-RND-0
  6
Continuous
 62
     7
100
AcDbCircle
 10
-47.00008596792486
 20
-268.1680393396908
 30
0.0
 40
1.0
100
AcDbArc
 50
0.0
 51
79.99999999999272
  0
ARC
  5
3D6
330
5A
100
AcDbEntity
  8
LC-001-002-RND-0
  6
Continuous
 62
     7
100
AcDbCircle
 10
-47.00008596792486
 20
-280.4982053396907
 30
0.0
 40
1.0
100
AcDbArc
 50
0.0
 51
79.99999999999159
  0
ARC
  5
3D7
330
5A
100
AcDbEntity
  8
LC-001-002-RND-0
  6
Continuous
 62
     7
100
AcDbCircle
 10
-47.00008596792486
 20
-292.8283703396908
 30
0.0
 40
1.0
100
AcDbArc
 50
0.0
 51
79.99999999999442
  0
ARC
  5
3D8
330
5A
100
AcDbEntity
  8
LC-001-002-RND-0
  6
Continuous
 62
     7
100
AcDbCircle
 10
-47.00008596792486
 20
-305.1585363396908
 30
0.0
 40
1.0
100
AcDbArc
 50
0.0
 51
79.99999999999272
  0
ARC
  5
3D9
330
5A
100
AcDbEntity
  8
LC-001-002-RND-0
  6
Continuous
 62
     7
100
AcDbCircle
 10
-47.00008596792486
 20
-317.4887023396908
 30
0.0
 40
1.0
100
AcDbArc
 50
0.0
 51
79.99999999999272
  0
ARC
  5
3DA
330
5A
100
AcDbEntity
  8
LC-001-002-RND-0
  6
Continuous
 62
     7
100
AcDbCircle
 10
-47.00008596792486
 20
-329.8188673396908
 30
0.0
 40
1.0
100
AcDbArc
 50
0.0
 51
79.99999999999442
  0
ARC
  5
3DB
330
5A
100
AcDbEntity
  8
LC-001-002-RND-0
  6
Continuous
 62
     7
100
AcDbCircle
 10
-47.00008596792486
 20
-342.1490333396908
 30
0.0
 40
1.0
100
AcDbArc
 50
0.0
 51
79.99999999999498
  0
ARC
  5
3DC
330
5A
100
AcDbEntity
  8
LC-001-002-RND-0
  6
Continuous
 62
     7
100
AcDbCircle
 10
-47.00008596792486
 20
-354.4791993396908
 30
0.0
 40
1.0
100
AcDbArc
 50
0.0
 51
79.99999999999498
  0
ARC
  5
3DD
330
5A
100
AcDbEntity
  8
LC-001-002-RND-0
  6
Continuous
 62
     7
100
AcDbCircle
 10
-47.00008596792486
 20
-366.8093643396908
 30
0.0
 40
1.0
100
AcDbArc
 50
0.0
 51
79.99999999999442
  0
ARC
  5
3DE
330
5A
100
AcDbEntity
  8
LC-001-002-RND-0
  6
Continuous
 62
     7
100
AcDbCircle
 10
-47.00008596792486
 20
-379.1395303396908
 30
0.0
 40
1.0
100
AcDbArc
 50
0.0
 51
79.99999999999498
  0
ARC
  5
3DF
330
5A
100
AcDbEntity
  8
LC-001-002-RND-0
  6
Continuous
 62
     7
100
AcDbCircle
 10
-47.00008596792486
 20
-391.4696963396908
 30
0.0
 40
1.0
100
AcDbArc
 50
0.0
 51
79.99999999999498
  0
ARC
  5
3E0
330
5A
100
AcDbEntity
  8
LC-001-002-RND-0
  6
Continuous
 62
     7
100
AcDbCircle
 10
-47.00008596792486
 20
-403.7998613396908
 30
0.0
 40
1.0
100
AcDbArc
 50
0.0
 51
79.99999999999498
  0
ARC
  5
3E1
330
5A
100
AcDbEntity
  8
LC-001-002-RND-0
  6
Continuous
 62
     7
100
AcDbCircle
 10
-47.00008596792486
 20
-416.1300273396907
 30
0.0
 40
1.0
100
AcDbArc
 50
0.0
 51
79.99999999999385
  0
ARC
  5
3E2
330
5A
100
AcDbEntity
  8
LC-001-002-RND-0
  6
Continuous
 62
     7
100
AcDbCircle
 10
-47.00008596792486
 20
-428.4601933396908
 30
0.0
 40
1.0
100
AcDbArc
 50
0.0
 51
79.99999999999498
  0
ARC
  5
3E3
330
5A
100
AcDbEntity
  8
LC-001-002-RND-0
  6
Continuous
 62
     7
100
AcDbCircle
 10
46.49991403207514
 20
-239.8383483396908
 30
0.0
 40
0.5
100
AcDbArc
 50
180.0
 51
-90.0
  0
ARC
  5
3E4
330
5A
100
AcDbEntity
  8
LC-001-002-RND-0
  6
Continuous
 62
     7
100
AcDbCircle
 10
-46.50008596792486
 20
-437.1209993396907
 30
0.0
 40
0.5
100
AcDbArc
 50
-90.0
 51
0.0
  0
ARC
  5
3E5
330
5A
100
AcDbEntity
  8
LC-001-002-RND-0
  6
Continuous
 62
     7
100
AcDbCircle
 10
-46.50008596792486
 20
-449.4511643396908
 30
0.0
 40
0.5
100
AcDbArc
 50
-90.0
 51
0.0
  0
ARC
  5
3E6
330
5A
100
AcDbEntity
  8
LC-001-002-RND-0
  6
Continuous
 62
     7
100
AcDbCircle
 10
-46.50008596792486
 20
-424.7908333396908
 30
0.0
 40
0.5
100
AcDbArc
 50
-90.0
 51
0.0
  0
ARC
  5
3E7
330
5A
100
AcDbEntity
  8
LC-001-002-RND-0
  6
Continuous
 62
     7
100
AcDbCircle
 10
-46.50008596792486
 20
-412.4606673396908
 30
0.0
 40
0.5
100
AcDbArc
 50
-90.0
 51
0.0
  0
ARC
  5
3E8
330
5A
100
AcDbEntity
  8
LC-001-002-RND-0
  6
Continuous
 62
     7
100
AcDbCircle
 10
-46.50008596792486
 20
-400.1305023396907
 30
0.0
 40
0.5
100
AcDbArc
 50
-90.0
 51
0.0
  0
ARC
  5
3E9
330
5A
100
AcDbEntity
  8
LC-001-002-RND-0
  6
Continuous
 62
     7
100
AcDbCircle
 10
-46.50008596792486
 20
-387.8003363396908
 30
0.0
 40
0.5
100
AcDbArc
 50
-90.0
 51
0.0
  0
ARC
  5
3EA
330
5A
100
AcDbEntity
  8
LC-001-002-RND-0
  6
Continuous
 62
     7
100
AcDbCircle
 10
-46.50008596792486
 20
-375.4701703396908
 30
0.0
 40
0.5
100
AcDbArc
 50
-90.0
 51
0.0
  0
ARC
  5
3EB
330
5A
100
AcDbEntity
  8
LC-001-002-RND-0
  6
Continuous
 62
     7
100
AcDbCircle
 10
-46.50008596792486
 20
-363.1400053396908
 30
0.0
 40
0.5
100
AcDbArc
 50
-90.0
 51
0.0
  0
ARC
  5
3EC
330
5A
100
AcDbEntity
  8
LC-001-002-RND-0
  6
Continuous
 62
     7
100
AcDbCircle
 10
-46.50008596792486
 20
-350.8098393396908
 30
0.0
 40
0.5
100
AcDbArc
 50
-90.0
 51
0.0
  0
ARC
  5
3ED
330
5A
100
AcDbEntity
  8
LC-001-002-RND-0
  6
Continuous
 62
     7
100
AcDbCircle
 10
-46.50008596792486
 20
-338.4796733396908
 30
0.0
 40
0.5
100
AcDbArc
 50
-90.0
 51
0.0
  0
ARC
  5
3EE
330
5A
100
AcDbEntity
  8
LC-001-002-RND-0
  6
Continuous
 62
     7
100
AcDbCircle
 10
-46.50008596792486
 20
-326.1495083396908
 30
0.0
 40
0.5
100
AcDbArc
 50
-90.0
 51
0.0
  0
ARC
  5
3EF
330
5A
100
AcDbEntity
  8
LC-001-002-RND-0
  6
Continuous
 62
     7
100
AcDbCircle
 10
-46.50008596792486
 20
-313.8193423396908
 30
0.0
 40
0.5
100
AcDbArc
 50
-90.0
 51
0.0
  0
ARC
  5
3F0
330
5A
100
AcDbEntity
  8
LC-001-002-RND-0
  6
Continuous
 62
     7
100
AcDbCircle
 10
-46.50008596792486
 20
-301.4891763396908
 30
0.0
 40
0.5
100
AcDbArc
 50
-90.0
 51
0.0
  0
ARC
  5
3F1
330
5A
100
AcDbEntity
  8
LC-001-002-RND-0
  6
Continuous
 62
     7
100
AcDbCircle
 10
-46.50008596792486
 20
-289.1590113396908
 30
0.0
 40
0.5
100
AcDbArc
 50
-90.0
 51
0.0
  0
ARC
  5
3F2
330
5A
100
AcDbEntity
  8
LC-002-002-----0
  6
Continuous
 62
     7
100
AcDbCircle
 10
52.95192503207522
 20
-302.5371663396908
 30
0.0
 40
0.5479899999998461
100
AcDbArc
 50
-79.99999999996508
 51
90.0
  0
ARC
  5
3F3
330
5A
100
AcDbEntity
  8
LC-002-002-----0
  6
Continuous
 62
     7
100
AcDbCircle
 10
52.95192503207522
 20
-314.8673323396908
 30
0.0
 40
0.54798999999979
100
AcDbArc
 50
-79.99999999996406
 51
90.0
  0
ARC
  5
3F4
330
5A
100
AcDbEntity
  8
LC-002-002-----0
  6
Continuous
 62
     7
100
AcDbCircle
 10
52.95192503207522
 20
-327.1974973396908
 30
0.0
 40
0.547989999999902
100
AcDbArc
 50
-79.99999999996612
 51
90.0
  0
ARC
  5
3F5
330
5A
100
AcDbEntity
  8
LC-002-002-----0
  6
Continuous
 62
     7
100
AcDbCircle
 10
52.95192503207522
 20
-339.5276633396908
 30
0.0
 40
0.547990000000126
100
AcDbArc
 50
-79.99999999997024
 51
90.0
  0
ARC
  5
3F6
330
5A
100
AcDbEntity
  8
LC-002-002-----0
  6
Continuous
 62
     7
100
AcDbCircle
 10
52.95192503207522
 20
-351.8578293396908
 30
0.0
 40
0.54799000000007
100
AcDbArc
 50
-79.9999999999692
 51
90.0
  0
ARC
  5
3F7
330
5A
100
AcDbEntity
  8
LC-002-002-----0
  6
Continuous
 62
     7
100
AcDbCircle
 10
52.95192503207522
 20
-364.1879943396908
 30
0.0
 40
0.547989999999958
100
AcDbArc
 50
-79.99999999996714
 51
90.0
  0
ARC
  5
3F8
330
5A
100
AcDbEntity
  8
LC-002-002-----0
  6
Continuous
 62
     7
100
AcDbCircle
 10
52.95192503207522
 20
-376.5181603396908
 30
0.0
 40
0.547990000000126
100
AcDbArc
 50
-79.99999999997024
 51
90.0
  0
ARC
  5
3F9
330
5A
100
AcDbEntity
  8
LC-002-002-----0
  6
Continuous
 62
     7
100
AcDbCircle
 10
52.95192503207522
 20
-388.8483263396907
 30
0.0
 40
0.5479900000001819
100
AcDbArc
 50
-79.99999999997127
 51
90.0
  0
ARC
  5
3FA
330
5A
100
AcDbEntity
  8
LC-002-002-----0
  6
Continuous
 62
     7
100
AcDbCircle
 10
52.95192503207522
 20
-401.1784913396908
 30
0.0
 40
0.547989999999958
100
AcDbArc
 50
-79.99999999996714
 51
90.0
  0
ARC
  5
3FB
330
5A
100
AcDbEntity
  8
LC-002-002-----0
  6
Continuous
 62
     7
100
AcDbCircle
 10
52.95192503207522
 20
-413.5086573396908
 30
0.0
 40
0.547990000000126
100
AcDbArc
 50
-79.99999999997024
 51
90.0
  0
ARC
  5
3FC
330
5A
100
AcDbEntity
  8
LC-002-002-----0
  6
Continuous
 62
     7
100
AcDbCircle
 10
52.95192503207522
 20
-425.8388233396908
 30
0.0
 40
0.547990000000014
100
AcDbArc
 50
-79.99999999996818
 51
90.0
  0
ARC
  5
3FD
330
5A
100
AcDbEntity
  8
LC-002-002-----0
  6
Continuous
 62
     7
100
AcDbCircle
 10
52.95192503207522
 20
-438.1689883396908
 30
0.0
 40
0.54799000000007
100
AcDbArc
 50
-79.9999999999692
 51
90.0
  0
ARC
  5
3FE
330
5A
100
AcDbEntity
  8
LC-002-002-----0
  6
Continuous
 62
     7
100
AcDbCircle
 10
52.95192503207522
 20
-450.4991543396908
 30
0.0
 40
0.547990000000126
100
AcDbArc
 50
-79.99999999997024
 51
90.0
  0
ARC
  5
3FF
330
5A
100
AcDbEntity
  8
LC-001-002-RND-0
  6
Continuous
 62
     7
100
AcDbCircle
 10
46.99991403207514
 20
-243.5077083396908
 30
0.0
 40
0.9999999999998168
100
AcDbArc
 50
100.000000000007
 51
180.0
  0
ARC
  5
400
330
5A
100
AcDbEntity
  8
LC-001-002-RND-0
  6
Continuous
 62
     7
100
AcDbCircle
 10
46.99991403207514
 20
-255.8378733396908
 30
0.0
 40
0.9999999999997888
100
AcDbArc
 50
100.0000000000073
 51
180.0
  0
ARC
  5
401
330
5A
100
AcDbEntity
  8
LC-001-002-RND-0
  6
Continuous
 62
     7
100
AcDbCircle
 10
46.99991403207514
 20
-268.1680393396908
 30
0.0
 40
0.9999999999997888
100
AcDbArc
 50
100.0000000000073
 51
180.0
  0
ARC
  5
402
330
5A
100
AcDbEntity
  8
LC-001-002-RND-0
  6
Continuous
 62
     7
100
AcDbCircle
 10
46.99991403207514
 20
-280.4982053396907
 30
0.0
 40
0.9999999999996769
100
AcDbArc
 50
100.0000000000084
 51
180.0
  0
ARC
  5
403
330
5A
100
AcDbEntity
  8
LC-001-002-RND-0
  6
Continuous
 62
     7
100
AcDbCircle
 10
46.99991403207514
 20
-292.8283703396908
 30
0.0
 40
0.9999999999999568
100
AcDbArc
 50
100.0000000000056
 51
180.0
  0
ARC
  5
404
330
5A
100
AcDbEntity
  8
LC-001-002-RND-0
  6
Continuous
 62
     7
100
AcDbCircle
 10
46.99991403207514
 20
-305.1585363396908
 30
0.0
 40
0.9999999999997888
100
AcDbArc
 50
100.0000000000073
 51
180.0
  0
ARC
  5
405
330
5A
100
AcDbEntity
  8
LC-001-002-RND-0
  6
Continuous
 62
     7
100
AcDbCircle
 10
46.99991403207514
 20
-317.4887023396908
 30
0.0
 40
0.9999999999997888
100
AcDbArc
 50
100.0000000000073
 51
180.0
  0
ARC
  5
406
330
5A
100
AcDbEntity
  8
LC-001-002-RND-0
  6
Continuous
 62
     7
100
AcDbCircle
 10
46.99991403207514
 20
-329.8188673396908
 30
0.0
 40
0.9999999999999568
100
AcDbArc
 50
100.0000000000056
 51
180.0
  0
ARC
  5
407
330
5A
100
AcDbEntity
  8
LC-001-002-RND-0
  6
Continuous
 62
     7
100
AcDbCircle
 10
46.99991403207514
 20
-342.1490333396908
 30
0.0
 40
1.000000000000013
100
AcDbArc
 50
100.000000000005
 51
180.0
  0
ARC
  5
408
330
5A
100
AcDbEntity
  8
LC-001-002-RND-0
  6
Continuous
 62
     7
100
AcDbCircle
 10
46.99991403207514
 20
-354.4791993396908
 30
0.0
 40
1.000000000000013
100
AcDbArc
 50
100.000000000005
 51
180.0
  0
ARC
  5
409
330
5A
100
AcDbEntity
  8
LC-001-002-RND-0
  6
Continuous
 62
     7
100
AcDbCircle
 10
46.99991403207514
 20
-366.8093643396908
 30
0.0
 40
0.9999999999999568
100
AcDbArc
 50
100.0000000000056
 51
180.0
  0
ARC
  5
40A
330
5A
100
AcDbEntity
  8
LC-001-002-RND-0
  6
Continuous
 62
     7
100
AcDbCircle
 10
46.99991403207514
 20
-379.1395303396908
 30
0.0
 40
1.000000000000013
100
AcDbArc
 50
100.000000000005
 51
180.0
  0
ARC
  5
40B
330
5A
100
AcDbEntity
  8
LC-001-002-RND-0
  6
Continuous
 62
     7
100
AcDbCircle
 10
46.99991403207514
 20
-391.4696963396908
 30
0.0
 40
1.000000000000013
100
AcDbArc
 50
100.000000000005
 51
180.0
  0
ARC
  5
40C
330
5A
100
AcDbEntity
  8
LC-001-002-RND-0
  6
Continuous
 62
     7
100
AcDbCircle
 10
46.99991403207514
 20
-403.7998613396908
 30
0.0
 40
1.000000000000013
100
AcDbArc
 50
100.000000000005
 51
180.0
  0
ARC
  5
40D
330
5A
100
AcDbEntity
  8
LC-001-002-RND-0
  6
Continuous
 62
     7
100
AcDbCircle
 10
-47.00008596792486
 20
-440.7903583396908
 30
0.0
 40
1.0
100
AcDbArc
 50
0.0
 51
79.99999999999498
  0
ARC
  5
40E
330
5A
100
AcDbEntity
  8
LC-001-002-RND-0
  6
Continuous
 62
     7
100
AcDbCircle
 10
46.99991403207514
 20
-416.1300273396907
 30
0.0
 40
0.9999999999999009
100
AcDbArc
 50
100.0000000000062
 51
180.0
  0
ARC
  5
40F
330
5A
100
AcDbEntity
  8
LC-001-002-RND-0
  6
Continuous
 62
     7
100
AcDbCircle
 10
46.99991403207514
 20
-428.4601933396908
 30
0.0
 40
1.000000000000013
100
AcDbArc
 50
100.000000000005
 51
180.0
  0
ARC
  5
410
330
5A
100
AcDbEntity
  8
LC-001-002-RND-0
  6
Continuous
 62
     7
100
AcDbCircle
 10
46.49991403207514
 20
-437.1209993396907
 30
0.0
 40
0.5
100
AcDbArc
 50
180.0
 51
-90.0
  0
ARC
  5
411
330
5A
100
AcDbEntity
  8
LC-001-002-RND-0
  6
Continuous
 62
     7
100
AcDbCircle
 10
46.49991403207514
 20
-449.4511643396908
 30
0.0
 40
0.5
100
AcDbArc
 50
180.0
 51
-90.0
  0
ARC
  5
412
330
5A
100
AcDbEntity
  8
LC-001-002-RND-0
  6
Continuous
 62
     7
100
AcDbCircle
 10
46.49991403207514
 20
-424.7908333396908
 30
0.0
 40
0.5
100
AcDbArc
 50
180.0
 51
-90.0
  0
ARC
  5
413
330
5A
100
AcDbEntity
  8
LC-001-002-RND-0
  6
Continuous
 62
     7
100
AcDbCircle
 10
46.49991403207514
 20
-412.4606673396908
 30
0.0
 40
0.5
100
AcDbArc
 50
180.0
 51
-90.0
  0
ARC
  5
414
330
5A
100
AcDbEntity
  8
LC-001-002-RND-0
  6
Continuous
 62
     7
100
AcDbCircle
 10
46.49991403207514
 20
-400.1305023396907
 30
0.0
 40
0.5
100
AcDbArc
 50
180.0
 51
-90.0
  0
ARC
  5
415
330
5A
100
AcDbEntity
  8
LC-001-002-RND-0
  6
Continuous
 62
     7
100
AcDbCircle
 10
46.49991403207514
 20
-387.8003363396908
 30
0.0
 40
0.5
100
AcDbArc
 50
180.0
 51
-90.0
  0
ARC
  5
416
330
5A
100
AcDbEntity
  8
LC-001-002-RND-0
  6
Continuous
 62
     7
100
AcDbCircle
 10
46.49991403207514
 20
-375.4701703396908
 30
0.0
 40
0.5
100
AcDbArc
 50
180.0
 51
-90.0
  0
ARC
  5
417
330
5A
100
AcDbEntity
  8
LC-001-002-RND-0
  6
Continuous
 62
     7
100
AcDbCircle
 10
46.49991403207514
 20
-363.1400053396908
 30
0.0
 40
0.5
100
AcDbArc
 50
180.0
 51
-90.0
  0
ARC
  5
418
330
5A
100
AcDbEntity
  8
LC-001-002-RND-0
  6
Continuous
 62
     7
100
AcDbCircle
 10
46.49991403207514
 20
-350.8098393396908
 30
0.0
 40
0.5
100
AcDbArc
 50
180.0
 51
-90.0
  0
ARC
  5
419
330
5A
100
AcDbEntity
  8
LC-001-002-RND-0
  6
Continuous
 62
     7
100
AcDbCircle
 10
46.49991403207514
 20
-338.4796733396908
 30
0.0
 40
0.5
100
AcDbArc
 50
180.0
 51
-90.0
  0
ARC
  5
41A
330
5A
100
AcDbEntity
  8
LC-001-002-RND-0
  6
Continuous
 62
     7
100
AcDbCircle
 10
46.49991403207514
 20
-326.1495083396908
 30
0.0
 40
0.5
100
AcDbArc
 50
180.0
 51
-90.0
  0
ARC
  5
41B
330
5A
100
AcDbEntity
  8
LC-001-002-RND-0
  6
Continuous
 62
     7
100
AcDbCircle
 10
46.49991403207514
 20
-313.8193423396908
 30
0.0
 40
0.5
100
AcDbArc
 50
180.0
 51
-90.0
  0
ARC
  5
41C
330
5A
100
AcDbEntity
  8
LC-001-002-RND-0
  6
Continuous
 62
     7
100
AcDbCircle
 10
46.49991403207514
 20
-301.4891763396908
 30
0.0
 40
0.5
100
AcDbArc
 50
180.0
 51
-90.0
  0
ARC
  5
41D
330
5A
100
AcDbEntity
  8
LC-001-002-RND-0
  6
Continuous
 62
     7
100
AcDbCircle
 10
46.49991403207514
 20
-289.1590113396908
 30
0.0
 40
0.5
100
AcDbArc
 50
180.0
 51
-90.0
  0
ARC
  5
41E
330
5A
100
AcDbEntity
  8
LC-001-002-RND-0
  6
Continuous
 62
     7
100
AcDbCircle
 10
46.99991403207514
 20
-440.7903583396908
 30
0.0
 40
1.000000000000013
100
AcDbArc
 50
100.000000000005
 51
180.0
  0
ARC
  5
41F
330
5A
100
AcDbEntity
  8
LC-001-002-RND-0
  6
Continuous
 62
     7
100
AcDbCircle
 10
-47.00008596792486
 20
-453.1205243396908
 30
0.0
 40
1.0
100
AcDbArc
 50
0.0
 51
79.99999999999612
  0
ARC
  5
420
330
5A
100
AcDbEntity
  8
LC-001-002-RND-0
  6
Continuous
 62
     7
100
AcDbCircle
 10
46.99991403207514
 20
-453.1205243396908
 30
0.0
 40
1.000000000000125
100
AcDbArc
 50
100.0000000000039
 51
180.0
  0
ARC
  5
421
330
5A
100
AcDbEntity
  8
LC-002-002-RND-0
  6
Continuous
 62
     7
100
AcDbCircle
 10
77.75
 20
-44.18575713093564
 30
0.0
 40
3.0
100
AcDbArc
 50
-90.0
 51
0.0
  0
ARC
  5
422
330
5A
100
AcDbEntity
  8
LC-002-002-RND-0
  6
Continuous
 62
     7
100
AcDbCircle
 10
60.00000499999999
 20
-98.18610313093566
 30
0.0
 40
3.000000000000043
100
AcDbArc
 50
-90.0
 51
0.0
  0
ARC
  5
423
330
5A
100
AcDbEntity
  8
LC-002-002-RND-0
  6
Continuous
 62
     7
100
AcDbCircle
 10
-60.00000499999999
 20
-98.18610313093566
 30
0.0
 40
3.0
100
AcDbArc
 50
180.0
 51
-90.0
  0
ARC
  5
424
330
5A
100
AcDbEntity
  8
LC-002-002-RND-0
  6
Continuous
 62
     7
100
AcDbCircle
 10
-77.75
 20
-44.13170600226366
 30
0.0
 40
3.0
100
AcDbArc
 50
180.0
 51
-90.0
  0
ARC
  5
425
330
5A
100
AcDbEntity
  8
LC-002-002-RND-0
  6
Continuous
 62
     7
100
AcDbCircle
 10
-99.50509799999998
 20
-29.736492
 30
0.0
 40
0.4999999999995142
100
AcDbArc
 50
-179.9996659999872
 51
-89.99975200002976
  0
ARC
  5
426
330
5A
100
AcDbEntity
  8
LC-002-002-RND-0
  6
Continuous
 62
     7
100
AcDbCircle
 10
99.50519700000007
 20
-29.736469
 30
0.0
 40
0.5
100
AcDbArc
 50
-90.0
 51
0.00004499999191
  0
ARC
  5
427
330
5A
100
AcDbEntity
  8
LC-002-002-RND-0
  6
Continuous
 62
     7
100
AcDbCircle
 10
-175.0
 20
-5.236469
 30
0.0
 40
2.0
100
AcDbArc
 50
90.0
 51
180.0
  0
ARC
  5
428
330
5A
100
AcDbEntity
  8
LC-002-002-RND-0
  6
Continuous
 62
     7
100
AcDbCircle
 10
175.0000000000001
 20
-5.236469
 30
0.0
 40
2.0
100
AcDbArc
 50
0.0
 51
90.0
  0
ENDBLK
  5
5C
330
5A
100
AcDbEntity
  8
0
100
AcDbBlockEnd
  0
BLOCK
  5
5E
330
5D
100
AcDbEntity
  8
0
100
AcDbBlockBegin
  2
062B_2E_Aufsatzrahmen
 70
     0
 71
     0
 10
442.6571438671673
 20
-1386.613983897322
 30
0.0
  3
062B_2E_Aufsatzrahmen
  1

  0
POINT
  5
429
330
5D
100
AcDbEntity
  8
0
 62
     7
100
AcDbPoint
 10
73.50016890486904
 20
65.00000000000006
 30
0.0
  0
POINT
  5
42A
330
5D
100
AcDbEntity
  8
0
 62
     7
100
AcDbPoint
 10
73.50016890486904
 20
65.00000000000006
 30
0.0
  0
POINT
  5
42B
330
5D
100
AcDbEntity
  8
0
 62
     7
100
AcDbPoint
 10
-73.4998310951309
 20
65.00000000000006
 30
0.0
  0
LINE
  5
42C
330
5D
100
AcDbEntity
  8
1
  6
Continuous
 62
     7
100
AcDbLine
 10
-40.75834483071745
 20
0.5
 30
0.0
 11
40.74997814364353
 21
0.5
 31
0.0
  0
LINE
  5
42D
330
5D
100
AcDbEntity
  8
1
  6
Continuous
 62
     7
100
AcDbLine
 10
53.24997816928234
 20
0.5
 30
0.0
 11
72.00016890486904
 21
0.5
 31
0.0
  0
LINE
  5
42E
330
5D
100
AcDbEntity
  8
1
  6
Continuous
 62
     7
100
AcDbLine
 10
-71.9998310951309
 20
3.0
 30
0.0
 11
-52.619527415562
 21
3.0
 31
0.0
  0
LINE
  5
42F
330
5D
100
AcDbEntity
  8
1
  6
Continuous
 62
     7
100
AcDbLine
 10
-52.619527415562
 20
3.0
 30
0.0
 11
-71.9998310951309
 21
3.0
 31
0.0
  0
LINE
  5
430
330
5D
100
AcDbEntity
  8
1
  6
Continuous
 62
     7
100
AcDbLine
 10
-41.39744743643958
 20
3.0
 30
0.0
 11
41.38879558443779
 21
3.0
 31
0.0
  0
LINE
  5
431
330
5D
100
AcDbEntity
  8
1
  6
Continuous
 62
     7
100
AcDbLine
 10
41.38879558443779
 20
3.0
 30
0.0
 11
-41.39744743643958
 21
3.0
 31
0.0
  0
LINE
  5
432
330
5D
100
AcDbEntity
  8
1
  6
Continuous
 62
     7
100
AcDbLine
 10
52.61087556356021
 20
3.0
 30
0.0
 11
72.00016890486904
 21
3.0
 31
0.0
  0
LINE
  5
433
330
5D
100
AcDbEntity
  8
1
  6
Continuous
 62
     7
100
AcDbLine
 10
52.61087556356021
 20
3.0
 30
0.0
 11
72.00016890486904
 21
3.0
 31
0.0
  0
LINE
  5
434
330
5D
100
AcDbEntity
  8
1
  6
Continuous
 62
     7
100
AcDbLine
 10
-63.4998310951309
 20
48.50000000000006
 30
0.0
 11
-63.4998310951309
 21
51.00000000000006
 31
0.0
  0
LINE
  5
435
330
5D
100
AcDbEntity
  8
1
  6
Continuous
 62
     7
100
AcDbLine
 10
-63.4998310951309
 20
46.50000000000006
 30
0.0
 11
-63.4998310951309
 21
48.50000000000006
 31
0.0
  0
LINE
  5
436
330
5D
100
AcDbEntity
  8
1
  6
Continuous
 62
     7
100
AcDbLine
 10
-63.4998310951309
 20
51.00000000000006
 30
0.0
 11
-34.9998310951309
 21
46.50000000000006
 31
0.0
  0
LINE
  5
437
330
5D
100
AcDbEntity
  8
1
  6
Continuous
 62
     7
100
AcDbLine
 10
63.50016890486904
 20
48.50000000000006
 30
0.0
 11
63.50016890486904
 21
46.50000000000006
 31
0.0
  0
LINE
  5
438
330
5D
100
AcDbEntity
  8
1
  6
Continuous
 62
     7
100
AcDbLine
 10
72.50016890486904
 20
48.50000000000006
 30
0.0
 11
63.50016890486904
 21
48.50000000000006
 31
0.0
  0
LINE
  5
439
330
5D
100
AcDbEntity
  8
1
  6
Continuous
 62
     7
100
AcDbLine
 10
63.50016890486904
 20
46.50000000000006
 30
0.0
 11
72.50016890486904
 21
46.50000000000006
 31
0.0
  0
LINE
  5
43A
330
5D
100
AcDbEntity
  8
1
  6
Continuous
 62
     7
100
AcDbLine
 10
63.50016890486904
 20
51.00000000000006
 30
0.0
 11
63.50016890486904
 21
48.50000000000006
 31
0.0
  0
LINE
  5
43B
330
5D
100
AcDbEntity
  8
1
  6
Continuous
 62
     7
100
AcDbLine
 10
63.50016890486904
 20
51.00000000000006
 30
0.0
 11
72.50016890486904
 21
51.00000000000006
 31
0.0
  0
LINE
  5
43C
330
5D
100
AcDbEntity
  8
1
  6
Continuous
 62
     7
100
AcDbLine
 10
35.00016890486904
 20
46.50000000000006
 30
0.0
 11
63.50016890486904
 21
51.00000000000006
 31
0.0
  0
LINE
  5
43D
330
5D
100
AcDbEntity
  8
1
  6
Continuous
 62
     7
100
AcDbLine
 10
35.00016890486904
 20
46.50000000000006
 30
0.0
 11
63.50016890486904
 21
46.50000000000006
 31
0.0
  0
LINE
  5
43E
330
5D
100
AcDbEntity
  8
1
  6
Continuous
 62
     7
100
AcDbLine
 10
35.00016890486904
 20
46.50000000000006
 30
0.0
 11
35.00016890486904
 21
48.50000000000006
 31
0.0
  0
LINE
  5
43F
330
5D
100
AcDbEntity
  8
1
  6
Continuous
 62
     7
100
AcDbLine
 10
-34.9998310951309
 20
48.50000000000006
 30
0.0
 11
35.00016890486904
 21
48.50000000000006
 31
0.0
  0
LINE
  5
440
330
5D
100
AcDbEntity
  8
1
  6
Continuous
 62
     7
100
AcDbLine
 10
-34.9998310951309
 20
46.50000000000006
 30
0.0
 11
35.00016890486904
 21
46.50000000000006
 31
0.0
  0
LINE
  5
441
330
5D
100
AcDbEntity
  8
1
  6
Continuous
 62
     7
100
AcDbLine
 10
-34.9998310951309
 20
48.50000000000006
 30
0.0
 11
-34.9998310951309
 21
46.50000000000006
 31
0.0
  0
LINE
  5
442
330
5D
100
AcDbEntity
  8
LC-003-002-----0
  6
Continuous
 62
     7
100
AcDbLine
 10
72.50016890486904
 20
51.00000000000006
 30
0.0
 11
72.50016890486904
 21
48.50000000000006
 31
0.0
  0
LINE
  5
443
330
5D
100
AcDbEntity
  8
LC-003-002-----0
  6
Continuous
 62
     7
100
AcDbLine
 10
72.50016890486904
 20
40.50000000000006
 30
0.0
 11
72.50016890486904
 21
39.50000000000006
 31
0.0
  0
LINE
  5
444
330
5D
100
AcDbEntity
  8
LC-003-002-----0
  6
Continuous
 62
     7
100
AcDbLine
 10
72.50016890486904
 20
36.00000000000006
 30
0.0
 11
72.50016890486904
 21
35.00000000000006
 31
0.0
  0
LINE
  5
445
330
5D
100
AcDbEntity
  8
LC-003-002-----0
  6
Continuous
 62
     7
100
AcDbLine
 10
72.50016890486904
 20
31.50000000000006
 30
0.0
 11
72.50016890486904
 21
30.50000000000006
 31
0.0
  0
LINE
  5
446
330
5D
100
AcDbEntity
  8
LC-003-002-----0
  6
Continuous
 62
     7
100
AcDbLine
 10
72.50016890486904
 20
27.00000000000006
 30
0.0
 11
72.50016890486904
 21
26.00000000000006
 31
0.0
  0
LINE
  5
447
330
5D
100
AcDbEntity
  8
LC-003-002-----0
  6
Continuous
 62
     7
100
AcDbLine
 10
72.50016890486904
 20
22.50000000000006
 30
0.0
 11
72.50016890486904
 21
21.50000000000006
 31
0.0
  0
LINE
  5
448
330
5D
100
AcDbEntity
  8
LC-003-002-----0
  6
Continuous
 62
     7
100
AcDbLine
 10
72.50016890486904
 20
18.00000000000006
 30
0.0
 11
72.50016890486904
 21
17.00000000000006
 31
0.0
  0
LINE
  5
449
330
5D
100
AcDbEntity
  8
LC-003-002-----0
  6
Continuous
 62
     7
100
AcDbLine
 10
72.50016890486904
 20
13.50000000000006
 30
0.0
 11
72.50016890486904
 21
12.50000000000006
 31
0.0
  0
LINE
  5
44A
330
5D
100
AcDbEntity
  8
LC-003-002-----0
  6
Continuous
 62
     7
100
AcDbLine
 10
72.50016890486904
 20
9.00000000000006
 30
0.0
 11
72.50016890486904
 21
8.00000000000006
 31
0.0
  0
LINE
  5
44B
330
5D
100
AcDbEntity
  8
LC-003-002-----0
  6
Continuous
 62
     7
100
AcDbLine
 10
72.50016890486904
 20
4.5
 30
0.0
 11
72.50016890486904
 21
3.5
 31
0.0
  0
LINE
  5
44C
330
5D
100
AcDbEntity
  8
LC-003-002-----0
  6
Continuous
 62
     7
100
AcDbLine
 10
72.00016890486904
 20
41.00000000000006
 30
0.0
 11
72.00016890486904
 21
41.00000000000006
 31
0.0
  0
LINE
  5
44D
330
5D
100
AcDbEntity
  8
LC-003-002-----0
  6
Continuous
 62
     7
100
AcDbLine
 10
72.00016890486904
 20
36.50000000000006
 30
0.0
 11
72.00016890486904
 21
36.50000000000006
 31
0.0
  0
LINE
  5
44E
330
5D
100
AcDbEntity
  8
LC-003-002-----0
  6
Continuous
 62
     7
100
AcDbLine
 10
72.00016890486904
 20
32.00000000000006
 30
0.0
 11
72.00016890486904
 21
32.00000000000006
 31
0.0
  0
LINE
  5
44F
330
5D
100
AcDbEntity
  8
LC-003-002-----0
  6
Continuous
 62
     7
100
AcDbLine
 10
72.00016890486904
 20
27.50000000000006
 30
0.0
 11
72.00016890486904
 21
27.50000000000006
 31
0.0
  0
LINE
  5
450
330
5D
100
AcDbEntity
  8
LC-003-002-----0
  6
Continuous
 62
     7
100
AcDbLine
 10
72.00016890486904
 20
23.00000000000006
 30
0.0
 11
72.00016890486904
 21
23.00000000000006
 31
0.0
  0
LINE
  5
451
330
5D
100
AcDbEntity
  8
LC-003-002-----0
  6
Continuous
 62
     7
100
AcDbLine
 10
72.00016890486904
 20
18.50000000000006
 30
0.0
 11
72.00016890486904
 21
18.50000000000006
 31
0.0
  0
LINE
  5
452
330
5D
100
AcDbEntity
  8
LC-003-002-----0
  6
Continuous
 62
     7
100
AcDbLine
 10
72.00016890486904
 20
14.00000000000006
 30
0.0
 11
72.00016890486904
 21
14.00000000000006
 31
0.0
  0
LINE
  5
453
330
5D
100
AcDbEntity
  8
LC-003-002-----0
  6
Continuous
 62
     7
100
AcDbLine
 10
72.00016890486904
 20
9.50000000000006
 30
0.0
 11
72.00016890486904
 21
9.50000000000006
 31
0.0
  0
LINE
  5
454
330
5D
100
AcDbEntity
  8
LC-003-002-----0
  6
Continuous
 62
     7
100
AcDbLine
 10
72.00016890486904
 20
5.0
 30
0.0
 11
72.00016890486904
 21
5.0
 31
0.0
  0
LINE
  5
455
330
5D
100
AcDbEntity
  8
LC-003-002-----0
  6
Continuous
 62
     7
100
AcDbLine
 10
72.00016890486904
 20
43.50000000000006
 30
0.0
 11
72.00016890486904
 21
43.50000000000006
 31
0.0
  0
LINE
  5
456
330
5D
100
AcDbEntity
  8
LC-003-002-----0
  6
Continuous
 62
     7
100
AcDbLine
 10
72.00016890486904
 20
39.00000000000006
 30
0.0
 11
72.00016890486904
 21
39.00000000000006
 31
0.0
  0
LINE
  5
457
330
5D
100
AcDbEntity
  8
LC-003-002-----0
  6
Continuous
 62
     7
100
AcDbLine
 10
72.00016890486904
 20
34.50000000000006
 30
0.0
 11
72.00016890486904
 21
34.50000000000006
 31
0.0
  0
LINE
  5
458
330
5D
100
AcDbEntity
  8
LC-003-002-----0
  6
Continuous
 62
     7
100
AcDbLine
 10
72.00016890486904
 20
30.00000000000006
 30
0.0
 11
72.00016890486904
 21
30.00000000000006
 31
0.0
  0
LINE
  5
459
330
5D
100
AcDbEntity
  8
LC-003-002-----0
  6
Continuous
 62
     7
100
AcDbLine
 10
72.00016890486904
 20
25.50000000000006
 30
0.0
 11
72.00016890486904
 21
25.50000000000006
 31
0.0
  0
LINE
  5
45A
330
5D
100
AcDbEntity
  8
LC-003-002-----0
  6
Continuous
 62
     7
100
AcDbLine
 10
72.00016890486904
 20
21.00000000000006
 30
0.0
 11
72.00016890486904
 21
21.00000000000006
 31
0.0
  0
LINE
  5
45B
330
5D
100
AcDbEntity
  8
LC-003-002-----0
  6
Continuous
 62
     7
100
AcDbLine
 10
72.00016890486904
 20
16.50000000000006
 30
0.0
 11
72.00016890486904
 21
16.50000000000006
 31
0.0
  0
LINE
  5
45C
330
5D
100
AcDbEntity
  8
LC-003-002-----0
  6
Continuous
 62
     7
100
AcDbLine
 10
72.00016890486904
 20
12.00000000000006
 30
0.0
 11
72.00016890486904
 21
12.00000000000006
 31
0.0
  0
LINE
  5
45D
330
5D
100
AcDbEntity
  8
LC-003-002-----0
  6
Continuous
 62
     7
100
AcDbLine
 10
72.00016890486904
 20
7.50000000000006
 30
0.0
 11
72.00016890486904
 21
7.50000000000006
 31
0.0
  0
LINE
  5
45E
330
5D
100
AcDbEntity
  8
LC-003-002-----0
  6
Continuous
 62
     7
100
AcDbLine
 10
72.00016890486904
 20
3.0
 30
0.0
 11
72.00016890486904
 21
3.0
 31
0.0
  0
LINE
  5
45F
330
5D
100
AcDbEntity
  8
LC-003-002-----0
  6
Continuous
 62
     7
100
AcDbLine
 10
72.50016890486904
 20
46.50000000000006
 30
0.0
 11
72.50016890486904
 21
44.00000000000006
 31
0.0
  0
LINE
  5
460
330
5D
100
AcDbEntity
  8
LC-003-002-----0
  6
Continuous
 62
     7
100
AcDbLine
 10
73.00016890486904
 20
48.50000000000006
 30
0.0
 11
73.00016890486904
 21
46.50000000000006
 31
0.0
  0
LINE
  5
461
330
5D
100
AcDbEntity
  8
LC-003-002-----0
  6
Continuous
 62
     7
100
AcDbLine
 10
73.00016890486904
 20
46.50000000000006
 30
0.0
 11
72.50016890486904
 21
46.50000000000006
 31
0.0
  0
LINE
  5
462
330
5D
100
AcDbEntity
  8
LC-003-002-----0
  6
Continuous
 62
     7
100
AcDbLine
 10
72.50016890486904
 20
51.00000000000006
 30
0.0
 11
73.50016890486904
 21
51.00000000000006
 31
0.0
  0
LINE
  5
463
330
5D
100
AcDbEntity
  8
LC-003-002-----0
  6
Continuous
 62
     7
100
AcDbLine
 10
73.00016890486904
 20
48.50000000000006
 30
0.0
 11
72.50016890486904
 21
48.50000000000006
 31
0.0
  0
LINE
  5
464
330
5D
100
AcDbEntity
  8
LC-003-002-----0
  6
Continuous
 62
     7
100
AcDbLine
 10
73.50016890486904
 20
65.00000000000006
 30
0.0
 11
73.50016890486904
 21
51.00000000000006
 31
0.0
  0
LINE
  5
465
330
5D
100
AcDbEntity
  8
LC-003-002-----0
  6
Continuous
 62
     7
100
AcDbLine
 10
73.50016890486904
 20
65.00000000000006
 30
0.0
 11
-73.4998310951309
 21
65.00000000000006
 31
0.0
  0
LINE
  5
466
330
5D
100
AcDbEntity
  8
LC-003-002-----0
  6
Continuous
 62
     7
100
AcDbLine
 10
-72.4998310951309
 20
51.00000000000006
 30
0.0
 11
-72.4998310951309
 21
48.50000000000006
 31
0.0
  0
LINE
  5
467
330
5D
100
AcDbEntity
  8
LC-003-002-----0
  6
Continuous
 62
     7
100
AcDbLine
 10
-72.4998310951309
 20
40.50000000000006
 30
0.0
 11
-72.4998310951309
 21
39.50000000000006
 31
0.0
  0
LINE
  5
468
330
5D
100
AcDbEntity
  8
LC-003-002-----0
  6
Continuous
 62
     7
100
AcDbLine
 10
-72.4998310951309
 20
36.00000000000006
 30
0.0
 11
-72.4998310951309
 21
35.00000000000006
 31
0.0
  0
LINE
  5
469
330
5D
100
AcDbEntity
  8
LC-003-002-----0
  6
Continuous
 62
     7
100
AcDbLine
 10
-72.4998310951309
 20
31.50000000000006
 30
0.0
 11
-72.4998310951309
 21
30.50000000000006
 31
0.0
  0
LINE
  5
46A
330
5D
100
AcDbEntity
  8
LC-003-002-----0
  6
Continuous
 62
     7
100
AcDbLine
 10
-72.4998310951309
 20
27.00000000000006
 30
0.0
 11
-72.4998310951309
 21
26.00000000000006
 31
0.0
  0
LINE
  5
46B
330
5D
100
AcDbEntity
  8
LC-003-002-----0
  6
Continuous
 62
     7
100
AcDbLine
 10
-72.4998310951309
 20
22.50000000000006
 30
0.0
 11
-72.4998310951309
 21
21.50000000000006
 31
0.0
  0
LINE
  5
46C
330
5D
100
AcDbEntity
  8
LC-003-002-----0
  6
Continuous
 62
     7
100
AcDbLine
 10
-72.4998310951309
 20
18.00000000000006
 30
0.0
 11
-72.4998310951309
 21
17.00000000000006
 31
0.0
  0
LINE
  5
46D
330
5D
100
AcDbEntity
  8
LC-003-002-----0
  6
Continuous
 62
     7
100
AcDbLine
 10
-72.4998310951309
 20
13.50000000000006
 30
0.0
 11
-72.4998310951309
 21
12.50000000000006
 31
0.0
  0
LINE
  5
46E
330
5D
100
AcDbEntity
  8
LC-003-002-----0
  6
Continuous
 62
     7
100
AcDbLine
 10
-72.4998310951309
 20
9.00000000000006
 30
0.0
 11
-72.4998310951309
 21
8.00000000000006
 31
0.0
  0
LINE
  5
46F
330
5D
100
AcDbEntity
  8
LC-003-002-----0
  6
Continuous
 62
     7
100
AcDbLine
 10
-72.4998310951309
 20
4.5
 30
0.0
 11
-72.4998310951309
 21
3.5
 31
0.0
  0
LINE
  5
470
330
5D
100
AcDbEntity
  8
LC-003-002-----0
  6
Continuous
 62
     7
100
AcDbLine
 10
-71.9998310951309
 20
41.00000000000006
 30
0.0
 11
-71.9998310951309
 21
41.00000000000006
 31
0.0
  0
LINE
  5
471
330
5D
100
AcDbEntity
  8
LC-003-002-----0
  6
Continuous
 62
     7
100
AcDbLine
 10
-71.9998310951309
 20
36.50000000000006
 30
0.0
 11
-71.9998310951309
 21
36.50000000000006
 31
0.0
  0
LINE
  5
472
330
5D
100
AcDbEntity
  8
LC-003-002-----0
  6
Continuous
 62
     7
100
AcDbLine
 10
-71.9998310951309
 20
32.00000000000006
 30
0.0
 11
-71.9998310951309
 21
32.00000000000006
 31
0.0
  0
LINE
  5
473
330
5D
100
AcDbEntity
  8
LC-003-002-----0
  6
Continuous
 62
     7
100
AcDbLine
 10
-71.9998310951309
 20
27.50000000000006
 30
0.0
 11
-71.9998310951309
 21
27.50000000000006
 31
0.0
  0
LINE
  5
474
330
5D
100
AcDbEntity
  8
LC-003-002-----0
  6
Continuous
 62
     7
100
AcDbLine
 10
-71.9998310951309
 20
23.00000000000006
 30
0.0
 11
-71.9998310951309
 21
23.00000000000006
 31
0.0
  0
LINE
  5
475
330
5D
100
AcDbEntity
  8
LC-003-002-----0
  6
Continuous
 62
     7
100
AcDbLine
 10
-71.9998310951309
 20
18.50000000000006
 30
0.0
 11
-71.9998310951309
 21
18.50000000000006
 31
0.0
  0
LINE
  5
476
330
5D
100
AcDbEntity
  8
LC-003-002-----0
  6
Continuous
 62
     7
100
AcDbLine
 10
-71.9998310951309
 20
14.00000000000006
 30
0.0
 11
-71.9998310951309
 21
14.00000000000006
 31
0.0
  0
LINE
  5
477
330
5D
100
AcDbEntity
  8
LC-003-002-----0
  6
Continuous
 62
     7
100
AcDbLine
 10
-71.9998310951309
 20
9.50000000000006
 30
0.0
 11
-71.9998310951309
 21
9.50000000000006
 31
0.0
  0
LINE
  5
478
330
5D
100
AcDbEntity
  8
LC-003-002-----0
  6
Continuous
 62
     7
100
AcDbLine
 10
-71.9998310951309
 20
5.0
 30
0.0
 11
-71.9998310951309
 21
5.0
 31
0.0
  0
LINE
  5
479
330
5D
100
AcDbEntity
  8
LC-003-002-----0
  6
Continuous
 62
     7
100
AcDbLine
 10
-71.9998310951309
 20
43.50000000000006
 30
0.0
 11
-71.9998310951309
 21
43.50000000000006
 31
0.0
  0
LINE
  5
47A
330
5D
100
AcDbEntity
  8
LC-003-002-----0
  6
Continuous
 62
     7
100
AcDbLine
 10
-71.9998310951309
 20
39.00000000000006
 30
0.0
 11
-71.9998310951309
 21
39.00000000000006
 31
0.0
  0
LINE
  5
47B
330
5D
100
AcDbEntity
  8
LC-003-002-----0
  6
Continuous
 62
     7
100
AcDbLine
 10
-71.9998310951309
 20
34.50000000000006
 30
0.0
 11
-71.9998310951309
 21
34.50000000000006
 31
0.0
  0
LINE
  5
47C
330
5D
100
AcDbEntity
  8
LC-003-002-----0
  6
Continuous
 62
     7
100
AcDbLine
 10
-71.9998310951309
 20
30.00000000000006
 30
0.0
 11
-71.9998310951309
 21
30.00000000000006
 31
0.0
  0
LINE
  5
47D
330
5D
100
AcDbEntity
  8
LC-003-002-----0
  6
Continuous
 62
     7
100
AcDbLine
 10
-71.9998310951309
 20
25.50000000000006
 30
0.0
 11
-71.9998310951309
 21
25.50000000000006
 31
0.0
  0
LINE
  5
47E
330
5D
100
AcDbEntity
  8
LC-003-002-----0
  6
Continuous
 62
     7
100
AcDbLine
 10
-71.9998310951309
 20
21.00000000000006
 30
0.0
 11
-71.9998310951309
 21
21.00000000000006
 31
0.0
  0
LINE
  5
47F
330
5D
100
AcDbEntity
  8
LC-003-002-----0
  6
Continuous
 62
     7
100
AcDbLine
 10
-71.9998310951309
 20
16.50000000000006
 30
0.0
 11
-71.9998310951309
 21
16.50000000000006
 31
0.0
  0
LINE
  5
480
330
5D
100
AcDbEntity
  8
LC-003-002-----0
  6
Continuous
 62
     7
100
AcDbLine
 10
-71.9998310951309
 20
12.00000000000006
 30
0.0
 11
-71.9998310951309
 21
12.00000000000006
 31
0.0
  0
LINE
  5
481
330
5D
100
AcDbEntity
  8
LC-003-002-----0
  6
Continuous
 62
     7
100
AcDbLine
 10
-71.9998310951309
 20
7.50000000000006
 30
0.0
 11
-71.9998310951309
 21
7.50000000000006
 31
0.0
  0
LINE
  5
482
330
5D
100
AcDbEntity
  8
LC-003-002-----0
  6
Continuous
 62
     7
100
AcDbLine
 10
-71.9998310951309
 20
3.0
 30
0.0
 11
-71.9998310951309
 21
3.0
 31
0.0
  0
LINE
  5
483
330
5D
100
AcDbEntity
  8
LC-003-002-----0
  6
Continuous
 62
     7
100
AcDbLine
 10
-72.4998310951309
 20
46.50000000000006
 30
0.0
 11
-72.4998310951309
 21
44.00000000000006
 31
0.0
  0
LINE
  5
484
330
5D
100
AcDbEntity
  8
LC-003-002-----0
  6
Continuous
 62
     7
100
AcDbLine
 10
-72.9998310951309
 20
48.50000000000006
 30
0.0
 11
-72.9998310951309
 21
46.50000000000006
 31
0.0
  0
LINE
  5
485
330
5D
100
AcDbEntity
  8
LC-003-002-----0
  6
Continuous
 62
     7
100
AcDbLine
 10
-72.9998310951309
 20
46.50000000000006
 30
0.0
 11
-72.4998310951309
 21
46.50000000000006
 31
0.0
  0
LINE
  5
486
330
5D
100
AcDbEntity
  8
LC-003-002-----0
  6
Continuous
 62
     7
100
AcDbLine
 10
-72.4998310951309
 20
51.00000000000006
 30
0.0
 11
-73.4998310951309
 21
51.00000000000006
 31
0.0
  0
LINE
  5
487
330
5D
100
AcDbEntity
  8
LC-003-002-----0
  6
Continuous
 62
     7
100
AcDbLine
 10
-72.9998310951309
 20
48.50000000000006
 30
0.0
 11
-72.4998310951309
 21
48.50000000000006
 31
0.0
  0
LINE
  5
488
330
5D
100
AcDbEntity
  8
LC-003-002-----0
  6
Continuous
 62
     7
100
AcDbLine
 10
-73.4998310951309
 20
65.00000000000006
 30
0.0
 11
-73.4998310951309
 21
51.00000000000006
 31
0.0
  0
LINE
  5
489
330
5D
100
AcDbEntity
  8
1
  6
Continuous
 62
     7
100
AcDbLine
 10
-72.4998310951309
 20
51.00000000000006
 30
0.0
 11
63.50016890486904
 21
51.00000000000006
 31
0.0
  0
LINE
  5
48A
330
5D
100
AcDbEntity
  8
1
  6
Continuous
 62
     7
100
AcDbLine
 10
-72.4998310951309
 20
48.50000000000006
 30
0.0
 11
-63.4998310951309
 21
48.50000000000006
 31
0.0
  0
LINE
  5
48B
330
5D
100
AcDbEntity
  8
1
  6
Continuous
 62
     7
100
AcDbLine
 10
-72.4998310951309
 20
46.50000000000006
 30
0.0
 11
-34.9998310951309
 21
46.50000000000006
 31
0.0
  0
LINE
  5
48C
330
5D
100
AcDbEntity
  8
1
  6
Continuous
 62
     7
100
AcDbLine
 10
72.00016890486904
 20
43.50000000000006
 30
0.0
 11
-71.9998310951309
 21
43.50000000000006
 31
0.0
  0
LINE
  5
48D
330
5D
100
AcDbEntity
  8
1
  6
Continuous
 62
     7
100
AcDbLine
 10
-71.9998310951309
 20
41.00000000000006
 30
0.0
 11
72.00016890486904
 21
41.00000000000006
 31
0.0
  0
LINE
  5
48E
330
5D
100
AcDbEntity
  8
1
  6
Continuous
 62
     7
100
AcDbLine
 10
-71.9998310951309
 20
39.00000000000006
 30
0.0
 11
72.00016890486904
 21
39.00000000000006
 31
0.0
  0
LINE
  5
48F
330
5D
100
AcDbEntity
  8
1
  6
Continuous
 62
     7
100
AcDbLine
 10
-71.9998310951309
 20
36.50000000000006
 30
0.0
 11
72.00016890486904
 21
36.50000000000006
 31
0.0
  0
LINE
  5
490
330
5D
100
AcDbEntity
  8
1
  6
Continuous
 62
     7
100
AcDbLine
 10
-71.9998310951309
 20
34.50000000000006
 30
0.0
 11
72.00016890486904
 21
34.50000000000006
 31
0.0
  0
LINE
  5
491
330
5D
100
AcDbEntity
  8
1
  6
Continuous
 62
     7
100
AcDbLine
 10
-71.9998310951309
 20
32.00000000000006
 30
0.0
 11
72.00016890486904
 21
32.00000000000006
 31
0.0
  0
LINE
  5
492
330
5D
100
AcDbEntity
  8
1
  6
Continuous
 62
     7
100
AcDbLine
 10
-71.9998310951309
 20
30.00000000000006
 30
0.0
 11
72.00016890486904
 21
30.00000000000006
 31
0.0
  0
LINE
  5
493
330
5D
100
AcDbEntity
  8
1
  6
Continuous
 62
     7
100
AcDbLine
 10
-71.9998310951309
 20
27.50000000000006
 30
0.0
 11
72.00016890486904
 21
27.50000000000006
 31
0.0
  0
LINE
  5
494
330
5D
100
AcDbEntity
  8
1
  6
Continuous
 62
     7
100
AcDbLine
 10
-71.9998310951309
 20
25.50000000000006
 30
0.0
 11
72.00016890486904
 21
25.50000000000006
 31
0.0
  0
LINE
  5
495
330
5D
100
AcDbEntity
  8
1
  6
Continuous
 62
     7
100
AcDbLine
 10
-71.9998310951309
 20
23.00000000000006
 30
0.0
 11
72.00016890486904
 21
23.00000000000006
 31
0.0
  0
LINE
  5
496
330
5D
100
AcDbEntity
  8
1
  6
Continuous
 62
     7
100
AcDbLine
 10
-71.9998310951309
 20
21.00000000000006
 30
0.0
 11
72.00016890486904
 21
21.00000000000006
 31
0.0
  0
LINE
  5
497
330
5D
100
AcDbEntity
  8
1
  6
Continuous
 62
     7
100
AcDbLine
 10
-71.9998310951309
 20
18.50000000000006
 30
0.0
 11
72.00016890486904
 21
18.50000000000006
 31
0.0
  0
LINE
  5
498
330
5D
100
AcDbEntity
  8
1
  6
Continuous
 62
     7
100
AcDbLine
 10
-71.9998310951309
 20
16.50000000000006
 30
0.0
 11
72.00016890486904
 21
16.50000000000006
 31
0.0
  0
LINE
  5
499
330
5D
100
AcDbEntity
  8
1
  6
Continuous
 62
     7
100
AcDbLine
 10
-71.9998310951309
 20
14.00000000000006
 30
0.0
 11
72.00016890486904
 21
14.00000000000006
 31
0.0
  0
LINE
  5
49A
330
5D
100
AcDbEntity
  8
1
  6
Continuous
 62
     7
100
AcDbLine
 10
-71.9998310951309
 20
12.00000000000006
 30
0.0
 11
72.00016890486904
 21
12.00000000000006
 31
0.0
  0
LINE
  5
49B
330
5D
100
AcDbEntity
  8
1
  6
Continuous
 62
     7
100
AcDbLine
 10
-71.9998310951309
 20
9.50000000000006
 30
0.0
 11
72.00016890486904
 21
9.50000000000006
 31
0.0
  0
LINE
  5
49C
330
5D
100
AcDbEntity
  8
1
  6
Continuous
 62
     7
100
AcDbLine
 10
-71.9998310951309
 20
7.50000000000006
 30
0.0
 11
72.00016890486904
 21
7.50000000000006
 31
0.0
  0
LINE
  5
49D
330
5D
100
AcDbEntity
  8
1
  6
Continuous
 62
     7
100
AcDbLine
 10
-71.9998310951309
 20
5.0
 30
0.0
 11
72.00016890486904
 21
5.0
 31
0.0
  0
LINE
  5
49E
330
5D
100
AcDbEntity
  8
LC-003-002-----0
  6
Continuous
 62
     7
100
AcDbLine
 10
-71.9998310951309
 20
0.5
 30
0.0
 11
-71.9998310951309
 21
0.5
 31
0.0
  0
LINE
  5
49F
330
5D
100
AcDbEntity
  8
LC-003-002-----0
  6
Continuous
 62
     7
100
AcDbLine
 10
72.00016890486904
 20
0.5
 30
0.0
 11
72.00016890486904
 21
0.5
 31
0.0
  0
LINE
  5
4A0
330
5D
100
AcDbEntity
  8
1
  6
Continuous
 62
     7
100
AcDbLine
 10
-71.9998310951309
 20
0.5
 30
0.0
 11
-53.25834485635626
 21
0.5
 31
0.0
  0
LINE
  5
4A1
330
5D
100
AcDbEntity
  8
1
  6
PHANTOM
 62
     2
100
AcDbLine
 10
0.00016890486904
 20
67.65862692968415
 30
0.0
 11
0.00016890486904
 21
-28.23482445343973
 31
0.0
  0
ARC
  5
4A2
330
5D
100
AcDbEntity
  8
LC-009-002-RND-0
  6
Continuous
 62
     7
100
AcDbCircle
 10
72.00016890486904
 20
3.5
 30
0.0
 40
0.5
100
AcDbArc
 50
-90.0
 51
0.0
  0
ARC
  5
4A3
330
5D
100
AcDbEntity
  8
LC-009-002-RND-0
  6
Continuous
 62
     7
100
AcDbCircle
 10
72.00016890486904
 20
12.50000000000006
 30
0.0
 40
0.5
100
AcDbArc
 50
-90.0
 51
0.0
  0
ARC
  5
4A4
330
5D
100
AcDbEntity
  8
LC-009-002-RND-0
  6
Continuous
 62
     7
100
AcDbCircle
 10
72.00016890486904
 20
8.00000000000006
 30
0.0
 40
0.5
100
AcDbArc
 50
-90.0
 51
0.0
  0
ARC
  5
4A5
330
5D
100
AcDbEntity
  8
LC-009-002-RND-0
  6
Continuous
 62
     7
100
AcDbCircle
 10
72.00016890486904
 20
17.00000000000006
 30
0.0
 40
0.5
100
AcDbArc
 50
-90.0
 51
0.0
  0
ARC
  5
4A6
330
5D
100
AcDbEntity
  8
LC-009-002-RND-0
  6
Continuous
 62
     7
100
AcDbCircle
 10
72.00016890486904
 20
21.50000000000006
 30
0.0
 40
0.5
100
AcDbArc
 50
-90.0
 51
0.0
  0
ARC
  5
4A7
330
5D
100
AcDbEntity
  8
LC-009-002-RND-0
  6
Continuous
 62
     7
100
AcDbCircle
 10
72.00016890486904
 20
26.00000000000006
 30
0.0
 40
0.5
100
AcDbArc
 50
-90.0
 51
0.0
  0
ARC
  5
4A8
330
5D
100
AcDbEntity
  8
LC-009-002-RND-0
  6
Continuous
 62
     7
100
AcDbCircle
 10
72.00016890486904
 20
30.50000000000006
 30
0.0
 40
0.5
100
AcDbArc
 50
-90.0
 51
0.0
  0
ARC
  5
4A9
330
5D
100
AcDbEntity
  8
LC-009-002-RND-0
  6
Continuous
 62
     7
100
AcDbCircle
 10
72.00016890486904
 20
35.00000000000006
 30
0.0
 40
0.5
100
AcDbArc
 50
-90.0
 51
0.0
  0
ARC
  5
4AA
330
5D
100
AcDbEntity
  8
LC-009-002-RND-0
  6
Continuous
 62
     7
100
AcDbCircle
 10
72.00016890486904
 20
39.50000000000006
 30
0.0
 40
0.5
100
AcDbArc
 50
-90.0
 51
0.0
  0
ARC
  5
4AB
330
5D
100
AcDbEntity
  8
LC-009-002-RND-0
  6
Continuous
 62
     7
100
AcDbCircle
 10
72.00016890486904
 20
44.00000000000006
 30
0.0
 40
0.5
100
AcDbArc
 50
-90.0
 51
0.0
  0
ARC
  5
4AC
330
5D
100
AcDbEntity
  8
LC-009-002-RND-0
  6
Continuous
 62
     7
100
AcDbCircle
 10
72.00016890486904
 20
40.50000000000006
 30
0.0
 40
0.5
100
AcDbArc
 50
0.0
 51
90.0
  0
ARC
  5
4AD
330
5D
100
AcDbEntity
  8
LC-009-002-RND-0
  6
Continuous
 62
     7
100
AcDbCircle
 10
72.00016890486904
 20
36.00000000000006
 30
0.0
 40
0.5
100
AcDbArc
 50
0.0
 51
90.0
  0
ARC
  5
4AE
330
5D
100
AcDbEntity
  8
LC-009-002-RND-0
  6
Continuous
 62
     7
100
AcDbCircle
 10
72.00016890486904
 20
31.50000000000006
 30
0.0
 40
0.5
100
AcDbArc
 50
0.0
 51
90.0
  0
ARC
  5
4AF
330
5D
100
AcDbEntity
  8
LC-009-002-RND-0
  6
Continuous
 62
     7
100
AcDbCircle
 10
72.00016890486904
 20
27.00000000000006
 30
0.0
 40
0.5
100
AcDbArc
 50
0.0
 51
90.0
  0
ARC
  5
4B0
330
5D
100
AcDbEntity
  8
LC-009-002-RND-0
  6
Continuous
 62
     7
100
AcDbCircle
 10
72.00016890486904
 20
22.50000000000006
 30
0.0
 40
0.5
100
AcDbArc
 50
0.0
 51
90.0
  0
ARC
  5
4B1
330
5D
100
AcDbEntity
  8
LC-009-002-RND-0
  6
Continuous
 62
     7
100
AcDbCircle
 10
72.00016890486904
 20
18.00000000000006
 30
0.0
 40
0.5
100
AcDbArc
 50
0.0
 51
90.0
  0
ARC
  5
4B2
330
5D
100
AcDbEntity
  8
LC-009-002-RND-0
  6
Continuous
 62
     7
100
AcDbCircle
 10
72.00016890486904
 20
13.50000000000006
 30
0.0
 40
0.5
100
AcDbArc
 50
0.0
 51
90.0
  0
ARC
  5
4B3
330
5D
100
AcDbEntity
  8
LC-009-002-RND-0
  6
Continuous
 62
     7
100
AcDbCircle
 10
72.00016890486904
 20
9.00000000000006
 30
0.0
 40
0.5
100
AcDbArc
 50
0.0
 51
90.0
  0
ARC
  5
4B4
330
5D
100
AcDbEntity
  8
LC-009-002-RND-0
  6
Continuous
 62
     7
100
AcDbCircle
 10
72.00016890486904
 20
4.5
 30
0.0
 40
0.5
100
AcDbArc
 50
0.0
 51
90.0
  0
ARC
  5
4B5
330
5D
100
AcDbEntity
  8
LC-003-002-----0
  6
Continuous
 62
     7
100
AcDbCircle
 10
72.00016890486904
 20
42.25000000000006
 30
0.0
 40
1.25
100
AcDbArc
 50
90.0
 51
-90.0
  0
ARC
  5
4B6
330
5D
100
AcDbEntity
  8
LC-003-002-----0
  6
Continuous
 62
     7
100
AcDbCircle
 10
72.00016890486904
 20
37.75000000000006
 30
0.0
 40
1.25
100
AcDbArc
 50
90.0
 51
-90.0
  0
ARC
  5
4B7
330
5D
100
AcDbEntity
  8
LC-003-002-----0
  6
Continuous
 62
     7
100
AcDbCircle
 10
72.00016890486904
 20
33.25000000000006
 30
0.0
 40
1.25
100
AcDbArc
 50
90.0
 51
-90.0
  0
ARC
  5
4B8
330
5D
100
AcDbEntity
  8
LC-003-002-----0
  6
Continuous
 62
     7
100
AcDbCircle
 10
72.00016890486904
 20
28.75000000000006
 30
0.0
 40
1.25
100
AcDbArc
 50
90.0
 51
-90.0
  0
ARC
  5
4B9
330
5D
100
AcDbEntity
  8
LC-003-002-----0
  6
Continuous
 62
     7
100
AcDbCircle
 10
72.00016890486904
 20
24.25000000000006
 30
0.0
 40
1.25
100
AcDbArc
 50
90.0
 51
-90.0
  0
ARC
  5
4BA
330
5D
100
AcDbEntity
  8
LC-003-002-----0
  6
Continuous
 62
     7
100
AcDbCircle
 10
72.00016890486904
 20
19.75000000000006
 30
0.0
 40
1.25
100
AcDbArc
 50
90.0
 51
-90.0
  0
ARC
  5
4BB
330
5D
100
AcDbEntity
  8
LC-003-002-----0
  6
Continuous
 62
     7
100
AcDbCircle
 10
72.00016890486904
 20
15.25000000000006
 30
0.0
 40
1.25
100
AcDbArc
 50
90.0
 51
-90.0
  0
ARC
  5
4BC
330
5D
100
AcDbEntity
  8
LC-003-002-----0
  6
Continuous
 62
     7
100
AcDbCircle
 10
72.00016890486904
 20
10.75000000000006
 30
0.0
 40
1.25
100
AcDbArc
 50
90.0
 51
-90.0
  0
ARC
  5
4BD
330
5D
100
AcDbEntity
  8
LC-003-002-----0
  6
Continuous
 62
     7
100
AcDbCircle
 10
72.00016890486904
 20
6.25
 30
0.0
 40
1.25000000000006
100
AcDbArc
 50
90.0
 51
-90.0
  0
ARC
  5
4BE
330
5D
100
AcDbEntity
  8
LC-009-002-RND-0
  6
Continuous
 62
     7
100
AcDbCircle
 10
-71.9998310951309
 20
3.5
 30
0.0
 40
0.5
100
AcDbArc
 50
180.0
 51
-90.0
  0
ARC
  5
4BF
330
5D
100
AcDbEntity
  8
LC-009-002-RND-0
  6
Continuous
 62
     7
100
AcDbCircle
 10
-71.9998310951309
 20
12.50000000000006
 30
0.0
 40
0.5
100
AcDbArc
 50
180.0
 51
-90.0
  0
ARC
  5
4C0
330
5D
100
AcDbEntity
  8
LC-009-002-RND-0
  6
Continuous
 62
     7
100
AcDbCircle
 10
-71.9998310951309
 20
8.00000000000006
 30
0.0
 40
0.5
100
AcDbArc
 50
180.0
 51
-90.0
  0
ARC
  5
4C1
330
5D
100
AcDbEntity
  8
LC-009-002-RND-0
  6
Continuous
 62
     7
100
AcDbCircle
 10
-71.9998310951309
 20
17.00000000000006
 30
0.0
 40
0.5
100
AcDbArc
 50
180.0
 51
-90.0
  0
ARC
  5
4C2
330
5D
100
AcDbEntity
  8
LC-009-002-RND-0
  6
Continuous
 62
     7
100
AcDbCircle
 10
-71.9998310951309
 20
21.50000000000006
 30
0.0
 40
0.5
100
AcDbArc
 50
180.0
 51
-90.0
  0
ARC
  5
4C3
330
5D
100
AcDbEntity
  8
LC-009-002-RND-0
  6
Continuous
 62
     7
100
AcDbCircle
 10
-71.9998310951309
 20
26.00000000000006
 30
0.0
 40
0.5
100
AcDbArc
 50
180.0
 51
-90.0
  0
ARC
  5
4C4
330
5D
100
AcDbEntity
  8
LC-009-002-RND-0
  6
Continuous
 62
     7
100
AcDbCircle
 10
-71.9998310951309
 20
30.50000000000006
 30
0.0
 40
0.5
100
AcDbArc
 50
180.0
 51
-90.0
  0
ARC
  5
4C5
330
5D
100
AcDbEntity
  8
LC-009-002-RND-0
  6
Continuous
 62
     7
100
AcDbCircle
 10
-71.9998310951309
 20
35.00000000000006
 30
0.0
 40
0.5
100
AcDbArc
 50
180.0
 51
-90.0
  0
ARC
  5
4C6
330
5D
100
AcDbEntity
  8
LC-009-002-RND-0
  6
Continuous
 62
     7
100
AcDbCircle
 10
-71.9998310951309
 20
39.50000000000006
 30
0.0
 40
0.5
100
AcDbArc
 50
180.0
 51
-90.0
  0
ARC
  5
4C7
330
5D
100
AcDbEntity
  8
LC-009-002-RND-0
  6
Continuous
 62
     7
100
AcDbCircle
 10
-71.9998310951309
 20
44.00000000000006
 30
0.0
 40
0.5
100
AcDbArc
 50
180.0
 51
-90.0
  0
ARC
  5
4C8
330
5D
100
AcDbEntity
  8
LC-009-002-RND-0
  6
Continuous
 62
     7
100
AcDbCircle
 10
-71.9998310951309
 20
40.50000000000006
 30
0.0
 40
0.5
100
AcDbArc
 50
90.0
 51
180.0
  0
ARC
  5
4C9
330
5D
100
AcDbEntity
  8
LC-009-002-RND-0
  6
Continuous
 62
     7
100
AcDbCircle
 10
-71.9998310951309
 20
36.00000000000006
 30
0.0
 40
0.5
100
AcDbArc
 50
90.0
 51
180.0
  0
ARC
  5
4CA
330
5D
100
AcDbEntity
  8
LC-009-002-RND-0
  6
Continuous
 62
     7
100
AcDbCircle
 10
-71.9998310951309
 20
31.50000000000006
 30
0.0
 40
0.4999999999999964
100
AcDbArc
 50
90.0
 51
180.0
  0
ARC
  5
4CB
330
5D
100
AcDbEntity
  8
LC-009-002-RND-0
  6
Continuous
 62
     7
100
AcDbCircle
 10
-71.9998310951309
 20
27.00000000000006
 30
0.0
 40
0.5
100
AcDbArc
 50
90.0
 51
180.0
  0
ARC
  5
4CC
330
5D
100
AcDbEntity
  8
LC-009-002-RND-0
  6
Continuous
 62
     7
100
AcDbCircle
 10
-71.9998310951309
 20
22.50000000000006
 30
0.0
 40
0.5
100
AcDbArc
 50
90.0
 51
180.0
  0
ARC
  5
4CD
330
5D
100
AcDbEntity
  8
LC-009-002-RND-0
  6
Continuous
 62
     7
100
AcDbCircle
 10
-71.9998310951309
 20
18.00000000000006
 30
0.0
 40
0.5
100
AcDbArc
 50
90.0
 51
180.0
  0
ARC
  5
4CE
330
5D
100
AcDbEntity
  8
LC-009-002-RND-0
  6
Continuous
 62
     7
100
AcDbCircle
 10
-71.9998310951309
 20
13.50000000000006
 30
0.0
 40
0.5
100
AcDbArc
 50
90.0
 51
180.0
  0
ARC
  5
4CF
330
5D
100
AcDbEntity
  8
LC-009-002-RND-0
  6
Continuous
 62
     7
100
AcDbCircle
 10
-71.9998310951309
 20
9.00000000000006
 30
0.0
 40
0.5
100
AcDbArc
 50
90.0
 51
180.0
  0
ARC
  5
4D0
330
5D
100
AcDbEntity
  8
LC-009-002-RND-0
  6
Continuous
 62
     7
100
AcDbCircle
 10
-71.9998310951309
 20
4.5
 30
0.0
 40
0.5
100
AcDbArc
 50
90.0
 51
180.0
  0
ARC
  5
4D1
330
5D
100
AcDbEntity
  8
LC-003-002-----0
  6
Continuous
 62
     7
100
AcDbCircle
 10
-71.9998310951309
 20
42.25000000000006
 30
0.0
 40
1.25
100
AcDbArc
 50
-90.0
 51
90.0
  0
ARC
  5
4D2
330
5D
100
AcDbEntity
  8
LC-003-002-----0
  6
Continuous
 62
     7
100
AcDbCircle
 10
-71.9998310951309
 20
37.75000000000006
 30
0.0
 40
1.25
100
AcDbArc
 50
-90.0
 51
90.0
  0
ARC
  5
4D3
330
5D
100
AcDbEntity
  8
LC-003-002-----0
  6
Continuous
 62
     7
100
AcDbCircle
 10
-71.9998310951309
 20
33.25000000000006
 30
0.0
 40
1.25
100
AcDbArc
 50
-90.0
 51
90.0
  0
ARC
  5
4D4
330
5D
100
AcDbEntity
  8
LC-003-002-----0
  6
Continuous
 62
     7
100
AcDbCircle
 10
-71.9998310951309
 20
28.75000000000006
 30
0.0
 40
1.25
100
AcDbArc
 50
-90.0
 51
90.0
  0
ARC
  5
4D5
330
5D
100
AcDbEntity
  8
LC-003-002-----0
  6
Continuous
 62
     7
100
AcDbCircle
 10
-71.9998310951309
 20
24.25000000000006
 30
0.0
 40
1.25
100
AcDbArc
 50
-90.0
 51
90.0
  0
ARC
  5
4D6
330
5D
100
AcDbEntity
  8
LC-003-002-----0
  6
Continuous
 62
     7
100
AcDbCircle
 10
-71.9998310951309
 20
19.75000000000006
 30
0.0
 40
1.25
100
AcDbArc
 50
-90.0
 51
90.0
  0
ARC
  5
4D7
330
5D
100
AcDbEntity
  8
LC-003-002-----0
  6
Continuous
 62
     7
100
AcDbCircle
 10
-71.9998310951309
 20
15.25000000000006
 30
0.0
 40
1.25
100
AcDbArc
 50
-90.0
 51
90.0
  0
ARC
  5
4D8
330
5D
100
AcDbEntity
  8
LC-003-002-----0
  6
Continuous
 62
     7
100
AcDbCircle
 10
-71.9998310951309
 20
10.75000000000006
 30
0.0
 40
1.249999999999998
100
AcDbArc
 50
-90.0
 51
90.0
  0
ARC
  5
4D9
330
5D
100
AcDbEntity
  8
LC-003-002-----0
  6
Continuous
 62
     7
100
AcDbCircle
 10
-71.9998310951309
 20
6.25
 30
0.0
 40
1.250000000000002
100
AcDbArc
 50
-90.0
 51
90.0
  0
ARC
  5
4DA
330
5D
100
AcDbEntity
  8
LC-009-002-RND-0
  6
Continuous
 62
     7
100
AcDbCircle
 10
-71.9998310951309
 20
0.0
 30
0.0
 40
0.5
100
AcDbArc
 50
90.0
 51
180.0
  0
ARC
  5
4DB
330
5D
100
AcDbEntity
  8
LC-003-002-----0
  6
Continuous
 62
     7
100
AcDbCircle
 10
-71.9998310951309
 20
1.75
 30
0.0
 40
1.25
100
AcDbArc
 50
-90.0
 51
90.0
  0
ARC
  5
4DC
330
5D
100
AcDbEntity
  8
LC-009-002-RND-0
  6
Continuous
 62
     7
100
AcDbCircle
 10
72.00016890486904
 20
0.0
 30
0.0
 40
0.5
100
AcDbArc
 50
0.0
 51
90.0
  0
ARC
  5
4DD
330
5D
100
AcDbEntity
  8
LC-003-002-----0
  6
Continuous
 62
     7
100
AcDbCircle
 10
72.00016890486904
 20
1.75
 30
0.0
 40
1.25
100
AcDbArc
 50
90.0
 51
-90.0
  0
ENDBLK
  5
5F
330
5D
100
AcDbEntity
  8
0
100
AcDbBlockEnd
  0
BLOCK
  5
62
330
60
100
AcDbEntity
  8
0
100
AcDbBlockBegin
  2
HL_66_0_Aufsatzrahmen
 70
     0
 71
     0
 10
508.3610636957457
 20
-1311.16690953037
 30
0.0
  3
HL_66_0_Aufsatzrahmen
  1

  0
INSERT
  5
61
330
60
100
AcDbEntity
  8
1
100
AcDbBlockReference
  2
062B_2E_Aufsatzrahmen
 10
442.6571438671673
 20
-1386.613983897322
 30
0.0
  0
ENDBLK
  5
63
330
60
100
AcDbEntity
  8
0
100
AcDbBlockEnd
  0
BLOCK
  5
66
330
64
100
AcDbEntity
  8
0
100
AcDbBlockBegin
  2
HL_62BH_1_DN110_Dachablauf
 70
     0
 71
     0
 10
512.286310517427
 20
-3.236469
 30
0.0
  3
HL_62BH_1_DN110_Dachablauf
  1

  0
INSERT
  5
65
330
64
100
AcDbEntity
  8
0
100
AcDbBlockReference
  2
HL_66_0_Aufsatzrahmen
 10
508.3610636957457
 20
-1311.16690953037
 30
0.0
  0
ENDBLK
  5
67
330
64
100
AcDbEntity
  8
0
100
AcDbBlockEnd
  0
BLOCK
  5
4E6
330
4DE
100
AcDbEntity
  8
0
100
AcDbBlockBegin
  2
*D8
 70
     1
 71
     0
 10
0.0
 20
0.0
 30
0.0
  3
*D8
  1

  0
LINE
  5
4DF
330
4DE
100
AcDbEntity
  8
1
  6
Continuous
 62
     4
100
AcDbLine
 10
95.3496086210941
 20
-464.0083303396908
 30
0.0
 11
95.3496086210941
 21
-154.0083303396908
 31
0.0
  0
LINE
  5
4E0
330
4DE
100
AcDbEntity
  8
1
  6
Continuous
 62
     4
100
AcDbLine
 10
52.95192503207522
 20
-154.0083303396908
 30
0.0
 11
97.3496086210941
 21
-154.0083303396908
 31
0.0
  0
LINE
  5
4E1
330
4DE
100
AcDbEntity
  8
1
  6
Continuous
 62
     4
100
AcDbLine
 10
41.99991403207513
 20
-464.0083303396908
 30
0.0
 11
97.3496086210941
 21
-464.0083303396908
 31
0.0
  0
SOLID
  5
4E2
330
4DE
100
AcDbEntity
  8
1
 62
     4
100
AcDbTrace
 10
93.76977865004535
 20
-452.0083303396908
 30
0.0
 11
96.92943859214286
 21
-452.0083303396908
 31
0.0
 12
95.3496086210941
 22
-464.0083303396908
 32
0.0
 13
95.3496086210941
 23
-464.0083303396908
 33
0.0
  0
SOLID
  5
4E3
330
4DE
100
AcDbEntity
  8
1
 62
     4
100
AcDbTrace
 10
96.92943859214286
 20
-166.0083303396908
 30
0.0
 11
93.76977865004535
 21
-166.0083303396908
 31
0.0
 12
95.3496086210941
 22
-154.0083303396908
 32
0.0
 13
95.3496086210941
 23
-154.0083303396908
 33
0.0
  0
MTEXT
  5
4E5
330
4DE
100
AcDbEntity
  8
1
 62
     1
100
AcDbMText
 10
93.3496086210941
 20
-319.353170347152
 30
0.0
 40
12.0
 41
0.0
 71
     7
 72
     1
  1
310
  7
CONVERTER_11
 11
0.0
 21
1.0
 31
0.0
 73
     1
 44
0.60024009603842
  0
ENDBLK
  5
4E7
330
4DE
100
AcDbEntity
  8
0
100
AcDbBlockEnd
  0
BLOCK
  5
4F2
330
4EA
100
AcDbEntity
  8
0
100
AcDbBlockBegin
  2
*D9
 70
     1
 71
     0
 10
0.0
 20
0.0
 30
0.0
  3
*D9
  1

  0
LINE
  5
4EB
330
4EA
100
AcDbEntity
  8
1
  6
Continuous
 62
     4
100
AcDbLine
 10
-73.5
 20
-76.653278387302
 30
0.0
 11
-147.927334662055
 21
-76.653278387302
 31
0.0
  0
LINE
  5
4EC
330
4EA
100
AcDbEntity
  8
1
  6
Continuous
 62
     4
100
AcDbLine
 10
73.5
 20
-76.653278387302
 30
0.0
 11
-73.5
 21
-76.653278387302
 31
0.0
  0
LINE
  5
4ED
330
4EA
100
AcDbEntity
  8
1
  6
Continuous
 62
     4
100
AcDbLine
 10
-73.5
 20
-47.18575713093563
 30
0.0
 11
-73.5
 21
-78.653278387302
 31
0.0
  0
LINE
  5
4EE
330
4EA
100
AcDbEntity
  8
1
  6
Continuous
 62
     4
100
AcDbLine
 10
73.5
 20
-47.18575713093563
 30
0.0
 11
73.5
 21
-78.653278387302
 31
0.0
  0
SOLID
  5
4EF
330
4EA
100
AcDbEntity
  8
1
 62
     4
100
AcDbTrace
 10
59.5
 20
-78.49641335352554
 30
0.0
 11
59.5
 21
-74.81014342107845
 31
0.0
 12
73.5
 22
-76.653278387302
 32
0.0
 13
73.5
 23
-76.653278387302
 33
0.0
  0
SOLID
  5
4F0
330
4EA
100
AcDbEntity
  8
1
 62
     4
100
AcDbTrace
 10
-59.5
 20
-74.81014342107845
 30
0.0
 11
-59.5
 21
-78.49641335352554
 31
0.0
 12
-73.5
 22
-76.653278387302
 32
0.0
 13
-73.5
 23
-76.653278387302
 33
0.0
  0
MTEXT
  5
4F1
330
4EA
100
AcDbEntity
  8
1
 62
     1
100
AcDbMText
 10
-154.0873346619875
 20
-74.65333404391258
 30
0.0
 40
14.0
 41
0.0
 71
     7
 72
     1
  1
\C1;\U+00d8\C1;147
  7
CONVERTER_11
 11
0.9999999999970619
 21
2.424068405545306E-6
 31
0.0
 73
     1
 44
0.60024009603842
  0
ENDBLK
  5
4F3
330
4EA
100
AcDbEntity
  8
0
100
AcDbBlockEnd
  0
BLOCK
  5
4FD
330
4F6
100
AcDbEntity
  8
0
100
AcDbBlockBegin
  2
*D10
 70
     1
 71
     0
 10
0.0
 20
0.0
 30
0.0
  3
*D10
  1

  0
LINE
  5
4F7
330
4F6
100
AcDbEntity
  8
1
  6
Continuous
 62
     4
100
AcDbLine
 10
55.00007109642382
 20
-543.9529337030244
 30
0.0
 11
-54.99992890322737
 21
-543.953084775715
 31
0.0
  0
LINE
  5
4F8
330
4F6
100
AcDbEntity
  8
1
  6
Continuous
 62
     4
100
AcDbLine
 10
-54.99997250254592
 20
-512.2072740314445
 30
0.0
 11
-54.99992615645118
 21
-545.953084775713
 31
0.0
  0
LINE
  5
4F9
330
4F6
100
AcDbEntity
  8
1
  6
Continuous
 62
     4
100
AcDbLine
 10
55.00002734934026
 20
-512.099531370463
 30
0.0
 11
55.00007384320001
 21
-545.9529337030225
 31
0.0
  0
SOLID
  5
4FA
330
4F6
100
AcDbEntity
  8
1
 62
     4
100
AcDbTrace
 10
41.00007362777654
 20
-545.7960878966788
 30
0.0
 11
41.00006856509749
 21
-542.1098179642353
 31
0.0
 12
55.00007109642382
 22
-543.9529337030244
 32
0.0
 13
55.00007109642382
 23
-543.9529337030244
 33
0.0
  0
SOLID
  5
4FB
330
4F6
100
AcDbEntity
  8
1
 62
     4
100
AcDbTrace
 10
-40.99993143458011
 20
-542.1099305820605
 30
0.0
 11
-40.99992637190105
 21
-545.7962005145041
 31
0.0
 12
-54.99992890322737
 22
-543.953084775715
 32
0.0
 13
-54.99992890322737
 23
-543.953084775715
 33
0.0
  0
MTEXT
  5
4FC
330
4F6
100
AcDbEntity
  8
1
 62
     1
100
AcDbMText
 10
-17.16153172508578
 20
-541.9530569325287
 30
0.0
 40
14.0
 41
0.0
 71
     7
 72
     1
  1
\C1;DN\C1;110
  7
CONVERTER_11
 11
0.9999999999970619
 21
2.424068405545306E-6
 31
0.0
 73
     1
 44
0.60024009603842
  0
ENDBLK
  5
4FE
330
4F6
100
AcDbEntity
  8
0
100
AcDbBlockEnd
  0
BLOCK
  5
508
330
501
100
AcDbEntity
  8
0
100
AcDbBlockBegin
  2
*D11
 70
     1
 71
     0
 10
0.0
 20
0.0
 30
0.0
  3
*D11
  1

  0
LINE
  5
502
330
501
100
AcDbEntity
  8
1
  6
Continuous
 62
     4
100
AcDbLine
 10
-177.0
 20
96.194292433471
 30
0.0
 11
177.0000000000001
 21
96.194292433471
 31
0.0
  0
LINE
  5
503
330
501
100
AcDbEntity
  8
1
  6
Continuous
 62
     4
100
AcDbLine
 10
-177.0
 20
-5.236469
 30
0.0
 11
-177.0
 21
98.194292433471
 31
0.0
  0
LINE
  5
504
330
501
100
AcDbEntity
  8
1
  6
Continuous
 62
     4
100
AcDbLine
 10
177.0000000000001
 20
-5.236469
 30
0.0
 11
177.0000000000001
 21
98.194292433471
 31
0.0
  0
SOLID
  5
505
330
501
100
AcDbEntity
  8
1
 62
     4
100
AcDbTrace
 10
-163.0
 20
98.03742739969455
 30
0.0
 11
-163.0
 21
94.35115746724746
 31
0.0
 12
-177.0
 22
96.194292433471
 32
0.0
 13
-177.0
 23
96.194292433471
 33
0.0
  0
SOLID
  5
506
330
501
100
AcDbEntity
  8
1
 62
     4
100
AcDbTrace
 10
163.0000000000001
 20
94.35115746724746
 30
0.0
 11
163.0000000000001
 21
98.03742739969455
 31
0.0
 12
177.0000000000001
 22
96.194292433471
 32
0.0
 13
177.0000000000001
 23
96.194292433471
 33
0.0
  0
MTEXT
  5
507
330
501
100
AcDbEntity
  8
1
 62
     1
100
AcDbMText
 10
-30.70507523641351
 20
98.19423677686042
 30
0.0
 40
14.0
 41
0.0
 71
     7
 72
     1
  1
\C1;\U+00d8\C1;354
  7
CONVERTER_11
 11
0.9999999999970619
 21
2.424068405545306E-6
 31
0.0
 73
     1
 44
0.60024009603842
  0
ENDBLK
  5
509
330
501
100
AcDbEntity
  8
0
100
AcDbBlockEnd
  0
BLOCK
  5
513
330
50C
100
AcDbEntity
  8
0
100
AcDbBlockBegin
  2
*D12
 70
     1
 71
     0
 10
0.0
 20
0.0
 30
0.0
  3
*D12
  1

  0
LINE
  5
50D
330
50C
100
AcDbEntity
  8
1
  6
Continuous
 62
     4
100
AcDbLine
 10
-231.995428
 20
136.48972161057
 30
0.0
 11
231.9954280000001
 21
136.48972161057
 31
0.0
  0
LINE
  5
50E
330
50C
100
AcDbEntity
  8
1
  6
Continuous
 62
     4
100
AcDbLine
 10
-231.995428
 20
0.0
 30
0.0
 11
-231.995428
 21
138.48972161057
 31
0.0
  0
LINE
  5
50F
330
50C
100
AcDbEntity
  8
1
  6
Continuous
 62
     4
100
AcDbLine
 10
231.9954280000001
 20
0.0
 30
0.0
 11
231.9954280000001
 21
138.48972161057
 31
0.0
  0
SOLID
  5
510
330
50C
100
AcDbEntity
  8
1
 62
     4
100
AcDbTrace
 10
-217.995428
 20
138.3328565767935
 30
0.0
 11
-217.995428
 21
134.6465866443465
 31
0.0
 12
-231.995428
 22
136.48972161057
 32
0.0
 13
-231.995428
 23
136.48972161057
 33
0.0
  0
SOLID
  5
511
330
50C
100
AcDbEntity
  8
1
 62
     4
100
AcDbTrace
 10
217.9954280000001
 20
134.6465866443465
 30
0.0
 11
217.9954280000001
 21
138.3328565767935
 31
0.0
 12
231.9954280000001
 22
136.48972161057
 32
0.0
 13
231.9954280000001
 23
136.48972161057
 33
0.0
  0
MTEXT
  5
512
330
50C
100
AcDbEntity
  8
1
 62
     1
100
AcDbMText
 10
-39.95557767865
 20
138.48972161057
 30
0.0
 40
14.0
 41
0.0
 71
     7
 72
     1
  1
500x500
  7
CONVERTER_11
 11
0.9999999999970619
 21
2.424068405545306E-6
 31
0.0
 73
     1
 44
0.60024009603842
  0
ENDBLK
  5
514
330
50C
100
AcDbEntity
  8
0
100
AcDbBlockEnd
  0
BLOCK
  5
51E
330
517
100
AcDbEntity
  8
0
100
AcDbBlockBegin
  2
*D13
 70
     1
 71
     0
 10
0.0
 20
0.0
 30
0.0
  3
*D13
  1

  0
LINE
  5
518
330
517
100
AcDbEntity
  8
1
  6
Continuous
 62
     4
100
AcDbLine
 10
166.290163188702
 20
-464.0083303396908
 30
0.0
 11
166.290163188702
 21
-47.1857571309356
 31
0.0
  0
LINE
  5
519
330
517
100
AcDbEntity
  8
1
  6
Continuous
 62
     4
100
AcDbLine
 10
77.75
 20
-47.1857571309356
 30
0.0
 11
168.290163188702
 21
-47.1857571309356
 31
0.0
  0
LINE
  5
51A
330
517
100
AcDbEntity
  8
1
  6
Continuous
 62
     4
100
AcDbLine
 10
43.7941430320752
 20
-464.0083303396908
 30
0.0
 11
168.290163188702
 21
-464.0083303396908
 31
0.0
  0
SOLID
  5
51B
330
517
100
AcDbEntity
  8
1
 62
     4
100
AcDbTrace
 10
164.4470282224785
 20
-450.0083303396908
 30
0.0
 11
168.1332981549255
 21
-450.0083303396908
 31
0.0
 12
166.290163188702
 22
-464.0083303396908
 32
0.0
 13
166.290163188702
 23
-464.0083303396908
 33
0.0
  0
SOLID
  5
51C
330
517
100
AcDbEntity
  8
1
 62
     4
100
AcDbTrace
 10
168.1332981549255
 20
-61.1857571309356
 30
0.0
 11
164.4470282224785
 21
-61.1857571309356
 31
0.0
 12
166.290163188702
 22
-47.1857571309356
 32
0.0
 13
166.290163188702
 23
-47.1857571309356
 33
0.0
  0
MTEXT
  5
51D
330
517
100
AcDbEntity
  8
1
 62
     1
100
AcDbMText
 10
164.290163188702
 20
-277.130275543454
 30
0.0
 40
14.0
 41
0.0
 71
     7
 72
     1
  1
415
  7
CONVERTER_11
 11
0.0
 21
1.0
 31
0.0
 73
     1
 44
0.60024009603842
  0
ENDBLK
  5
51F
330
517
100
AcDbEntity
  8
0
100
AcDbBlockEnd
  0
BLOCK
  5
529
330
522
100
AcDbEntity
  8
0
100
AcDbBlockBegin
  2
*D14
 70
     1
 71
     0
 10
0.0
 20
0.0
 30
0.0
  3
*D14
  1

  0
LINE
  5
523
330
522
100
AcDbEntity
  8
1
  6
Continuous
 62
     4
100
AcDbLine
 10
245.901400576595
 20
-464.0083303396908
 30
0.0
 11
245.901400576595
 21
-3.236469
 31
0.0
  0
LINE
  5
524
330
522
100
AcDbEntity
  8
1
  6
Continuous
 62
     4
100
AcDbLine
 10
231.9954280000001
 20
-3.236469
 30
0.0
 11
247.901400576595
 21
-3.236469
 31
0.0
  0
LINE
  5
525
330
522
100
AcDbEntity
  8
1
  6
Continuous
 62
     4
100
AcDbLine
 10
43.7941430320752
 20
-464.0083303396908
 30
0.0
 11
247.901400576595
 21
-464.0083303396908
 31
0.0
  0
SOLID
  5
526
330
522
100
AcDbEntity
  8
1
 62
     4
100
AcDbTrace
 10
244.0582656103714
 20
-450.0083303396908
 30
0.0
 11
247.7445355428185
 21
-450.0083303396908
 31
0.0
 12
245.901400576595
 22
-464.0083303396908
 32
0.0
 13
245.901400576595
 23
-464.0083303396908
 33
0.0
  0
SOLID
  5
527
330
522
100
AcDbEntity
  8
1
 62
     4
100
AcDbTrace
 10
247.7445355428185
 20
-17.236469
 30
0.0
 11
244.0582656103714
 21
-17.236469
 31
0.0
 12
245.901400576595
 22
-3.236469
 32
0.0
 13
245.901400576595
 23
-3.236469
 33
0.0
  0
MTEXT
  5
528
330
522
100
AcDbEntity
  8
1
 62
     1
100
AcDbMText
 10
243.901400576595
 20
-255.269611863603
 30
0.0
 40
14.0
 41
0.0
 71
     7
 72
     1
  1
460
  7
CONVERTER_11
 11
0.0
 21
1.0
 31
0.0
 73
     1
 44
0.60024009603842
  0
ENDBLK
  5
52A
330
522
100
AcDbEntity
  8
0
100
AcDbBlockEnd
  0
ENDSEC
  0
SECTION
  2
ENTITIES
  0
INSERT
  5
68
330
1F
100
AcDbEntity
  8
0
100
AcDbBlockReference
  2
Draufsicht
 10
-182.1042262227247
 20
-1039.185757130937
 30
0.0
  0
INSERT
  5
69
330
1F
100
AcDbEntity
  8
1
100
AcDbBlockReference
  2
Schraube
 10
-176.9500377851109
 20
173.2622577632319
 30
0.0
  0
INSERT
  5
6A
330
1F
100
AcDbEntity
  8
0
100
AcDbBlockReference
  2
TOP__1
 10
254.218635433561
 20
-433.5098803396908
 30
0.0
  0
INSERT
  5
6B
330
1F
100
AcDbEntity
  8
0
100
AcDbBlockReference
  2
TOP__2
 10
0.00000000000004
 20
-159.9823824999999
 30
0.0
  0
INSERT
  5
6C
330
1F
100
AcDbEntity
  8
0
100
AcDbBlockReference
  2
HL_62BH_1_DN110_Dachablauf
 10
512.286310517427
 20
-3.236469
 30
0.0
  0
DIMENSION
  5
4E9
330
1F
100
AcDbEntity
  8
1
100
AcDbDimension
  2
*D8
 10
95.3496086210941
 20
-464.0083303396908
 30
0.0
 11
87.3496086210941
 21
-306.753170347152
 31
0.0
 70
    32
  1
<>
 71
     5
 42
-1.0
 53
90.0
  3
ME10_DIM_10
100
AcDbAlignedDimension
 13
52.95192503207522
 23
-154.0083303396908
 33
0.0
 14
41.99991403207514
 24
-464.0083303396908
 34
0.0
 50
90.0
100
AcDbRotatedDimension
  0
DIMENSION
  5
4F5
330
1F
100
AcDbEntity
  8
1
100
AcDbDimension
  2
*D9
 10
73.5
 20
-76.653278387302
 30
0.0
 11
-124.827334662055
 21
-67.653278387302
 31
0.0
 70
    32
  1
<>
 71
     5
 42
-1.0
 53
0.00013888888889
  3
ME10_DIM_11
100
AcDbAlignedDimension
 13
-73.5
 23
-47.18575713093564
 33
0.0
 14
73.5
 24
-47.18575713093564
 34
0.0
100
AcDbRotatedDimension
  0
DIMENSION
  5
500
330
1F
100
AcDbEntity
  8
1
100
AcDbDimension
  2
*D10
 10
55.00007109642382
 20
-543.9529337030244
 30
0.0
 11
2.99845866113273
 21
-534.9530051214115
 31
0.0
 70
    32
  1
<>
 71
     5
 42
-1.0
 53
0.00013888888889
  3
ME10_DIM_12
100
AcDbAlignedDimension
 13
-54.99997250254592
 23
-512.2072740314445
 33
0.0
 14
55.00002734934026
 24
-512.099531370463
 34
0.0
 50
0.00007868934149
100
AcDbRotatedDimension
  0
DIMENSION
  5
50B
330
1F
100
AcDbEntity
  8
1
100
AcDbDimension
  2
*D11
 10
-177.0
 20
96.194292433471
 30
0.0
 11
0.65492476351903
 21
105.194292433471
 31
0.0
 70
    32
  1
<>
 71
     5
 42
-1.0
 53
0.00013888888889
  3
ME10_DIM_13
100
AcDbAlignedDimension
 13
177.0000000000001
 23
-5.236469
 33
0.0
 14
-177.0
 24
-5.236469
 34
0.0
100
AcDbRotatedDimension
  0
DIMENSION
  5
516
330
1F
100
AcDbEntity
  8
1
100
AcDbDimension
  2
*D12
 10
-231.995428
 20
136.48972161057
 30
0.0
 11
2.04442232135
 21
145.48972161057
 31
0.0
 70
    32
  1
500x500
 71
     5
 42
-1.0
 53
0.00013888888889
  3
ME10_DIM_14
100
AcDbAlignedDimension
 13
231.9954280000001
 23
0.0
 33
0.0
 14
-231.995428
 24
0.0
 34
0.0
100
AcDbRotatedDimension
  0
DIMENSION
  5
521
330
1F
100
AcDbEntity
  8
1
100
AcDbDimension
  2
*D13
 10
166.290163188702
 20
-464.0083303396908
 30
0.0
 11
157.290163188702
 21
-262.430275543454
 31
0.0
 70
    32
  1
415
 71
     5
 42
-1.0
 53
90.0
  3
ME10_DIM_15
100
AcDbAlignedDimension
 13
77.75
 23
-47.18575713093564
 33
0.0
 14
43.79414303207523
 24
-464.0083303396908
 34
0.0
 50
90.0
100
AcDbRotatedDimension
  0
DIMENSION
  5
52C
330
1F
100
AcDbEntity
  8
1
100
AcDbDimension
  2
*D14
 10
245.901400576595
 20
-464.0083303396908
 30
0.0
 11
236.901400576595
 21
-238.469611863603
 31
0.0
 70
    32
  1
460
 71
     5
 42
-1.0
 53
90.0
  3
ME10_DIM_16
100
AcDbAlignedDimension
 13
231.9954280000001
 23
-3.236469
 33
0.0
 14
43.79414303207523
 24
-464.0083303396908
 34
0.0
 50
90.0
100
AcDbRotatedDimension
  0
ENDSEC
  0
SECTION
  2
OBJECTS
  0
DICTIONARY
  5
C
330
0
100
AcDbDictionary
281
     1
  3
ACAD_GROUP
350
D
  3
ACAD_LAYOUT
350
1A
  3
ACAD_MLINESTYLE
350
17
  3
ACAD_PLOTSETTINGS
350
19
  3
ACAD_PLOTSTYLENAME
350
E
  3
ACAD_TABLESTYLE
350
52D
  3
ACAD_VISUALSTYLE
350
2A
  0
DICTIONARY
  5
D
102
{ACAD_REACTORS
330
C
102
}
330
C
100
AcDbDictionary
281
     1
  0
DICTIONARY
  5
1A
102
{ACAD_REACTORS
330
C
102
}
330
C
100
AcDbDictionary
281
     1
  3
Layout1
350
1E
  3
Layout2
350
26
  3
Model
350
22
  0
DICTIONARY
  5
17
102
{ACAD_REACTORS
330
C
102
}
330
C
100
AcDbDictionary
281
     1
  3
Standard
350
18
  0
DICTIONARY
  5
19
102
{ACAD_REACTORS
330
C
102
}
330
C
100
AcDbDictionary
281
     1
  0
ACDBDICTIONARYWDFLT
  5
E
102
{ACAD_REACTORS
330
C
102
}
330
C
100
AcDbDictionary
281
     1
  3
Normal
350
F
100
AcDbDictionaryWithDefault
340
F
  0
DICTIONARY
  5
52D
102
{ACAD_REACTORS
330
C
102
}
330
C
100
AcDbDictionary
281
     1
  0
DICTIONARY
  5
2A
102
{ACAD_REACTORS
330
C
102
}
330
C
100
AcDbDictionary
281
     1
  3
2dWireframe
350
2F
  3
3D Hidden
350
31
  3
3dWireframe
350
30
  3
Basic
350
32
  3
Brighten
350
36
  3
ColorChange
350
3A
  3
Conceptual
350
34
  3
Dim
350
35
  3
Facepattern
350
39
  3
Flat
350
2B
  3
FlatWithEdges
350
2C
  3
Gouraud
350
2D
  3
GouraudWithEdges
350
2E
  3
Linepattern
350
38
  3
Realistic
350
33
  3
Thicken
350
37
  0
LAYOUT
  5
1E
102
{ACAD_REACTORS
330
1A
102
}
330
1A
100
AcDbPlotSettings
  1

  2
none_device
  4

  6

 40
0.0
 41
0.0
 42
0.0
 43
0.0
 44
0.0
 45
0.0
 46
0.0
 47
0.0
 48
0.0
 49
0.0
140
0.0
141
0.0
142
1.0
143
1.0
 70
   688
 72
     0
 73
     0
 74
     5
  7

 75
    16
147
1.0
148
0.0
149
0.0
100
AcDbLayout
  1
Layout1
 70
     1
 71
     1
 10
0.0
 20
0.0
 11
12.0
 21
9.0
 12
0.0
 22
0.0
 32
0.0
 14
1.00000000000000E+20
 24
1.00000000000000E+20
 34
1.00000000000000E+20
 15
-1.00000000000000E+20
 25
-1.00000000000000E+20
 35
-1.00000000000000E+20
146
0.0
 13
0.0
 23
0.0
 33
0.0
 16
1.0
 26
0.0
 36
0.0
 17
0.0
 27
1.0
 37
0.0
 76
     0
330
1B
  0
LAYOUT
  5
26
102
{ACAD_REACTORS
330
1A
102
}
330
1A
100
AcDbPlotSettings
  1

  2
none_device
  4

  6

 40
0.0
 41
0.0
 42
0.0
 43
0.0
 44
0.0
 45
0.0
 46
0.0
 47
0.0
 48
0.0
 49
0.0
140
0.0
141
0.0
142
1.0
143
1.0
 70
   688
 72
     0
 73
     0
 74
     5
  7

 75
    16
147
1.0
148
0.0
149
0.0
100
AcDbLayout
  1
Layout2
 70
     1
 71
     2
 10
0.0
 20
0.0
 11
0.0
 21
0.0
 12
0.0
 22
0.0
 32
0.0
 14
0.0
 24
0.0
 34
0.0
 15
0.0
 25
0.0
 35
0.0
146
0.0
 13
0.0
 23
0.0
 33
0.0
 16
1.0
 26
0.0
 36
0.0
 17
0.0
 27
1.0
 37
0.0
 76
     0
330
23
  0
LAYOUT
  5
22
102
{ACAD_REACTORS
330
1A
102
}
330
1A
100
AcDbPlotSettings
  1

  2
none_device
  4

  6

 40
0.0
 41
0.0
 42
0.0
 43
0.0
 44
0.0
 45
0.0
 46
0.0
 47
0.0
 48
0.0
 49
0.0
140
0.0
141
0.0
142
1.0
143
1.0
 70
  1712
 72
     0
 73
     0
 74
     0
  7

 75
     0
147
1.0
148
0.0
149
0.0
100
AcDbLayout
  1
Model
 70
     1
 71
     0
 10
0.0
 20
0.0
 11
12.0
 21
9.0
 12
0.0
 22
0.0
 32
0.0
 14
-249.9997419679248
 24
-1112.185757130937
 34
0.0
 15
250.0002580320752
 25
152.48972161057
 35
0.0
146
0.0
 13
0.0
 23
0.0
 33
0.0
 16
1.0
 26
0.0
 36
0.0
 17
0.0
 27
1.0
 37
0.0
 76
     0
330
1F
331
29
  0
MLINESTYLE
  5
18
102
{ACAD_REACTORS
330
17
102
}
330
17
100
AcDbMlineStyle
  2
Standard
 70
     0
  3

 62
   256
 51
90.0
 52
90.0
 71
     2
 49
0.5
 62
   256
  6
BYLAYER
 49
-0.5
 62
   256
  6
BYLAYER
  0
ACDBPLACEHOLDER
  5
F
102
{ACAD_REACTORS
330
E
102
}
330
E
  0
VISUALSTYLE
  5
2F
102
{ACAD_REACTORS
330
2A
102
}
330
2A
100
AcDbVisualStyle
  2
2dWireframe
 70
     4
 71
     0
 72
     2
 73
     0
 90
        0
 40
-0.6
 41
-30.0
 62
     5
 63
     7
 74
     1
 91
        4
 64
     7
 65
   257
 75
     1
175
     1
 42
1.0
 92
        0
 66
   257
 43
1.0
 76
     1
 77
     6
 78
     2
 67
     7
 79
     5
170
     0
171
     0
290
     0
174
     0
 93
        1
 44
0.0
173
     0
291
     0
 45
0.0
1001
ACAD
1000
AcDbSavedByObjectVersion
1070
     0
  0
VISUALSTYLE
  5
31
102
{ACAD_REACTORS
330
2A
102
}
330
2A
100
AcDbVisualStyle
  2
3D Hidden
 70
     6
 71
     1
 72
     2
 73
     2
 90
        0
 40
-0.6
 41
-30.0
 62
     5
 63
     7
 74
     2
 91
        2
 64
     7
 65
   257
 75
     2
175
     1
 42
40.0
 92
        0
 66
   257
 43
1.0
 76
     1
 77
     6
 78
     2
 67
     7
 79
     3
170
     0
171
     0
290
     0
174
     0
 93
        1
 44
0.0
173
     0
291
     0
 45
0.0
1001
ACAD
1000
AcDbSavedByObjectVersion
1070
     0
  0
VISUALSTYLE
  5
30
102
{ACAD_REACTORS
330
2A
102
}
330
2A
100
AcDbVisualStyle
  2
3dWireframe
 70
     5
 71
     0
 72
     2
 73
     0
 90
        0
 40
-0.6
 41
-30.0
 62
     5
 63
     7
 74
     1
 91
        4
 64
     7
 65
   257
 75
     1
175
     1
 42
1.0
 92
        0
 66
   257
 43
1.0
 76
     1
 77
     6
 78
     2
 67
     7
 79
     5
170
     0
171
     0
290
     0
174
     0
 93
        1
 44
0.0
173
     0
291
     0
 45
0.0
1001
ACAD
1000
AcDbSavedByObjectVersion
1070
     0
  0
VISUALSTYLE
  5
32
102
{ACAD_REACTORS
330
2A
102
}
330
2A
100
AcDbVisualStyle
  2
Basic
 70
     7
 71
     1
 72
     0
 73
     1
 90
        0
 40
-0.6
 41
-30.0
 62
     5
 63
     7
 74
     0
 91
        4
 64
     7
 65
   257
 75
     1
175
     1
 42
1.0
 92
        8
 66
     7
 43
1.0
 76
     1
 77
     6
 78
     2
 67
     7
 79
     5
170
     0
171
     0
290
     0
174
     0
 93
        1
 44
0.0
173
     0
291
     1
 45
0.0
1001
ACAD
1000
AcDbSavedByObjectVersion
1070
     0
  0
VISUALSTYLE
  5
36
102
{ACAD_REACTORS
330
2A
102
}
330
2A
100
AcDbVisualStyle
  2
Brighten
 70
    12
 71
     2
 72
     2
 73
     0
 90
        0
 40
-0.6
 41
-30.0
 62
     5
 63
     7
 74
     1
 91
        4
 64
     7
 65
   257
 75
     1
175
     1
 42
1.0
 92
        8
 66
     7
 43
1.0
 76
     1
 77
     6
 78
     2
 67
     7
 79
     5
170
     0
171
     0
290
     0
174
     0
 93
        1
 44
50.0
173
     0
291
     1
 45
0.0
1001
ACAD
1000
AcDbSavedByObjectVersion
1070
     0
  0
VISUALSTYLE
  5
3A
102
{ACAD_REACTORS
330
2A
102
}
330
2A
100
AcDbVisualStyle
  2
ColorChange
 70
    16
 71
     2
 72
     2
 73
     3
 90
        0
 40
-0.6
 41
-30.0
 62
     5
 63
     8
 74
     1
 91
        4
 64
     7
 65
   257
 75
     1
175
     1
 42
1.0
 92
        8
 66
     8
 43
1.0
 76
     1
 77
     6
 78
     2
 67
     7
 79
     5
170
     0
171
     0
290
     0
174
     0
 93
        1
 44
0.0
173
     0
291
     1
 45
0.0
1001
ACAD
1000
AcDbSavedByObjectVersion
1070
     0
  0
VISUALSTYLE
  5
34
102
{ACAD_REACTORS
330
2A
102
}
330
2A
100
AcDbVisualStyle
  2
Conceptual
 70
     9
 71
     3
 72
     2
 73
     0
 90
        0
 40
-0.6
 41
-30.0
 62
     5
 63
     7
 74
     2
 91
        2
 64
     7
 65
   257
 75
     1
175
     1
 42
40.0
 92
        8
 66
     7
 43
1.0
 76
     1
 77
     6
 78
     2
 67
     7
 79
     3
170
     0
171
     0
290
     0
174
     0
 93
        1
 44
0.0
173
     0
291
     0
 45
0.0
1001
ACAD
1000
AcDbSavedByObjectVersion
1070
     0
  0
VISUALSTYLE
  5
35
102
{ACAD_REACTORS
330
2A
102
}
330
2A
100
AcDbVisualStyle
  2
Dim
 70
    11
 71
     2
 72
     2
 73
     0
 90
        0
 40
-0.6
 41
-30.0
 62
     5
 63
     7
 74
     1
 91
        4
 64
     7
 65
   257
 75
     1
175
     1
 42
1.0
 92
        8
 66
     7
 43
1.0
 76
     1
 77
     6
 78
     2
 67
     7
 79
     5
170
     0
171
     0
290
     0
174
     0
 93
        1
 44
-50.0
173
     0
291
     1
 45
0.0
1001
ACAD
1000
AcDbSavedByObjectVersion
1070
     0
  0
VISUALSTYLE
  5
39
102
{ACAD_REACTORS
330
2A
102
}
330
2A
100
AcDbVisualStyle
  2
Facepattern
 70
    15
 71
     2
 72
     2
 73
     0
 90
        0
 40
-0.6
 41
-30.0
 62
     5
 63
     7
 74
     1
 91
        4
 64
     7
 65
   257
 75
     1
175
     1
 42
1.0
 92
        8
 66
     7
 43
1.0
 76
     1
 77
     6
 78
     2
 67
     7
 79
     5
170
     0
171
     0
290
     0
174
     0
 93
        1
 44
0.0
173
     0
291
     1
 45
0.0
1001
ACAD
1000
AcDbSavedByObjectVersion
1070
     0
  0
VISUALSTYLE
  5
2B
102
{ACAD_REACTORS
330
2A
102
}
330
2A
100
AcDbVisualStyle
  2
Flat
 70
     0
 71
     2
 72
     1
 73
     1
 90
        2
 40
-0.6
 41
30.0
 62
     5
 63
     7
 74
     0
 91
        4
 64
     7
 65
   257
 75
     1
175
     1
 42
1.0
 92
        8
 66
     7
 43
1.0
 76
     1
 77
     6
 78
     2
 67
     7
 79
     5
170
     0
171
     0
290
     0
174
     0
 93
       13
 44
0.0
173
     0
291
     1
 45
0.0
1001
ACAD
1000
AcDbSavedByObjectVersion
1070
     0
  0
VISUALSTYLE
  5
2C
102
{ACAD_REACTORS
330
2A
102
}
330
2A
100
AcDbVisualStyle
  2
FlatWithEdges
 70
     1
 71
     2
 72
     1
 73
     1
 90
        2
 40
-0.6
 41
30.0
 62
     5
 63
     7
 74
     1
 91
        4
 64
     7
 65
   257
 75
     1
175
     1
 42
1.0
 92
        0
 66
   257
 43
1.0
 76
     1
 77
     6
 78
     2
 67
     7
 79
     5
170
     0
171
     0
290
     0
174
     0
 93
       13
 44
0.0
173
     0
291
     1
 45
0.0
1001
ACAD
1000
AcDbSavedByObjectVersion
1070
     0
  0
VISUALSTYLE
  5
2D
102
{ACAD_REACTORS
330
2A
102
}
330
2A
100
AcDbVisualStyle
  2
Gouraud
 70
     2
 71
     2
 72
     2
 73
     1
 90
        2
 40
-0.6
 41
30.0
 62
     5
 63
     7
 74
     0
 91
        4
 64
     7
 65
   257
 75
     1
175
     1
 42
1.0
 92
        0
 66
     7
 43
1.0
 76
     1
 77
     6
 78
     2
 67
     7
 79
     5
170
     0
171
     0
290
     0
174
     0
 93
       13
 44
0.0
173
     0
291
     1
 45
0.0
1001
ACAD
1000
AcDbSavedByObjectVersion
1070
     0
  0
VISUALSTYLE
  5
2E
102
{ACAD_REACTORS
330
2A
102
}
330
2A
100
AcDbVisualStyle
  2
GouraudWithEdges
 70
     3
 71
     2
 72
     2
 73
     1
 90
        2
 40
-0.6
 41
30.0
 62
     5
 63
     7
 74
     1
 91
        4
 64
     7
 65
   257
 75
     1
175
     1
 42
1.0
 92
        0
 66
   257
 43
1.0
 76
     1
 77
     6
 78
     2
 67
     7
 79
     5
170
     0
171
     0
290
     0
174
     0
 93
       13
 44
0.0
173
     0
291
     1
 45
0.0
1001
ACAD
1000
AcDbSavedByObjectVersion
1070
     0
  0
VISUALSTYLE
  5
38
102
{ACAD_REACTORS
330
2A
102
}
330
2A
100
AcDbVisualStyle
  2
Linepattern
 70
    14
 71
     2
 72
     2
 73
     0
 90
        0
 40
-0.6
 41
-30.0
 62
     5
 63
     7
 74
     1
 91
        4
 64
     7
 65
   257
 75
     7
175
     7
 42
1.0
 92
        8
 66
     7
 43
1.0
 76
     1
 77
     6
 78
     2
 67
     7
 79
     5
170
     0
171
     0
290
     0
174
     0
 93
        1
 44
0.0
173
     0
291
     1
 45
0.0
1001
ACAD
1000
AcDbSavedByObjectVersion
1070
     0
  0
VISUALSTYLE
  5
33
102
{ACAD_REACTORS
330
2A
102
}
330
2A
100
AcDbVisualStyle
  2
Realistic
 70
     8
 71
     2
 72
     2
 73
     0
 90
        0
 40
-0.6
 41
-30.0
 62
     5
 63
     7
 74
     1
 91
        0
 64
     7
 65
   257
 75
     1
175
     1
 42
1.0
 92
        8
 66
     8
 43
1.0
 76
     1
 77
     6
 78
     2
 67
     7
 79
     5
170
     0
171
     0
290
     0
174
     0
 93
       13
 44
0.0
173
     0
291
     0
 45
0.0
1001
ACAD
1000
AcDbSavedByObjectVersion
1070
     0
  0
VISUALSTYLE
  5
37
102
{ACAD_REACTORS
330
2A
102
}
330
2A
100
AcDbVisualStyle
  2
Thicken
 70
    13
 71
     2
 72
     2
 73
     0
 90
        0
 40
-0.6
 41
-30.0
 62
     5
 63
     7
 74
     1
 91
        4
 64
     7
 65
   257
 75
     1
175
     1
 42
1.0
 92
       12
 66
     7
 43
1.0
 76
     1
 77
     6
 78
     2
 67
     7
 79
     5
170
     0
171
     0
290
     0
174
     0
 93
        1
 44
0.0
173
     0
291
     1
 45
0.0
1001
ACAD
1000
AcDbSavedByObjectVersion
1070
     0
  0
ENDSEC
  0
EOF
