  0
SECTION
  2
HEADER
  9
$ACADVER
  1
AC1015
  9
$ACADMAINTVER
 70
     6
  9
$DWGCODEPAGE
  3
ANSI_1252
  9
$INSBASE
 10
0.0
 20
0.0
 30
0.0
  9
$EXTMIN
 10
-251.5504307265711
 20
-1099.185757130937
 30
0.0
  9
$EXTMAX
 10
248.4495692734289
 20
152.48972161057
 30
0.0
  9
$LIMMIN
 10
0.0
 20
0.0
  9
$LIMMAX
 10
12.0
 20
9.0
  9
$ORTHOMODE
 70
     0
  9
$REGENMODE
 70
     1
  9
$FILLMODE
 70
     1
  9
$QTEXTMODE
 70
     0
  9
$MIRRTEXT
 70
     1
  9
$LTSCALE
 40
1.0
  9
$ATTMODE
 70
     1
  9
$TEXTSIZE
 40
0.2
  9
$TRACEWID
 40
0.05
  9
$TEXTSTYLE
  7
Standard
  9
$CLAYER
  8
0
  9
$CELTYPE
  6
ByLayer
  9
$CECOLOR
 62
   256
  9
$CELTSCALE
 40
1.0
  9
$DISPSILH
 70
     0
  9
$DIMSCALE
 40
1.0
  9
$DIMASZ
 40
0.18
  9
$DIMEXO
 40
0.0625
  9
$DIMDLI
 40
0.38
  9
$DIMRND
 40
0.0
  9
$DIMDLE
 40
0.0
  9
$DIMEXE
 40
0.18
  9
$DIMTP
 40
0.0
  9
$DIMTM
 40
0.0
  9
$DIMTXT
 40
0.18
  9
$DIMCEN
 40
0.09
  9
$DIMTSZ
 40
0.0
  9
$DIMTOL
 70
     0
  9
$DIMLIM
 70
     0
  9
$DIMTIH
 70
     1
  9
$DIMTOH
 70
     1
  9
$DIMSE1
 70
     0
  9
$DIMSE2
 70
     0
  9
$DIMTAD
 70
     0
  9
$DIMZIN
 70
     0
  9
$DIMBLK
  1

  9
$DIMASO
 70
     1
  9
$DIMSHO
 70
     1
  9
$DIMPOST
  1

  9
$DIMAPOST
  1

  9
$DIMALT
 70
     0
  9
$DIMALTD
 70
     2
  9
$DIMALTF
 40
25.4
  9
$DIMLFAC
 40
1.0
  9
$DIMTOFL
 70
     0
  9
$DIMTVP
 40
0.0
  9
$DIMTIX
 70
     0
  9
$DIMSOXD
 70
     0
  9
$DIMSAH
 70
     0
  9
$DIMBLK1
  1

  9
$DIMBLK2
  1

  9
$DIMSTYLE
  2
Standard
  9
$DIMCLRD
 70
     0
  9
$DIMCLRE
 70
     0
  9
$DIMCLRT
 70
     0
  9
$DIMTFAC
 40
1.0
  9
$DIMGAP
 40
0.09
  9
$DIMJUST
 70
     0
  9
$DIMSD1
 70
     0
  9
$DIMSD2
 70
     0
  9
$DIMTOLJ
 70
     1
  9
$DIMTZIN
 70
     0
  9
$DIMALTZ
 70
     0
  9
$DIMALTTZ
 70
     0
  9
$DIMUPT
 70
     0
  9
$DIMDEC
 70
     4
  9
$DIMTDEC
 70
     4
  9
$DIMALTU
 70
     2
  9
$DIMALTTD
 70
     2
  9
$DIMTXSTY
  7
Standard
  9
$DIMAUNIT
 70
     0
  9
$DIMADEC
 70
     0
  9
$DIMALTRND
 40
0.0
  9
$DIMAZIN
 70
     0
  9
$DIMDSEP
 70
    46
  9
$DIMATFIT
 70
     3
  9
$DIMFRAC
 70
     0
  9
$DIMLDRBLK
  1

  9
$DIMLUNIT
 70
     2
  9
$DIMLWD
 70
    -2
  9
$DIMLWE
 70
    -2
  9
$DIMTMOVE
 70
     0
  9
$LUNITS
 70
     2
  9
$LUPREC
 70
     4
  9
$SKETCHINC
 40
0.1
  9
$FILLETRAD
 40
0.5
  9
$AUNITS
 70
     0
  9
$AUPREC
 70
     0
  9
$MENU
  1
.
  9
$ELEVATION
 40
0.0
  9
$PELEVATION
 40
0.0
  9
$THICKNESS
 40
0.0
  9
$LIMCHECK
 70
     0
  9
$CHAMFERA
 40
0.5
  9
$CHAMFERB
 40
0.5
  9
$CHAMFERC
 40
1.0
  9
$CHAMFERD
 40
0.0
  9
$SKPOLY
 70
     0
  9
$TDCREATE
 40
2454721.500158113
  9
$TDUCREATE
 40
2454721.41682478
  9
$TDUPDATE
 40
2454721.500158125
  9
$TDUUPDATE
 40
2454721.416824792
  9
$TDINDWG
 40
0.0000000116
  9
$TDUSRTIMER
 40
0.0000000116
  9
$USRTIMER
 70
     1
  9
$ANGBASE
 50
0.0
  9
$ANGDIR
 70
     0
  9
$PDMODE
 70
     0
  9
$PDSIZE
 40
0.0
  9
$PLINEWID
 40
0.0
  9
$SPLFRAME
 70
     0
  9
$SPLINETYPE
 70
     6
  9
$SPLINESEGS
 70
     8
  9
$HANDSEED
  5
622
  9
$SURFTAB1
 70
     6
  9
$SURFTAB2
 70
     6
  9
$SURFTYPE
 70
     6
  9
$SURFU
 70
     6
  9
$SURFV
 70
     6
  9
$UCSBASE
  2

  9
$UCSNAME
  2

  9
$UCSORG
 10
0.0
 20
0.0
 30
0.0
  9
$UCSXDIR
 10
1.0
 20
0.0
 30
0.0
  9
$UCSYDIR
 10
0.0
 20
1.0
 30
0.0
  9
$UCSORTHOREF
  2

  9
$UCSORTHOVIEW
 70
     0
  9
$UCSORGTOP
 10
0.0
 20
0.0
 30
0.0
  9
$UCSORGBOTTOM
 10
0.0
 20
0.0
 30
0.0
  9
$UCSORGLEFT
 10
0.0
 20
0.0
 30
0.0
  9
$UCSORGRIGHT
 10
0.0
 20
0.0
 30
0.0
  9
$UCSORGFRONT
 10
0.0
 20
0.0
 30
0.0
  9
$UCSORGBACK
 10
0.0
 20
0.0
 30
0.0
  9
$PUCSBASE
  2

  9
$PUCSNAME
  2

  9
$PUCSORG
 10
0.0
 20
0.0
 30
0.0
  9
$PUCSXDIR
 10
1.0
 20
0.0
 30
0.0
  9
$PUCSYDIR
 10
0.0
 20
1.0
 30
0.0
  9
$PUCSORTHOREF
  2

  9
$PUCSORTHOVIEW
 70
     0
  9
$PUCSORGTOP
 10
0.0
 20
0.0
 30
0.0
  9
$PUCSORGBOTTOM
 10
0.0
 20
0.0
 30
0.0
  9
$PUCSORGLEFT
 10
0.0
 20
0.0
 30
0.0
  9
$PUCSORGRIGHT
 10
0.0
 20
0.0
 30
0.0
  9
$PUCSORGFRONT
 10
0.0
 20
0.0
 30
0.0
  9
$PUCSORGBACK
 10
0.0
 20
0.0
 30
0.0
  9
$USERI1
 70
     0
  9
$USERI2
 70
     0
  9
$USERI3
 70
     0
  9
$USERI4
 70
     0
  9
$USERI5
 70
     0
  9
$USERR1
 40
15.5
  9
$USERR2
 40
0.0
  9
$USERR3
 40
0.0
  9
$USERR4
 40
0.0
  9
$USERR5
 40
0.0
  9
$WORLDVIEW
 70
     1
  9
$SHADEDGE
 70
     3
  9
$SHADEDIF
 70
    70
  9
$TILEMODE
 70
     1
  9
$MAXACTVP
 70
    64
  9
$PINSBASE
 10
0.0
 20
0.0
 30
0.0
  9
$PLIMCHECK
 70
     0
  9
$PEXTMIN
 10
1.00000000000000E+20
 20
1.00000000000000E+20
 30
1.00000000000000E+20
  9
$PEXTMAX
 10
-1.00000000000000E+20
 20
-1.00000000000000E+20
 30
-1.00000000000000E+20
  9
$PLIMMIN
 10
0.0
 20
0.0
  9
$PLIMMAX
 10
12.0
 20
9.0
  9
$UNITMODE
 70
     0
  9
$VISRETAIN
 70
     1
  9
$PLINEGEN
 70
     0
  9
$PSLTSCALE
 70
     1
  9
$TREEDEPTH
 70
  3020
  9
$CMLSTYLE
  2
Standard
  9
$CMLJUST
 70
     0
  9
$CMLSCALE
 40
1.0
  9
$PROXYGRAPHICS
 70
     1
  9
$MEASUREMENT
 70
     1
  9
$CELWEIGHT
370
    -1
  9
$ENDCAPS
280
     0
  9
$JOINSTYLE
280
     0
  9
$LWDISPLAY
290
     0
  9
$INSUNITS
 70
     1
  9
$HYPERLINKBASE
  1

  9
$STYLESHEET
  1

  9
$XEDIT
290
     1
  9
$CEPSNTYPE
380
     0
  9
$PSTYLEMODE
290
     1
  9
$FINGERPRINTGUID
  2
{D378EBC9-539F-4403-9D8B-42C170897E74}
  9
$VERSIONGUID
  2
{FAEB1C32-E019-11D5-929B-00C0DF256EC4}
  9
$EXTNAMES
290
     1
  9
$PSVPSCALE
 40
0.0
  9
$OLESTARTUP
290
     0
  0
ENDSEC
  0
SECTION
  2
CLASSES
  0
CLASS
  1
ACDBDICTIONARYWDFLT
  2
AcDbDictionaryWithDefault
  3
ObjectDBX Classes
 90
        0
280
     0
281
     0
  0
CLASS
  1
VISUALSTYLE
  2
AcDbVisualStyle
  3
ObjectDBX Classes
 90
     4095
280
     0
281
     0
  0
CLASS
  1

  2
exOdDbCircle
  3

 90
        0
280
     0
281
     1
  0
CLASS
  1

  2
exOdDbSpline
  3

 90
        0
280
     0
281
     1
  0
CLASS
  1

  2
exOdDbPolyline
  3

 90
        0
280
     0
281
     1
  0
CLASS
  1
ACDBPLACEHOLDER
  2
AcDbPlaceHolder
  3
ObjectDBX Classes
 90
        0
280
     0
281
     0
  0
CLASS
  1
LAYOUT
  2
AcDbLayout
  3
ObjectDBX Classes
 90
        0
280
     0
281
     0
  0
ENDSEC
  0
SECTION
  2
TABLES
  0
TABLE
  2
VPORT
  5
8
330
0
100
AcDbSymbolTable
 70
     1
  0
VPORT
  5
29
330
8
100
AcDbSymbolTableRecord
100
AcDbViewportTableRecord
  2
*Active
 70
     0
 10
0.0
 20
0.0
 11
1.0
 21
1.0
 12
-1.55043072657111
 22
-473.3480177601835
 13
0.0
 23
0.0
 14
0.5
 24
0.5
 15
0.5
 25
0.5
 16
0.0
 26
0.0
 36
1.0
 17
0.0
 27
0.0
 37
0.0
 40
1376.843026615658
 41
1.60267857142857
 42
50.0
 43
0.0
 44
0.0
 50
0.0
 51
0.0
 71
     0
 72
   100
 73
     1
 74
     3
 75
     0
 76
     0
 77
     0
 78
     0
281
     0
 65
     1
110
0.0
120
0.0
130
0.0
111
1.0
121
0.0
131
0.0
112
0.0
122
1.0
132
0.0
 79
     0
146
0.0
  0
ENDTAB
  0
TABLE
  2
LTYPE
  5
5
330
0
100
AcDbSymbolTable
 70
    10
  0
LTYPE
  5
14
330
5
100
AcDbSymbolTableRecord
100
AcDbLinetypeTableRecord
  2
ByBlock
 70
     0
  3

 72
    65
 73
     0
 40
0.0
  0
LTYPE
  5
15
330
5
100
AcDbSymbolTableRecord
100
AcDbLinetypeTableRecord
  2
ByLayer
 70
     0
  3

 72
    65
 73
     0
 40
0.0
  0
LTYPE
  5
16
330
5
100
AcDbSymbolTableRecord
100
AcDbLinetypeTableRecord
  2
Continuous
 70
     0
  3
Solid line
 72
    65
 73
     0
 40
0.0
  0
LTYPE
  5
3B
330
5
100
AcDbSymbolTableRecord
100
AcDbLinetypeTableRecord
  2
DASHED
 70
     0
  3
Dashed
 72
    65
 73
     2
 40
15.0
 49
7.0
 74
     0
 49
-8.0
 74
     0
  0
LTYPE
  5
3C
330
5
100
AcDbSymbolTableRecord
100
AcDbLinetypeTableRecord
  2
DOTTED
 70
     0
  3
Dotted
 72
    65
 73
     2
 40
1.0
 49
0.0
 74
     0
 49
-1.0
 74
     0
  0
LTYPE
  5
3D
330
5
100
AcDbSymbolTableRecord
100
AcDbLinetypeTableRecord
  2
DOT_CENTER
 70
     0
  3
Dot_Center
 72
    65
 73
     4
 40
14.0
 49
12.0
 74
     0
 49
-1.0
 74
     0
 49
0.0
 74
     0
 49
-1.0
 74
     0
  0
LTYPE
  5
3E
330
5
100
AcDbSymbolTableRecord
100
AcDbLinetypeTableRecord
  2
LONG_DASHED
 70
     0
  3
Long_Dashed
 72
    65
 73
     2
 40
15.0
 49
10.0
 74
     0
 49
-5.0
 74
     0
  0
LTYPE
  5
3F
330
5
100
AcDbSymbolTableRecord
100
AcDbLinetypeTableRecord
  2
DASH_CENTER
 70
     0
  3
Dash_Center
 72
    65
 73
     4
 40
14.0
 49
11.0
 74
     0
 49
-1.0
 74
     0
 49
1.0
 74
     0
 49
-1.0
 74
     0
  0
LTYPE
  5
40
330
5
100
AcDbSymbolTableRecord
100
AcDbLinetypeTableRecord
  2
PHANTOM
 70
     0
  3
Phantom
 72
    65
 73
     6
 40
13.0
 49
10.0
 74
     0
 49
-1.0
 74
     0
 49
0.0
 74
     0
 49
-1.0
 74
     0
 49
0.0
 74
     0
 49
-1.0
 74
     0
  0
LTYPE
  5
41
330
5
100
AcDbSymbolTableRecord
100
AcDbLinetypeTableRecord
  2
CENTER_DASH_DASH
 70
     0
  3
Center_Dash_Dash
 72
    65
 73
     6
 40
14.0
 49
9.0
 74
     0
 49
-1.0
 74
     0
 49
1.0
 74
     0
 49
-1.0
 74
     0
 49
1.0
 74
     0
 49
-1.0
 74
     0
  0
LTYPE
  5
42
330
5
100
AcDbSymbolTableRecord
100
AcDbLinetypeTableRecord
  2
DASHDOT
 70
     0
  3
DASHDOT
 72
    65
 73
     4
 40
16.0
 49
10.0
 74
     0
 49
-3.0
 74
     0
 49
0.0
 74
     0
 49
-3.0
 74
     0
  0
LTYPE
  5
43
330
5
100
AcDbSymbolTableRecord
100
AcDbLinetypeTableRecord
  2
CENTER
 70
     0
  3
CENTER
 72
    65
 73
     4
 40
16.0
 49
10.0
 74
     0
 49
-3.0
 74
     0
 49
0.0
 74
     0
 49
-3.0
 74
     0
  0
ENDTAB
  0
TABLE
  2
LAYER
  5
2
330
0
100
AcDbSymbolTable
 70
    14
  0
LAYER
  5
10
330
2
100
AcDbSymbolTableRecord
100
AcDbLayerTableRecord
  2
0
 70
     0
 62
     7
  6
Continuous
370
    -3
390
F
  0
LAYER
  5
44
330
2
100
AcDbSymbolTableRecord
100
AcDbLayerTableRecord
  2
1
 70
     0
 62
     7
  6
Continuous
370
    -3
390
F
  0
LAYER
  5
45
330
2
100
AcDbSymbolTableRecord
100
AcDbLayerTableRecord
  2
LC-001-002-----0
 70
     0
 62
     7
  6
Continuous
370
    -3
390
F
  0
LAYER
  5
46
330
2
100
AcDbSymbolTableRecord
100
AcDbLayerTableRecord
  2
LC-001-002-RND-0
 70
     0
 62
     7
  6
Continuous
370
    -3
390
F
  0
LAYER
  5
47
330
2
100
AcDbSymbolTableRecord
100
AcDbLayerTableRecord
  2
LC-002-002-----0
 70
     0
 62
     7
  6
Continuous
370
    -3
390
F
  0
LAYER
  5
48
330
2
100
AcDbSymbolTableRecord
100
AcDbLayerTableRecord
  2
LC-002-002-RND-0
 70
     0
 62
     7
  6
Continuous
370
    -3
390
F
  0
LAYER
  5
49
330
2
100
AcDbSymbolTableRecord
100
AcDbLayerTableRecord
  2
LC-003-002-RND-0
 70
     0
 62
     7
  6
Continuous
370
    -3
390
F
  0
LAYER
  5
4A
330
2
100
AcDbSymbolTableRecord
100
AcDbLayerTableRecord
  2
LC-003-005-----0
 70
     0
 62
     7
  6
Continuous
370
    -3
390
F
  0
LAYER
  5
4B
330
2
100
AcDbSymbolTableRecord
100
AcDbLayerTableRecord
  2
LC-004-003-----0
 70
     0
 62
     7
  6
Continuous
370
    -3
390
F
  0
LAYER
  5
4C
330
2
100
AcDbSymbolTableRecord
100
AcDbLayerTableRecord
  2
LC-004-006-MLN-0
 70
     0
 62
     7
  6
Continuous
370
    -3
390
F
  0
LAYER
  5
4D
330
2
100
AcDbSymbolTableRecord
100
AcDbLayerTableRecord
  2
LC-005-002-----0
 70
     0
 62
     7
  6
Continuous
370
    -3
390
F
  0
LAYER
  5
4E
330
2
100
AcDbSymbolTableRecord
100
AcDbLayerTableRecord
  2
LC-005-003-----0
 70
     0
 62
     7
  6
Continuous
370
    -3
390
F
  0
LAYER
  5
4F
330
2
100
AcDbSymbolTableRecord
100
AcDbLayerTableRecord
  2
LC-006-003-----0
 70
     0
 62
     7
  6
Continuous
370
    -3
390
F
  0
LAYER
  5
50
330
2
100
AcDbSymbolTableRecord
100
AcDbLayerTableRecord
  2
LC-006-005-----0
 70
     0
 62
     7
  6
Continuous
370
    -3
390
F
  0
ENDTAB
  0
TABLE
  2
STYLE
  5
3
330
0
100
AcDbSymbolTable
 70
     2
  0
STYLE
  5
11
330
3
100
AcDbSymbolTableRecord
100
AcDbTextStyleTableRecord
  2
Standard
 70
     0
 40
0.0
 41
1.0
 50
0.0
 71
     0
 42
0.2
  3
txt
  4

  0
STYLE
  5
5D8
330
3
100
AcDbSymbolTableRecord
100
AcDbTextStyleTableRecord
  2
CONVERTER_11
 70
     0
 40
0.0
 41
0.9
 50
0.0
 71
     0
 42
0.2
  3
txt.shx
  4

  0
ENDTAB
  0
TABLE
  2
VIEW
  5
6
330
0
100
AcDbSymbolTable
 70
     0
  0
ENDTAB
  0
TABLE
  2
UCS
  5
7
330
0
100
AcDbSymbolTable
 70
     0
  0
ENDTAB
  0
TABLE
  2
APPID
  5
9
330
0
100
AcDbSymbolTable
 70
     1
  0
APPID
  5
12
330
9
100
AcDbSymbolTableRecord
100
AcDbRegAppTableRecord
  2
ACAD
 70
     0
  0
ENDTAB
  0
TABLE
  2
DIMSTYLE
  5
A
330
0
100
AcDbSymbolTable
 70
     8
100
AcDbDimStyleTable
  0
DIMSTYLE
105
27
330
A
100
AcDbSymbolTableRecord
100
AcDbDimStyleTableRecord
  2
Standard
 70
     0
340
11
  0
DIMSTYLE
105
5DC
102
{ACAD_REACTORS
330
5DD
102
}
330
A
100
AcDbSymbolTableRecord
100
AcDbDimStyleTableRecord
  2
ME10_DIM_10
 70
     0
 41
14.0
 42
0.0
 44
2.0
 73
     0
 74
     0
 77
     1
 78
     8
140
14.0
147
2.0
172
     1
173
     1
176
     4
177
     4
178
     1
271
     2
340
5D8
  0
DIMSTYLE
105
5E7
102
{ACAD_REACTORS
330
5E8
102
}
330
A
100
AcDbSymbolTableRecord
100
AcDbDimStyleTableRecord
  2
ME10_DIM_11
 70
     0
  3
Ø<>
 41
14.0
 42
0.0
 44
2.0
 73
     0
 74
     0
 77
     1
 78
     8
140
14.0
147
2.0
172
     1
173
     1
176
     4
177
     4
178
     1
271
     2
340
5D8
  0
DIMSTYLE
105
5F2
102
{ACAD_REACTORS
330
5F3
102
}
330
A
100
AcDbSymbolTableRecord
100
AcDbDimStyleTableRecord
  2
ME10_DIM_12
 70
     0
  3
DN<>
 41
14.0
 42
0.0
 44
2.0
 73
     0
 74
     0
 77
     1
 78
     8
140
14.0
147
2.0
172
     1
173
     1
176
     4
177
     4
178
     1
271
     2
340
5D8
  0
DIMSTYLE
105
5FE
102
{ACAD_REACTORS
330
5FF
102
}
330
A
100
AcDbSymbolTableRecord
100
AcDbDimStyleTableRecord
  2
ME10_DIM_13
 70
     0
  3
Ø<>
 41
14.0
 42
0.0
 44
2.0
 73
     0
 74
     0
 77
     1
 78
     8
140
14.0
147
2.0
172
     1
173
     1
176
     4
177
     4
178
     1
271
     2
340
5D8
  0
DIMSTYLE
105
609
102
{ACAD_REACTORS
330
60A
102
}
330
A
100
AcDbSymbolTableRecord
100
AcDbDimStyleTableRecord
  2
ME10_DIM_14
 70
     0
 41
14.0
 42
0.0
 44
2.0
 73
     0
 74
     0
 77
     1
 78
     8
140
14.0
147
2.0
172
     1
173
     1
176
     4
177
     4
178
     1
271
     2
340
5D8
  0
DIMSTYLE
105
614
102
{ACAD_REACTORS
330
615
102
}
330
A
100
AcDbSymbolTableRecord
100
AcDbDimStyleTableRecord
  2
ME10_DIM_15
 70
     0
 41
14.0
 42
0.0
 44
2.0
 73
     0
 74
     0
 77
     1
 78
     8
140
14.0
147
2.0
172
     1
173
     1
176
     4
177
     4
178
     1
271
     2
340
5D8
  0
DIMSTYLE
105
61F
102
{ACAD_REACTORS
330
620
102
}
330
A
100
AcDbSymbolTableRecord
100
AcDbDimStyleTableRecord
  2
ME10_DIM_16
 70
     0
 41
14.0
 42
0.0
 44
2.0
 73
     0
 74
     0
 77
     1
 78
     8
140
14.0
147
2.0
172
     1
173
     1
176
     4
177
     4
178
     1
271
     2
340
5D8
  0
ENDTAB
  0
TABLE
  2
BLOCK_RECORD
  5
1
330
0
100
AcDbSymbolTable
 70
    13
  0
BLOCK_RECORD
  5
1F
330
1
100
AcDbSymbolTableRecord
100
AcDbBlockTableRecord
  2
*Model_Space
340
22
  0
BLOCK_RECORD
  5
1B
330
1
100
AcDbSymbolTableRecord
100
AcDbBlockTableRecord
  2
*Paper_Space
340
1E
  0
BLOCK_RECORD
  5
23
330
1
100
AcDbSymbolTableRecord
100
AcDbBlockTableRecord
  2
*Paper_Space0
340
26
  0
BLOCK_RECORD
  5
51
330
1
100
AcDbSymbolTableRecord
100
AcDbBlockTableRecord
  2
Draufsicht
340
0
102
{BLKREFS
331
62
102
}
  0
BLOCK_RECORD
  5
54
330
1
100
AcDbSymbolTableRecord
100
AcDbBlockTableRecord
  2
_X0
340
0
102
{BLKREFS
331
5B
102
}
  0
BLOCK_RECORD
  5
57
330
1
100
AcDbSymbolTableRecord
100
AcDbBlockTableRecord
  2
_X1
340
0
102
{BLKREFS
331
5C
102
}
  0
BLOCK_RECORD
  5
5A
330
1
100
AcDbSymbolTableRecord
100
AcDbBlockTableRecord
  2
TOP__1
340
0
102
{BLKREFS
331
63
102
}
  0
BLOCK_RECORD
  5
5F
330
1
100
AcDbSymbolTableRecord
100
AcDbBlockTableRecord
  2
TOP__2
340
0
102
{BLKREFS
331
64
102
}
  0
BLOCK_RECORD
  5
5D2
330
1
100
AcDbSymbolTableRecord
100
AcDbBlockTableRecord
  2
*D6
340
0
  0
BLOCK_RECORD
  5
5DE
330
1
100
AcDbSymbolTableRecord
100
AcDbBlockTableRecord
  2
*D7
340
0
  0
BLOCK_RECORD
  5
5E9
330
1
100
AcDbSymbolTableRecord
100
AcDbBlockTableRecord
  2
*D8
340
0
  0
BLOCK_RECORD
  5
5F4
330
1
100
AcDbSymbolTableRecord
100
AcDbBlockTableRecord
  2
*D9
340
0
  0
BLOCK_RECORD
  5
600
330
1
100
AcDbSymbolTableRecord
100
AcDbBlockTableRecord
  2
*D10
340
0
  0
BLOCK_RECORD
  5
60B
330
1
100
AcDbSymbolTableRecord
100
AcDbBlockTableRecord
  2
*D11
340
0
  0
BLOCK_RECORD
  5
616
330
1
100
AcDbSymbolTableRecord
100
AcDbBlockTableRecord
  2
*D12
340
0
  0
ENDTAB
  0
ENDSEC
  0
SECTION
  2
BLOCKS
  0
BLOCK
  5
20
330
1F
100
AcDbEntity
  8
0
100
AcDbBlockBegin
  2
*Model_Space
 70
     0
 71
     0
 10
0.0
 20
0.0
 30
0.0
  3
*Model_Space
  1

  0
ENDBLK
  5
21
330
1F
100
AcDbEntity
  8
0
100
AcDbBlockEnd
  0
BLOCK
  5
1C
330
1B
100
AcDbEntity
 67
     1
  8
0
100
AcDbBlockBegin
  2
*Paper_Space
 70
     0
 71
     0
 10
0.0
 20
0.0
 30
0.0
  3
*Paper_Space
  1

  0
ENDBLK
  5
1D
330
1B
100
AcDbEntity
 67
     1
  8
0
100
AcDbBlockEnd
  0
BLOCK
  5
24
330
23
100
AcDbEntity
  8
0
100
AcDbBlockBegin
  2
*Paper_Space0
 70
     0
 71
     0
 10
0.0
 20
0.0
 30
0.0
  3
*Paper_Space0
  1

  0
ENDBLK
  5
25
330
23
100
AcDbEntity
  8
0
100
AcDbBlockEnd
  0
BLOCK
  5
52
330
51
100
AcDbEntity
  8
0
100
AcDbBlockBegin
  2
Draufsicht
 70
     0
 71
     0
 10
-183.6549149813727
 20
-1026.185757130937
 30
0.0
  3
Draufsicht
  1

  0
LINE
  5
65
330
51
100
AcDbEntity
  8
1
  6
PHANTOM
 62
     2
100
AcDbLine
 10
77.5139145270771
 20
-904.3491183902406
 30
0.0
 11
67.0350071412852
 21
-910.39911839024
 31
0.0
  0
LINE
  5
66
330
51
100
AcDbEntity
  8
1
  6
PHANTOM
 62
     2
100
AcDbLine
 10
75.2994608341809
 20
-912.6135720831363
 30
0.0
 11
69.2494608341814
 21
-902.1346646973443
 31
0.0
  0
LINE
  5
67
330
51
100
AcDbEntity
  8
1
  6
Continuous
 62
     7
100
AcDbLine
 10
70.47140555857382
 20
-903.2511350440327
 30
0.0
 11
72.45747353607342
 21
-906.691105688348
 31
0.0
  0
LINE
  5
68
330
51
100
AcDbEntity
  8
1
  6
Continuous
 62
     7
100
AcDbLine
 10
72.45747353607342
 20
-906.691105688348
 30
0.0
 11
75.8974441803887
 21
-904.7050377108485
 31
0.0
  0
LINE
  5
69
330
51
100
AcDbEntity
  8
1
  6
Continuous
 62
     7
100
AcDbLine
 10
76.3974441803887
 20
-905.5710631146329
 30
0.0
 11
72.95747353607342
 21
-907.5571310921325
 31
0.0
  0
LINE
  5
6A
330
51
100
AcDbEntity
  8
1
  6
Continuous
 62
     7
100
AcDbLine
 10
72.95747353607342
 20
-907.5571310921325
 30
0.0
 11
74.94354151357302
 21
-910.9971017364478
 31
0.0
  0
LINE
  5
6B
330
51
100
AcDbEntity
  8
1
  6
Continuous
 62
     7
100
AcDbLine
 10
74.0775161097886
 20
-911.4971017364478
 30
0.0
 11
72.091448132289
 21
-908.0571310921325
 31
0.0
  0
LINE
  5
6C
330
51
100
AcDbEntity
  8
1
  6
Continuous
 62
     7
100
AcDbLine
 10
72.091448132289
 20
-908.0571310921325
 30
0.0
 11
68.65147748797372
 21
-910.043199069632
 31
0.0
  0
LINE
  5
6D
330
51
100
AcDbEntity
  8
1
  6
Continuous
 62
     7
100
AcDbLine
 10
68.15147748797372
 20
-909.1771736658476
 30
0.0
 11
71.591448132289
 21
-907.191105688348
 31
0.0
  0
LINE
  5
6E
330
51
100
AcDbEntity
  8
1
  6
Continuous
 62
     7
100
AcDbLine
 10
71.591448132289
 20
-907.191105688348
 30
0.0
 11
69.6053801547894
 21
-903.7511350440327
 31
0.0
  0
LINE
  5
6F
330
51
100
AcDbEntity
  8
1
  6
PHANTOM
 62
     2
100
AcDbLine
 10
-9.79113030844107
 20
-945.2391692838319
 30
0.0
 11
-20.2700376942324
 21
-939.1891692838316
 31
0.0
  0
LINE
  5
70
330
51
100
AcDbEntity
  8
1
  6
PHANTOM
 62
     2
100
AcDbLine
 10
-18.055584001337
 20
-947.4536229767275
 30
0.0
 11
-12.00558400133659
 21
-936.9747155909361
 31
0.0
  0
LINE
  5
71
330
51
100
AcDbEntity
  8
1
  6
Continuous
 62
     7
100
AcDbLine
 10
-12.36150332194458
 20
-938.5911859376245
 30
0.0
 11
-14.34757129944441
 21
-942.0311565819395
 31
0.0
  0
LINE
  5
72
330
51
100
AcDbEntity
  8
1
  6
Continuous
 62
     7
100
AcDbLine
 10
-14.34757129944441
 20
-942.0311565819395
 30
0.0
 11
-10.90760065512936
 21
-944.0172245594395
 31
0.0
  0
LINE
  5
73
330
51
100
AcDbEntity
  8
1
  6
Continuous
 62
     7
100
AcDbLine
 10
-11.40760065512947
 20
-944.8832499632239
 30
0.0
 11
-14.84757129944453
 21
-942.897181985724
 31
0.0
  0
LINE
  5
74
330
51
100
AcDbEntity
  8
1
  6
Continuous
 62
     7
100
AcDbLine
 10
-14.84757129944453
 20
-942.897181985724
 30
0.0
 11
-16.83363927694435
 21
-946.3371526300391
 31
0.0
  0
LINE
  5
75
330
51
100
AcDbEntity
  8
1
  6
Continuous
 62
     7
100
AcDbLine
 10
-17.69966468072877
 20
-945.8371526300391
 30
0.0
 11
-15.71359670322894
 21
-942.397181985724
 31
0.0
  0
LINE
  5
76
330
51
100
AcDbEntity
  8
1
  6
Continuous
 62
     7
100
AcDbLine
 10
-15.71359670322894
 20
-942.397181985724
 30
0.0
 11
-19.153567347544
 21
-940.4111140082241
 31
0.0
  0
LINE
  5
77
330
51
100
AcDbEntity
  8
1
  6
Continuous
 62
     7
100
AcDbLine
 10
-18.65356734754388
 20
-939.5450886044396
 30
0.0
 11
-15.21359670322883
 21
-941.5311565819395
 31
0.0
  0
LINE
  5
78
330
51
100
AcDbEntity
  8
1
  6
Continuous
 62
     7
100
AcDbLine
 10
-15.21359670322883
 20
-941.5311565819395
 30
0.0
 11
-13.227528725729
 21
-938.0911859376245
 31
0.0
  0
LINE
  5
79
330
51
100
AcDbEntity
  8
1
  6
PHANTOM
 62
     2
100
AcDbLine
 10
-88.85547556208923
 20
-890.0758080245305
 30
0.0
 11
-88.85547556208888
 21
-877.9758080245306
 31
0.0
  0
LINE
  5
7A
330
51
100
AcDbEntity
  8
1
  6
PHANTOM
 62
     2
100
AcDbLine
 10
-94.90547556208905
 20
-884.0258080245303
 30
0.0
 11
-82.80547556208906
 21
-884.0258080245306
 31
0.0
  0
LINE
  5
7B
330
51
100
AcDbEntity
  8
1
  6
Continuous
 62
     7
100
AcDbLine
 10
-84.3833396070895
 20
-884.5258080245306
 30
0.0
 11
-88.35547556208907
 21
-884.5258080245305
 31
0.0
  0
LINE
  5
7C
330
51
100
AcDbEntity
  8
1
  6
Continuous
 62
     7
100
AcDbLine
 10
-88.35547556208907
 20
-884.5258080245305
 30
0.0
 11
-88.35547556208918
 21
-888.4979439795301
 31
0.0
  0
LINE
  5
7D
330
51
100
AcDbEntity
  8
1
  6
Continuous
 62
     7
100
AcDbLine
 10
-89.35547556208918
 20
-888.4979439795301
 30
0.0
 11
-89.35547556208907
 21
-884.5258080245305
 31
0.0
  0
LINE
  5
7E
330
51
100
AcDbEntity
  8
1
  6
Continuous
 62
     7
100
AcDbLine
 10
-89.35547556208907
 20
-884.5258080245305
 30
0.0
 11
-93.32761151708861
 21
-884.5258080245304
 31
0.0
  0
LINE
  5
7F
330
51
100
AcDbEntity
  8
1
  6
Continuous
 62
     7
100
AcDbLine
 10
-93.32761151708858
 20
-883.5258080245304
 30
0.0
 11
-89.35547556208904
 21
-883.5258080245305
 31
0.0
  0
LINE
  5
80
330
51
100
AcDbEntity
  8
1
  6
Continuous
 62
     7
100
AcDbLine
 10
-89.35547556208904
 20
-883.5258080245305
 30
0.0
 11
-89.35547556208893
 21
-879.553672069531
 31
0.0
  0
LINE
  5
81
330
51
100
AcDbEntity
  8
1
  6
Continuous
 62
     7
100
AcDbLine
 10
-88.35547556208893
 20
-879.553672069531
 30
0.0
 11
-88.35547556208904
 21
-883.5258080245305
 31
0.0
  0
LINE
  5
82
330
51
100
AcDbEntity
  8
1
  6
Continuous
 62
     7
100
AcDbLine
 10
-88.35547556208904
 20
-883.5258080245305
 30
0.0
 11
-84.3833396070895
 21
-883.5258080245306
 31
0.0
  0
LINE
  5
83
330
51
100
AcDbEntity
  8
1
  6
PHANTOM
 62
     2
100
AcDbLine
 10
-80.61477598022086
 20
-794.0223958716366
 30
0.0
 11
-70.13586859442907
 21
-787.9723958716368
 31
0.0
  0
LINE
  5
84
330
51
100
AcDbEntity
  8
1
  6
PHANTOM
 62
     2
100
AcDbLine
 10
-78.40032228732488
 20
-785.7579421787408
 30
0.0
 11
-72.35032228732516
 21
-796.2368495645326
 31
0.0
  0
LINE
  5
85
330
51
100
AcDbEntity
  8
1
  6
Continuous
 62
     7
100
AcDbLine
 10
-73.57226701171746
 20
-795.1203792178442
 30
0.0
 11
-75.55833498921717
 21
-791.6804085735289
 31
0.0
  0
LINE
  5
86
330
51
100
AcDbEntity
  8
1
  6
Continuous
 62
     7
100
AcDbLine
 10
-75.55833498921717
 20
-791.6804085735289
 30
0.0
 11
-78.99830563353245
 21
-793.6664765510286
 31
0.0
  0
LINE
  5
87
330
51
100
AcDbEntity
  8
1
  6
Continuous
 62
     7
100
AcDbLine
 10
-79.49830563353245
 20
-792.8004511472441
 30
0.0
 11
-76.05833498921717
 21
-790.8143831697444
 31
0.0
  0
LINE
  5
88
330
51
100
AcDbEntity
  8
1
  6
Continuous
 62
     7
100
AcDbLine
 10
-76.05833498921717
 20
-790.8143831697444
 30
0.0
 11
-78.04440296671689
 21
-787.3744125254292
 31
0.0
  0
LINE
  5
89
330
51
100
AcDbEntity
  8
1
  6
Continuous
 62
     7
100
AcDbLine
 10
-77.17837756293247
 20
-786.8744125254293
 30
0.0
 11
-75.19230958543275
 21
-790.3143831697445
 31
0.0
  0
LINE
  5
8A
330
51
100
AcDbEntity
  8
1
  6
Continuous
 62
     7
100
AcDbLine
 10
-75.19230958543275
 20
-790.3143831697445
 30
0.0
 11
-71.75233894111759
 21
-788.3283151922448
 31
0.0
  0
LINE
  5
8B
330
51
100
AcDbEntity
  8
1
  6
Continuous
 62
     7
100
AcDbLine
 10
-71.25233894111759
 20
-789.1943405960292
 30
0.0
 11
-74.69230958543275
 21
-791.1804085735289
 31
0.0
  0
LINE
  5
8C
330
51
100
AcDbEntity
  8
1
  6
Continuous
 62
     7
100
AcDbLine
 10
-74.69230958543275
 20
-791.1804085735289
 30
0.0
 11
-72.70624160793304
 21
-794.6203792178442
 31
0.0
  0
LINE
  5
8D
330
51
100
AcDbEntity
  8
1
  6
PHANTOM
 62
     2
100
AcDbLine
 10
6.69026885529595
 20
-753.1323449780425
 30
0.0
 11
17.16917624108763
 21
-759.1823449780427
 31
0.0
  0
LINE
  5
8E
330
51
100
AcDbEntity
  8
1
  6
PHANTOM
 62
     2
100
AcDbLine
 10
14.95472254819188
 20
-750.9178912851468
 30
0.0
 11
8.90472254819181
 21
-761.3967986709384
 31
0.0
  0
LINE
  5
8F
330
51
100
AcDbEntity
  8
1
  6
Continuous
 62
     7
100
AcDbLine
 10
9.26064186879969
 20
-759.7803283242499
 30
0.0
 11
11.24670984629952
 21
-756.3403576799349
 31
0.0
  0
LINE
  5
90
330
51
100
AcDbEntity
  8
1
  6
Continuous
 62
     7
100
AcDbLine
 10
11.24670984629952
 20
-756.3403576799349
 30
0.0
 11
7.80673920198447
 21
-754.354289702435
 31
0.0
  0
LINE
  5
91
330
51
100
AcDbEntity
  8
1
  6
Continuous
 62
     7
100
AcDbLine
 10
8.30673920198447
 20
-753.4882642986506
 30
0.0
 11
11.74670984629952
 21
-755.4743322761503
 31
0.0
  0
LINE
  5
92
330
51
100
AcDbEntity
  8
1
  6
Continuous
 62
     7
100
AcDbLine
 10
11.74670984629952
 20
-755.4743322761503
 30
0.0
 11
13.73277782379935
 21
-752.0343616318353
 31
0.0
  0
LINE
  5
93
330
51
100
AcDbEntity
  8
1
  6
Continuous
 62
     7
100
AcDbLine
 10
14.59880322758389
 20
-752.5343616318353
 30
0.0
 11
12.61273525008406
 21
-755.9743322761503
 31
0.0
  0
LINE
  5
94
330
51
100
AcDbEntity
  8
1
  6
Continuous
 62
     7
100
AcDbLine
 10
12.61273525008406
 20
-755.9743322761503
 30
0.0
 11
16.05270589439911
 21
-757.9604002536502
 31
0.0
  0
LINE
  5
95
330
51
100
AcDbEntity
  8
1
  6
Continuous
 62
     7
100
AcDbLine
 10
15.55270589439911
 20
-758.8264256574346
 30
0.0
 11
12.11273525008406
 21
-756.8403576799349
 31
0.0
  0
LINE
  5
96
330
51
100
AcDbEntity
  8
1
  6
Continuous
 62
     7
100
AcDbLine
 10
12.11273525008406
 20
-756.8403576799349
 30
0.0
 11
10.12666727258434
 21
-760.2803283242499
 31
0.0
  0
LINE
  5
97
330
51
100
AcDbEntity
  8
1
  6
Continuous
 62
     7
100
AcDbLine
 10
85.25461410894596
 20
-814.8457062373418
 30
0.0
 11
81.28247815394641
 21
-814.8457062373418
 31
0.0
  0
LINE
  5
98
330
51
100
AcDbEntity
  8
1
  6
Continuous
 62
     7
100
AcDbLine
 10
85.25461410894596
 20
-818.8178421923413
 30
0.0
 11
85.25461410894596
 21
-814.8457062373418
 31
0.0
  0
LINE
  5
99
330
51
100
AcDbEntity
  8
1
  6
Continuous
 62
     7
100
AcDbLine
 10
86.25461410894596
 20
-814.8457062373418
 30
0.0
 11
86.25461410894596
 21
-818.8178421923413
 31
0.0
  0
LINE
  5
9A
330
51
100
AcDbEntity
  8
1
  6
Continuous
 62
     7
100
AcDbLine
 10
90.2267500639455
 20
-814.8457062373418
 30
0.0
 11
86.25461410894596
 21
-814.8457062373418
 31
0.0
  0
LINE
  5
9B
330
51
100
AcDbEntity
  8
1
  6
Continuous
 62
     7
100
AcDbLine
 10
86.25461410894596
 20
-813.8457062373418
 30
0.0
 11
90.2267500639455
 21
-813.8457062373418
 31
0.0
  0
LINE
  5
9C
330
51
100
AcDbEntity
  8
1
  6
Continuous
 62
     7
100
AcDbLine
 10
86.25461410894596
 20
-809.8735702823423
 30
0.0
 11
86.25461410894596
 21
-813.8457062373418
 31
0.0
  0
LINE
  5
9D
330
51
100
AcDbEntity
  8
1
  6
Continuous
 62
     7
100
AcDbLine
 10
85.25461410894596
 20
-813.8457062373418
 30
0.0
 11
85.25461410894596
 21
-809.8735702823423
 31
0.0
  0
LINE
  5
9E
330
51
100
AcDbEntity
  8
1
  6
Continuous
 62
     7
100
AcDbLine
 10
81.28247815394639
 20
-813.8457062373418
 30
0.0
 11
85.25461410894596
 21
-813.8457062373418
 31
0.0
  0
LINE
  5
9F
330
51
100
AcDbEntity
  8
1
  6
PHANTOM
 62
     2
100
AcDbLine
 10
85.75461410894596
 20
-808.2957062373418
 30
0.0
 11
85.75461410894596
 21
-820.3957062373418
 31
0.0
  0
LINE
  5
A0
330
51
100
AcDbEntity
  8
1
  6
PHANTOM
 62
     2
100
AcDbLine
 10
91.80461410894596
 20
-814.3457062373418
 30
0.0
 11
79.70461410894596
 21
-814.3457062373418
 31
0.0
  0
LINE
  5
A1
330
51
100
AcDbEntity
  8
1
  6
Continuous
 62
     7
100
AcDbLine
 10
-251.5504307265711
 20
-1099.185757130937
 30
0.0
 11
-251.5504307265711
 21
-599.1857571309374
 31
0.0
  0
LINE
  5
A2
330
51
100
AcDbEntity
  8
1
  6
Continuous
 62
     7
100
AcDbLine
 10
248.4495692734289
 20
-1099.185757130937
 30
0.0
 11
-251.5504307265711
 21
-1099.185757130937
 31
0.0
  0
LINE
  5
A3
330
51
100
AcDbEntity
  8
1
  6
Continuous
 62
     7
100
AcDbLine
 10
248.4495692734289
 20
-599.1857571309374
 30
0.0
 11
248.4495692734289
 21
-1099.185757130937
 31
0.0
  0
LINE
  5
A4
330
51
100
AcDbEntity
  8
1
  6
Continuous
 62
     7
100
AcDbLine
 10
-251.5504307265711
 20
-599.1857571309374
 30
0.0
 11
248.4495692734289
 21
-599.1857571309374
 31
0.0
  0
LINE
  5
A5
330
51
100
AcDbEntity
  8
0
  6
Continuous
 62
     7
100
AcDbLine
 10
-79.98998515186585
 20
-814.9303839809072
 30
0.0
 11
-69.2110431144848
 21
-819.4662091651298
 31
0.0
  0
LINE
  5
A6
330
51
100
AcDbEntity
  8
0
  6
Continuous
 62
     7
100
AcDbLine
 10
-86.18316511689235
 20
-836.3992580907761
 30
0.0
 11
-74.59754867998171
 21
-837.9907332944204
 31
0.0
  0
LINE
  5
A7
330
51
100
AcDbEntity
  8
0
  6
Continuous
 62
     7
100
AcDbLine
 10
-86.49616867562699
 20
-838.6778604633328
 30
0.0
 11
-74.91055223871635
 21
-840.269335666977
 31
0.0
  0
LINE
  5
A8
330
51
100
AcDbEntity
  8
0
  6
Continuous
 62
     7
100
AcDbLine
 10
-86.49616867562699
 20
-838.6778604633328
 30
0.0
 11
-86.18316511689235
 21
-836.3992580907761
 31
0.0
  0
LINE
  5
A9
330
51
100
AcDbEntity
  8
0
  6
Continuous
 62
     7
100
AcDbLine
 10
-66.81271682139604
 20
-813.461899365062
 30
0.0
 11
-66.41265649739407
 21
-813.7724592323466
 31
0.0
  0
LINE
  5
AA
330
51
100
AcDbEntity
  8
0
  6
Continuous
 62
     7
100
AcDbLine
 10
-66.81271682139604
 20
-813.461899365062
 30
0.0
 11
-67.29269776389455
 21
-813.0892985124992
 31
0.0
  0
LINE
  5
AB
330
51
100
AcDbEntity
  8
0
  6
Continuous
 62
     7
100
AcDbLine
 10
-80.88206906320019
 20
-817.0503335782159
 30
0.0
 11
-70.10312702581913
 21
-821.5861587624386
 31
0.0
  0
LINE
  5
AC
330
51
100
AcDbEntity
  8
0
  6
Continuous
 62
     7
100
AcDbLine
 10
-69.2110431144848
 20
-819.4662091651298
 30
0.0
 11
-58.75224382952919
 21
-823.8673169017638
 31
0.0
  0
LINE
  5
AD
330
51
100
AcDbEntity
  8
0
  6
Continuous
 62
     7
100
AcDbLine
 10
-80.88206906320019
 20
-817.0503335782159
 30
0.0
 11
-79.98998515186585
 21
-814.9303839809072
 31
0.0
  0
LINE
  5
AE
330
51
100
AcDbEntity
  8
0
  6
Continuous
 62
     7
100
AcDbLine
 10
35.89339745720091
 20
-799.0755728482145
 30
0.0
 11
33.18066425712269
 21
-802.5700904510486
 31
0.0
  0
LINE
  5
AF
330
51
100
AcDbEntity
  8
0
  6
Continuous
 62
     7
100
AcDbLine
 10
44.66830328853567
 20
-791.5226092283083
 30
0.0
 11
37.71022321759111
 21
-800.4859430678298
 31
0.0
  0
LINE
  5
B0
330
51
100
AcDbEntity
  8
0
  6
Continuous
 62
     7
100
AcDbLine
 10
52.50513071162087
 20
-798.7952195509315
 30
0.0
 11
52.81569065717295
 21
-798.3951591261066
 31
0.0
  0
LINE
  5
B1
330
51
100
AcDbEntity
  8
0
  6
Continuous
 62
     7
100
AcDbLine
 10
53.18829160222404
 20
-797.9151780644679
 30
0.0
 11
52.81569065717295
 21
-798.3951591261066
 31
0.0
  0
LINE
  5
B2
330
51
100
AcDbEntity
  8
0
  6
Continuous
 62
     7
100
AcDbLine
 10
33.18066425712269
 20
-802.5700904510486
 30
0.0
 11
31.99603037973239
 21
-804.0961247611449
 31
0.0
  0
LINE
  5
B3
330
51
100
AcDbEntity
  8
0
  6
Continuous
 62
     7
100
AcDbLine
 10
41.73722708199594
 20
-844.8928931162591
 30
0.0
 11
43.32982437627098
 21
-844.6923103197769
 31
0.0
  0
LINE
  5
B4
330
51
100
AcDbEntity
  8
0
  6
Continuous
 62
     7
100
AcDbLine
 10
39.15116094525538
 20
-833.8354986516752
 30
0.0
 11
40.63757715482089
 21
-833.2295560373059
 31
0.0
  0
LINE
  5
B5
330
51
100
AcDbEntity
  8
0
  6
Continuous
 62
     7
100
AcDbLine
 10
41.44981961286422
 20
-842.6109209545793
 30
0.0
 11
43.04241690713926
 21
-842.4103381580935
 31
0.0
  0
LINE
  5
B6
330
51
100
AcDbEntity
  8
0
  6
Continuous
 62
     7
100
AcDbLine
 10
5.50665131164524
 20
-806.2620155290497
 30
0.0
 11
5.72509771914511
 21
-804.6717700237823
 31
0.0
  0
LINE
  5
B7
330
51
100
AcDbEntity
  8
0
  6
Continuous
 62
     7
100
AcDbLine
 10
16.37566888601023
 20
-809.5511137910544
 30
0.0
 11
16.99825773582953
 21
-808.071592677974
 31
0.0
  0
LINE
  5
B8
330
51
100
AcDbEntity
  8
0
  6
Continuous
 62
     7
100
AcDbLine
 10
24.20622663567147
 20
-814.130877277712
 30
0.0
 11
25.19052952656594
 21
-812.8629074756464
 31
0.0
  0
LINE
  5
B9
330
51
100
AcDbEntity
  8
0
  6
Continuous
 62
     7
100
AcDbLine
 10
31.99603037973239
 20
-804.0961247611449
 30
0.0
 11
27.25004208875353
 21
-810.2098626050283
 31
0.0
  0
LINE
  5
BA
330
51
100
AcDbEntity
  8
0
  6
Continuous
 62
     7
100
AcDbLine
 10
19.93220855657083
 20
-795.1694119361091
 30
0.0
 11
19.18290684263585
 21
-796.9500536969717
 31
0.0
  0
LINE
  5
BB
330
51
100
AcDbEntity
  8
0
  6
Continuous
 62
     7
100
AcDbLine
 10
19.18290684263585
 20
-796.9500536969717
 30
0.0
 11
16.18098597187228
 21
-804.0838231330818
 31
0.0
  0
LINE
  5
BC
330
51
100
AcDbEntity
  8
0
  6
Continuous
 62
     7
100
AcDbLine
 10
21.30285643994458
 20
-797.8421376083061
 30
0.0
 11
18.30093556918465
 21
-804.9759070444161
 31
0.0
  0
LINE
  5
BD
330
51
100
AcDbEntity
  8
0
  6
Continuous
 62
     7
100
AcDbLine
 10
-8.12526690292916
 20
-806.1855067915058
 30
0.0
 11
-8.32584969941499
 21
-804.5929094972344
 31
0.0
  0
LINE
  5
BE
330
51
100
AcDbEntity
  8
0
  6
Continuous
 62
     7
100
AcDbLine
 10
-5.84329474124579
 20
-805.898099322374
 30
0.0
 11
-6.04387753773162
 21
-804.3055020281026
 31
0.0
  0
LINE
  5
BF
330
51
100
AcDbEntity
  8
0
  6
Continuous
 62
     7
100
AcDbLine
 10
3.22804893908861
 20
-805.949011970315
 30
0.0
 11
3.44649534658848
 21
-804.3587664650477
 31
0.0
  0
LINE
  5
C0
330
51
100
AcDbEntity
  8
0
  6
Continuous
 62
     7
100
AcDbLine
 10
51.57383055692654
 20
-872.7883460113881
 30
0.0
 11
49.7931887960639
 21
-872.0390442974531
 31
0.0
  0
LINE
  5
C1
330
51
100
AcDbEntity
  8
0
  6
Continuous
 62
     7
100
AcDbLine
 10
55.65138237639067
 20
-874.5041973601183
 30
0.0
 11
51.57383055692654
 21
-872.7883460113881
 31
0.0
  0
LINE
  5
C2
330
51
100
AcDbEntity
  8
0
  6
Continuous
 62
     7
100
AcDbLine
 10
52.46591446826452
 20
-870.6683964140793
 30
0.0
 11
50.68527270739824
 21
-869.9190947001443
 31
0.0
  0
LINE
  5
C3
330
51
100
AcDbEntity
  8
0
  6
Continuous
 62
     7
100
AcDbLine
 10
67.00226557268425
 20
-876.7853554994399
 30
0.0
 11
56.54346628772865
 21
-872.3842477628059
 31
0.0
  0
LINE
  5
C4
330
51
100
AcDbEntity
  8
0
  6
Continuous
 62
     7
100
AcDbLine
 10
49.7931887960639
 20
-872.0390442974531
 30
0.0
 11
42.65941935995389
 21
-869.0371234266931
 31
0.0
  0
LINE
  5
C5
330
51
100
AcDbEntity
  8
0
  6
Continuous
 62
     7
100
AcDbLine
 10
56.54346628772865
 20
-872.3842477628059
 30
0.0
 11
52.46591446826452
 21
-870.6683964140793
 31
0.0
  0
LINE
  5
C6
330
51
100
AcDbEntity
  8
0
  6
Continuous
 62
     7
100
AcDbLine
 10
50.68527270739824
 20
-869.9190947001443
 30
0.0
 11
43.55150327128823
 21
-866.9171738293808
 31
0.0
  0
LINE
  5
C7
330
51
100
AcDbEntity
  8
0
  6
Continuous
 62
     7
100
AcDbLine
 10
43.53920164322872
 20
-882.7322182372409
 30
0.0
 11
37.42546379934166
 21
-877.9862299462584
 31
0.0
  0
LINE
  5
C8
330
51
100
AcDbEntity
  8
0
  6
Continuous
 62
     7
100
AcDbLine
 10
45.06523595332138
 20
-883.9168521146275
 30
0.0
 11
43.53920164322872
 21
-882.7322182372409
 31
0.0
  0
LINE
  5
C9
330
51
100
AcDbEntity
  8
0
  6
Continuous
 62
     7
100
AcDbLine
 10
48.55975355615911
 20
-886.6295853147094
 30
0.0
 11
45.06523595332138
 21
-883.9168521146275
 31
0.0
  0
LINE
  5
CA
330
51
100
AcDbEntity
  8
0
  6
Continuous
 62
     7
100
AcDbLine
 10
66.11018166134991
 20
-878.9053050967523
 30
0.0
 11
55.65138237639067
 21
-874.5041973601183
 31
0.0
  0
LINE
  5
CB
330
51
100
AcDbEntity
  8
0
  6
Continuous
 62
     7
100
AcDbLine
 10
63.71185536826116
 20
-884.9096148968165
 30
0.0
 11
63.31179504425555
 21
-884.5990550295319
 31
0.0
  0
LINE
  5
CC
330
51
100
AcDbEntity
  8
0
  6
Continuous
 62
     7
100
AcDbLine
 10
38.0842126133156
 20
-867.1118567435187
 30
0.0
 11
39.56373372639965
 21
-867.734445593338
 31
0.0
  0
LINE
  5
CD
330
51
100
AcDbEntity
  8
0
  6
Continuous
 62
     7
100
AcDbLine
 10
33.50444912666163
 20
-874.9424144931763
 30
0.0
 11
34.77241892872362
 21
-875.9267173840744
 31
0.0
  0
LINE
  5
CE
330
51
100
AcDbEntity
  8
0
  6
Continuous
 62
     7
100
AcDbLine
 10
41.37331087532394
 20
-856.2428391691537
 30
0.0
 11
42.96355638059131
 21
-856.4612855766536
 31
0.0
  0
LINE
  5
CF
330
51
100
AcDbEntity
  8
0
  6
Continuous
 62
     7
100
AcDbLine
 10
41.68631443405857
 20
-853.9642367965971
 30
0.0
 11
43.27655993932231
 21
-854.182683204097
 31
0.0
  0
LINE
  5
D0
330
51
100
AcDbEntity
  8
0
  6
Continuous
 62
     7
100
AcDbLine
 10
38.97629652465358
 20
-864.9919071462064
 30
0.0
 11
40.45581763773399
 21
-865.6144959960257
 31
0.0
  0
LINE
  5
D1
330
51
100
AcDbEntity
  8
0
  6
Continuous
 62
     7
100
AcDbLine
 10
-19.03051852495455
 20
-809.3523976120559
 30
0.0
 11
-19.63646113932745
 21
-807.8659814024904
 31
0.0
  0
LINE
  5
D2
330
51
100
AcDbEntity
  8
0
  6
Continuous
 62
     7
100
AcDbLine
 10
-40.26197602985312
 20
-800.0483264071408
 30
0.0
 11
-37.58863824331465
 21
-803.5730731739895
 31
0.0
  0
LINE
  5
D3
330
51
100
AcDbEntity
  8
0
  6
Continuous
 62
     7
100
AcDbLine
 10
-37.58863824331465
 20
-803.5730731739895
 30
0.0
 11
-36.42120810033347
 21
-805.1123083737875
 31
0.0
  0
LINE
  5
D4
330
51
100
AcDbEntity
  8
0
  6
Continuous
 62
     7
100
AcDbLine
 10
-38.42943390167247
 20
-798.6584381567955
 30
0.0
 11
-35.756096115134
 21
-802.1831849236441
 31
0.0
  0
LINE
  5
D5
330
51
100
AcDbEntity
  8
0
  6
Continuous
 62
     7
100
AcDbLine
 10
-35.756096115134
 20
-802.1831849236441
 30
0.0
 11
-34.58866597215283
 21
-803.7224201234421
 31
0.0
  0
LINE
  5
D6
330
51
100
AcDbEntity
  8
0
  6
Continuous
 62
     7
100
AcDbLine
 10
-28.7445310507338
 20
-815.2338660560781
 30
0.0
 11
-29.71453949518954
 21
-813.9549277394835
 31
0.0
  0
LINE
  5
D7
330
51
100
AcDbEntity
  8
0
  6
Continuous
 62
     7
100
AcDbLine
 10
-35.19494036017758
 20
-821.6122740083119
 30
0.0
 11
-36.46291016224322
 21
-820.6279711174175
 31
0.0
  0
LINE
  5
D8
330
51
100
AcDbEntity
  8
0
  6
Continuous
 62
     7
100
AcDbLine
 10
-54.18593307356977
 20
-781.689844804594
 30
0.0
 11
-47.11900803539001
 21
-791.0074556599429
 31
0.0
  0
LINE
  5
D9
330
51
100
AcDbEntity
  8
0
  6
Continuous
 62
     7
100
AcDbLine
 10
-54.18593307356977
 20
-781.689844804594
 30
0.0
 11
-52.35339094538912
 21
-780.299956554245
 31
0.0
  0
LINE
  5
DA
330
51
100
AcDbEntity
  8
0
  6
Continuous
 62
     7
100
AcDbLine
 10
-16.90068920583335
 20
-808.4841654591182
 30
0.0
 11
-17.50663182020261
 21
-806.9977492495527
 31
0.0
  0
LINE
  5
DB
330
51
100
AcDbEntity
  8
0
  6
Continuous
 62
     7
100
AcDbLine
 10
-52.35339094538912
 20
-780.299956554245
 30
0.0
 11
-45.28646590720936
 21
-789.6175674095975
 31
0.0
  0
LINE
  5
DC
330
51
100
AcDbEntity
  8
0
  6
Continuous
 62
     7
100
AcDbLine
 10
-45.28646590720936
 20
-789.6175674095975
 30
0.0
 11
-38.42943390167247
 21
-798.6584381567955
 31
0.0
  0
LINE
  5
DD
330
51
100
AcDbEntity
  8
0
  6
Continuous
 62
     7
100
AcDbLine
 10
-47.11900803539001
 20
-791.0074556599429
 30
0.0
 11
-40.26197602985312
 21
-800.0483264071408
 31
0.0
  0
LINE
  5
DE
330
51
100
AcDbEntity
  8
0
  6
Continuous
 62
     7
100
AcDbLine
 10
-36.42120810033347
 20
-805.1123083737875
 30
0.0
 11
-31.7441429793017
 21
-811.2789328260733
 31
0.0
  0
LINE
  5
DF
330
51
100
AcDbEntity
  8
0
  6
Continuous
 62
     7
100
AcDbLine
 10
-26.91198892255679
 20
-813.8439778057327
 30
0.0
 11
-27.88199736700889
 21
-812.5650394891381
 31
0.0
  0
LINE
  5
E0
330
51
100
AcDbEntity
  8
0
  6
Continuous
 62
     7
100
AcDbLine
 10
-59.21357862920021
 20
-802.9670231158343
 30
0.0
 11
-50.2502447896787
 21
-809.9251031867825
 31
0.0
  0
LINE
  5
E1
330
51
100
AcDbEntity
  8
0
  6
Continuous
 62
     7
100
AcDbLine
 10
-51.94096830657699
 20
-795.1301956927491
 30
0.0
 11
-52.34102873140191
 21
-794.8196357472007
 31
0.0
  0
LINE
  5
E2
330
51
100
AcDbEntity
  8
0
  6
Continuous
 62
     7
100
AcDbLine
 10
-52.82100979304059
 20
-794.4470348021459
 30
0.0
 11
-52.34102873140191
 21
-794.8196357472007
 31
0.0
  0
LINE
  5
E3
330
51
100
AcDbEntity
  8
0
  6
Continuous
 62
     7
100
AcDbLine
 10
-34.58866597215283
 20
-803.7224201234421
 30
0.0
 11
-29.91160085112105
 21
-809.8890445757279
 31
0.0
  0
LINE
  5
E4
330
51
100
AcDbEntity
  8
0
  6
Continuous
 62
     7
100
AcDbLine
 10
-9.64285339314492
 20
-775.7301739844879
 30
0.0
 11
-8.22492485538359
 21
-786.9883137266588
 31
0.0
  0
LINE
  5
E5
330
51
100
AcDbEntity
  8
0
  6
Continuous
 62
     7
100
AcDbLine
 10
-11.92482555482465
 20
-776.017581453616
 30
0.0
 11
-10.50689701706332
 21
-787.2757211957905
 31
0.0
  0
LINE
  5
E6
330
51
100
AcDbEntity
  8
0
  6
Continuous
 62
     7
100
AcDbLine
 10
-10.50689701706332
 20
-787.2757211957905
 30
0.0
 11
-9.95409196444788
 21
-791.6649103310556
 31
0.0
  0
LINE
  5
E7
330
51
100
AcDbEntity
  8
0
  6
Continuous
 62
     7
100
AcDbLine
 10
-7.67211980276815
 20
-791.3775028619239
 30
0.0
 11
-7.4307132417035
 21
-793.29423471884
 31
0.0
  0
LINE
  5
E8
330
51
100
AcDbEntity
  8
0
  6
Continuous
 62
     7
100
AcDbLine
 10
-8.22492485538359
 20
-786.9883137266588
 30
0.0
 11
-7.67211980276815
 21
-791.3775028619239
 31
0.0
  0
LINE
  5
E9
330
51
100
AcDbEntity
  8
0
  6
Continuous
 62
     7
100
AcDbLine
 10
-9.95409196444788
 20
-791.6649103310556
 30
0.0
 11
-9.71268540338323
 21
-793.5816421879717
 31
0.0
  0
LINE
  5
EA
330
51
100
AcDbEntity
  8
0
  6
Continuous
 62
     7
100
AcDbLine
 10
-11.10418457517343
 20
-764.1274237620819
 30
0.0
 11
-9.64285339314492
 21
-775.7301739844879
 31
0.0
  0
LINE
  5
EB
330
51
100
AcDbEntity
  8
0
  6
Continuous
 62
     7
100
AcDbLine
 10
-13.38615673685317
 20
-764.4148312312136
 30
0.0
 11
-11.92482555482465
 21
-776.017581453616
 31
0.0
  0
LINE
  5
EC
330
51
100
AcDbEntity
  8
0
  6
Continuous
 62
     7
100
AcDbLine
 10
-13.38615673685317
 20
-764.4148312312136
 30
0.0
 11
-11.10418457517343
 21
-764.1274237620819
 31
0.0
  0
LINE
  5
ED
330
51
100
AcDbEntity
  8
0
  6
Continuous
 62
     7
100
AcDbLine
 10
-45.22969287674832
 20
-813.8224702642474
 30
0.0
 11
-39.11595503286125
 21
-818.5684585552299
 31
0.0
  0
LINE
  5
EE
330
51
100
AcDbEntity
  8
0
  6
Continuous
 62
     7
100
AcDbLine
 10
-28.37881466487497
 20
-780.3275853917876
 30
0.0
 11
-24.09537989272039
 21
-790.8351264145531
 31
0.0
  0
LINE
  5
EF
330
51
100
AcDbEntity
  8
0
  6
Continuous
 62
     7
100
AcDbLine
 10
-30.5086439839998
 20
-781.1958175447253
 30
0.0
 11
-26.22520921184523
 21
-791.7033585674944
 31
0.0
  0
LINE
  5
F0
330
51
100
AcDbEntity
  8
0
  6
Continuous
 62
     7
100
AcDbLine
 10
-21.69613793383732
 20
-796.7206212679775
 30
0.0
 11
-18.77447979444523
 21
-803.8876366159748
 31
0.0
  0
LINE
  5
F1
330
51
100
AcDbEntity
  8
0
  6
Continuous
 62
     7
100
AcDbLine
 10
-26.22520921184523
 20
-791.7033585674944
 30
0.0
 11
-24.55523479385565
 21
-795.79991323387
 31
0.0
  0
LINE
  5
F2
330
51
100
AcDbEntity
  8
0
  6
Continuous
 62
     7
100
AcDbLine
 10
-24.09537989272039
 20
-790.8351264145531
 30
0.0
 11
-22.42540547473081
 21
-794.9316810809287
 31
0.0
  0
LINE
  5
F3
330
51
100
AcDbEntity
  8
0
  6
Continuous
 62
     7
100
AcDbLine
 10
-23.82596725296216
 20
-797.5888534209189
 30
0.0
 11
-20.90430911357007
 21
-804.7558687689125
 31
0.0
  0
LINE
  5
F4
330
51
100
AcDbEntity
  8
0
  6
Continuous
 62
     7
100
AcDbLine
 10
-24.55523479385565
 20
-795.79991323387
 30
0.0
 11
-23.82596725296216
 21
-797.5888534209189
 31
0.0
  0
LINE
  5
F5
330
51
100
AcDbEntity
  8
0
  6
Continuous
 62
     7
100
AcDbLine
 10
-22.42540547473081
 20
-794.9316810809287
 30
0.0
 11
-21.69613793383732
 21
-796.7206212679775
 31
0.0
  0
LINE
  5
F6
330
51
100
AcDbEntity
  8
0
  6
Continuous
 62
     7
100
AcDbLine
 10
-46.75572718684097
 20
-812.6378363868607
 30
0.0
 11
-45.22969287674832
 21
-813.8224702642474
 31
0.0
  0
LINE
  5
F7
330
51
100
AcDbEntity
  8
0
  6
Continuous
 62
     7
100
AcDbLine
 10
-50.2502447896787
 20
-809.9251031867825
 30
0.0
 11
-46.75572718684097
 21
-812.6378363868607
 31
0.0
  0
LINE
  5
F8
330
51
100
AcDbEntity
  8
0
  6
Continuous
 62
     7
100
AcDbLine
 10
-32.79336492748379
 20
-769.4984096370972
 30
0.0
 11
-28.37881466487497
 21
-780.3275853917876
 31
0.0
  0
LINE
  5
F9
330
51
100
AcDbEntity
  8
0
  6
Continuous
 62
     7
100
AcDbLine
 10
-34.92319424660863
 20
-770.3666417900349
 30
0.0
 11
-30.5086439839998
 21
-781.1958175447253
 31
0.0
  0
LINE
  5
FA
330
51
100
AcDbEntity
  8
0
  6
Continuous
 62
     7
100
AcDbLine
 10
-34.92319424660863
 20
-770.3666417900349
 30
0.0
 11
-32.79336492748379
 21
-769.4984096370972
 31
0.0
  0
LINE
  5
FB
330
51
100
AcDbEntity
  8
0
  6
Continuous
 62
     7
100
AcDbLine
 10
83.39530722248847
 20
-859.6936537985493
 30
0.0
 11
71.80969078557783
 21
-858.1021785949051
 31
0.0
  0
LINE
  5
FC
330
51
100
AcDbEntity
  8
0
  6
Continuous
 62
     7
100
AcDbLine
 10
71.61774495075397
 20
-838.8113623026838
 30
0.0
 11
60.35960520858308
 21
-840.2292908404452
 31
0.0
  0
LINE
  5
FD
330
51
100
AcDbEntity
  8
0
  6
Continuous
 62
     7
100
AcDbLine
 10
71.9051524198857
 20
-841.0933344643636
 30
0.0
 11
60.64701267771116
 21
-842.5112630021249
 31
0.0
  0
LINE
  5
FE
330
51
100
AcDbEntity
  8
0
  6
Continuous
 62
     7
100
AcDbLine
 10
83.22049517315637
 20
-837.3500311206553
 30
0.0
 11
71.61774495075397
 21
-838.8113623026838
 31
0.0
  0
LINE
  5
FF
330
51
100
AcDbEntity
  8
0
  6
Continuous
 62
     7
100
AcDbLine
 10
83.50790264228809
 20
-839.6320032823351
 30
0.0
 11
71.9051524198857
 21
-841.0933344643636
 31
0.0
  0
LINE
  5
100
330
51
100
AcDbEntity
  8
0
  6
Continuous
 62
     7
100
AcDbLine
 10
83.22049517315637
 20
-837.3500311206553
 30
0.0
 11
83.50790264228809
 21
-839.6320032823351
 31
0.0
  0
LINE
  5
101
330
51
100
AcDbEntity
  8
0
  6
Continuous
 62
     7
100
AcDbLine
 10
71.80969078557783
 20
-858.1021785949051
 30
0.0
 11
60.56817594247505
 21
-856.5579714116611
 31
0.0
  0
LINE
  5
102
330
51
100
AcDbEntity
  8
0
  6
Continuous
 62
     7
100
AcDbLine
 10
33.81285614012259
 20
-805.5064949807602
 30
0.0
 11
29.06686784914373
 21
-811.6202328246472
 31
0.0
  0
LINE
  5
103
330
51
100
AcDbEntity
  8
0
  6
Continuous
 62
     7
100
AcDbLine
 10
60.64701267771116
 20
-842.5112630021249
 30
0.0
 11
56.25782354244612
 21
-843.0640680547403
 31
0.0
  0
LINE
  5
104
330
51
100
AcDbEntity
  8
0
  6
Continuous
 62
     7
100
AcDbLine
 10
55.9704160733144
 20
-840.7820958930606
 30
0.0
 11
54.05368421639824
 21
-841.0235024541253
 31
0.0
  0
LINE
  5
105
330
51
100
AcDbEntity
  8
0
  6
Continuous
 62
     7
100
AcDbLine
 10
50.04647298345472
 20
-826.9102206045463
 30
0.0
 11
42.8794576354575
 21
-829.8318787439384
 31
0.0
  0
LINE
  5
106
330
51
100
AcDbEntity
  8
0
  6
Continuous
 62
     7
100
AcDbLine
 10
56.25782354244612
 20
-843.0640680547403
 30
0.0
 11
54.34109168552996
 21
-843.305474615805
 31
0.0
  0
LINE
  5
107
330
51
100
AcDbEntity
  8
0
  6
Continuous
 62
     7
100
AcDbLine
 10
58.01775899477244
 20
-805.4497219502955
 30
0.0
 11
48.97688824757816
 21
-812.306753955836
 31
0.0
  0
LINE
  5
108
330
51
100
AcDbEntity
  8
0
  6
Continuous
 62
     7
100
AcDbLine
 10
32.40146034829186
 20
-821.9916568067747
 30
0.0
 11
33.68039866488644
 21
-821.021648362319
 31
0.0
  0
LINE
  5
109
330
51
100
AcDbEntity
  8
0
  6
Continuous
 62
     7
100
AcDbLine
 10
38.28292879231404
 20
-831.7056693325503
 30
0.0
 11
39.76934500187954
 21
-831.099726718181
 31
0.0
  0
LINE
  5
10A
330
51
100
AcDbEntity
  8
0
  6
Continuous
 62
     7
100
AcDbLine
 10
33.79134859863726
 20
-823.8241989349517
 30
0.0
 11
35.07028691523183
 21
-822.854190490496
 31
0.0
  0
LINE
  5
10B
330
51
100
AcDbEntity
  8
0
  6
Continuous
 62
     7
100
AcDbLine
 10
26.02305239605803
 20
-815.5412474973273
 30
0.0
 11
27.00735528695614
 21
-814.2732776952653
 31
0.0
  0
LINE
  5
10C
330
51
100
AcDbEntity
  8
0
  6
Continuous
 62
     7
100
AcDbLine
 10
50.91470513639243
 20
-829.0400499236712
 30
0.0
 11
43.74768978839521
 21
-831.9617080630633
 31
0.0
  0
LINE
  5
10D
330
51
100
AcDbEntity
  8
0
  6
Continuous
 62
     7
100
AcDbLine
 10
60.35960520858308
 20
-840.2292908404452
 30
0.0
 11
55.9704160733144
 21
-840.7820958930606
 31
0.0
  0
LINE
  5
10E
330
51
100
AcDbEntity
  8
0
  6
Continuous
 62
     7
100
AcDbLine
 10
55.93196783687918
 20
-824.5109786456633
 30
0.0
 11
51.83541317050359
 21
-826.1809530636529
 31
0.0
  0
LINE
  5
10F
330
51
100
AcDbEntity
  8
0
  6
Continuous
 62
     7
100
AcDbLine
 10
47.58699999722913
 20
-810.4742118276554
 30
0.0
 11
44.06225323038407
 21
-813.1475496141938
 31
0.0
  0
LINE
  5
110
330
51
100
AcDbEntity
  8
0
  6
Continuous
 62
     7
100
AcDbLine
 10
37.71022321759111
 20
-800.4859430678298
 30
0.0
 11
34.99749001751289
 21
-803.9804606706675
 31
0.0
  0
LINE
  5
111
330
51
100
AcDbEntity
  8
0
  6
Continuous
 62
     7
100
AcDbLine
 10
48.97688824757816
 20
-812.306753955836
 30
0.0
 11
45.45214148072947
 21
-814.9800917423745
 31
0.0
  0
LINE
  5
112
330
51
100
AcDbEntity
  8
0
  6
Continuous
 62
     7
100
AcDbLine
 10
34.99749001751289
 20
-803.9804606706675
 30
0.0
 11
33.81285614012259
 21
-805.5064949807602
 31
0.0
  0
LINE
  5
113
330
51
100
AcDbEntity
  8
0
  6
Continuous
 62
     7
100
AcDbLine
 10
45.45214148072947
 20
-814.9800917423745
 30
0.0
 11
43.91290628093148
 21
-816.1475218853557
 31
0.0
  0
LINE
  5
114
330
51
100
AcDbEntity
  8
0
  6
Continuous
 62
     7
100
AcDbLine
 10
44.06225323038407
 20
-813.1475496141938
 30
0.0
 11
42.52301803058609
 21
-814.314979757175
 31
0.0
  0
LINE
  5
115
330
51
100
AcDbEntity
  8
0
  6
Continuous
 62
     7
100
AcDbLine
 10
42.52301803058609
 20
-814.314979757175
 30
0.0
 11
36.35639357830033
 21
-818.9920448782068
 31
0.0
  0
LINE
  5
116
330
51
100
AcDbEntity
  8
0
  6
Continuous
 62
     7
100
AcDbLine
 10
43.91290628093148
 20
-816.1475218853557
 30
0.0
 11
37.74628182864572
 21
-820.8245870063874
 31
0.0
  0
LINE
  5
117
330
51
100
AcDbEntity
  8
0
  6
Continuous
 62
     7
100
AcDbLine
 10
51.83541317050359
 20
-826.1809530636529
 30
0.0
 11
50.04647298345472
 21
-826.9102206045463
 31
0.0
  0
LINE
  5
118
330
51
100
AcDbEntity
  8
0
  6
Continuous
 62
     7
100
AcDbLine
 10
52.70364532344129
 20
-828.3107823827777
 30
0.0
 11
50.91470513639243
 21
-829.0400499236712
 31
0.0
  0
LINE
  5
119
330
51
100
AcDbEntity
  8
0
  6
Continuous
 62
     7
100
AcDbLine
 10
78.1369167672764
 20
-817.9428229300247
 30
0.0
 11
67.30774101258604
 21
-822.3573731926335
 31
0.0
  0
LINE
  5
11A
330
51
100
AcDbEntity
  8
0
  6
Continuous
 62
     7
100
AcDbLine
 10
67.30774101258604
 20
-822.3573731926335
 30
0.0
 11
56.80019998981689
 21
-826.6408079647881
 31
0.0
  0
LINE
  5
11B
330
51
100
AcDbEntity
  8
0
  6
Continuous
 62
     7
100
AcDbLine
 10
56.80019998981689
 20
-826.6408079647881
 30
0.0
 11
52.70364532344129
 21
-828.3107823827777
 31
0.0
  0
LINE
  5
11C
330
51
100
AcDbEntity
  8
0
  6
Continuous
 62
     7
100
AcDbLine
 10
66.43950885964833
 20
-820.2275438735087
 30
0.0
 11
55.93196783687918
 21
-824.5109786456633
 31
0.0
  0
LINE
  5
11D
330
51
100
AcDbEntity
  8
0
  6
Continuous
 62
     7
100
AcDbLine
 10
77.26868461433506
 20
-815.8129936108999
 30
0.0
 11
78.1369167672764
 21
-817.9428229300247
 31
0.0
  0
LINE
  5
11E
330
51
100
AcDbEntity
  8
0
  6
Continuous
 62
     7
100
AcDbLine
 10
77.26868461433506
 20
-815.8129936108999
 30
0.0
 11
66.43950885964833
 21
-820.2275438735087
 31
0.0
  0
LINE
  5
11F
330
51
100
AcDbEntity
  8
0
  6
Continuous
 62
     7
100
AcDbLine
 10
54.05368421639824
 20
-841.0235024541253
 30
0.0
 11
46.37469822460653
 21
-841.9906474379495
 31
0.0
  0
LINE
  5
120
330
51
100
AcDbEntity
  8
0
  6
Continuous
 62
     7
100
AcDbLine
 10
54.34109168552996
 20
-843.305474615805
 30
0.0
 11
46.66210569373826
 21
-844.2726195996293
 31
0.0
  0
LINE
  5
121
330
51
100
AcDbEntity
  8
0
  6
Continuous
 62
     7
100
AcDbLine
 10
-9.71268540338323
 20
-793.5816421879717
 30
0.0
 11
-8.74554041955898
 21
-801.2606281797634
 31
0.0
  0
LINE
  5
122
330
51
100
AcDbEntity
  8
0
  6
Continuous
 62
     7
100
AcDbLine
 10
-7.4307132417035
 20
-793.29423471884
 30
0.0
 11
-6.46356825787925
 21
-800.9732207106354
 31
0.0
  0
LINE
  5
123
330
51
100
AcDbEntity
  8
0
  6
Continuous
 62
     7
100
AcDbLine
 10
4.95684061365856
 20
-793.3637594982429
 30
0.0
 11
3.9035631095484
 21
-801.0314059286175
 31
0.0
  0
LINE
  5
124
330
51
100
AcDbEntity
  8
0
  6
Continuous
 62
     7
100
AcDbLine
 10
7.23544298621519
 20
-793.6767630569775
 30
0.0
 11
6.18216548210503
 21
-801.3444094873521
 31
0.0
  0
LINE
  5
125
330
51
100
AcDbEntity
  8
0
  6
Continuous
 62
     7
100
AcDbLine
 10
14.2557192887015
 20
-808.65902987972
 30
0.0
 11
14.87830813851716
 21
-807.179508766636
 31
0.0
  0
LINE
  5
126
330
51
100
AcDbEntity
  8
0
  6
Continuous
 62
     7
100
AcDbLine
 10
65.94548159977958
 20
-796.5502547839387
 30
0.0
 11
56.62787074442704
 21
-803.6171798221185
 31
0.0
  0
LINE
  5
127
330
51
100
AcDbEntity
  8
0
  6
Continuous
 62
     7
100
AcDbLine
 10
67.33536985012498
 20
-798.3827969121194
 30
0.0
 11
58.01775899477244
 21
-805.4497219502955
 31
0.0
  0
LINE
  5
128
330
51
100
AcDbEntity
  8
0
  6
Continuous
 62
     7
100
AcDbLine
 10
65.94548159977958
 20
-796.5502547839387
 30
0.0
 11
67.33536985012498
 21
-798.3827969121194
 31
0.0
  0
LINE
  5
129
330
51
100
AcDbEntity
  8
0
  6
Continuous
 62
     7
100
AcDbLine
 10
56.62787074442704
 20
-803.6171798221185
 30
0.0
 11
47.58699999722913
 21
-810.4742118276554
 31
0.0
  0
LINE
  5
12A
330
51
100
AcDbEntity
  8
0
  6
Continuous
 62
     7
100
AcDbLine
 10
42.8514775281491
 20
-790.1122390086894
 30
0.0
 11
35.89339745720091
 21
-799.0755728482145
 31
0.0
  0
LINE
  5
12B
330
51
100
AcDbEntity
  8
0
  6
Continuous
 62
     7
100
AcDbLine
 10
7.49834886316776
 20
-791.7628616386974
 30
0.0
 11
7.23544298621519
 21
-793.6767630569775
 31
0.0
  0
LINE
  5
12C
330
51
100
AcDbEntity
  8
0
  6
Continuous
 62
     7
100
AcDbLine
 10
5.82178355415263
 20
-787.0671504618949
 30
0.0
 11
5.21974649061113
 21
-791.4498580799627
 31
0.0
  0
LINE
  5
12D
330
51
100
AcDbEntity
  8
0
  6
Continuous
 62
     7
100
AcDbLine
 10
8.10038592670927
 20
-787.3801540206296
 30
0.0
 11
7.49834886316776
 21
-791.7628616386974
 31
0.0
  0
LINE
  5
12E
330
51
100
AcDbEntity
  8
0
  6
Continuous
 62
     7
100
AcDbLine
 10
7.36599073739663
 20
-775.8256356187921
 30
0.0
 11
5.82178355415263
 21
-787.0671504618949
 31
0.0
  0
LINE
  5
12F
330
51
100
AcDbEntity
  8
0
  6
Continuous
 62
     7
100
AcDbLine
 10
9.64459310995326
 20
-776.1386391775268
 30
0.0
 11
8.10038592670927
 21
-787.3801540206296
 31
0.0
  0
LINE
  5
130
330
51
100
AcDbEntity
  8
0
  6
Continuous
 62
     7
100
AcDbLine
 10
11.23606831359749
 20
-764.5530227406161
 30
0.0
 11
9.64459310995326
 21
-776.1386391775268
 31
0.0
  0
LINE
  5
131
330
51
100
AcDbEntity
  8
0
  6
Continuous
 62
     7
100
AcDbLine
 10
8.95746594104085
 20
-764.2400191818815
 30
0.0
 11
7.36599073739663
 21
-775.8256356187921
 31
0.0
  0
LINE
  5
132
330
51
100
AcDbEntity
  8
0
  6
Continuous
 62
     7
100
AcDbLine
 10
8.95746594104085
 20
-764.2400191818815
 30
0.0
 11
11.23606831359749
 21
-764.5530227406161
 31
0.0
  0
LINE
  5
133
330
51
100
AcDbEntity
  8
0
  6
Continuous
 62
     7
100
AcDbLine
 10
5.21974649061113
 20
-791.4498580799627
 30
0.0
 11
4.95684061365856
 21
-793.3637594982429
 31
0.0
  0
LINE
  5
134
330
51
100
AcDbEntity
  8
0
  6
Continuous
 62
     7
100
AcDbLine
 10
30.58499282615404
 20
-769.8541187943083
 30
0.0
 11
26.04916764193141
 21
-780.6330608316894
 31
0.0
  0
LINE
  5
135
330
51
100
AcDbEntity
  8
0
  6
Continuous
 62
     7
100
AcDbLine
 10
30.58499282615404
 20
-769.8541187943083
 30
0.0
 11
32.70494242346641
 21
-770.7462027056426
 31
0.0
  0
LINE
  5
136
330
51
100
AcDbEntity
  8
0
  6
Continuous
 62
     7
100
AcDbLine
 10
32.70494242346641
 20
-770.7462027056426
 30
0.0
 11
28.16911723924378
 21
-781.5251447430237
 31
0.0
  0
LINE
  5
137
330
51
100
AcDbEntity
  8
0
  6
Continuous
 62
     7
100
AcDbLine
 10
26.04916764193141
 20
-780.6330608316894
 30
0.0
 11
21.6480599052974
 21
-791.091860116645
 31
0.0
  0
LINE
  5
138
330
51
100
AcDbEntity
  8
0
  6
Continuous
 62
     7
100
AcDbLine
 10
28.16911723924378
 20
-781.5251447430237
 30
0.0
 11
23.76800950260977
 21
-791.9839440279793
 31
0.0
  0
LINE
  5
139
330
51
100
AcDbEntity
  8
0
  6
Continuous
 62
     7
100
AcDbLine
 10
22.05215815387956
 20
-796.0614958474434
 30
0.0
 11
21.30285643994458
 21
-797.8421376083061
 31
0.0
  0
LINE
  5
13A
330
51
100
AcDbEntity
  8
0
  6
Continuous
 62
     7
100
AcDbLine
 10
23.76800950260977
 20
-791.9839440279793
 30
0.0
 11
22.05215815387956
 21
-796.0614958474434
 31
0.0
  0
LINE
  5
13B
330
51
100
AcDbEntity
  8
0
  6
Continuous
 62
     7
100
AcDbLine
 10
21.6480599052974
 20
-791.091860116645
 30
0.0
 11
19.93220855657083
 21
-795.1694119361091
 31
0.0
  0
LINE
  5
13C
330
51
100
AcDbEntity
  8
0
  6
Continuous
 62
     7
100
AcDbLine
 10
34.17342703931163
 20
-783.9234710361088
 30
0.0
 11
33.86286717202702
 21
-784.3235313601144
 31
0.0
  0
LINE
  5
13D
330
51
100
AcDbEntity
  8
0
  6
Continuous
 62
     7
100
AcDbLine
 10
34.17342703931163
 20
-783.9234710361088
 30
0.0
 11
34.54602789187439
 21
-783.443490093614
 31
0.0
  0
LINE
  5
13E
330
51
100
AcDbEntity
  8
0
  6
Continuous
 62
     7
100
AcDbLine
 10
63.71185536826116
 20
-884.9096148968165
 30
0.0
 11
64.19183631075967
 21
-885.2822157493829
 31
0.0
  0
LINE
  5
13F
330
51
100
AcDbEntity
  8
0
  6
Continuous
 62
     7
100
AcDbLine
 10
48.84010685343847
 20
-903.2413185691294
 30
0.0
 11
49.24016727826339
 21
-903.5518785146778
 31
0.0
  0
LINE
  5
140
330
51
100
AcDbEntity
  8
0
  6
Continuous
 62
     7
100
AcDbLine
 10
49.72014833990571
 20
-903.9244794597325
 30
0.0
 11
49.24016727826339
 21
-903.5518785146778
 31
0.0
  0
LINE
  5
141
330
51
100
AcDbEntity
  8
0
  6
Continuous
 62
     7
100
AcDbLine
 10
-37.27428849244652
 20
-914.4480432257697
 30
0.0
 11
-36.96372862516191
 21
-914.047982901764
 31
0.0
  0
LINE
  5
142
330
51
100
AcDbEntity
  8
0
  6
Continuous
 62
     7
100
AcDbLine
 10
-37.27428849244652
 20
-914.4480432257697
 30
0.0
 11
-37.64688934500927
 21
-914.9280241682645
 31
0.0
  0
LINE
  5
143
330
51
100
AcDbEntity
  8
0
  6
Continuous
 62
     7
100
AcDbLine
 10
-55.60599216475575
 20
-899.576294710947
 30
0.0
 11
-55.91655211030783
 21
-899.9763551357719
 31
0.0
  0
LINE
  5
144
330
51
100
AcDbEntity
  8
0
  6
Continuous
 62
     7
100
AcDbLine
 10
-56.28915305535892
 20
-900.4563361974106
 30
0.0
 11
-55.91655211030783
 21
-899.9763551357719
 31
0.0
  0
LINE
  5
145
330
51
100
AcDbEntity
  8
0
  6
Continuous
 62
     7
100
AcDbLine
 10
-47.76916474167419
 20
-906.8489050335738
 30
0.0
 11
-40.81108467072599
 21
-897.8855711940487
 31
0.0
  0
LINE
  5
146
330
51
100
AcDbEntity
  8
0
  6
Continuous
 62
     7
100
AcDbLine
 10
-45.95233898128399
 20
-908.2592752531891
 30
0.0
 11
-38.99425891033579
 21
-899.2959414136676
 31
0.0
  0
LINE
  5
147
330
51
100
AcDbEntity
  8
0
  6
Continuous
 62
     7
100
AcDbLine
 10
-80.36954606747358
 20
-882.5585206509786
 30
0.0
 11
-69.54037031278321
 21
-878.1439703883698
 31
0.0
  0
LINE
  5
148
330
51
100
AcDbEntity
  8
0
  6
Continuous
 62
     7
100
AcDbLine
 10
-81.23777822041129
 20
-880.4286913318538
 30
0.0
 11
-70.40860246572092
 21
-876.0141410692486
 31
0.0
  0
LINE
  5
149
330
51
100
AcDbEntity
  8
0
  6
Continuous
 62
     7
100
AcDbLine
 10
-80.36954606747358
 20
-882.5585206509786
 30
0.0
 11
-81.23777822041129
 21
-880.4286913318538
 31
0.0
  0
LINE
  5
14A
330
51
100
AcDbEntity
  8
0
  6
Continuous
 62
     7
100
AcDbLine
 10
-29.15002909506993
 20
-917.7384534301927
 30
0.0
 11
-24.74892135843592
 21
-907.2796541452371
 31
0.0
  0
LINE
  5
14B
330
51
100
AcDbEntity
  8
0
  6
Continuous
 62
     7
100
AcDbLine
 10
-59.72873219756193
 20
-894.75433443976
 30
0.0
 11
-50.68786145036765
 21
-887.8973024342231
 31
0.0
  0
LINE
  5
14C
330
51
100
AcDbEntity
  8
0
  6
Continuous
 62
     7
100
AcDbLine
 10
-61.11862044790732
 20
-892.921792311583
 30
0.0
 11
-52.07774970071304
 21
-886.0647603060461
 31
0.0
  0
LINE
  5
14D
330
51
100
AcDbEntity
  8
0
  6
Continuous
 62
     7
100
AcDbLine
 10
-38.99425891033579
 20
-899.2959414136676
 30
0.0
 11
-36.28152571025757
 21
-895.8014238108299
 31
0.0
  0
LINE
  5
14E
330
51
100
AcDbEntity
  8
0
  6
Continuous
 62
     7
100
AcDbLine
 10
-40.81108467072599
 20
-897.8855711940487
 30
0.0
 11
-38.09835147064777
 21
-894.391053591211
 31
0.0
  0
LINE
  5
14F
330
51
100
AcDbEntity
  8
0
  6
Continuous
 62
     7
100
AcDbLine
 10
-14.33692976673237
 20
-933.8184915212623
 30
0.0
 11
-12.74545456308815
 21
-922.2328750843517
 31
0.0
  0
LINE
  5
150
330
51
100
AcDbEntity
  8
0
  6
Continuous
 62
     7
100
AcDbLine
 10
-12.05832739417573
 20
-934.131495079997
 30
0.0
 11
-14.33692976673237
 21
-933.8184915212623
 31
0.0
  0
LINE
  5
151
330
51
100
AcDbEntity
  8
0
  6
Continuous
 62
     7
100
AcDbLine
 10
-12.05832739417573
 20
-934.131495079997
 30
0.0
 11
-10.46685219053151
 21
-922.5458786430863
 31
0.0
  0
LINE
  5
152
330
51
100
AcDbEntity
  8
0
  6
Continuous
 62
     7
100
AcDbLine
 10
6.853230511313
 20
-906.7066039308229
 30
0.0
 11
6.61182395024835
 21
-904.7898720739067
 31
0.0
  0
LINE
  5
153
330
51
100
AcDbEntity
  8
0
  6
Continuous
 62
     7
100
AcDbLine
 10
27.40778253086492
 20
-917.1756967171532
 30
0.0
 11
23.12434775870671
 21
-906.6681556943877
 31
0.0
  0
LINE
  5
154
330
51
100
AcDbEntity
  8
0
  6
Continuous
 62
     7
100
AcDbLine
 10
13.79982775269482
 20
-889.8873488027639
 30
0.0
 11
14.40577036706773
 21
-891.3737650123294
 31
0.0
  0
LINE
  5
155
330
51
100
AcDbEntity
  8
0
  6
Continuous
 62
     7
100
AcDbLine
 10
-57.37242835926563
 20
-842.6784857907151
 30
0.0
 11
-49.70478192889104
 21
-843.7317632948252
 31
0.0
  0
LINE
  5
156
330
51
100
AcDbEntity
  8
0
  6
Continuous
 62
     7
100
AcDbLine
 10
-57.05942480053099
 20
-840.3998834181584
 30
0.0
 11
-49.3917783701564
 21
-841.4531609222686
 31
0.0
  0
LINE
  5
157
330
51
100
AcDbEntity
  8
0
  6
Continuous
 62
     7
100
AcDbLine
 10
5.02440544979063
 20
-892.1860074703727
 30
0.0
 11
5.22498824627647
 21
-893.7786047646478
 31
0.0
  0
LINE
  5
158
330
51
100
AcDbEntity
  8
0
  6
Continuous
 62
     7
100
AcDbLine
 10
6.61182395024835
 20
-904.7898720739067
 30
0.0
 11
5.64467896642409
 21
-897.110886082115
 31
0.0
  0
LINE
  5
159
330
51
100
AcDbEntity
  8
0
  6
Continuous
 62
     7
100
AcDbLine
 10
2.7424332881109
 20
-892.4734149395044
 30
0.0
 11
2.94301608459673
 21
-894.0660122337795
 31
0.0
  0
LINE
  5
15A
330
51
100
AcDbEntity
  8
0
  6
Continuous
 62
     7
100
AcDbLine
 10
18.59527648070244
 20
-901.6508929939009
 30
0.0
 11
15.67361834130671
 21
-894.4838776459037
 31
0.0
  0
LINE
  5
15B
330
51
100
AcDbEntity
  8
0
  6
Continuous
 62
     7
100
AcDbLine
 10
19.32454402159593
 20
-903.4398331809498
 30
0.0
 11
18.59527648070244
 21
-901.6508929939009
 31
0.0
  0
LINE
  5
15C
330
51
100
AcDbEntity
  8
0
  6
Continuous
 62
     7
100
AcDbLine
 10
20.99451843958187
 20
-907.5363878473254
 30
0.0
 11
19.32454402159593
 21
-903.4398331809498
 31
0.0
  0
LINE
  5
15D
330
51
100
AcDbEntity
  8
0
  6
Continuous
 62
     7
100
AcDbLine
 10
23.12434775870671
 20
-906.6681556943877
 30
0.0
 11
21.45437334072076
 21
-902.5716010280084
 31
0.0
  0
LINE
  5
15E
330
51
100
AcDbEntity
  8
0
  6
Continuous
 62
     7
100
AcDbLine
 10
20.72510579982728
 20
-900.7826608409632
 30
0.0
 11
17.80344766043154
 21
-893.615645492966
 31
0.0
  0
LINE
  5
15F
330
51
100
AcDbEntity
  8
0
  6
Continuous
 62
     7
100
AcDbLine
 10
21.45437334072076
 20
-902.5716010280084
 30
0.0
 11
20.72510579982728
 21
-900.7826608409632
 31
0.0
  0
LINE
  5
160
330
51
100
AcDbEntity
  8
0
  6
Continuous
 62
     7
100
AcDbLine
 10
25.27795321174008
 20
-918.0439288700945
 30
0.0
 11
20.99451843958187
 21
-907.5363878473254
 31
0.0
  0
LINE
  5
161
330
51
100
AcDbEntity
  8
0
  6
Continuous
 62
     7
100
AcDbLine
 10
-69.54037031278321
 20
-878.1439703883698
 30
0.0
 11
-59.03282929001406
 21
-873.8605356162152
 31
0.0
  0
LINE
  5
162
330
51
100
AcDbEntity
  8
0
  6
Continuous
 62
     7
100
AcDbLine
 10
-6.32891039222349
 20
-892.4225022915671
 30
0.0
 11
-6.547356799727
 21
-894.0127477968308
 31
0.0
  0
LINE
  5
163
330
51
100
AcDbEntity
  8
0
  6
Continuous
 62
     7
100
AcDbLine
 10
5.12406340224871
 20
-911.3832005352197
 30
0.0
 11
4.57125834963327
 21
-906.9940113999546
 31
0.0
  0
LINE
  5
164
330
51
100
AcDbEntity
  8
0
  6
Continuous
 62
     7
100
AcDbLine
 10
8.82396410168977
 20
-922.3539328082625
 30
0.0
 11
7.40603556392844
 21
-911.0957930660879
 31
0.0
  0
LINE
  5
165
330
51
100
AcDbEntity
  8
0
  6
Continuous
 62
     7
100
AcDbLine
 10
6.5419919400064
 20
-922.6413402773942
 30
0.0
 11
5.12406340224871
 21
-911.3832005352197
 31
0.0
  0
LINE
  5
166
330
51
100
AcDbEntity
  8
0
  6
Continuous
 62
     7
100
AcDbLine
 10
10.28529528371828
 20
-933.9566830306649
 30
0.0
 11
8.82396410168977
 21
-922.3539328082625
 31
0.0
  0
LINE
  5
167
330
51
100
AcDbEntity
  8
0
  6
Continuous
 62
     7
100
AcDbLine
 10
10.28529528371828
 20
-933.9566830306649
 30
0.0
 11
8.00332312203491
 21
-934.2440904997966
 31
0.0
  0
LINE
  5
168
330
51
100
AcDbEntity
  8
0
  6
Continuous
 62
     7
100
AcDbLine
 10
8.00332312203491
 20
-934.2440904997966
 30
0.0
 11
6.5419919400064
 21
-922.6413402773942
 31
0.0
  0
LINE
  5
169
330
51
100
AcDbEntity
  8
0
  6
Continuous
 62
     7
100
AcDbLine
 10
-70.40860246572092
 20
-876.0141410692486
 30
0.0
 11
-59.90106144295541
 21
-871.7307062970904
 31
0.0
  0
LINE
  5
16A
330
51
100
AcDbEntity
  8
0
  6
Continuous
 62
     7
100
AcDbLine
 10
-50.68786145036765
 20
-887.8973024342231
 30
0.0
 11
-47.16311468351896
 21
-885.2239646476846
 31
0.0
  0
LINE
  5
16B
330
51
100
AcDbEntity
  8
0
  6
Continuous
 62
     7
100
AcDbLine
 10
-52.07774970071304
 20
-886.0647603060461
 30
0.0
 11
-48.55300293386435
 21
-883.391422519504
 31
0.0
  0
LINE
  5
16C
330
51
100
AcDbEntity
  8
0
  6
Continuous
 62
     7
100
AcDbLine
 10
-36.28152571025757
 20
-895.8014238108299
 30
0.0
 11
-35.09689183287091
 21
-894.2753895007372
 31
0.0
  0
LINE
  5
16D
330
51
100
AcDbEntity
  8
0
  6
Continuous
 62
     7
100
AcDbLine
 10
-38.09835147064777
 20
-894.391053591211
 30
0.0
 11
-36.91371759326111
 21
-892.8650192811183
 31
0.0
  0
LINE
  5
16E
330
51
100
AcDbEntity
  8
0
  6
Continuous
 62
     7
100
AcDbLine
 10
-26.86887095574465
 20
-906.3875702338992
 30
0.0
 11
-25.15301960701808
 21
-902.310018414435
 31
0.0
  0
LINE
  5
16F
330
51
100
AcDbEntity
  8
0
  6
Continuous
 62
     7
100
AcDbLine
 10
-25.15301960701808
 20
-902.310018414435
 30
0.0
 11
-24.4037178930831
 21
-900.5293766535724
 31
0.0
  0
LINE
  5
170
330
51
100
AcDbEntity
  8
0
  6
Continuous
 62
     7
100
AcDbLine
 10
-23.03307000970571
 20
-903.202102325773
 30
0.0
 11
-22.28376829577073
 21
-901.4214605649067
 31
0.0
  0
LINE
  5
171
330
51
100
AcDbEntity
  8
0
  6
Continuous
 62
     7
100
AcDbLine
 10
-24.74892135843592
 20
-907.2796541452371
 30
0.0
 11
-23.03307000970571
 21
-903.202102325773
 31
0.0
  0
LINE
  5
172
330
51
100
AcDbEntity
  8
0
  6
Continuous
 62
     7
100
AcDbLine
 10
-47.16311468351896
 20
-885.2239646476846
 30
0.0
 11
-45.62387948372097
 21
-884.0565345047034
 31
0.0
  0
LINE
  5
173
330
51
100
AcDbEntity
  8
0
  6
Continuous
 62
     7
100
AcDbLine
 10
-59.90106144295541
 20
-871.7307062970904
 30
0.0
 11
-55.80450677657618
 21
-870.0607318791044
 31
0.0
  0
LINE
  5
174
330
51
100
AcDbEntity
  8
0
  6
Continuous
 62
     7
100
AcDbLine
 10
-24.4037178930831
 20
-900.5293766535724
 30
0.0
 11
-21.40179702231953
 21
-893.3956072174624
 31
0.0
  0
LINE
  5
175
330
51
100
AcDbEntity
  8
0
  6
Continuous
 62
     7
100
AcDbLine
 10
-22.28376829577073
 20
-901.4214605649067
 30
0.0
 11
-19.2818474250108
 21
-894.2876911287967
 31
0.0
  0
LINE
  5
176
330
51
100
AcDbEntity
  8
0
  6
Continuous
 62
     7
100
AcDbLine
 10
-47.01376773406636
 20
-882.2239923765264
 30
0.0
 11
-40.8471432817806
 21
-877.5469272554947
 31
0.0
  0
LINE
  5
177
330
51
100
AcDbEntity
  8
0
  6
Continuous
 62
     7
100
AcDbLine
 10
-41.38379024545256
 20
-866.6658449293282
 30
0.0
 11
-42.87020645501806
 21
-867.2717875436974
 31
0.0
  0
LINE
  5
178
330
51
100
AcDbEntity
  8
0
  6
Continuous
 62
     7
100
AcDbLine
 10
-36.89221005177578
 20
-874.5473153269268
 30
0.0
 11
-38.17114836837035
 21
-875.5173237713825
 31
0.0
  0
LINE
  5
179
330
51
100
AcDbEntity
  8
0
  6
Continuous
 62
     7
100
AcDbLine
 10
-54.01556658953095
 20
-869.3314643382109
 30
0.0
 11
-46.84855124153373
 21
-866.4098061988152
 31
0.0
  0
LINE
  5
17A
330
51
100
AcDbEntity
  8
0
  6
Continuous
 62
     7
100
AcDbLine
 10
-35.50232180143038
 20
-876.3798574551074
 30
0.0
 11
-36.78126011802496
 21
-877.3498658995595
 31
0.0
  0
LINE
  5
17B
330
51
100
AcDbEntity
  8
0
  6
Continuous
 62
     7
100
AcDbLine
 10
-19.47653033914511
 20
-888.8204004708241
 30
0.0
 11
-20.09911918896441
 21
-890.2999215839081
 31
0.0
  0
LINE
  5
17C
330
51
100
AcDbEntity
  8
0
  6
Continuous
 62
     7
100
AcDbLine
 10
4.32985178856498
 20
-905.0772795430385
 30
0.0
 11
3.36270680474072
 21
-897.3982935512468
 31
0.0
  0
LINE
  5
17D
330
51
100
AcDbEntity
  8
0
  6
Continuous
 62
     7
100
AcDbLine
 10
4.57125834963327
 20
-906.9940113999546
 30
0.0
 11
4.32985178856498
 21
-905.0772795430385
 31
0.0
  0
LINE
  5
17E
330
51
100
AcDbEntity
  8
0
  6
Continuous
 62
     7
100
AcDbLine
 10
7.40603556392844
 20
-911.0957930660879
 30
0.0
 11
6.853230511313
 21
-906.7066039308229
 31
0.0
  0
LINE
  5
17F
330
51
100
AcDbEntity
  8
0
  6
Continuous
 62
     7
100
AcDbLine
 10
-53.1473344365896
 20
-871.4612936573358
 30
0.0
 11
-45.98031908859602
 21
-868.53963551794
 31
0.0
  0
LINE
  5
180
330
51
100
AcDbEntity
  8
0
  6
Continuous
 62
     7
100
AcDbLine
 10
-27.30708808880635
 20
-884.2406369841665
 30
0.0
 11
-28.29139097970082
 21
-885.5086067862321
 31
0.0
  0
LINE
  5
181
330
51
100
AcDbEntity
  8
0
  6
Continuous
 62
     7
100
AcDbLine
 10
-29.12391384919656
 20
-882.8302667645512
 30
0.0
 11
-30.10821674009102
 21
-884.0982365666132
 31
0.0
  0
LINE
  5
182
330
51
100
AcDbEntity
  8
0
  6
Continuous
 62
     7
100
AcDbLine
 10
-48.55300293386435
 20
-883.391422519504
 30
0.0
 11
-47.01376773406636
 21
-882.2239923765264
 31
0.0
  0
LINE
  5
183
330
51
100
AcDbEntity
  8
0
  6
Continuous
 62
     7
100
AcDbLine
 10
-54.93627462363847
 20
-872.1905611982256
 30
0.0
 11
-53.1473344365896
 21
-871.4612936573358
 31
0.0
  0
LINE
  5
184
330
51
100
AcDbEntity
  8
0
  6
Continuous
 62
     7
100
AcDbLine
 10
-59.03282929001406
 20
-873.8605356162152
 30
0.0
 11
-54.93627462363847
 21
-872.1905611982256
 31
0.0
  0
LINE
  5
185
330
51
100
AcDbEntity
  8
0
  6
Continuous
 62
     7
100
AcDbLine
 10
-55.80450677657618
 20
-870.0607318791044
 30
0.0
 11
-54.01556658953095
 21
-869.3314643382109
 31
0.0
  0
LINE
  5
186
330
51
100
AcDbEntity
  8
0
  6
Continuous
 62
     7
100
AcDbLine
 10
-36.91371759326111
 20
-892.8650192811183
 30
0.0
 11
-32.16772930227862
 21
-886.7512814372349
 31
0.0
  0
LINE
  5
187
330
51
100
AcDbEntity
  8
0
  6
Continuous
 62
     7
100
AcDbLine
 10
-35.09689183287091
 20
-894.2753895007372
 30
0.0
 11
-30.35090354188841
 21
-888.1616516568502
 31
0.0
  0
LINE
  5
188
330
51
100
AcDbEntity
  8
0
  6
Continuous
 62
     7
100
AcDbLine
 10
-45.62387948372097
 20
-884.0565345047034
 30
0.0
 11
-39.45725503143521
 21
-879.3794693836717
 31
0.0
  0
LINE
  5
189
330
51
100
AcDbEntity
  8
0
  6
Continuous
 62
     7
100
AcDbLine
 10
29.69250347434527
 20
-928.8731046247813
 30
0.0
 11
25.27795321174008
 21
-918.0439288700945
 31
0.0
  0
LINE
  5
18A
330
51
100
AcDbEntity
  8
0
  6
Continuous
 62
     7
100
AcDbLine
 10
-44.47417232845882
 20
-842.1286750927284
 30
0.0
 11
-46.0644178337262
 21
-841.9102286852249
 31
0.0
  0
LINE
  5
18B
330
51
100
AcDbEntity
  8
0
  6
Continuous
 62
     7
100
AcDbLine
 10
57.52308739568062
 20
-893.587665385654
 30
0.0
 11
48.55975355615911
 21
-886.6295853147094
 31
0.0
  0
LINE
  5
18C
330
51
100
AcDbEntity
  8
0
  6
Continuous
 62
     7
100
AcDbLine
 10
56.11271717606533
 20
-895.4044911460442
 30
0.0
 11
47.14938333654018
 21
-888.4464110750996
 31
0.0
  0
LINE
  5
18D
330
51
100
AcDbEntity
  8
0
  6
Continuous
 62
     7
100
AcDbLine
 10
47.14938333654018
 20
-888.4464110750996
 30
0.0
 11
43.65486573370609
 21
-885.7336778750177
 31
0.0
  0
LINE
  5
18E
330
51
100
AcDbEntity
  8
0
  6
Continuous
 62
     7
100
AcDbLine
 10
43.65486573370609
 20
-885.7336778750177
 30
0.0
 11
42.1288314236098
 21
-884.5490439976311
 31
0.0
  0
LINE
  5
18F
330
51
100
AcDbEntity
  8
0
  6
Continuous
 62
     7
100
AcDbLine
 10
42.1288314236098
 20
-884.5490439976311
 30
0.0
 11
36.01509357972637
 21
-879.8030557066486
 31
0.0
  0
LINE
  5
190
330
51
100
AcDbEntity
  8
0
  6
Continuous
 62
     7
100
AcDbLine
 10
25.64366931947907
 20
-883.1376478391066
 30
0.0
 11
26.61367804205466
 21
-884.4165865223949
 31
0.0
  0
LINE
  5
191
330
51
100
AcDbEntity
  8
0
  6
Continuous
 62
     7
100
AcDbLine
 10
23.81112746941827
 20
-884.5275364561458
 30
0.0
 11
24.78113591387401
 21
-885.8064747727403
 31
0.0
  0
LINE
  5
192
330
51
100
AcDbEntity
  8
0
  6
Continuous
 62
     7
100
AcDbLine
 10
32.0940789070427
 20
-876.7592402535665
 30
0.0
 11
33.36204870910834
 21
-877.7435431444646
 31
0.0
  0
LINE
  5
193
330
51
100
AcDbEntity
  8
0
  6
Continuous
 62
     7
100
AcDbLine
 10
15.92965707181966
 20
-889.0191166498225
 30
0.0
 11
16.53559968619257
 21
-890.505532859388
 31
0.0
  0
LINE
  5
194
330
51
100
AcDbEntity
  8
0
  6
Continuous
 62
     7
100
AcDbLine
 10
-41.18507406645412
 20
-831.2596575183597
 30
0.0
 11
-42.66459517953453
 21
-830.6370686685441
 31
0.0
  0
LINE
  5
195
330
51
100
AcDbEntity
  8
0
  6
Continuous
 62
     7
100
AcDbLine
 10
-42.07715797778846
 20
-833.3796071156721
 30
0.0
 11
-43.55667909086887
 21
-832.7570182658528
 31
0.0
  0
LINE
  5
196
330
51
100
AcDbEntity
  8
0
  6
Continuous
 62
     7
100
AcDbLine
 10
-36.60531057979651
 20
-823.4290997687021
 30
0.0
 11
-37.87328038186215
 21
-822.4447968778077
 31
0.0
  0
LINE
  5
197
330
51
100
AcDbEntity
  8
0
  6
Continuous
 62
     7
100
AcDbLine
 10
31.82233279347011
 20
-928.0048724718436
 30
0.0
 11
27.40778253086492
 21
-917.1756967171532
 31
0.0
  0
LINE
  5
198
330
51
100
AcDbEntity
  8
0
  6
Continuous
 62
     7
100
AcDbLine
 10
-58.97332621881114
 20
-840.1369775412022
 30
0.0
 11
-57.05942480053099
 21
-840.3998834181584
 31
0.0
  0
LINE
  5
199
330
51
100
AcDbEntity
  8
0
  6
Continuous
 62
     7
100
AcDbLine
 10
31.82233279347011
 20
-928.0048724718436
 30
0.0
 11
29.69250347434527
 21
-928.8731046247813
 31
0.0
  0
LINE
  5
19A
330
51
100
AcDbEntity
  8
0
  6
Continuous
 62
     7
100
AcDbLine
 10
33.32034664719495
 20
-893.259205888091
 30
0.0
 11
28.64328152616682
 21
-887.0925814358052
 31
0.0
  0
LINE
  5
19B
330
51
100
AcDbEntity
  8
0
  6
Continuous
 62
     7
100
AcDbLine
 10
32.65523466199912
 20
-896.188329338238
 30
0.0
 11
31.48780451901794
 21
-894.6490941384363
 31
0.0
  0
LINE
  5
19C
330
51
100
AcDbEntity
  8
0
  6
Continuous
 62
     7
100
AcDbLine
 10
31.48780451901794
 20
-894.6490941384363
 30
0.0
 11
26.81073939798617
 21
-888.4824696861506
 31
0.0
  0
LINE
  5
19D
330
51
100
AcDbEntity
  8
0
  6
Continuous
 62
     7
100
AcDbLine
 10
34.48777679017613
 20
-894.7984410878889
 30
0.0
 11
33.32034664719495
 21
-893.259205888091
 31
0.0
  0
LINE
  5
19E
330
51
100
AcDbEntity
  8
0
  6
Continuous
 62
     7
100
AcDbLine
 10
35.32857244853759
 20
-899.713076105083
 30
0.0
 11
32.65523466199912
 21
-896.188329338238
 31
0.0
  0
LINE
  5
19F
330
51
100
AcDbEntity
  8
0
  6
Continuous
 62
     7
100
AcDbLine
 10
37.1611145767146
 20
-898.3231878547376
 30
0.0
 11
34.48777679017613
 21
-894.7984410878889
 31
0.0
  0
LINE
  5
1A0
330
51
100
AcDbEntity
  8
0
  6
Continuous
 62
     7
100
AcDbLine
 10
-8.05770206679344
 20
-905.0077547636356
 30
0.0
 11
-7.00442456268328
 21
-897.340108333261
 31
0.0
  0
LINE
  5
1A1
330
51
100
AcDbEntity
  8
0
  6
Continuous
 62
     7
100
AcDbLine
 10
-10.33630443935007
 20
-904.694751204901
 30
0.0
 11
-9.28302693523992
 21
-897.0271047745264
 31
0.0
  0
LINE
  5
1A2
330
51
100
AcDbEntity
  8
0
  6
Continuous
 62
     7
100
AcDbLine
 10
-8.60751276478013
 20
-892.1094987328324
 30
0.0
 11
-8.82595917228363
 21
-893.6997442380962
 31
0.0
  0
LINE
  5
1A3
330
51
100
AcDbEntity
  8
0
  6
Continuous
 62
     7
100
AcDbLine
 10
-17.35658074183638
 20
-889.7124843821621
 30
0.0
 11
-17.97916959165568
 21
-891.1920054952425
 31
0.0
  0
LINE
  5
1A4
330
51
100
AcDbEntity
  8
0
  6
Continuous
 62
     7
100
AcDbLine
 10
-10.59921031630628
 20
-906.6086526231811
 30
0.0
 11
-10.33630443935007
 21
-904.694751204901
 31
0.0
  0
LINE
  5
1A5
330
51
100
AcDbEntity
  8
0
  6
Continuous
 62
     7
100
AcDbLine
 10
-8.32060794374965
 20
-906.9216561819158
 30
0.0
 11
-8.05770206679344
 21
-905.0077547636356
 31
0.0
  0
LINE
  5
1A6
330
51
100
AcDbEntity
  8
0
  6
Continuous
 62
     7
100
AcDbLine
 10
-11.20124737984415
 20
-910.9913602412489
 30
0.0
 11
-10.59921031630628
 21
-906.6086526231811
 31
0.0
  0
LINE
  5
1A7
330
51
100
AcDbEntity
  8
0
  6
Continuous
 62
     7
100
AcDbLine
 10
-8.92264500728751
 20
-911.3043637999835
 30
0.0
 11
-8.32060794374965
 21
-906.9216561819158
 31
0.0
  0
LINE
  5
1A8
330
51
100
AcDbEntity
  8
0
  6
Continuous
 62
     7
100
AcDbLine
 10
-10.46685219053151
 20
-922.5458786430863
 30
0.0
 11
-8.92264500728751
 21
-911.3043637999835
 31
0.0
  0
LINE
  5
1A9
330
51
100
AcDbEntity
  8
0
  6
Continuous
 62
     7
100
AcDbLine
 10
-12.74545456308815
 20
-922.2328750843517
 30
0.0
 11
-11.20124737984415
 21
-910.9913602412489
 31
0.0
  0
LINE
  5
1AA
330
51
100
AcDbEntity
  8
0
  6
Continuous
 62
     7
100
AcDbLine
 10
42.18560445407448
 20
-908.7539468522809
 30
0.0
 11
35.32857244853759
 21
-899.713076105083
 31
0.0
  0
LINE
  5
1AB
330
51
100
AcDbEntity
  8
0
  6
Continuous
 62
     7
100
AcDbLine
 10
-44.55068106600274
 20
-855.7605933072991
 30
0.0
 11
-46.14327836027414
 21
-855.961176103785
 31
0.0
  0
LINE
  5
1AC
330
51
100
AcDbEntity
  8
0
  6
Continuous
 62
     7
100
AcDbLine
 10
-59.28632977754577
 20
-842.4155799137588
 30
0.0
 11
-57.37242835926563
 21
-842.6784857907151
 31
0.0
  0
LINE
  5
1AD
330
51
100
AcDbEntity
  8
0
  6
Continuous
 62
     7
100
AcDbLine
 10
-42.25202239839027
 20
-864.5360156102033
 30
0.0
 11
-43.73843860795577
 21
-865.1419582245762
 31
0.0
  0
LINE
  5
1AE
330
51
100
AcDbEntity
  8
0
  6
Continuous
 62
     7
100
AcDbLine
 10
-63.35603383687894
 20
-839.5349404776643
 30
0.0
 11
-58.97332621881114
 21
-840.1369775412022
 31
0.0
  0
LINE
  5
1AF
330
51
100
AcDbEntity
  8
0
  6
Continuous
 62
     7
100
AcDbLine
 10
-63.66903739561357
 20
-841.813542850221
 30
0.0
 11
-59.28632977754577
 21
-842.4155799137588
 31
0.0
  0
LINE
  5
1B0
330
51
100
AcDbEntity
  8
0
  6
Continuous
 62
     7
100
AcDbLine
 10
-52.89405024920242
 20
-826.3324699644254
 30
0.0
 11
-45.76028081309241
 21
-829.334390835189
 31
0.0
  0
LINE
  5
1B1
330
51
100
AcDbEntity
  8
0
  6
Continuous
 62
     7
100
AcDbLine
 10
-53.78613416053676
 20
-828.4524195617341
 30
0.0
 11
-46.65236472442675
 21
-831.4543404324977
 31
0.0
  0
LINE
  5
1B2
330
51
100
AcDbEntity
  8
0
  6
Continuous
 62
     7
100
AcDbLine
 10
-70.10312702581913
 20
-821.5861587624386
 30
0.0
 11
-59.64432774086353
 21
-825.9872664990726
 31
0.0
  0
LINE
  5
1B3
330
51
100
AcDbEntity
  8
0
  6
Continuous
 62
     7
100
AcDbLine
 10
-74.91055223871635
 20
-840.269335666977
 30
0.0
 11
-63.66903739561357
 21
-841.813542850221
 31
0.0
  0
LINE
  5
1B4
330
51
100
AcDbEntity
  8
0
  6
Continuous
 62
     7
100
AcDbLine
 10
-46.64006309636361
 20
-815.6392960246376
 30
0.0
 11
-40.52632525248018
 21
-820.3852843156201
 31
0.0
  0
LINE
  5
1B5
330
51
100
AcDbEntity
  8
0
  6
Continuous
 62
     7
100
AcDbLine
 10
-55.5667759213994
 20
-827.7031178478028
 30
0.0
 11
-53.78613416053676
 21
-828.4524195617341
 31
0.0
  0
LINE
  5
1B6
330
51
100
AcDbEntity
  8
0
  6
Continuous
 62
     7
100
AcDbLine
 10
-54.67469201006506
 20
-825.5831682504904
 30
0.0
 11
-52.89405024920242
 21
-826.3324699644254
 31
0.0
  0
LINE
  5
1B7
330
51
100
AcDbEntity
  8
0
  6
Continuous
 62
     7
100
AcDbLine
 10
-51.66061500929399
 20
-811.7419289471727
 30
0.0
 11
-48.16609740645626
 21
-814.4546621472509
 31
0.0
  0
LINE
  5
1B8
330
51
100
AcDbEntity
  8
0
  6
Continuous
 62
     7
100
AcDbLine
 10
-48.16609740645626
 20
-814.4546621472509
 30
0.0
 11
-46.64006309636361
 21
-815.6392960246376
 31
0.0
  0
LINE
  5
1B9
330
51
100
AcDbEntity
  8
0
  6
Continuous
 62
     7
100
AcDbLine
 10
-59.64432774086353
 20
-825.9872664990726
 30
0.0
 11
-55.5667759213994
 21
-827.7031178478028
 31
0.0
  0
LINE
  5
1BA
330
51
100
AcDbEntity
  8
0
  6
Continuous
 62
     7
100
AcDbLine
 10
-58.75224382952919
 20
-823.8673169017638
 30
0.0
 11
-54.67469201006506
 21
-825.5831682504904
 31
0.0
  0
LINE
  5
1BB
330
51
100
AcDbEntity
  8
0
  6
Continuous
 62
     7
100
AcDbLine
 10
-74.59754867998171
 20
-837.9907332944204
 30
0.0
 11
-63.35603383687894
 21
-839.5349404776643
 31
0.0
  0
LINE
  5
1BC
330
51
100
AcDbEntity
  8
0
  6
Continuous
 62
     7
100
AcDbLine
 10
83.08230366375383
 20
-861.972256171106
 30
0.0
 11
71.49668722684319
 21
-860.3807809674618
 31
0.0
  0
LINE
  5
1BD
330
51
100
AcDbEntity
  8
0
  6
Continuous
 62
     7
100
AcDbLine
 10
83.39530722248847
 20
-859.6936537985493
 30
0.0
 11
83.08230366375383
 21
-861.972256171106
 31
0.0
  0
LINE
  5
1BE
330
51
100
AcDbEntity
  8
0
  6
Continuous
 62
     7
100
AcDbLine
 10
25.19052952656594
 20
-812.8629074756464
 30
0.0
 11
27.25004208875353
 21
-810.2098626050283
 31
0.0
  0
LINE
  5
1BF
330
51
100
AcDbEntity
  8
0
  6
Continuous
 62
     7
100
AcDbLine
 10
14.87830813851716
 20
-807.179508766636
 30
0.0
 11
16.18098597187228
 21
-804.0838231330818
 31
0.0
  0
LINE
  5
1C0
330
51
100
AcDbEntity
  8
0
  6
Continuous
 62
     7
100
AcDbLine
 10
16.99825773582953
 20
-808.071592677974
 30
0.0
 11
18.30093556918465
 21
-804.9759070444161
 31
0.0
  0
LINE
  5
1C1
330
51
100
AcDbEntity
  8
0
  6
Continuous
 62
     7
100
AcDbLine
 10
56.18546832440725
 20
-855.9559343481196
 30
0.0
 11
54.27156690612711
 21
-855.693028471167
 31
0.0
  0
LINE
  5
1C2
330
51
100
AcDbEntity
  8
0
  6
Continuous
 62
     7
100
AcDbLine
 10
55.87246476567262
 20
-858.2345367206763
 30
0.0
 11
53.95856334739247
 21
-857.97163084372
 31
0.0
  0
LINE
  5
1C3
330
51
100
AcDbEntity
  8
0
  6
Continuous
 62
     7
100
AcDbLine
 10
60.25517238374042
 20
-858.8365737842178
 30
0.0
 11
55.87246476567262
 21
-858.2345367206763
 31
0.0
  0
LINE
  5
1C4
330
51
100
AcDbEntity
  8
0
  6
Continuous
 62
     7
100
AcDbLine
 10
54.27156690612711
 20
-855.693028471167
 30
0.0
 11
46.60392047575252
 21
-854.6397509670569
 31
0.0
  0
LINE
  5
1C5
330
51
100
AcDbEntity
  8
0
  6
Continuous
 62
     7
100
AcDbLine
 10
53.95856334739247
 20
-857.97163084372
 30
0.0
 11
46.29091691701788
 21
-856.9183533396135
 31
0.0
  0
LINE
  5
1C6
330
51
100
AcDbEntity
  8
0
  6
Continuous
 62
     7
100
AcDbLine
 10
60.56817594247505
 20
-856.5579714116611
 30
0.0
 11
56.18546832440725
 21
-855.9559343481196
 31
0.0
  0
LINE
  5
1C7
330
51
100
AcDbEntity
  8
0
  6
Continuous
 62
     7
100
AcDbLine
 10
-36.78126011802496
 20
-877.3498658995595
 30
0.0
 11
-39.45725503143521
 21
-879.3794693836717
 31
0.0
  0
LINE
  5
1C8
330
51
100
AcDbEntity
  8
0
  6
Continuous
 62
     7
100
AcDbLine
 10
-38.17114836837035
 20
-875.5173237713825
 30
0.0
 11
-40.8471432817806
 21
-877.5469272554947
 31
0.0
  0
LINE
  5
1C9
330
51
100
AcDbEntity
  8
0
  6
Continuous
 62
     7
100
AcDbLine
 10
-0.06251314077426
 20
-851.7966374672178
 30
0.0
 11
4.71189013716312
 21
-889.7046828003076
 31
0.0
  0
LINE
  5
1CA
330
51
100
AcDbEntity
  8
0
  6
Continuous
 62
     7
100
AcDbLine
 10
-2.34448530245763
 20
-852.0840449363495
 30
0.0
 11
2.42991797548339
 21
-889.9920902694394
 31
0.0
  0
LINE
  5
1CB
330
51
100
AcDbEntity
  8
0
  6
Continuous
 62
     7
100
AcDbLine
 10
-17.97916959165568
 20
-891.1920054952425
 30
0.0
 11
-19.2818474250108
 21
-894.2876911287967
 31
0.0
  0
LINE
  5
1CC
330
51
100
AcDbEntity
  8
0
  6
Continuous
 62
     7
100
AcDbLine
 10
-20.09911918896441
 20
-890.2999215839081
 30
0.0
 11
-21.40179702231953
 21
-893.3956072174624
 31
0.0
  0
LINE
  5
1CD
330
51
100
AcDbEntity
  8
0
  6
Continuous
 62
     7
100
AcDbLine
 10
-8.82595917228363
 20
-893.6997442380962
 30
0.0
 11
-9.28302693523992
 21
-897.0271047745264
 31
0.0
  0
LINE
  5
1CE
330
51
100
AcDbEntity
  8
0
  6
Continuous
 62
     7
100
AcDbLine
 10
4.20983769097611
 20
-856.4424304567729
 30
0.0
 11
23.1680195385251
 21
-871.1593370962546
 31
0.0
  0
LINE
  5
1CF
330
51
100
AcDbEntity
  8
0
  6
Continuous
 62
     7
100
AcDbLine
 10
16.53559968619257
 20
-890.505532859388
 30
0.0
 11
17.80344766043154
 21
-893.615645492966
 31
0.0
  0
LINE
  5
1D0
330
51
100
AcDbEntity
  8
0
  6
Continuous
 62
     7
100
AcDbLine
 10
5.22498824627647
 20
-893.7786047646478
 30
0.0
 11
5.64467896642409
 21
-897.110886082115
 31
0.0
  0
LINE
  5
1D1
330
51
100
AcDbEntity
  8
0
  6
Continuous
 62
     7
100
AcDbLine
 10
-6.547356799727
 20
-894.0127477968308
 30
0.0
 11
-7.00442456268328
 21
-897.340108333261
 31
0.0
  0
LINE
  5
1D2
330
51
100
AcDbEntity
  8
0
  6
Continuous
 62
     7
100
AcDbLine
 10
2.94301608459673
 20
-894.0660122337795
 30
0.0
 11
3.36270680474072
 21
-897.3982935512468
 31
0.0
  0
LINE
  5
1D3
330
51
100
AcDbEntity
  8
0
  6
Continuous
 62
     7
100
AcDbLine
 10
14.40577036706773
 20
-891.3737650123294
 30
0.0
 11
15.67361834130671
 21
-894.4838776459037
 31
0.0
  0
LINE
  5
1D4
330
51
100
AcDbEntity
  8
0
  6
Continuous
 62
     7
100
AcDbLine
 10
4.06377811280427
 20
-854.9998055576289
 30
0.0
 11
4.03311789063983
 21
-855.0393017698116
 31
0.0
  0
LINE
  5
1D5
330
51
100
AcDbEntity
  8
0
  6
Continuous
 62
     7
100
AcDbLine
 10
24.78113591387401
 20
-885.8064747727403
 30
0.0
 11
26.81073939798617
 21
-888.4824696861506
 31
0.0
  0
LINE
  5
1D6
330
51
100
AcDbEntity
  8
0
  6
Continuous
 62
     7
100
AcDbLine
 10
26.61367804205466
 20
-884.4165865223949
 30
0.0
 11
28.64328152616682
 21
-887.0925814358052
 31
0.0
  0
LINE
  5
1D7
330
51
100
AcDbEntity
  8
0
  6
Continuous
 62
     7
100
AcDbLine
 10
33.36204870910834
 20
-877.7435431444646
 30
0.0
 11
36.01509357972637
 21
-879.8030557066486
 31
0.0
  0
LINE
  5
1D8
330
51
100
AcDbEntity
  8
0
  6
Continuous
 62
     7
100
AcDbLine
 10
34.77241892872362
 20
-875.9267173840744
 30
0.0
 11
37.42546379934166
 21
-877.9862299462584
 31
0.0
  0
LINE
  5
1D9
330
51
100
AcDbEntity
  8
0
  6
Continuous
 62
     7
100
AcDbLine
 10
40.45581763773399
 20
-865.6144959960257
 30
0.0
 11
43.55150327128823
 21
-866.9171738293808
 31
0.0
  0
LINE
  5
1DA
330
51
100
AcDbEntity
  8
0
  6
Continuous
 62
     7
100
AcDbLine
 10
39.56373372639965
 20
-867.734445593338
 30
0.0
 11
42.65941935995389
 21
-869.0371234266931
 31
0.0
  0
LINE
  5
1DB
330
51
100
AcDbEntity
  8
0
  6
Continuous
 62
     7
100
AcDbLine
 10
24.57114822548274
 20
-870.9826172959183
 30
0.0
 11
24.60180844765083
 21
-870.9431210837392
 31
0.0
  0
LINE
  5
1DC
330
51
100
AcDbEntity
  8
0
  6
Continuous
 62
     7
100
AcDbLine
 10
24.60180844765083
 20
-870.9431210837392
 30
0.0
 11
30.11853534616412
 21
-875.2256601675908
 31
0.0
  0
LINE
  5
1DD
330
51
100
AcDbEntity
  8
0
  6
Continuous
 62
     7
100
AcDbLine
 10
26.01217866726611
 20
-869.126295323349
 30
0.0
 11
31.52890556577941
 21
-873.4088344072043
 31
0.0
  0
LINE
  5
1DE
330
51
100
AcDbEntity
  8
0
  6
Continuous
 62
     7
100
AcDbLine
 10
26.01217866726611
 20
-869.126295323349
 30
0.0
 11
26.04283888943419
 21
-869.0867991111663
 31
0.0
  0
LINE
  5
1DF
330
51
100
AcDbEntity
  8
0
  6
Continuous
 62
     7
100
AcDbLine
 10
-63.46046666171796
 20
-858.1422234214369
 30
0.0
 11
-59.07127752645292
 21
-857.5894183688215
 31
0.0
  0
LINE
  5
1E0
330
51
100
AcDbEntity
  8
0
  6
Continuous
 62
     7
100
AcDbLine
 10
-63.74787413084968
 20
-855.8602512597536
 30
0.0
 11
-59.358684995581
 21
-855.3074462071381
 31
0.0
  0
LINE
  5
1E1
330
51
100
AcDbEntity
  8
0
  6
Continuous
 62
     7
100
AcDbLine
 10
-59.358684995581
 20
-855.3074462071381
 30
0.0
 11
-57.44195313866848
 21
-855.0660396460735
 31
0.0
  0
LINE
  5
1E2
330
51
100
AcDbEntity
  8
0
  6
Continuous
 62
     7
100
AcDbLine
 10
-30.10821674009102
 20
-884.0982365666132
 30
0.0
 11
-32.16772930227862
 21
-886.7512814372349
 31
0.0
  0
LINE
  5
1E3
330
51
100
AcDbEntity
  8
0
  6
Continuous
 62
     7
100
AcDbLine
 10
-28.29139097970082
 20
-885.5086067862321
 30
0.0
 11
-30.35090354188841
 21
-888.1616516568502
 31
0.0
  0
LINE
  5
1E4
330
51
100
AcDbEntity
  8
0
  6
Continuous
 62
     7
100
AcDbLine
 10
-4.16131106284783
 20
-850.6736747167342
 30
0.0
 11
-27.59033404545161
 21
-880.8547235672377
 31
0.0
  0
LINE
  5
1E5
330
51
100
AcDbEntity
  8
0
  6
Continuous
 62
     7
100
AcDbLine
 10
-42.87020645501806
 20
-867.2717875436974
 30
0.0
 11
-45.98031908859602
 21
-868.53963551794
 31
0.0
  0
LINE
  5
1E6
330
51
100
AcDbEntity
  8
0
  6
Continuous
 62
     7
100
AcDbLine
 10
-43.73843860795577
 20
-865.1419582245762
 30
0.0
 11
-46.84855124153373
 21
-866.4098061988152
 31
0.0
  0
LINE
  5
1E7
330
51
100
AcDbEntity
  8
0
  6
Continuous
 62
     7
100
AcDbLine
 10
-57.15454566953676
 20
-857.3480118077532
 30
0.0
 11
-49.47555967774142
 21
-856.3808668239326
 31
0.0
  0
LINE
  5
1E8
330
51
100
AcDbEntity
  8
0
  6
Continuous
 62
     7
100
AcDbLine
 10
-59.07127752645292
 20
-857.5894183688215
 30
0.0
 11
-57.15454566953676
 21
-857.3480118077532
 31
0.0
  0
LINE
  5
1E9
330
51
100
AcDbEntity
  8
0
  6
Continuous
 62
     7
100
AcDbLine
 10
-44.83808853513446
 20
-853.4786211456194
 30
0.0
 11
-46.43068582940586
 21
-853.6792039421052
 31
0.0
  0
LINE
  5
1EA
330
51
100
AcDbEntity
  8
0
  6
Continuous
 62
     7
100
AcDbLine
 10
-44.78717588719346
 20
-844.407277465285
 30
0.0
 11
-46.37742139246083
 21
-844.1888310577815
 31
0.0
  0
LINE
  5
1EB
330
51
100
AcDbEntity
  8
0
  6
Continuous
 62
     7
100
AcDbLine
 10
-2.34448530245763
 20
-852.0840449363495
 30
0.0
 11
-25.77350828506141
 21
-882.265093786853
 31
0.0
  0
LINE
  5
1EC
330
51
100
AcDbEntity
  8
0
  6
Continuous
 62
     7
100
AcDbLine
 10
5.72509771914511
 20
-804.6717700237823
 30
0.0
 11
6.18216548210503
 21
-801.3444094873521
 31
0.0
  0
LINE
  5
1ED
330
51
100
AcDbEntity
  8
0
  6
Continuous
 62
     7
100
AcDbLine
 10
-57.44195313866848
 20
-855.0660396460735
 30
0.0
 11
-49.76296714687314
 21
-854.0988946622492
 31
0.0
  0
LINE
  5
1EE
330
51
100
AcDbEntity
  8
0
  6
Continuous
 62
     7
100
AcDbLine
 10
-46.0644178337262
 20
-841.9102286852249
 30
0.0
 11
-49.3917783701564
 21
-841.4531609222686
 31
0.0
  0
LINE
  5
1EF
330
51
100
AcDbEntity
  8
0
  6
Continuous
 62
     7
100
AcDbLine
 10
-46.37742139246083
 20
-844.1888310577815
 30
0.0
 11
-49.70478192889104
 21
-843.7317632948252
 31
0.0
  0
LINE
  5
1F0
330
51
100
AcDbEntity
  8
0
  6
Continuous
 62
     7
100
AcDbLine
 10
-37.87328038186215
 20
-822.4447968778077
 30
0.0
 11
-40.52632525248018
 21
-820.3852843156201
 31
0.0
  0
LINE
  5
1F1
330
51
100
AcDbEntity
  8
0
  6
Continuous
 62
     7
100
AcDbLine
 10
-36.46291016224322
 20
-820.6279711174175
 30
0.0
 11
-39.11595503286125
 21
-818.5684585552299
 31
0.0
  0
LINE
  5
1F2
330
51
100
AcDbEntity
  8
0
  6
Continuous
 62
     7
100
AcDbLine
 10
-29.71453949518954
 20
-813.9549277394835
 30
0.0
 11
-31.7441429793017
 21
-811.2789328260733
 31
0.0
  0
LINE
  5
1F3
330
51
100
AcDbEntity
  8
0
  6
Continuous
 62
     7
100
AcDbLine
 10
-27.88199736700889
 20
-812.5650394891381
 30
0.0
 11
-29.91160085112105
 21
-809.8890445757279
 31
0.0
  0
LINE
  5
1F4
330
51
100
AcDbEntity
  8
0
  6
Continuous
 62
     7
100
AcDbLine
 10
-43.55667909086887
 20
-832.7570182658528
 30
0.0
 11
-46.65236472442675
 21
-831.4543404324977
 31
0.0
  0
LINE
  5
1F5
330
51
100
AcDbEntity
  8
0
  6
Continuous
 62
     7
100
AcDbLine
 10
-42.66459517953453
 20
-830.6370686685441
 30
0.0
 11
-45.76028081309241
 21
-829.334390835189
 31
0.0
  0
LINE
  5
1F6
330
51
100
AcDbEntity
  8
0
  6
Continuous
 62
     7
100
AcDbLine
 10
-19.63646113932745
 20
-807.8659814024904
 30
0.0
 11
-20.90430911357007
 21
-804.7558687689125
 31
0.0
  0
LINE
  5
1F7
330
51
100
AcDbEntity
  8
0
  6
Continuous
 62
     7
100
AcDbLine
 10
-17.50663182020261
 20
-806.9977492495527
 30
0.0
 11
-18.77447979444523
 21
-803.8876366159748
 31
0.0
  0
LINE
  5
1F8
330
51
100
AcDbEntity
  8
0
  6
Continuous
 62
     7
100
AcDbLine
 10
-8.32584969941499
 20
-804.5929094972344
 30
0.0
 11
-8.74554041955898
 21
-801.2606281797634
 31
0.0
  0
LINE
  5
1F9
330
51
100
AcDbEntity
  8
0
  6
Continuous
 62
     7
100
AcDbLine
 10
-29.11304012435912
 20
-829.2452189436299
 30
0.0
 11
-34.62976739010819
 21
-824.9626795828626
 31
0.0
  0
LINE
  5
1FA
330
51
100
AcDbEntity
  8
0
  6
Continuous
 62
     7
100
AcDbLine
 10
-27.70266990078571
 20
-827.4283931781429
 30
0.0
 11
-27.67200967862127
 21
-827.3888969659602
 31
0.0
  0
LINE
  5
1FB
330
51
100
AcDbEntity
  8
0
  6
Continuous
 62
     7
100
AcDbLine
 10
-27.70266990078571
 20
-827.4283931781429
 30
0.0
 11
-33.21939715466769
 21
-823.1458538020852
 31
0.0
  0
LINE
  5
1FC
330
51
100
AcDbEntity
  8
0
  6
Continuous
 62
     7
100
AcDbLine
 10
-4.16131106284783
 20
-850.6736747167342
 30
0.0
 11
-42.06935639593402
 21
-855.4480779946716
 31
0.0
  0
LINE
  5
1FD
330
51
100
AcDbEntity
  8
0
  6
Continuous
 62
     7
100
AcDbLine
 10
-42.35676386506574
 20
-853.1661058329919
 30
0.0
 11
-4.44871853197955
 21
-848.3917025550509
 31
0.0
  0
LINE
  5
1FE
330
51
100
AcDbEntity
  8
0
  6
Continuous
 62
     7
100
AcDbLine
 10
-46.14327836027414
 20
-855.961176103785
 30
0.0
 11
-49.47555967774142
 21
-856.3808668239326
 31
0.0
  0
LINE
  5
1FF
330
51
100
AcDbEntity
  8
0
  6
Continuous
 62
     7
100
AcDbLine
 10
-46.43068582940586
 20
-853.6792039421052
 30
0.0
 11
-49.76296714687314
 21
-854.0988946622492
 31
0.0
  0
LINE
  5
200
330
51
100
AcDbEntity
  8
0
  6
Continuous
 62
     7
100
AcDbLine
 10
-0.75637615068089
 20
-846.287469325529
 30
0.0
 11
-5.53077941577257
 21
-808.3794239911877
 31
0.0
  0
LINE
  5
201
330
51
100
AcDbEntity
  8
0
  6
Continuous
 62
     7
100
AcDbLine
 10
-3.03834831236063
 20
-846.5748767946607
 30
0.0
 11
-7.81275160306004
 21
-808.6668314635463
 31
0.0
  0
LINE
  5
202
330
51
100
AcDbEntity
  8
0
  6
Continuous
 62
     7
100
AcDbLine
 10
-26.26888099165998
 20
-827.2121771656239
 30
0.0
 11
-7.31069914411464
 21
-841.9290838051093
 31
0.0
  0
LINE
  5
203
330
51
100
AcDbEntity
  8
0
  6
Continuous
 62
     7
100
AcDbLine
 10
-29.14370034256908
 20
-829.2847151507158
 30
0.0
 11
-29.11304012435912
 21
-829.2452189436299
 31
0.0
  0
LINE
  5
204
330
51
100
AcDbEntity
  8
0
  6
Continuous
 62
     7
100
AcDbLine
 10
-6.04387753773162
 20
-804.3055020281026
 30
0.0
 11
-6.46356825787925
 21
-800.9732207106354
 31
0.0
  0
LINE
  5
205
330
51
100
AcDbEntity
  8
0
  6
Continuous
 62
     7
100
AcDbLine
 10
-10.0087986946838
 20
-845.4047504771588
 30
0.0
 11
-28.96698054223279
 21
-830.6878438376734
 31
0.0
  0
LINE
  5
206
330
51
100
AcDbEntity
  8
0
  6
Continuous
 62
     7
100
AcDbLine
 10
3.44649534658848
 20
-804.3587664650477
 30
0.0
 11
3.9035631095484
 21
-801.0314059286175
 31
0.0
  0
LINE
  5
207
330
51
100
AcDbEntity
  8
0
  6
Continuous
 62
     7
100
AcDbLine
 10
-8.57500978555808
 20
-845.1885344646398
 30
0.0
 11
-8.60567000772616
 21
-845.2280306768225
 31
0.0
  0
LINE
  5
208
330
51
100
AcDbEntity
  8
0
  6
Continuous
 62
     7
100
AcDbLine
 10
-7.13397934377835
 20
-843.3322124920669
 30
0.0
 11
-7.16463956198467
 21
-843.3717086991528
 31
0.0
  0
LINE
  5
209
330
51
100
AcDbEntity
  8
0
  6
Continuous
 62
     7
100
AcDbLine
 10
-4.44871853197955
 20
-848.3917025550509
 30
0.0
 11
-8.57500978555808
 21
-845.1885344646398
 31
0.0
  0
LINE
  5
20A
330
51
100
AcDbEntity
  8
0
  6
Continuous
 62
     7
100
AcDbLine
 10
-3.03834831236063
 20
-846.5748767946607
 30
0.0
 11
-7.16463956198467
 21
-843.3717086991528
 31
0.0
  0
LINE
  5
20B
330
51
100
AcDbEntity
  8
0
  6
Continuous
 62
     7
100
AcDbLine
 10
-0.75637615068089
 20
-846.287469325529
 30
0.0
 11
22.67264683192289
 21
-816.1064204750255
 31
0.0
  0
LINE
  5
20C
330
51
100
AcDbEntity
  8
0
  6
Continuous
 62
     7
100
AcDbLine
 10
1.34785707884103
 20
-849.9798117068276
 30
0.0
 11
39.25590241193086
 21
-845.2054084288902
 31
0.0
  0
LINE
  5
20D
330
51
100
AcDbEntity
  8
0
  6
Continuous
 62
     7
100
AcDbLine
 10
1.06044960970931
 20
-847.6978395451479
 30
0.0
 11
38.96849494279914
 21
-842.9234362672069
 31
0.0
  0
LINE
  5
20E
330
51
100
AcDbEntity
  8
0
  6
Continuous
 62
     7
100
AcDbLine
 10
27.00735528695614
 20
-814.2732776952653
 30
0.0
 11
29.06686784914373
 21
-811.6202328246472
 31
0.0
  0
LINE
  5
20F
330
51
100
AcDbEntity
  8
0
  6
Continuous
 62
     7
100
AcDbLine
 10
33.68039866488644
 20
-821.021648362319
 30
0.0
 11
36.35639357830033
 21
-818.9920448782068
 31
0.0
  0
LINE
  5
210
330
51
100
AcDbEntity
  8
0
  6
Continuous
 62
     7
100
AcDbLine
 10
39.76934500187954
 20
-831.099726718181
 30
0.0
 11
42.8794576354575
 21
-829.8318787439384
 31
0.0
  0
LINE
  5
211
330
51
100
AcDbEntity
  8
0
  6
Continuous
 62
     7
100
AcDbLine
 10
43.27655993932231
 20
-854.182683204097
 30
0.0
 11
46.60392047575252
 21
-854.6397509670569
 31
0.0
  0
LINE
  5
212
330
51
100
AcDbEntity
  8
0
  6
Continuous
 62
     7
100
AcDbLine
 10
43.32982437627098
 20
-844.6923103197769
 30
0.0
 11
46.66210569373826
 21
-844.2726195996293
 31
0.0
  0
LINE
  5
213
330
51
100
AcDbEntity
  8
0
  6
Continuous
 62
     7
100
AcDbLine
 10
43.04241690713926
 20
-842.4103381580935
 30
0.0
 11
46.37469822460653
 21
-841.9906474379495
 31
0.0
  0
LINE
  5
214
330
51
100
AcDbEntity
  8
0
  6
Continuous
 62
     7
100
AcDbLine
 10
42.96355638059131
 20
-856.4612855766536
 30
0.0
 11
46.29091691701788
 21
-856.9183533396135
 31
0.0
  0
LINE
  5
215
330
51
100
AcDbEntity
  8
0
  6
Continuous
 62
     7
100
AcDbLine
 10
40.63757715482089
 20
-833.2295560373059
 30
0.0
 11
43.74768978839521
 21
-831.9617080630633
 31
0.0
  0
LINE
  5
216
330
51
100
AcDbEntity
  8
0
  6
Continuous
 62
     7
100
AcDbLine
 10
35.07028691523183
 20
-822.854190490496
 30
0.0
 11
37.74628182864572
 21
-820.8245870063874
 31
0.0
  0
LINE
  5
217
330
51
100
AcDbEntity
  8
0
  6
Continuous
 62
     7
100
AcDbLine
 10
1.06044960970931
 20
-847.6978395451479
 30
0.0
 11
24.48947259231309
 21
-817.5167906946444
 31
0.0
  0
LINE
  5
218
330
51
100
AcDbEntity
  8
0
  6
Continuous
 62
     7
100
AcDbLine
 10
1.34785707884103
 20
-849.9798117068276
 30
0.0
 11
5.4741483324232
 21
-853.1829797972387
 31
0.0
  0
LINE
  5
219
330
51
100
AcDbEntity
  8
0
  6
Continuous
 62
     7
100
AcDbLine
 10
-0.06251314077426
 20
-851.7966374672178
 30
0.0
 11
4.06377811280427
 21
-854.9998055576289
 31
0.0
  0
LINE
  5
21A
330
51
100
AcDbEntity
  8
0
  6
Continuous
 62
     7
100
AcDbLine
 10
25.86611908909791
 20
-867.683670424205
 30
0.0
 11
6.90793724154892
 21
-852.9667637847197
 31
0.0
  0
LINE
  5
21B
330
51
100
AcDbEntity
  8
0
  6
Continuous
 62
     7
100
AcDbLine
 10
5.50480855458764
 20
-853.143483585056
 30
0.0
 11
5.4741483324232
 21
-853.1829797972387
 31
0.0
  0
LINE
  5
21C
330
51
100
AcDbEntity
  8
0
  6
Continuous
 62
     7
100
AcDbLine
 10
-86.60876409542297
 20
-858.7395109795434
 30
0.0
 11
-75.00601387302058
 21
-857.2781797975149
 31
0.0
  0
LINE
  5
21D
330
51
100
AcDbEntity
  8
0
  6
Continuous
 62
     7
100
AcDbLine
 10
-75.00601387302058
 20
-857.2781797975149
 30
0.0
 11
-63.74787413084968
 21
-855.8602512597536
 31
0.0
  0
LINE
  5
21E
330
51
100
AcDbEntity
  8
0
  6
Continuous
 62
     7
100
AcDbLine
 10
-86.32135662629125
 20
-861.0214831412231
 30
0.0
 11
-74.71860640388886
 21
-859.5601519591946
 31
0.0
  0
LINE
  5
21F
330
51
100
AcDbEntity
  8
0
  6
Continuous
 62
     7
100
AcDbLine
 10
-86.32135662629125
 20
-861.0214831412231
 30
0.0
 11
-86.60876409542297
 21
-858.7395109795434
 31
0.0
  0
LINE
  5
220
330
51
100
AcDbEntity
  8
0
  6
Continuous
 62
     7
100
AcDbLine
 10
-74.71860640388886
 20
-859.5601519591946
 30
0.0
 11
-63.46046666171796
 21
-858.1422234214369
 31
0.0
  0
LINE
  5
221
330
51
100
AcDbEntity
  8
0
  6
Continuous
 62
     7
100
AcDbLine
 10
-31.26997869237866
 20
-916.8463695188548
 30
0.0
 11
-26.86887095574465
 21
-906.3875702338992
 31
0.0
  0
LINE
  5
222
330
51
100
AcDbEntity
  8
0
  6
Continuous
 62
     7
100
AcDbLine
 10
71.49668722684319
 20
-860.3807809674618
 30
0.0
 11
60.25517238374042
 21
-858.8365737842178
 31
0.0
  0
LINE
  5
223
330
51
100
AcDbEntity
  8
0
  6
Continuous
 62
     7
100
AcDbLine
 10
-69.04634305291447
 20
-901.8212594779397
 30
0.0
 11
-70.43623130325986
 21
-899.9887173497627
 31
0.0
  0
LINE
  5
224
330
51
100
AcDbEntity
  8
0
  6
Continuous
 62
     7
100
AcDbLine
 10
-70.43623130325986
 20
-899.9887173497627
 30
0.0
 11
-61.11862044790732
 21
-892.921792311583
 31
0.0
  0
LINE
  5
225
330
51
100
AcDbEntity
  8
0
  6
Continuous
 62
     7
100
AcDbLine
 10
-69.04634305291447
 20
-901.8212594779397
 30
0.0
 11
-59.72873219756193
 21
-894.75433443976
 31
0.0
  0
LINE
  5
226
330
51
100
AcDbEntity
  8
0
  6
Continuous
 62
     7
100
AcDbLine
 10
-33.68585427929256
 20
-928.5173954675738
 30
0.0
 11
-29.15002909506993
 21
-917.7384534301927
 31
0.0
  0
LINE
  5
227
330
51
100
AcDbEntity
  8
0
  6
Continuous
 62
     7
100
AcDbLine
 10
-33.68585427929256
 20
-928.5173954675738
 30
0.0
 11
-35.80580387660129
 21
-927.6253115562358
 31
0.0
  0
LINE
  5
228
330
51
100
AcDbEntity
  8
0
  6
Continuous
 62
     7
100
AcDbLine
 10
-35.80580387660129
 20
-927.6253115562358
 30
0.0
 11
-31.26997869237866
 21
-916.8463695188548
 31
0.0
  0
LINE
  5
229
330
51
100
AcDbEntity
  8
0
  6
Continuous
 62
     7
100
AcDbLine
 10
77.78120761006531
 20
-881.3211806836625
 30
0.0
 11
67.00226557268425
 21
-876.7853554994399
 31
0.0
  0
LINE
  5
22A
330
51
100
AcDbEntity
  8
0
  6
Continuous
 62
     7
100
AcDbLine
 10
51.08507162043489
 20
-916.6816694572881
 30
0.0
 11
49.25252949225424
 21
-918.0715577076335
 31
0.0
  0
LINE
  5
22B
330
51
100
AcDbEntity
  8
0
  6
Continuous
 62
     7
100
AcDbLine
 10
51.08507162043489
 20
-916.6816694572881
 30
0.0
 11
44.01814658225149
 21
-907.3640586019355
 31
0.0
  0
LINE
  5
22C
330
51
100
AcDbEntity
  8
0
  6
Continuous
 62
     7
100
AcDbLine
 10
49.25252949225424
 20
-918.0715577076335
 30
0.0
 11
42.18560445407448
 21
-908.7539468522809
 31
0.0
  0
LINE
  5
22D
330
51
100
AcDbEntity
  8
0
  6
Continuous
 62
     7
100
AcDbLine
 10
44.01814658225149
 20
-907.3640586019355
 30
0.0
 11
37.1611145767146
 21
-898.3231878547376
 31
0.0
  0
LINE
  5
22E
330
51
100
AcDbEntity
  8
0
  6
Continuous
 62
     7
100
AcDbLine
 10
76.88912369872733
 20
-883.4411302809749
 30
0.0
 11
66.11018166134991
 21
-878.9053050967523
 31
0.0
  0
LINE
  5
22F
330
51
100
AcDbEntity
  8
0
  6
Continuous
 62
     7
100
AcDbLine
 10
77.78120761006531
 20
-881.3211806836625
 30
0.0
 11
76.88912369872733
 21
-883.4411302809749
 31
0.0
  0
LINE
  5
230
330
51
100
AcDbEntity
  8
0
  6
Continuous
 62
     7
100
AcDbLine
 10
50.02254370245092
 20
-780.8745384576432
 30
0.0
 11
42.8514775281491
 21
-790.1122390086894
 31
0.0
  0
LINE
  5
231
330
51
100
AcDbEntity
  8
0
  6
Continuous
 62
     7
100
AcDbLine
 10
50.02254370245092
 20
-780.8745384576432
 30
0.0
 11
51.83936946284112
 21
-782.2849086772621
 31
0.0
  0
LINE
  5
232
330
51
100
AcDbEntity
  8
0
  6
Continuous
 62
     7
100
AcDbLine
 10
-69.86164939986529
 20
-797.6127827019191
 30
0.0
 11
-68.45127918024636
 21
-795.7959569415289
 31
0.0
  0
LINE
  5
233
330
51
100
AcDbEntity
  8
0
  6
Continuous
 62
     7
100
AcDbLine
 10
-69.86164939986529
 20
-797.6127827019191
 30
0.0
 11
-60.62394884881914
 21
-804.7838488762245
 31
0.0
  0
LINE
  5
234
330
51
100
AcDbEntity
  8
0
  6
Continuous
 62
     7
100
AcDbLine
 10
-60.62394884881914
 20
-804.7838488762245
 30
0.0
 11
-51.66061500929399
 21
-811.7419289471727
 31
0.0
  0
LINE
  5
235
330
51
100
AcDbEntity
  8
0
  6
Continuous
 62
     7
100
AcDbLine
 10
66.76078794672677
 20
-900.7587315599594
 30
0.0
 11
57.52308739568062
 21
-893.587665385654
 31
0.0
  0
LINE
  5
236
330
51
100
AcDbEntity
  8
0
  6
Continuous
 62
     7
100
AcDbLine
 10
65.35041772711148
 20
-902.5755573203496
 30
0.0
 11
56.11271717606533
 21
-895.4044911460442
 31
0.0
  0
LINE
  5
237
330
51
100
AcDbEntity
  8
0
  6
Continuous
 62
     7
100
AcDbLine
 10
-68.45127918024636
 20
-795.7959569415289
 30
0.0
 11
-59.21357862920021
 21
-802.9670231158343
 31
0.0
  0
LINE
  5
238
330
51
100
AcDbEntity
  8
0
  6
Continuous
 62
     7
100
AcDbLine
 10
66.76078794672677
 20
-900.7587315599594
 30
0.0
 11
65.35041772711148
 21
-902.5755573203496
 31
0.0
  0
LINE
  5
239
330
51
100
AcDbEntity
  8
0
  6
Continuous
 62
     7
100
AcDbLine
 10
-53.1234051555858
 20
-917.4969758042353
 30
0.0
 11
-45.95233898128399
 21
-908.2592752531891
 31
0.0
  0
LINE
  5
23A
330
51
100
AcDbEntity
  8
0
  6
Continuous
 62
     7
100
AcDbLine
 10
-54.940230915976
 20
-916.08660558462
 30
0.0
 11
-47.76916474167419
 21
-906.8489050335738
 31
0.0
  0
LINE
  5
23B
330
51
100
AcDbEntity
  8
0
  6
Continuous
 62
     7
100
AcDbLine
 10
51.83936946284112
 20
-782.2849086772621
 30
0.0
 11
44.66830328853567
 21
-791.5226092283083
 31
0.0
  0
LINE
  5
23C
330
51
100
AcDbEntity
  8
0
  6
Continuous
 62
     7
100
AcDbLine
 10
-53.1234051555858
 20
-917.4969758042353
 30
0.0
 11
-54.940230915976
 21
-916.08660558462
 31
0.0
  0
LINE
  5
23D
330
51
100
AcDbEntity
  8
0
  6
Continuous
 62
     7
100
AcDbLine
 10
90.52405129107674
 20
-861.8420397256159
 30
0.0
 11
90.63154889230819
 21
-861.4133943218694
 31
0.0
  0
LINE
  5
23E
330
51
100
AcDbEntity
  8
0
  6
Continuous
 62
     7
100
AcDbLine
 10
87.84557412641325
 20
-863.2566541557426
 30
0.0
 11
88.17629379033124
 21
-860.975513325935
 31
0.0
  0
LINE
  5
23F
330
51
100
AcDbEntity
  8
0
  6
Continuous
 62
     7
100
AcDbLine
 10
88.25251638702858
 20
-863.3154412214099
 30
0.0
 11
87.84557412641325
 21
-863.2566541557426
 31
0.0
  0
LINE
  5
240
330
51
100
AcDbEntity
  8
0
  6
Continuous
 62
     7
100
AcDbLine
 10
88.49748134710345
 20
-861.6233637515797
 30
0.0
 11
88.25251638702858
 21
-863.3154412214099
 31
0.0
  0
ARC
  5
241
330
51
100
AcDbEntity
  8
1
  6
Continuous
 62
     7
100
AcDbCircle
 10
72.27446083418116
 20
-907.3741183902403
 30
0.0
 40
4.500000000000071
100
AcDbArc
 50
-66.3793702084449
 51
-53.62062979155963
  0
ARC
  5
242
330
51
100
AcDbEntity
  8
1
  6
Continuous
 62
     7
100
AcDbCircle
 10
72.27446083418116
 20
-907.3741183902403
 30
0.0
 40
4.499999999999921
100
AcDbArc
 50
-156.3793702084456
 51
-143.6206297915599
  0
ARC
  5
243
330
51
100
AcDbEntity
  8
1
  6
Continuous
 62
     7
100
AcDbCircle
 10
72.27446083418116
 20
-907.3741183902403
 30
0.0
 40
4.500000000000025
100
AcDbArc
 50
113.6206297915538
 51
126.3793702084392
  0
ARC
  5
244
330
51
100
AcDbEntity
  8
1
  6
Continuous
 62
     7
100
AcDbCircle
 10
72.27446083418116
 20
-907.3741183902403
 30
0.0
 40
4.500000000000025
100
AcDbArc
 50
23.62062979155378
 51
36.37937020843921
  0
ARC
  5
245
330
51
100
AcDbEntity
  8
1
  6
Continuous
 62
     7
100
AcDbCircle
 10
-15.03058400133679
 20
-942.2141692838318
 30
0.0
 40
4.499999999999905
100
AcDbArc
 50
-126.3793702084432
 51
-113.6206297915576
  0
ARC
  5
246
330
51
100
AcDbEntity
  8
1
  6
Continuous
 62
     7
100
AcDbCircle
 10
-15.03058400133679
 20
-942.2141692838318
 30
0.0
 40
4.499999999999856
100
AcDbArc
 50
143.6206297915527
 51
156.3793702084405
  0
ARC
  5
247
330
51
100
AcDbEntity
  8
1
  6
Continuous
 62
     7
100
AcDbCircle
 10
-15.03058400133679
 20
-942.2141692838318
 30
0.0
 40
4.500000000000041
100
AcDbArc
 50
53.62062979155441
 51
66.37937020843975
  0
ARC
  5
248
330
51
100
AcDbEntity
  8
1
  6
Continuous
 62
     7
100
AcDbCircle
 10
-15.03058400133679
 20
-942.2141692838318
 30
0.0
 40
4.499999999999973
100
AcDbArc
 50
-36.37937020844442
 51
-23.62062979155836
  0
ARC
  5
249
330
51
100
AcDbEntity
  8
1
  6
Continuous
 62
     7
100
AcDbCircle
 10
-88.85547556208905
 20
-884.0258080245305
 30
0.0
 40
4.499999999999964
100
AcDbArc
 50
173.6206297915557
 51
-173.6206297915586
  0
ARC
  5
24A
330
51
100
AcDbEntity
  8
1
  6
Continuous
 62
     7
100
AcDbCircle
 10
-88.85547556208905
 20
-884.0258080245305
 30
0.0
 40
4.499999999999979
100
AcDbArc
 50
83.62062979155553
 51
96.37937020844124
  0
ARC
  5
24B
330
51
100
AcDbEntity
  8
1
  6
Continuous
 62
     7
100
AcDbCircle
 10
-88.85547556208905
 20
-884.0258080245305
 30
0.0
 40
4.499999999999992
100
AcDbArc
 50
-6.37937020844427
 51
6.3793702084414
  0
ARC
  5
24C
330
51
100
AcDbEntity
  8
1
  6
Continuous
 62
     7
100
AcDbCircle
 10
-88.85547556208905
 20
-884.0258080245305
 30
0.0
 40
4.499999999999979
100
AcDbArc
 50
-96.37937020844447
 51
-83.62062979155877
  0
ARC
  5
24D
330
51
100
AcDbEntity
  8
1
  6
Continuous
 62
     7
100
AcDbCircle
 10
-75.37532228732502
 20
-790.9973958716367
 30
0.0
 40
4.499999999999967
100
AcDbArc
 50
113.6206297915557
 51
126.3793702084404
  0
ARC
  5
24E
330
51
100
AcDbEntity
  8
1
  6
Continuous
 62
     7
100
AcDbCircle
 10
-75.37532228732502
 20
-790.9973958716367
 30
0.0
 40
4.500000000000012
100
AcDbArc
 50
23.62062979155701
 51
36.3793702084424
  0
ARC
  5
24F
330
51
100
AcDbEntity
  8
1
  6
Continuous
 62
     7
100
AcDbCircle
 10
-75.37532228732502
 20
-790.9973958716367
 30
0.0
 40
4.500000000000012
100
AcDbArc
 50
-66.37937020844299
 51
-53.6206297915576
  0
ARC
  5
250
330
51
100
AcDbEntity
  8
1
  6
Continuous
 62
     7
100
AcDbCircle
 10
-75.37532228732502
 20
-790.9973958716367
 30
0.0
 40
4.499999999999921
100
AcDbArc
 50
-156.3793702084456
 51
-143.6206297915588
  0
ARC
  5
251
330
51
100
AcDbEntity
  8
1
  6
Continuous
 62
     7
100
AcDbCircle
 10
11.92972254819179
 20
-756.1573449780426
 30
0.0
 40
4.499999999999975
100
AcDbArc
 50
53.62062979155554
 51
66.37937020844245
  0
ARC
  5
252
330
51
100
AcDbEntity
  8
1
  6
Continuous
 62
     7
100
AcDbCircle
 10
11.92972254819179
 20
-756.1573449780426
 30
0.0
 40
4.499999999999906
100
AcDbArc
 50
-36.37937020844326
 51
-23.62062979155759
  0
ARC
  5
253
330
51
100
AcDbEntity
  8
1
  6
Continuous
 62
     7
100
AcDbCircle
 10
11.92972254819179
 20
-756.1573449780426
 30
0.0
 40
4.499999999999973
100
AcDbArc
 50
-126.3793702084444
 51
-113.6206297915563
  0
ARC
  5
254
330
51
100
AcDbEntity
  8
1
  6
Continuous
 62
     7
100
AcDbCircle
 10
11.92972254819179
 20
-756.1573449780426
 30
0.0
 40
4.499999999999906
100
AcDbArc
 50
143.6206297915568
 51
156.3793702084424
  0
ARC
  5
255
330
51
100
AcDbEntity
  8
1
  6
Continuous
 62
     7
100
AcDbCircle
 10
85.75461410894596
 20
-814.3457062373418
 30
0.0
 40
4.499999999999964
100
AcDbArc
 50
83.62062979155715
 51
96.37937020844285
  0
ARC
  5
256
330
51
100
AcDbEntity
  8
1
  6
Continuous
 62
     7
100
AcDbCircle
 10
85.75461410894596
 20
-814.3457062373418
 30
0.0
 40
4.499999999999993
100
AcDbArc
 50
173.6206297915572
 51
-173.6206297915571
  0
ARC
  5
257
330
51
100
AcDbEntity
  8
1
  6
Continuous
 62
     7
100
AcDbCircle
 10
85.75461410894596
 20
-814.3457062373418
 30
0.0
 40
4.499999999999964
100
AcDbArc
 50
-96.37937020844285
 51
-83.62062979155715
  0
ARC
  5
258
330
51
100
AcDbEntity
  8
1
  6
Continuous
 62
     7
100
AcDbCircle
 10
85.75461410894596
 20
-814.3457062373418
 30
0.0
 40
4.499999999999964
100
AcDbArc
 50
-6.37937020844285
 51
6.37937020844285
  0
ARC
  5
259
330
51
100
AcDbEntity
  8
0
  6
Continuous
 62
     7
100
AcDbCircle
 10
-1.55043072656744
 20
-849.185757130941
 30
0.0
 40
70.50000000000107
100
AcDbArc
 50
143.1130859681924
 51
156.2437790509309
  0
ARC
  5
25A
330
51
100
AcDbEntity
  8
0
  6
Continuous
 62
     7
100
AcDbCircle
 10
-1.55043072656744
 20
-849.185757130941
 30
0.0
 40
73.9000000000018
100
AcDbArc
 50
143.0700807650843
 51
151.3664650696025
  0
ARC
  5
25B
330
51
100
AcDbEntity
  8
0
  6
Continuous
 62
     7
100
AcDbCircle
 10
-1.55043072656744
 20
-849.185757130941
 30
0.0
 40
73.9000000000019
100
AcDbArc
 50
151.3664650696025
 51
156.2867842540391
  0
ARC
  5
25C
330
51
100
AcDbEntity
  8
0
  6
Continuous
 62
     7
100
AcDbCircle
 10
-1.55043072656744
 20
-849.185757130941
 30
0.0
 40
73.90000000000055
100
AcDbArc
 50
158.0700807650826
 51
171.2867842540396
  0
ARC
  5
25D
330
51
100
AcDbEntity
  8
0
  6
Continuous
 62
     7
100
AcDbCircle
 10
-1.55043072656744
 20
-849.185757130941
 30
0.0
 40
70.49999999999979
100
AcDbArc
 50
158.1130859681896
 51
171.2437790509339
  0
ARC
  5
25E
330
51
100
AcDbEntity
  8
0
  6
Continuous
 62
     7
100
AcDbCircle
 10
-1.55043072656744
 20
-849.185757130941
 30
0.0
 40
73.90000000000072
100
AcDbArc
 50
42.99031006067008
 51
51.28678425404065
  0
ARC
  5
25F
330
51
100
AcDbEntity
  8
0
  6
Continuous
 62
     7
100
AcDbCircle
 10
-1.55043072656744
 20
-849.185757130941
 30
0.0
 40
45.10463792494741
100
AcDbArc
 50
8.6394194571629
 51
20.71744556196385
  0
ARC
  5
260
330
51
100
AcDbEntity
  8
0
  6
Continuous
 62
     7
100
AcDbCircle
 10
-1.55043072656744
 20
-849.185757130941
 30
0.0
 40
45.10463792494984
100
AcDbArc
 50
68.63941945716371
 51
80.71744556196464
  0
ARC
  5
261
330
51
100
AcDbEntity
  8
0
  6
Continuous
 62
     7
100
AcDbCircle
 10
-1.55043072656744
 20
-849.185757130941
 30
0.0
 40
45.1046379249496
100
AcDbArc
 50
53.63941945716279
 51
65.71744556196235
  0
ARC
  5
262
330
51
100
AcDbEntity
  8
0
  6
Continuous
 62
     7
100
AcDbCircle
 10
-1.55043072656744
 20
-849.185757130941
 30
0.0
 40
45.1046379249474
100
AcDbArc
 50
98.6394194571629
 51
110.7174455619638
  0
ARC
  5
263
330
51
100
AcDbEntity
  8
0
  6
Continuous
 62
     7
100
AcDbCircle
 10
-1.55043072656744
 20
-849.185757130941
 30
0.0
 40
45.10463792494824
100
AcDbArc
 50
83.63941945716283
 51
95.71744556196211
  0
ARC
  5
264
330
51
100
AcDbEntity
  8
0
  6
Continuous
 62
     7
100
AcDbCircle
 10
-1.55043072656744
 20
-849.185757130941
 30
0.0
 40
70.50000000000045
100
AcDbArc
 50
-21.8869140318038
 51
-8.75622094906608
  0
ARC
  5
265
330
51
100
AcDbEntity
  8
0
  6
Continuous
 62
     7
100
AcDbCircle
 10
-1.55043072656744
 20
-849.185757130941
 30
0.0
 40
73.8999999999992
100
AcDbArc
 50
-21.92991923491481
 51
-8.7132157459608
  0
ARC
  5
266
330
51
100
AcDbEntity
  8
0
  6
Continuous
 62
     7
100
AcDbCircle
 10
-1.55043072656744
 20
-849.185757130941
 30
0.0
 40
70.49999999999888
100
AcDbArc
 50
-36.88691403180528
 51
-23.7562209490664
  0
ARC
  5
267
330
51
100
AcDbEntity
  8
0
  6
Continuous
 62
     7
100
AcDbCircle
 10
-1.55043072656744
 20
-849.185757130941
 30
0.0
 40
73.89999999999696
100
AcDbArc
 50
-28.63353493039634
 51
-23.7132157459609
  0
ARC
  5
268
330
51
100
AcDbEntity
  8
0
  6
Continuous
 62
     7
100
AcDbCircle
 10
-1.55043072656744
 20
-849.185757130941
 30
0.0
 40
45.10463792494667
100
AcDbArc
 50
-36.36058054283996
 51
-24.28255443803765
  0
ARC
  5
269
330
51
100
AcDbEntity
  8
0
  6
Continuous
 62
     7
100
AcDbCircle
 10
-1.55043072656744
 20
-849.185757130941
 30
0.0
 40
45.10463792494462
100
AcDbArc
 50
-6.36058054283768
 51
5.7174455619621
  0
ARC
  5
26A
330
51
100
AcDbEntity
  8
0
  6
Continuous
 62
     7
100
AcDbCircle
 10
-1.55043072656744
 20
-849.185757130941
 30
0.0
 40
45.10463792494645
100
AcDbArc
 50
-21.36058054283797
 51
-9.28255443803536
  0
ARC
  5
26B
330
51
100
AcDbEntity
  8
0
  6
Continuous
 62
     7
100
AcDbCircle
 10
-1.55043072656744
 20
-849.185757130941
 30
0.0
 40
45.10463792494888
100
AcDbArc
 50
113.6394194571613
 51
125.7174455619614
  0
ARC
  5
26C
330
51
100
AcDbEntity
  8
0
  6
Continuous
 62
     7
100
AcDbCircle
 10
-1.55043072656744
 20
-849.185757130941
 30
0.0
 40
45.10463792494917
100
AcDbArc
 50
128.6394194571606
 51
140.7174455619635
  0
ARC
  5
26D
330
51
100
AcDbEntity
  8
0
  6
Continuous
 62
     7
100
AcDbCircle
 10
-1.55043072656744
 20
-849.185757130941
 30
0.0
 40
73.90000000000337
100
AcDbArc
 50
132.9903100606682
 51
141.2867842540385
  0
ARC
  5
26E
330
51
100
AcDbEntity
  8
0
  6
Continuous
 62
     7
100
AcDbCircle
 10
-1.55043072656744
 20
-849.185757130941
 30
0.0
 40
70.50000000000266
100
AcDbArc
 50
128.1130859681925
 51
141.2437790509311
  0
ARC
  5
26F
330
51
100
AcDbEntity
  8
0
  6
Continuous
 62
     7
100
AcDbCircle
 10
-1.55043072656744
 20
-849.185757130941
 30
0.0
 40
73.90000000000319
100
AcDbArc
 50
98.0700807650839
 51
111.2867842540399
  0
ARC
  5
270
330
51
100
AcDbEntity
  8
0
  6
Continuous
 62
     7
100
AcDbCircle
 10
-1.55043072656744
 20
-849.185757130941
 30
0.0
 40
70.50000000000124
100
AcDbArc
 50
98.1130859681924
 51
111.2437790509304
  0
ARC
  5
271
330
51
100
AcDbEntity
  8
0
  6
Continuous
 62
     7
100
AcDbCircle
 10
-1.55043072656744
 20
-849.185757130941
 30
0.0
 40
73.90000000000326
100
AcDbArc
 50
128.0700807650833
 51
132.9903100606682
  0
ARC
  5
272
330
51
100
AcDbEntity
  8
0
  6
Continuous
 62
     7
100
AcDbCircle
 10
-1.55043072656744
 20
-849.185757130941
 30
0.0
 40
73.90000000000136
100
AcDbArc
 50
113.0700807650847
 51
126.2867842540375
  0
ARC
  5
273
330
51
100
AcDbEntity
  8
0
  6
Continuous
 62
     7
100
AcDbCircle
 10
-1.55043072656744
 20
-849.185757130941
 30
0.0
 40
70.50000000000225
100
AcDbArc
 50
113.1130859681931
 51
126.2437790509314
  0
ARC
  5
274
330
51
100
AcDbEntity
  8
0
  6
Continuous
 62
     7
100
AcDbCircle
 10
-1.55043072656744
 20
-849.185757130941
 30
0.0
 40
73.90000000000136
100
AcDbArc
 50
23.07008076508469
 51
36.28678425404141
  0
ARC
  5
275
330
51
100
AcDbEntity
  8
0
  6
Continuous
 62
     7
100
AcDbCircle
 10
-1.55043072656744
 20
-849.185757130941
 30
0.0
 40
70.50000000000081
100
AcDbArc
 50
23.11308596819041
 51
36.24377905093552
  0
ARC
  5
276
330
51
100
AcDbEntity
  8
0
  6
Continuous
 62
     7
100
AcDbCircle
 10
-1.55043072656744
 20
-849.185757130941
 30
0.0
 40
73.90000000000039
100
AcDbArc
 50
38.070080765085
 51
42.99031006067008
  0
ARC
  5
277
330
51
100
AcDbEntity
  8
0
  6
Continuous
 62
     7
100
AcDbCircle
 10
-1.55043072656744
 20
-849.185757130941
 30
0.0
 40
45.10463792494633
100
AcDbArc
 50
38.63941945716351
 51
50.71744556196351
  0
ARC
  5
278
330
51
100
AcDbEntity
  8
0
  6
Continuous
 62
     7
100
AcDbCircle
 10
-1.55043072656744
 20
-849.185757130941
 30
0.0
 40
45.10463792494555
100
AcDbArc
 50
23.63941945716316
 51
35.71744556196788
  0
ARC
  5
279
330
51
100
AcDbEntity
  8
0
  6
Continuous
 62
     7
100
AcDbCircle
 10
-1.55043072656744
 20
-849.185757130941
 30
0.0
 40
73.8999999999996
100
AcDbArc
 50
8.07008076508429
 51
21.28678425403994
  0
ARC
  5
27A
330
51
100
AcDbEntity
  8
0
  6
Continuous
 62
     7
100
AcDbCircle
 10
-1.55043072656744
 20
-849.185757130941
 30
0.0
 40
70.50000000000072
100
AcDbArc
 50
8.11308596818947
 51
21.24377905093311
  0
ARC
  5
27B
330
51
100
AcDbEntity
  8
0
  6
Continuous
 62
     7
100
AcDbCircle
 10
-1.55043072656744
 20
-849.185757130941
 30
0.0
 40
70.49999999999844
100
AcDbArc
 50
-6.88691403180551
 51
6.2437790509332
  0
ARC
  5
27C
330
51
100
AcDbEntity
  8
0
  6
Continuous
 62
     7
100
AcDbCircle
 10
-1.55043072656744
 20
-849.185757130941
 30
0.0
 40
70.50000000000266
100
AcDbArc
 50
38.11308596819251
 51
51.24377905093297
  0
ARC
  5
27D
330
51
100
AcDbEntity
  8
0
  6
Continuous
 62
     7
100
AcDbCircle
 10
-1.55043072656744
 20
-849.185757130941
 30
0.0
 40
73.9000000000018
100
AcDbArc
 50
53.07008076508433
 51
61.36646506960254
  0
ARC
  5
27E
330
51
100
AcDbEntity
  8
0
  6
Continuous
 62
     7
100
AcDbCircle
 10
-1.55043072656744
 20
-849.185757130941
 30
0.0
 40
70.50000000000107
100
AcDbArc
 50
53.11308596819235
 51
66.24377905093209
  0
ARC
  5
27F
330
51
100
AcDbEntity
  8
0
  6
Continuous
 62
     7
100
AcDbCircle
 10
-1.55043072656744
 20
-849.185757130941
 30
0.0
 40
70.50000000000247
100
AcDbArc
 50
83.11308596819191
 51
96.2437790509332
  0
ARC
  5
280
330
51
100
AcDbEntity
  8
0
  6
Continuous
 62
     7
100
AcDbCircle
 10
-1.55043072656744
 20
-849.185757130941
 30
0.0
 40
73.8999999999992
100
AcDbArc
 50
68.0700807650852
 51
81.28678425403963
  0
ARC
  5
281
330
51
100
AcDbEntity
  8
0
  6
Continuous
 62
     7
100
AcDbCircle
 10
-1.55043072656744
 20
-849.185757130941
 30
0.0
 40
70.50000000000182
100
AcDbArc
 50
68.11308596819346
 51
81.24377905093147
  0
ARC
  5
282
330
51
100
AcDbEntity
  8
0
  6
Continuous
 62
     7
100
AcDbCircle
 10
-1.55043072656744
 20
-849.185757130941
 30
0.0
 40
73.9000000000019
100
AcDbArc
 50
61.36646506960254
 51
66.2867842540391
  0
ARC
  5
283
330
51
100
AcDbEntity
  8
0
  6
Continuous
 62
     7
100
AcDbCircle
 10
-1.55043072656744
 20
-849.185757130941
 30
0.0
 40
73.90000000000198
100
AcDbArc
 50
83.07008076508481
 51
96.2867842540403
  0
ARC
  5
284
330
51
100
AcDbEntity
  8
0
  6
Continuous
 62
     7
100
AcDbCircle
 10
-1.55043072656744
 20
-849.185757130941
 30
0.0
 40
73.89999999999823
100
AcDbArc
 50
-47.00968993933198
 51
-38.71321574595935
  0
ARC
  5
285
330
51
100
AcDbEntity
  8
0
  6
Continuous
 62
     7
100
AcDbCircle
 10
-1.55043072656744
 20
-849.185757130941
 30
0.0
 40
73.89999999999888
100
AcDbArc
 50
-126.9299192349174
 51
-118.6335349303988
  0
ARC
  5
286
330
51
100
AcDbEntity
  8
0
  6
Continuous
 62
     7
100
AcDbCircle
 10
-1.55043072656744
 20
-849.185757130941
 30
0.0
 40
73.89999999999871
100
AcDbArc
 50
-118.6335349303988
 51
-113.713215745962
  0
ARC
  5
287
330
51
100
AcDbEntity
  8
0
  6
Continuous
 62
     7
100
AcDbCircle
 10
-1.55043072656744
 20
-849.185757130941
 30
0.0
 40
70.49999999999815
100
AcDbArc
 50
-126.8869140318094
 51
-113.7562209490691
  0
ARC
  5
288
330
51
100
AcDbEntity
  8
0
  6
Continuous
 62
     7
100
AcDbCircle
 10
-1.55043072656744
 20
-849.185757130941
 30
0.0
 40
70.49999999999756
100
AcDbArc
 50
-141.886914031808
 51
-128.7562209490689
  0
ARC
  5
289
330
51
100
AcDbEntity
  8
0
  6
Continuous
 62
     7
100
AcDbCircle
 10
-1.55043072656744
 20
-849.185757130941
 30
0.0
 40
73.89999999999823
100
AcDbArc
 50
-137.009689939332
 51
-128.7132157459615
  0
ARC
  5
28A
330
51
100
AcDbEntity
  8
0
  6
Continuous
 62
     7
100
AcDbCircle
 10
-1.55043072656744
 20
-849.185757130941
 30
0.0
 40
70.50000000000081
100
AcDbArc
 50
-156.8869140318096
 51
-143.7562209490669
  0
ARC
  5
28B
330
51
100
AcDbEntity
  8
0
  6
Continuous
 62
     7
100
AcDbCircle
 10
-1.55043072656744
 20
-849.185757130941
 30
0.0
 40
70.49999999999844
100
AcDbArc
 50
-111.8869140318076
 51
-98.756220949069
  0
ARC
  5
28C
330
51
100
AcDbEntity
  8
0
  6
Continuous
 62
     7
100
AcDbCircle
 10
-1.55043072656744
 20
-849.185757130941
 30
0.0
 40
73.89999999999816
100
AcDbArc
 50
-141.9299192349172
 51
-137.009689939332
  0
ARC
  5
28D
330
51
100
AcDbEntity
  8
0
  6
Continuous
 62
     7
100
AcDbCircle
 10
-1.55043072656744
 20
-849.185757130941
 30
0.0
 40
45.10463792494686
100
AcDbArc
 50
-81.36058054284167
 51
-69.28255443803616
  0
ARC
  5
28E
330
51
100
AcDbEntity
  8
0
  6
Continuous
 62
     7
100
AcDbCircle
 10
-1.55043072656744
 20
-849.185757130941
 30
0.0
 40
45.10463792494742
100
AcDbArc
 50
-156.3605805428429
 51
-144.2825544380386
  0
ARC
  5
28F
330
51
100
AcDbEntity
  8
0
  6
Continuous
 62
     7
100
AcDbCircle
 10
-1.55043072656744
 20
-849.185757130941
 30
0.0
 40
45.10463792494502
100
AcDbArc
 50
-96.36058054284229
 51
-84.2825544380379
  0
ARC
  5
290
330
51
100
AcDbEntity
  8
0
  6
Continuous
 62
     7
100
AcDbCircle
 10
-1.55043072656744
 20
-849.185757130941
 30
0.0
 40
70.49999999999712
100
AcDbArc
 50
-81.88691403181012
 51
-68.75622094906964
  0
ARC
  5
291
330
51
100
AcDbEntity
  8
0
  6
Continuous
 62
     7
100
AcDbCircle
 10
-1.55043072656744
 20
-849.185757130941
 30
0.0
 40
45.10463792494667
100
AcDbArc
 50
-126.36058054284
 51
-114.2825544380376
  0
ARC
  5
292
330
51
100
AcDbEntity
  8
0
  6
Continuous
 62
     7
100
AcDbCircle
 10
-1.55043072656744
 20
-849.185757130941
 30
0.0
 40
45.1046379249469
100
AcDbArc
 50
-141.360580542843
 51
-129.2825544380394
  0
ARC
  5
293
330
51
100
AcDbEntity
  8
0
  6
Continuous
 62
     7
100
AcDbCircle
 10
-1.55043072656744
 20
-849.185757130941
 30
0.0
 40
73.89999999999671
100
AcDbArc
 50
-36.92991923491511
 51
-28.63353493039634
  0
ARC
  5
294
330
51
100
AcDbEntity
  8
0
  6
Continuous
 62
     7
100
AcDbCircle
 10
-1.55043072656744
 20
-849.185757130941
 30
0.0
 40
73.89999999999814
100
AcDbArc
 50
-51.92991923491722
 51
-47.00968993933198
  0
ARC
  5
295
330
51
100
AcDbEntity
  8
0
  6
Continuous
 62
     7
100
AcDbCircle
 10
-1.55043072656744
 20
-849.185757130941
 30
0.0
 40
70.49999999999756
100
AcDbArc
 50
-51.88691403180799
 51
-38.75622094906658
  0
ARC
  5
296
330
51
100
AcDbEntity
  8
0
  6
Continuous
 62
     7
100
AcDbCircle
 10
-1.55043072656744
 20
-849.185757130941
 30
0.0
 40
45.10463792494633
100
AcDbArc
 50
-51.36058054283649
 51
-39.28255443803648
  0
ARC
  5
297
330
51
100
AcDbEntity
  8
0
  6
Continuous
 62
     7
100
AcDbCircle
 10
-1.55043072656744
 20
-849.185757130941
 30
0.0
 40
45.10463792494555
100
AcDbArc
 50
-66.36058054283684
 51
-54.28255443803588
  0
ARC
  5
298
330
51
100
AcDbEntity
  8
0
  6
Continuous
 62
     7
100
AcDbCircle
 10
-1.55043072656744
 20
-849.185757130941
 30
0.0
 40
45.10463792494961
100
AcDbArc
 50
143.6394194571628
 51
155.7174455619624
  0
ARC
  5
299
330
51
100
AcDbEntity
  8
0
  6
Continuous
 62
     7
100
AcDbCircle
 10
-1.55043072656744
 20
-849.185757130941
 30
0.0
 40
45.10463792494777
100
AcDbArc
 50
158.6394194571577
 51
170.7174455619601
  0
ARC
  5
29A
330
51
100
AcDbEntity
  8
0
  6
Continuous
 62
     7
100
AcDbCircle
 10
-1.55043072656744
 20
-849.185757130941
 30
0.0
 40
73.8999999999996
100
AcDbArc
 50
-81.92991923491572
 51
-68.71321574596007
  0
ARC
  5
29B
330
51
100
AcDbEntity
  8
0
  6
Continuous
 62
     7
100
AcDbCircle
 10
-1.55043072656744
 20
-849.185757130941
 30
0.0
 40
45.10463792494777
100
AcDbArc
 50
-111.3605805428423
 51
-99.28255443804066
  0
ARC
  5
29C
330
51
100
AcDbEntity
  8
0
  6
Continuous
 62
     7
100
AcDbCircle
 10
-1.55043072656744
 20
-849.185757130941
 30
0.0
 40
70.49999999999844
100
AcDbArc
 50
-96.88691403180552
 51
-83.75622094906649
  0
ARC
  5
29D
330
51
100
AcDbEntity
  8
0
  6
Continuous
 62
     7
100
AcDbCircle
 10
-1.55043072656744
 20
-849.185757130941
 30
0.0
 40
73.89999999999802
100
AcDbArc
 50
-66.92991923491421
 51
-53.71321574596085
  0
ARC
  5
29E
330
51
100
AcDbEntity
  8
0
  6
Continuous
 62
     7
100
AcDbCircle
 10
-1.55043072656744
 20
-849.185757130941
 30
0.0
 40
70.49999999999747
100
AcDbArc
 50
-66.88691403180843
 51
-53.75622094906687
  0
ARC
  5
29F
330
51
100
AcDbEntity
  8
0
  6
Continuous
 62
     7
100
AcDbCircle
 10
-1.55043072656744
 20
-849.185757130941
 30
0.0
 40
45.10463792494686
100
AcDbArc
 50
-171.3605805428417
 51
-159.2825544380362
  0
ARC
  5
2A0
330
51
100
AcDbEntity
  8
0
  6
Continuous
 62
     7
100
AcDbCircle
 10
-1.55043072656744
 20
-849.185757130941
 30
0.0
 40
70.49999999999844
100
AcDbArc
 50
173.1130859681945
 51
-173.7562209490698
  0
ARC
  5
2A1
330
51
100
AcDbEntity
  8
0
  6
Continuous
 62
     7
100
AcDbCircle
 10
-1.55043072656744
 20
-849.185757130941
 30
0.0
 40
58.13148319780721
100
AcDbArc
 50
53.31197394583185
 51
66.04489107329519
  0
ARC
  5
2A2
330
51
100
AcDbEntity
  8
0
  6
Continuous
 62
     7
100
AcDbCircle
 10
-1.55043072656744
 20
-849.185757130941
 30
0.0
 40
56.19999999999873
100
AcDbArc
 50
53.35093687884108
 51
66.00592814028717
  0
ARC
  5
2A3
330
51
100
AcDbEntity
  8
0
  6
Continuous
 62
     7
100
AcDbCircle
 10
-1.55043072656744
 20
-849.185757130941
 30
0.0
 40
56.20000000000257
100
AcDbArc
 50
83.35093687883969
 51
96.00592814028596
  0
ARC
  5
2A4
330
51
100
AcDbEntity
  8
0
  6
Continuous
 62
     7
100
AcDbCircle
 10
-1.55043072656744
 20
-849.185757130941
 30
0.0
 40
58.13148319780569
100
AcDbArc
 50
83.3119739458328
 51
96.04489107329404
  0
ARC
  5
2A5
330
51
100
AcDbEntity
  8
0
  6
Continuous
 62
     7
100
AcDbCircle
 10
-1.55043072656744
 20
-849.185757130941
 30
0.0
 40
56.20000000000117
100
AcDbArc
 50
68.35093687884108
 51
81.00592814028353
  0
ARC
  5
2A6
330
51
100
AcDbEntity
  8
0
  6
Continuous
 62
     7
100
AcDbCircle
 10
-1.55043072656744
 20
-849.185757130941
 30
0.0
 40
58.13148319780497
100
AcDbArc
 50
68.31197394583052
 51
81.04489107329529
  0
ARC
  5
2A7
330
51
100
AcDbEntity
  8
0
  6
Continuous
 62
     7
100
AcDbCircle
 10
-1.55043072656744
 20
-849.185757130941
 30
0.0
 40
43.50000000000116
100
AcDbArc
 50
53.69332501522609
 51
65.66354000389929
  0
ARC
  5
2A8
330
51
100
AcDbEntity
  8
0
  6
Continuous
 62
     7
100
AcDbCircle
 10
-1.55043072656744
 20
-849.185757130941
 30
0.0
 40
56.20000000000039
100
AcDbArc
 50
23.35093687884036
 51
36.00592814028388
  0
ARC
  5
2A9
330
51
100
AcDbEntity
  8
0
  6
Continuous
 62
     7
100
AcDbCircle
 10
-1.55043072656744
 20
-849.185757130941
 30
0.0
 40
58.13148319780561
100
AcDbArc
 50
23.31197394583102
 51
36.04489107329388
  0
ARC
  5
2AA
330
51
100
AcDbEntity
  8
0
  6
Continuous
 62
     7
100
AcDbCircle
 10
-1.55043072656744
 20
-849.185757130941
 30
0.0
 40
56.19999999999778
100
AcDbArc
 50
-21.64906312116028
 51
-8.99407185971338
  0
ARC
  5
2AB
330
51
100
AcDbEntity
  8
0
  6
Continuous
 62
     7
100
AcDbCircle
 10
-1.55043072656744
 20
-849.185757130941
 30
0.0
 40
58.13148319780497
100
AcDbArc
 50
-21.68802605416948
 51
-8.95510892670527
  0
ARC
  5
2AC
330
51
100
AcDbEntity
  8
0
  6
Continuous
 62
     7
100
AcDbCircle
 10
-1.55043072656744
 20
-849.185757130941
 30
0.0
 40
56.19999999999659
100
AcDbArc
 50
-51.64906312115968
 51
-38.99407185971616
  0
ARC
  5
2AD
330
51
100
AcDbEntity
  8
0
  6
Continuous
 62
     7
100
AcDbCircle
 10
-1.55043072656744
 20
-849.185757130941
 30
0.0
 40
56.19999999999873
100
AcDbArc
 50
-36.64906312115892
 51
-23.99407185971435
  0
ARC
  5
2AE
330
51
100
AcDbEntity
  8
0
  6
Continuous
 62
     7
100
AcDbCircle
 10
-1.55043072656744
 20
-849.185757130941
 30
0.0
 40
56.20000000000039
100
AcDbArc
 50
-66.64906312115964
 51
-53.99407185971394
  0
ARC
  5
2AF
330
51
100
AcDbEntity
  8
0
  6
Continuous
 62
     7
100
AcDbCircle
 10
-1.55043072656744
 20
-849.185757130941
 30
0.0
 40
58.13148319780227
100
AcDbArc
 50
-66.68802605416757
 51
-53.95510892670612
  0
ARC
  5
2B0
330
51
100
AcDbEntity
  8
0
  6
Continuous
 62
     7
100
AcDbCircle
 10
-1.55043072656744
 20
-849.185757130941
 30
0.0
 40
58.13148319780211
100
AcDbArc
 50
-36.68802605416742
 51
-23.95510892670628
  0
ARC
  5
2B1
330
51
100
AcDbEntity
  8
0
  6
Continuous
 62
     7
100
AcDbCircle
 10
-1.55043072656744
 20
-849.185757130941
 30
0.0
 40
58.13148319780154
100
AcDbArc
 50
-51.6880260541684
 51
-38.95510892670372
  0
ARC
  5
2B2
330
51
100
AcDbEntity
  8
0
  6
Continuous
 62
     7
100
AcDbCircle
 10
-1.55043072656744
 20
-849.185757130941
 30
0.0
 40
58.13148319780728
100
AcDbArc
 50
-171.6880260541701
 51
-158.9551089267059
  0
ARC
  5
2B3
330
51
100
AcDbEntity
  8
0
  6
Continuous
 62
     7
100
AcDbCircle
 10
-1.55043072656744
 20
-849.185757130941
 30
0.0
 40
56.20000000000076
100
AcDbArc
 50
-171.6490631211632
 51
-158.9940718597167
  0
ARC
  5
2B4
330
51
100
AcDbEntity
  8
0
  6
Continuous
 62
     7
100
AcDbCircle
 10
-1.55043072656744
 20
-849.185757130941
 30
0.0
 40
40.99999999999964
100
AcDbArc
 50
-126.2142799496886
 51
-84.42885503119138
  0
ARC
  5
2B5
330
51
100
AcDbEntity
  8
0
  6
Continuous
 62
     7
100
AcDbCircle
 10
-1.55043072656744
 20
-849.185757130941
 30
0.0
 40
43.50000000000054
100
AcDbArc
 50
-111.3066749847746
 51
-99.33645999610346
  0
ARC
  5
2B6
330
51
100
AcDbEntity
  8
0
  6
Continuous
 62
     7
100
AcDbCircle
 10
-1.55043072656744
 20
-849.185757130941
 30
0.0
 40
56.19999999999895
100
AcDbArc
 50
-96.64906312116075
 51
-83.99407185971734
  0
ARC
  5
2B7
330
51
100
AcDbEntity
  8
0
  6
Continuous
 62
     7
100
AcDbCircle
 10
-1.55043072656744
 20
-849.185757130941
 30
0.0
 40
58.1314831978025
100
AcDbArc
 50
-96.68802605417117
 51
-83.95510892670559
  0
ARC
  5
2B8
330
51
100
AcDbEntity
  8
0
  6
Continuous
 62
     7
100
AcDbCircle
 10
-1.55043072656744
 20
-849.185757130941
 30
0.0
 40
43.499999999997
100
AcDbArc
 50
-81.30667498477618
 51
-69.33645999610373
  0
ARC
  5
2B9
330
51
100
AcDbEntity
  8
0
  6
Continuous
 62
     7
100
AcDbCircle
 10
-1.55043072656744
 20
-849.185757130941
 30
0.0
 40
43.50000000000006
100
AcDbArc
 50
-96.30667498477433
 51
-84.3364599961034
  0
ARC
  5
2BA
330
51
100
AcDbEntity
  8
0
  6
Continuous
 62
     7
100
AcDbCircle
 10
-1.55043072656744
 20
-849.185757130941
 30
0.0
 40
56.19999999999769
100
AcDbArc
 50
-81.64906312115893
 51
-68.99407185971532
  0
ARC
  5
2BB
330
51
100
AcDbEntity
  8
0
  6
Continuous
 62
     7
100
AcDbCircle
 10
-1.55043072656744
 20
-849.185757130941
 30
0.0
 40
58.13148319780368
100
AcDbArc
 50
-81.68802605416957
 51
-68.95510892670595
  0
ARC
  5
2BC
330
51
100
AcDbEntity
  8
0
  6
Continuous
 62
     7
100
AcDbCircle
 10
4.82304213428679
 20
-855.6525062131223
 30
0.0
 40
0.9999999999985943
100
AcDbArc
 50
142.1784325095841
 51
-127.8215674902881
  0
ARC
  5
2BD
330
51
100
AcDbEntity
  8
0
  6
Continuous
 62
     7
100
AcDbCircle
 10
-1.55043128699808
 20
-849.1857574503229
 30
0.0
 40
40.99999976996521
100
AcDbArc
 50
-81.21427910752679
 51
-39.42885420707079
  0
ARC
  5
2BE
330
51
100
AcDbEntity
  8
0
  6
Continuous
 62
     7
100
AcDbCircle
 10
23.78122398183578
 20
-870.3694128526076
 30
0.0
 40
0.9999999999985943
100
AcDbArc
 50
-127.8215674904159
 51
-37.82156749041606
  0
ARC
  5
2BF
330
51
100
AcDbEntity
  8
0
  6
Continuous
 62
     7
100
AcDbCircle
 10
-1.55043072656744
 20
-849.185757130941
 30
0.0
 40
43.49999999999756
100
AcDbArc
 50
-66.30667498477345
 51
-54.33645999610296
  0
ARC
  5
2C0
330
51
100
AcDbEntity
  8
0
  6
Continuous
 62
     7
100
AcDbCircle
 10
-1.55043072656744
 20
-849.185757130941
 30
0.0
 40
56.19999999999896
100
AcDbArc
 50
-6.64906312116075
 51
6.00592814028635
  0
ARC
  5
2C1
330
51
100
AcDbEntity
  8
0
  6
Continuous
 62
     7
100
AcDbCircle
 10
-1.55043072656744
 20
-849.185757130941
 30
0.0
 40
58.13148319780207
100
AcDbArc
 50
-6.68802605416762
 51
6.04489107329441
  0
ARC
  5
2C2
330
51
100
AcDbEntity
  8
0
  6
Continuous
 62
     7
100
AcDbCircle
 10
-1.55042915784915
 20
-849.1857555797287
 30
0.0
 40
43.49999976996588
100
AcDbArc
 50
-51.30667785873824
 51
-39.33646288609098
  0
ARC
  5
2C3
330
51
100
AcDbEntity
  8
0
  6
Continuous
 62
     7
100
AcDbCircle
 10
-1.55043072656744
 20
-849.185757130941
 30
0.0
 40
43.49999999999901
100
AcDbArc
 50
-36.30667498477005
 51
-24.33645999610269
  0
ARC
  5
2C4
330
51
100
AcDbEntity
  8
0
  6
Continuous
 62
     7
100
AcDbCircle
 10
25.25291464578359
 20
-868.473594667852
 30
0.0
 40
1.000000000003696
100
AcDbArc
 50
-37.82156749045289
 51
52.17843250941925
  0
ARC
  5
2C5
330
51
100
AcDbEntity
  8
0
  6
Continuous
 62
     7
100
AcDbCircle
 10
-1.55043072656744
 20
-849.185757130941
 30
0.0
 40
43.49999999999823
100
AcDbArc
 50
-126.3066749847768
 51
-114.3364599961027
  0
ARC
  5
2C6
330
51
100
AcDbEntity
  8
0
  6
Continuous
 62
     7
100
AcDbCircle
 10
-1.55043072656744
 20
-849.185757130941
 30
0.0
 40
43.5000000000021
100
AcDbArc
 50
-141.3066749847757
 51
-129.3364599961042
  0
ARC
  5
2C7
330
51
100
AcDbEntity
  8
0
  6
Continuous
 62
     7
100
AcDbCircle
 10
-1.55043072656744
 20
-849.185757130941
 30
0.0
 40
45.10463792494864
100
AcDbArc
 50
173.6394194571583
 51
-174.2825544380379
  0
ARC
  5
2C8
330
51
100
AcDbEntity
  8
0
  6
Continuous
 62
     7
100
AcDbCircle
 10
-1.55043072656744
 20
-849.185757130941
 30
0.0
 40
40.99999999999962
100
AcDbArc
 50
-171.2142799496868
 51
-129.4288550311935
  0
ARC
  5
2C9
330
51
100
AcDbEntity
  8
0
  6
Continuous
 62
     7
100
AcDbCircle
 10
-1.55043072656744
 20
-849.185757130941
 30
0.0
 40
43.50000000000089
100
AcDbArc
 50
-156.3066749847754
 51
-144.3364599961058
  0
ARC
  5
2CA
330
51
100
AcDbEntity
  8
0
  6
Continuous
 62
     7
100
AcDbCircle
 10
-1.55043072656744
 20
-849.185757130941
 30
0.0
 40
41.00000000000043
100
AcDbArc
 50
53.78572005031852
 51
95.57114495077181
  0
ARC
  5
2CB
330
51
100
AcDbEntity
  8
0
  6
Continuous
 62
     7
100
AcDbCircle
 10
-1.55043072656744
 20
-849.185757130941
 30
0.0
 40
41.00000000000114
100
AcDbArc
 50
143.7857200683534
 51
-174.4288550311914
  0
ARC
  5
2CC
330
51
100
AcDbEntity
  8
0
  6
Continuous
 62
     7
100
AcDbCircle
 10
-1.55043072656744
 20
-849.185757130941
 30
0.0
 40
43.50000000000054
100
AcDbArc
 50
158.6933250152254
 51
170.6635400038966
  0
ARC
  5
2CD
330
51
100
AcDbEntity
  8
0
  6
Continuous
 62
     7
100
AcDbCircle
 10
-1.55043072656744
 20
-849.185757130941
 30
0.0
 40
43.50000000000116
100
AcDbArc
 50
143.6933250152261
 51
155.6635400038949
  0
ARC
  5
2CE
330
51
100
AcDbEntity
  8
0
  6
Continuous
 62
     7
100
AcDbCircle
 10
-1.55043072656744
 20
-849.185757130941
 30
0.0
 40
43.5000000000021
100
AcDbArc
 50
128.6933250152243
 51
140.6635400038958
  0
ARC
  5
2CF
330
51
100
AcDbEntity
  8
0
  6
Continuous
 62
     7
100
AcDbCircle
 10
-1.55043072656744
 20
-849.185757130941
 30
0.0
 40
56.20000000000129
100
AcDbArc
 50
98.35093687884054
 51
111.0059281402834
  0
ARC
  5
2D0
330
51
100
AcDbEntity
  8
0
  6
Continuous
 62
     7
100
AcDbCircle
 10
-1.55043072656744
 20
-849.185757130941
 30
0.0
 40
58.13148319780728
100
AcDbArc
 50
98.31197394582992
 51
111.0448910732928
  0
ARC
  5
2D1
330
51
100
AcDbEntity
  8
0
  6
Continuous
 62
     7
100
AcDbCircle
 10
-1.55043072656744
 20
-849.185757130941
 30
0.0
 40
56.20000000000258
100
AcDbArc
 50
173.3509368788397
 51
-173.9940718597177
  0
ARC
  5
2D2
330
51
100
AcDbEntity
  8
0
  6
Continuous
 62
     7
100
AcDbCircle
 10
-1.55043072656744
 20
-849.185757130941
 30
0.0
 40
58.13148319780611
100
AcDbArc
 50
173.3119739458293
 51
-173.9551089267092
  0
ARC
  5
2D3
330
51
100
AcDbEntity
  8
0
  6
Continuous
 62
     7
100
AcDbCircle
 10
-1.55043072656744
 20
-849.185757130941
 30
0.0
 40
41.00000000000024
100
AcDbArc
 50
98.78572006835925
 51
140.5711449507682
  0
ARC
  5
2D4
330
51
100
AcDbEntity
  8
0
  6
Continuous
 62
     7
100
AcDbCircle
 10
-26.8820854349743
 20
-828.0021014092708
 30
0.0
 40
1.000000000000827
100
AcDbArc
 50
52.17843250941925
 51
142.1784325095842
  0
ARC
  5
2D5
330
51
100
AcDbEntity
  8
0
  6
Continuous
 62
     7
100
AcDbCircle
 10
-1.55043072656744
 20
-849.185757130941
 30
0.0
 40
43.5000000000009
100
AcDbArc
 50
113.6933250152246
 51
125.6635400038981
  0
ARC
  5
2D6
330
51
100
AcDbEntity
  8
0
  6
Continuous
 62
     7
100
AcDbCircle
 10
-1.55043072656744
 20
-849.185757130941
 30
0.0
 40
43.50000000000115
100
AcDbArc
 50
98.69332501522783
 51
110.6635400039008
  0
ARC
  5
2D7
330
51
100
AcDbEntity
  8
0
  6
Continuous
 62
     7
100
AcDbCircle
 10
-1.55043072656744
 20
-849.185757130941
 30
0.0
 40
43.5000000000006
100
AcDbArc
 50
-171.3066749847769
 51
-159.3364599961037
  0
ARC
  5
2D8
330
51
100
AcDbEntity
  8
0
  6
Continuous
 62
     7
100
AcDbCircle
 10
-1.55043072656744
 20
-849.185757130941
 30
0.0
 40
43.50000000000007
100
AcDbArc
 50
173.6933250152257
 51
-174.3364599961039
  0
ARC
  5
2D9
330
51
100
AcDbEntity
  8
0
  6
Continuous
 62
     7
100
AcDbCircle
 10
-28.35377609892211
 20
-829.8979195940265
 30
0.0
 40
0.9999999999985971
100
AcDbArc
 50
142.1784325095842
 51
-127.8215674904159
  0
ARC
  5
2DA
330
51
100
AcDbEntity
  8
0
  6
Continuous
 62
     7
100
AcDbCircle
 10
-7.92390358742532
 20
-842.7190080487562
 30
0.0
 40
0.9999999999985943
100
AcDbArc
 50
-37.82156749041594
 51
52.17843250958407
  0
ARC
  5
2DB
330
51
100
AcDbEntity
  8
0
  6
Continuous
 62
     7
100
AcDbCircle
 10
-9.39559425137313
 20
-844.6148262335118
 30
0.0
 40
0.9999999999985921
100
AcDbArc
 50
-127.8215674904158
 51
-37.82156749041594
  0
ARC
  5
2DC
330
51
100
AcDbEntity
  8
0
  6
Continuous
 62
     7
100
AcDbCircle
 10
-1.55043072656744
 20
-849.185757130941
 30
0.0
 40
43.50000000000054
100
AcDbArc
 50
68.69332501522543
 51
80.66354000389656
  0
ARC
  5
2DD
330
51
100
AcDbEntity
  8
0
  6
Continuous
 62
     7
100
AcDbCircle
 10
-1.55043072656744
 20
-849.185757130941
 30
0.0
 40
43.50000000000006
100
AcDbArc
 50
83.69332501522567
 51
95.66354000389613
  0
ARC
  5
2DE
330
51
100
AcDbEntity
  8
0
  6
Continuous
 62
     7
100
AcDbCircle
 10
-1.55043072656744
 20
-849.185757130941
 30
0.0
 40
41.00000000000018
100
AcDbArc
 50
8.78572005031826
 51
50.57114496881043
  0
ARC
  5
2DF
330
51
100
AcDbEntity
  8
0
  6
Continuous
 62
     7
100
AcDbCircle
 10
-1.55043072656744
 20
-849.185757130941
 30
0.0
 40
43.49999999999926
100
AcDbArc
 50
38.69332501522732
 51
50.66354000390258
  0
ARC
  5
2E0
330
51
100
AcDbEntity
  8
0
  6
Continuous
 62
     7
100
AcDbCircle
 10
-1.55043072656744
 20
-849.185757130941
 30
0.0
 40
43.49999999999902
100
AcDbArc
 50
23.69332501523094
 51
35.66354000390092
  0
ARC
  5
2E1
330
51
100
AcDbEntity
  8
0
  6
Continuous
 62
     7
100
AcDbCircle
 10
-1.55043072656744
 20
-849.185757130941
 30
0.0
 40
43.49999999999756
100
AcDbArc
 50
8.69332501522855
 51
20.66354000390077
  0
ARC
  5
2E2
330
51
100
AcDbEntity
  8
0
  6
Continuous
 62
     7
100
AcDbCircle
 10
-1.55043072656744
 20
-849.185757130941
 30
0.0
 40
43.50000000000006
100
AcDbArc
 50
-6.30667498477433
 51
5.66354000390137
  0
ARC
  5
2E3
330
51
100
AcDbEntity
  8
0
  6
Continuous
 62
     7
100
AcDbCircle
 10
-1.55043072656744
 20
-849.185757130941
 30
0.0
 40
43.49999999999922
100
AcDbArc
 50
-21.30667498477012
 51
-9.33645999610345
  0
ARC
  5
2E4
330
51
100
AcDbEntity
  8
0
  6
Continuous
 62
     7
100
AcDbCircle
 10
-1.55043072656744
 20
-849.185757130941
 30
0.0
 40
56.19999999999769
100
AcDbArc
 50
8.35093687884107
 51
21.00592814028468
  0
ARC
  5
2E5
330
51
100
AcDbEntity
  8
0
  6
Continuous
 62
     7
100
AcDbCircle
 10
-1.55043072656744
 20
-849.185757130941
 30
0.0
 40
58.13148319780368
100
AcDbArc
 50
8.31197394583043
 51
21.04489107329405
  0
ARC
  5
2E6
330
51
100
AcDbEntity
  8
0
  6
Continuous
 62
     7
100
AcDbCircle
 10
-1.5504305561245
 20
-849.1857565088176
 30
0.0
 40
40.99999976996593
100
AcDbArc
 50
-36.21428077380514
 51
5.57114412664738
  0
ARC
  5
2E7
330
51
100
AcDbEntity
  8
0
  6
Continuous
 62
     7
100
AcDbCircle
 10
6.2947327982346
 20
-853.7566880283703
 30
0.0
 40
1.000000000003699
100
AcDbArc
 50
52.17843250954724
 51
142.1784325094194
  0
ARC
  5
2E8
330
51
100
AcDbEntity
  8
0
  6
Continuous
 62
     7
100
AcDbCircle
 10
-1.55043072656744
 20
-849.185757130941
 30
0.0
 40
58.13148319780429
100
AcDbArc
 50
143.3119739458297
 51
156.0448910732919
  0
ARC
  5
2E9
330
51
100
AcDbEntity
  8
0
  6
Continuous
 62
     7
100
AcDbCircle
 10
-1.55043072656744
 20
-849.185757130941
 30
0.0
 40
73.90000000000198
100
AcDbArc
 50
173.0700807650848
 51
-173.7132157459625
  0
ARC
  5
2EA
330
51
100
AcDbEntity
  8
0
  6
Continuous
 62
     7
100
AcDbCircle
 10
-1.55043072656744
 20
-849.185757130941
 30
0.0
 40
56.2000000000025
100
AcDbArc
 50
158.3509368788376
 51
171.0059281402835
  0
ARC
  5
2EB
330
51
100
AcDbEntity
  8
0
  6
Continuous
 62
     7
100
AcDbCircle
 10
-1.55043072656744
 20
-849.185757130941
 30
0.0
 40
58.13148319780497
100
AcDbArc
 50
158.3119739458305
 51
171.0448910732918
  0
ARC
  5
2EC
330
51
100
AcDbEntity
  8
0
  6
Continuous
 62
     7
100
AcDbCircle
 10
-1.55043072656744
 20
-849.185757130941
 30
0.0
 40
56.20000000000091
100
AcDbArc
 50
143.3509368788381
 51
156.0059281402838
  0
ARC
  5
2ED
330
51
100
AcDbEntity
  8
0
  6
Continuous
 62
     7
100
AcDbCircle
 10
-1.55043072656744
 20
-849.185757130941
 30
0.0
 40
58.13148319780417
100
AcDbArc
 50
-156.6880260541723
 51
-143.955108926709
  0
ARC
  5
2EE
330
51
100
AcDbEntity
  8
0
  6
Continuous
 62
     7
100
AcDbCircle
 10
-1.55043072656744
 20
-849.185757130941
 30
0.0
 40
56.19999999999778
100
AcDbArc
 50
-111.6490631211603
 51
-98.99407185971705
  0
ARC
  5
2EF
330
51
100
AcDbEntity
  8
0
  6
Continuous
 62
     7
100
AcDbCircle
 10
-1.55043072656744
 20
-849.185757130941
 30
0.0
 40
58.13148319780497
100
AcDbArc
 50
-111.6880260541695
 51
-98.95510892670882
  0
ARC
  5
2F0
330
51
100
AcDbEntity
  8
0
  6
Continuous
 62
     7
100
AcDbCircle
 10
-1.55043072656744
 20
-849.185757130941
 30
0.0
 40
58.1314831978044
100
AcDbArc
 50
-141.6880260541706
 51
-128.9551089267088
  0
ARC
  5
2F1
330
51
100
AcDbEntity
  8
0
  6
Continuous
 62
     7
100
AcDbCircle
 10
-1.55043072656744
 20
-849.185757130941
 30
0.0
 40
58.13148319780429
100
AcDbArc
 50
-126.6880260541703
 51
-113.9551089267096
  0
ARC
  5
2F2
330
51
100
AcDbEntity
  8
0
  6
Continuous
 62
     7
100
AcDbCircle
 10
-1.55043072656744
 20
-849.185757130941
 30
0.0
 40
56.20000000000039
100
AcDbArc
 50
-156.6490631211597
 51
-143.9940718597161
  0
ARC
  5
2F3
330
51
100
AcDbEntity
  8
0
  6
Continuous
 62
     7
100
AcDbCircle
 10
-1.55043072656744
 20
-849.185757130941
 30
0.0
 40
56.20000000000039
100
AcDbArc
 50
113.3509368788404
 51
126.0059281402839
  0
ARC
  5
2F4
330
51
100
AcDbEntity
  8
0
  6
Continuous
 62
     7
100
AcDbCircle
 10
-1.55043072656744
 20
-849.185757130941
 30
0.0
 40
58.13148319780561
100
AcDbArc
 50
113.311973945831
 51
126.0448910732939
  0
ARC
  5
2F5
330
51
100
AcDbEntity
  8
0
  6
Continuous
 62
     7
100
AcDbCircle
 10
-1.55043072656744
 20
-849.185757130941
 30
0.0
 40
56.20000000000169
100
AcDbArc
 50
128.3509368788409
 51
141.0059281402833
  0
ARC
  5
2F6
330
51
100
AcDbEntity
  8
0
  6
Continuous
 62
     7
100
AcDbCircle
 10
-1.55043072656744
 20
-849.185757130941
 30
0.0
 40
58.13148319780665
100
AcDbArc
 50
38.31197394583219
 51
51.04489107329349
  0
ARC
  5
2F7
330
51
100
AcDbEntity
  8
0
  6
Continuous
 62
     7
100
AcDbCircle
 10
-1.55043072656744
 20
-849.185757130941
 30
0.0
 40
56.19999999999944
100
AcDbArc
 50
-141.649063121162
 51
-128.994071859719
  0
ARC
  5
2F8
330
51
100
AcDbEntity
  8
0
  6
Continuous
 62
     7
100
AcDbCircle
 10
-1.55043072656744
 20
-849.185757130941
 30
0.0
 40
56.20000000000091
100
AcDbArc
 50
-126.6490631211619
 51
-113.9940718597177
  0
ARC
  5
2F9
330
51
100
AcDbEntity
  8
0
  6
Continuous
 62
     7
100
AcDbCircle
 10
-1.55043072656744
 20
-849.185757130941
 30
0.0
 40
56.20000000000169
100
AcDbArc
 50
38.35093687884093
 51
51.00592814028617
  0
ARC
  5
2FA
330
51
100
AcDbEntity
  8
0
  6
Continuous
 62
     7
100
AcDbCircle
 10
-1.55043072656744
 20
-849.185757130941
 30
0.0
 40
58.13148319780665
100
AcDbArc
 50
128.3119739458322
 51
141.0448910732935
  0
ARC
  5
2FB
330
51
100
AcDbEntity
  8
0
  6
Continuous
 62
     7
100
AcDbCircle
 10
-1.55043072656744
 20
-849.185757130941
 30
0.0
 40
70.50000000000072
100
AcDbArc
 50
-171.8869140318105
 51
-158.7562209490696
  0
ARC
  5
2FC
330
51
100
AcDbEntity
  8
0
  6
Continuous
 62
     7
100
AcDbCircle
 10
-1.55043072656744
 20
-849.185757130941
 30
0.0
 40
73.89999999999836
100
AcDbArc
 50
-96.92991923491554
 51
-83.71321574596251
  0
ARC
  5
2FD
330
51
100
AcDbEntity
  8
0
  6
Continuous
 62
     7
100
AcDbCircle
 10
-1.55043072656744
 20
-849.185757130941
 30
0.0
 40
73.89999999999836
100
AcDbArc
 50
-6.92991923491554
 51
6.2867842540403
  0
ARC
  5
2FE
330
51
100
AcDbEntity
  8
0
  6
Continuous
 62
     7
100
AcDbCircle
 10
-1.55043072656744
 20
-849.185757130941
 30
0.0
 40
73.89999999999908
100
AcDbArc
 50
-171.9299192349185
 51
-158.7132157459601
  0
ARC
  5
2FF
330
51
100
AcDbEntity
  8
0
  6
Continuous
 62
     7
100
AcDbCircle
 10
-1.55043072656744
 20
-849.185757130941
 30
0.0
 40
73.89999999999993
100
AcDbArc
 50
-156.9299192349179
 51
-143.7132157459609
  0
ARC
  5
300
330
51
100
AcDbEntity
  8
0
  6
Continuous
 62
     7
100
AcDbCircle
 10
-1.55043072656744
 20
-849.185757130941
 30
0.0
 40
73.90000000000055
100
AcDbArc
 50
-111.9299192349174
 51
-98.7132157459608
  0
ARC
  5
301
330
51
100
AcDbEntity
  8
0
  6
Continuous
 62
     7
100
AcDbCircle
 10
-1.55043072657108
 20
-849.1857571309374
 30
0.0
 40
74.99999999999848
100
AcDbArc
 50
143.0570022246421
 51
156.2998627944833
  0
ARC
  5
302
330
51
100
AcDbEntity
  8
0
  6
Continuous
 62
     7
100
AcDbCircle
 10
-1.55043072657108
 20
-849.1857571309374
 30
0.0
 40
75.00000000000095
100
AcDbArc
 50
158.0570022246412
 51
171.2998627944881
  0
ARC
  5
303
330
51
100
AcDbEntity
  8
0
  6
Continuous
 62
     7
100
AcDbCircle
 10
-1.55043072657108
 20
-849.1857571309374
 30
0.0
 40
78.99999999999754
100
AcDbArc
 50
143.0125144556235
 51
156.344350563503
  0
ARC
  5
304
330
51
100
AcDbEntity
  8
0
  6
Continuous
 62
     7
100
AcDbCircle
 10
-1.55043072657108
 20
-849.1857571309374
 30
0.0
 40
78.99999999999997
100
AcDbArc
 50
38.01251445562218
 51
51.34435056349908
  0
ARC
  5
305
330
51
100
AcDbEntity
  8
0
  6
Continuous
 62
     7
100
AcDbCircle
 10
-1.55043072657108
 20
-849.1857571309374
 30
0.0
 40
74.9999999999994
100
AcDbArc
 50
38.05700222463655
 51
51.29986279448326
  0
ARC
  5
306
330
51
100
AcDbEntity
  8
0
  6
Continuous
 62
     7
100
AcDbCircle
 10
-1.55043072657108
 20
-849.1857571309374
 30
0.0
 40
75.00000000000021
100
AcDbArc
 50
23.05700222463587
 51
36.29986279448384
  0
ARC
  5
307
330
51
100
AcDbEntity
  8
0
  6
Continuous
 62
     7
100
AcDbCircle
 10
-1.55043072657108
 20
-849.1857571309374
 30
0.0
 40
75.00000000000232
100
AcDbArc
 50
-21.94299777536139
 51
-8.70013720551744
  0
ARC
  5
308
330
51
100
AcDbEntity
  8
0
  6
Continuous
 62
     7
100
AcDbCircle
 10
-1.55043072657108
 20
-849.1857571309374
 30
0.0
 40
75.00000000000007
100
AcDbArc
 50
133.1262104233831
 51
141.2998627944854
  0
ARC
  5
309
330
51
100
AcDbEntity
  8
0
  6
Continuous
 62
     7
100
AcDbCircle
 10
-1.55043072657108
 20
-849.185757130941
 30
0.0
 40
75.00000000000102
100
AcDbArc
 50
128.0570022246426
 51
133.1262104233812
  0
ARC
  5
30A
330
51
100
AcDbEntity
  8
0
  6
Continuous
 62
     7
100
AcDbCircle
 10
-1.55043072657108
 20
-849.1857571309374
 30
0.0
 40
74.99999999999852
100
AcDbArc
 50
98.0570022246395
 51
111.299862794484
  0
ARC
  5
30B
330
51
100
AcDbEntity
  8
0
  6
Continuous
 62
     7
100
AcDbCircle
 10
-1.55043072657108
 20
-849.1857571309374
 30
0.0
 40
74.99999999999972
100
AcDbArc
 50
113.0570022246421
 51
126.2998627944839
  0
ARC
  5
30C
330
51
100
AcDbEntity
  8
0
  6
Continuous
 62
     7
100
AcDbCircle
 10
-1.55043072657108
 20
-849.1857571309374
 30
0.0
 40
78.99999999999852
100
AcDbArc
 50
98.01251445562225
 51
111.3443505635026
  0
ARC
  5
30D
330
51
100
AcDbEntity
  8
0
  6
Continuous
 62
     7
100
AcDbCircle
 10
-1.55043072657108
 20
-849.1857571309374
 30
0.0
 40
78.99999999999622
100
AcDbArc
 50
113.0125144556249
 51
126.3443505634999
  0
ARC
  5
30E
330
51
100
AcDbEntity
  8
0
  6
Continuous
 62
     7
100
AcDbCircle
 10
-1.55043072657108
 20
-849.1857571309374
 30
0.0
 40
78.99999999999935
100
AcDbArc
 50
128.0125144556259
 51
141.3443505635028
  0
ARC
  5
30F
330
51
100
AcDbEntity
  8
0
  6
Continuous
 62
     7
100
AcDbCircle
 10
-1.55043072657108
 20
-849.1857571309374
 30
0.0
 40
78.99999999999899
100
AcDbArc
 50
83.01251445562244
 51
96.34435056350169
  0
ARC
  5
310
330
51
100
AcDbEntity
  8
0
  6
Continuous
 62
     7
100
AcDbCircle
 10
-1.55043072657108
 20
-849.1857571309374
 30
0.0
 40
74.9999999999995
100
AcDbArc
 50
-6.94299777536149
 51
6.29986279448198
  0
ARC
  5
311
330
51
100
AcDbEntity
  8
0
  6
Continuous
 62
     7
100
AcDbCircle
 10
-1.55043072657108
 20
-849.1857571309374
 30
0.0
 40
79.00000000000149
100
AcDbArc
 50
23.01251445562044
 51
36.3443505634999
  0
ARC
  5
312
330
51
100
AcDbEntity
  8
0
  6
Continuous
 62
     7
100
AcDbCircle
 10
-1.55043072657108
 20
-849.1857571309374
 30
0.0
 40
75.0000000000016
100
AcDbArc
 50
8.05700222463636
 51
21.29986279448294
  0
ARC
  5
313
330
51
100
AcDbEntity
  8
0
  6
Continuous
 62
     7
100
AcDbCircle
 10
-1.55043072657108
 20
-849.1857571309374
 30
0.0
 40
79.00000000000162
100
AcDbArc
 50
8.01251445561927
 51
21.3443505634992
  0
ARC
  5
314
330
51
100
AcDbEntity
  8
0
  6
Continuous
 62
     7
100
AcDbCircle
 10
-1.55043072657108
 20
-849.1857571309374
 30
0.0
 40
78.99999999999899
100
AcDbArc
 50
-6.98748554437756
 51
6.34435056349908
  0
ARC
  5
315
330
51
100
AcDbEntity
  8
0
  6
Continuous
 62
     7
100
AcDbCircle
 10
-1.55043072657108
 20
-849.1857571309374
 30
0.0
 40
78.99999999999933
100
AcDbArc
 50
68.01251445562312
 51
81.34435056349814
  0
ARC
  5
316
330
51
100
AcDbEntity
  8
0
  6
Continuous
 62
     7
100
AcDbCircle
 10
-1.55043072657108
 20
-849.1857571309374
 30
0.0
 40
74.99999999999893
100
AcDbArc
 50
68.05700222463757
 51
81.29986279448255
  0
ARC
  5
317
330
51
100
AcDbEntity
  8
0
  6
Continuous
 62
     7
100
AcDbCircle
 10
-1.55043072657108
 20
-849.1857571309374
 30
0.0
 40
78.99999999999973
100
AcDbArc
 50
53.01251445562143
 51
66.34435056349957
  0
ARC
  5
318
330
51
100
AcDbEntity
  8
0
  6
Continuous
 62
     7
100
AcDbCircle
 10
-1.55043072657108
 20
-849.1857571309374
 30
0.0
 40
74.99999999999777
100
AcDbArc
 50
53.05700222463822
 51
66.2998627944833
  0
ARC
  5
319
330
51
100
AcDbEntity
  8
0
  6
Continuous
 62
     7
100
AcDbCircle
 10
-1.55043072657108
 20
-849.1857571309374
 30
0.0
 40
74.9999999999995
100
AcDbArc
 50
83.05700222463851
 51
96.29986279448475
  0
ARC
  5
31A
330
51
100
AcDbEntity
  8
0
  6
Continuous
 62
     7
100
AcDbCircle
 10
-1.55043072657108
 20
-849.185757130941
 30
0.0
 40
74.99999999999878
100
AcDbArc
 50
-51.94299777535955
 51
-46.87378957661696
  0
ARC
  5
31B
330
51
100
AcDbEntity
  8
0
  6
Continuous
 62
     7
100
AcDbCircle
 10
-1.55043072657108
 20
-849.1857571309374
 30
0.0
 40
75.00000000000286
100
AcDbArc
 50
-36.94299777536234
 51
-28.76943394102487
  0
ARC
  5
31C
330
51
100
AcDbEntity
  8
0
  6
Continuous
 62
     7
100
AcDbCircle
 10
-1.55043072657108
 20
-849.185757130941
 30
0.0
 40
75.00000000000074
100
AcDbArc
 50
-28.76943394102243
 51
-23.70013720551415
  0
ARC
  5
31D
330
51
100
AcDbEntity
  8
0
  6
Continuous
 62
     7
100
AcDbCircle
 10
-1.55043072657108
 20
-849.1857571309374
 30
0.0
 40
75.00000000000271
100
AcDbArc
 50
-46.87378957661885
 51
-38.70013720551674
  0
ARC
  5
31E
330
51
100
AcDbEntity
  8
0
  6
Continuous
 62
     7
100
AcDbCircle
 10
-1.55043072657108
 20
-849.1857571309374
 30
0.0
 40
79.00000000000222
100
AcDbArc
 50
-141.9874855443757
 51
-128.6556494364993
  0
ARC
  5
31F
330
51
100
AcDbEntity
  8
0
  6
Continuous
 62
     7
100
AcDbCircle
 10
-1.55043072657108
 20
-849.1857571309374
 30
0.0
 40
79.00000000000263
100
AcDbArc
 50
-126.987485544377
 51
-113.6556494364994
  0
ARC
  5
320
330
51
100
AcDbEntity
  8
0
  6
Continuous
 62
     7
100
AcDbCircle
 10
-1.55043072657108
 20
-849.1857571309374
 30
0.0
 40
78.99999999999903
100
AcDbArc
 50
-171.9874855443751
 51
-158.6556494364984
  0
ARC
  5
321
330
51
100
AcDbEntity
  8
0
  6
Continuous
 62
     7
100
AcDbCircle
 10
-1.55043072657108
 20
-849.1857571309374
 30
0.0
 40
78.99999999999957
100
AcDbArc
 50
-156.9874855443761
 51
-143.655649436498
  0
ARC
  5
322
330
51
100
AcDbEntity
  8
0
  6
Continuous
 62
     7
100
AcDbCircle
 10
-1.55043072657108
 20
-849.1857571309374
 30
0.0
 40
75.00000000000067
100
AcDbArc
 50
-126.9429977753601
 51
-113.7001372055156
  0
ARC
  5
323
330
51
100
AcDbEntity
  8
0
  6
Continuous
 62
     7
100
AcDbCircle
 10
-1.55043072657108
 20
-849.1857571309374
 30
0.0
 40
75.00000000000102
100
AcDbArc
 50
-141.9429977753574
 51
-128.700137205515
  0
ARC
  5
324
330
51
100
AcDbEntity
  8
0
  6
Continuous
 62
     7
100
AcDbCircle
 10
-1.55043072657108
 20
-849.1857571309374
 30
0.0
 40
75.00000000000165
100
AcDbArc
 50
-156.9429977753616
 51
-143.7001372055139
  0
ARC
  5
325
330
51
100
AcDbEntity
  8
0
  6
Continuous
 62
     7
100
AcDbCircle
 10
-1.55043072657108
 20
-849.1857571309374
 30
0.0
 40
75.00000000000095
100
AcDbArc
 50
-111.9429977753588
 51
-98.70013720551702
  0
ARC
  5
326
330
51
100
AcDbEntity
  8
0
  6
Continuous
 62
     7
100
AcDbCircle
 10
-1.55043072657108
 20
-849.1857571309374
 30
0.0
 40
79.0000000000027
100
AcDbArc
 50
-111.9874855443759
 51
-98.65564943649886
  0
ARC
  5
327
330
51
100
AcDbEntity
  8
0
  6
Continuous
 62
     7
100
AcDbCircle
 10
-1.55043072657108
 20
-849.1857571309374
 30
0.0
 40
74.99999999999903
100
AcDbArc
 50
-171.9429977753578
 51
-158.7001372055171
  0
ARC
  5
328
330
51
100
AcDbEntity
  8
0
  6
Continuous
 62
     7
100
AcDbCircle
 10
-1.55043072657108
 20
-849.1857571309374
 30
0.0
 40
79.00000000000149
100
AcDbArc
 50
-66.98748554437957
 51
-53.65564943650166
  0
ARC
  5
329
330
51
100
AcDbEntity
  8
0
  6
Continuous
 62
     7
100
AcDbCircle
 10
-1.55043072657108
 20
-849.1857571309374
 30
0.0
 40
79.00000000000213
100
AcDbArc
 50
-81.98748554437812
 51
-68.65564943649835
  0
ARC
  5
32A
330
51
100
AcDbEntity
  8
0
  6
Continuous
 62
     7
100
AcDbCircle
 10
-1.55043072657108
 20
-849.1857571309374
 30
0.0
 40
75.00000000000165
100
AcDbArc
 50
-66.94299777536158
 51
-53.70013720551781
  0
ARC
  5
32B
330
51
100
AcDbEntity
  8
0
  6
Continuous
 62
     7
100
AcDbCircle
 10
-1.55043072657108
 20
-849.1857571309374
 30
0.0
 40
75.00000000000267
100
AcDbArc
 50
-96.9429977753584
 51
-83.70013720551556
  0
ARC
  5
32C
330
51
100
AcDbEntity
  8
0
  6
Continuous
 62
     7
100
AcDbCircle
 10
-1.55043072657108
 20
-849.1857571309374
 30
0.0
 40
75.00000000000212
100
AcDbArc
 50
-81.9429977753609
 51
-68.70013720551705
  0
ARC
  5
32D
330
51
100
AcDbEntity
  8
0
  6
Continuous
 62
     7
100
AcDbCircle
 10
-1.55043072657108
 20
-849.1857571309374
 30
0.0
 40
79.0000000000026
100
AcDbArc
 50
-96.98748554437724
 51
-83.65564943649859
  0
ARC
  5
32E
330
51
100
AcDbEntity
  8
0
  6
Continuous
 62
     7
100
AcDbCircle
 10
-1.55043072657108
 20
-849.1857571309374
 30
0.0
 40
78.99999999999933
100
AcDbArc
 50
-21.98748554437689
 51
-8.65564943649925
  0
ARC
  5
32F
330
51
100
AcDbEntity
  8
0
  6
Continuous
 62
     7
100
AcDbCircle
 10
-1.55043072657108
 20
-849.1857571309374
 30
0.0
 40
78.99999999999973
100
AcDbArc
 50
-36.98748554437857
 51
-23.65564943649937
  0
ARC
  5
330
330
51
100
AcDbEntity
  8
0
  6
Continuous
 62
     7
100
AcDbCircle
 10
-1.55043072657108
 20
-849.1857571309374
 30
0.0
 40
79.00000000000283
100
AcDbArc
 50
-51.98748554437945
 51
-38.65564943649926
  0
ARC
  5
331
330
51
100
AcDbEntity
  8
0
  6
Continuous
 62
     7
100
AcDbCircle
 10
-1.55043072657108
 20
-849.1857571309374
 30
0.0
 40
78.99999999999933
100
AcDbArc
 50
158.0125144556231
 51
171.344350563506
  0
ARC
  5
332
330
51
100
AcDbEntity
  8
0
  6
Continuous
 62
     7
100
AcDbCircle
 10
-1.55043072657108
 20
-849.1857571309374
 30
0.0
 40
74.99999999999862
100
AcDbArc
 50
173.057002224644
 51
-173.7001372055153
  0
ARC
  5
333
330
51
100
AcDbEntity
  8
0
  6
Continuous
 62
     7
100
AcDbCircle
 10
-1.55043072657108
 20
-849.1857571309374
 30
0.0
 40
78.99999999999855
100
AcDbArc
 50
173.0125144556251
 51
-173.6556494364957
  0
ARC
  5
334
330
51
100
AcDbEntity
  8
0
  6
Continuous
 62
     7
100
AcDbCircle
 10
-1.55043072657108
 20
-849.1857571309374
 30
0.0
 40
70.50000000000107
100
AcDbArc
 50
143.1130859681924
 51
156.2437790509309
  0
ARC
  5
335
330
51
100
AcDbEntity
  8
0
  6
Continuous
 62
     7
100
AcDbCircle
 10
-1.55043072657108
 20
-849.1857571309374
 30
0.0
 40
70.49999999999979
100
AcDbArc
 50
158.1130859681896
 51
171.2437790509339
  0
ARC
  5
336
330
51
100
AcDbEntity
  8
0
  6
Continuous
 62
     7
100
AcDbCircle
 10
-1.55043072657108
 20
-849.1857571309374
 30
0.0
 40
52.00000000000149
100
AcDbArc
 50
68.44565402226284
 51
80.91121099685917
  0
ARC
  5
337
330
51
100
AcDbEntity
  8
0
  6
Continuous
 62
     7
100
AcDbCircle
 10
-1.55043072657108
 20
-849.1857571309374
 30
0.0
 40
70.50000000000045
100
AcDbArc
 50
-21.8869140318038
 51
-8.75622094906608
  0
ARC
  5
338
330
51
100
AcDbEntity
  8
0
  6
Continuous
 62
     7
100
AcDbCircle
 10
-1.55043072657108
 20
-849.1857571309374
 30
0.0
 40
64.49999999999774
100
AcDbArc
 50
-21.79996070122021
 51
-8.84317427964996
  0
ARC
  5
339
330
51
100
AcDbEntity
  8
0
  6
Continuous
 62
     7
100
AcDbCircle
 10
-1.55043072657108
 20
-849.1857571309374
 30
0.0
 40
70.49999999999888
100
AcDbArc
 50
-36.88691403180528
 51
-23.75622094906639
  0
ARC
  5
33A
330
51
100
AcDbEntity
  8
0
  6
Continuous
 62
     7
100
AcDbCircle
 10
-1.55043072657108
 20
-849.1857571309374
 30
0.0
 40
51.99999999999789
100
AcDbArc
 50
-36.55434597773834
 51
-24.08878900313619
  0
ARC
  5
33B
330
51
100
AcDbEntity
  8
0
  6
Continuous
 62
     7
100
AcDbCircle
 10
-1.55043072657108
 20
-849.1857571309374
 30
0.0
 40
64.5000000000006
100
AcDbArc
 50
-36.79996070122234
 51
-23.84317427965112
  0
ARC
  5
33C
330
51
100
AcDbEntity
  8
0
  6
Continuous
 62
     7
100
AcDbCircle
 10
-1.55043072657108
 20
-849.1857571309374
 30
0.0
 40
52.00000000000014
100
AcDbArc
 50
-21.55434597773343
 51
-9.08878900313292
  0
ARC
  5
33D
330
51
100
AcDbEntity
  8
0
  6
Continuous
 62
     7
100
AcDbCircle
 10
-1.55043072657108
 20
-849.1857571309374
 30
0.0
 40
64.49999999999956
100
AcDbArc
 50
128.2000392987784
 51
141.156825720347
  0
ARC
  5
33E
330
51
100
AcDbEntity
  8
0
  6
Continuous
 62
     7
100
AcDbCircle
 10
-1.55043072657108
 20
-849.1857571309374
 30
0.0
 40
70.50000000000266
100
AcDbArc
 50
128.1130859681925
 51
141.2437790509311
  0
ARC
  5
33F
330
51
100
AcDbEntity
  8
0
  6
Continuous
 62
     7
100
AcDbCircle
 10
-1.55043072657108
 20
-849.1857571309374
 30
0.0
 40
51.99999999999955
100
AcDbArc
 50
128.4456540222627
 51
140.91121099686
  0
ARC
  5
340
330
51
100
AcDbEntity
  8
0
  6
Continuous
 62
     7
100
AcDbCircle
 10
-1.55043072657108
 20
-849.1857571309374
 30
0.0
 40
64.50000000000217
100
AcDbArc
 50
113.2000392987781
 51
126.1568257203459
  0
ARC
  5
341
330
51
100
AcDbEntity
  8
0
  6
Continuous
 62
     7
100
AcDbCircle
 10
-1.55043072657108
 20
-849.1857571309374
 30
0.0
 40
51.99999999999989
100
AcDbArc
 50
98.44565402226067
 51
110.9112109968599
  0
ARC
  5
342
330
51
100
AcDbEntity
  8
0
  6
Continuous
 62
     7
100
AcDbCircle
 10
-1.55043072657108
 20
-849.1857571309374
 30
0.0
 40
52.00000000000205
100
AcDbArc
 50
113.4456540222643
 51
125.9112109968595
  0
ARC
  5
343
330
51
100
AcDbEntity
  8
0
  6
Continuous
 62
     7
100
AcDbCircle
 10
-1.55043072657108
 20
-849.1857571309374
 30
0.0
 40
70.50000000000124
100
AcDbArc
 50
98.1130859681924
 51
111.2437790509304
  0
ARC
  5
344
330
51
100
AcDbEntity
  8
0
  6
Continuous
 62
     7
100
AcDbCircle
 10
-1.55043072657108
 20
-849.1857571309374
 30
0.0
 40
64.50000000000088
100
AcDbArc
 50
98.20003929877724
 51
111.1568257203458
  0
ARC
  5
345
330
51
100
AcDbEntity
  8
0
  6
Continuous
 62
     7
100
AcDbCircle
 10
-1.55043072657108
 20
-849.1857571309374
 30
0.0
 40
70.50000000000225
100
AcDbArc
 50
113.1130859681931
 51
126.2437790509314
  0
ARC
  5
346
330
51
100
AcDbEntity
  8
0
  6
Continuous
 62
     7
100
AcDbCircle
 10
-1.55043072657108
 20
-849.1857571309374
 30
0.0
 40
52.00000000000061
100
AcDbArc
 50
23.44565402226058
 51
35.91121099686509
  0
ARC
  5
347
330
51
100
AcDbEntity
  8
0
  6
Continuous
 62
     7
100
AcDbCircle
 10
-1.55043072657108
 20
-849.1857571309374
 30
0.0
 40
51.99999999999955
100
AcDbArc
 50
38.44565402226272
 51
50.91121099686315
  0
ARC
  5
348
330
51
100
AcDbEntity
  8
0
  6
Continuous
 62
     7
100
AcDbCircle
 10
-1.55043072657108
 20
-849.1857571309374
 30
0.0
 40
51.99999999999989
100
AcDbArc
 50
8.44565402226067
 51
20.91121099686502
  0
ARC
  5
349
330
51
100
AcDbEntity
  8
0
  6
Continuous
 62
     7
100
AcDbCircle
 10
-1.55043072657108
 20
-849.1857571309374
 30
0.0
 40
70.50000000000081
100
AcDbArc
 50
23.11308596819041
 51
36.24377905093552
  0
ARC
  5
34A
330
51
100
AcDbEntity
  8
0
  6
Continuous
 62
     7
100
AcDbCircle
 10
-1.55043072657108
 20
-849.1857571309374
 30
0.0
 40
64.50000000000036
100
AcDbArc
 50
8.20003929877404
 51
21.15682572034879
  0
ARC
  5
34B
330
51
100
AcDbEntity
  8
0
  6
Continuous
 62
     7
100
AcDbCircle
 10
-1.55043072657108
 20
-849.1857571309374
 30
0.0
 40
70.50000000000072
100
AcDbArc
 50
8.11308596818947
 51
21.24377905093311
  0
ARC
  5
34C
330
51
100
AcDbEntity
  8
0
  6
Continuous
 62
     7
100
AcDbCircle
 10
-1.55043072657108
 20
-849.1857571309374
 30
0.0
 40
70.49999999999844
100
AcDbArc
 50
-6.88691403180551
 51
6.2437790509332
  0
ARC
  5
34D
330
51
100
AcDbEntity
  8
0
  6
Continuous
 62
     7
100
AcDbCircle
 10
-1.55043072657108
 20
-849.1857571309374
 30
0.0
 40
52.00000000000082
100
AcDbArc
 50
53.44565402226406
 51
65.91121099686178
  0
ARC
  5
34E
330
51
100
AcDbEntity
  8
0
  6
Continuous
 62
     7
100
AcDbCircle
 10
-1.55043072657108
 20
-849.1857571309374
 30
0.0
 40
70.50000000000266
100
AcDbArc
 50
38.11308596819251
 51
51.24377905093297
  0
ARC
  5
34F
330
51
100
AcDbEntity
  8
0
  6
Continuous
 62
     7
100
AcDbCircle
 10
-1.55043072657108
 20
-849.1857571309374
 30
0.0
 40
70.50000000000107
100
AcDbArc
 50
53.11308596819235
 51
66.2437790509321
  0
ARC
  5
350
330
51
100
AcDbEntity
  8
0
  6
Continuous
 62
     7
100
AcDbCircle
 10
-1.55043072657108
 20
-849.1857571309374
 30
0.0
 40
70.50000000000247
100
AcDbArc
 50
83.11308596819191
 51
96.2437790509332
  0
ARC
  5
351
330
51
100
AcDbEntity
  8
0
  6
Continuous
 62
     7
100
AcDbCircle
 10
-1.55043072657108
 20
-849.1857571309374
 30
0.0
 40
70.50000000000182
100
AcDbArc
 50
68.11308596819346
 51
81.24377905093147
  0
ARC
  5
352
330
51
100
AcDbEntity
  8
0
  6
Continuous
 62
     7
100
AcDbCircle
 10
-1.55043072657108
 20
-849.1857571309374
 30
0.0
 40
64.50000000000249
100
AcDbArc
 50
68.200039298778
 51
81.15682572034366
  0
ARC
  5
353
330
51
100
AcDbEntity
  8
0
  6
Continuous
 62
     7
100
AcDbCircle
 10
-1.55043072657108
 20
-849.1857571309374
 30
0.0
 40
64.5000000000006
100
AcDbArc
 50
53.20003929877766
 51
66.15682572034592
  0
ARC
  5
354
330
51
100
AcDbEntity
  8
0
  6
Continuous
 62
     7
100
AcDbCircle
 10
-1.55043072657108
 20
-849.1857571309374
 30
0.0
 40
70.49999999999815
100
AcDbArc
 50
-126.8869140318094
 51
-113.7562209490691
  0
ARC
  5
355
330
51
100
AcDbEntity
  8
0
  6
Continuous
 62
     7
100
AcDbCircle
 10
-1.55043072657108
 20
-849.1857571309374
 30
0.0
 40
70.49999999999756
100
AcDbArc
 50
-141.886914031808
 51
-128.7562209490689
  0
ARC
  5
356
330
51
100
AcDbEntity
  8
0
  6
Continuous
 62
     7
100
AcDbCircle
 10
-1.55043072657108
 20
-849.1857571309374
 30
0.0
 40
64.49999999999731
100
AcDbArc
 50
-141.7999607012242
 51
-128.843174279653
  0
ARC
  5
357
330
51
100
AcDbEntity
  8
0
  6
Continuous
 62
     7
100
AcDbCircle
 10
-1.55043072657108
 20
-849.1857571309374
 30
0.0
 40
70.50000000000081
100
AcDbArc
 50
-156.8869140318096
 51
-143.7562209490669
  0
ARC
  5
358
330
51
100
AcDbEntity
  8
0
  6
Continuous
 62
     7
100
AcDbCircle
 10
-1.55043072657108
 20
-849.1857571309374
 30
0.0
 40
64.49999999999767
100
AcDbArc
 50
-126.7999607012243
 51
-113.8431742796554
  0
ARC
  5
359
330
51
100
AcDbEntity
  8
0
  6
Continuous
 62
     7
100
AcDbCircle
 10
-1.55043072657108
 20
-849.1857571309374
 30
0.0
 40
70.49999999999844
100
AcDbArc
 50
-111.8869140318076
 51
-98.756220949069
  0
ARC
  5
35A
330
51
100
AcDbEntity
  8
0
  6
Continuous
 62
     7
100
AcDbCircle
 10
-1.55043072657108
 20
-849.1857571309374
 30
0.0
 40
51.99999999999989
100
AcDbArc
 50
-81.55434597773933
 51
-69.08878900313873
  0
ARC
  5
35B
330
51
100
AcDbEntity
  8
0
  6
Continuous
 62
     7
100
AcDbCircle
 10
-1.55043072657108
 20
-849.1857571309374
 30
0.0
 40
52.00000000000159
100
AcDbArc
 50
173.445654022263
 51
-174.0887890031375
  0
ARC
  5
35C
330
51
100
AcDbEntity
  8
0
  6
Continuous
 62
     7
100
AcDbCircle
 10
-1.55043072657108
 20
-849.1857571309374
 30
0.0
 40
64.49999999999909
100
AcDbArc
 50
-111.7999607012232
 51
-98.84317427965364
  0
ARC
  5
35D
330
51
100
AcDbEntity
  8
0
  6
Continuous
 62
     7
100
AcDbCircle
 10
-1.55043072657108
 20
-849.1857571309374
 30
0.0
 40
64.50000000000075
100
AcDbArc
 50
-156.7999607012249
 51
-143.8431742796522
  0
ARC
  5
35E
330
51
100
AcDbEntity
  8
0
  6
Continuous
 62
     7
100
AcDbCircle
 10
-1.55043072657108
 20
-849.1857571309374
 30
0.0
 40
51.9999999999979
100
AcDbArc
 50
-126.5543459777383
 51
-114.0887890031399
  0
ARC
  5
35F
330
51
100
AcDbEntity
  8
0
  6
Continuous
 62
     7
100
AcDbCircle
 10
-1.55043072657108
 20
-849.1857571309374
 30
0.0
 40
51.99999999999955
100
AcDbArc
 50
-141.5543459777373
 51
-129.0887890031394
  0
ARC
  5
360
330
51
100
AcDbEntity
  8
0
  6
Continuous
 62
     7
100
AcDbCircle
 10
-1.55043072657108
 20
-849.1857571309374
 30
0.0
 40
64.49999999999676
100
AcDbArc
 50
-81.79996070122552
 51
-68.84317427965422
  0
ARC
  5
361
330
51
100
AcDbEntity
  8
0
  6
Continuous
 62
     7
100
AcDbCircle
 10
-1.55043072657108
 20
-849.1857571309374
 30
0.0
 40
51.99999999999916
100
AcDbArc
 50
-156.5543459777431
 51
-144.0887890031381
  0
ARC
  5
362
330
51
100
AcDbEntity
  8
0
  6
Continuous
 62
     7
100
AcDbCircle
 10
-1.55043072657108
 20
-849.1857571309374
 30
0.0
 40
51.9999999999981
100
AcDbArc
 50
-111.5543459777386
 51
-99.0887890031375
  0
ARC
  5
363
330
51
100
AcDbEntity
  8
0
  6
Continuous
 62
     7
100
AcDbCircle
 10
-1.55043072657108
 20
-849.1857571309374
 30
0.0
 40
70.49999999999712
100
AcDbArc
 50
-81.88691403181012
 51
-68.75622094906964
  0
ARC
  5
364
330
51
100
AcDbEntity
  8
0
  6
Continuous
 62
     7
100
AcDbCircle
 10
-1.55043072657108
 20
-849.1857571309374
 30
0.0
 40
64.49999999999956
100
AcDbArc
 50
-51.79996070122162
 51
-38.84317427965299
  0
ARC
  5
365
330
51
100
AcDbEntity
  8
0
  6
Continuous
 62
     7
100
AcDbCircle
 10
-1.55043072657108
 20
-849.1857571309374
 30
0.0
 40
70.49999999999756
100
AcDbArc
 50
-51.88691403180798
 51
-38.75622094906658
  0
ARC
  5
366
330
51
100
AcDbEntity
  8
0
  6
Continuous
 62
     7
100
AcDbCircle
 10
-1.55043072657108
 20
-849.1857571309374
 30
0.0
 40
51.99999999999945
100
AcDbArc
 50
158.4456540222577
 51
170.9112109968631
  0
ARC
  5
367
330
51
100
AcDbEntity
  8
0
  6
Continuous
 62
     7
100
AcDbCircle
 10
-1.55043072657108
 20
-849.1857571309374
 30
0.0
 40
52.00000000000298
100
AcDbArc
 50
143.4456540222608
 51
155.9112109968601
  0
ARC
  5
368
330
51
100
AcDbEntity
  8
0
  6
Continuous
 62
     7
100
AcDbCircle
 10
-1.55043072657108
 20
-849.1857571309374
 30
0.0
 40
64.49999999999777
100
AcDbArc
 50
-96.79996070122051
 51
-83.84317427965084
  0
ARC
  5
369
330
51
100
AcDbEntity
  8
0
  6
Continuous
 62
     7
100
AcDbCircle
 10
-1.55043072657108
 20
-849.1857571309374
 30
0.0
 40
51.99999999999955
100
AcDbArc
 50
-51.55434597773728
 51
-39.08878900313684
  0
ARC
  5
36A
330
51
100
AcDbEntity
  8
0
  6
Continuous
 62
     7
100
AcDbCircle
 10
-1.55043072657108
 20
-849.1857571309374
 30
0.0
 40
51.99999999999727
100
AcDbArc
 50
-66.55434597773782
 51
-54.08878900313815
  0
ARC
  5
36B
330
51
100
AcDbEntity
  8
0
  6
Continuous
 62
     7
100
AcDbCircle
 10
-1.55043072657108
 20
-849.1857571309374
 30
0.0
 40
64.4999999999974
100
AcDbArc
 50
-66.79996070122361
 51
-53.84317427965225
  0
ARC
  5
36C
330
51
100
AcDbEntity
  8
0
  6
Continuous
 62
     7
100
AcDbCircle
 10
-1.55043072657108
 20
-849.1857571309374
 30
0.0
 40
51.99999999999798
100
AcDbArc
 50
-96.55434597773748
 51
-84.0887890031371
  0
ARC
  5
36D
330
51
100
AcDbEntity
  8
0
  6
Continuous
 62
     7
100
AcDbCircle
 10
-1.55043072657108
 20
-849.1857571309374
 30
0.0
 40
70.49999999999844
100
AcDbArc
 50
-96.88691403180552
 51
-83.75622094906649
  0
ARC
  5
36E
330
51
100
AcDbEntity
  8
0
  6
Continuous
 62
     7
100
AcDbCircle
 10
-1.55043072657108
 20
-849.1857571309374
 30
0.0
 40
70.49999999999747
100
AcDbArc
 50
-66.88691403180843
 51
-53.75622094906686
  0
ARC
  5
36F
330
51
100
AcDbEntity
  8
0
  6
Continuous
 62
     7
100
AcDbCircle
 10
-1.55043072657108
 20
-849.1857571309374
 30
0.0
 40
64.50000000000138
100
AcDbArc
 50
-6.79996070122013
 51
6.1568257203456
  0
ARC
  5
370
330
51
100
AcDbEntity
  8
0
  6
Continuous
 62
     7
100
AcDbCircle
 10
-1.55043072657108
 20
-849.1857571309374
 30
0.0
 40
64.50000000000075
100
AcDbArc
 50
23.20003929877513
 51
36.15682572035037
  0
ARC
  5
371
330
51
100
AcDbEntity
  8
0
  6
Continuous
 62
     7
100
AcDbCircle
 10
-1.55043072657108
 20
-849.1857571309374
 30
0.0
 40
64.50000000000243
100
AcDbArc
 50
38.20003929877638
 51
51.15682572034903
  0
ARC
  5
372
330
51
100
AcDbEntity
  8
0
  6
Continuous
 62
     7
100
AcDbCircle
 10
-1.55043072657108
 20
-849.1857571309374
 30
0.0
 40
64.5000000000018
100
AcDbArc
 50
83.20003929877666
 51
96.15682572034882
  0
ARC
  5
373
330
51
100
AcDbEntity
  8
0
  6
Continuous
 62
     7
100
AcDbCircle
 10
-1.55043072657108
 20
-849.1857571309374
 30
0.0
 40
52.00000000000159
100
AcDbArc
 50
83.44565402226299
 51
95.91121099686251
  0
ARC
  5
374
330
51
100
AcDbEntity
  8
0
  6
Continuous
 62
     7
100
AcDbCircle
 10
-1.55043072657108
 20
-849.1857571309374
 30
0.0
 40
64.5000000000018
100
AcDbArc
 50
173.2000392987767
 51
-173.8431742796544
  0
ARC
  5
375
330
51
100
AcDbEntity
  8
0
  6
Continuous
 62
     7
100
AcDbCircle
 10
-1.55043072657108
 20
-849.1857571309374
 30
0.0
 40
64.50000000000045
100
AcDbArc
 50
158.2000392987738
 51
171.15682572035
  0
ARC
  5
376
330
51
100
AcDbEntity
  8
0
  6
Continuous
 62
     7
100
AcDbCircle
 10
-1.55043072657108
 20
-849.1857571309374
 30
0.0
 40
64.5000000000006
100
AcDbArc
 50
143.2000392987777
 51
156.1568257203459
  0
ARC
  5
377
330
51
100
AcDbEntity
  8
0
  6
Continuous
 62
     7
100
AcDbCircle
 10
-1.55043072657108
 20
-849.1857571309374
 30
0.0
 40
70.49999999999844
100
AcDbArc
 50
173.1130859681945
 51
-173.7562209490698
  0
ARC
  5
378
330
51
100
AcDbEntity
  8
0
  6
Continuous
 62
     7
100
AcDbCircle
 10
-1.55043072657108
 20
-849.1857571309374
 30
0.0
 40
51.99999999999989
100
AcDbArc
 50
-171.5543459777394
 51
-159.0887890031425
  0
ARC
  5
379
330
51
100
AcDbEntity
  8
0
  6
Continuous
 62
     7
100
AcDbCircle
 10
-1.55043072657108
 20
-849.1857571309374
 30
0.0
 40
52.00000000000159
100
AcDbArc
 50
-6.55434597773702
 51
5.9112109968625
  0
ARC
  5
37A
330
51
100
AcDbEntity
  8
0
  6
Continuous
 62
     7
100
AcDbCircle
 10
-1.55043072657108
 20
-849.1857571309374
 30
0.0
 40
70.50000000000072
100
AcDbArc
 50
-171.8869140318105
 51
-158.7562209490696
  0
ARC
  5
37B
330
51
100
AcDbEntity
  8
0
  6
Continuous
 62
     7
100
AcDbCircle
 10
-1.55043072657108
 20
-849.1857571309374
 30
0.0
 40
64.50000000000036
100
AcDbArc
 50
-171.799960701226
 51
-158.8431742796572
  0
CIRCLE
  5
37C
330
51
100
AcDbEntity
  8
0
  6
Continuous
 62
     7
100
AcDbCircle
 10
72.27446083418752
 20
-907.3741183902366
 30
0.0
 40
6.899999999996134
  0
CIRCLE
  5
37D
330
51
100
AcDbEntity
  8
1
  6
Continuous
 62
     7
100
AcDbCircle
 10
72.27446083418116
 20
-907.3741183902403
 30
0.0
 40
5.500000000000043
  0
CIRCLE
  5
37E
330
51
100
AcDbEntity
  8
0
  6
Continuous
 62
     7
100
AcDbCircle
 10
-15.03058400133043
 20
-942.2141692838354
 30
0.0
 40
6.899999999996005
  0
CIRCLE
  5
37F
330
51
100
AcDbEntity
  8
1
  6
Continuous
 62
     7
100
AcDbCircle
 10
-15.03058400133679
 20
-942.2141692838318
 30
0.0
 40
5.49999999999992
  0
CIRCLE
  5
380
330
51
100
AcDbEntity
  8
0
  6
Continuous
 62
     7
100
AcDbCircle
 10
-88.85547556208905
 20
-884.0258080245378
 30
0.0
 40
6.899999999996057
  0
CIRCLE
  5
381
330
51
100
AcDbEntity
  8
1
  6
Continuous
 62
     7
100
AcDbCircle
 10
-88.85547556208905
 20
-884.0258080245305
 30
0.0
 40
5.5
  0
CIRCLE
  5
382
330
51
100
AcDbEntity
  8
0
  6
Continuous
 62
     7
100
AcDbCircle
 10
-75.37532228733127
 20
-790.9973958716404
 30
0.0
 40
6.899999999996083
  0
CIRCLE
  5
383
330
51
100
AcDbEntity
  8
1
  6
Continuous
 62
     7
100
AcDbCircle
 10
-75.37532228732502
 20
-790.9973958716367
 30
0.0
 40
5.500000000000001
  0
CIRCLE
  5
384
330
51
100
AcDbEntity
  8
0
  6
Continuous
 62
     7
100
AcDbCircle
 10
11.92972254818554
 20
-756.157344978039
 30
0.0
 40
6.899999999996102
  0
CIRCLE
  5
385
330
51
100
AcDbEntity
  8
1
  6
Continuous
 62
     7
100
AcDbCircle
 10
11.92972254819179
 20
-756.1573449780426
 30
0.0
 40
5.500000000000113
  0
CIRCLE
  5
386
330
51
100
AcDbEntity
  8
1
  6
Continuous
 62
     7
100
AcDbCircle
 10
85.75461410894596
 20
-814.3457062373418
 30
0.0
 40
5.5
  0
CIRCLE
  5
387
330
51
100
AcDbEntity
  8
0
  6
Continuous
 62
     7
100
AcDbCircle
 10
85.75461410894596
 20
-814.3457062373345
 30
0.0
 40
6.899999999996075
  0
CIRCLE
  5
388
330
51
100
AcDbEntity
  8
0
  6
Continuous
 62
     7
100
AcDbCircle
 10
-1.55043072657108
 20
-849.1857571309374
 30
0.0
 40
101.7999999999976
  0
CIRCLE
  5
389
330
51
100
AcDbEntity
  8
0
  6
Continuous
 62
     7
100
AcDbCircle
 10
-1.55043072657108
 20
-849.1857571309374
 30
0.0
 40
124.4999999999977
  0
CIRCLE
  5
38A
330
51
100
AcDbEntity
  8
0
  6
Continuous
 62
     7
100
AcDbCircle
 10
-1.55043072657108
 20
-849.1857571309374
 30
0.0
 40
123.3859144827011
  0
SPLINE
  5
38B
330
51
100
AcDbEntity
  8
0
  6
Continuous
 62
     7
100
AcDbSpline
210
0.0
220
0.0
230
1.0
 70
     8
 71
     3
 72
    37
 73
    33
 74
    31
 42
0.0000000001
 43
0.0000000001
 44
0.00000001
 40
0.0
 40
0.0
 40
0.0
 40
0.0
 40
0.012408362293876
 40
0.0340354548869177
 40
0.0638180645413051
 40
0.1007066596831686
 40
0.143670495984617
 40
0.1917030036856426
 40
0.2438287472597452
 40
0.2991127560967321
 40
0.3566732199307525
 40
0.4722610300418717
 40
0.5874331804942834
 40
0.702395529948302
 40
0.8176981844911955
 40
0.8265720949640358
 40
0.849862272152877
 40
0.8857629960571354
 40
0.9325515112446626
 40
0.988611996346786
 40
1.052466852879939
 40
1.122817457848886
 40
1.19859626212187
 40
1.279031092406958
 40
1.346539024926778
 40
1.409416928951416
 40
1.466869850766851
 40
1.517948504072868
 40
1.561580910432553
 40
1.596597982267282
 40
1.621754207669227
 40
1.635746639133242
 40
1.635746639133242
 40
1.635746639133242
 40
1.635746639133242
 10
91.46689819764097
 20
-862.6781347825417
 30
0.0
 10
91.46627110732426
 20
-862.6822230794585
 30
0.0
 10
91.46455103309698
 20
-862.6934370529052
 30
0.0
 10
91.4612920768495
 20
-862.714459017169
 30
0.0
 10
91.45624999156396
 20
-862.7434588317269
 30
0.0
 10
91.44926079831978
 20
-862.7793323511092
 30
0.0
 10
91.44005315471668
 20
-862.8209598410442
 30
0.0
 10
91.42839315521898
 20
-862.8672286089695
 30
0.0
 10
91.41402928681468
 20
-862.917023359247
 30
0.0
 10
91.39672592703789
 20
-862.9692394882828
 30
0.0
 10
91.36943726753958
 20
-863.0403499070517
 30
0.0
 10
91.32823061020366
 20
-863.1273964587552
 30
0.0
 10
91.26787406708075
 20
-863.2257890507858
 30
0.0
 10
91.19706874170365
 20
-863.317060721874
 30
0.0
 10
91.13929161644646
 20
-863.3722543388762
 30
0.0
 10
91.10295196019828
 20
-863.4053537285147
 30
0.0
 10
91.0856256974437
 20
-863.4200135091609
 30
0.0
 10
91.05784391173471
 20
-863.4418475360881
 30
0.0
 10
91.02018349864066
 20
-863.4687285120353
 30
0.0
 10
90.97331064736451
 20
-863.4986270964544
 30
0.0
 10
90.91784297953295
 20
-863.5294711229619
 30
0.0
 10
90.85440176284008
 20
-863.5591939018283
 30
0.0
 10
90.78360399518718
 20
-863.5857455891404
 30
0.0
 10
90.71154659264108
 20
-863.6054265718535
 30
0.0
 10
90.64231310826543
 20
-863.6178562663417
 30
0.0
 10
90.58002405105543
 20
-863.6246374272134
 30
0.0
 10
90.52291709344232
 20
-863.6272912708437
 30
0.0
 10
90.47217543414894
 20
-863.6269199547535
 30
0.0
 10
90.42898363256003
 20
-863.6245734931165
 30
0.0
 10
90.39452235563724
 20
-863.6213626828879
 30
0.0
 10
90.36999806783108
 20
-863.6182264542274
 30
0.0
 10
90.35707069708987
 20
-863.6164454703891
 30
0.0
 10
90.35245022314294
 20
-863.6158089148521
 30
0.0
 11
91.46689819764097
 21
-862.6781347825417
 31
0.0
 11
91.46501453525491
 21
-862.6903993359715
 31
0.0
 11
91.4616536286778
 21
-862.7117636857395
 31
0.0
 11
91.45656733402129
 21
-862.7411087610417
 31
0.0
 11
91.44950750739687
 21
-862.7773154910732
 31
0.0
 11
91.44022600491617
 21
-862.8192648050299
 31
0.0
 11
91.4284746826907
 21
-862.8658376321075
 31
0.0
 11
91.41400539683204
 21
-862.9159149015009
 31
0.0
 11
91.39657000345173
 21
-862.9683775424062
 31
0.0
 11
91.37592035866138
 21
-863.0221064840189
 31
0.0
 11
91.32633807642188
 21
-863.1265197932003
 31
0.0
 11
91.26608568178827
 21
-863.2246741266795
 31
0.0
 11
91.19503597023268
 21
-863.3150526655029
 31
0.0
 11
91.11306173722724
 21
-863.3961385907169
 31
0.0
 11
91.106484602213
 21
-863.4020957361813
 31
0.0
 11
91.08876624368676
 21
-863.4172116921426
 31
0.0
 11
91.06055336882692
 21
-863.4394129459133
 31
0.0
 11
91.02249268481165
 21
-863.4666259848054
 31
0.0
 11
90.97523089881929
 21
-863.4967772961318
 31
0.0
 11
90.91941471802808
 21
-863.5277933672039
 31
0.0
 11
90.85569084961637
 21
-863.5576006853346
 31
0.0
 11
90.78470600076237
 21
-863.5841257378363
 31
0.0
 11
90.7071068786444
 21
-863.6052950120211
 31
0.0
 11
90.64068043443775
 21
-863.6173303127304
 31
0.0
 11
90.57817408931678
 21
-863.6241558262018
 31
0.0
 11
90.52078413120567
 21
-863.6268448656467
 31
0.0
 11
90.46970684802855
 21
-863.6264707442756
 31
0.0
 11
90.42613852770957
 21
-863.6241067752997
 31
0.0
 11
90.39127545817288
 21
-863.6208262719299
 31
0.0
 11
90.36631392734262
 21
-863.6177025473769
 31
0.0
 11
90.35245022314294
 21
-863.6158089148521
 31
0.0
  0
SPLINE
  5
38C
330
51
100
AcDbEntity
  8
0
  6
Continuous
 62
     7
100
AcDbSpline
210
0.0
220
0.0
230
1.0
 70
     8
 71
     3
 72
    39
 73
    35
 74
    33
 42
0.0000000001
 43
0.0000000001
 44
0.00000001
 40
0.0
 40
0.0
 40
0.0
 40
0.0
 40
0.0603117730423895
 40
0.12060303552363
 40
0.1777326189682005
 40
0.2348694222640085
 40
0.2894329758053218
 40
0.3440033194640889
 40
0.3964207826227406
 40
0.4488221181919547
 40
0.4995937423645965
 40
0.5503796535558085
 40
0.5999419239007608
 40
0.6494961420458218
 40
0.6982209997602964
 40
0.7469416839835419
 40
0.7957559278396007
 40
0.8445839698096539
 40
0.8934927608125847
 40
0.9423836300947547
 40
0.9914996682908637
 40
1.040636060275809
 40
1.090544056852215
 40
1.140427671606328
 40
1.191601659114811
 40
1.242807508714726
 40
1.295979147159218
 40
1.34911371405605
 40
1.404216501571428
 40
1.459358785703616
 40
1.517299303939722
 40
1.575202549968174
 40
1.635567277173841
 40
1.695968970045336
 40
1.695968970045336
 40
1.695968970045336
 40
1.695968970045336
 10
90.63154889230819
 20
-861.4133943218694
 30
0.0
 10
90.65100668341222
 20
-861.4184501617874
 30
0.0
 10
90.68991564850074
 20
-861.428560122256
 30
0.0
 10
90.74690915910648
 20
-861.4447837107504
 30
0.0
 10
90.80211818974225
 20
-861.4632216777403
 30
0.0
 10
90.85466283880798
 20
-861.4834278272887
 30
0.0
 10
90.90546244442237
 20
-861.5056340701254
 30
0.0
 10
90.95386200429317
 20
-861.5292761029691
 30
0.0
 10
91.00064823641159
 20
-861.554484039624
 30
0.0
 10
91.04510320526622
 20
-861.5812453487541
 30
0.0
 10
91.08755202241184
 20
-861.6101308064488
 30
0.0
 10
91.12772074276424
 20
-861.6405588830829
 30
0.0
 10
91.16612188618151
 20
-861.6725583413645
 30
0.0
 10
91.20233890139876
 20
-861.7060140994229
 30
0.0
 10
91.23643748477905
 20
-861.7412393156834
 30
0.0
 10
91.26830328818963
 20
-861.7781747028824
 30
0.0
 10
91.29793284862936
 20
-861.8169686909168
 30
0.0
 10
91.3254706492747
 20
-861.8573415207749
 30
0.0
 10
91.35106133542742
 20
-861.8990053183876
 30
0.0
 10
91.37446997936811
 20
-861.9420499945611
 30
0.0
 10
91.39538008298791
 20
-861.9864458165613
 30
0.0
 10
91.41409545997927
 20
-862.0321687846101
 30
0.0
 10
91.43078603480448
 20
-862.0789409643767
 30
0.0
 10
91.44526562788455
 20
-862.1271616263388
 30
0.0
 10
91.45707901630914
 20
-862.1765470701043
 30
0.0
 10
91.46687483623177
 20
-862.2274746423232
 30
0.0
 10
91.47510952952531
 20
-862.2793401624405
 30
0.0
 10
91.48116119962063
 20
-862.332827679166
 30
0.0
 10
91.48416092114635
 20
-862.3872316445677
 30
0.0
 10
91.48480862149664
 20
-862.443299554568
 30
0.0
 10
91.48379710141029
 20
-862.5002949592125
 30
0.0
 10
91.48053779452766
 20
-862.5589605716125
 30
0.0
 10
91.47447093477899
 20
-862.6182222913225
 30
0.0
 10
91.4694229584025
 20
-862.6581598772736
 30
0.0
 10
91.46689819764097
 20
-862.6781347825417
 30
0.0
 11
90.63154889230819
 21
-861.4133943218694
 31
0.0
 11
90.68986344678618
 21
-861.4287866155111
 31
0.0
 11
90.74778710221582
 21
-861.4455164234373
 31
0.0
 11
90.80197162380736
 21
-861.4636224148337
 31
0.0
 11
90.85529697627575
 21
-861.4841412129219
 31
0.0
 11
90.90529856914264
 21
-861.5059820482043
 31
0.0
 11
90.95433837745341
 21
-861.5299198761734
 31
0.0
 11
91.00044807244637
 21
-861.5548495065686
 31
0.0
 11
91.04530262862728
 21
-861.5819413643723
 31
0.0
 11
91.08729659131329
 21
-861.610476691934
 31
0.0
 11
91.12779840691897
 21
-861.6411167263361
 31
0.0
 11
91.16584632468474
 21
-861.6728779384578
 31
0.0
 11
91.20221703520676
 21
-861.7065349132489
 31
0.0
 11
91.23609511615919
 21
-861.7415547275014
 31
0.0
 11
91.26790732764503
 21
-861.7784557880764
 31
0.0
 11
91.29757539459025
 21
-861.8172196398841
 31
0.0
 11
91.32512914719945
 21
-861.8575305366712
 31
0.0
 11
91.35069282368343
 21
-861.8992266789627
 31
0.0
 11
91.37401395378345
 21
-861.942196924366
 31
0.0
 11
91.39498953052424
 21
-861.9866087514898
 31
0.0
 11
91.41365069858067
 21
-862.0320636282806
 31
0.0
 11
91.43038545616412
 21
-862.0790823055365
 31
0.0
 11
91.44469056744033
 21
-862.1268707854487
 31
0.0
 11
91.45670282422222
 21
-862.1766149578161
 31
0.0
 11
91.4664823745102
 21
-862.226878258836
 31
0.0
 11
91.47471820611162
 21
-862.2794081951838
 31
0.0
 11
91.4805883544574
 21
-862.3322175083559
 31
0.0
 11
91.48376058687145
 21
-862.3872289083879
 31
0.0
 11
91.48453522380255
 21
-862.442365751215
 31
0.0
 11
91.48343228671011
 21
-862.5002957709219
 31
0.0
 11
91.4801450801745
 21
-862.5581056331758
 31
0.0
 11
91.47423551895878
 21
-862.618180398068
 31
0.0
 11
91.46689819764097
 21
-862.6781347825417
 31
0.0
  0
SPLINE
  5
38D
330
51
100
AcDbEntity
  8
0
  6
Continuous
 62
     7
100
AcDbSpline
210
0.0
220
0.0
230
1.0
 70
     8
 71
     3
 72
    24
 73
    20
 74
    18
 42
0.0000000001
 43
0.0000000001
 44
0.00000001
 40
0.0
 40
0.0
 40
0.0
 40
0.0
 40
0.0508778541447812
 40
0.1089926109576745
 40
0.176279618710299
 40
0.2552221642585682
 40
0.3541845089952064
 40
0.4528488093851546
 40
0.5518676572345982
 40
0.6506946517291388
 40
0.7493617373674683
 40
0.8484790128942147
 40
0.8597637687191085
 40
0.8858748027945617
 40
0.9251690320887096
 40
0.976112072499796
 40
1.018785634648451
 40
1.05899223527079
 40
1.103714671429643
 40
1.103714671429643
 40
1.103714671429643
 40
1.103714671429643
 10
91.11698208757107
 20
-862.6184825208875
 30
0.0
 10
91.11903912395981
 20
-862.6016479113351
 30
0.0
 10
91.12344579107676
 20
-862.565584125226
 30
0.0
 10
91.12769150022365
 20
-862.5069273524629
 30
0.0
 10
91.12662294930989
 20
-862.4387220586303
 30
0.0
 10
91.11758801252013
 20
-862.3573531647719
 30
0.0
 10
91.09543716570751
 20
-862.2674266348893
 30
0.0
 10
91.05552285439259
 20
-862.1764690705411
 30
0.0
 10
91.00190268735761
 20
-862.0929249287269
 30
0.0
 10
90.93473077171141
 20
-862.019735707406
 30
0.0
 10
90.85618608506891
 20
-861.9589623251117
 30
0.0
 10
90.79491380703715
 20
-861.9252427850679
 30
0.0
 10
90.75370113408412
 20
-861.9059527902215
 30
0.0
 10
90.73013195706551
 20
-861.8960283774819
 30
0.0
 10
90.69377764637755
 20
-861.8824845899621
 30
0.0
 10
90.65151217744896
 20
-861.8691288196533
 30
0.0
 10
90.60835263415585
 20
-861.8577726382202
 30
0.0
 10
90.56665473556069
 20
-861.8492992824679
 30
0.0
 10
90.53874707341436
 20
-861.8445438627496
 30
0.0
 10
90.52405129107674
 20
-861.8420397256159
 30
0.0
 11
91.11698208757107
 21
-862.6184825208875
 31
0.0
 11
91.1227649868271
 21
-862.5679343842396
 31
0.0
 11
91.12668109330289
 21
-862.5099517224389
 31
0.0
 11
91.12570490638213
 21
-862.4426717962247
 31
0.0
 11
91.1168109254485
 21
-862.3642318663369
 31
0.0
 11
91.09271445126244
 21
-862.2682479843172
 31
0.0
 11
91.05329130031947
 21
-862.1778020925301
 31
0.0
 11
90.99960311737405
 21
-862.0946016643975
 31
0.0
 11
90.93280210092941
 21
-862.0217703590214
 31
0.0
 11
90.85491405317171
 21
-861.9612010119483
 31
0.0
 11
90.76838739146288
 21
-861.9128546457832
 31
0.0
 11
90.75815861195653
 21
-861.908088328144
 31
0.0
 11
90.73413007276795
 21
-861.8978699425106
 31
0.0
 11
90.69732269197797
 21
-861.8841130106142
 31
0.0
 11
90.64875738766742
 21
-861.8687310541864
 31
0.0
 11
90.60746324038107
 21
-861.8579687911182
 31
0.0
 11
90.56809576755619
 21
-861.8497973275414
 31
0.0
 11
90.52405129107674
 21
-861.8420397256159
 31
0.0
  0
SPLINE
  5
38E
330
51
100
AcDbEntity
  8
0
  6
Continuous
 62
     7
100
AcDbSpline
210
0.0
220
0.0
230
1.0
 70
     8
 71
     3
 72
    39
 73
    35
 74
    33
 42
0.0000000001
 43
0.0000000001
 44
0.00000001
 40
0.0
 40
0.0
 40
0.0
 40
0.0
 40
0.0312232123363547
 40
0.0624119636269058
 40
0.0926110070693882
 40
0.1228421662250589
 40
0.152819060100864
 40
0.182767331494369
 40
0.2119273021120415
 40
0.2411120261809041
 40
0.2703049737394638
 40
0.2994758732907223
 40
0.3289402038553094
 40
0.3584260078775829
 40
0.3884919318155242
 40
0.4185375643320873
 40
0.4495742804649844
 40
0.4806271851665035
 40
0.511788299563915
 40
0.5429482436440778
 40
0.5738690934445431
 40
0.6047724568699113
 40
0.6356119917978039
 40
0.6664778743083511
 40
0.6978396191517684
 40
0.7291779682126022
 40
0.7611864550151601
 40
0.7932062748576842
 40
0.825989748446675
 40
0.8587814475163692
 40
0.8930869416027221
 40
0.9273682713034996
 40
0.9629554988066568
 40
0.9985733607338854
 40
0.9985733607338854
 40
0.9985733607338854
 40
0.9985733607338854
 10
90.42493053275203
 20
-863.1807556008389
 30
0.0
 10
90.43526259454245
 20
-863.1820078389408
 30
0.0
 10
90.45591531463126
 20
-863.1845109330504
 30
0.0
 10
90.48667995364872
 20
-863.187232779066
 30
0.0
 10
90.51722992562544
 20
-863.187978002198
 30
0.0
 10
90.54736342870955
 20
-863.1871749778945
 30
0.0
 10
90.57735930881977
 20
-863.185193648156
 30
0.0
 10
90.60686339036337
 20
-863.1816585901959
 30
0.0
 10
90.63580581154228
 20
-863.1762135005561
 30
0.0
 10
90.66416252381727
 20
-863.169294291561
 30
0.0
 10
90.69221370039102
 20
-863.1612134275372
 30
0.0
 10
90.71991299982339
 20
-863.1516842174923
 30
0.0
 10
90.74707010859035
 20
-863.140446883611
 30
0.0
 10
90.77389532036405
 20
-863.1277451566827
 30
0.0
 10
90.80037698234244
 20
-863.1139171690363
 30
0.0
 10
90.82657860443598
 20
-863.0985012689359
 30
0.0
 10
90.85203265875795
 20
-863.081282878311
 30
0.0
 10
90.8768354477998
 20
-863.0625305486856
 30
0.0
 10
90.90086661645438
 20
-863.0427359824384
 30
0.0
 10
90.9239498246196
 20
-863.0219064162694
 30
0.0
 10
90.94594491919695
 20
-863.0000496234791
 30
0.0
 10
90.9665729717727
 20
-862.9770291331639
 30
0.0
 10
90.98556914180413
 20
-862.9526712707784
 30
0.0
 10
91.00342548891406
 20
-862.9272956304923
 30
0.0
 10
91.02059256856307
 20
-862.9012493664959
 30
0.0
 10
91.03671794498032
 20
-862.8740882879981
 30
0.0
 10
91.05117582130829
 20
-862.8457536316191
 30
0.0
 10
91.06418309281318
 20
-862.8162041229994
 30
0.0
 10
91.07576582687682
 20
-862.7857914091715
 30
0.0
 10
91.08633406323
 20
-862.7542131980202
 30
0.0
 10
91.09605953996693
 20
-862.7218433394694
 30
0.0
 10
91.10458689348349
 20
-862.688164201747
 30
0.0
 10
91.11125415464508
 20
-862.6536262345734
 30
0.0
 10
91.11507222904822
 20
-862.6302004515921
 30
0.0
 10
91.11698208757107
 20
-862.6184825208875
 30
0.0
 11
90.42493053275203
 21
-863.1807556008389
 31
0.0
 11
90.45594674952456
 21
-863.1843449302638
 31
0.0
 11
90.48702859646467
 21
-863.1869250461247
 31
0.0
 11
90.51721715021377
 21
-863.1877209401997
 31
0.0
 11
90.54743907930862
 21
-863.1869739558081
 31
0.0
 11
90.57734603942022
 21
-863.1849275190697
 31
0.0
 11
90.60707303010491
 21
-863.181293652769
 31
0.0
 11
90.63574140611047
 21
-863.1759618516073
 31
0.0
 11
90.66410835121792
 21
-863.169101491249
 31
0.0
 11
90.69214736838563
 21
-863.1609748865812
 31
0.0
 11
90.71971595443203
 21
-863.1514399799728
 31
0.0
 11
90.74696294895797
 21
-863.140226235508
 31
0.0
 11
90.77363597678205
 21
-863.1276579330953
 31
0.0
 11
90.80026115001532
 21
-863.1136915472872
 31
0.0
 11
90.82612828123244
 21
-863.0984065364623
 31
0.0
 11
90.85186856280676
 21
-863.0810653815761
 31
0.0
 11
90.8766731418489
 21
-863.0623834183777
 31
0.0
 11
90.90071419131833
 21
-863.0425581065039
 31
0.0
 11
90.92383672702361
 21
-863.021670539445
 31
0.0
 11
90.94573355676452
 21
-862.999838732381
 31
0.0
 11
90.96631666506019
 21
-862.9767876255987
 31
0.0
 11
90.98535939546525
 21
-862.9525296097423
 31
0.0
 11
91.00320190713892
 21
-862.92734335396
 31
0.0
 11
91.02038959925962
 21
-862.9011108878315
 31
0.0
 11
91.0363145508963
 21
-862.8741203702887
 31
0.0
 11
91.05089813060039
 21
-862.8456271705666
 31
0.0
 11
91.06383249869963
 21
-862.8163360288233
 31
0.0
 11
91.0755538660639
 21
-862.7857196004283
 31
0.0
 11
91.08601561351384
 21
-862.7546415154137
 31
0.0
 11
91.09582033908478
 21
-862.7217669921322
 31
0.0
 11
91.10416626703606
 21
-862.6885171041221
 31
0.0
 11
91.11108175569365
 21
-862.6536082688796
 31
0.0
 11
91.11698208757107
 21
-862.6184825208875
 31
0.0
  0
SPLINE
  5
38F
330
51
100
AcDbEntity
  8
0
  6
Continuous
 62
     7
100
AcDbSpline
210
0.0
220
0.0
230
1.0
 70
     8
 71
     3
 72
    15
 73
    11
 74
     9
 42
0.0000000001
 43
0.0000000001
 44
0.00000001
 40
0.0
 40
0.0
 40
0.0
 40
0.0
 40
0.1082164627490746
 40
0.2836004453313685
 40
0.5635304672053861
 40
0.9180057313013117
 40
1.174110824834526
 40
1.377525703576208
 40
1.602358092415094
 40
1.837105237286464
 40
1.837105237286464
 40
1.837105237286464
 40
1.837105237286464
 10
90.35245022314294
 20
-863.6158089148521
 30
0.0
 10
90.31689887749587
 20
-863.6095243111325
 30
0.0
 10
90.22373026708746
 20
-863.5930543917844
 30
0.0
 10
90.0456633852828
 20
-863.5294597601766
 30
0.0
 10
89.81433166035737
 20
-863.3851252638993
 30
0.0
 10
89.60578886109549
 20
-863.1708664531322
 30
0.0
 10
89.4397990394742
 20
-862.9561702487222
 30
0.0
 10
89.31064785377865
 20
-862.7680509146319
 30
0.0
 10
89.18842701480096
 20
-862.5839209823473
 30
0.0
 10
89.10692450382112
 20
-862.454198820989
 30
0.0
 10
89.06529409961686
 20
-862.387938457392
 30
0.0
 11
90.35245022314294
 21
-863.6158089148521
 31
0.0
 11
90.24631384735031
 21
-863.5946932206052
 31
0.0
 11
90.08074632409435
 21
-863.5368405059817
 31
0.0
 11
89.84198635285193
 21
-863.3907087391453
 31
0.0
 11
89.58898020175721
 21
-863.1424334879339
 31
0.0
 11
89.43122397764355
 21
-862.9406841566164
 31
0.0
 11
89.31511235311146
 21
-862.7736640873372
 31
0.0
 11
89.19102528050543
 21
-862.586175417058
 31
0.0
 11
89.06529409961686
 21
-862.387938457392
 31
0.0
  0
SPLINE
  5
390
330
51
100
AcDbEntity
  8
0
  6
Continuous
 62
     7
100
AcDbSpline
210
0.0
220
0.0
230
1.0
 70
     8
 71
     3
 72
    11
 73
     7
 74
     5
 42
0.0000000001
 43
0.0000000001
 44
0.00000001
 40
0.0
 40
0.0
 40
0.0
 40
0.0
 40
0.2391362193913213
 40
0.4782667052095132
 40
0.759682454553585
 40
0.9562789610826299
 40
0.9562789610826299
 40
0.9562789610826299
 40
0.9562789610826299
 10
89.06529409961686
 20
-862.387938457392
 30
0.0
 10
89.0231987932004
 20
-862.3202177705257
 30
0.0
 10
88.93900918965204
 20
-862.184778020476
 30
0.0
 10
88.8016911947212
 20
-861.9724602908261
 30
0.0
 10
88.66472371269006
 20
-861.7745448898665
 30
0.0
 10
88.5462196183066
 20
-861.667421411807
 30
0.0
 10
88.49748134710345
 20
-861.6233637515797
 30
0.0
 11
89.06529409961686
 21
-862.387938457392
 31
0.0
 11
88.93844304242921
 21
-862.1852195862548
 31
0.0
 11
88.80821038482637
 21
-861.9846632496774
 31
0.0
 11
88.639093865016
 21
-861.7597312005912
 31
0.0
 11
88.49748134710345
 21
-861.6233637515797
 31
0.0
  0
SPLINE
  5
391
330
51
100
AcDbEntity
  8
0
  6
Continuous
 62
     7
100
AcDbSpline
210
0.0
220
0.0
230
1.0
 70
     8
 71
     3
 72
    19
 73
    15
 74
    13
 42
0.0000000001
 43
0.0000000001
 44
0.00000001
 40
0.0
 40
0.0
 40
0.0
 40
0.0
 40
0.407364993522249
 40
0.8143956493558625
 40
0.9458106961491513
 40
1.077177162271803
 40
1.148655917637471
 40
1.208578854354454
 40
1.290730077067793
 40
1.339985559615603
 40
1.412201867896306
 40
1.484440384422547
 40
1.567419941779812
 40
1.628872913979295
 40
1.628872913979295
 40
1.628872913979295
 40
1.628872913979295
 10
89.32335933426103
 20
-862.0433907905863
 30
0.0
 10
89.3945495161078
 20
-862.1590224089659
 30
0.0
 10
89.5368714517056
 20
-862.3901907430986
 30
0.0
 10
89.71821997715182
 20
-862.648647707427
 30
0.0
 10
89.85966949635738
 20
-862.8215066600019
 30
0.0
 10
89.93602014881714
 20
-862.9028259059573
 30
0.0
 10
90.00015174460427
 20
-862.9625502024393
 30
0.0
 10
90.05490303697432
 20
-863.0080746243028
 30
0.0
 10
90.10584728624883
 20
-863.0465244623822
 30
0.0
 10
90.1625104534331
 20
-863.0839495425824
 30
0.0
 10
90.21917638993924
 20
-863.1151343361587
 30
0.0
 10
90.28851623020796
 20
-863.1458718842671
 30
0.0
 10
90.35723010142729
 20
-863.1690917794893
 30
0.0
 10
90.40472322000488
 20
-863.1772741682804
 30
0.0
 10
90.42493053275203
 20
-863.1807556008389
 30
0.0
 11
89.32335933426103
 21
-862.0433907905863
 31
0.0
 11
89.54039002855815
 21
-862.3881282496479
 31
0.0
 11
89.77704738453204
 21
-862.7192887102283
 31
0.0
 11
89.8608126894882
 21
-862.8205472318908
 31
0.0
 11
89.95103049018681
 21
-862.9160349109843
 31
0.0
 11
90.00345115583323
 21
-862.9646279792329
 31
0.0
 11
90.04945383003533
 21
-863.0030273582779
 31
0.0
 11
90.1152230900556
 21
-863.0522536503349
 31
0.0
 11
90.15640572975636
 21
-863.0792738788368
 31
0.0
 11
90.21961573034096
 21
-863.1141979537392
 31
0.0
 11
90.28565356595018
 21
-863.1434794758643
 31
0.0
 11
90.36461428101612
 21
-863.1689905012354
 31
0.0
 11
90.42493053275203
 21
-863.1807556008389
 31
0.0
  0
SPLINE
  5
392
330
51
100
AcDbEntity
  8
0
  6
Continuous
 62
     7
100
AcDbSpline
210
0.0
220
0.0
230
1.0
 70
     8
 71
     3
 72
    18
 73
    14
 74
    12
 42
0.0000000001
 43
0.0000000001
 44
0.00000001
 40
0.0
 40
0.0
 40
0.0
 40
0.0
 40
0.0799378774762108
 40
0.1847720433014131
 40
0.3289714865848644
 40
0.5208526455718769
 40
0.657862369585106
 40
0.8222830153970938
 40
0.9867813589526788
 40
1.056292721957014
 40
1.118163004115681
 40
1.196580488224859
 40
1.315720882352287
 40
1.315720882352287
 40
1.315720882352287
 40
1.315720882352287
 10
88.46303875940603
 20
-861.067923605864
 30
0.0
 10
88.48612083211461
 20
-861.0812451130435
 30
0.0
 10
88.53947378408995
 20
-861.1120370502227
 30
0.0
 10
88.63016447133407
 20
-861.1739648328999
 30
0.0
 10
88.743121108174
 20
-861.2682981635155
 30
0.0
 10
88.8550235018738
 20
-861.3798431130115
 30
0.0
 10
88.96055023141916
 20
-861.5060578169737
 30
0.0
 10
89.05519273714332
 20
-861.6292845503951
 30
0.0
 10
89.130030980533
 20
-861.739047983474
 30
0.0
 10
89.18496921383274
 20
-861.8209552919112
 30
0.0
 10
89.22274590092889
 20
-861.8798136974806
 30
0.0
 10
89.26816268358814
 20
-861.9534049409046
 30
0.0
 10
89.3025946150013
 20
-862.0095385389875
 30
0.0
 10
89.32335933426103
 20
-862.0433907905863
 30
0.0
 11
88.46303875940603
 21
-861.067923605864
 31
0.0
 11
88.5318329484851
 21
-861.1086350760457
 31
0.0
 11
88.61845204244014
 21
-861.1676887371234
 31
0.0
 11
88.72968978838063
 21
-861.2594473515492
 31
0.0
 11
88.86547027525822
 21
-861.3950277282911
 31
0.0
 11
88.95401477314036
 21
-861.4995817161107
 31
0.0
 11
89.05391993579352
 21
-861.6301692623947
 31
0.0
 11
89.14762341624547
 21
-861.7653704561162
 31
0.0
 11
89.18618144268196
 21
-861.8232073663384
 31
0.0
 11
89.21963006242996
 21
-861.8752565896884
 31
0.0
 11
89.26100933858962
 21
-861.9418678298699
 31
0.0
 11
89.32335933426103
 21
-862.0433907905863
 31
0.0
  0
SPLINE
  5
393
330
51
100
AcDbEntity
  8
0
  6
Continuous
 62
     7
100
AcDbSpline
210
0.0
220
0.0
230
1.0
 70
     8
 71
     3
 72
    11
 73
     7
 74
     5
 42
0.0000000001
 43
0.0000000001
 44
0.00000001
 40
0.0
 40
0.0
 40
0.0
 40
0.0
 40
0.0710666732518099
 40
0.1516132822064528
 40
0.2323342454307904
 40
0.3032257578288781
 40
0.3032257578288781
 40
0.3032257578288781
 40
0.3032257578288781
 10
88.17629379033124
 20
-860.975513325935
 30
0.0
 10
88.1997496312678
 20
-860.978897963139
 30
0.0
 10
88.24979020399456
 20
-860.9861187310759
 30
0.0
 10
88.32502525429757
 20
-861.0052899240883
 30
0.0
 10
88.39739380024656
 20
-861.0333218351311
 30
0.0
 10
88.44212376153331
 20
-861.0568992108376
 30
0.0
 10
88.46303875940603
 20
-861.067923605864
 30
0.0
 11
88.17629379033124
 21
-860.975513325935
 31
0.0
 11
88.24645373088461
 21
-860.9868294555131
 31
0.0
 11
88.32448190024107
 21
-861.0068134741523
 31
0.0
 11
88.39974048400737
 21
-861.0360028467621
 31
0.0
 11
88.46303875940603
 21
-861.067923605864
 31
0.0
  0
ENDBLK
  5
53
330
51
100
AcDbEntity
  8
0
100
AcDbBlockEnd
  0
BLOCK
  5
55
330
54
100
AcDbEntity
  8
0
100
AcDbBlockBegin
  2
_X0
 70
     0
 71
     0
 10
337.961464640079
 20
-415.845958
 30
0.0
  3
_X0
  1

  0
LINE
  5
394
330
54
100
AcDbEntity
  8
LC-003-005-----0
  6
Continuous
 62
     2
100
AcDbLine
 10
-44.04776099999992
 20
68.473907
 30
0.0
 11
-41.72823899999992
 21
70.793429
 31
0.0
  0
LINE
  5
395
330
54
100
AcDbEntity
  8
LC-003-005-----0
  6
Continuous
 62
     2
100
AcDbLine
 10
-43.09121599999992
 20
66.60202500000003
 30
0.0
 11
-42.20445099999995
 21
67.48879
 31
0.0
  0
LINE
  5
396
330
54
100
AcDbEntity
  8
LC-003-005-----0
  6
Continuous
 62
     2
100
AcDbLine
 10
-56.99637900000005
 20
32.897873
 30
0.0
 11
-56.19726400000002
 21
33.69698700000004
 31
0.0
  0
LINE
  5
397
330
54
100
AcDbEntity
  8
LC-003-005-----0
  6
Continuous
 62
     2
100
AcDbLine
 10
-56.36509599999999
 20
30.70072800000003
 30
0.0
 11
-56.19726400000002
 21
30.86856
 31
0.0
  0
ENDBLK
  5
56
330
54
100
AcDbEntity
  8
0
100
AcDbBlockEnd
  0
BLOCK
  5
58
330
57
100
AcDbEntity
  8
0
100
AcDbBlockBegin
  2
_X1
 70
     0
 71
     0
 10
337.961464640079
 20
-415.845958
 30
0.0
  3
_X1
  1

  0
LINE
  5
398
330
57
100
AcDbEntity
  8
LC-003-005-----0
  6
Continuous
 62
     2
100
AcDbLine
 10
41.56575099999998
 20
69.23460600000004
 30
0.0
 11
43.1246910000001
 21
70.79354599999999
 31
0.0
  0
LINE
  5
399
330
57
100
AcDbEntity
  8
LC-003-005-----0
  6
Continuous
 62
     2
100
AcDbLine
 10
42.32051100000001
 20
67.16093800000004
 30
0.0
 11
43.93481299999996
 21
68.775241
 31
0.0
  0
LINE
  5
39A
330
57
100
AcDbEntity
  8
LC-003-005-----0
  6
Continuous
 62
     2
100
AcDbLine
 10
44.36496599999998
 20
66.37696700000004
 30
0.0
 11
44.689573
 21
66.701573
 31
0.0
  0
LINE
  5
39B
330
57
100
AcDbEntity
  8
LC-003-005-----0
  6
Continuous
 62
     2
100
AcDbLine
 10
56.19404700000007
 20
32.951213
 30
0.0
 11
56.76572799999997
 21
33.52289400000001
 31
0.0
  0
LINE
  5
39C
330
57
100
AcDbEntity
  8
LC-003-005-----0
  6
Continuous
 62
     2
100
AcDbLine
 10
56.71064800000011
 20
30.639387
 30
0.0
 11
57.520487
 21
31.44922600000001
 31
0.0
  0
ENDBLK
  5
59
330
57
100
AcDbEntity
  8
0
100
AcDbBlockEnd
  0
BLOCK
  5
5D
330
5A
100
AcDbEntity
  8
0
100
AcDbBlockBegin
  2
TOP__1
 70
     0
 71
     0
 10
0.00000000000004
 20
-159.9823824999999
 30
0.0
  3
TOP__1
  1

  0
INSERT
  5
5B
330
5A
100
AcDbEntity
  8
LC-003-005-----0
100
AcDbBlockReference
  2
_X0
 10
337.961464640079
 20
-415.845958
 30
0.0
  0
INSERT
  5
5C
330
5A
100
AcDbEntity
  8
LC-003-005-----0
100
AcDbBlockReference
  2
_X1
 10
337.961464640079
 20
-415.845958
 30
0.0
  0
POINT
  5
39D
330
5A
100
AcDbEntity
  8
LC-006-003-----0
 62
     7
100
AcDbPoint
 10
175.0000000000001
 20
-3.236469
 30
0.0
  0
POINT
  5
39E
330
5A
100
AcDbEntity
  8
LC-006-003-----0
 62
     7
100
AcDbPoint
 10
231.9937100000001
 20
0.0
 30
0.0
  0
POINT
  5
39F
330
5A
100
AcDbEntity
  8
LC-006-003-----0
 62
     7
100
AcDbPoint
 10
-231.995428
 20
0.0
 30
0.0
  0
POINT
  5
3A0
330
5A
100
AcDbEntity
  8
LC-006-003-----0
 62
     7
100
AcDbPoint
 10
177.0000000000001
 20
-6.236469
 30
0.0
  0
POINT
  5
3A1
330
5A
100
AcDbEntity
  8
LC-006-003-----0
 62
     7
100
AcDbPoint
 10
-177.0
 20
-6.236469
 30
0.0
  0
POINT
  5
3A2
330
5A
100
AcDbEntity
  8
LC-004-003-----0
 62
     7
100
AcDbPoint
 10
70.00123499999995
 20
-47.18897299999998
 30
0.0
  0
POINT
  5
3A3
330
5A
100
AcDbEntity
  8
LC-005-003-----0
 62
     7
100
AcDbPoint
 10
73.5
 20
-47.18575713093564
 30
0.0
  0
POINT
  5
3A4
330
5A
100
AcDbEntity
  8
LC-005-003-----0
 62
     7
100
AcDbPoint
 10
-73.5
 20
-47.18575713093564
 30
0.0
  0
POINT
  5
3A5
330
5A
100
AcDbEntity
  8
LC-005-003-----0
 62
     7
100
AcDbPoint
 10
77.75
 20
-47.18575713093564
 30
0.0
  0
POINT
  5
3A6
330
5A
100
AcDbEntity
  8
LC-005-003-----0
 62
     7
100
AcDbPoint
 10
-73.5
 20
-47.18575713093564
 30
0.0
  0
POINT
  5
3A7
330
5A
100
AcDbEntity
  8
LC-005-003-----0
 62
     7
100
AcDbPoint
 10
77.75
 20
-47.18575713093564
 30
0.0
  0
POINT
  5
3A8
330
5A
100
AcDbEntity
  8
LC-006-003-----0
 62
     7
100
AcDbPoint
 10
53.49991403207514
 20
-450.4991543396908
 30
0.0
  0
POINT
  5
3A9
330
5A
100
AcDbEntity
  8
LC-006-003-----0
 62
     7
100
AcDbPoint
 10
-53.49800096792478
 20
-450.4513943396908
 30
0.0
  0
POINT
  5
3AA
330
5A
100
AcDbEntity
  8
LC-006-003-----0
 62
     7
100
AcDbPoint
 10
44.99991403207514
 20
-459.5083303396908
 30
0.0
  0
POINT
  5
3AB
330
5A
100
AcDbEntity
  8
LC-006-003-----0
 62
     7
100
AcDbPoint
 10
-45.00008596792486
 20
-459.5083303396908
 30
0.0
  0
POINT
  5
3AC
330
5A
100
AcDbEntity
  8
LC-006-003-----0
 62
     7
100
AcDbPoint
 10
41.99991403207514
 20
-464.0083303396908
 30
0.0
  0
POINT
  5
3AD
330
5A
100
AcDbEntity
  8
LC-006-003-----0
 62
     7
100
AcDbPoint
 10
48.97592203207523
 20
-228.0081833396908
 30
0.0
  0
POINT
  5
3AE
330
5A
100
AcDbEntity
  8
LC-006-003-----0
 62
     7
100
AcDbPoint
 10
41.99991403207514
 20
-464.0083303396908
 30
0.0
  0
POINT
  5
3AF
330
5A
100
AcDbEntity
  8
LC-006-003-----0
 62
     7
100
AcDbPoint
 10
43.79414303207523
 20
-464.0083303396908
 30
0.0
  0
LINE
  5
3B0
330
5A
100
AcDbEntity
  8
LC-001-002-----0
  6
Continuous
 62
     7
100
AcDbLine
 10
-47.69903140939145
 20
5.61161000000004
 30
0.0
 11
-40.21684100000005
 21
30.43110400000001
 31
0.0
  0
LINE
  5
3B1
330
5A
100
AcDbEntity
  8
LC-001-002-----0
  6
Continuous
 62
     7
100
AcDbLine
 10
-46.0675195999048
 20
5.61161000000004
 30
0.0
 11
-38.57226899999989
 21
30.43110400000001
 31
0.0
  0
LINE
  5
3B2
330
5A
100
AcDbEntity
  8
LC-001-002-----0
  6
Continuous
 62
     7
100
AcDbLine
 10
-53.24993398117294
 20
0.993639940945
 30
0.0
 11
-53.24991000000205
 21
1.53480399999899
 31
0.0
  0
LINE
  5
3B3
330
5A
100
AcDbEntity
  8
LC-001-002-----0
  6
Continuous
 62
     7
100
AcDbLine
 10
-40.7499339554457
 20
0.99366702886664
 30
0.0
 11
-40.74991000000205
 21
1.53427799999918
 31
0.0
  0
LINE
  5
3B4
330
5A
100
AcDbEntity
  8
LC-001-002-----0
  6
Continuous
 62
     7
100
AcDbLine
 10
40.75000002781887
 20
0.99384285078331
 30
0.0
 11
40.75002399999801
 21
1.53480399999899
 31
0.0
  0
LINE
  5
3B5
330
5A
100
AcDbEntity
  8
LC-001-002-----0
  6
Continuous
 62
     7
100
AcDbLine
 10
53.25000005355102
 20
0.99387005978444
 30
0.0
 11
53.25002399999801
 21
1.53427799999918
 31
0.0
  0
LINE
  5
3B6
330
5A
100
AcDbEntity
  8
LC-001-002-----0
  6
Continuous
 62
     7
100
AcDbLine
 10
47.69592948831206
 20
5.61161000000004
 30
0.0
 11
40.21363099999996
 21
30.43121400000001
 31
0.0
  0
LINE
  5
3B7
330
5A
100
AcDbEntity
  8
LC-001-002-----0
  6
Continuous
 62
     7
100
AcDbLine
 10
46.06441645721837
 20
5.61161000000004
 30
0.0
 11
38.56905900000004
 21
30.43121000000002
 31
0.0
  0
LINE
  5
3B8
330
5A
100
AcDbEntity
  8
LC-001-002-----0
  6
Continuous
 62
     7
100
AcDbLine
 10
-40.7499779999996
 20
-0.00030200000037
 30
0.0
 11
-40.7499339554457
 21
0.99366702886664
 31
0.0
  0
LINE
  5
3B9
330
5A
100
AcDbEntity
  8
LC-001-002-----0
  6
Continuous
 62
     7
100
AcDbLine
 10
-53.2499779999996
 20
0.00030199999674
 30
0.0
 11
-53.24993398117294
 21
0.993639940945
 31
0.0
  0
LINE
  5
3BA
330
5A
100
AcDbEntity
  8
LC-001-002-----0
  6
Continuous
 62
     7
100
AcDbLine
 10
-40.7499779999996
 20
-0.00030200000037
 30
0.0
 11
-53.2499779999996
 21
0.00030199999674
 31
0.0
  0
LINE
  5
3BB
330
5A
100
AcDbEntity
  8
LC-001-002-----0
  6
Continuous
 62
     7
100
AcDbLine
 10
-43.2499779999996
 20
-0.00018900000214
 30
0.0
 11
-42.02115200000094
 21
-0.0002510000013
 31
0.0
  0
LINE
  5
3BC
330
5A
100
AcDbEntity
  8
LC-001-002-----0
  6
Continuous
 62
     7
100
AcDbLine
 10
-50.7499779999996
 20
0.0001889999985
 30
0.0
 11
-52.99997400000189
 21
0.00030299999707
 31
0.0
  0
LINE
  5
3BD
330
5A
100
AcDbEntity
  8
LC-001-002-----0
  6
Continuous
 62
     7
100
AcDbLine
 10
-53.2499779999996
 20
0.00404199999684
 30
0.0
 11
-53.26087200000234
 21
0.00404199999684
 31
0.0
  0
LINE
  5
3BE
330
5A
100
AcDbEntity
  8
LC-001-002-----0
  6
Continuous
 62
     7
100
AcDbLine
 10
40.74995600000045
 20
0.00404199999684
 30
0.0
 11
40.73906199999772
 21
0.00404199999684
 31
0.0
  0
LINE
  5
3BF
330
5A
100
AcDbEntity
  8
LC-001-002-----0
  6
Continuous
 62
     7
100
AcDbLine
 10
43.24995600000045
 20
0.0001889999985
 30
0.0
 11
40.99995999999817
 21
0.00030299999707
 31
0.0
  0
LINE
  5
3C0
330
5A
100
AcDbEntity
  8
LC-001-002-----0
  6
Continuous
 62
     7
100
AcDbLine
 10
50.74995600000045
 20
-0.00018900000214
 30
0.0
 11
51.97878199999911
 21
-0.0002510000013
 31
0.0
  0
LINE
  5
3C1
330
5A
100
AcDbEntity
  8
LC-001-002-----0
  6
Continuous
 62
     7
100
AcDbLine
 10
53.24995600000045
 20
-0.00030200000037
 30
0.0
 11
40.74995600000045
 21
0.00030199999674
 31
0.0
  0
LINE
  5
3C2
330
5A
100
AcDbEntity
  8
LC-001-002-----0
  6
Continuous
 62
     7
100
AcDbLine
 10
40.74995600000045
 20
0.00030199999674
 30
0.0
 11
40.75000002781887
 21
0.99384285078331
 31
0.0
  0
LINE
  5
3C3
330
5A
100
AcDbEntity
  8
LC-001-002-----0
  6
Continuous
 62
     7
100
AcDbLine
 10
53.24995600000045
 20
-0.00030200000037
 30
0.0
 11
53.25000005355102
 21
0.99387005978444
 31
0.0
  0
LINE
  5
3C4
330
5A
100
AcDbEntity
  8
LC-001-002-----0
  6
Continuous
 62
     7
100
AcDbLine
 10
-100.260972
 20
0.00412499999948
 30
0.0
 11
-100.260972
 21
1.53870499999903
 31
0.0
  0
LINE
  5
3C5
330
5A
100
AcDbEntity
  8
LC-001-002-----0
  6
Continuous
 62
     7
100
AcDbLine
 10
-87.76097200000004
 20
0.00417699999889
 30
0.0
 11
-87.76097200000004
 21
1.5386789999975
 31
0.0
  0
LINE
  5
3C6
330
5A
100
AcDbEntity
  8
LC-001-002-----0
  6
Continuous
 62
     7
100
AcDbLine
 10
-100.260972
 20
0.00412499999948
 30
0.0
 11
-87.76097200000004
 21
0.00417699999889
 31
0.0
  0
LINE
  5
3C7
330
5A
100
AcDbEntity
  8
LC-001-002-----0
  6
Continuous
 62
     7
100
AcDbLine
 10
-97.76097200000004
 20
0.00412799999685
 30
0.0
 11
-98.98979800000234
 21
0.00411999999778
 31
0.0
  0
LINE
  5
3C8
330
5A
100
AcDbEntity
  8
LC-001-002-----0
  6
Continuous
 62
     7
100
AcDbLine
 10
-90.26097200000004
 20
0.00417499999821
 30
0.0
 11
-88.01097600000139
 21
0.00418899999931
 31
0.0
  0
LINE
  5
3C9
330
5A
100
AcDbEntity
  8
LC-001-002-----0
  6
Continuous
 62
     7
100
AcDbLine
 10
100.2499260000004
 20
-0.00030200000037
 30
0.0
 11
100.249993999998
 21
1.53427799999918
 31
0.0
  0
LINE
  5
3CA
330
5A
100
AcDbEntity
  8
LC-001-002-----0
  6
Continuous
 62
     7
100
AcDbLine
 10
87.74992600000041
 20
0.00030199999674
 30
0.0
 11
87.74999399999797
 21
1.53480399999899
 31
0.0
  0
LINE
  5
3CB
330
5A
100
AcDbEntity
  8
LC-001-002-----0
  6
Continuous
 62
     7
100
AcDbLine
 10
100.2499260000004
 20
-0.00030200000037
 30
0.0
 11
87.74992600000041
 21
0.00030199999674
 31
0.0
  0
LINE
  5
3CC
330
5A
100
AcDbEntity
  8
LC-001-002-----0
  6
Continuous
 62
     7
100
AcDbLine
 10
97.74992600000041
 20
-0.00018900000214
 30
0.0
 11
98.97875199999908
 21
-0.0002510000013
 31
0.0
  0
LINE
  5
3CD
330
5A
100
AcDbEntity
  8
LC-001-002-----0
  6
Continuous
 62
     7
100
AcDbLine
 10
90.24992600000041
 20
0.0001889999985
 30
0.0
 11
87.99992999999813
 21
0.00030299999707
 31
0.0
  0
LINE
  5
3CE
330
5A
100
AcDbEntity
  8
LC-001-002-----0
  6
Continuous
 62
     7
100
AcDbLine
 10
87.74992600000041
 20
0.00404199999684
 30
0.0
 11
87.73903199999768
 21
0.00404199999684
 31
0.0
  0
LINE
  5
3CF
330
5A
100
AcDbEntity
  8
LC-001-002-----0
  6
Continuous
 62
     7
100
AcDbLine
 10
-100.2609680000023
 20
0.00412499999948
 30
0.0
 11
-100.2609680000023
 21
0.00404199999684
 31
0.0
  0
LINE
  5
3D0
330
5A
100
AcDbEntity
  8
LC-001-002-----0
  6
Continuous
 62
     7
100
AcDbLine
 10
-90.86097200000222
 20
0.00404199999684
 30
0.0
 11
-87.76096800000232
 21
0.00404199999684
 31
0.0
  0
LINE
  5
3D1
330
5A
100
AcDbEntity
  8
LC-001-002-----0
  6
Continuous
 62
     7
100
AcDbLine
 10
-100.2609680000023
 20
0.00404199999684
 30
0.0
 11
-97.1609720000015
 21
0.00404199999684
 31
0.0
  0
LINE
  5
3D2
330
5A
100
AcDbEntity
  8
1
  6
PHANTOM
 62
     2
100
AcDbLine
 10
-0.00000000017481
 20
-492.1855785945904
 30
0.0
 11
0.00002749727961
 21
-512.2071984950993
 31
0.0
  0
LINE
  5
3D3
330
5A
100
AcDbEntity
  8
LC-005-002-----0
  6
Continuous
 62
     7
100
AcDbLine
 10
-55.00000000000034
 20
-492.1856541309356
 30
0.0
 11
-54.99997250254592
 21
-512.2072740314445
 31
0.0
  0
LINE
  5
3D4
330
5A
100
AcDbEntity
  8
LC-005-002-----0
  6
Continuous
 62
     7
100
AcDbLine
 10
-55.00000000000034
 20
-492.1856541309356
 30
0.0
 11
-2.29995800000029
 21
-492.1856541309356
 31
0.0
  0
LINE
  5
3D5
330
5A
100
AcDbEntity
  8
LC-005-002-----0
  6
Continuous
 62
     7
100
AcDbLine
 10
54.99999999999967
 20
-492.1857571309357
 30
0.0
 11
55.00002734934026
 21
-512.099531370463
 31
0.0
  0
LINE
  5
3D6
330
5A
100
AcDbEntity
  8
LC-005-002-----0
  6
Continuous
 62
     7
100
AcDbLine
 10
2.79499899999973
 20
-492.1857571309357
 30
0.0
 11
54.99999999999967
 21
-492.1857571309357
 31
0.0
  0
LWPOLYLINE
  5
3D7
330
5A
100
AcDbEntity
  8
LC-005-002-----0
  6
Continuous
 62
     7
100
AcDbPolyline
 90
        2
 70
     0
 43
1.0
 10
-0.00000000000034
 20
-492.1857571309357
 10
1.86498399999959
 20
-478.0197991309357
  0
LWPOLYLINE
  5
3D8
330
5A
100
AcDbEntity
  8
LC-005-002-----0
  6
Continuous
 62
     7
100
AcDbPolyline
 90
        2
 70
     0
 43
1.0
 10
-0.00000000000034
 20
-492.1857571309357
 10
-1.86502200000041
 20
-478.0198041309357
  0
LWPOLYLINE
  5
3D9
330
5A
100
AcDbEntity
  8
LC-005-002-----0
  6
Continuous
 62
     7
100
AcDbPolyline
 90
        2
 70
     0
 43
1.0
 10
-1.86502200000041
 20
-478.0198041309357
 10
1.86498399999959
 20
-478.0198041309357
  0
LWPOLYLINE
  5
3DA
330
5A
100
AcDbEntity
  8
LC-006-005-----0
  6
Continuous
 62
     3
100
AcDbPolyline
 90
        2
 70
     0
 43
1.0
 10
1.82146399999965
 20
-478.3503691309356
 10
1.49089899999967
 20
-478.0198041309357
  0
LWPOLYLINE
  5
3DB
330
5A
100
AcDbEntity
  8
LC-006-005-----0
  6
Continuous
 62
     3
100
AcDbPolyline
 90
        2
 70
     0
 43
1.0
 10
1.7556539999996
 20
-478.8502441309357
 10
0.92521399999964
 20
-478.0198041309357
  0
LWPOLYLINE
  5
3DC
330
5A
100
AcDbEntity
  8
LC-006-005-----0
  6
Continuous
 62
     3
100
AcDbPolyline
 90
        2
 70
     0
 43
1.0
 10
1.68984399999965
 20
-479.3501201309356
 10
0.35952799999961
 20
-478.0198041309357
  0
LWPOLYLINE
  5
3DD
330
5A
100
AcDbEntity
  8
LC-006-005-----0
  6
Continuous
 62
     3
100
AcDbPolyline
 90
        2
 70
     0
 43
1.0
 10
1.6240339999996
 20
-479.8499951309357
 10
-0.2061570000003
 20
-478.0198041309357
  0
LWPOLYLINE
  5
3DE
330
5A
100
AcDbEntity
  8
LC-006-005-----0
  6
Continuous
 62
     3
100
AcDbPolyline
 90
        2
 70
     0
 43
1.0
 10
1.55822399999965
 20
-480.3498711309356
 10
-0.77184200000033
 20
-478.0198041309357
  0
LWPOLYLINE
  5
3DF
330
5A
100
AcDbEntity
  8
LC-006-005-----0
  6
Continuous
 62
     3
100
AcDbPolyline
 90
        2
 70
     0
 43
1.0
 10
1.49241499999971
 20
-480.8497461309356
 10
-1.33752800000036
 20
-478.0198041309357
  0
LWPOLYLINE
  5
3E0
330
5A
100
AcDbEntity
  8
LC-006-005-----0
  6
Continuous
 62
     3
100
AcDbPolyline
 90
        2
 70
     0
 43
1.0
 10
1.42660499999965
 20
-481.3496221309356
 10
-1.85923200000036
 20
-478.0637851309356
  0
LWPOLYLINE
  5
3E1
330
5A
100
AcDbEntity
  8
LC-006-005-----0
  6
Continuous
 62
     3
100
AcDbPolyline
 90
        2
 70
     0
 43
1.0
 10
1.36079499999971
 20
-481.8494971309356
 10
-1.77346500000033
 20
-478.7152381309356
  0
LWPOLYLINE
  5
3E2
330
5A
100
AcDbEntity
  8
LC-006-005-----0
  6
Continuous
 62
     3
100
AcDbPolyline
 90
        2
 70
     0
 43
1.0
 10
1.29498499999966
 20
-482.3493731309357
 10
-1.68769700000041
 20
-479.3666911309356
  0
LWPOLYLINE
  5
3E3
330
5A
100
AcDbEntity
  8
LC-006-005-----0
  6
Continuous
 62
     3
100
AcDbPolyline
 90
        2
 70
     0
 43
1.0
 10
1.22917499999971
 20
-482.8492491309356
 10
-1.60193000000038
 20
-480.0181431309356
  0
LWPOLYLINE
  5
3E4
330
5A
100
AcDbEntity
  8
LC-006-005-----0
  6
Continuous
 62
     3
100
AcDbPolyline
 90
        2
 70
     0
 43
1.0
 10
1.16336499999966
 20
-483.3491241309357
 10
-1.51616300000035
 20
-480.6695961309356
  0
LWPOLYLINE
  5
3E5
330
5A
100
AcDbEntity
  8
LC-006-005-----0
  6
Continuous
 62
     3
100
AcDbPolyline
 90
        2
 70
     0
 43
1.0
 10
1.0975549999996
 20
-483.8490001309356
 10
-1.43039600000031
 20
-481.3210481309357
  0
LWPOLYLINE
  5
3E6
330
5A
100
AcDbEntity
  8
LC-006-005-----0
  6
Continuous
 62
     3
100
AcDbPolyline
 90
        2
 70
     0
 43
1.0
 10
1.03174599999966
 20
-484.3488751309357
 10
-1.3446290000004
 20
-481.9725011309357
  0
LWPOLYLINE
  5
3E7
330
5A
100
AcDbEntity
  8
LC-006-005-----0
  6
Continuous
 62
     3
100
AcDbPolyline
 90
        2
 70
     0
 43
1.0
 10
0.9659359999996
 20
-484.8487511309356
 10
-1.25886200000036
 20
-482.6239541309357
  0
LWPOLYLINE
  5
3E8
330
5A
100
AcDbEntity
  8
LC-006-005-----0
  6
Continuous
 62
     3
100
AcDbPolyline
 90
        2
 70
     0
 43
1.0
 10
0.90012599999966
 20
-485.3486261309357
 10
-1.17309400000033
 20
-483.2754061309357
  0
LWPOLYLINE
  5
3E9
330
5A
100
AcDbEntity
  8
LC-006-005-----0
  6
Continuous
 62
     3
100
AcDbPolyline
 90
        2
 70
     0
 43
1.0
 10
0.83431599999972
 20
-485.8485021309356
 10
-1.08732700000041
 20
-483.9268591309357
  0
LWPOLYLINE
  5
3EA
330
5A
100
AcDbEntity
  8
LC-006-005-----0
  6
Continuous
 62
     3
100
AcDbPolyline
 90
        2
 70
     0
 43
1.0
 10
0.76850599999966
 20
-486.3483781309357
 10
-1.00156000000038
 20
-484.5783111309356
  0
LWPOLYLINE
  5
3EB
330
5A
100
AcDbEntity
  8
LC-006-005-----0
  6
Continuous
 62
     3
100
AcDbPolyline
 90
        2
 70
     0
 43
1.0
 10
0.70269599999961
 20
-486.8482531309356
 10
-0.91579300000035
 20
-485.2297641309356
  0
LWPOLYLINE
  5
3EC
330
5A
100
AcDbEntity
  8
LC-006-005-----0
  6
Continuous
 62
     3
100
AcDbPolyline
 90
        2
 70
     0
 43
1.0
 10
0.63688599999966
 20
-487.3481291309357
 10
-0.83002600000032
 20
-485.8812171309356
  0
LWPOLYLINE
  5
3ED
330
5A
100
AcDbEntity
  8
LC-006-005-----0
  6
Continuous
 62
     3
100
AcDbPolyline
 90
        2
 70
     0
 43
1.0
 10
0.57107599999972
 20
-487.8480041309356
 10
-0.7442580000004
 20
-486.5326691309356
  0
LWPOLYLINE
  5
3EE
330
5A
100
AcDbEntity
  8
LC-006-005-----0
  6
Continuous
 62
     3
100
AcDbPolyline
 90
        2
 70
     0
 43
1.0
 10
0.50526699999966
 20
-488.3478801309357
 10
-0.65849100000037
 20
-487.1841221309356
  0
LWPOLYLINE
  5
3EF
330
5A
100
AcDbEntity
  8
LC-006-005-----0
  6
Continuous
 62
     3
100
AcDbPolyline
 90
        2
 70
     0
 43
1.0
 10
0.43945699999972
 20
-488.8477551309356
 10
-0.57272400000033
 20
-487.8355741309356
  0
LWPOLYLINE
  5
3F0
330
5A
100
AcDbEntity
  8
LC-006-005-----0
  6
Continuous
 62
     3
100
AcDbPolyline
 90
        2
 70
     0
 43
1.0
 10
0.37364699999966
 20
-489.3476311309357
 10
-0.4869570000003
 20
-488.4870271309356
  0
LWPOLYLINE
  5
3F1
330
5A
100
AcDbEntity
  8
LC-006-005-----0
  6
Continuous
 62
     3
100
AcDbPolyline
 90
        2
 70
     0
 43
1.0
 10
0.30783699999961
 20
-489.8475061309356
 10
-0.40119000000038
 20
-489.1384801309357
  0
LWPOLYLINE
  5
3F2
330
5A
100
AcDbEntity
  8
LC-006-005-----0
  6
Continuous
 62
     3
100
AcDbPolyline
 90
        2
 70
     0
 43
1.0
 10
0.24202699999967
 20
-490.3473821309356
 10
-0.31542300000035
 20
-489.7899321309357
  0
LWPOLYLINE
  5
3F3
330
5A
100
AcDbEntity
  8
LC-006-005-----0
  6
Continuous
 62
     3
100
AcDbPolyline
 90
        2
 70
     0
 43
1.0
 10
0.17621699999961
 20
-490.8472581309356
 10
-0.22965500000032
 20
-490.4413851309357
  0
LWPOLYLINE
  5
3F4
330
5A
100
AcDbEntity
  8
LC-006-005-----0
  6
Continuous
 62
     3
100
AcDbPolyline
 90
        2
 70
     0
 43
1.0
 10
0.11040699999967
 20
-491.3471331309356
 10
-0.14388800000029
 20
-491.0928381309357
  0
LWPOLYLINE
  5
3F5
330
5A
100
AcDbEntity
  8
LC-006-005-----0
  6
Continuous
 62
     3
100
AcDbPolyline
 90
        2
 70
     0
 43
1.0
 10
0.04459799999961
 20
-491.8470091309357
 10
-0.05812100000037
 20
-491.7442901309357
  0
LINE
  5
3F6
330
5A
100
AcDbEntity
  8
1
  6
Continuous
 62
     7
100
AcDbLine
 10
-54.99997250254592
 20
-512.2072740314445
 30
0.0
 11
-37.4999730000004
 21
-509.7072741309356
 31
0.0
  0
LINE
  5
3F7
330
5A
100
AcDbEntity
  8
1
  6
Continuous
 62
     7
100
AcDbLine
 10
-37.4999730000004
 20
-509.7072741309356
 30
0.0
 11
-10.99997300000041
 21
-514.7072741309356
 31
0.0
  0
LINE
  5
3F8
330
5A
100
AcDbEntity
  8
1
  6
Continuous
 62
     7
100
AcDbLine
 10
-10.99997300000041
 20
-514.7072741309356
 30
0.0
 11
13.00002699999959
 21
-511.7072741309356
 31
0.0
  0
LINE
  5
3F9
330
5A
100
AcDbEntity
  8
1
  6
Continuous
 62
     7
100
AcDbLine
 10
13.00002699999959
 20
-511.7072741309356
 30
0.0
 11
32.00002699999959
 21
-514.7072741309356
 31
0.0
  0
LINE
  5
3FA
330
5A
100
AcDbEntity
  8
1
  6
Continuous
 62
     7
100
AcDbLine
 10
32.00002699999959
 20
-514.7072741309356
 30
0.0
 11
55.00002734934026
 21
-512.099531370463
 31
0.0
  0
LINE
  5
3FB
330
5A
100
AcDbEntity
  8
LC-001-002-----0
  6
Continuous
 62
     7
100
AcDbLine
 10
49.99996700000008
 20
-32.736469
 30
0.0
 11
80.75
 21
-32.736469
 31
0.0
  0
LINE
  5
3FC
330
5A
100
AcDbEntity
  8
LC-001-002-----0
  6
Continuous
 62
     7
100
AcDbLine
 10
43.99996700000008
 20
-31.736469
 30
0.0
 11
-43.99996699999997
 21
-31.736469
 31
0.0
  0
LINE
  5
3FD
330
5A
100
AcDbEntity
  8
LC-001-002-----0
  6
Continuous
 62
     7
100
AcDbLine
 10
44.49996700000008
 20
-37.73642599999999
 30
0.0
 11
43.99996700000008
 21
-37.23642599999999
 31
0.0
  0
LINE
  5
3FE
330
5A
100
AcDbEntity
  8
LC-001-002-----0
  6
Continuous
 62
     7
100
AcDbLine
 10
49.49996700000008
 20
-37.73642599999999
 30
0.0
 11
49.99996700000008
 21
-37.23642599999999
 31
0.0
  0
LINE
  5
3FF
330
5A
100
AcDbEntity
  8
LC-001-002-----0
  6
Continuous
 62
     7
100
AcDbLine
 10
49.99996700000008
 20
-37.23642599999999
 30
0.0
 11
49.99996700000008
 21
-30.23647699999998
 31
0.0
  0
LINE
  5
400
330
5A
100
AcDbEntity
  8
LC-001-002-----0
  6
Continuous
 62
     7
100
AcDbLine
 10
49.49996700000008
 20
-37.73642599999999
 30
0.0
 11
44.49996700000008
 21
-37.73642599999999
 31
0.0
  0
LINE
  5
401
330
5A
100
AcDbEntity
  8
LC-001-002-----0
  6
Continuous
 62
     7
100
AcDbLine
 10
43.99996700000008
 20
-37.23642599999999
 30
0.0
 11
43.99996700000008
 21
-30.23643999999996
 31
0.0
  0
LINE
  5
402
330
5A
100
AcDbEntity
  8
LC-001-002-----0
  6
DASHDOT
 62
     2
100
AcDbLine
 10
46.99996700000008
 20
12.26357400000001
 30
0.0
 11
46.99996700000008
 21
-37.73642599999999
 31
0.0
  0
LINE
  5
403
330
5A
100
AcDbEntity
  8
LC-001-002-----0
  6
Continuous
 62
     7
100
AcDbLine
 10
-49.99996699999997
 20
-31.736469
 30
0.0
 11
-81.75
 21
-31.736469
 31
0.0
  0
LINE
  5
404
330
5A
100
AcDbEntity
  8
LC-001-002-----0
  6
Continuous
 62
     7
100
AcDbLine
 10
-43.99996699999997
 20
-32.736469
 30
0.0
 11
43.99996700000008
 21
-32.736469
 31
0.0
  0
LINE
  5
405
330
5A
100
AcDbEntity
  8
LC-001-002-----0
  6
Continuous
 62
     7
100
AcDbLine
 10
-44.49996699999997
 20
-37.73642599999999
 30
0.0
 11
-43.99996699999997
 21
-37.23642599999999
 31
0.0
  0
LINE
  5
406
330
5A
100
AcDbEntity
  8
LC-001-002-----0
  6
Continuous
 62
     7
100
AcDbLine
 10
-49.49996699999997
 20
-37.73642599999999
 30
0.0
 11
-49.99996699999997
 21
-37.23642599999999
 31
0.0
  0
LINE
  5
407
330
5A
100
AcDbEntity
  8
LC-001-002-----0
  6
Continuous
 62
     7
100
AcDbLine
 10
-49.99996699999997
 20
-37.23642599999999
 30
0.0
 11
-49.99996699999997
 21
-30.23647699999998
 31
0.0
  0
LINE
  5
408
330
5A
100
AcDbEntity
  8
LC-001-002-----0
  6
Continuous
 62
     7
100
AcDbLine
 10
-49.49996699999997
 20
-37.73642599999999
 30
0.0
 11
-44.49996699999997
 21
-37.73642599999999
 31
0.0
  0
LINE
  5
409
330
5A
100
AcDbEntity
  8
LC-001-002-----0
  6
Continuous
 62
     7
100
AcDbLine
 10
-43.99996699999997
 20
-37.23642599999999
 30
0.0
 11
-43.99996699999997
 21
-30.23643999999996
 31
0.0
  0
LINE
  5
40A
330
5A
100
AcDbEntity
  8
LC-001-002-----0
  6
DASHDOT
 62
     2
100
AcDbLine
 10
-46.99996699999997
 20
12.26357400000001
 30
0.0
 11
-46.99996699999997
 21
-37.73642599999999
 31
0.0
  0
LINE
  5
40B
330
5A
100
AcDbEntity
  8
LC-001-002-----0
  6
DASHDOT
 62
     2
100
AcDbLine
 10
-93.99993699999993
 20
12.26357400000001
 30
0.0
 11
-93.99993699999993
 21
-37.73642599999999
 31
0.0
  0
LINE
  5
40C
330
5A
100
AcDbEntity
  8
LC-001-002-----0
  6
DASHDOT
 62
     2
100
AcDbLine
 10
93.99993700000005
 20
12.26357400000001
 30
0.0
 11
93.99993700000005
 21
-37.73642599999999
 31
0.0
  0
LINE
  5
40D
330
5A
100
AcDbEntity
  8
LC-001-002-----0
  6
Continuous
 62
     7
100
AcDbLine
 10
-127.741663
 20
-3.236469
 30
0.0
 11
128.010255
 21
-3.236469
 31
0.0
  0
LINE
  5
40E
330
5A
100
AcDbEntity
  8
LC-001-002-----0
  6
Continuous
 62
     7
100
AcDbLine
 10
128.010255
 20
-6.236469
 30
0.0
 11
-128.015855
 21
-6.236469
 31
0.0
  0
LINE
  5
40F
330
5A
100
AcDbEntity
  8
LC-001-002-----0
  6
Continuous
 62
     7
100
AcDbLine
 10
-101.005186
 20
-14.99480499999999
 30
0.0
 11
101.005186
 21
-14.99480499999999
 31
0.0
  0
LINE
  5
410
330
5A
100
AcDbEntity
  8
LC-001-002-----0
  6
Continuous
 62
     7
100
AcDbLine
 10
100.005186
 20
-15.99460999999997
 30
0.0
 11
-100.00518
 21
-15.99460999999997
 31
0.0
  0
LINE
  5
411
330
5A
100
AcDbEntity
  8
LC-001-002-----0
  6
Continuous
 62
     7
100
AcDbLine
 10
-85.500001
 20
-30.23617300000001
 30
0.0
 11
85.500001
 21
-30.23617300000001
 31
0.0
  0
LINE
  5
412
330
5A
100
AcDbEntity
  8
LC-001-002-----0
  6
Continuous
 62
     7
100
AcDbLine
 10
81.75
 20
-31.736469
 30
0.0
 11
49.99996700000008
 21
-31.736469
 31
0.0
  0
LINE
  5
413
330
5A
100
AcDbEntity
  8
LC-001-002-----0
  6
Continuous
 62
     7
100
AcDbLine
 10
-80.75
 20
-32.736469
 30
0.0
 11
-49.99996699999997
 21
-32.736469
 31
0.0
  0
LINE
  5
414
330
5A
100
AcDbEntity
  8
LC-001-002-----0
  6
Continuous
 62
     7
100
AcDbLine
 10
-91.49993699999993
 20
-37.73642599999999
 30
0.0
 11
-90.99993699999993
 21
-37.23642599999999
 31
0.0
  0
LINE
  5
415
330
5A
100
AcDbEntity
  8
LC-001-002-----0
  6
Continuous
 62
     7
100
AcDbLine
 10
-96.49993699999993
 20
-37.73642599999999
 30
0.0
 11
-96.99993699999993
 21
-37.23642599999999
 31
0.0
  0
LINE
  5
416
330
5A
100
AcDbEntity
  8
LC-001-002-----0
  6
Continuous
 62
     7
100
AcDbLine
 10
-96.99993699999993
 20
-37.23642599999999
 30
0.0
 11
-96.99993699999993
 21
-30.23647699999998
 31
0.0
  0
LINE
  5
417
330
5A
100
AcDbEntity
  8
LC-001-002-----0
  6
Continuous
 62
     7
100
AcDbLine
 10
-96.49993699999993
 20
-37.73642599999999
 30
0.0
 11
-91.49993699999993
 21
-37.73642599999999
 31
0.0
  0
LINE
  5
418
330
5A
100
AcDbEntity
  8
LC-001-002-----0
  6
Continuous
 62
     7
100
AcDbLine
 10
-90.99993699999993
 20
-37.23642599999999
 30
0.0
 11
-90.99993699999993
 21
-30.23643999999996
 31
0.0
  0
LINE
  5
419
330
5A
100
AcDbEntity
  8
LC-001-002-----0
  6
Continuous
 62
     7
100
AcDbLine
 10
91.49993700000005
 20
-37.73642599999999
 30
0.0
 11
90.99993700000005
 21
-37.23642599999999
 31
0.0
  0
LINE
  5
41A
330
5A
100
AcDbEntity
  8
LC-001-002-----0
  6
Continuous
 62
     7
100
AcDbLine
 10
96.49993700000005
 20
-37.73642599999999
 30
0.0
 11
96.99993700000005
 21
-37.23642599999999
 31
0.0
  0
LINE
  5
41B
330
5A
100
AcDbEntity
  8
LC-001-002-----0
  6
Continuous
 62
     7
100
AcDbLine
 10
96.99993700000005
 20
-37.23642599999999
 30
0.0
 11
96.99993700000005
 21
-30.23646399999996
 31
0.0
  0
LINE
  5
41C
330
5A
100
AcDbEntity
  8
LC-001-002-----0
  6
Continuous
 62
     7
100
AcDbLine
 10
96.49993700000005
 20
-37.73642599999999
 30
0.0
 11
91.49993700000005
 21
-37.73642599999999
 31
0.0
  0
LINE
  5
41D
330
5A
100
AcDbEntity
  8
LC-001-002-----0
  6
Continuous
 62
     7
100
AcDbLine
 10
90.99993700000005
 20
-37.23642599999999
 30
0.0
 11
90.99993700000005
 21
-30.236334
 31
0.0
  0
LINE
  5
41E
330
5A
100
AcDbEntity
  8
LC-001-002-----0
  6
Continuous
 62
     7
100
AcDbLine
 10
140.919893
 20
-3.236469
 30
0.0
 11
231.9954280000001
 21
-3.236469
 31
0.0
  0
LINE
  5
41F
330
5A
100
AcDbEntity
  8
LC-001-002-----0
  6
Continuous
 62
     7
100
AcDbLine
 10
127.246697
 20
0.0
 30
0.0
 11
231.9937100000001
 21
0.0
 31
0.0
  0
LINE
  5
420
330
5A
100
AcDbEntity
  8
LC-001-002-----0
  6
Continuous
 62
     7
100
AcDbLine
 10
221.9954280000001
 20
0.0
 30
0.0
 11
231.9954280000001
 21
0.0
 31
0.0
  0
LINE
  5
421
330
5A
100
AcDbEntity
  8
LC-001-002-----0
  6
Continuous
 62
     7
100
AcDbLine
 10
231.9954280000001
 20
0.0
 30
0.0
 11
231.9954280000001
 21
-3.236469
 31
0.0
  0
LINE
  5
422
330
5A
100
AcDbEntity
  8
LC-001-002-----0
  6
Continuous
 62
     7
100
AcDbLine
 10
127.246697
 20
0.0
 30
0.0
 11
-231.993711
 21
0.0
 31
0.0
  0
LINE
  5
423
330
5A
100
AcDbEntity
  8
LC-001-002-----0
  6
DASHDOT
 62
     2
100
AcDbLine
 10
0.0
 20
-54.80111799999997
 30
0.0
 11
0.0
 21
-348.236469
 31
0.0
  0
LINE
  5
424
330
5A
100
AcDbEntity
  8
LC-001-002-----0
  6
DASHDOT
 62
     2
100
AcDbLine
 10
0.0
 20
70.79348700000003
 30
0.0
 11
0.0
 21
-54.37111799999997
 31
0.0
  0
LINE
  5
425
330
5A
100
AcDbEntity
  8
LC-001-002-----0
  6
Continuous
 62
     7
100
AcDbLine
 10
101.005186
 20
-14.99480499999999
 30
0.0
 11
100.005186
 21
-15.99460999999997
 31
0.0
  0
LINE
  5
426
330
5A
100
AcDbEntity
  8
LC-001-002-----0
  6
Continuous
 62
     7
100
AcDbLine
 10
-101.005186
 20
-14.99480499999999
 30
0.0
 11
-100.00518
 21
-15.99461600000001
 31
0.0
  0
LINE
  5
427
330
5A
100
AcDbEntity
  8
LC-001-002-----0
  6
Continuous
 62
     7
100
AcDbLine
 10
-177.0
 20
-5.236469
 30
0.0
 11
-177.0
 21
-6.236469
 31
0.0
  0
LINE
  5
428
330
5A
100
AcDbEntity
  8
LC-001-002-----0
  6
Continuous
 62
     7
100
AcDbLine
 10
-128.010255
 20
-6.236469
 30
0.0
 11
-177.0
 21
-6.236469
 31
0.0
  0
LINE
  5
429
330
5A
100
AcDbEntity
  8
LC-001-002-----0
  6
Continuous
 62
     7
100
AcDbLine
 10
-127.599904
 20
-3.236469
 30
0.0
 11
-175.0
 21
-3.236469
 31
0.0
  0
LINE
  5
42A
330
5A
100
AcDbEntity
  8
LC-001-002-----0
  6
Continuous
 62
     7
100
AcDbLine
 10
128.010255
 20
-6.236469
 30
0.0
 11
177.0000000000001
 21
-6.236469
 31
0.0
  0
LINE
  5
42B
330
5A
100
AcDbEntity
  8
LC-001-002-----0
  6
Continuous
 62
     7
100
AcDbLine
 10
127.736207
 20
-3.236469
 30
0.0
 11
175.0000000000001
 21
-3.236469
 31
0.0
  0
LINE
  5
42C
330
5A
100
AcDbEntity
  8
LC-001-002-----0
  6
Continuous
 62
     7
100
AcDbLine
 10
177.0000000000001
 20
-5.236469
 30
0.0
 11
177.0000000000001
 21
-6.236469
 31
0.0
  0
LINE
  5
42D
330
5A
100
AcDbEntity
  8
LC-001-002-----0
  6
Continuous
 62
     7
100
AcDbLine
 10
96.49993700000005
 20
-30.23645799999997
 30
0.0
 11
85.500001
 21
-30.23620999999997
 31
0.0
  0
LINE
  5
42E
330
5A
100
AcDbEntity
  8
LC-001-002-----0
  6
Continuous
 62
     7
100
AcDbLine
 10
99.50519700000007
 20
-30.236469
 30
0.0
 11
96.49993700000005
 21
-30.23646299999996
 31
0.0
  0
LINE
  5
42F
330
5A
100
AcDbEntity
  8
LC-001-002-----0
  6
Continuous
 62
     7
100
AcDbLine
 10
100.005186
 20
-15.99460999999997
 30
0.0
 11
100.0051970000001
 21
-29.736468
 31
0.0
  0
LINE
  5
430
330
5A
100
AcDbEntity
  8
LC-001-002-----0
  6
Continuous
 62
     7
100
AcDbLine
 10
128.010255
 20
-6.236469
 30
0.0
 11
103.938662
 21
-14.99508900000001
 31
0.0
  0
LINE
  5
431
330
5A
100
AcDbEntity
  8
LC-001-002-----0
  6
Continuous
 62
     7
100
AcDbLine
 10
-94.00348899999995
 20
-30.23658499999999
 30
0.0
 11
-85.500001
 21
-30.23617300000001
 31
0.0
  0
LINE
  5
432
330
5A
100
AcDbEntity
  8
LC-001-002-----0
  6
Continuous
 62
     7
100
AcDbLine
 10
-99.50509599999998
 20
-30.236492
 30
0.0
 11
-94.00348999999994
 21
-30.23645899999997
 31
0.0
  0
LINE
  5
433
330
5A
100
AcDbEntity
  8
LC-001-002-----0
  6
Continuous
 62
     7
100
AcDbLine
 10
-100.00518
 20
-15.99461600000001
 30
0.0
 11
-100.005098
 21
-29.73649499999999
 31
0.0
  0
LINE
  5
434
330
5A
100
AcDbEntity
  8
LC-001-002-----0
  6
Continuous
 62
     7
100
AcDbLine
 10
-128.015855
 20
-6.236469
 30
0.0
 11
-103.951415
 21
-14.995091
 31
0.0
  0
LINE
  5
435
330
5A
100
AcDbEntity
  8
LC-001-002-----0
  6
Continuous
 62
     7
100
AcDbLine
 10
85.500001
 20
-31.736469
 30
0.0
 11
85.500001
 21
-30.23620999999997
 31
0.0
  0
LINE
  5
436
330
5A
100
AcDbEntity
  8
LC-001-002-----0
  6
Continuous
 62
     7
100
AcDbLine
 10
103.938662
 20
-14.99508900000001
 30
0.0
 11
101.005186
 21
-14.99480499999999
 31
0.0
  0
LINE
  5
437
330
5A
100
AcDbEntity
  8
LC-001-002-----0
  6
Continuous
 62
     7
100
AcDbLine
 10
-85.500001
 20
-31.736469
 30
0.0
 11
-85.500001
 21
-30.23617300000001
 31
0.0
  0
LINE
  5
438
330
5A
100
AcDbEntity
  8
LC-001-002-----0
  6
Continuous
 62
     7
100
AcDbLine
 10
81.75
 20
-31.736469
 30
0.0
 11
80.75
 21
-32.736469
 31
0.0
  0
LINE
  5
439
330
5A
100
AcDbEntity
  8
LC-001-002-----0
  6
Continuous
 62
     7
100
AcDbLine
 10
85.500001
 20
-31.736469
 30
0.0
 11
81.75
 21
-31.736469
 31
0.0
  0
LINE
  5
43A
330
5A
100
AcDbEntity
  8
LC-001-002-----0
  6
Continuous
 62
     7
100
AcDbLine
 10
-81.75
 20
-31.736469
 30
0.0
 11
-80.75
 21
-32.736469
 31
0.0
  0
LINE
  5
43B
330
5A
100
AcDbEntity
  8
LC-001-002-----0
  6
Continuous
 62
     7
100
AcDbLine
 10
-103.951415
 20
-14.995091
 30
0.0
 11
-101.005186
 21
-14.99480499999999
 31
0.0
  0
LINE
  5
43C
330
5A
100
AcDbEntity
  8
LC-001-002-----0
  6
Continuous
 62
     7
100
AcDbLine
 10
-85.500001
 20
-31.736469
 30
0.0
 11
-81.75
 21
-31.736469
 31
0.0
  0
LINE
  5
43D
330
5A
100
AcDbEntity
  8
LC-001-002-----0
  6
Continuous
 62
     7
100
AcDbLine
 10
-221.995428
 20
-3.236469
 30
0.0
 11
-231.995428
 21
-3.236469
 31
0.0
  0
LINE
  5
43E
330
5A
100
AcDbEntity
  8
LC-001-002-----0
  6
Continuous
 62
     7
100
AcDbLine
 10
-221.995428
 20
0.0
 30
0.0
 11
-231.995428
 21
0.0
 31
0.0
  0
LINE
  5
43F
330
5A
100
AcDbEntity
  8
LC-001-002-----0
  6
Continuous
 62
     7
100
AcDbLine
 10
-65.6508849999999
 20
0.99361300000004
 30
0.0
 11
-59.70296099999996
 21
0.99362600000001
 31
0.0
  0
LINE
  5
440
330
5A
100
AcDbEntity
  8
LC-001-002-----0
  6
Continuous
 62
     7
100
AcDbLine
 10
-33.1421509999999
 20
0.99368300000003
 30
0.0
 11
-18.78260799999998
 21
0.99371400000001
 31
0.0
  0
LINE
  5
441
330
5A
100
AcDbEntity
  8
LC-001-002-----0
  6
Continuous
 62
     7
100
AcDbLine
 10
-16.56097799999998
 20
0.993719
 30
0.0
 11
-1.151297
 21
0.99375200000003
 31
0.0
  0
LINE
  5
442
330
5A
100
AcDbEntity
  8
LC-001-002-----0
  6
Continuous
 62
     7
100
AcDbLine
 10
-18.78260799999998
 20
0.99371400000001
 30
0.0
 11
-33.1421509999999
 21
0.99368300000003
 31
0.0
  0
LINE
  5
443
330
5A
100
AcDbEntity
  8
LC-001-002-----0
  6
Continuous
 62
     7
100
AcDbLine
 10
-1.151297
 20
0.99375200000003
 30
0.0
 11
-16.56097799999998
 21
0.993719
 31
0.0
  0
LINE
  5
444
330
5A
100
AcDbEntity
  8
LC-001-002-----0
  6
Continuous
 62
     7
100
AcDbLine
 10
-59.70296099999996
 20
0.99362600000001
 30
0.0
 11
-65.6508849999999
 21
0.99361300000004
 31
0.0
  0
LINE
  5
445
330
5A
100
AcDbEntity
  8
LC-001-002-----0
  6
Continuous
 62
     7
100
AcDbLine
 10
-140.919893
 20
-3.236469
 30
0.0
 11
-221.995428
 21
-3.236469
 31
0.0
  0
LINE
  5
446
330
5A
100
AcDbEntity
  8
LC-001-002-----0
  6
Continuous
 62
     7
100
AcDbLine
 10
58.54979700000001
 20
0.99388200000004
 30
0.0
 11
53.25000005355102
 21
0.99387005978444
 31
0.0
  0
LINE
  5
447
330
5A
100
AcDbEntity
  8
LC-001-002-----0
  6
Continuous
 62
     7
100
AcDbLine
 10
40.75000002781887
 20
0.99384285078331
 30
0.0
 11
35.13087000000007
 21
0.993831
 31
0.0
  0
LINE
  5
448
330
5A
100
AcDbEntity
  8
LC-001-002-----0
  6
Continuous
 62
     7
100
AcDbLine
 10
33.1390110000001
 20
0.99382700000001
 30
0.0
 11
18.77947500000005
 21
0.99379500000003
 31
0.0
  0
LINE
  5
449
330
5A
100
AcDbEntity
  8
LC-001-002-----0
  6
Continuous
 62
     7
100
AcDbLine
 10
16.55784600000004
 20
0.99379100000004
 30
0.0
 11
1.14870299999995
 21
0.99375700000002
 31
0.0
  0
LINE
  5
44A
330
5A
100
AcDbEntity
  8
LC-001-002-----0
  6
Continuous
 62
     7
100
AcDbLine
 10
79.48844399999996
 20
14.36525599999999
 30
0.0
 11
62.54234099999997
 21
60.92389400000002
 31
0.0
  0
LINE
  5
44B
330
5A
100
AcDbEntity
  8
LC-001-002-----0
  6
Continuous
 62
     7
100
AcDbLine
 10
-79.47633699999994
 20
14.40700000000004
 30
0.0
 11
-62.54563399999995
 21
60.923722
 31
0.0
  0
LINE
  5
44C
330
5A
100
AcDbEntity
  8
LC-001-002-----0
  6
Continuous
 62
     7
100
AcDbLine
 10
56.84483899999998
 20
5.61161000000004
 30
0.0
 11
47.69592948831206
 21
5.61161000000004
 31
0.0
  0
LINE
  5
44D
330
5A
100
AcDbEntity
  8
LC-001-002-----0
  6
Continuous
 62
     7
100
AcDbLine
 10
46.06441645721837
 20
5.61161000000004
 30
0.0
 11
34.14649599999996
 21
5.61161000000004
 31
0.0
  0
LINE
  5
44E
330
5A
100
AcDbEntity
  8
LC-001-002-----0
  6
Continuous
 62
     7
100
AcDbLine
 10
32.15463699999998
 20
5.61161000000004
 30
0.0
 11
18.26991600000008
 21
5.61161000000004
 31
0.0
  0
LINE
  5
44F
330
5A
100
AcDbEntity
  8
LC-001-002-----0
  6
Continuous
 62
     7
100
AcDbLine
 10
16.04828600000008
 20
5.61161000000004
 30
0.0
 11
1.14870299999995
 21
5.61161000000004
 31
0.0
  0
LINE
  5
450
330
5A
100
AcDbEntity
  8
LC-001-002-----0
  6
Continuous
 62
     7
100
AcDbLine
 10
-1.151297
 20
5.61161000000004
 30
0.0
 11
-16.051423
 21
5.61161000000004
 31
0.0
  0
LINE
  5
451
330
5A
100
AcDbEntity
  8
LC-001-002-----0
  6
Continuous
 62
     7
100
AcDbLine
 10
-18.273053
 20
5.61161000000004
 30
0.0
 11
-32.15775999999994
 21
5.61161000000004
 31
0.0
  0
LINE
  5
452
330
5A
100
AcDbEntity
  8
LC-001-002-----0
  6
Continuous
 62
     7
100
AcDbLine
 10
-34.14961800000003
 20
5.61161000000004
 30
0.0
 11
-46.0675195999048
 21
5.61161000000004
 31
0.0
  0
LINE
  5
453
330
5A
100
AcDbEntity
  8
LC-001-002-----0
  6
Continuous
 62
     7
100
AcDbLine
 10
-47.69903140939145
 20
5.61161000000004
 30
0.0
 11
-56.84792299999992
 21
5.61161000000004
 31
0.0
  0
LINE
  5
454
330
5A
100
AcDbEntity
  8
LC-001-002-----0
  6
Continuous
 62
     7
100
AcDbLine
 10
-53.24993398117294
 20
0.993639940945
 30
0.0
 11
-58.55295999999999
 21
0.993628
 31
0.0
  0
LINE
  5
455
330
5A
100
AcDbEntity
  8
LC-001-002-----0
  6
Continuous
 62
     7
100
AcDbLine
 10
-68.60858199999996
 20
0.993606
 30
0.0
 11
-66.2461689999999
 21
0.99361200000004
 31
0.0
  0
LINE
  5
456
330
5A
100
AcDbEntity
  8
LC-001-002-----0
  6
Continuous
 62
     7
100
AcDbLine
 10
-231.995428
 20
0.0
 30
0.0
 11
-231.995428
 21
-3.236469
 31
0.0
  0
LINE
  5
457
330
5A
100
AcDbEntity
  8
LC-001-002-----0
  6
Continuous
 62
     7
100
AcDbLine
 10
66.65229499999998
 20
0.0
 30
0.0
 11
54.12036500000011
 21
30.43125200000003
 31
0.0
  0
LINE
  5
458
330
5A
100
AcDbEntity
  8
LC-001-002-----0
  6
Continuous
 62
     7
100
AcDbLine
 10
66.05701099999999
 20
0.0
 30
0.0
 11
53.525081
 21
30.43125100000003
 31
0.0
  0
LINE
  5
459
330
5A
100
AcDbEntity
  8
LC-001-002-----0
  6
Continuous
 62
     7
100
AcDbLine
 10
52.20037300000001
 20
35.09356500000001
 30
0.0
 11
43.593526
 21
55.99354600000004
 31
0.0
  0
LINE
  5
45A
330
5A
100
AcDbEntity
  8
LC-001-002-----0
  6
Continuous
 62
     7
100
AcDbLine
 10
51.60508900000002
 20
35.09356300000002
 30
0.0
 11
42.99824200000001
 21
55.99354600000004
 31
0.0
  0
LINE
  5
45B
330
5A
100
AcDbEntity
  8
LC-001-002-----0
  6
Continuous
 62
     7
100
AcDbLine
 10
51.60508900000002
 20
35.09356300000002
 30
0.0
 11
42.99824200000001
 21
55.99354600000004
 31
0.0
  0
LINE
  5
45C
330
5A
100
AcDbEntity
  8
LC-001-002-----0
  6
Continuous
 62
     7
100
AcDbLine
 10
47.10951699999998
 20
35.09355099999999
 30
0.0
 11
39.39282300000002
 21
55.99354099999999
 31
0.0
  0
LINE
  5
45D
330
5A
100
AcDbEntity
  8
LC-001-002-----0
  6
Continuous
 62
     7
100
AcDbLine
 10
45.959518
 20
35.093548
 30
0.0
 11
38.24282300000004
 21
55.993539
 31
0.0
  0
LINE
  5
45E
330
5A
100
AcDbEntity
  8
LC-001-002-----0
  6
Continuous
 62
     7
100
AcDbLine
 10
60.06675900000005
 20
0.0
 30
0.0
 11
48.83093700000006
 21
30.43123800000001
 31
0.0
  0
LINE
  5
45F
330
5A
100
AcDbEntity
  8
LC-001-002-----0
  6
Continuous
 62
     7
100
AcDbLine
 10
58.91675799999996
 20
0.0
 30
0.0
 11
47.68093699999997
 21
30.43123500000002
 31
0.0
  0
LINE
  5
460
330
5A
100
AcDbEntity
  8
LC-001-002-----0
  6
Continuous
 62
     7
100
AcDbLine
 10
48.03003411694363
 20
4.50334833546529
 30
0.0
 11
47.69592948831206
 21
5.61161000000004
 31
0.0
  0
LINE
  5
461
330
5A
100
AcDbEntity
  8
LC-001-002-----0
  6
Continuous
 62
     7
100
AcDbLine
 10
46.38994281610052
 20
4.53368488928629
 30
0.0
 11
46.06441645721837
 21
5.61161000000004
 31
0.0
  0
LINE
  5
462
330
5A
100
AcDbEntity
  8
LC-001-002-----0
  6
Continuous
 62
     7
100
AcDbLine
 10
33.350865
 20
0.0
 30
0.0
 11
26.86384299999997
 21
30.43117799999999
 31
0.0
  0
LINE
  5
463
330
5A
100
AcDbEntity
  8
LC-001-002-----0
  6
Continuous
 62
     7
100
AcDbLine
 10
35.34272500000009
 20
0.0
 30
0.0
 11
28.85570100000007
 21
30.43118300000003
 31
0.0
  0
LINE
  5
464
330
5A
100
AcDbEntity
  8
LC-001-002-----0
  6
Continuous
 62
     7
100
AcDbLine
 10
38.80809600000009
 20
35.09352799999999
 30
0.0
 11
32.507428
 21
55.99353100000002
 31
0.0
  0
LINE
  5
465
330
5A
100
AcDbEntity
  8
LC-001-002-----0
  6
Continuous
 62
     7
100
AcDbLine
 10
37.16107100000011
 20
35.09352300000001
 30
0.0
 11
30.84940500000005
 21
55.99352900000002
 31
0.0
  0
LINE
  5
466
330
5A
100
AcDbEntity
  8
LC-001-002-----0
  6
Continuous
 62
     7
100
AcDbLine
 10
27.86183400000004
 20
35.09349800000001
 30
0.0
 11
23.4065710000001
 21
55.99351899999999
 31
0.0
  0
LINE
  5
467
330
5A
100
AcDbEntity
  8
LC-001-002-----0
  6
Continuous
 62
     7
100
AcDbLine
 10
25.86997600000007
 20
35.09349200000003
 30
0.0
 11
21.41471300000001
 21
55.993516
 31
0.0
  0
LINE
  5
468
330
5A
100
AcDbEntity
  8
LC-001-002-----0
  6
Continuous
 62
     7
100
AcDbLine
 10
15.01670300000001
 20
35.09346300000004
 30
0.0
 11
12.71046000000001
 21
55.99350400000003
 31
0.0
  0
LINE
  5
469
330
5A
100
AcDbEntity
  8
LC-001-002-----0
  6
Continuous
 62
     7
100
AcDbLine
 10
12.795073
 20
35.093457
 30
0.0
 11
10.48883100000001
 21
55.99350100000004
 31
0.0
  0
LINE
  5
46A
330
5A
100
AcDbEntity
  8
LC-001-002-----0
  6
Continuous
 62
     7
100
AcDbLine
 10
18.88913700000001
 20
0.0
 30
0.0
 11
15.53117200000008
 21
30.43114600000001
 31
0.0
  0
LINE
  5
46B
330
5A
100
AcDbEntity
  8
LC-001-002-----0
  6
Continuous
 62
     7
100
AcDbLine
 10
16.667507
 20
0.0
 30
0.0
 11
13.30954299999996
 21
30.43114000000003
 31
0.0
  0
LINE
  5
46C
330
5A
100
AcDbEntity
  8
LC-001-002-----0
  6
Continuous
 62
     7
100
AcDbLine
 10
-12.79829600000005
 20
35.09342100000004
 30
0.0
 11
-10.49211099999991
 21
55.993472
 31
0.0
  0
LINE
  5
46D
330
5A
100
AcDbEntity
  8
LC-001-002-----0
  6
Continuous
 62
     7
100
AcDbLine
 10
-15.01992499999994
 20
35.09342100000004
 30
0.0
 11
-12.71374000000003
 21
55.99346900000001
 31
0.0
  0
LINE
  5
46E
330
5A
100
AcDbEntity
  8
LC-001-002-----0
  6
Continuous
 62
     7
100
AcDbLine
 10
-25.873199
 20
35.09342100000004
 30
0.0
 11
-21.41799299999991
 21
55.99345700000004
 31
0.0
  0
LINE
  5
46F
330
5A
100
AcDbEntity
  8
LC-001-002-----0
  6
Continuous
 62
     7
100
AcDbLine
 10
-27.86505699999998
 20
35.09342100000004
 30
0.0
 11
-23.409851
 21
55.99345500000004
 31
0.0
  0
LINE
  5
470
330
5A
100
AcDbEntity
  8
LC-001-002-----0
  6
Continuous
 62
     7
100
AcDbLine
 10
-37.16429299999993
 20
35.09342100000004
 30
0.0
 11
-30.85268499999995
 21
55.99344400000001
 31
0.0
  0
LINE
  5
471
330
5A
100
AcDbEntity
  8
LC-001-002-----0
  6
Continuous
 62
     7
100
AcDbLine
 10
-38.81131799999992
 20
35.09342100000004
 30
0.0
 11
-32.51070799999991
 21
55.99344200000002
 31
0.0
  0
LINE
  5
472
330
5A
100
AcDbEntity
  8
LC-001-002-----0
  6
Continuous
 62
     7
100
AcDbLine
 10
-66.6553459999999
 20
0.0
 30
0.0
 11
-54.12357499999996
 21
30.43110400000001
 31
0.0
  0
LINE
  5
473
330
5A
100
AcDbEntity
  8
LC-001-002-----0
  6
Continuous
 62
     7
100
AcDbLine
 10
-66.0600619999999
 20
0.0
 30
0.0
 11
-53.52829099999997
 21
30.43110400000001
 31
0.0
  0
LINE
  5
474
330
5A
100
AcDbEntity
  8
LC-001-002-----0
  6
Continuous
 62
     7
100
AcDbLine
 10
-45.96274000000005
 20
35.09342100000004
 30
0.0
 11
-38.24610299999995
 21
55.99343400000004
 31
0.0
  0
LINE
  5
475
330
5A
100
AcDbEntity
  8
LC-001-002-----0
  6
Continuous
 62
     7
100
AcDbLine
 10
-47.11273999999992
 20
35.09342100000004
 30
0.0
 11
-39.39610299999993
 21
55.99343300000004
 31
0.0
  0
LINE
  5
476
330
5A
100
AcDbEntity
  8
LC-001-002-----0
  6
Continuous
 62
     7
100
AcDbLine
 10
-48.03320373196375
 20
4.50311268821832
 30
0.0
 11
-47.69903140939145
 21
5.61161000000004
 31
0.0
  0
LINE
  5
477
330
5A
100
AcDbEntity
  8
LC-001-002-----0
  6
Continuous
 62
     7
100
AcDbLine
 10
-46.39300261922216
 20
4.53381763837419
 30
0.0
 11
-46.0675195999048
 21
5.61161000000004
 31
0.0
  0
LINE
  5
478
330
5A
100
AcDbEntity
  8
LC-001-002-----0
  6
Continuous
 62
     7
100
AcDbLine
 10
-52.20359499999995
 20
35.09342100000004
 30
0.0
 11
-43.5968059999999
 21
55.993427
 31
0.0
  0
LINE
  5
479
330
5A
100
AcDbEntity
  8
LC-001-002-----0
  6
Continuous
 62
     7
100
AcDbLine
 10
-60.06982400000004
 20
0.0
 30
0.0
 11
-48.83414699999992
 21
30.43110400000001
 31
0.0
  0
LINE
  5
47A
330
5A
100
AcDbEntity
  8
LC-001-002-----0
  6
Continuous
 62
     7
100
AcDbLine
 10
-16.67062799999997
 20
0.0
 30
0.0
 11
-13.31275300000004
 21
30.43110400000001
 31
0.0
  0
LINE
  5
47B
330
5A
100
AcDbEntity
  8
LC-001-002-----0
  6
Continuous
 62
     7
100
AcDbLine
 10
-18.89225799999997
 20
0.0
 30
0.0
 11
-15.53438199999994
 21
30.43110400000001
 31
0.0
  0
LINE
  5
47C
330
5A
100
AcDbEntity
  8
LC-001-002-----0
  6
Continuous
 62
     7
100
AcDbLine
 10
-35.34582999999998
 20
0.0
 30
0.0
 11
-28.85891099999992
 21
30.43110400000001
 31
0.0
  0
LINE
  5
47D
330
5A
100
AcDbEntity
  8
LC-001-002-----0
  6
Continuous
 62
     7
100
AcDbLine
 10
-33.353972
 20
0.0
 30
0.0
 11
-26.86705300000006
 21
30.43110400000001
 31
0.0
  0
LINE
  5
47E
330
5A
100
AcDbEntity
  8
LC-001-002-----0
  6
Continuous
 62
     7
100
AcDbLine
 10
-58.91982399999995
 20
0.0
 30
0.0
 11
-47.68414700000005
 21
30.43110400000001
 31
0.0
  0
LINE
  5
47F
330
5A
100
AcDbEntity
  8
LC-001-002-----0
  6
Continuous
 62
     7
100
AcDbLine
 10
-51.60831199999996
 20
35.09342100000004
 30
0.0
 11
-43.00152199999991
 21
55.99342799999999
 31
0.0
  0
LINE
  5
480
330
5A
100
AcDbEntity
  8
LC-001-002-----0
  6
Continuous
 62
     7
100
AcDbLine
 10
1.14870299999995
 20
30.43110400000001
 30
0.0
 11
1.14870299999995
 21
0.0
 31
0.0
  0
LINE
  5
481
330
5A
100
AcDbEntity
  8
LC-001-002-----0
  6
Continuous
 62
     7
100
AcDbLine
 10
-1.151297
 20
30.43110400000001
 30
0.0
 11
-1.151297
 21
0.0
 31
0.0
  0
LINE
  5
482
330
5A
100
AcDbEntity
  8
LC-001-002-----0
  6
Continuous
 62
     7
100
AcDbLine
 10
-57.89420899999993
 20
30.43110400000001
 30
0.0
 11
57.89099900000008
 21
30.43110400000001
 31
0.0
  0
LINE
  5
483
330
5A
100
AcDbEntity
  8
LC-001-002-----0
  6
Continuous
 62
     7
100
AcDbLine
 10
-56.19726400000002
 20
35.09342100000004
 30
0.0
 11
56.19404100000008
 21
35.09342100000004
 31
0.0
  0
LINE
  5
484
330
5A
100
AcDbEntity
  8
LC-001-002-----0
  6
Continuous
 62
     7
100
AcDbLine
 10
-48.59028699999999
 20
55.99342000000002
 30
0.0
 11
48.58700699999997
 21
55.99355300000002
 31
0.0
  0
LINE
  5
485
330
5A
100
AcDbEntity
  8
LC-001-002-----0
  6
Continuous
 62
     7
100
AcDbLine
 10
-57.89420899999993
 20
30.43110400000001
 30
0.0
 11
-56.19726400000002
 21
30.730321
 31
0.0
  0
LINE
  5
486
330
5A
100
AcDbEntity
  8
LC-001-002-----0
  6
Continuous
 62
     7
100
AcDbLine
 10
-56.19726400000002
 20
35.09342100000004
 30
0.0
 11
-56.19726400000002
 21
30.730321
 31
0.0
  0
LINE
  5
487
330
5A
100
AcDbEntity
  8
LC-001-002-----0
  6
Continuous
 62
     7
100
AcDbLine
 10
-1.151297
 20
55.99348500000002
 30
0.0
 11
-1.151297
 21
35.09342100000004
 31
0.0
  0
LINE
  5
488
330
5A
100
AcDbEntity
  8
LC-001-002-----0
  6
Continuous
 62
     7
100
AcDbLine
 10
1.14870299999995
 20
55.99348800000001
 30
0.0
 11
1.14870299999995
 21
35.09342100000004
 31
0.0
  0
LINE
  5
489
330
5A
100
AcDbEntity
  8
LC-001-002-----0
  6
Continuous
 62
     7
100
AcDbLine
 10
57.99048400000004
 20
30.41372100000001
 30
0.0
 11
56.19405300000005
 21
30.73047500000001
 31
0.0
  0
LINE
  5
48A
330
5A
100
AcDbEntity
  8
LC-001-002-----0
  6
Continuous
 62
     7
100
AcDbLine
 10
56.19404100000008
 20
35.09357600000004
 30
0.0
 11
56.19405300000005
 21
30.73047500000001
 31
0.0
  0
LINE
  5
48B
330
5A
100
AcDbEntity
  8
LC-001-002-----0
  6
Continuous
 62
     7
100
AcDbLine
 10
-44.84139300000004
 20
66.29342100000002
 30
0.0
 11
-42.48852799999997
 21
66.70829500000002
 31
0.0
  0
LINE
  5
48C
330
5A
100
AcDbEntity
  8
LC-001-002-----0
  6
Continuous
 62
     7
100
AcDbLine
 10
-42.48852799999997
 20
66.70829500000002
 30
0.0
 11
-41.00166000000002
 21
70.79343
 31
0.0
  0
LINE
  5
48D
330
5A
100
AcDbEntity
  8
LC-001-002-----0
  6
Continuous
 62
     7
100
AcDbLine
 10
-68.97022499999991
 20
0.0
 30
0.0
 11
-43.20352500000001
 21
70.79342700000001
 31
0.0
  0
LINE
  5
48E
330
5A
100
AcDbEntity
  8
LC-001-002-----0
  6
Continuous
 62
     7
100
AcDbLine
 10
44.83808499999998
 20
66.293544
 30
0.0
 11
42.48521900000003
 21
66.70841200000001
 31
0.0
  0
LINE
  5
48F
330
5A
100
AcDbEntity
  8
LC-001-002-----0
  6
Continuous
 62
     7
100
AcDbLine
 10
42.48521900000003
 20
66.70841200000001
 30
0.0
 11
40.99833999999999
 21
70.793543
 31
0.0
  0
LINE
  5
490
330
5A
100
AcDbEntity
  8
LC-001-002-----0
  6
Continuous
 62
     7
100
AcDbLine
 10
68.96716700000002
 20
0.0
 30
0.0
 11
43.2002040000001
 21
70.79354599999999
 31
0.0
  0
LINE
  5
491
330
5A
100
AcDbEntity
  8
LC-001-002-----0
  6
Continuous
 62
     7
100
AcDbLine
 10
-48.45026599999994
 20
70.79342000000003
 30
0.0
 11
48.44694500000003
 21
70.79355300000003
 31
0.0
  0
LINE
  5
492
330
5A
100
AcDbEntity
  8
LC-001-002-----0
  6
Continuous
 62
     7
100
AcDbLine
 10
84.71701399999995
 20
0.0
 30
0.0
 11
79.48844399999996
 21
14.36525599999999
 31
0.0
  0
LINE
  5
493
330
5A
100
AcDbEntity
  8
LC-001-002-----0
  6
Continuous
 62
     7
100
AcDbLine
 10
-84.720056
 20
0.0
 30
0.0
 11
-79.47633699999994
 21
14.40700000000004
 31
0.0
  0
LINE
  5
494
330
5A
100
AcDbEntity
  8
LC-001-002-----0
  6
Continuous
 62
     7
100
AcDbLine
 10
-35.13401099999999
 20
0.99367900000004
 30
0.0
 11
-40.7499339554457
 21
0.99366702886664
 31
0.0
  0
LINE
  5
495
330
5A
100
AcDbEntity
  8
LC-001-002-----0
  6
Continuous
 62
     7
100
AcDbLine
 10
-90.5014829999999
 20
-30.24411199999997
 30
0.0
 11
-87.00147400000003
 21
-30.24411199999997
 31
0.0
  0
LINE
  5
496
330
5A
100
AcDbEntity
  8
LC-001-002-----0
  6
Continuous
 62
     7
100
AcDbLine
 10
3.30369400000006
 20
55.99349100000001
 30
0.0
 11
3.30365300000005
 21
70.79349100000002
 31
0.0
  0
LINE
  5
497
330
5A
100
AcDbEntity
  8
LC-001-002-----0
  6
Continuous
 62
     7
100
AcDbLine
 10
-3.30697399999997
 20
55.99348200000003
 30
0.0
 11
-3.30697399999997
 21
70.79348200000004
 31
0.0
  0
LINE
  5
498
330
5A
100
AcDbEntity
  8
LC-001-002-----0
  6
Continuous
 62
     7
100
AcDbLine
 10
-80.75
 20
-32.736469
 30
0.0
 11
-80.75
 21
-44.13170600226366
 31
0.0
  0
LINE
  5
499
330
5A
100
AcDbEntity
  8
LC-004-006-MLN-0
  6
CENTER
 62
     2
100
AcDbLine
 10
0.0
 20
-159.7897571309357
 30
0.0
 11
0.0
 21
-472.1857571309357
 31
0.0
  0
LINE
  5
49A
330
5A
100
AcDbEntity
  8
LC-001-002-----0
  6
Continuous
 62
     7
100
AcDbLine
 10
-73.5
 20
-47.18575713093564
 30
0.0
 11
73.5
 21
-47.18575713093564
 31
0.0
  0
LINE
  5
49B
330
5A
100
AcDbEntity
  8
LC-001-002-----0
  6
Continuous
 62
     7
100
AcDbLine
 10
0.0
 20
-65.37228213093564
 30
0.0
 11
63.00000499999999
 21
-65.37228213093564
 31
0.0
  0
LINE
  5
49C
330
5A
100
AcDbEntity
  8
LC-001-002-----0
  6
Continuous
 62
     7
100
AcDbLine
 10
-63.00000499999999
 20
-65.37228213093564
 30
0.0
 11
0.0
 21
-65.37228213093564
 31
0.0
  0
LINE
  5
49D
330
5A
100
AcDbEntity
  8
LC-001-002-----0
  6
Continuous
 62
     7
100
AcDbLine
 10
-45.0
 20
-101.1861031309357
 30
0.0
 11
45.00000499999999
 21
-101.1861031309357
 31
0.0
  0
LINE
  5
49E
330
5A
100
AcDbEntity
  8
LC-001-002-----0
  6
Continuous
 62
     7
100
AcDbLine
 10
-73.5
 20
-47.18575713093564
 30
0.0
 11
-77.75
 21
-47.18575713093564
 31
0.0
  0
LINE
  5
49F
330
5A
100
AcDbEntity
  8
LC-001-002-----0
  6
Continuous
 62
     7
100
AcDbLine
 10
-63.00000499999999
 20
-65.37228213093564
 30
0.0
 11
-73.5
 21
-47.18575713093564
 31
0.0
  0
LINE
  5
4A0
330
5A
100
AcDbEntity
  8
LC-001-002-----0
  6
Continuous
 62
     7
100
AcDbLine
 10
-63.00000499999999
 20
-98.18610313093566
 30
0.0
 11
-63.00000499999999
 21
-65.37228213093564
 31
0.0
  0
LINE
  5
4A1
330
5A
100
AcDbEntity
  8
LC-001-002-----0
  6
Continuous
 62
     7
100
AcDbLine
 10
-45.00000499999999
 20
-101.1861031309357
 30
0.0
 11
-60.00000499999999
 21
-101.1861031309357
 31
0.0
  0
LINE
  5
4A2
330
5A
100
AcDbEntity
  8
LC-001-002-----0
  6
Continuous
 62
     7
100
AcDbLine
 10
45.00000499999999
 20
-101.1861031309357
 30
0.0
 11
60.00000499999999
 21
-101.1861031309357
 31
0.0
  0
LINE
  5
4A3
330
5A
100
AcDbEntity
  8
LC-001-002-----0
  6
Continuous
 62
     7
100
AcDbLine
 10
63.00000499999999
 20
-98.18610313093566
 30
0.0
 11
63.00000499999999
 21
-65.37228213093564
 31
0.0
  0
LINE
  5
4A4
330
5A
100
AcDbEntity
  8
LC-001-002-----0
  6
Continuous
 62
     7
100
AcDbLine
 10
63.00000499999999
 20
-65.37228213093564
 30
0.0
 11
73.5
 21
-47.18575713093564
 31
0.0
  0
LINE
  5
4A5
330
5A
100
AcDbEntity
  8
LC-001-002-----0
  6
Continuous
 62
     7
100
AcDbLine
 10
45.00000499999999
 20
-101.1861031309357
 30
0.0
 11
45.00000499999999
 21
-228.0081833396908
 31
0.0
  0
LINE
  5
4A6
330
5A
100
AcDbEntity
  8
LC-001-002-----0
  6
Continuous
 62
     7
100
AcDbLine
 10
-45.0
 20
-101.1861031309357
 30
0.0
 11
-45.0
 21
-228.0081833396908
 31
0.0
  0
LINE
  5
4A7
330
5A
100
AcDbEntity
  8
LC-001-002-----0
  6
Continuous
 62
     7
100
AcDbLine
 10
73.5
 20
-47.18575713093564
 30
0.0
 11
77.75
 21
-47.18575713093564
 31
0.0
  0
LINE
  5
4A8
330
5A
100
AcDbEntity
  8
LC-001-002-----0
  6
Continuous
 62
     7
100
AcDbLine
 10
-73.5
 20
-47.18575713093564
 30
0.0
 11
73.5
 21
-47.18575713093564
 31
0.0
  0
LINE
  5
4A9
330
5A
100
AcDbEntity
  8
LC-001-002-----0
  6
Continuous
 62
     7
100
AcDbLine
 10
-73.5
 20
-47.18575713093564
 30
0.0
 11
-77.75
 21
-47.18575713093564
 31
0.0
  0
LINE
  5
4AA
330
5A
100
AcDbEntity
  8
LC-001-002-----0
  6
Continuous
 62
     7
100
AcDbLine
 10
-63.00000499999999
 20
-65.37228213093564
 30
0.0
 11
-73.5
 21
-47.18575713093564
 31
0.0
  0
LINE
  5
4AB
330
5A
100
AcDbEntity
  8
LC-001-002-----0
  6
Continuous
 62
     7
100
AcDbLine
 10
73.5
 20
-47.18575713093564
 30
0.0
 11
77.75
 21
-47.18575713093564
 31
0.0
  0
LINE
  5
4AC
330
5A
100
AcDbEntity
  8
LC-001-002-----0
  6
Continuous
 62
     7
100
AcDbLine
 10
80.75
 20
-32.736469
 30
0.0
 11
80.75
 21
-44.18575713093564
 31
0.0
  0
LINE
  5
4AD
330
5A
100
AcDbEntity
  8
LC-002-002-----0
  6
Continuous
 62
     7
100
AcDbLine
 10
-46.00008596792486
 20
-230.1927343396908
 30
0.0
 11
45.99991403207514
 21
-230.1927343396908
 31
0.0
  0
LINE
  5
4AE
330
5A
100
AcDbEntity
  8
LC-002-002-----0
  6
Continuous
 62
     7
100
AcDbLine
 10
-46.00008596792486
 20
-242.5229003396908
 30
0.0
 11
45.99991403207514
 21
-242.5229003396908
 31
0.0
  0
LINE
  5
4AF
330
5A
100
AcDbEntity
  8
LC-002-002-----0
  6
Continuous
 62
     7
100
AcDbLine
 10
-46.00008596792486
 20
-254.8530663396908
 30
0.0
 11
45.99991403207514
 21
-254.8530663396908
 31
0.0
  0
LINE
  5
4B0
330
5A
100
AcDbEntity
  8
LC-002-002-----0
  6
Continuous
 62
     7
100
AcDbLine
 10
-46.00008596792486
 20
-267.1832313396907
 30
0.0
 11
45.99991403207514
 21
-267.1832313396907
 31
0.0
  0
LINE
  5
4B1
330
5A
100
AcDbEntity
  8
LC-002-002-----0
  6
Continuous
 62
     7
100
AcDbLine
 10
-46.00008596792486
 20
-279.5133973396908
 30
0.0
 11
45.99991403207514
 21
-279.5133973396908
 31
0.0
  0
LINE
  5
4B2
330
5A
100
AcDbEntity
  8
LC-002-002-----0
  6
Continuous
 62
     7
100
AcDbLine
 10
-46.00008596792486
 20
-291.8435633396908
 30
0.0
 11
45.99991403207514
 21
-291.8435633396908
 31
0.0
  0
LINE
  5
4B3
330
5A
100
AcDbEntity
  8
LC-002-002-----0
  6
Continuous
 62
     7
100
AcDbLine
 10
-46.00008596792486
 20
-304.1737283396907
 30
0.0
 11
45.99991403207514
 21
-304.1737283396907
 31
0.0
  0
LINE
  5
4B4
330
5A
100
AcDbEntity
  8
LC-002-002-----0
  6
Continuous
 62
     7
100
AcDbLine
 10
-46.00008596792486
 20
-316.5038943396908
 30
0.0
 11
45.99991403207514
 21
-316.5038943396908
 31
0.0
  0
LINE
  5
4B5
330
5A
100
AcDbEntity
  8
LC-002-002-----0
  6
Continuous
 62
     7
100
AcDbLine
 10
-46.00008596792486
 20
-328.8340603396908
 30
0.0
 11
45.99991403207514
 21
-328.8340603396908
 31
0.0
  0
LINE
  5
4B6
330
5A
100
AcDbEntity
  8
LC-002-002-----0
  6
Continuous
 62
     7
100
AcDbLine
 10
-46.00008596792486
 20
-341.1642253396907
 30
0.0
 11
45.99991403207514
 21
-341.1642253396907
 31
0.0
  0
LINE
  5
4B7
330
5A
100
AcDbEntity
  8
LC-002-002-----0
  6
Continuous
 62
     7
100
AcDbLine
 10
-46.00008596792486
 20
-353.4943913396908
 30
0.0
 11
45.99991403207514
 21
-353.4943913396908
 31
0.0
  0
LINE
  5
4B8
330
5A
100
AcDbEntity
  8
LC-002-002-----0
  6
Continuous
 62
     7
100
AcDbLine
 10
-46.00008596792486
 20
-365.8245573396908
 30
0.0
 11
45.99991403207514
 21
-365.8245573396908
 31
0.0
  0
LINE
  5
4B9
330
5A
100
AcDbEntity
  8
LC-002-002-----0
  6
Continuous
 62
     7
100
AcDbLine
 10
-46.00008596792486
 20
-378.1547223396908
 30
0.0
 11
45.99991403207514
 21
-378.1547223396908
 31
0.0
  0
LINE
  5
4BA
330
5A
100
AcDbEntity
  8
LC-002-002-----0
  6
Continuous
 62
     7
100
AcDbLine
 10
-46.00008596792486
 20
-390.4848883396908
 30
0.0
 11
45.99991403207514
 21
-390.4848883396908
 31
0.0
  0
LINE
  5
4BB
330
5A
100
AcDbEntity
  8
LC-002-002-----0
  6
Continuous
 62
     7
100
AcDbLine
 10
-46.00008596792486
 20
-402.8150543396908
 30
0.0
 11
45.99991403207514
 21
-402.8150543396908
 31
0.0
  0
LINE
  5
4BC
330
5A
100
AcDbEntity
  8
LC-002-002-----0
  6
Continuous
 62
     7
100
AcDbLine
 10
-46.00008596792486
 20
-415.1452193396908
 30
0.0
 11
45.99991403207514
 21
-415.1452193396908
 31
0.0
  0
LINE
  5
4BD
330
5A
100
AcDbEntity
  8
LC-002-002-----0
  6
Continuous
 62
     7
100
AcDbLine
 10
-46.00008596792486
 20
-427.4753853396908
 30
0.0
 11
45.99991403207514
 21
-427.4753853396908
 31
0.0
  0
LINE
  5
4BE
330
5A
100
AcDbEntity
  8
LC-002-002-----0
  6
Continuous
 62
     7
100
AcDbLine
 10
-46.00008596792486
 20
-439.8055513396908
 30
0.0
 11
45.99991403207514
 21
-439.8055513396908
 31
0.0
  0
LINE
  5
4BF
330
5A
100
AcDbEntity
  8
LC-002-002-----0
  6
Continuous
 62
     7
100
AcDbLine
 10
45.00057403207518
 20
-454.0082073396908
 30
0.0
 11
45.00058903207514
 21
-459.5082073396908
 31
0.0
  0
LINE
  5
4C0
330
5A
100
AcDbEntity
  8
LC-002-002-----0
  6
Continuous
 62
     7
100
AcDbLine
 10
-46.50008596792486
 20
-277.3288453396908
 30
0.0
 11
46.49991403207514
 21
-277.3288453396908
 31
0.0
  0
LINE
  5
4C1
330
5A
100
AcDbEntity
  8
LC-002-002-----0
  6
Continuous
 62
     7
100
AcDbLine
 10
-46.50008596792486
 20
-400.6305023396907
 30
0.0
 11
46.49991403207514
 21
-400.6305023396907
 31
0.0
  0
LINE
  5
4C2
330
5A
100
AcDbEntity
  8
LC-002-002-----0
  6
Continuous
 62
     7
100
AcDbLine
 10
46.49991403207514
 20
-412.9606673396908
 30
0.0
 11
-46.50008596792486
 21
-412.9606673396908
 31
0.0
  0
LINE
  5
4C3
330
5A
100
AcDbEntity
  8
LC-002-002-----0
  6
Continuous
 62
     7
100
AcDbLine
 10
-46.50008596792486
 20
-425.2908333396908
 30
0.0
 11
46.49991403207514
 21
-425.2908333396908
 31
0.0
  0
LINE
  5
4C4
330
5A
100
AcDbEntity
  8
LC-002-002-----0
  6
Continuous
 62
     7
100
AcDbLine
 10
46.49991403207514
 20
-437.6209993396907
 30
0.0
 11
-46.50008596792486
 21
-437.6209993396907
 31
0.0
  0
LINE
  5
4C5
330
5A
100
AcDbEntity
  8
LC-002-002-----0
  6
Continuous
 62
     7
100
AcDbLine
 10
-46.50008596792486
 20
-449.9511643396908
 30
0.0
 11
46.49991403207514
 21
-449.9511643396908
 31
0.0
  0
LINE
  5
4C6
330
5A
100
AcDbEntity
  8
LC-002-002-----0
  6
Continuous
 62
     7
100
AcDbLine
 10
-46.00008596792486
 20
-453.5083303396908
 30
0.0
 11
45.99991403207514
 21
-453.5083303396908
 31
0.0
  0
LINE
  5
4C7
330
5A
100
AcDbEntity
  8
LC-002-002-----0
  6
Continuous
 62
     7
100
AcDbLine
 10
44.99991403207514
 20
-454.0083303396908
 30
0.0
 11
-45.00008596792486
 21
-454.0083303396908
 31
0.0
  0
LINE
  5
4C8
330
5A
100
AcDbEntity
  8
LC-002-002-----0
  6
Continuous
 62
     7
100
AcDbLine
 10
-45.00008596792486
 20
-459.5083303396908
 30
0.0
 11
44.99991403207514
 21
-459.5083303396908
 31
0.0
  0
LINE
  5
4C9
330
5A
100
AcDbEntity
  8
LC-002-002-----0
  6
Continuous
 62
     7
100
AcDbLine
 10
-45.00008596792486
 20
-454.0083303396908
 30
0.0
 11
-45.00008596792486
 21
-459.5083303396908
 31
0.0
  0
LINE
  5
4CA
330
5A
100
AcDbEntity
  8
LC-002-002-----0
  6
Continuous
 62
     7
100
AcDbLine
 10
53.0470820320752
 20
-229.0958373396908
 30
0.0
 11
46.82626603207518
 21
-230.1927343396908
 31
0.0
  0
LINE
  5
4CB
330
5A
100
AcDbEntity
  8
LC-002-002-----0
  6
Continuous
 62
     7
100
AcDbLine
 10
-53.0472539679248
 20
-229.0958373396908
 30
0.0
 11
-46.82643796792479
 21
-230.1927343396908
 31
0.0
  0
LINE
  5
4CC
330
5A
100
AcDbEntity
  8
LC-002-002-----0
  6
Continuous
 62
     7
100
AcDbLine
 10
52.99991403207514
 20
-277.3288453396908
 30
0.0
 11
46.49991403207514
 21
-277.3288453396908
 31
0.0
  0
LINE
  5
4CD
330
5A
100
AcDbEntity
  8
LC-002-002-----0
  6
Continuous
 62
     7
100
AcDbLine
 10
-53.00008596792486
 20
-277.3288453396908
 30
0.0
 11
-46.50008596792486
 21
-277.3288453396908
 31
0.0
  0
LINE
  5
4CE
330
5A
100
AcDbEntity
  8
LC-002-002-----0
  6
Continuous
 62
     7
100
AcDbLine
 10
-49.75008596792486
 20
-289.6590113396908
 30
0.0
 11
52.99991403207514
 21
-289.6590113396908
 31
0.0
  0
LINE
  5
4CF
330
5A
100
AcDbEntity
  8
LC-002-002-----0
  6
Continuous
 62
     7
100
AcDbLine
 10
46.49991403207514
 20
-301.9891763396908
 30
0.0
 11
52.99991403207514
 21
-301.9891763396908
 31
0.0
  0
LINE
  5
4D0
330
5A
100
AcDbEntity
  8
LC-002-002-----0
  6
Continuous
 62
     7
100
AcDbLine
 10
-46.50008596792486
 20
-314.3193423396908
 30
0.0
 11
52.99991403207514
 21
-314.3193423396908
 31
0.0
  0
LINE
  5
4D1
330
5A
100
AcDbEntity
  8
LC-002-002-----0
  6
Continuous
 62
     7
100
AcDbLine
 10
-46.50008596792486
 20
-326.6495083396908
 30
0.0
 11
52.99991403207514
 21
-326.6495083396908
 31
0.0
  0
LINE
  5
4D2
330
5A
100
AcDbEntity
  8
LC-002-002-----0
  6
Continuous
 62
     7
100
AcDbLine
 10
46.49991403207514
 20
-338.9796733396908
 30
0.0
 11
52.99991403207514
 21
-338.9796733396908
 31
0.0
  0
LINE
  5
4D3
330
5A
100
AcDbEntity
  8
LC-002-002-----0
  6
Continuous
 62
     7
100
AcDbLine
 10
45.99991403207514
 20
-453.5083303396908
 30
0.0
 11
45.49991403207514
 21
-454.0083303396908
 31
0.0
  0
LINE
  5
4D4
330
5A
100
AcDbEntity
  8
LC-002-002-----0
  6
Continuous
 62
     7
100
AcDbLine
 10
45.49991403207514
 20
-454.0083303396908
 30
0.0
 11
44.99991403207514
 21
-454.0083303396908
 31
0.0
  0
LINE
  5
4D5
330
5A
100
AcDbEntity
  8
LC-002-002-----0
  6
Continuous
 62
     7
100
AcDbLine
 10
53.0470820320752
 20
-451.0388193396908
 30
0.0
 11
46.82626603207518
 21
-452.1357163396908
 31
0.0
  0
LINE
  5
4D6
330
5A
100
AcDbEntity
  8
LC-002-002-----0
  6
Continuous
 62
     7
100
AcDbLine
 10
53.0470820320752
 20
-438.7086533396908
 30
0.0
 11
46.82626603207518
 21
-439.8055513396908
 31
0.0
  0
LINE
  5
4D7
330
5A
100
AcDbEntity
  8
LC-002-002-----0
  6
Continuous
 62
     7
100
AcDbLine
 10
45.99991403207514
 20
-363.1400053396908
 30
0.0
 11
45.99991403207514
 21
-354.4791993396908
 31
0.0
  0
LINE
  5
4D8
330
5A
100
AcDbEntity
  8
LC-002-002-----0
  6
Continuous
 62
     7
100
AcDbLine
 10
53.0470820320752
 20
-426.3784873396908
 30
0.0
 11
46.82626603207518
 21
-427.4753853396908
 31
0.0
  0
LINE
  5
4D9
330
5A
100
AcDbEntity
  8
LC-002-002-----0
  6
Continuous
 62
     7
100
AcDbLine
 10
45.99991403207514
 20
-387.8003363396908
 30
0.0
 11
45.99991403207514
 21
-379.1395303396908
 31
0.0
  0
LINE
  5
4DA
330
5A
100
AcDbEntity
  8
LC-002-002-----0
  6
Continuous
 62
     7
100
AcDbLine
 10
53.0470820320752
 20
-414.0483223396907
 30
0.0
 11
46.82626603207518
 21
-415.1452193396908
 31
0.0
  0
LINE
  5
4DB
330
5A
100
AcDbEntity
  8
LC-002-002-----0
  6
Continuous
 62
     7
100
AcDbLine
 10
53.0470820320752
 20
-401.7181563396908
 30
0.0
 11
46.82626603207518
 21
-402.8150543396908
 31
0.0
  0
LINE
  5
4DC
330
5A
100
AcDbEntity
  8
LC-002-002-----0
  6
Continuous
 62
     7
100
AcDbLine
 10
45.99991403207514
 20
-437.1209993396907
 30
0.0
 11
45.99991403207514
 21
-428.4601933396908
 31
0.0
  0
LINE
  5
4DD
330
5A
100
AcDbEntity
  8
LC-002-002-----0
  6
Continuous
 62
     7
100
AcDbLine
 10
45.99991403207514
 20
-424.7908333396908
 30
0.0
 11
45.99991403207514
 21
-416.1300273396907
 31
0.0
  0
LINE
  5
4DE
330
5A
100
AcDbEntity
  8
LC-002-002-----0
  6
Continuous
 62
     7
100
AcDbLine
 10
45.99991403207514
 20
-412.4606673396908
 30
0.0
 11
45.99991403207514
 21
-403.7998613396908
 31
0.0
  0
LINE
  5
4DF
330
5A
100
AcDbEntity
  8
LC-002-002-----0
  6
Continuous
 62
     7
100
AcDbLine
 10
45.99991403207514
 20
-400.1305023396907
 30
0.0
 11
45.99991403207514
 21
-391.4696963396908
 31
0.0
  0
LINE
  5
4E0
330
5A
100
AcDbEntity
  8
LC-002-002-----0
  6
Continuous
 62
     7
100
AcDbLine
 10
45.99991403207514
 20
-375.4701703396908
 30
0.0
 11
45.99991403207514
 21
-366.8093643396908
 31
0.0
  0
LINE
  5
4E1
330
5A
100
AcDbEntity
  8
LC-002-002-----0
  6
Continuous
 62
     7
100
AcDbLine
 10
-46.50008596792486
 20
-351.3098393396908
 30
0.0
 11
52.99991403207514
 21
-351.3098393396908
 31
0.0
  0
LINE
  5
4E2
330
5A
100
AcDbEntity
  8
LC-002-002-----0
  6
Continuous
 62
     7
100
AcDbLine
 10
53.0470820320752
 20
-389.3879903396908
 30
0.0
 11
46.82626603207518
 21
-390.4848883396908
 31
0.0
  0
LINE
  5
4E3
330
5A
100
AcDbEntity
  8
LC-002-002-----0
  6
Continuous
 62
     7
100
AcDbLine
 10
46.49991403207514
 20
-363.6400053396908
 30
0.0
 11
52.99991403207514
 21
-363.6400053396908
 31
0.0
  0
LINE
  5
4E4
330
5A
100
AcDbEntity
  8
LC-002-002-----0
  6
Continuous
 62
     7
100
AcDbLine
 10
53.0470820320752
 20
-377.0578253396907
 30
0.0
 11
46.82626603207518
 21
-378.1547223396908
 31
0.0
  0
LINE
  5
4E5
330
5A
100
AcDbEntity
  8
LC-002-002-----0
  6
Continuous
 62
     7
100
AcDbLine
 10
45.99991403207514
 20
-350.8098393396908
 30
0.0
 11
45.99991403207514
 21
-342.1490333396908
 31
0.0
  0
LINE
  5
4E6
330
5A
100
AcDbEntity
  8
LC-002-002-----0
  6
Continuous
 62
     7
100
AcDbLine
 10
45.99991403207514
 20
-338.4796733396908
 30
0.0
 11
45.99991403207514
 21
-329.8188673396908
 31
0.0
  0
LINE
  5
4E7
330
5A
100
AcDbEntity
  8
LC-002-002-----0
  6
Continuous
 62
     7
100
AcDbLine
 10
-46.50008596792486
 20
-375.9701703396908
 30
0.0
 11
52.99991403207514
 21
-375.9701703396908
 31
0.0
  0
LINE
  5
4E8
330
5A
100
AcDbEntity
  8
LC-002-002-----0
  6
Continuous
 62
     7
100
AcDbLine
 10
53.0470820320752
 20
-364.7276593396908
 30
0.0
 11
46.82626603207518
 21
-365.8245573396908
 31
0.0
  0
LINE
  5
4E9
330
5A
100
AcDbEntity
  8
LC-002-002-----0
  6
Continuous
 62
     7
100
AcDbLine
 10
46.49991403207514
 20
-388.3003363396908
 30
0.0
 11
52.99991403207514
 21
-388.3003363396908
 31
0.0
  0
LINE
  5
4EA
330
5A
100
AcDbEntity
  8
LC-002-002-----0
  6
Continuous
 62
     7
100
AcDbLine
 10
53.0470820320752
 20
-352.3974933396908
 30
0.0
 11
46.82626603207518
 21
-353.4943913396908
 31
0.0
  0
LINE
  5
4EB
330
5A
100
AcDbEntity
  8
LC-002-002-----0
  6
Continuous
 62
     7
100
AcDbLine
 10
53.0470820320752
 20
-340.0673283396907
 30
0.0
 11
46.82626603207518
 21
-341.1642253396907
 31
0.0
  0
LINE
  5
4EC
330
5A
100
AcDbEntity
  8
LC-002-002-----0
  6
Continuous
 62
     7
100
AcDbLine
 10
46.49991403207514
 20
-400.6305023396907
 30
0.0
 11
52.99991403207514
 21
-400.6305023396907
 31
0.0
  0
LINE
  5
4ED
330
5A
100
AcDbEntity
  8
LC-002-002-----0
  6
Continuous
 62
     7
100
AcDbLine
 10
53.0470820320752
 20
-327.7371623396908
 30
0.0
 11
46.82626603207518
 21
-328.8340603396908
 31
0.0
  0
LINE
  5
4EE
330
5A
100
AcDbEntity
  8
LC-002-002-----0
  6
Continuous
 62
     7
100
AcDbLine
 10
46.49991403207514
 20
-412.9606673396908
 30
0.0
 11
52.99991403207514
 21
-412.9606673396908
 31
0.0
  0
LINE
  5
4EF
330
5A
100
AcDbEntity
  8
LC-002-002-----0
  6
Continuous
 62
     7
100
AcDbLine
 10
53.0470820320752
 20
-315.4069963396908
 30
0.0
 11
46.82626603207518
 21
-316.5038943396908
 31
0.0
  0
LINE
  5
4F0
330
5A
100
AcDbEntity
  8
LC-002-002-----0
  6
Continuous
 62
     7
100
AcDbLine
 10
46.49991403207514
 20
-425.2908333396908
 30
0.0
 11
52.99991403207514
 21
-425.2908333396908
 31
0.0
  0
LINE
  5
4F1
330
5A
100
AcDbEntity
  8
LC-002-002-----0
  6
Continuous
 62
     7
100
AcDbLine
 10
53.0470820320752
 20
-303.0768313396907
 30
0.0
 11
46.82626603207518
 21
-304.1737283396907
 31
0.0
  0
LINE
  5
4F2
330
5A
100
AcDbEntity
  8
LC-002-002-----0
  6
Continuous
 62
     7
100
AcDbLine
 10
46.49991403207514
 20
-437.6209993396907
 30
0.0
 11
52.99991403207514
 21
-437.6209993396907
 31
0.0
  0
LINE
  5
4F3
330
5A
100
AcDbEntity
  8
LC-002-002-----0
  6
Continuous
 62
     7
100
AcDbLine
 10
45.99991403207514
 20
-326.1495083396908
 30
0.0
 11
45.99991403207514
 21
-317.4887023396908
 31
0.0
  0
LINE
  5
4F4
330
5A
100
AcDbEntity
  8
LC-002-002-----0
  6
Continuous
 62
     7
100
AcDbLine
 10
45.99991403207514
 20
-313.8193423396908
 30
0.0
 11
45.99991403207514
 21
-305.1585363396908
 31
0.0
  0
LINE
  5
4F5
330
5A
100
AcDbEntity
  8
LC-002-002-----0
  6
Continuous
 62
     7
100
AcDbLine
 10
45.99991403207514
 20
-301.4891763396908
 30
0.0
 11
45.99991403207514
 21
-292.8283703396908
 31
0.0
  0
LINE
  5
4F6
330
5A
100
AcDbEntity
  8
LC-002-002-----0
  6
Continuous
 62
     7
100
AcDbLine
 10
46.49991403207514
 20
-449.9511643396908
 30
0.0
 11
52.99991403207514
 21
-449.9511643396908
 31
0.0
  0
LINE
  5
4F7
330
5A
100
AcDbEntity
  8
LC-002-002-----0
  6
Continuous
 62
     7
100
AcDbLine
 10
45.99991403207514
 20
-289.1590113396908
 30
0.0
 11
45.99991403207514
 21
-280.4982053396907
 31
0.0
  0
LINE
  5
4F8
330
5A
100
AcDbEntity
  8
LC-002-002-----0
  6
Continuous
 62
     7
100
AcDbLine
 10
45.99991403207514
 20
-449.4511643396908
 30
0.0
 11
45.99991403207514
 21
-440.7903583396908
 31
0.0
  0
LINE
  5
4F9
330
5A
100
AcDbEntity
  8
LC-002-002-----0
  6
Continuous
 62
     7
100
AcDbLine
 10
45.99991403207514
 20
-453.1205243396908
 30
0.0
 11
45.99991403207514
 21
-453.5083303396908
 31
0.0
  0
LINE
  5
4FA
330
5A
100
AcDbEntity
  8
LC-002-002-----0
  6
Continuous
 62
     7
100
AcDbLine
 10
-46.50008596792486
 20
-289.6590113396908
 30
0.0
 11
-53.00008596792486
 21
-289.6590113396908
 31
0.0
  0
LINE
  5
4FB
330
5A
100
AcDbEntity
  8
LC-002-002-----0
  6
Continuous
 62
     7
100
AcDbLine
 10
46.49991403207514
 20
-301.9891763396908
 30
0.0
 11
-53.00008596792486
 21
-301.9891763396908
 31
0.0
  0
LINE
  5
4FC
330
5A
100
AcDbEntity
  8
LC-002-002-----0
  6
Continuous
 62
     7
100
AcDbLine
 10
-46.50008596792486
 20
-314.3193423396908
 30
0.0
 11
-53.00008596792486
 21
-314.3193423396908
 31
0.0
  0
LINE
  5
4FD
330
5A
100
AcDbEntity
  8
LC-002-002-----0
  6
Continuous
 62
     7
100
AcDbLine
 10
-46.50008596792486
 20
-326.6495083396908
 30
0.0
 11
-53.00008596792486
 21
-326.6495083396908
 31
0.0
  0
LINE
  5
4FE
330
5A
100
AcDbEntity
  8
LC-002-002-----0
  6
Continuous
 62
     7
100
AcDbLine
 10
46.49991403207514
 20
-338.9796733396908
 30
0.0
 11
-53.00008596792486
 21
-338.9796733396908
 31
0.0
  0
LINE
  5
4FF
330
5A
100
AcDbEntity
  8
LC-002-002-----0
  6
Continuous
 62
     7
100
AcDbLine
 10
-46.00008596792486
 20
-453.5083303396908
 30
0.0
 11
-45.50008596792486
 21
-454.0083303396908
 31
0.0
  0
LINE
  5
500
330
5A
100
AcDbEntity
  8
LC-002-002-----0
  6
Continuous
 62
     7
100
AcDbLine
 10
-45.50008596792486
 20
-454.0083303396908
 30
0.0
 11
-45.00008596792486
 21
-454.0083303396908
 31
0.0
  0
LINE
  5
501
330
5A
100
AcDbEntity
  8
LC-002-002-----0
  6
Continuous
 62
     7
100
AcDbLine
 10
-53.0472539679248
 20
-451.0388193396908
 30
0.0
 11
-46.82643796792479
 21
-452.1357163396908
 31
0.0
  0
LINE
  5
502
330
5A
100
AcDbEntity
  8
LC-002-002-----0
  6
Continuous
 62
     7
100
AcDbLine
 10
-53.0472539679248
 20
-438.7086533396908
 30
0.0
 11
-46.82643796792479
 21
-439.8055513396908
 31
0.0
  0
LINE
  5
503
330
5A
100
AcDbEntity
  8
LC-002-002-----0
  6
Continuous
 62
     7
100
AcDbLine
 10
-46.00008596792486
 20
-363.1400053396908
 30
0.0
 11
-46.00008596792486
 21
-354.4791993396908
 31
0.0
  0
LINE
  5
504
330
5A
100
AcDbEntity
  8
LC-002-002-----0
  6
Continuous
 62
     7
100
AcDbLine
 10
-53.0472539679248
 20
-426.3784873396908
 30
0.0
 11
-46.82643796792479
 21
-427.4753853396908
 31
0.0
  0
LINE
  5
505
330
5A
100
AcDbEntity
  8
LC-002-002-----0
  6
Continuous
 62
     7
100
AcDbLine
 10
-46.00008596792486
 20
-387.8003363396908
 30
0.0
 11
-46.00008596792486
 21
-379.1395303396908
 31
0.0
  0
LINE
  5
506
330
5A
100
AcDbEntity
  8
LC-002-002-----0
  6
Continuous
 62
     7
100
AcDbLine
 10
-53.0472539679248
 20
-414.0483223396907
 30
0.0
 11
-46.82643796792479
 21
-415.1452193396908
 31
0.0
  0
LINE
  5
507
330
5A
100
AcDbEntity
  8
LC-002-002-----0
  6
Continuous
 62
     7
100
AcDbLine
 10
-53.0472539679248
 20
-401.7181563396908
 30
0.0
 11
-46.82643796792479
 21
-402.8150543396908
 31
0.0
  0
LINE
  5
508
330
5A
100
AcDbEntity
  8
LC-002-002-----0
  6
Continuous
 62
     7
100
AcDbLine
 10
-46.00008596792486
 20
-437.1209993396907
 30
0.0
 11
-46.00008596792486
 21
-428.4601933396908
 31
0.0
  0
LINE
  5
509
330
5A
100
AcDbEntity
  8
LC-002-002-----0
  6
Continuous
 62
     7
100
AcDbLine
 10
-46.00008596792486
 20
-424.7908333396908
 30
0.0
 11
-46.00008596792486
 21
-416.1300273396907
 31
0.0
  0
LINE
  5
50A
330
5A
100
AcDbEntity
  8
LC-002-002-----0
  6
Continuous
 62
     7
100
AcDbLine
 10
-46.00008596792486
 20
-412.4606673396908
 30
0.0
 11
-46.00008596792486
 21
-403.7998613396908
 31
0.0
  0
LINE
  5
50B
330
5A
100
AcDbEntity
  8
LC-002-002-----0
  6
Continuous
 62
     7
100
AcDbLine
 10
-46.00008596792486
 20
-400.1305023396907
 30
0.0
 11
-46.00008596792486
 21
-391.4696963396908
 31
0.0
  0
LINE
  5
50C
330
5A
100
AcDbEntity
  8
LC-002-002-----0
  6
Continuous
 62
     7
100
AcDbLine
 10
-46.00008596792486
 20
-375.4701703396908
 30
0.0
 11
-46.00008596792486
 21
-366.8093643396908
 31
0.0
  0
LINE
  5
50D
330
5A
100
AcDbEntity
  8
LC-002-002-----0
  6
Continuous
 62
     7
100
AcDbLine
 10
-46.50008596792486
 20
-351.3098393396908
 30
0.0
 11
-53.00008596792486
 21
-351.3098393396908
 31
0.0
  0
LINE
  5
50E
330
5A
100
AcDbEntity
  8
LC-002-002-----0
  6
Continuous
 62
     7
100
AcDbLine
 10
-53.0472539679248
 20
-389.3879903396908
 30
0.0
 11
-46.82643796792479
 21
-390.4848883396908
 31
0.0
  0
LINE
  5
50F
330
5A
100
AcDbEntity
  8
LC-002-002-----0
  6
Continuous
 62
     7
100
AcDbLine
 10
46.49991403207514
 20
-363.6400053396908
 30
0.0
 11
-53.00008596792486
 21
-363.6400053396908
 31
0.0
  0
LINE
  5
510
330
5A
100
AcDbEntity
  8
LC-002-002-----0
  6
Continuous
 62
     7
100
AcDbLine
 10
-53.0472539679248
 20
-377.0578253396907
 30
0.0
 11
-46.82643796792479
 21
-378.1547223396908
 31
0.0
  0
LINE
  5
511
330
5A
100
AcDbEntity
  8
LC-002-002-----0
  6
Continuous
 62
     7
100
AcDbLine
 10
-46.00008596792486
 20
-350.8098393396908
 30
0.0
 11
-46.00008596792486
 21
-342.1490333396908
 31
0.0
  0
LINE
  5
512
330
5A
100
AcDbEntity
  8
LC-002-002-----0
  6
Continuous
 62
     7
100
AcDbLine
 10
-46.00008596792486
 20
-338.4796733396908
 30
0.0
 11
-46.00008596792486
 21
-329.8188673396908
 31
0.0
  0
LINE
  5
513
330
5A
100
AcDbEntity
  8
LC-002-002-----0
  6
Continuous
 62
     7
100
AcDbLine
 10
-46.50008596792486
 20
-375.9701703396908
 30
0.0
 11
-53.00008596792486
 21
-375.9701703396908
 31
0.0
  0
LINE
  5
514
330
5A
100
AcDbEntity
  8
LC-002-002-----0
  6
Continuous
 62
     7
100
AcDbLine
 10
-53.0472539679248
 20
-364.7276593396908
 30
0.0
 11
-46.82643796792479
 21
-365.8245573396908
 31
0.0
  0
LINE
  5
515
330
5A
100
AcDbEntity
  8
LC-002-002-----0
  6
Continuous
 62
     7
100
AcDbLine
 10
46.49991403207514
 20
-388.3003363396908
 30
0.0
 11
-53.00008596792486
 21
-388.3003363396908
 31
0.0
  0
LINE
  5
516
330
5A
100
AcDbEntity
  8
LC-002-002-----0
  6
Continuous
 62
     7
100
AcDbLine
 10
-53.0472539679248
 20
-352.3974933396908
 30
0.0
 11
-46.82643796792479
 21
-353.4943913396908
 31
0.0
  0
LINE
  5
517
330
5A
100
AcDbEntity
  8
LC-002-002-----0
  6
Continuous
 62
     7
100
AcDbLine
 10
-53.0472539679248
 20
-340.0673283396907
 30
0.0
 11
-46.82643796792479
 21
-341.1642253396907
 31
0.0
  0
LINE
  5
518
330
5A
100
AcDbEntity
  8
LC-002-002-----0
  6
Continuous
 62
     7
100
AcDbLine
 10
-46.50008596792486
 20
-400.6305023396907
 30
0.0
 11
-53.00008596792486
 21
-400.6305023396907
 31
0.0
  0
LINE
  5
519
330
5A
100
AcDbEntity
  8
LC-002-002-----0
  6
Continuous
 62
     7
100
AcDbLine
 10
-53.0472539679248
 20
-327.7371623396908
 30
0.0
 11
-46.82643796792479
 21
-328.8340603396908
 31
0.0
  0
LINE
  5
51A
330
5A
100
AcDbEntity
  8
LC-002-002-----0
  6
Continuous
 62
     7
100
AcDbLine
 10
-46.50008596792486
 20
-412.9606673396908
 30
0.0
 11
-53.00008596792486
 21
-412.9606673396908
 31
0.0
  0
LINE
  5
51B
330
5A
100
AcDbEntity
  8
LC-002-002-----0
  6
Continuous
 62
     7
100
AcDbLine
 10
-53.0472539679248
 20
-315.4069963396908
 30
0.0
 11
-46.82643796792479
 21
-316.5038943396908
 31
0.0
  0
LINE
  5
51C
330
5A
100
AcDbEntity
  8
LC-002-002-----0
  6
Continuous
 62
     7
100
AcDbLine
 10
-46.50008596792486
 20
-425.2908333396908
 30
0.0
 11
-53.00008596792486
 21
-425.2908333396908
 31
0.0
  0
LINE
  5
51D
330
5A
100
AcDbEntity
  8
LC-002-002-----0
  6
Continuous
 62
     7
100
AcDbLine
 10
-53.0472539679248
 20
-303.0768313396907
 30
0.0
 11
-46.82643796792479
 21
-304.1737283396907
 31
0.0
  0
LINE
  5
51E
330
5A
100
AcDbEntity
  8
LC-002-002-----0
  6
Continuous
 62
     7
100
AcDbLine
 10
-46.50008596792486
 20
-437.6209993396907
 30
0.0
 11
-53.00008596792486
 21
-437.6209993396907
 31
0.0
  0
LINE
  5
51F
330
5A
100
AcDbEntity
  8
LC-002-002-----0
  6
Continuous
 62
     7
100
AcDbLine
 10
-46.00008596792486
 20
-326.1495083396908
 30
0.0
 11
-46.00008596792486
 21
-317.4887023396908
 31
0.0
  0
LINE
  5
520
330
5A
100
AcDbEntity
  8
LC-002-002-----0
  6
Continuous
 62
     7
100
AcDbLine
 10
-46.00008596792486
 20
-313.8193423396908
 30
0.0
 11
-46.00008596792486
 21
-305.1585363396908
 31
0.0
  0
LINE
  5
521
330
5A
100
AcDbEntity
  8
LC-002-002-----0
  6
Continuous
 62
     7
100
AcDbLine
 10
-46.00008596792486
 20
-301.4891763396908
 30
0.0
 11
-46.00008596792486
 21
-292.8283703396908
 31
0.0
  0
LINE
  5
522
330
5A
100
AcDbEntity
  8
LC-002-002-----0
  6
Continuous
 62
     7
100
AcDbLine
 10
-46.50008596792486
 20
-449.9511643396908
 30
0.0
 11
-53.00008596792486
 21
-449.9511643396908
 31
0.0
  0
LINE
  5
523
330
5A
100
AcDbEntity
  8
LC-002-002-----0
  6
Continuous
 62
     7
100
AcDbLine
 10
-46.00008596792486
 20
-289.1590113396908
 30
0.0
 11
-46.00008596792486
 21
-280.4982053396907
 31
0.0
  0
LINE
  5
524
330
5A
100
AcDbEntity
  8
LC-002-002-----0
  6
Continuous
 62
     7
100
AcDbLine
 10
-46.00008596792486
 20
-449.4511643396908
 30
0.0
 11
-46.00008596792486
 21
-440.7903583396908
 31
0.0
  0
LINE
  5
525
330
5A
100
AcDbEntity
  8
LC-002-002-----0
  6
Continuous
 62
     7
100
AcDbLine
 10
-46.00008596792486
 20
-453.1205243396908
 30
0.0
 11
-46.00008596792486
 21
-453.5083303396908
 31
0.0
  0
LINE
  5
526
330
5A
100
AcDbEntity
  8
LC-002-002-----0
  6
Continuous
 62
     7
100
AcDbLine
 10
45.99991403207514
 20
-239.8383483396908
 30
0.0
 11
45.99991403207514
 21
-231.1775423396908
 31
0.0
  0
LINE
  5
527
330
5A
100
AcDbEntity
  8
LC-002-002-----0
  6
Continuous
 62
     7
100
AcDbLine
 10
45.99991403207514
 20
-252.1685143396908
 30
0.0
 11
45.99991403207514
 21
-243.5077083396908
 31
0.0
  0
LINE
  5
528
330
5A
100
AcDbEntity
  8
LC-002-002-----0
  6
Continuous
 62
     7
100
AcDbLine
 10
45.99991403207514
 20
-264.4986803396908
 30
0.0
 11
45.99991403207514
 21
-255.8378733396908
 31
0.0
  0
LINE
  5
529
330
5A
100
AcDbEntity
  8
LC-002-002-----0
  6
Continuous
 62
     7
100
AcDbLine
 10
45.99991403207514
 20
-276.8288453396908
 30
0.0
 11
45.99991403207514
 21
-268.1680393396908
 31
0.0
  0
LINE
  5
52A
330
5A
100
AcDbEntity
  8
LC-002-002-----0
  6
Continuous
 62
     7
100
AcDbLine
 10
53.0470820320752
 20
-290.7466653396908
 30
0.0
 11
46.82626603207518
 21
-291.8435633396908
 31
0.0
  0
LINE
  5
52B
330
5A
100
AcDbEntity
  8
LC-002-002-----0
  6
Continuous
 62
     7
100
AcDbLine
 10
53.0470820320752
 20
-278.4164993396908
 30
0.0
 11
46.82626603207518
 21
-279.5133973396908
 31
0.0
  0
LINE
  5
52C
330
5A
100
AcDbEntity
  8
LC-002-002-----0
  6
Continuous
 62
     7
100
AcDbLine
 10
53.0470820320752
 20
-266.0863343396908
 30
0.0
 11
46.82626603207518
 21
-267.1832313396907
 31
0.0
  0
LINE
  5
52D
330
5A
100
AcDbEntity
  8
LC-002-002-----0
  6
Continuous
 62
     7
100
AcDbLine
 10
52.95192503207522
 20
-228.0081833396908
 30
0.0
 11
44.99991903207524
 21
-228.0081833396908
 31
0.0
  0
LINE
  5
52E
330
5A
100
AcDbEntity
  8
LC-002-002-----0
  6
Continuous
 62
     7
100
AcDbLine
 10
-46.00008596792486
 20
-239.8383483396908
 30
0.0
 11
-46.00008596792486
 21
-231.1775423396908
 31
0.0
  0
LINE
  5
52F
330
5A
100
AcDbEntity
  8
LC-002-002-----0
  6
Continuous
 62
     7
100
AcDbLine
 10
-46.00008596792486
 20
-252.1685143396908
 30
0.0
 11
-46.00008596792486
 21
-243.5077083396908
 31
0.0
  0
LINE
  5
530
330
5A
100
AcDbEntity
  8
LC-002-002-----0
  6
Continuous
 62
     7
100
AcDbLine
 10
-46.00008596792486
 20
-264.4986803396908
 30
0.0
 11
-46.00008596792486
 21
-255.8378733396908
 31
0.0
  0
LINE
  5
531
330
5A
100
AcDbEntity
  8
LC-002-002-----0
  6
Continuous
 62
     7
100
AcDbLine
 10
-46.00008596792486
 20
-276.8288453396908
 30
0.0
 11
-46.00008596792486
 21
-268.1680393396908
 31
0.0
  0
LINE
  5
532
330
5A
100
AcDbEntity
  8
LC-002-002-----0
  6
Continuous
 62
     7
100
AcDbLine
 10
-53.0472539679248
 20
-290.7466653396908
 30
0.0
 11
-46.82643796792479
 21
-291.8435633396908
 31
0.0
  0
LINE
  5
533
330
5A
100
AcDbEntity
  8
LC-002-002-----0
  6
Continuous
 62
     7
100
AcDbLine
 10
-53.0472539679248
 20
-278.4164993396908
 30
0.0
 11
-46.82643796792479
 21
-279.5133973396908
 31
0.0
  0
LINE
  5
534
330
5A
100
AcDbEntity
  8
LC-002-002-----0
  6
Continuous
 62
     7
100
AcDbLine
 10
-53.0472539679248
 20
-266.0863343396908
 30
0.0
 11
-46.82643796792479
 21
-267.1832313396907
 31
0.0
  0
LINE
  5
535
330
5A
100
AcDbEntity
  8
LC-002-002-----0
  6
Continuous
 62
     7
100
AcDbLine
 10
52.99991403207514
 20
-240.3383483396908
 30
0.0
 11
-46.50008596792486
 21
-240.3383483396908
 31
0.0
  0
LINE
  5
536
330
5A
100
AcDbEntity
  8
LC-002-002-----0
  6
Continuous
 62
     7
100
AcDbLine
 10
52.99991403207514
 20
-252.6685143396908
 30
0.0
 11
46.49991403207514
 21
-252.6685143396908
 31
0.0
  0
LINE
  5
537
330
5A
100
AcDbEntity
  8
LC-002-002-----0
  6
Continuous
 62
     7
100
AcDbLine
 10
52.99991403207514
 20
-264.9986803396908
 30
0.0
 11
-49.75008596792486
 21
-264.9986803396908
 31
0.0
  0
LINE
  5
538
330
5A
100
AcDbEntity
  8
LC-002-002-----0
  6
Continuous
 62
     7
100
AcDbLine
 10
-52.95209596792483
 20
-228.0081833396908
 30
0.0
 11
-45.0
 21
-228.0081833396908
 31
0.0
  0
LINE
  5
539
330
5A
100
AcDbEntity
  8
LC-002-002-----0
  6
Continuous
 62
     7
100
AcDbLine
 10
-53.00008596792486
 20
-240.3383483396908
 30
0.0
 11
-46.50008596792486
 21
-240.3383483396908
 31
0.0
  0
LINE
  5
53A
330
5A
100
AcDbEntity
  8
LC-002-002-----0
  6
Continuous
 62
     7
100
AcDbLine
 10
-53.00008596792486
 20
-252.6685143396908
 30
0.0
 11
46.49991403207514
 21
-252.6685143396908
 31
0.0
  0
LINE
  5
53B
330
5A
100
AcDbEntity
  8
LC-002-002-----0
  6
Continuous
 62
     7
100
AcDbLine
 10
-53.00008596792486
 20
-264.9986803396908
 30
0.0
 11
-46.50008596792486
 21
-264.9986803396908
 31
0.0
  0
LINE
  5
53C
330
5A
100
AcDbEntity
  8
LC-002-002-----0
  6
Continuous
 62
     7
100
AcDbLine
 10
53.0470820320752
 20
-253.7561683396908
 30
0.0
 11
46.82626603207518
 21
-254.8530663396908
 31
0.0
  0
LINE
  5
53D
330
5A
100
AcDbEntity
  8
LC-002-002-----0
  6
Continuous
 62
     7
100
AcDbLine
 10
53.0470820320752
 20
-241.4260023396908
 30
0.0
 11
46.82626603207518
 21
-242.5229003396908
 31
0.0
  0
LINE
  5
53E
330
5A
100
AcDbEntity
  8
LC-002-002-----0
  6
Continuous
 62
     7
100
AcDbLine
 10
-53.0472539679248
 20
-253.7561683396908
 30
0.0
 11
-46.82643796792479
 21
-254.8530663396908
 31
0.0
  0
LINE
  5
53F
330
5A
100
AcDbEntity
  8
LC-002-002-----0
  6
Continuous
 62
     7
100
AcDbLine
 10
-53.0472539679248
 20
-241.4260023396908
 30
0.0
 11
-46.82643796792479
 21
-242.5229003396908
 31
0.0
  0
LINE
  5
540
330
5A
100
AcDbEntity
  8
LC-002-002-----0
  6
Continuous
 62
     7
100
AcDbLine
 10
41.99991403207514
 20
-464.0083303396908
 30
0.0
 11
43.79414303207523
 21
-464.0083303396908
 31
0.0
  0
LINE
  5
541
330
5A
100
AcDbEntity
  8
LC-002-002-----0
  6
Continuous
 62
     7
100
AcDbLine
 10
-42.00008596792486
 20
-464.0083303396908
 30
0.0
 11
-43.79431396792484
 21
-464.0083303396908
 31
0.0
  0
LINE
  5
542
330
5A
100
AcDbEntity
  8
LC-002-002-----0
  6
Continuous
 62
     7
100
AcDbLine
 10
0.00025803207518
 20
-464.0083303396908
 30
0.0
 11
-42.00008596792486
 21
-464.0083303396908
 31
0.0
  0
LINE
  5
543
330
5A
100
AcDbEntity
  8
LC-002-002-----0
  6
Continuous
 62
     7
100
AcDbLine
 10
-43.79431396792484
 20
-464.0083303396908
 30
0.0
 11
-45.00008596792486
 21
-459.5083303396908
 31
0.0
  0
LINE
  5
544
330
5A
100
AcDbEntity
  8
LC-002-002-----0
  6
Continuous
 62
     7
100
AcDbLine
 10
43.79414303207523
 20
-464.0083303396908
 30
0.0
 11
44.99991403207514
 21
-459.5083303396908
 31
0.0
  0
LINE
  5
545
330
5A
100
AcDbEntity
  8
LC-002-002-----0
  6
Continuous
 62
     7
100
AcDbLine
 10
0.00025803207518
 20
-464.0083303396908
 30
0.0
 11
41.99991403207514
 21
-464.0083303396908
 31
0.0
  0
LINE
  5
546
330
5A
100
AcDbEntity
  8
LC-002-002-----0
  6
Continuous
 62
     7
100
AcDbLine
 10
-45.0
 20
-228.0081833396908
 30
0.0
 11
44.99994803207517
 21
-228.0081833396908
 31
0.0
  0
ARC
  5
547
330
5A
100
AcDbEntity
  8
LC-001-002-----0
  6
Continuous
 62
     7
100
AcDbCircle
 10
-47.00025500000243
 20
-6.85148699999991
 30
0.0
 40
11.4014874978041
100
AcDbArc
 50
63.12196099999268
 51
86.94693616209597
  0
ARC
  5
548
330
5A
100
AcDbEntity
  8
LC-001-002-----0
  6
Continuous
 62
     7
100
AcDbCircle
 10
-47.00025500000243
 20
-6.85148699999991
 30
0.0
 40
11.40148749780247
100
AcDbArc
 50
86.94693616209597
 51
95.19799420517315
  0
ARC
  5
549
330
5A
100
AcDbEntity
  8
LC-001-002-----0
  6
Continuous
 62
     7
100
AcDbCircle
 10
46.99967899999763
 20
-6.85148699999991
 30
0.0
 40
11.4014874978041
100
AcDbArc
 50
63.12196099999268
 51
84.81509314757326
  0
ARC
  5
54A
330
5A
100
AcDbEntity
  8
LC-001-002-----0
  6
Continuous
 62
     7
100
AcDbCircle
 10
46.99967899999763
 20
-6.85148699999991
 30
0.0
 40
11.40148749780247
100
AcDbArc
 50
84.81509314757326
 51
93.06556348278399
  0
ARC
  5
54B
330
5A
100
AcDbEntity
  8
LC-003-002-RND-0
  6
Continuous
 62
     7
100
AcDbCircle
 10
-51.24991000000205
 20
1.5347159999983
 30
0.0
 40
1.999999999999654
100
AcDbArc
 50
116.8733199999781
 51
179.9974700000051
  0
ARC
  5
54C
330
5A
100
AcDbEntity
  8
LC-001-002-----0
  6
Continuous
 62
     7
100
AcDbCircle
 10
-47.00025500000243
 20
-6.85148699999991
 30
0.0
 40
11.40148749780247
100
AcDbArc
 50
95.19799420517315
 51
116.8733199999972
  0
ARC
  5
54D
330
5A
100
AcDbEntity
  8
LC-003-002-RND-0
  6
Continuous
 62
     7
100
AcDbCircle
 10
-42.74991000000205
 20
1.53436599999986
 30
0.0
 40
1.999999999999876
100
AcDbArc
 50
-0.0025299999949
 51
63.12196099999134
  0
ARC
  5
54E
330
5A
100
AcDbEntity
  8
LC-003-002-RND-0
  6
Continuous
 62
     7
100
AcDbCircle
 10
51.25002399999801
 20
1.53436599999986
 30
0.0
 40
1.999999999999869
100
AcDbArc
 50
-0.0025299999949
 51
63.12196099999171
  0
ARC
  5
54F
330
5A
100
AcDbEntity
  8
LC-001-002-----0
  6
Continuous
 62
     7
100
AcDbCircle
 10
46.99967899999763
 20
-6.85148699999991
 30
0.0
 40
11.40148749780247
100
AcDbArc
 50
93.06556348278399
 51
116.8733199999972
  0
ARC
  5
550
330
5A
100
AcDbEntity
  8
LC-003-002-RND-0
  6
Continuous
 62
     7
100
AcDbCircle
 10
42.75002399999801
 20
1.5347159999983
 30
0.0
 40
1.999999999999657
100
AcDbArc
 50
116.8733199999782
 51
179.9974700000051
  0
ARC
  5
551
330
5A
100
AcDbEntity
  8
LC-003-002-RND-0
  6
Continuous
 62
     7
100
AcDbCircle
 10
-89.76097200000004
 20
1.5386789999975
 30
0.0
 40
2.0
100
AcDbArc
 50
0.0
 51
63.12415000007062
  0
ARC
  5
552
330
5A
100
AcDbEntity
  8
LC-001-002-----0
  6
Continuous
 62
     7
100
AcDbCircle
 10
-94.01099700000123
 20
-6.84733600000254
 30
0.0
 40
11.40148749780681
100
AcDbArc
 50
63.12415000000443
 51
116.8755089999916
  0
ARC
  5
553
330
5A
100
AcDbEntity
  8
LC-003-002-RND-0
  6
Continuous
 62
     7
100
AcDbCircle
 10
-98.26097200000004
 20
1.53870499999903
 30
0.0
 40
2.000000000001474
100
AcDbArc
 50
116.8755089999991
 51
180.0
  0
ARC
  5
554
330
5A
100
AcDbEntity
  8
LC-003-002-RND-0
  6
Continuous
 62
     7
100
AcDbCircle
 10
89.74999399999797
 20
1.5347159999983
 30
0.0
 40
1.999999999999657
100
AcDbArc
 50
116.8733199999782
 51
179.9974700000051
  0
ARC
  5
555
330
5A
100
AcDbEntity
  8
LC-001-002-----0
  6
Continuous
 62
     7
100
AcDbCircle
 10
93.99964899999759
 20
-6.85148699999991
 30
0.0
 40
11.4014874978041
100
AcDbArc
 50
63.12196099999268
 51
116.8733199999972
  0
ARC
  5
556
330
5A
100
AcDbEntity
  8
LC-003-002-RND-0
  6
Continuous
 62
     7
100
AcDbCircle
 10
98.24999399999797
 20
1.53436599999986
 30
0.0
 40
1.999999999999855
100
AcDbArc
 50
-0.0025299999949
 51
63.12196099999152
  0
ARC
  5
557
330
5A
100
AcDbEntity
  8
LC-002-002-RND-0
  6
Continuous
 62
     7
100
AcDbCircle
 10
175.0000000000001
 20
-5.236469
 30
0.0
 40
2.0
100
AcDbArc
 50
0.0
 51
90.0
  0
ARC
  5
558
330
5A
100
AcDbEntity
  8
LC-002-002-RND-0
  6
Continuous
 62
     7
100
AcDbCircle
 10
-175.0
 20
-5.236469
 30
0.0
 40
2.0
100
AcDbArc
 50
90.0
 51
180.0
  0
ARC
  5
559
330
5A
100
AcDbEntity
  8
LC-002-002-RND-0
  6
Continuous
 62
     7
100
AcDbCircle
 10
99.50519700000007
 20
-29.736469
 30
0.0
 40
0.5
100
AcDbArc
 50
-90.0
 51
0.00004499999191
  0
ARC
  5
55A
330
5A
100
AcDbEntity
  8
LC-002-002-RND-0
  6
Continuous
 62
     7
100
AcDbCircle
 10
-99.50509799999998
 20
-29.736492
 30
0.0
 40
0.4999999999995142
100
AcDbArc
 50
-179.9996659999872
 51
-89.99975200002976
  0
ARC
  5
55B
330
5A
100
AcDbEntity
  8
LC-002-002-RND-0
  6
Continuous
 62
     7
100
AcDbCircle
 10
-48.450245
 20
55.79342000000003
 30
0.0
 40
15.00000000000027
100
AcDbArc
 50
90.00007900000142
 51
160.0000000000008
  0
ARC
  5
55C
330
5A
100
AcDbEntity
  8
LC-002-002-RND-0
  6
Continuous
 62
     7
100
AcDbCircle
 10
48.44696600000009
 20
55.79355300000003
 30
0.0
 40
14.99999999999944
100
AcDbArc
 50
20.00015699999918
 51
90.00007900000188
  0
ARC
  5
55D
330
5A
100
AcDbEntity
  8
LC-002-002-RND-0
  6
Continuous
 62
     7
100
AcDbCircle
 10
-77.75
 20
-44.13170600226366
 30
0.0
 40
3.0
100
AcDbArc
 50
180.0
 51
-90.0
  0
ARC
  5
55E
330
5A
100
AcDbEntity
  8
LC-002-002-RND-0
  6
Continuous
 62
     7
100
AcDbCircle
 10
-60.00000499999999
 20
-98.18610313093566
 30
0.0
 40
3.0
100
AcDbArc
 50
180.0
 51
-90.0
  0
ARC
  5
55F
330
5A
100
AcDbEntity
  8
LC-002-002-RND-0
  6
Continuous
 62
     7
100
AcDbCircle
 10
60.00000499999999
 20
-98.18610313093566
 30
0.0
 40
3.000000000000043
100
AcDbArc
 50
-90.0
 51
0.0
  0
ARC
  5
560
330
5A
100
AcDbEntity
  8
LC-002-002-RND-0
  6
Continuous
 62
     7
100
AcDbCircle
 10
77.75
 20
-44.18575713093564
 30
0.0
 40
3.0
100
AcDbArc
 50
-90.0
 51
0.0
  0
ARC
  5
561
330
5A
100
AcDbEntity
  8
LC-001-002-RND-0
  6
Continuous
 62
     7
100
AcDbCircle
 10
46.99991403207514
 20
-453.1205243396908
 30
0.0
 40
1.000000000000125
100
AcDbArc
 50
100.0000000000039
 51
180.0
  0
ARC
  5
562
330
5A
100
AcDbEntity
  8
LC-001-002-RND-0
  6
Continuous
 62
     7
100
AcDbCircle
 10
-47.00008596792486
 20
-453.1205243396908
 30
0.0
 40
1.0
100
AcDbArc
 50
0.0
 51
79.99999999999612
  0
ARC
  5
563
330
5A
100
AcDbEntity
  8
LC-001-002-RND-0
  6
Continuous
 62
     7
100
AcDbCircle
 10
46.99991403207514
 20
-440.7903583396908
 30
0.0
 40
1.000000000000013
100
AcDbArc
 50
100.000000000005
 51
180.0
  0
ARC
  5
564
330
5A
100
AcDbEntity
  8
LC-001-002-RND-0
  6
Continuous
 62
     7
100
AcDbCircle
 10
46.49991403207514
 20
-289.1590113396908
 30
0.0
 40
0.5
100
AcDbArc
 50
180.0
 51
-90.0
  0
ARC
  5
565
330
5A
100
AcDbEntity
  8
LC-001-002-RND-0
  6
Continuous
 62
     7
100
AcDbCircle
 10
46.49991403207514
 20
-301.4891763396908
 30
0.0
 40
0.5
100
AcDbArc
 50
180.0
 51
-90.0
  0
ARC
  5
566
330
5A
100
AcDbEntity
  8
LC-001-002-RND-0
  6
Continuous
 62
     7
100
AcDbCircle
 10
46.49991403207514
 20
-313.8193423396908
 30
0.0
 40
0.5
100
AcDbArc
 50
180.0
 51
-90.0
  0
ARC
  5
567
330
5A
100
AcDbEntity
  8
LC-001-002-RND-0
  6
Continuous
 62
     7
100
AcDbCircle
 10
46.49991403207514
 20
-326.1495083396908
 30
0.0
 40
0.5
100
AcDbArc
 50
180.0
 51
-90.0
  0
ARC
  5
568
330
5A
100
AcDbEntity
  8
LC-001-002-RND-0
  6
Continuous
 62
     7
100
AcDbCircle
 10
46.49991403207514
 20
-338.4796733396908
 30
0.0
 40
0.5
100
AcDbArc
 50
180.0
 51
-90.0
  0
ARC
  5
569
330
5A
100
AcDbEntity
  8
LC-001-002-RND-0
  6
Continuous
 62
     7
100
AcDbCircle
 10
46.49991403207514
 20
-350.8098393396908
 30
0.0
 40
0.5
100
AcDbArc
 50
180.0
 51
-90.0
  0
ARC
  5
56A
330
5A
100
AcDbEntity
  8
LC-001-002-RND-0
  6
Continuous
 62
     7
100
AcDbCircle
 10
46.49991403207514
 20
-363.1400053396908
 30
0.0
 40
0.5
100
AcDbArc
 50
180.0
 51
-90.0
  0
ARC
  5
56B
330
5A
100
AcDbEntity
  8
LC-001-002-RND-0
  6
Continuous
 62
     7
100
AcDbCircle
 10
46.49991403207514
 20
-375.4701703396908
 30
0.0
 40
0.5
100
AcDbArc
 50
180.0
 51
-90.0
  0
ARC
  5
56C
330
5A
100
AcDbEntity
  8
LC-001-002-RND-0
  6
Continuous
 62
     7
100
AcDbCircle
 10
46.49991403207514
 20
-387.8003363396908
 30
0.0
 40
0.5
100
AcDbArc
 50
180.0
 51
-90.0
  0
ARC
  5
56D
330
5A
100
AcDbEntity
  8
LC-001-002-RND-0
  6
Continuous
 62
     7
100
AcDbCircle
 10
46.49991403207514
 20
-400.1305023396907
 30
0.0
 40
0.5
100
AcDbArc
 50
180.0
 51
-90.0
  0
ARC
  5
56E
330
5A
100
AcDbEntity
  8
LC-001-002-RND-0
  6
Continuous
 62
     7
100
AcDbCircle
 10
46.49991403207514
 20
-412.4606673396908
 30
0.0
 40
0.5
100
AcDbArc
 50
180.0
 51
-90.0
  0
ARC
  5
56F
330
5A
100
AcDbEntity
  8
LC-001-002-RND-0
  6
Continuous
 62
     7
100
AcDbCircle
 10
46.49991403207514
 20
-424.7908333396908
 30
0.0
 40
0.5
100
AcDbArc
 50
180.0
 51
-90.0
  0
ARC
  5
570
330
5A
100
AcDbEntity
  8
LC-001-002-RND-0
  6
Continuous
 62
     7
100
AcDbCircle
 10
46.49991403207514
 20
-449.4511643396908
 30
0.0
 40
0.5
100
AcDbArc
 50
180.0
 51
-90.0
  0
ARC
  5
571
330
5A
100
AcDbEntity
  8
LC-001-002-RND-0
  6
Continuous
 62
     7
100
AcDbCircle
 10
46.49991403207514
 20
-437.1209993396907
 30
0.0
 40
0.5
100
AcDbArc
 50
180.0
 51
-90.0
  0
ARC
  5
572
330
5A
100
AcDbEntity
  8
LC-001-002-RND-0
  6
Continuous
 62
     7
100
AcDbCircle
 10
46.99991403207514
 20
-428.4601933396908
 30
0.0
 40
1.000000000000013
100
AcDbArc
 50
100.000000000005
 51
180.0
  0
ARC
  5
573
330
5A
100
AcDbEntity
  8
LC-001-002-RND-0
  6
Continuous
 62
     7
100
AcDbCircle
 10
46.99991403207514
 20
-416.1300273396907
 30
0.0
 40
0.9999999999999009
100
AcDbArc
 50
100.0000000000062
 51
180.0
  0
ARC
  5
574
330
5A
100
AcDbEntity
  8
LC-001-002-RND-0
  6
Continuous
 62
     7
100
AcDbCircle
 10
-47.00008596792486
 20
-440.7903583396908
 30
0.0
 40
1.0
100
AcDbArc
 50
0.0
 51
79.99999999999498
  0
ARC
  5
575
330
5A
100
AcDbEntity
  8
LC-001-002-RND-0
  6
Continuous
 62
     7
100
AcDbCircle
 10
46.99991403207514
 20
-403.7998613396908
 30
0.0
 40
1.000000000000013
100
AcDbArc
 50
100.000000000005
 51
180.0
  0
ARC
  5
576
330
5A
100
AcDbEntity
  8
LC-001-002-RND-0
  6
Continuous
 62
     7
100
AcDbCircle
 10
46.99991403207514
 20
-391.4696963396908
 30
0.0
 40
1.000000000000013
100
AcDbArc
 50
100.000000000005
 51
180.0
  0
ARC
  5
577
330
5A
100
AcDbEntity
  8
LC-001-002-RND-0
  6
Continuous
 62
     7
100
AcDbCircle
 10
46.99991403207514
 20
-379.1395303396908
 30
0.0
 40
1.000000000000013
100
AcDbArc
 50
100.000000000005
 51
180.0
  0
ARC
  5
578
330
5A
100
AcDbEntity
  8
LC-001-002-RND-0
  6
Continuous
 62
     7
100
AcDbCircle
 10
46.99991403207514
 20
-366.8093643396908
 30
0.0
 40
0.9999999999999568
100
AcDbArc
 50
100.0000000000056
 51
180.0
  0
ARC
  5
579
330
5A
100
AcDbEntity
  8
LC-001-002-RND-0
  6
Continuous
 62
     7
100
AcDbCircle
 10
46.99991403207514
 20
-354.4791993396908
 30
0.0
 40
1.000000000000013
100
AcDbArc
 50
100.000000000005
 51
180.0
  0
ARC
  5
57A
330
5A
100
AcDbEntity
  8
LC-001-002-RND-0
  6
Continuous
 62
     7
100
AcDbCircle
 10
46.99991403207514
 20
-342.1490333396908
 30
0.0
 40
1.000000000000013
100
AcDbArc
 50
100.000000000005
 51
180.0
  0
ARC
  5
57B
330
5A
100
AcDbEntity
  8
LC-001-002-RND-0
  6
Continuous
 62
     7
100
AcDbCircle
 10
46.99991403207514
 20
-329.8188673396908
 30
0.0
 40
0.9999999999999568
100
AcDbArc
 50
100.0000000000056
 51
180.0
  0
ARC
  5
57C
330
5A
100
AcDbEntity
  8
LC-001-002-RND-0
  6
Continuous
 62
     7
100
AcDbCircle
 10
46.99991403207514
 20
-317.4887023396908
 30
0.0
 40
0.9999999999997888
100
AcDbArc
 50
100.0000000000073
 51
180.0
  0
ARC
  5
57D
330
5A
100
AcDbEntity
  8
LC-001-002-RND-0
  6
Continuous
 62
     7
100
AcDbCircle
 10
46.99991403207514
 20
-305.1585363396908
 30
0.0
 40
0.9999999999997888
100
AcDbArc
 50
100.0000000000073
 51
180.0
  0
ARC
  5
57E
330
5A
100
AcDbEntity
  8
LC-001-002-RND-0
  6
Continuous
 62
     7
100
AcDbCircle
 10
46.99991403207514
 20
-292.8283703396908
 30
0.0
 40
0.9999999999999568
100
AcDbArc
 50
100.0000000000056
 51
180.0
  0
ARC
  5
57F
330
5A
100
AcDbEntity
  8
LC-001-002-RND-0
  6
Continuous
 62
     7
100
AcDbCircle
 10
46.99991403207514
 20
-280.4982053396907
 30
0.0
 40
0.9999999999996769
100
AcDbArc
 50
100.0000000000084
 51
180.0
  0
ARC
  5
580
330
5A
100
AcDbEntity
  8
LC-001-002-RND-0
  6
Continuous
 62
     7
100
AcDbCircle
 10
46.99991403207514
 20
-268.1680393396908
 30
0.0
 40
0.9999999999997888
100
AcDbArc
 50
100.0000000000073
 51
180.0
  0
ARC
  5
581
330
5A
100
AcDbEntity
  8
LC-001-002-RND-0
  6
Continuous
 62
     7
100
AcDbCircle
 10
46.99991403207514
 20
-255.8378733396908
 30
0.0
 40
0.9999999999997888
100
AcDbArc
 50
100.0000000000073
 51
180.0
  0
ARC
  5
582
330
5A
100
AcDbEntity
  8
LC-001-002-RND-0
  6
Continuous
 62
     7
100
AcDbCircle
 10
46.99991403207514
 20
-243.5077083396908
 30
0.0
 40
0.9999999999998168
100
AcDbArc
 50
100.000000000007
 51
180.0
  0
ARC
  5
583
330
5A
100
AcDbEntity
  8
LC-002-002-----0
  6
Continuous
 62
     7
100
AcDbCircle
 10
52.95192503207522
 20
-450.4991543396908
 30
0.0
 40
0.547990000000126
100
AcDbArc
 50
-79.99999999997024
 51
90.0
  0
ARC
  5
584
330
5A
100
AcDbEntity
  8
LC-002-002-----0
  6
Continuous
 62
     7
100
AcDbCircle
 10
52.95192503207522
 20
-438.1689883396908
 30
0.0
 40
0.54799000000007
100
AcDbArc
 50
-79.9999999999692
 51
90.0
  0
ARC
  5
585
330
5A
100
AcDbEntity
  8
LC-002-002-----0
  6
Continuous
 62
     7
100
AcDbCircle
 10
52.95192503207522
 20
-425.8388233396908
 30
0.0
 40
0.547990000000014
100
AcDbArc
 50
-79.99999999996818
 51
90.0
  0
ARC
  5
586
330
5A
100
AcDbEntity
  8
LC-002-002-----0
  6
Continuous
 62
     7
100
AcDbCircle
 10
52.95192503207522
 20
-413.5086573396908
 30
0.0
 40
0.547990000000126
100
AcDbArc
 50
-79.99999999997024
 51
90.0
  0
ARC
  5
587
330
5A
100
AcDbEntity
  8
LC-002-002-----0
  6
Continuous
 62
     7
100
AcDbCircle
 10
52.95192503207522
 20
-401.1784913396908
 30
0.0
 40
0.547989999999958
100
AcDbArc
 50
-79.99999999996714
 51
90.0
  0
ARC
  5
588
330
5A
100
AcDbEntity
  8
LC-002-002-----0
  6
Continuous
 62
     7
100
AcDbCircle
 10
52.95192503207522
 20
-388.8483263396907
 30
0.0
 40
0.5479900000001819
100
AcDbArc
 50
-79.99999999997127
 51
90.0
  0
ARC
  5
589
330
5A
100
AcDbEntity
  8
LC-002-002-----0
  6
Continuous
 62
     7
100
AcDbCircle
 10
52.95192503207522
 20
-376.5181603396908
 30
0.0
 40
0.547990000000126
100
AcDbArc
 50
-79.99999999997024
 51
90.0
  0
ARC
  5
58A
330
5A
100
AcDbEntity
  8
LC-002-002-----0
  6
Continuous
 62
     7
100
AcDbCircle
 10
52.95192503207522
 20
-364.1879943396908
 30
0.0
 40
0.547989999999958
100
AcDbArc
 50
-79.99999999996714
 51
90.0
  0
ARC
  5
58B
330
5A
100
AcDbEntity
  8
LC-002-002-----0
  6
Continuous
 62
     7
100
AcDbCircle
 10
52.95192503207522
 20
-351.8578293396908
 30
0.0
 40
0.54799000000007
100
AcDbArc
 50
-79.9999999999692
 51
90.0
  0
ARC
  5
58C
330
5A
100
AcDbEntity
  8
LC-002-002-----0
  6
Continuous
 62
     7
100
AcDbCircle
 10
52.95192503207522
 20
-339.5276633396908
 30
0.0
 40
0.547990000000126
100
AcDbArc
 50
-79.99999999997024
 51
90.0
  0
ARC
  5
58D
330
5A
100
AcDbEntity
  8
LC-002-002-----0
  6
Continuous
 62
     7
100
AcDbCircle
 10
52.95192503207522
 20
-327.1974973396908
 30
0.0
 40
0.547989999999902
100
AcDbArc
 50
-79.99999999996612
 51
90.0
  0
ARC
  5
58E
330
5A
100
AcDbEntity
  8
LC-002-002-----0
  6
Continuous
 62
     7
100
AcDbCircle
 10
52.95192503207522
 20
-314.8673323396908
 30
0.0
 40
0.54798999999979
100
AcDbArc
 50
-79.99999999996406
 51
90.0
  0
ARC
  5
58F
330
5A
100
AcDbEntity
  8
LC-002-002-----0
  6
Continuous
 62
     7
100
AcDbCircle
 10
52.95192503207522
 20
-302.5371663396908
 30
0.0
 40
0.5479899999998461
100
AcDbArc
 50
-79.99999999996508
 51
90.0
  0
ARC
  5
590
330
5A
100
AcDbEntity
  8
LC-001-002-RND-0
  6
Continuous
 62
     7
100
AcDbCircle
 10
-46.50008596792486
 20
-289.1590113396908
 30
0.0
 40
0.5
100
AcDbArc
 50
-90.0
 51
0.0
  0
ARC
  5
591
330
5A
100
AcDbEntity
  8
LC-001-002-RND-0
  6
Continuous
 62
     7
100
AcDbCircle
 10
-46.50008596792486
 20
-301.4891763396908
 30
0.0
 40
0.5
100
AcDbArc
 50
-90.0
 51
0.0
  0
ARC
  5
592
330
5A
100
AcDbEntity
  8
LC-001-002-RND-0
  6
Continuous
 62
     7
100
AcDbCircle
 10
-46.50008596792486
 20
-313.8193423396908
 30
0.0
 40
0.5
100
AcDbArc
 50
-90.0
 51
0.0
  0
ARC
  5
593
330
5A
100
AcDbEntity
  8
LC-001-002-RND-0
  6
Continuous
 62
     7
100
AcDbCircle
 10
-46.50008596792486
 20
-326.1495083396908
 30
0.0
 40
0.5
100
AcDbArc
 50
-90.0
 51
0.0
  0
ARC
  5
594
330
5A
100
AcDbEntity
  8
LC-001-002-RND-0
  6
Continuous
 62
     7
100
AcDbCircle
 10
-46.50008596792486
 20
-338.4796733396908
 30
0.0
 40
0.5
100
AcDbArc
 50
-90.0
 51
0.0
  0
ARC
  5
595
330
5A
100
AcDbEntity
  8
LC-001-002-RND-0
  6
Continuous
 62
     7
100
AcDbCircle
 10
-46.50008596792486
 20
-350.8098393396908
 30
0.0
 40
0.5
100
AcDbArc
 50
-90.0
 51
0.0
  0
ARC
  5
596
330
5A
100
AcDbEntity
  8
LC-001-002-RND-0
  6
Continuous
 62
     7
100
AcDbCircle
 10
-46.50008596792486
 20
-363.1400053396908
 30
0.0
 40
0.5
100
AcDbArc
 50
-90.0
 51
0.0
  0
ARC
  5
597
330
5A
100
AcDbEntity
  8
LC-001-002-RND-0
  6
Continuous
 62
     7
100
AcDbCircle
 10
-46.50008596792486
 20
-375.4701703396908
 30
0.0
 40
0.5
100
AcDbArc
 50
-90.0
 51
0.0
  0
ARC
  5
598
330
5A
100
AcDbEntity
  8
LC-001-002-RND-0
  6
Continuous
 62
     7
100
AcDbCircle
 10
-46.50008596792486
 20
-387.8003363396908
 30
0.0
 40
0.5
100
AcDbArc
 50
-90.0
 51
0.0
  0
ARC
  5
599
330
5A
100
AcDbEntity
  8
LC-001-002-RND-0
  6
Continuous
 62
     7
100
AcDbCircle
 10
-46.50008596792486
 20
-400.1305023396907
 30
0.0
 40
0.5
100
AcDbArc
 50
-90.0
 51
0.0
  0
ARC
  5
59A
330
5A
100
AcDbEntity
  8
LC-001-002-RND-0
  6
Continuous
 62
     7
100
AcDbCircle
 10
-46.50008596792486
 20
-412.4606673396908
 30
0.0
 40
0.5
100
AcDbArc
 50
-90.0
 51
0.0
  0
ARC
  5
59B
330
5A
100
AcDbEntity
  8
LC-001-002-RND-0
  6
Continuous
 62
     7
100
AcDbCircle
 10
-46.50008596792486
 20
-424.7908333396908
 30
0.0
 40
0.5
100
AcDbArc
 50
-90.0
 51
0.0
  0
ARC
  5
59C
330
5A
100
AcDbEntity
  8
LC-001-002-RND-0
  6
Continuous
 62
     7
100
AcDbCircle
 10
-46.50008596792486
 20
-449.4511643396908
 30
0.0
 40
0.5
100
AcDbArc
 50
-90.0
 51
0.0
  0
ARC
  5
59D
330
5A
100
AcDbEntity
  8
LC-001-002-RND-0
  6
Continuous
 62
     7
100
AcDbCircle
 10
-46.50008596792486
 20
-437.1209993396907
 30
0.0
 40
0.5
100
AcDbArc
 50
-90.0
 51
0.0
  0
ARC
  5
59E
330
5A
100
AcDbEntity
  8
LC-001-002-RND-0
  6
Continuous
 62
     7
100
AcDbCircle
 10
46.49991403207514
 20
-239.8383483396908
 30
0.0
 40
0.5
100
AcDbArc
 50
180.0
 51
-90.0
  0
ARC
  5
59F
330
5A
100
AcDbEntity
  8
LC-001-002-RND-0
  6
Continuous
 62
     7
100
AcDbCircle
 10
-47.00008596792486
 20
-428.4601933396908
 30
0.0
 40
1.0
100
AcDbArc
 50
0.0
 51
79.99999999999498
  0
ARC
  5
5A0
330
5A
100
AcDbEntity
  8
LC-001-002-RND-0
  6
Continuous
 62
     7
100
AcDbCircle
 10
-47.00008596792486
 20
-416.1300273396907
 30
0.0
 40
1.0
100
AcDbArc
 50
0.0
 51
79.99999999999385
  0
ARC
  5
5A1
330
5A
100
AcDbEntity
  8
LC-001-002-RND-0
  6
Continuous
 62
     7
100
AcDbCircle
 10
-47.00008596792486
 20
-403.7998613396908
 30
0.0
 40
1.0
100
AcDbArc
 50
0.0
 51
79.99999999999498
  0
ARC
  5
5A2
330
5A
100
AcDbEntity
  8
LC-001-002-RND-0
  6
Continuous
 62
     7
100
AcDbCircle
 10
-47.00008596792486
 20
-391.4696963396908
 30
0.0
 40
1.0
100
AcDbArc
 50
0.0
 51
79.99999999999498
  0
ARC
  5
5A3
330
5A
100
AcDbEntity
  8
LC-001-002-RND-0
  6
Continuous
 62
     7
100
AcDbCircle
 10
-47.00008596792486
 20
-379.1395303396908
 30
0.0
 40
1.0
100
AcDbArc
 50
0.0
 51
79.99999999999498
  0
ARC
  5
5A4
330
5A
100
AcDbEntity
  8
LC-001-002-RND-0
  6
Continuous
 62
     7
100
AcDbCircle
 10
-47.00008596792486
 20
-366.8093643396908
 30
0.0
 40
1.0
100
AcDbArc
 50
0.0
 51
79.99999999999442
  0
ARC
  5
5A5
330
5A
100
AcDbEntity
  8
LC-001-002-RND-0
  6
Continuous
 62
     7
100
AcDbCircle
 10
-47.00008596792486
 20
-354.4791993396908
 30
0.0
 40
1.0
100
AcDbArc
 50
0.0
 51
79.99999999999498
  0
ARC
  5
5A6
330
5A
100
AcDbEntity
  8
LC-001-002-RND-0
  6
Continuous
 62
     7
100
AcDbCircle
 10
-47.00008596792486
 20
-342.1490333396908
 30
0.0
 40
1.0
100
AcDbArc
 50
0.0
 51
79.99999999999498
  0
ARC
  5
5A7
330
5A
100
AcDbEntity
  8
LC-001-002-RND-0
  6
Continuous
 62
     7
100
AcDbCircle
 10
-47.00008596792486
 20
-329.8188673396908
 30
0.0
 40
1.0
100
AcDbArc
 50
0.0
 51
79.99999999999442
  0
ARC
  5
5A8
330
5A
100
AcDbEntity
  8
LC-001-002-RND-0
  6
Continuous
 62
     7
100
AcDbCircle
 10
-47.00008596792486
 20
-317.4887023396908
 30
0.0
 40
1.0
100
AcDbArc
 50
0.0
 51
79.99999999999272
  0
ARC
  5
5A9
330
5A
100
AcDbEntity
  8
LC-001-002-RND-0
  6
Continuous
 62
     7
100
AcDbCircle
 10
-47.00008596792486
 20
-305.1585363396908
 30
0.0
 40
1.0
100
AcDbArc
 50
0.0
 51
79.99999999999272
  0
ARC
  5
5AA
330
5A
100
AcDbEntity
  8
LC-001-002-RND-0
  6
Continuous
 62
     7
100
AcDbCircle
 10
-47.00008596792486
 20
-292.8283703396908
 30
0.0
 40
1.0
100
AcDbArc
 50
0.0
 51
79.99999999999442
  0
ARC
  5
5AB
330
5A
100
AcDbEntity
  8
LC-001-002-RND-0
  6
Continuous
 62
     7
100
AcDbCircle
 10
-47.00008596792486
 20
-280.4982053396907
 30
0.0
 40
1.0
100
AcDbArc
 50
0.0
 51
79.99999999999159
  0
ARC
  5
5AC
330
5A
100
AcDbEntity
  8
LC-001-002-RND-0
  6
Continuous
 62
     7
100
AcDbCircle
 10
-47.00008596792486
 20
-268.1680393396908
 30
0.0
 40
1.0
100
AcDbArc
 50
0.0
 51
79.99999999999272
  0
ARC
  5
5AD
330
5A
100
AcDbEntity
  8
LC-001-002-RND-0
  6
Continuous
 62
     7
100
AcDbCircle
 10
-47.00008596792486
 20
-255.8378733396908
 30
0.0
 40
1.0
100
AcDbArc
 50
0.0
 51
79.99999999999272
  0
ARC
  5
5AE
330
5A
100
AcDbEntity
  8
LC-001-002-RND-0
  6
Continuous
 62
     7
100
AcDbCircle
 10
-47.00008596792486
 20
-243.5077083396908
 30
0.0
 40
1.0
100
AcDbArc
 50
0.0
 51
79.999999999993
  0
ARC
  5
5AF
330
5A
100
AcDbEntity
  8
LC-002-002-----0
  6
Continuous
 62
     7
100
AcDbCircle
 10
-52.95209596792483
 20
-450.4991543396908
 30
0.0
 40
0.5479899999999702
100
AcDbArc
 50
90.0
 51
-100.0000000000298
  0
ARC
  5
5B0
330
5A
100
AcDbEntity
  8
LC-002-002-----0
  6
Continuous
 62
     7
100
AcDbCircle
 10
-52.95209596792483
 20
-438.1689883396908
 30
0.0
 40
0.5479900000001408
100
AcDbArc
 50
90.0
 51
-100.0000000000308
  0
ARC
  5
5B1
330
5A
100
AcDbEntity
  8
LC-002-002-----0
  6
Continuous
 62
     7
100
AcDbCircle
 10
-52.95209596792483
 20
-425.8388233396908
 30
0.0
 40
0.5479900000000271
100
AcDbArc
 50
90.0
 51
-100.0000000000318
  0
ARC
  5
5B2
330
5A
100
AcDbEntity
  8
LC-002-002-----0
  6
Continuous
 62
     7
100
AcDbCircle
 10
-52.95209596792483
 20
-413.5086573396908
 30
0.0
 40
0.5479899999999702
100
AcDbArc
 50
90.0
 51
-100.0000000000298
  0
ARC
  5
5B3
330
5A
100
AcDbEntity
  8
LC-002-002-----0
  6
Continuous
 62
     7
100
AcDbCircle
 10
-52.95209596792483
 20
-401.1784913396908
 30
0.0
 40
0.5479900000001408
100
AcDbArc
 50
90.0
 51
-100.0000000000329
  0
ARC
  5
5B4
330
5A
100
AcDbEntity
  8
LC-002-002-----0
  6
Continuous
 62
     7
100
AcDbCircle
 10
-52.95209596792483
 20
-388.8483263396907
 30
0.0
 40
0.5479899999999134
100
AcDbArc
 50
90.0
 51
-100.0000000000287
  0
ARC
  5
5B5
330
5A
100
AcDbEntity
  8
LC-002-002-----0
  6
Continuous
 62
     7
100
AcDbCircle
 10
-52.95209596792483
 20
-376.5181603396908
 30
0.0
 40
0.5479899999999702
100
AcDbArc
 50
90.0
 51
-100.0000000000298
  0
ARC
  5
5B6
330
5A
100
AcDbEntity
  8
LC-002-002-----0
  6
Continuous
 62
     7
100
AcDbCircle
 10
-52.95209596792483
 20
-364.1879943396908
 30
0.0
 40
0.5479900000001408
100
AcDbArc
 50
90.0
 51
-100.0000000000329
  0
ARC
  5
5B7
330
5A
100
AcDbEntity
  8
LC-002-002-----0
  6
Continuous
 62
     7
100
AcDbCircle
 10
-52.95209596792483
 20
-351.8578293396908
 30
0.0
 40
0.5479899999999702
100
AcDbArc
 50
90.0
 51
-100.0000000000308
  0
ARC
  5
5B8
330
5A
100
AcDbEntity
  8
LC-002-002-----0
  6
Continuous
 62
     7
100
AcDbCircle
 10
-52.95209596792483
 20
-339.5276633396908
 30
0.0
 40
0.5479899999999702
100
AcDbArc
 50
90.0
 51
-100.0000000000298
  0
ARC
  5
5B9
330
5A
100
AcDbEntity
  8
LC-002-002-----0
  6
Continuous
 62
     7
100
AcDbCircle
 10
-52.95209596792483
 20
-327.1974973396908
 30
0.0
 40
0.5479900000000271
100
AcDbArc
 50
90.0
 51
-100.0000000000339
  0
ARC
  5
5BA
330
5A
100
AcDbEntity
  8
LC-002-002-----0
  6
Continuous
 62
     7
100
AcDbCircle
 10
-52.95209596792483
 20
-314.8673323396908
 30
0.0
 40
0.5479899999999702
100
AcDbArc
 50
90.0
 51
-100.000000000036
  0
ARC
  5
5BB
330
5A
100
AcDbEntity
  8
LC-002-002-----0
  6
Continuous
 62
     7
100
AcDbCircle
 10
-52.95209596792483
 20
-302.5371663396908
 30
0.0
 40
0.5479900000000271
100
AcDbArc
 50
90.0
 51
-100.0000000000349
  0
ARC
  5
5BC
330
5A
100
AcDbEntity
  8
LC-001-002-RND-0
  6
Continuous
 62
     7
100
AcDbCircle
 10
46.49991403207514
 20
-252.1685143396908
 30
0.0
 40
0.5
100
AcDbArc
 50
180.0
 51
-90.0
  0
ARC
  5
5BD
330
5A
100
AcDbEntity
  8
LC-001-002-RND-0
  6
Continuous
 62
     7
100
AcDbCircle
 10
46.49991403207514
 20
-264.4986803396908
 30
0.0
 40
0.5
100
AcDbArc
 50
180.0
 51
-90.0
  0
ARC
  5
5BE
330
5A
100
AcDbEntity
  8
LC-001-002-RND-0
  6
Continuous
 62
     7
100
AcDbCircle
 10
46.49991403207514
 20
-276.8288453396908
 30
0.0
 40
0.5
100
AcDbArc
 50
180.0
 51
-90.0
  0
ARC
  5
5BF
330
5A
100
AcDbEntity
  8
LC-002-002-----0
  6
Continuous
 62
     7
100
AcDbCircle
 10
52.95192503207522
 20
-290.2070003396908
 30
0.0
 40
0.547989999999902
100
AcDbArc
 50
-79.99999999996612
 51
90.0
  0
ARC
  5
5C0
330
5A
100
AcDbEntity
  8
LC-002-002-----0
  6
Continuous
 62
     7
100
AcDbCircle
 10
52.95192503207522
 20
-277.8768353396908
 30
0.0
 40
0.54798999999979
100
AcDbArc
 50
-79.99999999996406
 51
90.0
  0
ARC
  5
5C1
330
5A
100
AcDbEntity
  8
LC-002-002-----0
  6
Continuous
 62
     7
100
AcDbCircle
 10
52.95192503207522
 20
-228.5561723396908
 30
0.0
 40
0.547989999999902
100
AcDbArc
 50
-79.99999999996612
 51
90.0
  0
ARC
  5
5C2
330
5A
100
AcDbEntity
  8
LC-002-002-----0
  6
Continuous
 62
     7
100
AcDbCircle
 10
52.95192503207522
 20
-265.5466693396908
 30
0.0
 40
0.5479899999998461
100
AcDbArc
 50
-79.99999999996508
 51
90.0
  0
ARC
  5
5C3
330
5A
100
AcDbEntity
  8
LC-002-002-----0
  6
Continuous
 62
     7
100
AcDbCircle
 10
52.95192503207522
 20
-253.2165033396908
 30
0.0
 40
0.547989999999902
100
AcDbArc
 50
-79.99999999996612
 51
90.0
  0
ARC
  5
5C4
330
5A
100
AcDbEntity
  8
LC-001-002-RND-0
  6
Continuous
 62
     7
100
AcDbCircle
 10
-46.50008596792486
 20
-239.8383483396908
 30
0.0
 40
0.5
100
AcDbArc
 50
-90.0
 51
0.0
  0
ARC
  5
5C5
330
5A
100
AcDbEntity
  8
LC-001-002-RND-0
  6
Continuous
 62
     7
100
AcDbCircle
 10
-46.50008596792486
 20
-252.1685143396908
 30
0.0
 40
0.5
100
AcDbArc
 50
-90.0
 51
0.0
  0
ARC
  5
5C6
330
5A
100
AcDbEntity
  8
LC-001-002-RND-0
  6
Continuous
 62
     7
100
AcDbCircle
 10
-46.50008596792486
 20
-264.4986803396908
 30
0.0
 40
0.5
100
AcDbArc
 50
-90.0
 51
0.0
  0
ARC
  5
5C7
330
5A
100
AcDbEntity
  8
LC-001-002-RND-0
  6
Continuous
 62
     7
100
AcDbCircle
 10
-46.50008596792486
 20
-276.8288453396908
 30
0.0
 40
0.5
100
AcDbArc
 50
-90.0
 51
0.0
  0
ARC
  5
5C8
330
5A
100
AcDbEntity
  8
LC-002-002-----0
  6
Continuous
 62
     7
100
AcDbCircle
 10
-52.95209596792483
 20
-290.2070003396908
 30
0.0
 40
0.5479900000000271
100
AcDbArc
 50
90.0
 51
-100.0000000000339
  0
ARC
  5
5C9
330
5A
100
AcDbEntity
  8
LC-002-002-----0
  6
Continuous
 62
     7
100
AcDbCircle
 10
-52.95209596792483
 20
-277.8768353396908
 30
0.0
 40
0.5479899999999702
100
AcDbArc
 50
90.0
 51
-100.000000000036
  0
ARC
  5
5CA
330
5A
100
AcDbEntity
  8
LC-002-002-----0
  6
Continuous
 62
     7
100
AcDbCircle
 10
-52.95209596792483
 20
-228.5561723396908
 30
0.0
 40
0.5479899999999986
100
AcDbArc
 50
90.0
 51
-100.0000000000339
  0
ARC
  5
5CB
330
5A
100
AcDbEntity
  8
LC-002-002-----0
  6
Continuous
 62
     7
100
AcDbCircle
 10
-52.95209596792483
 20
-265.5466693396908
 30
0.0
 40
0.5479900000000271
100
AcDbArc
 50
90.0
 51
-100.0000000000349
  0
ARC
  5
5CC
330
5A
100
AcDbEntity
  8
LC-002-002-----0
  6
Continuous
 62
     7
100
AcDbCircle
 10
-52.95209596792483
 20
-253.2165033396908
 30
0.0
 40
0.5479899999999986
100
AcDbArc
 50
90.0
 51
-100.0000000000339
  0
ARC
  5
5CD
330
5A
100
AcDbEntity
  8
LC-001-002-RND-0
  6
Continuous
 62
     7
100
AcDbCircle
 10
46.99991403207514
 20
-231.1775423396908
 30
0.0
 40
0.9999999999998168
100
AcDbArc
 50
100.000000000007
 51
180.0
  0
ARC
  5
5CE
330
5A
100
AcDbEntity
  8
LC-002-002-----0
  6
Continuous
 62
     7
100
AcDbCircle
 10
52.95192503207522
 20
-240.8863383396908
 30
0.0
 40
0.5479899999998741
100
AcDbArc
 50
-79.9999999999656
 51
90.0
  0
ARC
  5
5CF
330
5A
100
AcDbEntity
  8
LC-001-002-RND-0
  6
Continuous
 62
     7
100
AcDbCircle
 10
-47.00008596792486
 20
-231.1775423396908
 30
0.0
 40
1.0
100
AcDbArc
 50
0.0
 51
79.999999999993
  0
ARC
  5
5D0
330
5A
100
AcDbEntity
  8
LC-002-002-----0
  6
Continuous
 62
     7
100
AcDbCircle
 10
-52.95209596792483
 20
-240.8863383396908
 30
0.0
 40
0.5479899999999986
100
AcDbArc
 50
90.0
 51
-100.0000000000344
  0
ENDBLK
  5
5E
330
5A
100
AcDbEntity
  8
0
100
AcDbBlockEnd
  0
BLOCK
  5
60
330
5F
100
AcDbEntity
  8
0
100
AcDbBlockBegin
  2
TOP__2
 70
     0
 71
     0
 10
254.218635433561
 20
-433.5098803396908
 30
0.0
  3
TOP__2
  1

  0
LINE
  5
5D1
330
5F
100
AcDbEntity
  8
LC-002-002-----0
  6
DASHDOT
 62
     2
100
AcDbLine
 10
-0.00003696792487
 20
-152.7578793396908
 30
0.0
 11
0.00025803207518
 21
-464.0083303396908
 31
0.0
  0
ENDBLK
  5
61
330
5F
100
AcDbEntity
  8
0
100
AcDbBlockEnd
  0
BLOCK
  5
5DA
330
5D2
100
AcDbEntity
  8
0
100
AcDbBlockBegin
  2
*D6
 70
     1
 71
     0
 10
0.0
 20
0.0
 30
0.0
  3
*D6
  1

  0
LINE
  5
5D3
330
5D2
100
AcDbEntity
  8
1
  6
Continuous
 62
     4
100
AcDbLine
 10
-231.995428
 20
136.48972161057
 30
0.0
 11
231.9954280000001
 21
136.48972161057
 31
0.0
  0
LINE
  5
5D4
330
5D2
100
AcDbEntity
  8
1
  6
Continuous
 62
     4
100
AcDbLine
 10
231.9954280000001
 20
0.0
 30
0.0
 11
231.9954280000001
 21
138.48972161057
 31
0.0
  0
LINE
  5
5D5
330
5D2
100
AcDbEntity
  8
1
  6
Continuous
 62
     4
100
AcDbLine
 10
-231.995428
 20
0.0
 30
0.0
 11
-231.995428
 21
138.48972161057
 31
0.0
  0
SOLID
  5
5D6
330
5D2
100
AcDbEntity
  8
1
 62
     4
100
AcDbTrace
 10
-217.995428
 20
138.3328565767935
 30
0.0
 11
-217.995428
 21
134.6465866443465
 31
0.0
 12
-231.995428
 22
136.48972161057
 32
0.0
 13
-231.995428
 23
136.48972161057
 33
0.0
  0
SOLID
  5
5D7
330
5D2
100
AcDbEntity
  8
1
 62
     4
100
AcDbTrace
 10
217.9954280000001
 20
134.6465866443465
 30
0.0
 11
217.9954280000001
 21
138.3328565767935
 31
0.0
 12
231.9954280000001
 22
136.48972161057
 32
0.0
 13
231.9954280000001
 23
136.48972161057
 33
0.0
  0
MTEXT
  5
5D9
330
5D2
100
AcDbEntity
  8
1
 62
     1
100
AcDbMText
 10
-39.95557767865
 20
138.48972161057
 30
0.0
 40
14.0
 41
0.0
 71
     7
 72
     1
  1
500x500
  7
CONVERTER_11
 11
0.9999999999970619
 21
2.424068405545306E-6
 31
0.0
 73
     1
 44
0.60024009603842
  0
ENDBLK
  5
5DB
330
5D2
100
AcDbEntity
  8
0
100
AcDbBlockEnd
  0
BLOCK
  5
5E5
330
5DE
100
AcDbEntity
  8
0
100
AcDbBlockBegin
  2
*D7
 70
     1
 71
     0
 10
0.0
 20
0.0
 30
0.0
  3
*D7
  1

  0
LINE
  5
5DF
330
5DE
100
AcDbEntity
  8
1
  6
Continuous
 62
     4
100
AcDbLine
 10
-177.0
 20
96.194292433471
 30
0.0
 11
177.0000000000001
 21
96.194292433471
 31
0.0
  0
LINE
  5
5E0
330
5DE
100
AcDbEntity
  8
1
  6
Continuous
 62
     4
100
AcDbLine
 10
177.0000000000001
 20
-5.236469
 30
0.0
 11
177.0000000000001
 21
98.194292433471
 31
0.0
  0
LINE
  5
5E1
330
5DE
100
AcDbEntity
  8
1
  6
Continuous
 62
     4
100
AcDbLine
 10
-177.0
 20
-5.236469
 30
0.0
 11
-177.0
 21
98.194292433471
 31
0.0
  0
SOLID
  5
5E2
330
5DE
100
AcDbEntity
  8
1
 62
     4
100
AcDbTrace
 10
-163.0
 20
98.03742739969455
 30
0.0
 11
-163.0
 21
94.35115746724746
 31
0.0
 12
-177.0
 22
96.194292433471
 32
0.0
 13
-177.0
 23
96.194292433471
 33
0.0
  0
SOLID
  5
5E3
330
5DE
100
AcDbEntity
  8
1
 62
     4
100
AcDbTrace
 10
163.0000000000001
 20
94.35115746724746
 30
0.0
 11
163.0000000000001
 21
98.03742739969455
 31
0.0
 12
177.0000000000001
 22
96.194292433471
 32
0.0
 13
177.0000000000001
 23
96.194292433471
 33
0.0
  0
MTEXT
  5
5E4
330
5DE
100
AcDbEntity
  8
1
 62
     1
100
AcDbMText
 10
-30.70507523641351
 20
98.19423677686042
 30
0.0
 40
14.0
 41
0.0
 71
     7
 72
     1
  1
\C1;\U+00d8\C1;354
  7
CONVERTER_11
 11
0.9999999999970619
 21
2.424068405545306E-6
 31
0.0
 73
     1
 44
0.60024009603842
  0
ENDBLK
  5
5E6
330
5DE
100
AcDbEntity
  8
0
100
AcDbBlockEnd
  0
BLOCK
  5
5F0
330
5E9
100
AcDbEntity
  8
0
100
AcDbBlockBegin
  2
*D8
 70
     1
 71
     0
 10
0.0
 20
0.0
 30
0.0
  3
*D8
  1

  0
LINE
  5
5EA
330
5E9
100
AcDbEntity
  8
1
  6
Continuous
 62
     4
100
AcDbLine
 10
55.00007109642382
 20
-543.9529337030244
 30
0.0
 11
-54.99992890322737
 21
-543.953084775715
 31
0.0
  0
LINE
  5
5EB
330
5E9
100
AcDbEntity
  8
1
  6
Continuous
 62
     4
100
AcDbLine
 10
55.00002734934026
 20
-512.099531370463
 30
0.0
 11
55.00007384320001
 21
-545.9529337030225
 31
0.0
  0
LINE
  5
5EC
330
5E9
100
AcDbEntity
  8
1
  6
Continuous
 62
     4
100
AcDbLine
 10
-54.99997250254592
 20
-512.2072740314445
 30
0.0
 11
-54.99992615645118
 21
-545.953084775713
 31
0.0
  0
SOLID
  5
5ED
330
5E9
100
AcDbEntity
  8
1
 62
     4
100
AcDbTrace
 10
41.00007362777654
 20
-545.7960878966788
 30
0.0
 11
41.00006856509749
 21
-542.1098179642353
 31
0.0
 12
55.00007109642382
 22
-543.9529337030244
 32
0.0
 13
55.00007109642382
 23
-543.9529337030244
 33
0.0
  0
SOLID
  5
5EE
330
5E9
100
AcDbEntity
  8
1
 62
     4
100
AcDbTrace
 10
-40.99993143458011
 20
-542.1099305820605
 30
0.0
 11
-40.99992637190105
 21
-545.7962005145041
 31
0.0
 12
-54.99992890322737
 22
-543.953084775715
 32
0.0
 13
-54.99992890322737
 23
-543.953084775715
 33
0.0
  0
MTEXT
  5
5EF
330
5E9
100
AcDbEntity
  8
1
 62
     1
100
AcDbMText
 10
-17.16153172508578
 20
-541.9530569325287
 30
0.0
 40
14.0
 41
0.0
 71
     7
 72
     1
  1
\C1;DN\C1;110
  7
CONVERTER_11
 11
0.9999999999970619
 21
2.424068405545306E-6
 31
0.0
 73
     1
 44
0.60024009603842
  0
ENDBLK
  5
5F1
330
5E9
100
AcDbEntity
  8
0
100
AcDbBlockEnd
  0
BLOCK
  5
5FC
330
5F4
100
AcDbEntity
  8
0
100
AcDbBlockBegin
  2
*D9
 70
     1
 71
     0
 10
0.0
 20
0.0
 30
0.0
  3
*D9
  1

  0
LINE
  5
5F5
330
5F4
100
AcDbEntity
  8
1
  6
Continuous
 62
     4
100
AcDbLine
 10
73.5
 20
-76.653278387302
 30
0.0
 11
-73.5
 21
-76.653278387302
 31
0.0
  0
LINE
  5
5F6
330
5F4
100
AcDbEntity
  8
1
  6
Continuous
 62
     4
100
AcDbLine
 10
-73.5
 20
-76.653278387302
 30
0.0
 11
-147.927334662055
 21
-76.653278387302
 31
0.0
  0
LINE
  5
5F7
330
5F4
100
AcDbEntity
  8
1
  6
Continuous
 62
     4
100
AcDbLine
 10
73.5
 20
-47.18575713093563
 30
0.0
 11
73.5
 21
-78.653278387302
 31
0.0
  0
LINE
  5
5F8
330
5F4
100
AcDbEntity
  8
1
  6
Continuous
 62
     4
100
AcDbLine
 10
-73.5
 20
-47.18575713093563
 30
0.0
 11
-73.5
 21
-78.653278387302
 31
0.0
  0
SOLID
  5
5F9
330
5F4
100
AcDbEntity
  8
1
 62
     4
100
AcDbTrace
 10
59.5
 20
-78.49641335352554
 30
0.0
 11
59.5
 21
-74.81014342107845
 31
0.0
 12
73.5
 22
-76.653278387302
 32
0.0
 13
73.5
 23
-76.653278387302
 33
0.0
  0
SOLID
  5
5FA
330
5F4
100
AcDbEntity
  8
1
 62
     4
100
AcDbTrace
 10
-59.5
 20
-74.81014342107845
 30
0.0
 11
-59.5
 21
-78.49641335352554
 31
0.0
 12
-73.5
 22
-76.653278387302
 32
0.0
 13
-73.5
 23
-76.653278387302
 33
0.0
  0
MTEXT
  5
5FB
330
5F4
100
AcDbEntity
  8
1
 62
     1
100
AcDbMText
 10
-154.0873346619875
 20
-74.65333404391258
 30
0.0
 40
14.0
 41
0.0
 71
     7
 72
     1
  1
\C1;\U+00d8\C1;147
  7
CONVERTER_11
 11
0.9999999999970619
 21
2.424068405545306E-6
 31
0.0
 73
     1
 44
0.60024009603842
  0
ENDBLK
  5
5FD
330
5F4
100
AcDbEntity
  8
0
100
AcDbBlockEnd
  0
BLOCK
  5
607
330
600
100
AcDbEntity
  8
0
100
AcDbBlockBegin
  2
*D10
 70
     1
 71
     0
 10
0.0
 20
0.0
 30
0.0
  3
*D10
  1

  0
LINE
  5
601
330
600
100
AcDbEntity
  8
1
  6
Continuous
 62
     4
100
AcDbLine
 10
93.6352475143136
 20
-464.0083303396908
 30
0.0
 11
93.6352475143136
 21
-228.0081823396908
 31
0.0
  0
LINE
  5
602
330
600
100
AcDbEntity
  8
1
  6
Continuous
 62
     4
100
AcDbLine
 10
43.79414303207523
 20
-464.0083303396908
 30
0.0
 11
95.6352475143136
 21
-464.0083303396908
 31
0.0
  0
LINE
  5
603
330
600
100
AcDbEntity
  8
1
  6
Continuous
 62
     4
100
AcDbLine
 10
52.95192503207522
 20
-228.0081823396908
 30
0.0
 11
95.6352475143136
 21
-228.0081823396908
 31
0.0
  0
SOLID
  5
604
330
600
100
AcDbEntity
  8
1
 62
     4
100
AcDbTrace
 10
91.79211254809006
 20
-450.0083303396908
 30
0.0
 11
95.47838248053715
 21
-450.0083303396908
 31
0.0
 12
93.6352475143136
 22
-464.0083303396908
 32
0.0
 13
93.6352475143136
 23
-464.0083303396908
 33
0.0
  0
SOLID
  5
605
330
600
100
AcDbEntity
  8
1
 62
     4
100
AcDbTrace
 10
95.47838248053714
 20
-242.0081823396908
 30
0.0
 11
91.79211254809006
 21
-242.0081823396908
 31
0.0
 12
93.6352475143136
 22
-228.0081823396908
 32
0.0
 13
93.6352475143136
 23
-228.0081823396908
 33
0.0
  0
MTEXT
  5
606
330
600
100
AcDbEntity
  8
1
 62
     1
100
AcDbMText
 10
91.6352475143136
 20
-356.522739026846
 30
0.0
 40
14.0
 41
0.0
 71
     7
 72
     1
  1
236
  7
CONVERTER_11
 11
0.0
 21
1.0
 31
0.0
 73
     1
 44
0.60024009603842
  0
ENDBLK
  5
608
330
600
100
AcDbEntity
  8
0
100
AcDbBlockEnd
  0
BLOCK
  5
612
330
60B
100
AcDbEntity
  8
0
100
AcDbBlockBegin
  2
*D11
 70
     1
 71
     0
 10
0.0
 20
0.0
 30
0.0
  3
*D11
  1

  0
LINE
  5
60C
330
60B
100
AcDbEntity
  8
1
  6
Continuous
 62
     4
100
AcDbLine
 10
245.901400576595
 20
-464.0083303396908
 30
0.0
 11
245.901400576595
 21
-3.236469
 31
0.0
  0
LINE
  5
60D
330
60B
100
AcDbEntity
  8
1
  6
Continuous
 62
     4
100
AcDbLine
 10
43.7941430320752
 20
-464.0083303396908
 30
0.0
 11
247.901400576595
 21
-464.0083303396908
 31
0.0
  0
LINE
  5
60E
330
60B
100
AcDbEntity
  8
1
  6
Continuous
 62
     4
100
AcDbLine
 10
231.9954280000001
 20
-3.236469
 30
0.0
 11
247.901400576595
 21
-3.236469
 31
0.0
  0
SOLID
  5
60F
330
60B
100
AcDbEntity
  8
1
 62
     4
100
AcDbTrace
 10
244.0582656103714
 20
-450.0083303396908
 30
0.0
 11
247.7445355428185
 21
-450.0083303396908
 31
0.0
 12
245.901400576595
 22
-464.0083303396908
 32
0.0
 13
245.901400576595
 23
-464.0083303396908
 33
0.0
  0
SOLID
  5
610
330
60B
100
AcDbEntity
  8
1
 62
     4
100
AcDbTrace
 10
247.7445355428185
 20
-17.236469
 30
0.0
 11
244.0582656103714
 21
-17.236469
 31
0.0
 12
245.901400576595
 22
-3.236469
 32
0.0
 13
245.901400576595
 23
-3.236469
 33
0.0
  0
MTEXT
  5
611
330
60B
100
AcDbEntity
  8
1
 62
     1
100
AcDbMText
 10
243.901400576595
 20
-255.269611863603
 30
0.0
 40
14.0
 41
0.0
 71
     7
 72
     1
  1
460
  7
CONVERTER_11
 11
0.0
 21
1.0
 31
0.0
 73
     1
 44
0.60024009603842
  0
ENDBLK
  5
613
330
60B
100
AcDbEntity
  8
0
100
AcDbBlockEnd
  0
BLOCK
  5
61D
330
616
100
AcDbEntity
  8
0
100
AcDbBlockBegin
  2
*D12
 70
     1
 71
     0
 10
0.0
 20
0.0
 30
0.0
  3
*D12
  1

  0
LINE
  5
617
330
616
100
AcDbEntity
  8
1
  6
Continuous
 62
     4
100
AcDbLine
 10
166.290163188702
 20
-464.0083303396908
 30
0.0
 11
166.290163188702
 21
-47.1857571309356
 31
0.0
  0
LINE
  5
618
330
616
100
AcDbEntity
  8
1
  6
Continuous
 62
     4
100
AcDbLine
 10
43.7941430320752
 20
-464.0083303396908
 30
0.0
 11
168.290163188702
 21
-464.0083303396908
 31
0.0
  0
LINE
  5
619
330
616
100
AcDbEntity
  8
1
  6
Continuous
 62
     4
100
AcDbLine
 10
77.75
 20
-47.1857571309356
 30
0.0
 11
168.290163188702
 21
-47.1857571309356
 31
0.0
  0
SOLID
  5
61A
330
616
100
AcDbEntity
  8
1
 62
     4
100
AcDbTrace
 10
164.4470282224785
 20
-450.0083303396908
 30
0.0
 11
168.1332981549255
 21
-450.0083303396908
 31
0.0
 12
166.290163188702
 22
-464.0083303396908
 32
0.0
 13
166.290163188702
 23
-464.0083303396908
 33
0.0
  0
SOLID
  5
61B
330
616
100
AcDbEntity
  8
1
 62
     4
100
AcDbTrace
 10
168.1332981549255
 20
-61.1857571309356
 30
0.0
 11
164.4470282224785
 21
-61.1857571309356
 31
0.0
 12
166.290163188702
 22
-47.1857571309356
 32
0.0
 13
166.290163188702
 23
-47.1857571309356
 33
0.0
  0
MTEXT
  5
61C
330
616
100
AcDbEntity
  8
1
 62
     1
100
AcDbMText
 10
164.290163188702
 20
-277.130275543454
 30
0.0
 40
14.0
 41
0.0
 71
     7
 72
     1
  1
415
  7
CONVERTER_11
 11
0.0
 21
1.0
 31
0.0
 73
     1
 44
0.60024009603842
  0
ENDBLK
  5
61E
330
616
100
AcDbEntity
  8
0
100
AcDbBlockEnd
  0
ENDSEC
  0
SECTION
  2
ENTITIES
  0
INSERT
  5
62
330
1F
100
AcDbEntity
  8
0
100
AcDbBlockReference
  2
Draufsicht
 10
-183.6549149813727
 20
-1026.185757130937
 30
0.0
  0
INSERT
  5
63
330
1F
100
AcDbEntity
  8
0
100
AcDbBlockReference
  2
TOP__1
 10
0.00000000000004
 20
-159.9823824999999
 30
0.0
  0
INSERT
  5
64
330
1F
100
AcDbEntity
  8
0
100
AcDbBlockReference
  2
TOP__2
 10
254.218635433561
 20
-433.5098803396908
 30
0.0
  0
DIMENSION
  5
5DD
330
1F
100
AcDbEntity
  8
1
100
AcDbDimension
  2
*D6
 10
-231.995428
 20
136.48972161057
 30
0.0
 11
2.04442232135
 21
145.48972161057
 31
0.0
 70
    32
  1
500x500
 71
     5
 42
-1.0
 53
0.00013888888889
  3
ME10_DIM_10
100
AcDbAlignedDimension
 13
231.9954280000001
 23
0.0
 33
0.0
 14
-231.995428
 24
0.0
 34
0.0
100
AcDbRotatedDimension
  0
DIMENSION
  5
5E8
330
1F
100
AcDbEntity
  8
1
100
AcDbDimension
  2
*D7
 10
-177.0
 20
96.194292433471
 30
0.0
 11
0.65492476351903
 21
105.194292433471
 31
0.0
 70
    32
  1
<>
 71
     5
 42
-1.0
 53
0.00013888888889
  3
ME10_DIM_11
100
AcDbAlignedDimension
 13
177.0000000000001
 23
-5.236469
 33
0.0
 14
-177.0
 24
-5.236469
 34
0.0
100
AcDbRotatedDimension
  0
DIMENSION
  5
5F3
330
1F
100
AcDbEntity
  8
1
100
AcDbDimension
  2
*D8
 10
55.00007109642382
 20
-543.9529337030244
 30
0.0
 11
2.99845866113273
 21
-534.9530051214115
 31
0.0
 70
    32
  1
<>
 71
     5
 42
-1.0
 53
0.00013888888889
  3
ME10_DIM_12
100
AcDbAlignedDimension
 13
-54.99997250254592
 23
-512.2072740314445
 33
0.0
 14
55.00002734934026
 24
-512.099531370463
 34
0.0
 50
0.00007868934149
100
AcDbRotatedDimension
  0
DIMENSION
  5
5FF
330
1F
100
AcDbEntity
  8
1
100
AcDbDimension
  2
*D9
 10
73.5
 20
-76.653278387302
 30
0.0
 11
-124.827334662055
 21
-67.653278387302
 31
0.0
 70
    32
  1
<>
 71
     5
 42
-1.0
 53
0.00013888888889
  3
ME10_DIM_13
100
AcDbAlignedDimension
 13
-73.5
 23
-47.18575713093564
 33
0.0
 14
73.5
 24
-47.18575713093564
 34
0.0
100
AcDbRotatedDimension
  0
DIMENSION
  5
60A
330
1F
100
AcDbEntity
  8
1
100
AcDbDimension
  2
*D10
 10
93.6352475143136
 20
-464.0083303396908
 30
0.0
 11
84.6352475143136
 21
-339.722739026846
 31
0.0
 70
    32
  1
<>
 71
     5
 42
-1.0
 53
90.0
  3
ME10_DIM_14
100
AcDbAlignedDimension
 13
52.95192503207522
 23
-228.0081823396908
 33
0.0
 14
43.79414303207523
 24
-464.0083303396908
 34
0.0
 50
90.0
100
AcDbRotatedDimension
  0
DIMENSION
  5
615
330
1F
100
AcDbEntity
  8
1
100
AcDbDimension
  2
*D11
 10
245.901400576595
 20
-464.0083303396908
 30
0.0
 11
236.901400576595
 21
-238.469611863603
 31
0.0
 70
    32
  1
460
 71
     5
 42
-1.0
 53
90.0
  3
ME10_DIM_15
100
AcDbAlignedDimension
 13
231.9954280000001
 23
-3.236469
 33
0.0
 14
43.79414303207523
 24
-464.0083303396908
 34
0.0
 50
90.0
100
AcDbRotatedDimension
  0
DIMENSION
  5
620
330
1F
100
AcDbEntity
  8
1
100
AcDbDimension
  2
*D12
 10
166.290163188702
 20
-464.0083303396908
 30
0.0
 11
157.290163188702
 21
-262.430275543454
 31
0.0
 70
    32
  1
415
 71
     5
 42
-1.0
 53
90.0
  3
ME10_DIM_16
100
AcDbAlignedDimension
 13
77.75
 23
-47.18575713093564
 33
0.0
 14
43.79414303207523
 24
-464.0083303396908
 34
0.0
 50
90.0
100
AcDbRotatedDimension
  0
ENDSEC
  0
SECTION
  2
OBJECTS
  0
DICTIONARY
  5
C
330
0
100
AcDbDictionary
281
     1
  3
ACAD_GROUP
350
D
  3
ACAD_LAYOUT
350
1A
  3
ACAD_MLINESTYLE
350
17
  3
ACAD_PLOTSETTINGS
350
19
  3
ACAD_PLOTSTYLENAME
350
E
  3
ACAD_TABLESTYLE
350
621
  3
ACAD_VISUALSTYLE
350
2A
  0
DICTIONARY
  5
D
102
{ACAD_REACTORS
330
C
102
}
330
C
100
AcDbDictionary
281
     1
  0
DICTIONARY
  5
1A
102
{ACAD_REACTORS
330
C
102
}
330
C
100
AcDbDictionary
281
     1
  3
Layout1
350
1E
  3
Layout2
350
26
  3
Model
350
22
  0
DICTIONARY
  5
17
102
{ACAD_REACTORS
330
C
102
}
330
C
100
AcDbDictionary
281
     1
  3
Standard
350
18
  0
DICTIONARY
  5
19
102
{ACAD_REACTORS
330
C
102
}
330
C
100
AcDbDictionary
281
     1
  0
ACDBDICTIONARYWDFLT
  5
E
102
{ACAD_REACTORS
330
C
102
}
330
C
100
AcDbDictionary
281
     1
  3
Normal
350
F
100
AcDbDictionaryWithDefault
340
F
  0
DICTIONARY
  5
621
102
{ACAD_REACTORS
330
C
102
}
330
C
100
AcDbDictionary
281
     1
  0
DICTIONARY
  5
2A
102
{ACAD_REACTORS
330
C
102
}
330
C
100
AcDbDictionary
281
     1
  3
2dWireframe
350
2F
  3
3D Hidden
350
31
  3
3dWireframe
350
30
  3
Basic
350
32
  3
Brighten
350
36
  3
ColorChange
350
3A
  3
Conceptual
350
34
  3
Dim
350
35
  3
Facepattern
350
39
  3
Flat
350
2B
  3
FlatWithEdges
350
2C
  3
Gouraud
350
2D
  3
GouraudWithEdges
350
2E
  3
Linepattern
350
38
  3
Realistic
350
33
  3
Thicken
350
37
  0
LAYOUT
  5
1E
102
{ACAD_REACTORS
330
1A
102
}
330
1A
100
AcDbPlotSettings
  1

  2
none_device
  4

  6

 40
0.0
 41
0.0
 42
0.0
 43
0.0
 44
0.0
 45
0.0
 46
0.0
 47
0.0
 48
0.0
 49
0.0
140
0.0
141
0.0
142
1.0
143
1.0
 70
   688
 72
     0
 73
     0
 74
     5
  7

 75
    16
147
1.0
148
0.0
149
0.0
100
AcDbLayout
  1
Layout1
 70
     1
 71
     1
 10
0.0
 20
0.0
 11
12.0
 21
9.0
 12
0.0
 22
0.0
 32
0.0
 14
1.00000000000000E+20
 24
1.00000000000000E+20
 34
1.00000000000000E+20
 15
-1.00000000000000E+20
 25
-1.00000000000000E+20
 35
-1.00000000000000E+20
146
0.0
 13
0.0
 23
0.0
 33
0.0
 16
1.0
 26
0.0
 36
0.0
 17
0.0
 27
1.0
 37
0.0
 76
     0
330
1B
  0
LAYOUT
  5
26
102
{ACAD_REACTORS
330
1A
102
}
330
1A
100
AcDbPlotSettings
  1

  2
none_device
  4

  6

 40
0.0
 41
0.0
 42
0.0
 43
0.0
 44
0.0
 45
0.0
 46
0.0
 47
0.0
 48
0.0
 49
0.0
140
0.0
141
0.0
142
1.0
143
1.0
 70
   688
 72
     0
 73
     0
 74
     5
  7

 75
    16
147
1.0
148
0.0
149
0.0
100
AcDbLayout
  1
Layout2
 70
     1
 71
     2
 10
0.0
 20
0.0
 11
0.0
 21
0.0
 12
0.0
 22
0.0
 32
0.0
 14
0.0
 24
0.0
 34
0.0
 15
0.0
 25
0.0
 35
0.0
146
0.0
 13
0.0
 23
0.0
 33
0.0
 16
1.0
 26
0.0
 36
0.0
 17
0.0
 27
1.0
 37
0.0
 76
     0
330
23
  0
LAYOUT
  5
22
102
{ACAD_REACTORS
330
1A
102
}
330
1A
100
AcDbPlotSettings
  1

  2
none_device
  4

  6

 40
0.0
 41
0.0
 42
0.0
 43
0.0
 44
0.0
 45
0.0
 46
0.0
 47
0.0
 48
0.0
 49
0.0
140
0.0
141
0.0
142
1.0
143
1.0
 70
  1712
 72
     0
 73
     0
 74
     0
  7

 75
     0
147
1.0
148
0.0
149
0.0
100
AcDbLayout
  1
Model
 70
     1
 71
     0
 10
0.0
 20
0.0
 11
12.0
 21
9.0
 12
0.0
 22
0.0
 32
0.0
 14
-251.5504307265711
 24
-1099.185757130937
 34
0.0
 15
248.4495692734289
 25
152.48972161057
 35
0.0
146
0.0
 13
0.0
 23
0.0
 33
0.0
 16
1.0
 26
0.0
 36
0.0
 17
0.0
 27
1.0
 37
0.0
 76
     0
330
1F
331
29
  0
MLINESTYLE
  5
18
102
{ACAD_REACTORS
330
17
102
}
330
17
100
AcDbMlineStyle
  2
Standard
 70
     0
  3

 62
   256
 51
90.0
 52
90.0
 71
     2
 49
0.5
 62
   256
  6
BYLAYER
 49
-0.5
 62
   256
  6
BYLAYER
  0
ACDBPLACEHOLDER
  5
F
102
{ACAD_REACTORS
330
E
102
}
330
E
  0
VISUALSTYLE
  5
2F
102
{ACAD_REACTORS
330
2A
102
}
330
2A
100
AcDbVisualStyle
  2
2dWireframe
 70
     4
 71
     0
 72
     2
 73
     0
 90
        0
 40
-0.6
 41
-30.0
 62
     5
 63
     7
 74
     1
 91
        4
 64
     7
 65
   257
 75
     1
175
     1
 42
1.0
 92
        0
 66
   257
 43
1.0
 76
     1
 77
     6
 78
     2
 67
     7
 79
     5
170
     0
171
     0
290
     0
174
     0
 93
        1
 44
0.0
173
     0
291
     0
 45
0.0
1001
ACAD
1000
AcDbSavedByObjectVersion
1070
     0
  0
VISUALSTYLE
  5
31
102
{ACAD_REACTORS
330
2A
102
}
330
2A
100
AcDbVisualStyle
  2
3D Hidden
 70
     6
 71
     1
 72
     2
 73
     2
 90
        0
 40
-0.6
 41
-30.0
 62
     5
 63
     7
 74
     2
 91
        2
 64
     7
 65
   257
 75
     2
175
     1
 42
40.0
 92
        0
 66
   257
 43
1.0
 76
     1
 77
     6
 78
     2
 67
     7
 79
     3
170
     0
171
     0
290
     0
174
     0
 93
        1
 44
0.0
173
     0
291
     0
 45
0.0
1001
ACAD
1000
AcDbSavedByObjectVersion
1070
     0
  0
VISUALSTYLE
  5
30
102
{ACAD_REACTORS
330
2A
102
}
330
2A
100
AcDbVisualStyle
  2
3dWireframe
 70
     5
 71
     0
 72
     2
 73
     0
 90
        0
 40
-0.6
 41
-30.0
 62
     5
 63
     7
 74
     1
 91
        4
 64
     7
 65
   257
 75
     1
175
     1
 42
1.0
 92
        0
 66
   257
 43
1.0
 76
     1
 77
     6
 78
     2
 67
     7
 79
     5
170
     0
171
     0
290
     0
174
     0
 93
        1
 44
0.0
173
     0
291
     0
 45
0.0
1001
ACAD
1000
AcDbSavedByObjectVersion
1070
     0
  0
VISUALSTYLE
  5
32
102
{ACAD_REACTORS
330
2A
102
}
330
2A
100
AcDbVisualStyle
  2
Basic
 70
     7
 71
     1
 72
     0
 73
     1
 90
        0
 40
-0.6
 41
-30.0
 62
     5
 63
     7
 74
     0
 91
        4
 64
     7
 65
   257
 75
     1
175
     1
 42
1.0
 92
        8
 66
     7
 43
1.0
 76
     1
 77
     6
 78
     2
 67
     7
 79
     5
170
     0
171
     0
290
     0
174
     0
 93
        1
 44
0.0
173
     0
291
     1
 45
0.0
1001
ACAD
1000
AcDbSavedByObjectVersion
1070
     0
  0
VISUALSTYLE
  5
36
102
{ACAD_REACTORS
330
2A
102
}
330
2A
100
AcDbVisualStyle
  2
Brighten
 70
    12
 71
     2
 72
     2
 73
     0
 90
        0
 40
-0.6
 41
-30.0
 62
     5
 63
     7
 74
     1
 91
        4
 64
     7
 65
   257
 75
     1
175
     1
 42
1.0
 92
        8
 66
     7
 43
1.0
 76
     1
 77
     6
 78
     2
 67
     7
 79
     5
170
     0
171
     0
290
     0
174
     0
 93
        1
 44
50.0
173
     0
291
     1
 45
0.0
1001
ACAD
1000
AcDbSavedByObjectVersion
1070
     0
  0
VISUALSTYLE
  5
3A
102
{ACAD_REACTORS
330
2A
102
}
330
2A
100
AcDbVisualStyle
  2
ColorChange
 70
    16
 71
     2
 72
     2
 73
     3
 90
        0
 40
-0.6
 41
-30.0
 62
     5
 63
     8
 74
     1
 91
        4
 64
     7
 65
   257
 75
     1
175
     1
 42
1.0
 92
        8
 66
     8
 43
1.0
 76
     1
 77
     6
 78
     2
 67
     7
 79
     5
170
     0
171
     0
290
     0
174
     0
 93
        1
 44
0.0
173
     0
291
     1
 45
0.0
1001
ACAD
1000
AcDbSavedByObjectVersion
1070
     0
  0
VISUALSTYLE
  5
34
102
{ACAD_REACTORS
330
2A
102
}
330
2A
100
AcDbVisualStyle
  2
Conceptual
 70
     9
 71
     3
 72
     2
 73
     0
 90
        0
 40
-0.6
 41
-30.0
 62
     5
 63
     7
 74
     2
 91
        2
 64
     7
 65
   257
 75
     1
175
     1
 42
40.0
 92
        8
 66
     7
 43
1.0
 76
     1
 77
     6
 78
     2
 67
     7
 79
     3
170
     0
171
     0
290
     0
174
     0
 93
        1
 44
0.0
173
     0
291
     0
 45
0.0
1001
ACAD
1000
AcDbSavedByObjectVersion
1070
     0
  0
VISUALSTYLE
  5
35
102
{ACAD_REACTORS
330
2A
102
}
330
2A
100
AcDbVisualStyle
  2
Dim
 70
    11
 71
     2
 72
     2
 73
     0
 90
        0
 40
-0.6
 41
-30.0
 62
     5
 63
     7
 74
     1
 91
        4
 64
     7
 65
   257
 75
     1
175
     1
 42
1.0
 92
        8
 66
     7
 43
1.0
 76
     1
 77
     6
 78
     2
 67
     7
 79
     5
170
     0
171
     0
290
     0
174
     0
 93
        1
 44
-50.0
173
     0
291
     1
 45
0.0
1001
ACAD
1000
AcDbSavedByObjectVersion
1070
     0
  0
VISUALSTYLE
  5
39
102
{ACAD_REACTORS
330
2A
102
}
330
2A
100
AcDbVisualStyle
  2
Facepattern
 70
    15
 71
     2
 72
     2
 73
     0
 90
        0
 40
-0.6
 41
-30.0
 62
     5
 63
     7
 74
     1
 91
        4
 64
     7
 65
   257
 75
     1
175
     1
 42
1.0
 92
        8
 66
     7
 43
1.0
 76
     1
 77
     6
 78
     2
 67
     7
 79
     5
170
     0
171
     0
290
     0
174
     0
 93
        1
 44
0.0
173
     0
291
     1
 45
0.0
1001
ACAD
1000
AcDbSavedByObjectVersion
1070
     0
  0
VISUALSTYLE
  5
2B
102
{ACAD_REACTORS
330
2A
102
}
330
2A
100
AcDbVisualStyle
  2
Flat
 70
     0
 71
     2
 72
     1
 73
     1
 90
        2
 40
-0.6
 41
30.0
 62
     5
 63
     7
 74
     0
 91
        4
 64
     7
 65
   257
 75
     1
175
     1
 42
1.0
 92
        8
 66
     7
 43
1.0
 76
     1
 77
     6
 78
     2
 67
     7
 79
     5
170
     0
171
     0
290
     0
174
     0
 93
       13
 44
0.0
173
     0
291
     1
 45
0.0
1001
ACAD
1000
AcDbSavedByObjectVersion
1070
     0
  0
VISUALSTYLE
  5
2C
102
{ACAD_REACTORS
330
2A
102
}
330
2A
100
AcDbVisualStyle
  2
FlatWithEdges
 70
     1
 71
     2
 72
     1
 73
     1
 90
        2
 40
-0.6
 41
30.0
 62
     5
 63
     7
 74
     1
 91
        4
 64
     7
 65
   257
 75
     1
175
     1
 42
1.0
 92
        0
 66
   257
 43
1.0
 76
     1
 77
     6
 78
     2
 67
     7
 79
     5
170
     0
171
     0
290
     0
174
     0
 93
       13
 44
0.0
173
     0
291
     1
 45
0.0
1001
ACAD
1000
AcDbSavedByObjectVersion
1070
     0
  0
VISUALSTYLE
  5
2D
102
{ACAD_REACTORS
330
2A
102
}
330
2A
100
AcDbVisualStyle
  2
Gouraud
 70
     2
 71
     2
 72
     2
 73
     1
 90
        2
 40
-0.6
 41
30.0
 62
     5
 63
     7
 74
     0
 91
        4
 64
     7
 65
   257
 75
     1
175
     1
 42
1.0
 92
        0
 66
     7
 43
1.0
 76
     1
 77
     6
 78
     2
 67
     7
 79
     5
170
     0
171
     0
290
     0
174
     0
 93
       13
 44
0.0
173
     0
291
     1
 45
0.0
1001
ACAD
1000
AcDbSavedByObjectVersion
1070
     0
  0
VISUALSTYLE
  5
2E
102
{ACAD_REACTORS
330
2A
102
}
330
2A
100
AcDbVisualStyle
  2
GouraudWithEdges
 70
     3
 71
     2
 72
     2
 73
     1
 90
        2
 40
-0.6
 41
30.0
 62
     5
 63
     7
 74
     1
 91
        4
 64
     7
 65
   257
 75
     1
175
     1
 42
1.0
 92
        0
 66
   257
 43
1.0
 76
     1
 77
     6
 78
     2
 67
     7
 79
     5
170
     0
171
     0
290
     0
174
     0
 93
       13
 44
0.0
173
     0
291
     1
 45
0.0
1001
ACAD
1000
AcDbSavedByObjectVersion
1070
     0
  0
VISUALSTYLE
  5
38
102
{ACAD_REACTORS
330
2A
102
}
330
2A
100
AcDbVisualStyle
  2
Linepattern
 70
    14
 71
     2
 72
     2
 73
     0
 90
        0
 40
-0.6
 41
-30.0
 62
     5
 63
     7
 74
     1
 91
        4
 64
     7
 65
   257
 75
     7
175
     7
 42
1.0
 92
        8
 66
     7
 43
1.0
 76
     1
 77
     6
 78
     2
 67
     7
 79
     5
170
     0
171
     0
290
     0
174
     0
 93
        1
 44
0.0
173
     0
291
     1
 45
0.0
1001
ACAD
1000
AcDbSavedByObjectVersion
1070
     0
  0
VISUALSTYLE
  5
33
102
{ACAD_REACTORS
330
2A
102
}
330
2A
100
AcDbVisualStyle
  2
Realistic
 70
     8
 71
     2
 72
     2
 73
     0
 90
        0
 40
-0.6
 41
-30.0
 62
     5
 63
     7
 74
     1
 91
        0
 64
     7
 65
   257
 75
     1
175
     1
 42
1.0
 92
        8
 66
     8
 43
1.0
 76
     1
 77
     6
 78
     2
 67
     7
 79
     5
170
     0
171
     0
290
     0
174
     0
 93
       13
 44
0.0
173
     0
291
     0
 45
0.0
1001
ACAD
1000
AcDbSavedByObjectVersion
1070
     0
  0
VISUALSTYLE
  5
37
102
{ACAD_REACTORS
330
2A
102
}
330
2A
100
AcDbVisualStyle
  2
Thicken
 70
    13
 71
     2
 72
     2
 73
     0
 90
        0
 40
-0.6
 41
-30.0
 62
     5
 63
     7
 74
     1
 91
        4
 64
     7
 65
   257
 75
     1
175
     1
 42
1.0
 92
       12
 66
     7
 43
1.0
 76
     1
 77
     6
 78
     2
 67
     7
 79
     5
170
     0
171
     0
290
     0
174
     0
 93
        1
 44
0.0
173
     0
291
     1
 45
0.0
1001
ACAD
1000
AcDbSavedByObjectVersion
1070
     0
  0
ENDSEC
  0
EOF
