  0
SECTION
  2
HEADER
  9
$ACADVER
  1
AC1015
  9
$ACADMAINTVER
 70
     6
  9
$DWGCODEPAGE
  3
ANSI_1252
  9
$INSBASE
 10
0.0
 20
0.0
 30
0.0
  9
$EXTMIN
 10
-250.0
 20
-1105.957465738946
 30
0.0
  9
$EXTMAX
 10
250.220186240905
 20
152.48972161057
 30
0.0
  9
$LIMMIN
 10
0.0
 20
0.0
  9
$LIMMAX
 10
12.0
 20
9.0
  9
$ORTHOMODE
 70
     0
  9
$REGENMODE
 70
     1
  9
$FILLMODE
 70
     1
  9
$QTEXTMODE
 70
     0
  9
$MIRRTEXT
 70
     1
  9
$LTSCALE
 40
1.0
  9
$ATTMODE
 70
     1
  9
$TEXTSIZE
 40
0.2
  9
$TRACEWID
 40
0.05
  9
$TEXTSTYLE
  7
Standard
  9
$CLAYER
  8
0
  9
$CELTYPE
  6
ByLayer
  9
$CECOLOR
 62
   256
  9
$CELTSCALE
 40
1.0
  9
$DISPSILH
 70
     0
  9
$DIMSCALE
 40
1.0
  9
$DIMASZ
 40
0.18
  9
$DIMEXO
 40
0.0625
  9
$DIMDLI
 40
0.38
  9
$DIMRND
 40
0.0
  9
$DIMDLE
 40
0.0
  9
$DIMEXE
 40
0.18
  9
$DIMTP
 40
0.0
  9
$DIMTM
 40
0.0
  9
$DIMTXT
 40
0.18
  9
$DIMCEN
 40
0.09
  9
$DIMTSZ
 40
0.0
  9
$DIMTOL
 70
     0
  9
$DIMLIM
 70
     0
  9
$DIMTIH
 70
     1
  9
$DIMTOH
 70
     1
  9
$DIMSE1
 70
     0
  9
$DIMSE2
 70
     0
  9
$DIMTAD
 70
     0
  9
$DIMZIN
 70
     0
  9
$DIMBLK
  1

  9
$DIMASO
 70
     1
  9
$DIMSHO
 70
     1
  9
$DIMPOST
  1

  9
$DIMAPOST
  1

  9
$DIMALT
 70
     0
  9
$DIMALTD
 70
     2
  9
$DIMALTF
 40
25.4
  9
$DIMLFAC
 40
1.0
  9
$DIMTOFL
 70
     0
  9
$DIMTVP
 40
0.0
  9
$DIMTIX
 70
     0
  9
$DIMSOXD
 70
     0
  9
$DIMSAH
 70
     0
  9
$DIMBLK1
  1

  9
$DIMBLK2
  1

  9
$DIMSTYLE
  2
Standard
  9
$DIMCLRD
 70
     0
  9
$DIMCLRE
 70
     0
  9
$DIMCLRT
 70
     0
  9
$DIMTFAC
 40
1.0
  9
$DIMGAP
 40
0.09
  9
$DIMJUST
 70
     0
  9
$DIMSD1
 70
     0
  9
$DIMSD2
 70
     0
  9
$DIMTOLJ
 70
     1
  9
$DIMTZIN
 70
     0
  9
$DIMALTZ
 70
     0
  9
$DIMALTTZ
 70
     0
  9
$DIMUPT
 70
     0
  9
$DIMDEC
 70
     4
  9
$DIMTDEC
 70
     4
  9
$DIMALTU
 70
     2
  9
$DIMALTTD
 70
     2
  9
$DIMTXSTY
  7
Standard
  9
$DIMAUNIT
 70
     0
  9
$DIMADEC
 70
     0
  9
$DIMALTRND
 40
0.0
  9
$DIMAZIN
 70
     0
  9
$DIMDSEP
 70
    46
  9
$DIMATFIT
 70
     3
  9
$DIMFRAC
 70
     0
  9
$DIMLDRBLK
  1

  9
$DIMLUNIT
 70
     2
  9
$DIMLWD
 70
    -2
  9
$DIMLWE
 70
    -2
  9
$DIMTMOVE
 70
     0
  9
$LUNITS
 70
     2
  9
$LUPREC
 70
     4
  9
$SKETCHINC
 40
0.1
  9
$FILLETRAD
 40
0.5
  9
$AUNITS
 70
     0
  9
$AUPREC
 70
     0
  9
$MENU
  1
.
  9
$ELEVATION
 40
0.0
  9
$PELEVATION
 40
0.0
  9
$THICKNESS
 40
0.0
  9
$LIMCHECK
 70
     0
  9
$CHAMFERA
 40
0.5
  9
$CHAMFERB
 40
0.5
  9
$CHAMFERC
 40
1.0
  9
$CHAMFERD
 40
0.0
  9
$SKPOLY
 70
     0
  9
$TDCREATE
 40
2454725.415040081
  9
$TDUCREATE
 40
2454725.331706748
  9
$TDUPDATE
 40
2454725.415040093
  9
$TDUUPDATE
 40
2454725.331706759
  9
$TDINDWG
 40
0.0000000116
  9
$TDUSRTIMER
 40
0.0000000116
  9
$USRTIMER
 70
     1
  9
$ANGBASE
 50
0.0
  9
$ANGDIR
 70
     0
  9
$PDMODE
 70
     0
  9
$PDSIZE
 40
0.0
  9
$PLINEWID
 40
0.0
  9
$SPLFRAME
 70
     0
  9
$SPLINETYPE
 70
     6
  9
$SPLINESEGS
 70
     8
  9
$HANDSEED
  5
5D1
  9
$SURFTAB1
 70
     6
  9
$SURFTAB2
 70
     6
  9
$SURFTYPE
 70
     6
  9
$SURFU
 70
     6
  9
$SURFV
 70
     6
  9
$UCSBASE
  2

  9
$UCSNAME
  2

  9
$UCSORG
 10
0.0
 20
0.0
 30
0.0
  9
$UCSXDIR
 10
1.0
 20
0.0
 30
0.0
  9
$UCSYDIR
 10
0.0
 20
1.0
 30
0.0
  9
$UCSORTHOREF
  2

  9
$UCSORTHOVIEW
 70
     0
  9
$UCSORGTOP
 10
0.0
 20
0.0
 30
0.0
  9
$UCSORGBOTTOM
 10
0.0
 20
0.0
 30
0.0
  9
$UCSORGLEFT
 10
0.0
 20
0.0
 30
0.0
  9
$UCSORGRIGHT
 10
0.0
 20
0.0
 30
0.0
  9
$UCSORGFRONT
 10
0.0
 20
0.0
 30
0.0
  9
$UCSORGBACK
 10
0.0
 20
0.0
 30
0.0
  9
$PUCSBASE
  2

  9
$PUCSNAME
  2

  9
$PUCSORG
 10
0.0
 20
0.0
 30
0.0
  9
$PUCSXDIR
 10
1.0
 20
0.0
 30
0.0
  9
$PUCSYDIR
 10
0.0
 20
1.0
 30
0.0
  9
$PUCSORTHOREF
  2

  9
$PUCSORTHOVIEW
 70
     0
  9
$PUCSORGTOP
 10
0.0
 20
0.0
 30
0.0
  9
$PUCSORGBOTTOM
 10
0.0
 20
0.0
 30
0.0
  9
$PUCSORGLEFT
 10
0.0
 20
0.0
 30
0.0
  9
$PUCSORGRIGHT
 10
0.0
 20
0.0
 30
0.0
  9
$PUCSORGFRONT
 10
0.0
 20
0.0
 30
0.0
  9
$PUCSORGBACK
 10
0.0
 20
0.0
 30
0.0
  9
$USERI1
 70
     0
  9
$USERI2
 70
     0
  9
$USERI3
 70
     0
  9
$USERI4
 70
     0
  9
$USERI5
 70
     0
  9
$USERR1
 40
15.5
  9
$USERR2
 40
0.0
  9
$USERR3
 40
0.0
  9
$USERR4
 40
0.0
  9
$USERR5
 40
0.0
  9
$WORLDVIEW
 70
     1
  9
$SHADEDGE
 70
     3
  9
$SHADEDIF
 70
    70
  9
$TILEMODE
 70
     1
  9
$MAXACTVP
 70
    64
  9
$PINSBASE
 10
0.0
 20
0.0
 30
0.0
  9
$PLIMCHECK
 70
     0
  9
$PEXTMIN
 10
1.00000000000000E+20
 20
1.00000000000000E+20
 30
1.00000000000000E+20
  9
$PEXTMAX
 10
-1.00000000000000E+20
 20
-1.00000000000000E+20
 30
-1.00000000000000E+20
  9
$PLIMMIN
 10
0.0
 20
0.0
  9
$PLIMMAX
 10
12.0
 20
9.0
  9
$UNITMODE
 70
     0
  9
$VISRETAIN
 70
     1
  9
$PLINEGEN
 70
     0
  9
$PSLTSCALE
 70
     1
  9
$TREEDEPTH
 70
  3020
  9
$CMLSTYLE
  2
Standard
  9
$CMLJUST
 70
     0
  9
$CMLSCALE
 40
1.0
  9
$PROXYGRAPHICS
 70
     1
  9
$MEASUREMENT
 70
     1
  9
$CELWEIGHT
370
    -1
  9
$ENDCAPS
280
     0
  9
$JOINSTYLE
280
     0
  9
$LWDISPLAY
290
     0
  9
$INSUNITS
 70
     1
  9
$HYPERLINKBASE
  1

  9
$STYLESHEET
  1

  9
$XEDIT
290
     1
  9
$CEPSNTYPE
380
     0
  9
$PSTYLEMODE
290
     1
  9
$FINGERPRINTGUID
  2
{E44F3893-C5E9-4B9F-859A-4CB96265AF5A}
  9
$VERSIONGUID
  2
{FAEB1C32-E019-11D5-929B-00C0DF256EC4}
  9
$EXTNAMES
290
     1
  9
$PSVPSCALE
 40
0.0
  9
$OLESTARTUP
290
     0
  0
ENDSEC
  0
SECTION
  2
CLASSES
  0
CLASS
  1
ACDBDICTIONARYWDFLT
  2
AcDbDictionaryWithDefault
  3
ObjectDBX Classes
 90
        0
280
     0
281
     0
  0
CLASS
  1
VISUALSTYLE
  2
AcDbVisualStyle
  3
ObjectDBX Classes
 90
     4095
280
     0
281
     0
  0
CLASS
  1

  2
exOdDbCircle
  3

 90
        0
280
     0
281
     1
  0
CLASS
  1

  2
exOdDbSpline
  3

 90
        0
280
     0
281
     1
  0
CLASS
  1

  2
exOdDbPolyline
  3

 90
        0
280
     0
281
     1
  0
CLASS
  1
ACDBPLACEHOLDER
  2
AcDbPlaceHolder
  3
ObjectDBX Classes
 90
        0
280
     0
281
     0
  0
CLASS
  1
LAYOUT
  2
AcDbLayout
  3
ObjectDBX Classes
 90
        0
280
     0
281
     0
  0
ENDSEC
  0
SECTION
  2
TABLES
  0
TABLE
  2
VPORT
  5
8
330
0
100
AcDbSymbolTable
 70
     1
  0
VPORT
  5
29
330
8
100
AcDbSymbolTableRecord
100
AcDbViewportTableRecord
  2
*Active
 70
     0
 10
0.0
 20
0.0
 11
1.0
 21
1.0
 12
0.1100931204525
 22
-476.733872064188
 13
0.0
 23
0.0
 14
0.5
 24
0.5
 15
0.5
 25
0.5
 16
0.0
 26
0.0
 36
1.0
 17
0.0
 27
0.0
 37
0.0
 40
1384.291906084468
 41
1.60267857142857
 42
50.0
 43
0.0
 44
0.0
 50
0.0
 51
0.0
 71
     0
 72
   100
 73
     1
 74
     3
 75
     0
 76
     0
 77
     0
 78
     0
281
     0
 65
     1
110
0.0
120
0.0
130
0.0
111
1.0
121
0.0
131
0.0
112
0.0
122
1.0
132
0.0
 79
     0
146
0.0
  0
ENDTAB
  0
TABLE
  2
LTYPE
  5
5
330
0
100
AcDbSymbolTable
 70
    10
  0
LTYPE
  5
14
330
5
100
AcDbSymbolTableRecord
100
AcDbLinetypeTableRecord
  2
ByBlock
 70
     0
  3

 72
    65
 73
     0
 40
0.0
  0
LTYPE
  5
15
330
5
100
AcDbSymbolTableRecord
100
AcDbLinetypeTableRecord
  2
ByLayer
 70
     0
  3

 72
    65
 73
     0
 40
0.0
  0
LTYPE
  5
16
330
5
100
AcDbSymbolTableRecord
100
AcDbLinetypeTableRecord
  2
Continuous
 70
     0
  3
Solid line
 72
    65
 73
     0
 40
0.0
  0
LTYPE
  5
3B
330
5
100
AcDbSymbolTableRecord
100
AcDbLinetypeTableRecord
  2
DASHED
 70
     0
  3
Dashed
 72
    65
 73
     2
 40
15.0
 49
7.0
 74
     0
 49
-8.0
 74
     0
  0
LTYPE
  5
3C
330
5
100
AcDbSymbolTableRecord
100
AcDbLinetypeTableRecord
  2
DOTTED
 70
     0
  3
Dotted
 72
    65
 73
     2
 40
1.0
 49
0.0
 74
     0
 49
-1.0
 74
     0
  0
LTYPE
  5
3D
330
5
100
AcDbSymbolTableRecord
100
AcDbLinetypeTableRecord
  2
DOT_CENTER
 70
     0
  3
Dot_Center
 72
    65
 73
     4
 40
14.0
 49
12.0
 74
     0
 49
-1.0
 74
     0
 49
0.0
 74
     0
 49
-1.0
 74
     0
  0
LTYPE
  5
3E
330
5
100
AcDbSymbolTableRecord
100
AcDbLinetypeTableRecord
  2
LONG_DASHED
 70
     0
  3
Long_Dashed
 72
    65
 73
     2
 40
15.0
 49
10.0
 74
     0
 49
-5.0
 74
     0
  0
LTYPE
  5
3F
330
5
100
AcDbSymbolTableRecord
100
AcDbLinetypeTableRecord
  2
DASH_CENTER
 70
     0
  3
Dash_Center
 72
    65
 73
     4
 40
14.0
 49
11.0
 74
     0
 49
-1.0
 74
     0
 49
1.0
 74
     0
 49
-1.0
 74
     0
  0
LTYPE
  5
40
330
5
100
AcDbSymbolTableRecord
100
AcDbLinetypeTableRecord
  2
PHANTOM
 70
     0
  3
Phantom
 72
    65
 73
     6
 40
13.0
 49
10.0
 74
     0
 49
-1.0
 74
     0
 49
0.0
 74
     0
 49
-1.0
 74
     0
 49
0.0
 74
     0
 49
-1.0
 74
     0
  0
LTYPE
  5
41
330
5
100
AcDbSymbolTableRecord
100
AcDbLinetypeTableRecord
  2
CENTER_DASH_DASH
 70
     0
  3
Center_Dash_Dash
 72
    65
 73
     6
 40
14.0
 49
9.0
 74
     0
 49
-1.0
 74
     0
 49
1.0
 74
     0
 49
-1.0
 74
     0
 49
1.0
 74
     0
 49
-1.0
 74
     0
  0
LTYPE
  5
42
330
5
100
AcDbSymbolTableRecord
100
AcDbLinetypeTableRecord
  2
CENTER
 70
     0
  3
CENTER
 72
    65
 73
     4
 40
16.0
 49
10.0
 74
     0
 49
-3.0
 74
     0
 49
0.0
 74
     0
 49
-3.0
 74
     0
  0
LTYPE
  5
43
330
5
100
AcDbSymbolTableRecord
100
AcDbLinetypeTableRecord
  2
DASHDOT
 70
     0
  3
DASHDOT
 72
    65
 73
     4
 40
16.0
 49
10.0
 74
     0
 49
-3.0
 74
     0
 49
0.0
 74
     0
 49
-3.0
 74
     0
  0
ENDTAB
  0
TABLE
  2
LAYER
  5
2
330
0
100
AcDbSymbolTable
 70
    12
  0
LAYER
  5
10
330
2
100
AcDbSymbolTableRecord
100
AcDbLayerTableRecord
  2
0
 70
     0
 62
     7
  6
Continuous
370
    -3
390
F
  0
LAYER
  5
44
330
2
100
AcDbSymbolTableRecord
100
AcDbLayerTableRecord
  2
1
 70
     0
 62
     7
  6
Continuous
370
    -3
390
F
  0
LAYER
  5
45
330
2
100
AcDbSymbolTableRecord
100
AcDbLayerTableRecord
  2
LC-001-002-----0
 70
     0
 62
     7
  6
Continuous
370
    -3
390
F
  0
LAYER
  5
46
330
2
100
AcDbSymbolTableRecord
100
AcDbLayerTableRecord
  2
LC-002-002-RND-0
 70
     0
 62
     7
  6
Continuous
370
    -3
390
F
  0
LAYER
  5
47
330
2
100
AcDbSymbolTableRecord
100
AcDbLayerTableRecord
  2
LC-003-002-RND-0
 70
     0
 62
     7
  6
Continuous
370
    -3
390
F
  0
LAYER
  5
48
330
2
100
AcDbSymbolTableRecord
100
AcDbLayerTableRecord
  2
LC-003-005-----0
 70
     0
 62
     7
  6
Continuous
370
    -3
390
F
  0
LAYER
  5
49
330
2
100
AcDbSymbolTableRecord
100
AcDbLayerTableRecord
  2
LC-004-003-----0
 70
     0
 62
     7
  6
Continuous
370
    -3
390
F
  0
LAYER
  5
4A
330
2
100
AcDbSymbolTableRecord
100
AcDbLayerTableRecord
  2
LC-004-006-MLN-0
 70
     0
 62
     7
  6
Continuous
370
    -3
390
F
  0
LAYER
  5
4B
330
2
100
AcDbSymbolTableRecord
100
AcDbLayerTableRecord
  2
LC-005-002-----0
 70
     0
 62
     7
  6
Continuous
370
    -3
390
F
  0
LAYER
  5
4C
330
2
100
AcDbSymbolTableRecord
100
AcDbLayerTableRecord
  2
LC-005-003-----0
 70
     0
 62
     7
  6
Continuous
370
    -3
390
F
  0
LAYER
  5
4D
330
2
100
AcDbSymbolTableRecord
100
AcDbLayerTableRecord
  2
LC-006-003-----0
 70
     0
 62
     7
  6
Continuous
370
    -3
390
F
  0
LAYER
  5
4E
330
2
100
AcDbSymbolTableRecord
100
AcDbLayerTableRecord
  2
LC-006-005-----0
 70
     0
 62
     7
  6
Continuous
370
    -3
390
F
  0
ENDTAB
  0
TABLE
  2
STYLE
  5
3
330
0
100
AcDbSymbolTable
 70
     2
  0
STYLE
  5
11
330
3
100
AcDbSymbolTableRecord
100
AcDbTextStyleTableRecord
  2
Standard
 70
     0
 40
0.0
 41
1.0
 50
0.0
 71
     0
 42
0.2
  3
txt
  4

  0
STYLE
  5
587
330
3
100
AcDbSymbolTableRecord
100
AcDbTextStyleTableRecord
  2
CONVERTER_11
 70
     0
 40
0.0
 41
0.9
 50
0.0
 71
     0
 42
0.2
  3
txt.shx
  4

  0
ENDTAB
  0
TABLE
  2
VIEW
  5
6
330
0
100
AcDbSymbolTable
 70
     0
  0
ENDTAB
  0
TABLE
  2
UCS
  5
7
330
0
100
AcDbSymbolTable
 70
     0
  0
ENDTAB
  0
TABLE
  2
APPID
  5
9
330
0
100
AcDbSymbolTable
 70
     1
  0
APPID
  5
12
330
9
100
AcDbSymbolTableRecord
100
AcDbRegAppTableRecord
  2
ACAD
 70
     0
  0
ENDTAB
  0
TABLE
  2
DIMSTYLE
  5
A
330
0
100
AcDbSymbolTable
 70
     8
100
AcDbDimStyleTable
  0
DIMSTYLE
105
27
330
A
100
AcDbSymbolTableRecord
100
AcDbDimStyleTableRecord
  2
Standard
 70
     0
340
11
  0
DIMSTYLE
105
58B
102
{ACAD_REACTORS
330
58C
102
}
330
A
100
AcDbSymbolTableRecord
100
AcDbDimStyleTableRecord
  2
ME10_DIM_10
 70
     0
 41
12.0
 42
0.0
 44
2.0
 73
     0
 74
     0
 77
     1
 78
     8
140
12.0
147
2.0
172
     1
173
     1
176
     4
177
     4
178
     1
271
     2
340
587
  0
DIMSTYLE
105
596
102
{ACAD_REACTORS
330
597
102
}
330
A
100
AcDbSymbolTableRecord
100
AcDbDimStyleTableRecord
  2
ME10_DIM_11
 70
     0
 41
14.0
 42
0.0
 44
2.0
 73
     0
 74
     0
 77
     1
 78
     8
140
14.0
147
2.0
172
     1
173
     1
176
     4
177
     4
178
     1
271
     2
340
587
  0
DIMSTYLE
105
5A1
102
{ACAD_REACTORS
330
5A2
102
}
330
A
100
AcDbSymbolTableRecord
100
AcDbDimStyleTableRecord
  2
ME10_DIM_12
 70
     0
  3
Ø<>
 41
14.0
 42
0.0
 44
2.0
 73
     0
 74
     0
 77
     1
 78
     8
140
14.0
147
2.0
172
     1
173
     1
176
     4
177
     4
178
     1
271
     2
340
587
  0
DIMSTYLE
105
5AC
102
{ACAD_REACTORS
330
5AD
102
}
330
A
100
AcDbSymbolTableRecord
100
AcDbDimStyleTableRecord
  2
ME10_DIM_13
 70
     0
  3
DN<>
 41
14.0
 42
0.0
 44
2.0
 73
     0
 74
     0
 77
     1
 78
     8
140
14.0
147
2.0
172
     1
173
     1
176
     4
177
     4
178
     1
271
     2
340
587
  0
DIMSTYLE
105
5B8
102
{ACAD_REACTORS
330
5B9
102
}
330
A
100
AcDbSymbolTableRecord
100
AcDbDimStyleTableRecord
  2
ME10_DIM_14
 70
     0
  3
Ø<>
 41
14.0
 42
0.0
 44
2.0
 73
     0
 74
     0
 77
     1
 78
     8
140
14.0
147
2.0
172
     1
173
     1
176
     4
177
     4
178
     1
271
     2
340
587
  0
DIMSTYLE
105
5C3
102
{ACAD_REACTORS
330
5C4
102
}
330
A
100
AcDbSymbolTableRecord
100
AcDbDimStyleTableRecord
  2
ME10_DIM_15
 70
     0
 41
14.0
 42
0.0
 44
2.0
 73
     0
 74
     0
 77
     1
 78
     8
140
14.0
147
2.0
172
     1
173
     1
176
     4
177
     4
178
     1
271
     2
340
587
  0
DIMSTYLE
105
5CE
102
{ACAD_REACTORS
330
5CF
102
}
330
A
100
AcDbSymbolTableRecord
100
AcDbDimStyleTableRecord
  2
ME10_DIM_16
 70
     0
 41
14.0
 42
0.0
 44
2.0
 73
     0
 74
     0
 77
     1
 78
     8
140
14.0
147
2.0
172
     1
173
     1
176
     4
177
     4
178
     1
271
     2
340
587
  0
ENDTAB
  0
TABLE
  2
BLOCK_RECORD
  5
1
330
0
100
AcDbSymbolTable
 70
    12
  0
BLOCK_RECORD
  5
1F
330
1
100
AcDbSymbolTableRecord
100
AcDbBlockTableRecord
  2
*Model_Space
340
22
  0
BLOCK_RECORD
  5
1B
330
1
100
AcDbSymbolTableRecord
100
AcDbBlockTableRecord
  2
*Paper_Space
340
1E
  0
BLOCK_RECORD
  5
23
330
1
100
AcDbSymbolTableRecord
100
AcDbBlockTableRecord
  2
*Paper_Space0
340
26
  0
BLOCK_RECORD
  5
4F
330
1
100
AcDbSymbolTableRecord
100
AcDbBlockTableRecord
  2
Draufsicht
340
0
102
{BLKREFS
331
59
102
}
  0
BLOCK_RECORD
  5
52
330
1
100
AcDbSymbolTableRecord
100
AcDbBlockTableRecord
  2
_X0
340
0
102
{BLKREFS
331
5A
102
}
  0
BLOCK_RECORD
  5
55
330
1
100
AcDbSymbolTableRecord
100
AcDbBlockTableRecord
  2
_X1
340
0
102
{BLKREFS
331
5B
102
}
  0
BLOCK_RECORD
  5
58
330
1
100
AcDbSymbolTableRecord
100
AcDbBlockTableRecord
  2
TOP
340
0
102
{BLKREFS
331
5E
102
}
  0
BLOCK_RECORD
  5
581
330
1
100
AcDbSymbolTableRecord
100
AcDbBlockTableRecord
  2
*D5
340
0
  0
BLOCK_RECORD
  5
58D
330
1
100
AcDbSymbolTableRecord
100
AcDbBlockTableRecord
  2
*D6
340
0
  0
BLOCK_RECORD
  5
598
330
1
100
AcDbSymbolTableRecord
100
AcDbBlockTableRecord
  2
*D7
340
0
  0
BLOCK_RECORD
  5
5A3
330
1
100
AcDbSymbolTableRecord
100
AcDbBlockTableRecord
  2
*D8
340
0
  0
BLOCK_RECORD
  5
5AE
330
1
100
AcDbSymbolTableRecord
100
AcDbBlockTableRecord
  2
*D9
340
0
  0
BLOCK_RECORD
  5
5BA
330
1
100
AcDbSymbolTableRecord
100
AcDbBlockTableRecord
  2
*D10
340
0
  0
BLOCK_RECORD
  5
5C5
330
1
100
AcDbSymbolTableRecord
100
AcDbBlockTableRecord
  2
*D11
340
0
  0
ENDTAB
  0
ENDSEC
  0
SECTION
  2
BLOCKS
  0
BLOCK
  5
20
330
1F
100
AcDbEntity
  8
0
100
AcDbBlockBegin
  2
*Model_Space
 70
     0
 71
     0
 10
0.0
 20
0.0
 30
0.0
  3
*Model_Space
  1

  0
ENDBLK
  5
21
330
1F
100
AcDbEntity
  8
0
100
AcDbBlockEnd
  0
BLOCK
  5
1C
330
1B
100
AcDbEntity
 67
     1
  8
0
100
AcDbBlockBegin
  2
*Paper_Space
 70
     0
 71
     0
 10
0.0
 20
0.0
 30
0.0
  3
*Paper_Space
  1

  0
ENDBLK
  5
1D
330
1B
100
AcDbEntity
 67
     1
  8
0
100
AcDbBlockEnd
  0
BLOCK
  5
24
330
23
100
AcDbEntity
  8
0
100
AcDbBlockBegin
  2
*Paper_Space0
 70
     0
 71
     0
 10
0.0
 20
0.0
 30
0.0
  3
*Paper_Space0
  1

  0
ENDBLK
  5
25
330
23
100
AcDbEntity
  8
0
100
AcDbBlockEnd
  0
BLOCK
  5
50
330
4F
100
AcDbEntity
  8
0
100
AcDbBlockBegin
  2
Draufsicht
 70
     0
 71
     0
 10
-130.1283278467236
 20
-1032.957465738946
 30
0.0
  3
Draufsicht
  1

  0
LINE
  5
5F
330
4F
100
AcDbEntity
  8
1
  6
PHANTOM
 62
     2
100
AcDbLine
 10
79.06434525364966
 20
-911.120826998249
 30
0.0
 11
68.58543786785958
 21
-917.1708269982482
 31
0.0
  0
LINE
  5
60
330
4F
100
AcDbEntity
  8
1
  6
PHANTOM
 62
     2
100
AcDbLine
 10
76.84989156075244
 20
-919.3852806911455
 30
0.0
 11
70.79989156075317
 21
-908.9063733053517
 31
0.0
  0
LINE
  5
61
330
4F
100
AcDbEntity
  8
1
  6
Continuous
 62
     7
100
AcDbLine
 10
72.02183628514831
 20
-910.022843652041
 30
0.0
 11
74.00790426264575
 21
-913.4628142963556
 31
0.0
  0
LINE
  5
62
330
4F
100
AcDbEntity
  8
1
  6
Continuous
 62
     7
100
AcDbLine
 10
74.00790426264575
 20
-913.4628142963556
 30
0.0
 11
77.44787490696035
 21
-911.4767463188582
 31
0.0
  0
LINE
  5
63
330
4F
100
AcDbEntity
  8
1
  6
Continuous
 62
     7
100
AcDbLine
 10
77.94787490696035
 20
-912.3427717226405
 30
0.0
 11
74.50790426264575
 21
-914.3288397001415
 31
0.0
  0
LINE
  5
64
330
4F
100
AcDbEntity
  8
1
  6
Continuous
 62
     7
100
AcDbLine
 10
74.50790426264575
 20
-914.3288397001415
 30
0.0
 11
76.49397224014683
 21
-917.7688103444561
 31
0.0
  0
LINE
  5
65
330
4F
100
AcDbEntity
  8
1
  6
Continuous
 62
     7
100
AcDbLine
 10
75.62794683636093
 20
-918.2688103444561
 30
0.0
 11
73.64187885886349
 21
-914.8288397001415
 31
0.0
  0
LINE
  5
66
330
4F
100
AcDbEntity
  8
1
  6
Continuous
 62
     7
100
AcDbLine
 10
73.64187885886349
 20
-914.8288397001415
 30
0.0
 11
70.20190821454526
 21
-916.814907677639
 31
0.0
  0
LINE
  5
67
330
4F
100
AcDbEntity
  8
1
  6
Continuous
 62
     7
100
AcDbLine
 10
69.70190821454526
 20
-915.9488822738567
 30
0.0
 11
73.14187885886349
 21
-913.9628142963556
 31
0.0
  0
LINE
  5
68
330
4F
100
AcDbEntity
  8
1
  6
Continuous
 62
     7
100
AcDbLine
 10
73.14187885886349
 20
-913.9628142963556
 30
0.0
 11
71.15581088136241
 21
-910.522843652041
 31
0.0
  0
LINE
  5
69
330
4F
100
AcDbEntity
  8
1
  6
PHANTOM
 62
     2
100
AcDbLine
 10
-8.24069958186737
 20
-952.0108778918402
 30
0.0
 11
-18.71960696766109
 21
-945.9608778918409
 31
0.0
  0
LINE
  5
6A
330
4F
100
AcDbEntity
  8
1
  6
PHANTOM
 62
     2
100
AcDbLine
 10
-16.50515327476387
 20
-954.2253315847374
 30
0.0
 11
-10.4551532747646
 21
-943.7464241989437
 31
0.0
  0
LINE
  5
6B
330
4F
100
AcDbEntity
  8
1
  6
Continuous
 62
     7
100
AcDbLine
 10
-10.81107259537021
 20
-945.362894545633
 30
0.0
 11
-12.79714057287129
 21
-948.8028651899476
 31
0.0
  0
LINE
  5
6C
330
4F
100
AcDbEntity
  8
1
  6
Continuous
 62
     7
100
AcDbLine
 10
-12.79714057287129
 20
-948.8028651899476
 30
0.0
 11
-9.35716992855669
 21
-950.7889331674487
 31
0.0
  0
LINE
  5
6D
330
4F
100
AcDbEntity
  8
1
  6
Continuous
 62
     7
100
AcDbLine
 10
-9.85716992855669
 20
-951.654958571231
 30
0.0
 11
-13.29714057287129
 21
-949.6688905937335
 31
0.0
  0
LINE
  5
6E
330
4F
100
AcDbEntity
  8
1
  6
Continuous
 62
     7
100
AcDbLine
 10
-13.29714057287129
 20
-949.6688905937335
 30
0.0
 11
-15.28320855037237
 21
-953.1088612380481
 31
0.0
  0
LINE
  5
6F
330
4F
100
AcDbEntity
  8
1
  6
Continuous
 62
     7
100
AcDbLine
 10
-16.14923395415462
 20
-952.6088612380481
 30
0.0
 11
-14.16316597665718
 21
-949.1688905937335
 31
0.0
  0
LINE
  5
70
330
4F
100
AcDbEntity
  8
1
  6
Continuous
 62
     7
100
AcDbLine
 10
-14.16316597665718
 20
-949.1688905937335
 30
0.0
 11
-17.60313662097178
 21
-947.1828226162324
 31
0.0
  0
LINE
  5
71
330
4F
100
AcDbEntity
  8
1
  6
Continuous
 62
     7
100
AcDbLine
 10
-17.10313662097178
 20
-946.3167972124465
 30
0.0
 11
-13.66316597665718
 21
-948.3028651899476
 31
0.0
  0
LINE
  5
72
330
4F
100
AcDbEntity
  8
1
  6
Continuous
 62
     7
100
AcDbLine
 10
-13.66316597665718
 20
-948.3028651899476
 30
0.0
 11
-11.6770979991561
 21
-944.862894545633
 31
0.0
  0
LINE
  5
73
330
4F
100
AcDbEntity
  8
1
  6
PHANTOM
 62
     2
100
AcDbLine
 10
-87.30504483551704
 20
-896.8475166325406
 30
0.0
 11
-87.30504483551704
 21
-884.7475166325385
 31
0.0
  0
LINE
  5
74
330
4F
100
AcDbEntity
  8
1
  6
PHANTOM
 62
     2
100
AcDbLine
 10
-93.35504483551631
 20
-890.7975166325377
 30
0.0
 11
-81.25504483551777
 21
-890.7975166325377
 31
0.0
  0
LINE
  5
75
330
4F
100
AcDbEntity
  8
1
  6
Continuous
 62
     7
100
AcDbLine
 10
-82.83290888051488
 20
-891.2975166325377
 30
0.0
 11
-86.80504483551704
 21
-891.2975166325377
 31
0.0
  0
LINE
  5
76
330
4F
100
AcDbEntity
  8
1
  6
Continuous
 62
     7
100
AcDbLine
 10
-86.80504483551704
 20
-891.2975166325377
 30
0.0
 11
-86.80504483551704
 21
-895.2696525875399
 31
0.0
  0
LINE
  5
77
330
4F
100
AcDbEntity
  8
1
  6
Continuous
 62
     7
100
AcDbLine
 10
-87.80504483551704
 20
-895.2696525875399
 30
0.0
 11
-87.80504483551704
 21
-891.2975166325377
 31
0.0
  0
LINE
  5
78
330
4F
100
AcDbEntity
  8
1
  6
Continuous
 62
     7
100
AcDbLine
 10
-87.80504483551704
 20
-891.2975166325377
 30
0.0
 11
-91.77718079051556
 21
-891.2975166325377
 31
0.0
  0
LINE
  5
79
330
4F
100
AcDbEntity
  8
1
  6
Continuous
 62
     7
100
AcDbLine
 10
-91.77718079051556
 20
-890.2975166325377
 30
0.0
 11
-87.80504483551704
 21
-890.2975166325377
 31
0.0
  0
LINE
  5
7A
330
4F
100
AcDbEntity
  8
1
  6
Continuous
 62
     7
100
AcDbLine
 10
-87.80504483551704
 20
-890.2975166325377
 30
0.0
 11
-87.80504483551704
 21
-886.3253806775392
 31
0.0
  0
LINE
  5
7B
330
4F
100
AcDbEntity
  8
1
  6
Continuous
 62
     7
100
AcDbLine
 10
-86.80504483551704
 20
-886.3253806775392
 30
0.0
 11
-86.80504483551704
 21
-890.2975166325377
 31
0.0
  0
LINE
  5
7C
330
4F
100
AcDbEntity
  8
1
  6
Continuous
 62
     7
100
AcDbLine
 10
-86.80504483551704
 20
-890.2975166325377
 30
0.0
 11
-82.83290888051488
 21
-890.2975166325377
 31
0.0
  0
LINE
  5
7D
330
4F
100
AcDbEntity
  8
1
  6
PHANTOM
 62
     2
100
AcDbLine
 10
-79.06434525364966
 20
-800.7941044796462
 30
0.0
 11
-68.58543786785594
 21
-794.7441044796469
 31
0.0
  0
LINE
  5
7E
330
4F
100
AcDbEntity
  8
1
  6
PHANTOM
 62
     2
100
AcDbLine
 10
-76.84989156075244
 20
-792.5296507867497
 30
0.0
 11
-70.79989156075317
 21
-803.0085581725398
 31
0.0
  0
LINE
  5
7F
330
4F
100
AcDbEntity
  8
1
  6
Continuous
 62
     7
100
AcDbLine
 10
-72.02183628514467
 20
-801.8920878258541
 30
0.0
 11
-74.00790426264575
 21
-798.4521171815359
 31
0.0
  0
LINE
  5
80
330
4F
100
AcDbEntity
  8
1
  6
Continuous
 62
     7
100
AcDbLine
 10
-74.00790426264575
 20
-798.4521171815359
 30
0.0
 11
-77.44787490696035
 21
-800.438185159037
 31
0.0
  0
LINE
  5
81
330
4F
100
AcDbEntity
  8
1
  6
Continuous
 62
     7
100
AcDbLine
 10
-77.94787490696035
 20
-799.572159755251
 30
0.0
 11
-74.50790426264575
 21
-797.5860917777536
 31
0.0
  0
LINE
  5
82
330
4F
100
AcDbEntity
  8
1
  6
Continuous
 62
     7
100
AcDbLine
 10
-74.50790426264575
 20
-797.5860917777536
 30
0.0
 11
-76.4939722401432
 21
-794.146121133439
 31
0.0
  0
LINE
  5
83
330
4F
100
AcDbEntity
  8
1
  6
Continuous
 62
     7
100
AcDbLine
 10
-75.62794683636093
 20
-793.646121133439
 30
0.0
 11
-73.64187885885985
 21
-797.0860917777536
 31
0.0
  0
LINE
  5
84
330
4F
100
AcDbEntity
  8
1
  6
Continuous
 62
     7
100
AcDbLine
 10
-73.64187885885985
 20
-797.0860917777536
 30
0.0
 11
-70.20190821454526
 21
-795.1000238002525
 31
0.0
  0
LINE
  5
85
330
4F
100
AcDbEntity
  8
1
  6
Continuous
 62
     7
100
AcDbLine
 10
-69.70190821454526
 20
-795.9660492040384
 30
0.0
 11
-73.14187885885985
 21
-797.9521171815359
 31
0.0
  0
LINE
  5
86
330
4F
100
AcDbEntity
  8
1
  6
Continuous
 62
     7
100
AcDbLine
 10
-73.14187885885985
 20
-797.9521171815359
 30
0.0
 11
-71.15581088135878
 21
-801.3920878258541
 31
0.0
  0
LINE
  5
87
330
4F
100
AcDbEntity
  8
1
  6
PHANTOM
 62
     2
100
AcDbLine
 10
8.24069958186737
 20
-759.9040535860513
 30
0.0
 11
18.71960696766109
 21
-765.9540535860506
 31
0.0
  0
LINE
  5
88
330
4F
100
AcDbEntity
  8
1
  6
PHANTOM
 62
     2
100
AcDbLine
 10
16.50515327476387
 20
-757.6895998931541
 30
0.0
 11
10.4551532747646
 21
-768.1685072789478
 31
0.0
  0
LINE
  5
89
330
4F
100
AcDbEntity
  8
1
  6
Continuous
 62
     7
100
AcDbLine
 10
10.81107259537384
 20
-766.5520369322585
 30
0.0
 11
12.79714057287129
 21
-763.1120662879439
 31
0.0
  0
LINE
  5
8A
330
4F
100
AcDbEntity
  8
1
  6
Continuous
 62
     7
100
AcDbLine
 10
12.79714057287129
 20
-763.1120662879439
 30
0.0
 11
9.35716992855669
 21
-761.1259983104428
 31
0.0
  0
LINE
  5
8B
330
4F
100
AcDbEntity
  8
1
  6
Continuous
 62
     7
100
AcDbLine
 10
9.85716992855669
 20
-760.2599729066606
 30
0.0
 11
13.29714057287129
 21
-762.246040884158
 31
0.0
  0
LINE
  5
8C
330
4F
100
AcDbEntity
  8
1
  6
Continuous
 62
     7
100
AcDbLine
 10
13.29714057287129
 20
-762.246040884158
 30
0.0
 11
15.28320855037237
 21
-758.8060702398434
 31
0.0
  0
LINE
  5
8D
330
4F
100
AcDbEntity
  8
1
  6
Continuous
 62
     7
100
AcDbLine
 10
16.14923395415826
 20
-759.3060702398434
 30
0.0
 11
14.16316597665718
 21
-762.746040884158
 31
0.0
  0
LINE
  5
8E
330
4F
100
AcDbEntity
  8
1
  6
Continuous
 62
     7
100
AcDbLine
 10
14.16316597665718
 20
-762.746040884158
 30
0.0
 11
17.60313662097178
 21
-764.7321088616591
 31
0.0
  0
LINE
  5
8F
330
4F
100
AcDbEntity
  8
1
  6
Continuous
 62
     7
100
AcDbLine
 10
17.10313662097178
 20
-765.5981342654413
 30
0.0
 11
13.66316597665718
 21
-763.6120662879439
 31
0.0
  0
LINE
  5
90
330
4F
100
AcDbEntity
  8
1
  6
Continuous
 62
     7
100
AcDbLine
 10
13.66316597665718
 20
-763.6120662879439
 30
0.0
 11
11.6770979991561
 21
-767.0520369322585
 31
0.0
  0
LINE
  5
91
330
4F
100
AcDbEntity
  8
1
  6
Continuous
 62
     7
100
AcDbLine
 10
86.80504483551704
 20
-821.6174148453501
 30
0.0
 11
82.83290888051852
 21
-821.6174148453501
 31
0.0
  0
LINE
  5
92
330
4F
100
AcDbEntity
  8
1
  6
Continuous
 62
     7
100
AcDbLine
 10
86.80504483551704
 20
-825.5895508003487
 30
0.0
 11
86.80504483551704
 21
-821.6174148453501
 31
0.0
  0
LINE
  5
93
330
4F
100
AcDbEntity
  8
1
  6
Continuous
 62
     7
100
AcDbLine
 10
87.80504483551704
 20
-821.6174148453501
 30
0.0
 11
87.80504483551704
 21
-825.5895508003487
 31
0.0
  0
LINE
  5
94
330
4F
100
AcDbEntity
  8
1
  6
Continuous
 62
     7
100
AcDbLine
 10
91.7771807905192
 20
-821.6174148453501
 30
0.0
 11
87.80504483551704
 21
-821.6174148453501
 31
0.0
  0
LINE
  5
95
330
4F
100
AcDbEntity
  8
1
  6
Continuous
 62
     7
100
AcDbLine
 10
87.80504483551704
 20
-820.6174148453501
 30
0.0
 11
91.7771807905192
 21
-820.6174148453501
 31
0.0
  0
LINE
  5
96
330
4F
100
AcDbEntity
  8
1
  6
Continuous
 62
     7
100
AcDbLine
 10
87.80504483551704
 20
-816.6452788903516
 30
0.0
 11
87.80504483551704
 21
-820.6174148453501
 31
0.0
  0
LINE
  5
97
330
4F
100
AcDbEntity
  8
1
  6
Continuous
 62
     7
100
AcDbLine
 10
86.80504483551704
 20
-820.6174148453501
 30
0.0
 11
86.80504483551704
 21
-816.6452788903516
 31
0.0
  0
LINE
  5
98
330
4F
100
AcDbEntity
  8
1
  6
Continuous
 62
     7
100
AcDbLine
 10
82.83290888051852
 20
-820.6174148453501
 30
0.0
 11
86.80504483551704
 21
-820.6174148453501
 31
0.0
  0
LINE
  5
99
330
4F
100
AcDbEntity
  8
1
  6
PHANTOM
 62
     2
100
AcDbLine
 10
87.30504483551704
 20
-815.0674148453509
 30
0.0
 11
87.30504483551704
 21
-827.1674148453494
 31
0.0
  0
LINE
  5
9A
330
4F
100
AcDbEntity
  8
1
  6
PHANTOM
 62
     2
100
AcDbLine
 10
93.35504483551995
 20
-821.1174148453501
 30
0.0
 11
81.25504483551777
 21
-821.1174148453501
 31
0.0
  0
LINE
  5
9B
330
4F
100
AcDbEntity
  8
1
  6
Continuous
 62
     7
100
AcDbLine
 10
-250.0
 20
-1105.957465738946
 30
0.0
 11
-250.0
 21
-605.9574657389458
 31
0.0
  0
LINE
  5
9C
330
4F
100
AcDbEntity
  8
1
  6
Continuous
 62
     7
100
AcDbLine
 10
250.0
 20
-1105.957465738946
 30
0.0
 11
-250.0
 21
-1105.957465738946
 31
0.0
  0
LINE
  5
9D
330
4F
100
AcDbEntity
  8
1
  6
Continuous
 62
     7
100
AcDbLine
 10
250.0
 20
-605.9574657389458
 30
0.0
 11
250.0
 21
-1105.957465738946
 31
0.0
  0
LINE
  5
9E
330
4F
100
AcDbEntity
  8
1
  6
Continuous
 62
     7
100
AcDbLine
 10
-250.0
 20
-605.9574657389458
 30
0.0
 11
250.0
 21
-605.9574657389458
 31
0.0
  0
LINE
  5
9F
330
4F
100
AcDbEntity
  8
0
  6
Continuous
 62
     7
100
AcDbLine
 10
-78.43955442529477
 20
-821.7020925889155
 30
0.0
 11
-67.66061238791372
 21
-826.2379177731382
 31
0.0
  0
LINE
  5
A0
330
4F
100
AcDbEntity
  8
0
  6
Continuous
 62
     7
100
AcDbLine
 10
-84.63273439032127
 20
-843.1709666987845
 30
0.0
 11
-73.04711795341063
 21
-844.7624419024287
 31
0.0
  0
LINE
  5
A1
330
4F
100
AcDbEntity
  8
0
  6
Continuous
 62
     7
100
AcDbLine
 10
-84.94573794905591
 20
-845.4495690713411
 30
0.0
 11
-73.36012151214527
 21
-847.0410442749853
 31
0.0
  0
LINE
  5
A2
330
4F
100
AcDbEntity
  8
0
  6
Continuous
 62
     7
100
AcDbLine
 10
-84.94573794905591
 20
-845.4495690713411
 30
0.0
 11
-84.63273439032127
 21
-843.1709666987845
 31
0.0
  0
LINE
  5
A3
330
4F
100
AcDbEntity
  8
0
  6
Continuous
 62
     7
100
AcDbLine
 10
-65.26228609482496
 20
-820.2336079730703
 30
0.0
 11
-64.86222577082299
 21
-820.5441678403549
 31
0.0
  0
LINE
  5
A4
330
4F
100
AcDbEntity
  8
0
  6
Continuous
 62
     7
100
AcDbLine
 10
-65.26228609482496
 20
-820.2336079730703
 30
0.0
 11
-65.74226703732347
 21
-819.8610071205076
 31
0.0
  0
LINE
  5
A5
330
4F
100
AcDbEntity
  8
0
  6
Continuous
 62
     7
100
AcDbLine
 10
-79.33163833662911
 20
-823.8220421862243
 30
0.0
 11
-68.55269629924805
 21
-828.3578673704469
 31
0.0
  0
LINE
  5
A6
330
4F
100
AcDbEntity
  8
0
  6
Continuous
 62
     7
100
AcDbLine
 10
-67.66061238791372
 20
-826.2379177731382
 30
0.0
 11
-57.20181310295811
 21
-830.6390255097722
 31
0.0
  0
LINE
  5
A7
330
4F
100
AcDbEntity
  8
0
  6
Continuous
 62
     7
100
AcDbLine
 10
-79.33163833662911
 20
-823.8220421862243
 30
0.0
 11
-78.43955442529477
 21
-821.7020925889155
 31
0.0
  0
LINE
  5
A8
330
4F
100
AcDbEntity
  8
0
  6
Continuous
 62
     7
100
AcDbLine
 10
37.44382818377198
 20
-805.8472814562228
 30
0.0
 11
34.73109498369377
 21
-809.3417990590569
 31
0.0
  0
LINE
  5
A9
330
4F
100
AcDbEntity
  8
0
  6
Continuous
 62
     7
100
AcDbLine
 10
46.21873401510675
 20
-798.2943178363166
 30
0.0
 11
39.26065394416219
 21
-807.2576516758381
 31
0.0
  0
LINE
  5
AA
330
4F
100
AcDbEntity
  8
0
  6
Continuous
 62
     7
100
AcDbLine
 10
54.05556143819194
 20
-805.5669281589398
 30
0.0
 11
54.36612138374403
 21
-805.1668677341149
 31
0.0
  0
LINE
  5
AB
330
4F
100
AcDbEntity
  8
0
  6
Continuous
 62
     7
100
AcDbLine
 10
54.73872232879512
 20
-804.6868866724762
 30
0.0
 11
54.36612138374403
 21
-805.1668677341149
 31
0.0
  0
LINE
  5
AC
330
4F
100
AcDbEntity
  8
0
  6
Continuous
 62
     7
100
AcDbLine
 10
34.73109498369377
 20
-809.3417990590569
 30
0.0
 11
33.54646110630347
 21
-810.8678333691532
 31
0.0
  0
LINE
  5
AD
330
4F
100
AcDbEntity
  8
0
  6
Continuous
 62
     7
100
AcDbLine
 10
43.28765780856702
 20
-851.6646017242674
 30
0.0
 11
44.88025510284206
 21
-851.4640189277852
 31
0.0
  0
LINE
  5
AE
330
4F
100
AcDbEntity
  8
0
  6
Continuous
 62
     7
100
AcDbLine
 10
40.70159167182646
 20
-840.6072072596835
 30
0.0
 11
42.18800788139197
 21
-840.0012646453142
 31
0.0
  0
LINE
  5
AF
330
4F
100
AcDbEntity
  8
0
  6
Continuous
 62
     7
100
AcDbLine
 10
43.0002503394353
 20
-849.3826295625877
 30
0.0
 11
44.59284763371034
 21
-849.1820467661018
 31
0.0
  0
LINE
  5
B0
330
4F
100
AcDbEntity
  8
0
  6
Continuous
 62
     7
100
AcDbLine
 10
7.05708203821632
 20
-813.033724137058
 30
0.0
 11
7.27552844571619
 21
-811.4434786317906
 31
0.0
  0
LINE
  5
B1
330
4F
100
AcDbEntity
  8
0
  6
Continuous
 62
     7
100
AcDbLine
 10
17.92609961258131
 20
-816.3228223990627
 30
0.0
 11
18.54868846240061
 21
-814.8433012859823
 31
0.0
  0
LINE
  5
B2
330
4F
100
AcDbEntity
  8
0
  6
Continuous
 62
     7
100
AcDbLine
 10
25.75665736224255
 20
-820.9025858857203
 30
0.0
 11
26.74096025313702
 21
-819.6346160836547
 31
0.0
  0
LINE
  5
B3
330
4F
100
AcDbEntity
  8
0
  6
Continuous
 62
     7
100
AcDbLine
 10
33.54646110630347
 20
-810.8678333691532
 30
0.0
 11
28.80047281532461
 21
-816.9815712130367
 31
0.0
  0
LINE
  5
B4
330
4F
100
AcDbEntity
  8
0
  6
Continuous
 62
     7
100
AcDbLine
 10
21.48263928314191
 20
-801.9411205441174
 30
0.0
 11
20.73333756920692
 21
-803.7217623049801
 31
0.0
  0
LINE
  5
B5
330
4F
100
AcDbEntity
  8
0
  6
Continuous
 62
     7
100
AcDbLine
 10
20.73333756920692
 20
-803.7217623049801
 30
0.0
 11
17.73141669844335
 21
-810.8555317410901
 31
0.0
  0
LINE
  5
B6
330
4F
100
AcDbEntity
  8
0
  6
Continuous
 62
     7
100
AcDbLine
 10
22.85328716651566
 20
-804.6138462163144
 30
0.0
 11
19.85136629575572
 21
-811.7476156524244
 31
0.0
  0
LINE
  5
B7
330
4F
100
AcDbEntity
  8
0
  6
Continuous
 62
     7
100
AcDbLine
 10
-6.57483617635808
 20
-812.9572153995141
 30
0.0
 11
-6.77541897284391
 21
-811.3646181052427
 31
0.0
  0
LINE
  5
B8
330
4F
100
AcDbEntity
  8
0
  6
Continuous
 62
     7
100
AcDbLine
 10
-4.29286401467471
 20
-812.6698079303824
 30
0.0
 11
-4.49344681116054
 21
-811.077210636111
 31
0.0
  0
LINE
  5
B9
330
4F
100
AcDbEntity
  8
0
  6
Continuous
 62
     7
100
AcDbLine
 10
4.77847966565969
 20
-812.7207205783234
 30
0.0
 11
4.99692607315956
 21
-811.130475073056
 31
0.0
  0
LINE
  5
BA
330
4F
100
AcDbEntity
  8
0
  6
Continuous
 62
     7
100
AcDbLine
 10
53.12426128349762
 20
-879.5600546193964
 30
0.0
 11
51.34361952263498
 21
-878.8107529054614
 31
0.0
  0
LINE
  5
BB
330
4F
100
AcDbEntity
  8
0
  6
Continuous
 62
     7
100
AcDbLine
 10
57.20181310296175
 20
-881.2759059681266
 30
0.0
 11
53.12426128349762
 21
-879.5600546193964
 31
0.0
  0
LINE
  5
BC
330
4F
100
AcDbEntity
  8
0
  6
Continuous
 62
     7
100
AcDbLine
 10
54.01634519483559
 20
-877.4401050220877
 30
0.0
 11
52.23570343396932
 21
-876.6908033081527
 31
0.0
  0
LINE
  5
BD
330
4F
100
AcDbEntity
  8
0
  6
Continuous
 62
     7
100
AcDbLine
 10
68.55269629925533
 20
-883.5570641074482
 30
0.0
 11
58.09389701429973
 21
-879.1559563708142
 31
0.0
  0
LINE
  5
BE
330
4F
100
AcDbEntity
  8
0
  6
Continuous
 62
     7
100
AcDbLine
 10
51.34361952263498
 20
-878.8107529054614
 30
0.0
 11
44.20985008652497
 21
-875.8088320347015
 31
0.0
  0
LINE
  5
BF
330
4F
100
AcDbEntity
  8
0
  6
Continuous
 62
     7
100
AcDbLine
 10
58.09389701429973
 20
-879.1559563708142
 30
0.0
 11
54.01634519483559
 21
-877.4401050220877
 31
0.0
  0
LINE
  5
C0
330
4F
100
AcDbEntity
  8
0
  6
Continuous
 62
     7
100
AcDbLine
 10
52.23570343396932
 20
-876.6908033081527
 30
0.0
 11
45.10193399785931
 21
-873.6888824373891
 31
0.0
  0
LINE
  5
C1
330
4F
100
AcDbEntity
  8
0
  6
Continuous
 62
     7
100
AcDbLine
 10
45.0896323697998
 20
-889.5039268452492
 30
0.0
 11
38.97589452591274
 21
-884.7579385542667
 31
0.0
  0
LINE
  5
C2
330
4F
100
AcDbEntity
  8
0
  6
Continuous
 62
     7
100
AcDbLine
 10
46.61566667989246
 20
-890.6885607226359
 30
0.0
 11
45.0896323697998
 21
-889.5039268452492
 31
0.0
  0
LINE
  5
C3
330
4F
100
AcDbEntity
  8
0
  6
Continuous
 62
     7
100
AcDbLine
 10
50.11018428273019
 20
-893.4012939227177
 30
0.0
 11
46.61566667989246
 21
-890.6885607226359
 31
0.0
  0
LINE
  5
C4
330
4F
100
AcDbEntity
  8
0
  6
Continuous
 62
     7
100
AcDbLine
 10
67.66061238792099
 20
-885.6770137047606
 30
0.0
 11
57.20181310296175
 21
-881.2759059681266
 31
0.0
  0
LINE
  5
C5
330
4F
100
AcDbEntity
  8
0
  6
Continuous
 62
     7
100
AcDbLine
 10
65.26228609483223
 20
-891.6813235048248
 30
0.0
 11
64.86222577082663
 21
-891.3707636375402
 31
0.0
  0
LINE
  5
C6
330
4F
100
AcDbEntity
  8
0
  6
Continuous
 62
     7
100
AcDbLine
 10
39.63464333988668
 20
-873.8835653515271
 30
0.0
 11
41.11416445297073
 21
-874.5061542013464
 31
0.0
  0
LINE
  5
C7
330
4F
100
AcDbEntity
  8
0
  6
Continuous
 62
     7
100
AcDbLine
 10
35.05487985323271
 20
-881.7141231011847
 30
0.0
 11
36.3228496552947
 21
-882.6984259920828
 31
0.0
  0
LINE
  5
C8
330
4F
100
AcDbEntity
  8
0
  6
Continuous
 62
     7
100
AcDbLine
 10
42.92374160189502
 20
-863.0145477771621
 30
0.0
 11
44.51398710716239
 21
-863.232994184662
 31
0.0
  0
LINE
  5
C9
330
4F
100
AcDbEntity
  8
0
  6
Continuous
 62
     7
100
AcDbLine
 10
43.23674516062965
 20
-860.7359454046054
 30
0.0
 11
44.82699066589339
 21
-860.9543918121053
 31
0.0
  0
LINE
  5
CA
330
4F
100
AcDbEntity
  8
0
  6
Continuous
 62
     7
100
AcDbLine
 10
40.52672725122466
 20
-871.7636157542147
 30
0.0
 11
42.00624836430507
 21
-872.386204604034
 31
0.0
  0
LINE
  5
CB
330
4F
100
AcDbEntity
  8
0
  6
Continuous
 62
     7
100
AcDbLine
 10
-17.48008779838347
 20
-816.1241062200643
 30
0.0
 11
-18.08603041275637
 21
-814.6376900104988
 31
0.0
  0
LINE
  5
CC
330
4F
100
AcDbEntity
  8
0
  6
Continuous
 62
     7
100
AcDbLine
 10
-38.71154530328204
 20
-806.8200350151492
 30
0.0
 11
-36.03820751674357
 21
-810.3447817819979
 31
0.0
  0
LINE
  5
CD
330
4F
100
AcDbEntity
  8
0
  6
Continuous
 62
     7
100
AcDbLine
 10
-36.03820751674357
 20
-810.3447817819979
 30
0.0
 11
-34.87077737376239
 21
-811.8840169817959
 31
0.0
  0
LINE
  5
CE
330
4F
100
AcDbEntity
  8
0
  6
Continuous
 62
     7
100
AcDbLine
 10
-36.87900317510139
 20
-805.4301467648038
 30
0.0
 11
-34.20566538856292
 21
-808.9548935316525
 31
0.0
  0
LINE
  5
CF
330
4F
100
AcDbEntity
  8
0
  6
Continuous
 62
     7
100
AcDbLine
 10
-34.20566538856292
 20
-808.9548935316525
 30
0.0
 11
-33.03823524558175
 21
-810.4941287314505
 31
0.0
  0
LINE
  5
D0
330
4F
100
AcDbEntity
  8
0
  6
Continuous
 62
     7
100
AcDbLine
 10
-27.19410032416272
 20
-822.0055746640865
 30
0.0
 11
-28.16410876861846
 21
-820.7266363474919
 31
0.0
  0
LINE
  5
D1
330
4F
100
AcDbEntity
  8
0
  6
Continuous
 62
     7
100
AcDbLine
 10
-33.6445096336065
 20
-828.3839826163203
 30
0.0
 11
-34.91247943567214
 21
-827.3996797254258
 31
0.0
  0
LINE
  5
D2
330
4F
100
AcDbEntity
  8
0
  6
Continuous
 62
     7
100
AcDbLine
 10
-52.63550234699869
 20
-788.4615534126024
 30
0.0
 11
-45.56857730881893
 21
-797.7791642679513
 31
0.0
  0
LINE
  5
D3
330
4F
100
AcDbEntity
  8
0
  6
Continuous
 62
     7
100
AcDbLine
 10
-52.63550234699869
 20
-788.4615534126024
 30
0.0
 11
-50.80296021881804
 21
-787.0716651622533
 31
0.0
  0
LINE
  5
D4
330
4F
100
AcDbEntity
  8
0
  6
Continuous
 62
     7
100
AcDbLine
 10
-15.35025847926227
 20
-815.2558740671266
 30
0.0
 11
-15.95620109363154
 21
-813.7694578575611
 31
0.0
  0
LINE
  5
D5
330
4F
100
AcDbEntity
  8
0
  6
Continuous
 62
     7
100
AcDbLine
 10
-50.80296021881804
 20
-787.0716651622533
 30
0.0
 11
-43.73603518063828
 21
-796.3892760176059
 31
0.0
  0
LINE
  5
D6
330
4F
100
AcDbEntity
  8
0
  6
Continuous
 62
     7
100
AcDbLine
 10
-43.73603518063828
 20
-796.3892760176059
 30
0.0
 11
-36.87900317510139
 21
-805.4301467648038
 31
0.0
  0
LINE
  5
D7
330
4F
100
AcDbEntity
  8
0
  6
Continuous
 62
     7
100
AcDbLine
 10
-45.56857730881893
 20
-797.7791642679513
 30
0.0
 11
-38.71154530328204
 21
-806.8200350151492
 31
0.0
  0
LINE
  5
D8
330
4F
100
AcDbEntity
  8
0
  6
Continuous
 62
     7
100
AcDbLine
 10
-34.87077737376239
 20
-811.8840169817959
 30
0.0
 11
-30.19371225273062
 21
-818.0506414340816
 31
0.0
  0
LINE
  5
D9
330
4F
100
AcDbEntity
  8
0
  6
Continuous
 62
     7
100
AcDbLine
 10
-25.36155819598571
 20
-820.6156864137411
 30
0.0
 11
-26.33156664043781
 21
-819.3367480971465
 31
0.0
  0
LINE
  5
DA
330
4F
100
AcDbEntity
  8
0
  6
Continuous
 62
     7
100
AcDbLine
 10
-57.66314790262913
 20
-809.7387317238426
 30
0.0
 11
-48.69981406310762
 21
-816.6968117947908
 31
0.0
  0
LINE
  5
DB
330
4F
100
AcDbEntity
  8
0
  6
Continuous
 62
     7
100
AcDbLine
 10
-50.39053758000591
 20
-801.9019043007575
 30
0.0
 11
-50.79059800483083
 21
-801.591344355209
 31
0.0
  0
LINE
  5
DC
330
4F
100
AcDbEntity
  8
0
  6
Continuous
 62
     7
100
AcDbLine
 10
-51.27057906646951
 20
-801.2187434101543
 30
0.0
 11
-50.79059800483083
 21
-801.591344355209
 31
0.0
  0
LINE
  5
DD
330
4F
100
AcDbEntity
  8
0
  6
Continuous
 62
     7
100
AcDbLine
 10
-33.03823524558175
 20
-810.4941287314505
 30
0.0
 11
-28.36117012454997
 21
-816.6607531837362
 31
0.0
  0
LINE
  5
DE
330
4F
100
AcDbEntity
  8
0
  6
Continuous
 62
     7
100
AcDbLine
 10
-8.09242266657384
 20
-782.5018825924963
 30
0.0
 11
-6.67449412881251
 21
-793.7600223346672
 31
0.0
  0
LINE
  5
DF
330
4F
100
AcDbEntity
  8
0
  6
Continuous
 62
     7
100
AcDbLine
 10
-10.37439482825357
 20
-782.7892900616243
 30
0.0
 11
-8.95646629049224
 21
-794.0474298037989
 31
0.0
  0
LINE
  5
E0
330
4F
100
AcDbEntity
  8
0
  6
Continuous
 62
     7
100
AcDbLine
 10
-8.95646629049224
 20
-794.0474298037989
 30
0.0
 11
-8.4036612378768
 21
-798.4366189390639
 31
0.0
  0
LINE
  5
E1
330
4F
100
AcDbEntity
  8
0
  6
Continuous
 62
     7
100
AcDbLine
 10
-6.12168907619707
 20
-798.1492114699322
 30
0.0
 11
-5.88028251513242
 21
-800.0659433268484
 31
0.0
  0
LINE
  5
E2
330
4F
100
AcDbEntity
  8
0
  6
Continuous
 62
     7
100
AcDbLine
 10
-6.67449412881251
 20
-793.7600223346672
 30
0.0
 11
-6.12168907619707
 21
-798.1492114699322
 31
0.0
  0
LINE
  5
E3
330
4F
100
AcDbEntity
  8
0
  6
Continuous
 62
     7
100
AcDbLine
 10
-8.4036612378768
 20
-798.4366189390639
 30
0.0
 11
-8.16225467681215
 21
-800.3533507959801
 31
0.0
  0
LINE
  5
E4
330
4F
100
AcDbEntity
  8
0
  6
Continuous
 62
     7
100
AcDbLine
 10
-9.55375384860235
 20
-770.8991323700902
 30
0.0
 11
-8.09242266657384
 21
-782.5018825924963
 31
0.0
  0
LINE
  5
E5
330
4F
100
AcDbEntity
  8
0
  6
Continuous
 62
     7
100
AcDbLine
 10
-11.83572601028209
 20
-771.186539839222
 30
0.0
 11
-10.37439482825357
 21
-782.7892900616243
 31
0.0
  0
LINE
  5
E6
330
4F
100
AcDbEntity
  8
0
  6
Continuous
 62
     7
100
AcDbLine
 10
-11.83572601028209
 20
-771.186539839222
 30
0.0
 11
-9.55375384860235
 21
-770.8991323700902
 31
0.0
  0
LINE
  5
E7
330
4F
100
AcDbEntity
  8
0
  6
Continuous
 62
     7
100
AcDbLine
 10
-43.67926215017724
 20
-820.5941788722557
 30
0.0
 11
-37.56552430629017
 21
-825.3401671632382
 31
0.0
  0
LINE
  5
E8
330
4F
100
AcDbEntity
  8
0
  6
Continuous
 62
     7
100
AcDbLine
 10
-26.82838393830389
 20
-787.0992939997959
 30
0.0
 11
-22.54494916614931
 21
-797.6068350225614
 31
0.0
  0
LINE
  5
E9
330
4F
100
AcDbEntity
  8
0
  6
Continuous
 62
     7
100
AcDbLine
 10
-28.95821325742872
 20
-787.9675261527336
 30
0.0
 11
-24.67477848527415
 21
-798.4750671755028
 31
0.0
  0
LINE
  5
EA
330
4F
100
AcDbEntity
  8
0
  6
Continuous
 62
     7
100
AcDbLine
 10
-20.14570720726624
 20
-803.4923298759859
 30
0.0
 11
-17.22404906787415
 21
-810.6593452239831
 31
0.0
  0
LINE
  5
EB
330
4F
100
AcDbEntity
  8
0
  6
Continuous
 62
     7
100
AcDbLine
 10
-24.67477848527415
 20
-798.4750671755028
 30
0.0
 11
-23.00480406728457
 21
-802.5716218418784
 31
0.0
  0
LINE
  5
EC
330
4F
100
AcDbEntity
  8
0
  6
Continuous
 62
     7
100
AcDbLine
 10
-22.54494916614931
 20
-797.6068350225614
 30
0.0
 11
-20.87497474815973
 21
-801.703389688937
 31
0.0
  0
LINE
  5
ED
330
4F
100
AcDbEntity
  8
0
  6
Continuous
 62
     7
100
AcDbLine
 10
-22.27553652639108
 20
-804.3605620289272
 30
0.0
 11
-19.35387838699899
 21
-811.5275773769208
 31
0.0
  0
LINE
  5
EE
330
4F
100
AcDbEntity
  8
0
  6
Continuous
 62
     7
100
AcDbLine
 10
-23.00480406728457
 20
-802.5716218418784
 30
0.0
 11
-22.27553652639108
 21
-804.3605620289272
 31
0.0
  0
LINE
  5
EF
330
4F
100
AcDbEntity
  8
0
  6
Continuous
 62
     7
100
AcDbLine
 10
-20.87497474815973
 20
-801.703389688937
 30
0.0
 11
-20.14570720726624
 21
-803.4923298759859
 31
0.0
  0
LINE
  5
F0
330
4F
100
AcDbEntity
  8
0
  6
Continuous
 62
     7
100
AcDbLine
 10
-45.20529646026989
 20
-819.4095449948691
 30
0.0
 11
-43.67926215017724
 21
-820.5941788722557
 31
0.0
  0
LINE
  5
F1
330
4F
100
AcDbEntity
  8
0
  6
Continuous
 62
     7
100
AcDbLine
 10
-48.69981406310762
 20
-816.6968117947908
 30
0.0
 11
-45.20529646026989
 21
-819.4095449948691
 31
0.0
  0
LINE
  5
F2
330
4F
100
AcDbEntity
  8
0
  6
Continuous
 62
     7
100
AcDbLine
 10
-31.24293420091271
 20
-776.2701182451056
 30
0.0
 11
-26.82838393830389
 21
-787.0992939997959
 31
0.0
  0
LINE
  5
F3
330
4F
100
AcDbEntity
  8
0
  6
Continuous
 62
     7
100
AcDbLine
 10
-33.37276352003755
 20
-777.1383503980433
 30
0.0
 11
-28.95821325742872
 21
-787.9675261527336
 31
0.0
  0
LINE
  5
F4
330
4F
100
AcDbEntity
  8
0
  6
Continuous
 62
     7
100
AcDbLine
 10
-33.37276352003755
 20
-777.1383503980433
 30
0.0
 11
-31.24293420091271
 21
-776.2701182451056
 31
0.0
  0
LINE
  5
F5
330
4F
100
AcDbEntity
  8
0
  6
Continuous
 62
     7
100
AcDbLine
 10
84.94573794905955
 20
-866.4653624065577
 30
0.0
 11
73.36012151214891
 21
-864.8738872029135
 31
0.0
  0
LINE
  5
F6
330
4F
100
AcDbEntity
  8
0
  6
Continuous
 62
     7
100
AcDbLine
 10
73.16817567732505
 20
-845.5830709106922
 30
0.0
 11
61.91003593515416
 21
-847.0009994484535
 31
0.0
  0
LINE
  5
F7
330
4F
100
AcDbEntity
  8
0
  6
Continuous
 62
     7
100
AcDbLine
 10
73.45558314645677
 20
-847.8650430723719
 30
0.0
 11
62.19744340428224
 21
-849.2829716101332
 31
0.0
  0
LINE
  5
F8
330
4F
100
AcDbEntity
  8
0
  6
Continuous
 62
     7
100
AcDbLine
 10
84.77092589972744
 20
-844.1217397286637
 30
0.0
 11
73.16817567732505
 21
-845.5830709106922
 31
0.0
  0
LINE
  5
F9
330
4F
100
AcDbEntity
  8
0
  6
Continuous
 62
     7
100
AcDbLine
 10
85.05833336885917
 20
-846.4037118903434
 30
0.0
 11
73.45558314645677
 21
-847.8650430723719
 31
0.0
  0
LINE
  5
FA
330
4F
100
AcDbEntity
  8
0
  6
Continuous
 62
     7
100
AcDbLine
 10
84.77092589972744
 20
-844.1217397286637
 30
0.0
 11
85.05833336885917
 21
-846.4037118903434
 31
0.0
  0
LINE
  5
FB
330
4F
100
AcDbEntity
  8
0
  6
Continuous
 62
     7
100
AcDbLine
 10
73.36012151214891
 20
-864.8738872029135
 30
0.0
 11
62.11860666904613
 21
-863.3296800196695
 31
0.0
  0
LINE
  5
FC
330
4F
100
AcDbEntity
  8
0
  6
Continuous
 62
     7
100
AcDbLine
 10
35.36328686669367
 20
-812.2782035887685
 30
0.0
 11
30.61729857571481
 21
-818.3919414326556
 31
0.0
  0
LINE
  5
FD
330
4F
100
AcDbEntity
  8
0
  6
Continuous
 62
     7
100
AcDbLine
 10
62.19744340428224
 20
-849.2829716101332
 30
0.0
 11
57.8082542690172
 21
-849.8357766627487
 31
0.0
  0
LINE
  5
FE
330
4F
100
AcDbEntity
  8
0
  6
Continuous
 62
     7
100
AcDbLine
 10
57.52084679988548
 20
-847.553804501069
 30
0.0
 11
55.60411494296932
 21
-847.7952110621336
 31
0.0
  0
LINE
  5
FF
330
4F
100
AcDbEntity
  8
0
  6
Continuous
 62
     7
100
AcDbLine
 10
51.5969037100258
 20
-833.6819292125547
 30
0.0
 11
44.42988836202858
 21
-836.6035873519468
 31
0.0
  0
LINE
  5
100
330
4F
100
AcDbEntity
  8
0
  6
Continuous
 62
     7
100
AcDbLine
 10
57.8082542690172
 20
-849.8357766627487
 30
0.0
 11
55.89152241210104
 21
-850.0771832238133
 31
0.0
  0
LINE
  5
101
330
4F
100
AcDbEntity
  8
0
  6
Continuous
 62
     7
100
AcDbLine
 10
59.56818972134352
 20
-812.2214305583038
 30
0.0
 11
50.52731897414924
 21
-819.0784625638444
 31
0.0
  0
LINE
  5
102
330
4F
100
AcDbEntity
  8
0
  6
Continuous
 62
     7
100
AcDbLine
 10
33.95189107486294
 20
-828.763365414783
 30
0.0
 11
35.23082939145752
 21
-827.7933569703273
 31
0.0
  0
LINE
  5
103
330
4F
100
AcDbEntity
  8
0
  6
Continuous
 62
     7
100
AcDbLine
 10
39.83335951888512
 20
-838.4773779405587
 30
0.0
 11
41.31977572845062
 21
-837.8714353261894
 31
0.0
  0
LINE
  5
104
330
4F
100
AcDbEntity
  8
0
  6
Continuous
 62
     7
100
AcDbLine
 10
35.34177932520834
 20
-830.59590754296
 30
0.0
 11
36.62071764180291
 21
-829.6258990985043
 31
0.0
  0
LINE
  5
105
330
4F
100
AcDbEntity
  8
0
  6
Continuous
 62
     7
100
AcDbLine
 10
27.57348312262911
 20
-822.3129561053356
 30
0.0
 11
28.55778601352722
 21
-821.0449863032736
 31
0.0
  0
LINE
  5
106
330
4F
100
AcDbEntity
  8
0
  6
Continuous
 62
     7
100
AcDbLine
 10
52.46513586296351
 20
-835.8117585316795
 30
0.0
 11
45.29812051496629
 21
-838.7334166710716
 31
0.0
  0
LINE
  5
107
330
4F
100
AcDbEntity
  8
0
  6
Continuous
 62
     7
100
AcDbLine
 10
61.91003593515416
 20
-847.0009994484535
 30
0.0
 11
57.52084679988548
 21
-847.553804501069
 31
0.0
  0
LINE
  5
108
330
4F
100
AcDbEntity
  8
0
  6
Continuous
 62
     7
100
AcDbLine
 10
57.48239856345026
 20
-831.2826872536716
 30
0.0
 11
53.38584389707467
 21
-832.9526616716612
 31
0.0
  0
LINE
  5
109
330
4F
100
AcDbEntity
  8
0
  6
Continuous
 62
     7
100
AcDbLine
 10
49.13743072380021
 20
-817.2459204356637
 30
0.0
 11
45.61268395695515
 21
-819.9192582222022
 31
0.0
  0
LINE
  5
10A
330
4F
100
AcDbEntity
  8
0
  6
Continuous
 62
     7
100
AcDbLine
 10
39.26065394416219
 20
-807.2576516758381
 30
0.0
 11
36.54792074408397
 21
-810.7521692786759
 31
0.0
  0
LINE
  5
10B
330
4F
100
AcDbEntity
  8
0
  6
Continuous
 62
     7
100
AcDbLine
 10
50.52731897414924
 20
-819.0784625638444
 30
0.0
 11
47.00257220730055
 21
-821.7518003503828
 31
0.0
  0
LINE
  5
10C
330
4F
100
AcDbEntity
  8
0
  6
Continuous
 62
     7
100
AcDbLine
 10
36.54792074408397
 20
-810.7521692786759
 30
0.0
 11
35.36328686669367
 21
-812.2782035887685
 31
0.0
  0
LINE
  5
10D
330
4F
100
AcDbEntity
  8
0
  6
Continuous
 62
     7
100
AcDbLine
 10
47.00257220730055
 20
-821.7518003503828
 30
0.0
 11
45.46333700750256
 21
-822.919230493364
 31
0.0
  0
LINE
  5
10E
330
4F
100
AcDbEntity
  8
0
  6
Continuous
 62
     7
100
AcDbLine
 10
45.61268395695515
 20
-819.9192582222022
 30
0.0
 11
44.07344875715717
 21
-821.0866883651834
 31
0.0
  0
LINE
  5
10F
330
4F
100
AcDbEntity
  8
0
  6
Continuous
 62
     7
100
AcDbLine
 10
44.07344875715717
 20
-821.0866883651834
 30
0.0
 11
37.90682430487141
 21
-825.7637534862151
 31
0.0
  0
LINE
  5
110
330
4F
100
AcDbEntity
  8
0
  6
Continuous
 62
     7
100
AcDbLine
 10
45.46333700750256
 20
-822.919230493364
 30
0.0
 11
39.2967125552168
 21
-827.5962956143958
 31
0.0
  0
LINE
  5
111
330
4F
100
AcDbEntity
  8
0
  6
Continuous
 62
     7
100
AcDbLine
 10
53.38584389707467
 20
-832.9526616716612
 30
0.0
 11
51.5969037100258
 21
-833.6819292125547
 31
0.0
  0
LINE
  5
112
330
4F
100
AcDbEntity
  8
0
  6
Continuous
 62
     7
100
AcDbLine
 10
54.25407605001237
 20
-835.082490990786
 30
0.0
 11
52.46513586296351
 21
-835.8117585316795
 31
0.0
  0
LINE
  5
113
330
4F
100
AcDbEntity
  8
0
  6
Continuous
 62
     7
100
AcDbLine
 10
79.68734749384748
 20
-824.714531538033
 30
0.0
 11
68.85817173915711
 21
-829.1290818006419
 31
0.0
  0
LINE
  5
114
330
4F
100
AcDbEntity
  8
0
  6
Continuous
 62
     7
100
AcDbLine
 10
68.85817173915711
 20
-829.1290818006419
 30
0.0
 11
58.35063071638797
 21
-833.4125165727964
 31
0.0
  0
LINE
  5
115
330
4F
100
AcDbEntity
  8
0
  6
Continuous
 62
     7
100
AcDbLine
 10
58.35063071638797
 20
-833.4125165727964
 30
0.0
 11
54.25407605001237
 21
-835.082490990786
 31
0.0
  0
LINE
  5
116
330
4F
100
AcDbEntity
  8
0
  6
Continuous
 62
     7
100
AcDbLine
 10
67.9899395862194
 20
-826.999252481517
 30
0.0
 11
57.48239856345026
 21
-831.2826872536716
 31
0.0
  0
LINE
  5
117
330
4F
100
AcDbEntity
  8
0
  6
Continuous
 62
     7
100
AcDbLine
 10
78.81911534090614
 20
-822.5847022189082
 30
0.0
 11
79.68734749384748
 21
-824.714531538033
 31
0.0
  0
LINE
  5
118
330
4F
100
AcDbEntity
  8
0
  6
Continuous
 62
     7
100
AcDbLine
 10
78.81911534090614
 20
-822.5847022189082
 30
0.0
 11
67.9899395862194
 21
-826.999252481517
 31
0.0
  0
LINE
  5
119
330
4F
100
AcDbEntity
  8
0
  6
Continuous
 62
     7
100
AcDbLine
 10
55.60411494296932
 20
-847.7952110621336
 30
0.0
 11
47.92512895117761
 21
-848.7623560459579
 31
0.0
  0
LINE
  5
11A
330
4F
100
AcDbEntity
  8
0
  6
Continuous
 62
     7
100
AcDbLine
 10
55.89152241210104
 20
-850.0771832238133
 30
0.0
 11
48.21253642030933
 21
-851.0443282076376
 31
0.0
  0
LINE
  5
11B
330
4F
100
AcDbEntity
  8
0
  6
Continuous
 62
     7
100
AcDbLine
 10
-8.16225467681215
 20
-800.3533507959801
 30
0.0
 11
-7.1951096929879
 21
-808.0323367877718
 31
0.0
  0
LINE
  5
11C
330
4F
100
AcDbEntity
  8
0
  6
Continuous
 62
     7
100
AcDbLine
 10
-5.88028251513242
 20
-800.0659433268484
 30
0.0
 11
-4.91313753130817
 21
-807.7449293186437
 31
0.0
  0
LINE
  5
11D
330
4F
100
AcDbEntity
  8
0
  6
Continuous
 62
     7
100
AcDbLine
 10
6.50727134022964
 20
-800.1354681062512
 30
0.0
 11
5.45399383611948
 21
-807.8031145366258
 31
0.0
  0
LINE
  5
11E
330
4F
100
AcDbEntity
  8
0
  6
Continuous
 62
     7
100
AcDbLine
 10
8.78587371278627
 20
-800.4484716649858
 30
0.0
 11
7.73259620867611
 21
-808.1161180953604
 31
0.0
  0
LINE
  5
11F
330
4F
100
AcDbEntity
  8
0
  6
Continuous
 62
     7
100
AcDbLine
 10
15.80615001527258
 20
-815.4307384877284
 30
0.0
 11
16.42873886508824
 21
-813.9512173746443
 31
0.0
  0
LINE
  5
120
330
4F
100
AcDbEntity
  8
0
  6
Continuous
 62
     7
100
AcDbLine
 10
67.49591232635066
 20
-803.3219633919471
 30
0.0
 11
58.17830147099812
 21
-810.3888884301268
 31
0.0
  0
LINE
  5
121
330
4F
100
AcDbEntity
  8
0
  6
Continuous
 62
     7
100
AcDbLine
 10
68.88580057669606
 20
-805.1545055201277
 30
0.0
 11
59.56818972134352
 21
-812.2214305583038
 31
0.0
  0
LINE
  5
122
330
4F
100
AcDbEntity
  8
0
  6
Continuous
 62
     7
100
AcDbLine
 10
67.49591232635066
 20
-803.3219633919471
 30
0.0
 11
68.88580057669606
 21
-805.1545055201277
 31
0.0
  0
LINE
  5
123
330
4F
100
AcDbEntity
  8
0
  6
Continuous
 62
     7
100
AcDbLine
 10
58.17830147099812
 20
-810.3888884301268
 30
0.0
 11
49.13743072380021
 21
-817.2459204356637
 31
0.0
  0
LINE
  5
124
330
4F
100
AcDbEntity
  8
0
  6
Continuous
 62
     7
100
AcDbLine
 10
44.40190825472018
 20
-796.8839476166977
 30
0.0
 11
37.44382818377198
 21
-805.8472814562228
 31
0.0
  0
LINE
  5
125
330
4F
100
AcDbEntity
  8
0
  6
Continuous
 62
     7
100
AcDbLine
 10
9.04877958973884
 20
-798.5345702467057
 30
0.0
 11
8.78587371278627
 21
-800.4484716649858
 31
0.0
  0
LINE
  5
126
330
4F
100
AcDbEntity
  8
0
  6
Continuous
 62
     7
100
AcDbLine
 10
7.37221428072371
 20
-793.8388590699033
 30
0.0
 11
6.77017721718221
 21
-798.2215666879711
 31
0.0
  0
LINE
  5
127
330
4F
100
AcDbEntity
  8
0
  6
Continuous
 62
     7
100
AcDbLine
 10
9.65081665328034
 20
-794.1518626286379
 30
0.0
 11
9.04877958973884
 21
-798.5345702467057
 31
0.0
  0
LINE
  5
128
330
4F
100
AcDbEntity
  8
0
  6
Continuous
 62
     7
100
AcDbLine
 10
8.91642146396771
 20
-782.5973442268005
 30
0.0
 11
7.37221428072371
 21
-793.8388590699033
 31
0.0
  0
LINE
  5
129
330
4F
100
AcDbEntity
  8
0
  6
Continuous
 62
     7
100
AcDbLine
 10
11.19502383652434
 20
-782.9103477855351
 30
0.0
 11
9.65081665328034
 21
-794.1518626286379
 31
0.0
  0
LINE
  5
12A
330
4F
100
AcDbEntity
  8
0
  6
Continuous
 62
     7
100
AcDbLine
 10
12.78649904016857
 20
-771.3247313486245
 30
0.0
 11
11.19502383652434
 21
-782.9103477855351
 31
0.0
  0
LINE
  5
12B
330
4F
100
AcDbEntity
  8
0
  6
Continuous
 62
     7
100
AcDbLine
 10
10.50789666761193
 20
-771.0117277898898
 30
0.0
 11
8.91642146396771
 21
-782.5973442268005
 31
0.0
  0
LINE
  5
12C
330
4F
100
AcDbEntity
  8
0
  6
Continuous
 62
     7
100
AcDbLine
 10
10.50789666761193
 20
-771.0117277898898
 30
0.0
 11
12.78649904016857
 21
-771.3247313486245
 31
0.0
  0
LINE
  5
12D
330
4F
100
AcDbEntity
  8
0
  6
Continuous
 62
     7
100
AcDbLine
 10
6.77017721718221
 20
-798.2215666879711
 30
0.0
 11
6.50727134022964
 21
-800.1354681062512
 31
0.0
  0
LINE
  5
12E
330
4F
100
AcDbEntity
  8
0
  6
Continuous
 62
     7
100
AcDbLine
 10
32.13542355272512
 20
-776.6258274023166
 30
0.0
 11
27.59959836850248
 21
-787.4047694396977
 31
0.0
  0
LINE
  5
12F
330
4F
100
AcDbEntity
  8
0
  6
Continuous
 62
     7
100
AcDbLine
 10
32.13542355272512
 20
-776.6258274023166
 30
0.0
 11
34.25537315003749
 21
-777.517911313651
 31
0.0
  0
LINE
  5
130
330
4F
100
AcDbEntity
  8
0
  6
Continuous
 62
     7
100
AcDbLine
 10
34.25537315003749
 20
-777.517911313651
 30
0.0
 11
29.71954796581485
 21
-788.296853351032
 31
0.0
  0
LINE
  5
131
330
4F
100
AcDbEntity
  8
0
  6
Continuous
 62
     7
100
AcDbLine
 10
27.59959836850248
 20
-787.4047694396977
 30
0.0
 11
23.19849063186848
 21
-797.8635687246533
 31
0.0
  0
LINE
  5
132
330
4F
100
AcDbEntity
  8
0
  6
Continuous
 62
     7
100
AcDbLine
 10
29.71954796581485
 20
-788.296853351032
 30
0.0
 11
25.31844022918085
 21
-798.7556526359876
 31
0.0
  0
LINE
  5
133
330
4F
100
AcDbEntity
  8
0
  6
Continuous
 62
     7
100
AcDbLine
 10
23.60258888045064
 20
-802.8332044554518
 30
0.0
 11
22.85328716651566
 21
-804.6138462163144
 31
0.0
  0
LINE
  5
134
330
4F
100
AcDbEntity
  8
0
  6
Continuous
 62
     7
100
AcDbLine
 10
25.31844022918085
 20
-798.7556526359876
 30
0.0
 11
23.60258888045064
 21
-802.8332044554518
 31
0.0
  0
LINE
  5
135
330
4F
100
AcDbEntity
  8
0
  6
Continuous
 62
     7
100
AcDbLine
 10
23.19849063186848
 20
-797.8635687246533
 30
0.0
 11
21.48263928314191
 21
-801.9411205441174
 31
0.0
  0
LINE
  5
136
330
4F
100
AcDbEntity
  8
0
  6
Continuous
 62
     7
100
AcDbLine
 10
35.72385776588271
 20
-790.6951796441172
 30
0.0
 11
35.4132978985981
 21
-791.0952399681228
 31
0.0
  0
LINE
  5
137
330
4F
100
AcDbEntity
  8
0
  6
Continuous
 62
     7
100
AcDbLine
 10
35.72385776588271
 20
-790.6951796441172
 30
0.0
 11
36.09645861844547
 21
-790.2151987016223
 31
0.0
  0
LINE
  5
138
330
4F
100
AcDbEntity
  8
0
  6
Continuous
 62
     7
100
AcDbLine
 10
65.26228609483223
 20
-891.6813235048248
 30
0.0
 11
65.74226703733075
 21
-892.0539243573912
 31
0.0
  0
LINE
  5
139
330
4F
100
AcDbEntity
  8
0
  6
Continuous
 62
     7
100
AcDbLine
 10
50.39053758000955
 20
-910.0130271771377
 30
0.0
 11
50.79059800483447
 21
-910.3235871226861
 31
0.0
  0
LINE
  5
13A
330
4F
100
AcDbEntity
  8
0
  6
Continuous
 62
     7
100
AcDbLine
 10
51.27057906647679
 20
-910.6961880677409
 30
0.0
 11
50.79059800483447
 21
-910.3235871226861
 31
0.0
  0
LINE
  5
13B
330
4F
100
AcDbEntity
  8
0
  6
Continuous
 62
     7
100
AcDbLine
 10
-35.72385776587544
 20
-921.219751833778
 30
0.0
 11
-35.41329789859083
 21
-920.8196915097724
 31
0.0
  0
LINE
  5
13C
330
4F
100
AcDbEntity
  8
0
  6
Continuous
 62
     7
100
AcDbLine
 10
-35.72385776587544
 20
-921.219751833778
 30
0.0
 11
-36.09645861843819
 21
-921.6997327762729
 31
0.0
  0
LINE
  5
13D
330
4F
100
AcDbEntity
  8
0
  6
Continuous
 62
     7
100
AcDbLine
 10
-54.05556143818467
 20
-906.3480033189553
 30
0.0
 11
-54.36612138373675
 21
-906.7480637437802
 31
0.0
  0
LINE
  5
13E
330
4F
100
AcDbEntity
  8
0
  6
Continuous
 62
     7
100
AcDbLine
 10
-54.73872232878784
 20
-907.2280448054189
 30
0.0
 11
-54.36612138373675
 21
-906.7480637437802
 31
0.0
  0
LINE
  5
13F
330
4F
100
AcDbEntity
  8
0
  6
Continuous
 62
     7
100
AcDbLine
 10
-46.21873401510311
 20
-913.6206136415822
 30
0.0
 11
-39.26065394415491
 21
-904.657279802057
 31
0.0
  0
LINE
  5
140
330
4F
100
AcDbEntity
  8
0
  6
Continuous
 62
     7
100
AcDbLine
 10
-44.40190825471291
 20
-915.0309838611975
 30
0.0
 11
-37.44382818376471
 21
-906.067650021676
 31
0.0
  0
LINE
  5
141
330
4F
100
AcDbEntity
  8
0
  6
Continuous
 62
     7
100
AcDbLine
 10
-78.8191153409025
 20
-889.330229258987
 30
0.0
 11
-67.98993958621213
 21
-884.9156789963781
 31
0.0
  0
LINE
  5
142
330
4F
100
AcDbEntity
  8
0
  6
Continuous
 62
     7
100
AcDbLine
 10
-79.6873474938402
 20
-887.2003999398621
 30
0.0
 11
-68.85817173914984
 21
-882.7858496772569
 31
0.0
  0
LINE
  5
143
330
4F
100
AcDbEntity
  8
0
  6
Continuous
 62
     7
100
AcDbLine
 10
-78.8191153409025
 20
-889.330229258987
 30
0.0
 11
-79.6873474938402
 21
-887.2003999398621
 31
0.0
  0
LINE
  5
144
330
4F
100
AcDbEntity
  8
0
  6
Continuous
 62
     7
100
AcDbLine
 10
-27.59959836849885
 20
-924.5101620382011
 30
0.0
 11
-23.19849063186484
 21
-914.0513627532455
 31
0.0
  0
LINE
  5
145
330
4F
100
AcDbEntity
  8
0
  6
Continuous
 62
     7
100
AcDbLine
 10
-58.17830147099085
 20
-901.5260430477683
 30
0.0
 11
-49.13743072379657
 21
-894.6690110422314
 31
0.0
  0
LINE
  5
146
330
4F
100
AcDbEntity
  8
0
  6
Continuous
 62
     7
100
AcDbLine
 10
-59.56818972133624
 20
-899.6935009195913
 30
0.0
 11
-50.52731897414196
 21
-892.8364689140544
 31
0.0
  0
LINE
  5
147
330
4F
100
AcDbEntity
  8
0
  6
Continuous
 62
     7
100
AcDbLine
 10
-37.44382818376471
 20
-906.067650021676
 30
0.0
 11
-34.73109498368649
 21
-902.5731324188382
 31
0.0
  0
LINE
  5
148
330
4F
100
AcDbEntity
  8
0
  6
Continuous
 62
     7
100
AcDbLine
 10
-39.26065394415491
 20
-904.657279802057
 30
0.0
 11
-36.54792074407669
 21
-901.1627621992193
 31
0.0
  0
LINE
  5
149
330
4F
100
AcDbEntity
  8
0
  6
Continuous
 62
     7
100
AcDbLine
 10
-12.78649904016129
 20
-940.5902001292707
 30
0.0
 11
-11.19502383651707
 21
-929.00458369236
 31
0.0
  0
LINE
  5
14A
330
4F
100
AcDbEntity
  8
0
  6
Continuous
 62
     7
100
AcDbLine
 10
-10.50789666760466
 20
-940.9032036880053
 30
0.0
 11
-12.78649904016129
 21
-940.5902001292707
 31
0.0
  0
LINE
  5
14B
330
4F
100
AcDbEntity
  8
0
  6
Continuous
 62
     7
100
AcDbLine
 10
-10.50789666760466
 20
-940.9032036880053
 30
0.0
 11
-8.91642146396043
 21
-929.3175872510947
 31
0.0
  0
LINE
  5
14C
330
4F
100
AcDbEntity
  8
0
  6
Continuous
 62
     7
100
AcDbLine
 10
8.40366123788408
 20
-913.4783125388312
 30
0.0
 11
8.16225467681943
 21
-911.5615806819151
 31
0.0
  0
LINE
  5
14D
330
4F
100
AcDbEntity
  8
0
  6
Continuous
 62
     7
100
AcDbLine
 10
28.958213257436
 20
-923.9474053251615
 30
0.0
 11
24.67477848527778
 21
-913.439864302396
 31
0.0
  0
LINE
  5
14E
330
4F
100
AcDbEntity
  8
0
  6
Continuous
 62
     7
100
AcDbLine
 10
15.3502584792659
 20
-896.6590574107722
 30
0.0
 11
15.95620109363881
 21
-898.1454736203377
 31
0.0
  0
LINE
  5
14F
330
4F
100
AcDbEntity
  8
0
  6
Continuous
 62
     7
100
AcDbLine
 10
-55.82199763269455
 20
-849.4501943987234
 30
0.0
 11
-48.15435120231996
 21
-850.5034719028336
 31
0.0
  0
LINE
  5
150
330
4F
100
AcDbEntity
  8
0
  6
Continuous
 62
     7
100
AcDbLine
 10
-55.50899407395991
 20
-847.1715920261668
 30
0.0
 11
-47.84134764358532
 21
-848.2248695302769
 31
0.0
  0
LINE
  5
151
330
4F
100
AcDbEntity
  8
0
  6
Continuous
 62
     7
100
AcDbLine
 10
6.57483617636171
 20
-898.957716078381
 30
0.0
 11
6.77541897284755
 21
-900.5503133726561
 31
0.0
  0
LINE
  5
152
330
4F
100
AcDbEntity
  8
0
  6
Continuous
 62
     7
100
AcDbLine
 10
8.16225467681943
 20
-911.5615806819151
 30
0.0
 11
7.19510969299518
 21
-903.8825946901234
 31
0.0
  0
LINE
  5
153
330
4F
100
AcDbEntity
  8
0
  6
Continuous
 62
     7
100
AcDbLine
 10
4.29286401468198
 20
-899.2451235475128
 30
0.0
 11
4.49344681116781
 21
-900.8377208417878
 31
0.0
  0
LINE
  5
154
330
4F
100
AcDbEntity
  8
0
  6
Continuous
 62
     7
100
AcDbLine
 10
20.14570720727352
 20
-908.4226016019093
 30
0.0
 11
17.22404906787779
 21
-901.255586253912
 31
0.0
  0
LINE
  5
155
330
4F
100
AcDbEntity
  8
0
  6
Continuous
 62
     7
100
AcDbLine
 10
20.87497474816701
 20
-910.2115417889581
 30
0.0
 11
20.14570720727352
 21
-908.4226016019093
 31
0.0
  0
LINE
  5
156
330
4F
100
AcDbEntity
  8
0
  6
Continuous
 62
     7
100
AcDbLine
 10
22.54494916615295
 20
-914.3080964553337
 30
0.0
 11
20.87497474816701
 21
-910.2115417889581
 31
0.0
  0
LINE
  5
157
330
4F
100
AcDbEntity
  8
0
  6
Continuous
 62
     7
100
AcDbLine
 10
24.67477848527778
 20
-913.439864302396
 30
0.0
 11
23.00480406729184
 21
-909.3433096360168
 31
0.0
  0
LINE
  5
158
330
4F
100
AcDbEntity
  8
0
  6
Continuous
 62
     7
100
AcDbLine
 10
22.27553652639836
 20
-907.5543694489716
 30
0.0
 11
19.35387838700262
 21
-900.3873541009743
 31
0.0
  0
LINE
  5
159
330
4F
100
AcDbEntity
  8
0
  6
Continuous
 62
     7
100
AcDbLine
 10
23.00480406729184
 20
-909.3433096360168
 30
0.0
 11
22.27553652639836
 21
-907.5543694489716
 31
0.0
  0
LINE
  5
15A
330
4F
100
AcDbEntity
  8
0
  6
Continuous
 62
     7
100
AcDbLine
 10
26.82838393831116
 20
-924.8156374781029
 30
0.0
 11
22.54494916615295
 21
-914.3080964553337
 31
0.0
  0
LINE
  5
15B
330
4F
100
AcDbEntity
  8
0
  6
Continuous
 62
     7
100
AcDbLine
 10
-67.98993958621213
 20
-884.9156789963781
 30
0.0
 11
-57.48239856344299
 21
-880.6322442242235
 31
0.0
  0
LINE
  5
15C
330
4F
100
AcDbEntity
  8
0
  6
Continuous
 62
     7
100
AcDbLine
 10
-4.77847966565241
 20
-899.1942108995754
 30
0.0
 11
-4.99692607315592
 21
-900.7844564048391
 31
0.0
  0
LINE
  5
15D
330
4F
100
AcDbEntity
  8
0
  6
Continuous
 62
     7
100
AcDbLine
 10
6.67449412881979
 20
-918.154909143228
 30
0.0
 11
6.12168907620435
 21
-913.765720007963
 31
0.0
  0
LINE
  5
15E
330
4F
100
AcDbEntity
  8
0
  6
Continuous
 62
     7
100
AcDbLine
 10
10.37439482826085
 20
-929.1256414162708
 30
0.0
 11
8.95646629049952
 21
-917.8675016740963
 31
0.0
  0
LINE
  5
15F
330
4F
100
AcDbEntity
  8
0
  6
Continuous
 62
     7
100
AcDbLine
 10
8.09242266657748
 20
-929.4130488854025
 30
0.0
 11
6.67449412881979
 21
-918.154909143228
 31
0.0
  0
LINE
  5
160
330
4F
100
AcDbEntity
  8
0
  6
Continuous
 62
     7
100
AcDbLine
 10
11.83572601028936
 20
-940.7283916386732
 30
0.0
 11
10.37439482826085
 21
-929.1256414162708
 31
0.0
  0
LINE
  5
161
330
4F
100
AcDbEntity
  8
0
  6
Continuous
 62
     7
100
AcDbLine
 10
11.83572601028936
 20
-940.7283916386732
 30
0.0
 11
9.55375384860599
 21
-941.0157991078049
 31
0.0
  0
LINE
  5
162
330
4F
100
AcDbEntity
  8
0
  6
Continuous
 62
     7
100
AcDbLine
 10
9.55375384860599
 20
-941.0157991078049
 30
0.0
 11
8.09242266657748
 21
-929.4130488854025
 31
0.0
  0
LINE
  5
163
330
4F
100
AcDbEntity
  8
0
  6
Continuous
 62
     7
100
AcDbLine
 10
-68.85817173914984
 20
-882.7858496772569
 30
0.0
 11
-58.35063071638433
 21
-878.5024149050987
 31
0.0
  0
LINE
  5
164
330
4F
100
AcDbEntity
  8
0
  6
Continuous
 62
     7
100
AcDbLine
 10
-49.13743072379657
 20
-894.6690110422314
 30
0.0
 11
-45.61268395694788
 21
-891.995673255693
 31
0.0
  0
LINE
  5
165
330
4F
100
AcDbEntity
  8
0
  6
Continuous
 62
     7
100
AcDbLine
 10
-50.52731897414196
 20
-892.8364689140544
 30
0.0
 11
-47.00257220729327
 21
-890.1631311275123
 31
0.0
  0
LINE
  5
166
330
4F
100
AcDbEntity
  8
0
  6
Continuous
 62
     7
100
AcDbLine
 10
-34.73109498368649
 20
-902.5731324188382
 30
0.0
 11
-33.54646110629983
 21
-901.0470981087456
 31
0.0
  0
LINE
  5
167
330
4F
100
AcDbEntity
  8
0
  6
Continuous
 62
     7
100
AcDbLine
 10
-36.54792074407669
 20
-901.1627621992193
 30
0.0
 11
-35.36328686669003
 21
-899.6367278891266
 31
0.0
  0
LINE
  5
168
330
4F
100
AcDbEntity
  8
0
  6
Continuous
 62
     7
100
AcDbLine
 10
-25.31844022917358
 20
-913.1592788419075
 30
0.0
 11
-23.602588880447
 21
-909.0817270224434
 31
0.0
  0
LINE
  5
169
330
4F
100
AcDbEntity
  8
0
  6
Continuous
 62
     7
100
AcDbLine
 10
-23.602588880447
 20
-909.0817270224434
 30
0.0
 11
-22.85328716651202
 21
-907.3010852615807
 31
0.0
  0
LINE
  5
16A
330
4F
100
AcDbEntity
  8
0
  6
Continuous
 62
     7
100
AcDbLine
 10
-21.48263928313463
 20
-909.9738109337814
 30
0.0
 11
-20.73333756919965
 21
-908.1931691729151
 31
0.0
  0
LINE
  5
16B
330
4F
100
AcDbEntity
  8
0
  6
Continuous
 62
     7
100
AcDbLine
 10
-23.19849063186484
 20
-914.0513627532455
 30
0.0
 11
-21.48263928313463
 21
-909.9738109337814
 31
0.0
  0
LINE
  5
16C
330
4F
100
AcDbEntity
  8
0
  6
Continuous
 62
     7
100
AcDbLine
 10
-45.61268395694788
 20
-891.995673255693
 30
0.0
 11
-44.07344875714989
 21
-890.8282431127118
 31
0.0
  0
LINE
  5
16D
330
4F
100
AcDbEntity
  8
0
  6
Continuous
 62
     7
100
AcDbLine
 10
-58.35063071638433
 20
-878.5024149050987
 30
0.0
 11
-54.2540760500051
 21
-876.8324404871128
 31
0.0
  0
LINE
  5
16E
330
4F
100
AcDbEntity
  8
0
  6
Continuous
 62
     7
100
AcDbLine
 10
-22.85328716651202
 20
-907.3010852615807
 30
0.0
 11
-19.85136629574845
 21
-900.1673158254707
 31
0.0
  0
LINE
  5
16F
330
4F
100
AcDbEntity
  8
0
  6
Continuous
 62
     7
100
AcDbLine
 10
-20.73333756919965
 20
-908.1931691729151
 30
0.0
 11
-17.73141669843972
 21
-901.0593997368051
 31
0.0
  0
LINE
  5
170
330
4F
100
AcDbEntity
  8
0
  6
Continuous
 62
     7
100
AcDbLine
 10
-45.46333700749528
 20
-888.9957009845348
 30
0.0
 11
-39.29671255520952
 21
-884.318635863503
 31
0.0
  0
LINE
  5
171
330
4F
100
AcDbEntity
  8
0
  6
Continuous
 62
     7
100
AcDbLine
 10
-39.83335951888148
 20
-873.4375535373365
 30
0.0
 11
-41.31977572844698
 21
-874.0434961517058
 31
0.0
  0
LINE
  5
172
330
4F
100
AcDbEntity
  8
0
  6
Continuous
 62
     7
100
AcDbLine
 10
-35.3417793252047
 20
-881.3190239349351
 30
0.0
 11
-36.62071764179927
 21
-882.2890323793908
 31
0.0
  0
LINE
  5
173
330
4F
100
AcDbEntity
  8
0
  6
Continuous
 62
     7
100
AcDbLine
 10
-52.46513586295987
 20
-876.1031729462193
 30
0.0
 11
-45.29812051496265
 21
-873.1815148068235
 31
0.0
  0
LINE
  5
174
330
4F
100
AcDbEntity
  8
0
  6
Continuous
 62
     7
100
AcDbLine
 10
-33.9518910748593
 20
-883.1515660631158
 30
0.0
 11
-35.23082939145388
 21
-884.1215745075679
 31
0.0
  0
LINE
  5
175
330
4F
100
AcDbEntity
  8
0
  6
Continuous
 62
     7
100
AcDbLine
 10
-17.92609961257404
 20
-895.5921090788324
 30
0.0
 11
-18.54868846239333
 21
-897.0716301919165
 31
0.0
  0
LINE
  5
176
330
4F
100
AcDbEntity
  8
0
  6
Continuous
 62
     7
100
AcDbLine
 10
5.88028251513606
 20
-911.8489881510468
 30
0.0
 11
4.9131375313118
 21
-904.1700021592551
 31
0.0
  0
LINE
  5
177
330
4F
100
AcDbEntity
  8
0
  6
Continuous
 62
     7
100
AcDbLine
 10
6.12168907620435
 20
-913.765720007963
 30
0.0
 11
5.88028251513606
 21
-911.8489881510468
 31
0.0
  0
LINE
  5
178
330
4F
100
AcDbEntity
  8
0
  6
Continuous
 62
     7
100
AcDbLine
 10
8.95646629049952
 20
-917.8675016740963
 30
0.0
 11
8.40366123788408
 21
-913.4783125388312
 31
0.0
  0
LINE
  5
179
330
4F
100
AcDbEntity
  8
0
  6
Continuous
 62
     7
100
AcDbLine
 10
-51.59690371001852
 20
-878.2330022653441
 30
0.0
 11
-44.42988836202494
 21
-875.3113441259484
 31
0.0
  0
LINE
  5
17A
330
4F
100
AcDbEntity
  8
0
  6
Continuous
 62
     7
100
AcDbLine
 10
-25.75665736223527
 20
-891.0123455921748
 30
0.0
 11
-26.74096025312974
 21
-892.2803153942405
 31
0.0
  0
LINE
  5
17B
330
4F
100
AcDbEntity
  8
0
  6
Continuous
 62
     7
100
AcDbLine
 10
-27.57348312262548
 20
-889.6019753725595
 30
0.0
 11
-28.55778601351994
 21
-890.8699451746215
 31
0.0
  0
LINE
  5
17C
330
4F
100
AcDbEntity
  8
0
  6
Continuous
 62
     7
100
AcDbLine
 10
-47.00257220729327
 20
-890.1631311275123
 30
0.0
 11
-45.46333700749528
 21
-888.9957009845348
 31
0.0
  0
LINE
  5
17D
330
4F
100
AcDbEntity
  8
0
  6
Continuous
 62
     7
100
AcDbLine
 10
-53.38584389706739
 20
-878.962269806234
 30
0.0
 11
-51.59690371001852
 21
-878.2330022653441
 31
0.0
  0
LINE
  5
17E
330
4F
100
AcDbEntity
  8
0
  6
Continuous
 62
     7
100
AcDbLine
 10
-57.48239856344299
 20
-880.6322442242235
 30
0.0
 11
-53.38584389706739
 21
-878.962269806234
 31
0.0
  0
LINE
  5
17F
330
4F
100
AcDbEntity
  8
0
  6
Continuous
 62
     7
100
AcDbLine
 10
-54.2540760500051
 20
-876.8324404871128
 30
0.0
 11
-52.46513586295987
 21
-876.1031729462193
 31
0.0
  0
LINE
  5
180
330
4F
100
AcDbEntity
  8
0
  6
Continuous
 62
     7
100
AcDbLine
 10
-35.36328686669003
 20
-899.6367278891266
 30
0.0
 11
-30.61729857570754
 21
-893.5229900452432
 31
0.0
  0
LINE
  5
181
330
4F
100
AcDbEntity
  8
0
  6
Continuous
 62
     7
100
AcDbLine
 10
-33.54646110629983
 20
-901.0470981087456
 30
0.0
 11
-28.80047281531734
 21
-894.9333602648585
 31
0.0
  0
LINE
  5
182
330
4F
100
AcDbEntity
  8
0
  6
Continuous
 62
     7
100
AcDbLine
 10
-44.07344875714989
 20
-890.8282431127118
 30
0.0
 11
-37.90682430486413
 21
-886.15117799168
 31
0.0
  0
LINE
  5
183
330
4F
100
AcDbEntity
  8
0
  6
Continuous
 62
     7
100
AcDbLine
 10
31.24293420091635
 20
-935.6448132327896
 30
0.0
 11
26.82838393831116
 21
-924.8156374781029
 31
0.0
  0
LINE
  5
184
330
4F
100
AcDbEntity
  8
0
  6
Continuous
 62
     7
100
AcDbLine
 10
-42.92374160188774
 20
-848.9003837007367
 30
0.0
 11
-44.51398710715512
 21
-848.6819372932332
 31
0.0
  0
LINE
  5
185
330
4F
100
AcDbEntity
  8
0
  6
Continuous
 62
     7
100
AcDbLine
 10
59.0735181222517
 20
-900.3593739936623
 30
0.0
 11
50.11018428273019
 21
-893.4012939227177
 31
0.0
  0
LINE
  5
186
330
4F
100
AcDbEntity
  8
0
  6
Continuous
 62
     7
100
AcDbLine
 10
57.66314790263641
 20
-902.1761997540525
 30
0.0
 11
48.69981406311126
 21
-895.218119683108
 31
0.0
  0
LINE
  5
187
330
4F
100
AcDbEntity
  8
0
  6
Continuous
 62
     7
100
AcDbLine
 10
48.69981406311126
 20
-895.218119683108
 30
0.0
 11
45.20529646027717
 21
-892.5053864830261
 31
0.0
  0
LINE
  5
188
330
4F
100
AcDbEntity
  8
0
  6
Continuous
 62
     7
100
AcDbLine
 10
45.20529646027717
 20
-892.5053864830261
 30
0.0
 11
43.67926215018088
 21
-891.3207526056394
 31
0.0
  0
LINE
  5
189
330
4F
100
AcDbEntity
  8
0
  6
Continuous
 62
     7
100
AcDbLine
 10
43.67926215018088
 20
-891.3207526056394
 30
0.0
 11
37.56552430629745
 21
-886.5747643146569
 31
0.0
  0
LINE
  5
18A
330
4F
100
AcDbEntity
  8
0
  6
Continuous
 62
     7
100
AcDbLine
 10
27.19410004605015
 20
-889.909356447115
 30
0.0
 11
28.16410876862574
 21
-891.1882951304033
 31
0.0
  0
LINE
  5
18B
330
4F
100
AcDbEntity
  8
0
  6
Continuous
 62
     7
100
AcDbLine
 10
25.36155819598935
 20
-891.2992450641541
 30
0.0
 11
26.33156664044509
 21
-892.5781833807487
 31
0.0
  0
LINE
  5
18C
330
4F
100
AcDbEntity
  8
0
  6
Continuous
 62
     7
100
AcDbLine
 10
33.64450963361378
 20
-883.5309488615749
 30
0.0
 11
34.91247943567942
 21
-884.515251752473
 31
0.0
  0
LINE
  5
18D
330
4F
100
AcDbEntity
  8
0
  6
Continuous
 62
     7
100
AcDbLine
 10
17.48008779839074
 20
-895.7908252578309
 30
0.0
 11
18.08603041276365
 21
-897.2772414673964
 31
0.0
  0
LINE
  5
18E
330
4F
100
AcDbEntity
  8
0
  6
Continuous
 62
     7
100
AcDbLine
 10
-39.63464333988304
 20
-838.0313661263681
 30
0.0
 11
-41.11416445296345
 21
-837.4087772765524
 31
0.0
  0
LINE
  5
18F
330
4F
100
AcDbEntity
  8
0
  6
Continuous
 62
     7
100
AcDbLine
 10
-40.52672725121738
 20
-840.1513157236805
 30
0.0
 11
-42.00624836429779
 21
-839.5287268738612
 31
0.0
  0
LINE
  5
190
330
4F
100
AcDbEntity
  8
0
  6
Continuous
 62
     7
100
AcDbLine
 10
-35.05487985322543
 20
-830.2008083767105
 30
0.0
 11
-36.32284965529107
 21
-829.216505485816
 31
0.0
  0
LINE
  5
191
330
4F
100
AcDbEntity
  8
0
  6
Continuous
 62
     7
100
AcDbLine
 10
33.37276352004119
 20
-934.7765810798519
 30
0.0
 11
28.958213257436
 21
-923.9474053251615
 31
0.0
  0
LINE
  5
192
330
4F
100
AcDbEntity
  8
0
  6
Continuous
 62
     7
100
AcDbLine
 10
-57.42289549224006
 20
-846.9086861492106
 30
0.0
 11
-55.50899407395991
 21
-847.1715920261668
 31
0.0
  0
LINE
  5
193
330
4F
100
AcDbEntity
  8
0
  6
Continuous
 62
     7
100
AcDbLine
 10
33.37276352004119
 20
-934.7765810798519
 30
0.0
 11
31.24293420091635
 21
-935.6448132327896
 31
0.0
  0
LINE
  5
194
330
4F
100
AcDbEntity
  8
0
  6
Continuous
 62
     7
100
AcDbLine
 10
34.87077737376603
 20
-900.0309144960993
 30
0.0
 11
30.1937122527379
 21
-893.8642900438135
 31
0.0
  0
LINE
  5
195
330
4F
100
AcDbEntity
  8
0
  6
Continuous
 62
     7
100
AcDbLine
 10
34.2056653885702
 20
-902.9600379462463
 30
0.0
 11
33.03823524558902
 21
-901.4208027464447
 31
0.0
  0
LINE
  5
196
330
4F
100
AcDbEntity
  8
0
  6
Continuous
 62
     7
100
AcDbLine
 10
33.03823524558902
 20
-901.4208027464447
 30
0.0
 11
28.36117012455725
 21
-895.2541782941589
 31
0.0
  0
LINE
  5
197
330
4F
100
AcDbEntity
  8
0
  6
Continuous
 62
     7
100
AcDbLine
 10
36.03820751674721
 20
-901.5701496958973
 30
0.0
 11
34.87077737376603
 21
-900.0309144960993
 31
0.0
  0
LINE
  5
198
330
4F
100
AcDbEntity
  8
0
  6
Continuous
 62
     7
100
AcDbLine
 10
36.87900317510866
 20
-906.4847847130914
 30
0.0
 11
34.2056653885702
 21
-902.9600379462463
 31
0.0
  0
LINE
  5
199
330
4F
100
AcDbEntity
  8
0
  6
Continuous
 62
     7
100
AcDbLine
 10
38.71154530328568
 20
-905.094896462746
 30
0.0
 11
36.03820751674721
 21
-901.5701496958973
 31
0.0
  0
LINE
  5
19A
330
4F
100
AcDbEntity
  8
0
  6
Continuous
 62
     7
100
AcDbLine
 10
-6.50727134022236
 20
-911.7794633716439
 30
0.0
 11
-5.4539938361122
 21
-904.1118169412694
 31
0.0
  0
LINE
  5
19B
330
4F
100
AcDbEntity
  8
0
  6
Continuous
 62
     7
100
AcDbLine
 10
-8.78587371277899
 20
-911.4664598129093
 30
0.0
 11
-7.73259620866884
 21
-903.7988133825347
 31
0.0
  0
LINE
  5
19C
330
4F
100
AcDbEntity
  8
0
  6
Continuous
 62
     7
100
AcDbLine
 10
-7.05708203820905
 20
-898.8812073408408
 30
0.0
 11
-7.27552844571255
 21
-900.4714528461045
 31
0.0
  0
LINE
  5
19D
330
4F
100
AcDbEntity
  8
0
  6
Continuous
 62
     7
100
AcDbLine
 10
-15.8061500152653
 20
-896.4841929901704
 30
0.0
 11
-16.4287388650846
 21
-897.9637141032508
 31
0.0
  0
LINE
  5
19E
330
4F
100
AcDbEntity
  8
0
  6
Continuous
 62
     7
100
AcDbLine
 10
-9.0487795897352
 20
-913.3803612311895
 30
0.0
 11
-8.78587371277899
 21
-911.4664598129093
 31
0.0
  0
LINE
  5
19F
330
4F
100
AcDbEntity
  8
0
  6
Continuous
 62
     7
100
AcDbLine
 10
-6.77017721717857
 20
-913.6933647899241
 30
0.0
 11
-6.50727134022236
 21
-911.7794633716439
 31
0.0
  0
LINE
  5
1A0
330
4F
100
AcDbEntity
  8
0
  6
Continuous
 62
     7
100
AcDbLine
 10
-9.65081665327307
 20
-917.7630688492573
 30
0.0
 11
-9.0487795897352
 21
-913.3803612311895
 31
0.0
  0
LINE
  5
1A1
330
4F
100
AcDbEntity
  8
0
  6
Continuous
 62
     7
100
AcDbLine
 10
-7.37221428071643
 20
-918.0760724079919
 30
0.0
 11
-6.77017721717857
 21
-913.6933647899241
 31
0.0
  0
LINE
  5
1A2
330
4F
100
AcDbEntity
  8
0
  6
Continuous
 62
     7
100
AcDbLine
 10
-8.91642146396043
 20
-929.3175872510947
 30
0.0
 11
-7.37221428071643
 21
-918.0760724079919
 31
0.0
  0
LINE
  5
1A3
330
4F
100
AcDbEntity
  8
0
  6
Continuous
 62
     7
100
AcDbLine
 10
-11.19502383651707
 20
-929.00458369236
 30
0.0
 11
-9.65081665327307
 21
-917.7630688492573
 31
0.0
  0
LINE
  5
1A4
330
4F
100
AcDbEntity
  8
0
  6
Continuous
 62
     7
100
AcDbLine
 10
43.73603518064556
 20
-915.5256554602893
 30
0.0
 11
36.87900317510866
 21
-906.4847847130914
 31
0.0
  0
LINE
  5
1A5
330
4F
100
AcDbEntity
  8
0
  6
Continuous
 62
     7
100
AcDbLine
 10
-43.00025033943166
 20
-862.5323019153075
 30
0.0
 11
-44.59284763370306
 21
-862.7328847117933
 31
0.0
  0
LINE
  5
1A6
330
4F
100
AcDbEntity
  8
0
  6
Continuous
 62
     7
100
AcDbLine
 10
-57.7358990509747
 20
-849.1872885217672
 30
0.0
 11
-55.82199763269455
 21
-849.4501943987234
 31
0.0
  0
LINE
  5
1A7
330
4F
100
AcDbEntity
  8
0
  6
Continuous
 62
     7
100
AcDbLine
 10
-40.70159167181919
 20
-871.3077242182117
 30
0.0
 11
-42.18800788138469
 21
-871.9136668325846
 31
0.0
  0
LINE
  5
1A8
330
4F
100
AcDbEntity
  8
0
  6
Continuous
 62
     7
100
AcDbLine
 10
-61.80560311030786
 20
-846.3066490856727
 30
0.0
 11
-57.42289549224006
 21
-846.9086861492106
 31
0.0
  0
LINE
  5
1A9
330
4F
100
AcDbEntity
  8
0
  6
Continuous
 62
     7
100
AcDbLine
 10
-62.11860666904249
 20
-848.5852514582293
 30
0.0
 11
-57.7358990509747
 21
-849.1872885217672
 31
0.0
  0
LINE
  5
1AA
330
4F
100
AcDbEntity
  8
0
  6
Continuous
 62
     7
100
AcDbLine
 10
-51.34361952263134
 20
-833.1041785724337
 30
0.0
 11
-44.20985008652133
 21
-836.1060994431973
 31
0.0
  0
LINE
  5
1AB
330
4F
100
AcDbEntity
  8
0
  6
Continuous
 62
     7
100
AcDbLine
 10
-52.23570343396568
 20
-835.2241281697425
 30
0.0
 11
-45.10193399785567
 21
-838.226049040506
 31
0.0
  0
LINE
  5
1AC
330
4F
100
AcDbEntity
  8
0
  6
Continuous
 62
     7
100
AcDbLine
 10
-68.55269629924805
 20
-828.3578673704469
 30
0.0
 11
-58.09389701429245
 21
-832.7589751070809
 31
0.0
  0
LINE
  5
1AD
330
4F
100
AcDbEntity
  8
0
  6
Continuous
 62
     7
100
AcDbLine
 10
-73.36012151214527
 20
-847.0410442749853
 30
0.0
 11
-62.11860666904249
 21
-848.5852514582293
 31
0.0
  0
LINE
  5
1AE
330
4F
100
AcDbEntity
  8
0
  6
Continuous
 62
     7
100
AcDbLine
 10
-45.08963236979253
 20
-822.4110046326459
 30
0.0
 11
-38.9758945259091
 21
-827.1569929236284
 31
0.0
  0
LINE
  5
1AF
330
4F
100
AcDbEntity
  8
0
  6
Continuous
 62
     7
100
AcDbLine
 10
-54.01634519482832
 20
-834.4748264558111
 30
0.0
 11
-52.23570343396568
 21
-835.2241281697425
 31
0.0
  0
LINE
  5
1B0
330
4F
100
AcDbEntity
  8
0
  6
Continuous
 62
     7
100
AcDbLine
 10
-53.12426128349398
 20
-832.3548768584988
 30
0.0
 11
-51.34361952263134
 21
-833.1041785724337
 31
0.0
  0
LINE
  5
1B1
330
4F
100
AcDbEntity
  8
0
  6
Continuous
 62
     7
100
AcDbLine
 10
-50.11018428272291
 20
-818.513637555181
 30
0.0
 11
-46.61566667988518
 21
-821.2263707552593
 31
0.0
  0
LINE
  5
1B2
330
4F
100
AcDbEntity
  8
0
  6
Continuous
 62
     7
100
AcDbLine
 10
-46.61566667988518
 20
-821.2263707552593
 30
0.0
 11
-45.08963236979253
 21
-822.4110046326459
 31
0.0
  0
LINE
  5
1B3
330
4F
100
AcDbEntity
  8
0
  6
Continuous
 62
     7
100
AcDbLine
 10
-58.09389701429245
 20
-832.7589751070809
 30
0.0
 11
-54.01634519482832
 21
-834.4748264558111
 31
0.0
  0
LINE
  5
1B4
330
4F
100
AcDbEntity
  8
0
  6
Continuous
 62
     7
100
AcDbLine
 10
-57.20181310295811
 20
-830.6390255097722
 30
0.0
 11
-53.12426128349398
 21
-832.3548768584988
 31
0.0
  0
LINE
  5
1B5
330
4F
100
AcDbEntity
  8
0
  6
Continuous
 62
     7
100
AcDbLine
 10
-73.04711795341063
 20
-844.7624419024287
 30
0.0
 11
-61.80560311030786
 21
-846.3066490856727
 31
0.0
  0
LINE
  5
1B6
330
4F
100
AcDbEntity
  8
0
  6
Continuous
 62
     7
100
AcDbLine
 10
84.63273439032491
 20
-868.7439647791143
 30
0.0
 11
73.04711795341427
 21
-867.1524895754701
 31
0.0
  0
LINE
  5
1B7
330
4F
100
AcDbEntity
  8
0
  6
Continuous
 62
     7
100
AcDbLine
 10
84.94573794905955
 20
-866.4653624065577
 30
0.0
 11
84.63273439032491
 21
-868.7439647791143
 31
0.0
  0
LINE
  5
1B8
330
4F
100
AcDbEntity
  8
0
  6
Continuous
 62
     7
100
AcDbLine
 10
26.74096025313702
 20
-819.6346160836547
 30
0.0
 11
28.80047281532461
 21
-816.9815712130367
 31
0.0
  0
LINE
  5
1B9
330
4F
100
AcDbEntity
  8
0
  6
Continuous
 62
     7
100
AcDbLine
 10
16.42873886508824
 20
-813.9512173746443
 30
0.0
 11
17.73141669844335
 21
-810.8555317410901
 31
0.0
  0
LINE
  5
1BA
330
4F
100
AcDbEntity
  8
0
  6
Continuous
 62
     7
100
AcDbLine
 10
18.54868846240061
 20
-814.8433012859823
 30
0.0
 11
19.85136629575572
 21
-811.7476156524244
 31
0.0
  0
LINE
  5
1BB
330
4F
100
AcDbEntity
  8
0
  6
Continuous
 62
     7
100
AcDbLine
 10
57.73589905097833
 20
-862.727642956128
 30
0.0
 11
55.82199763269819
 21
-862.4647370791754
 31
0.0
  0
LINE
  5
1BC
330
4F
100
AcDbEntity
  8
0
  6
Continuous
 62
     7
100
AcDbLine
 10
57.4228954922437
 20
-865.0062453286846
 30
0.0
 11
55.50899407396355
 21
-864.7433394517284
 31
0.0
  0
LINE
  5
1BD
330
4F
100
AcDbEntity
  8
0
  6
Continuous
 62
     7
100
AcDbLine
 10
61.8056031103115
 20
-865.6082823922261
 30
0.0
 11
57.4228954922437
 21
-865.0062453286846
 31
0.0
  0
LINE
  5
1BE
330
4F
100
AcDbEntity
  8
0
  6
Continuous
 62
     7
100
AcDbLine
 10
55.82199763269819
 20
-862.4647370791754
 30
0.0
 11
48.1543512023236
 21
-861.4114595750652
 31
0.0
  0
LINE
  5
1BF
330
4F
100
AcDbEntity
  8
0
  6
Continuous
 62
     7
100
AcDbLine
 10
55.50899407396355
 20
-864.7433394517284
 30
0.0
 11
47.84134764358896
 21
-863.6900619476219
 31
0.0
  0
LINE
  5
1C0
330
4F
100
AcDbEntity
  8
0
  6
Continuous
 62
     7
100
AcDbLine
 10
62.11860666904613
 20
-863.3296800196695
 30
0.0
 11
57.73589905097833
 21
-862.727642956128
 31
0.0
  0
LINE
  5
1C1
330
4F
100
AcDbEntity
  8
0
  6
Continuous
 62
     7
100
AcDbLine
 10
-35.23082939145388
 20
-884.1215745075679
 30
0.0
 11
-37.90682430486413
 21
-886.15117799168
 31
0.0
  0
LINE
  5
1C2
330
4F
100
AcDbEntity
  8
0
  6
Continuous
 62
     7
100
AcDbLine
 10
-36.62071764179927
 20
-882.2890323793908
 30
0.0
 11
-39.29671255520952
 21
-884.318635863503
 31
0.0
  0
LINE
  5
1C3
330
4F
100
AcDbEntity
  8
0
  6
Continuous
 62
     7
100
AcDbLine
 10
1.48791758579682
 20
-858.5683460752261
 30
0.0
 11
6.2623208637342
 21
-896.476391408316
 31
0.0
  0
LINE
  5
1C4
330
4F
100
AcDbEntity
  8
0
  6
Continuous
 62
     7
100
AcDbLine
 10
-0.79405457588655
 20
-858.8557535443579
 30
0.0
 11
3.98034870205447
 21
-896.7637988774477
 31
0.0
  0
LINE
  5
1C5
330
4F
100
AcDbEntity
  8
0
  6
Continuous
 62
     7
100
AcDbLine
 10
-16.4287388650846
 20
-897.9637141032508
 30
0.0
 11
-17.73141669843972
 21
-901.0593997368051
 31
0.0
  0
LINE
  5
1C6
330
4F
100
AcDbEntity
  8
0
  6
Continuous
 62
     7
100
AcDbLine
 10
-18.54868846239333
 20
-897.0716301919165
 30
0.0
 11
-19.85136629574845
 21
-900.1673158254707
 31
0.0
  0
LINE
  5
1C7
330
4F
100
AcDbEntity
  8
0
  6
Continuous
 62
     7
100
AcDbLine
 10
-7.27552844571255
 20
-900.4714528461045
 30
0.0
 11
-7.73259620866884
 21
-903.7988133825347
 31
0.0
  0
LINE
  5
1C8
330
4F
100
AcDbEntity
  8
0
  6
Continuous
 62
     7
100
AcDbLine
 10
5.76026841754719
 20
-863.2141390647812
 30
0.0
 11
24.71845026509618
 21
-877.9310457042629
 31
0.0
  0
LINE
  5
1C9
330
4F
100
AcDbEntity
  8
0
  6
Continuous
 62
     7
100
AcDbLine
 10
18.08603041276365
 20
-897.2772414673964
 30
0.0
 11
19.35387838700262
 21
-900.3873541009743
 31
0.0
  0
LINE
  5
1CA
330
4F
100
AcDbEntity
  8
0
  6
Continuous
 62
     7
100
AcDbLine
 10
6.77541897284755
 20
-900.5503133726561
 30
0.0
 11
7.19510969299518
 21
-903.8825946901234
 31
0.0
  0
LINE
  5
1CB
330
4F
100
AcDbEntity
  8
0
  6
Continuous
 62
     7
100
AcDbLine
 10
-4.99692607315592
 20
-900.7844564048391
 30
0.0
 11
-5.4539938361122
 21
-904.1118169412694
 31
0.0
  0
LINE
  5
1CC
330
4F
100
AcDbEntity
  8
0
  6
Continuous
 62
     7
100
AcDbLine
 10
4.49344681116781
 20
-900.8377208417878
 30
0.0
 11
4.9131375313118
 21
-904.1700021592551
 31
0.0
  0
LINE
  5
1CD
330
4F
100
AcDbEntity
  8
0
  6
Continuous
 62
     7
100
AcDbLine
 10
15.95620109363881
 20
-898.1454736203377
 30
0.0
 11
17.22404906787779
 21
-901.255586253912
 31
0.0
  0
LINE
  5
1CE
330
4F
100
AcDbEntity
  8
0
  6
Continuous
 62
     7
100
AcDbLine
 10
5.61420883937535
 20
-861.7715141656372
 30
0.0
 11
5.58354861721091
 21
-861.8110103778199
 31
0.0
  0
LINE
  5
1CF
330
4F
100
AcDbEntity
  8
0
  6
Continuous
 62
     7
100
AcDbLine
 10
26.33156664044509
 20
-892.5781833807487
 30
0.0
 11
28.36117012455725
 21
-895.2541782941589
 31
0.0
  0
LINE
  5
1D0
330
4F
100
AcDbEntity
  8
0
  6
Continuous
 62
     7
100
AcDbLine
 10
28.16410876862574
 20
-891.1882951304033
 30
0.0
 11
30.1937122527379
 21
-893.8642900438135
 31
0.0
  0
LINE
  5
1D1
330
4F
100
AcDbEntity
  8
0
  6
Continuous
 62
     7
100
AcDbLine
 10
34.91247943567942
 20
-884.515251752473
 30
0.0
 11
37.56552430629745
 21
-886.5747643146569
 31
0.0
  0
LINE
  5
1D2
330
4F
100
AcDbEntity
  8
0
  6
Continuous
 62
     7
100
AcDbLine
 10
36.3228496552947
 20
-882.6984259920828
 30
0.0
 11
38.97589452591274
 21
-884.7579385542667
 31
0.0
  0
LINE
  5
1D3
330
4F
100
AcDbEntity
  8
0
  6
Continuous
 62
     7
100
AcDbLine
 10
42.00624836430507
 20
-872.386204604034
 30
0.0
 11
45.10193399785931
 21
-873.6888824373891
 31
0.0
  0
LINE
  5
1D4
330
4F
100
AcDbEntity
  8
0
  6
Continuous
 62
     7
100
AcDbLine
 10
41.11416445297073
 20
-874.5061542013464
 30
0.0
 11
44.20985008652497
 21
-875.8088320347015
 31
0.0
  0
LINE
  5
1D5
330
4F
100
AcDbEntity
  8
0
  6
Continuous
 62
     7
100
AcDbLine
 10
26.12157895205382
 20
-877.7543259039267
 30
0.0
 11
26.1522391742219
 21
-877.7148296917476
 31
0.0
  0
LINE
  5
1D6
330
4F
100
AcDbEntity
  8
0
  6
Continuous
 62
     7
100
AcDbLine
 10
26.1522391742219
 20
-877.7148296917476
 30
0.0
 11
31.6689660727352
 21
-881.9973687755992
 31
0.0
  0
LINE
  5
1D7
330
4F
100
AcDbEntity
  8
0
  6
Continuous
 62
     7
100
AcDbLine
 10
27.56260939383719
 20
-875.8980039313574
 30
0.0
 11
33.07933629235049
 21
-880.1805430152126
 31
0.0
  0
LINE
  5
1D8
330
4F
100
AcDbEntity
  8
0
  6
Continuous
 62
     7
100
AcDbLine
 10
27.56260939383719
 20
-875.8980039313574
 30
0.0
 11
27.59326961600527
 21
-875.8585077191747
 31
0.0
  0
LINE
  5
1D9
330
4F
100
AcDbEntity
  8
0
  6
Continuous
 62
     7
100
AcDbLine
 10
-61.91003593514688
 20
-864.9139320294453
 30
0.0
 11
-57.52084679988184
 21
-864.3611269768298
 31
0.0
  0
LINE
  5
1DA
330
4F
100
AcDbEntity
  8
0
  6
Continuous
 62
     7
100
AcDbLine
 10
-62.1974434042786
 20
-862.6319598677619
 30
0.0
 11
-57.80825426900992
 21
-862.0791548151465
 31
0.0
  0
LINE
  5
1DB
330
4F
100
AcDbEntity
  8
0
  6
Continuous
 62
     7
100
AcDbLine
 10
-57.80825426900992
 20
-862.0791548151465
 30
0.0
 11
-55.8915224120974
 21
-861.8377482540818
 31
0.0
  0
LINE
  5
1DC
330
4F
100
AcDbEntity
  8
0
  6
Continuous
 62
     7
100
AcDbLine
 10
-28.55778601351994
 20
-890.8699451746215
 30
0.0
 11
-30.61729857570754
 21
-893.5229900452432
 31
0.0
  0
LINE
  5
1DD
330
4F
100
AcDbEntity
  8
0
  6
Continuous
 62
     7
100
AcDbLine
 10
-26.74096025312974
 20
-892.2803153942405
 30
0.0
 11
-28.80047281531734
 21
-894.9333602648585
 31
0.0
  0
LINE
  5
1DE
330
4F
100
AcDbEntity
  8
0
  6
Continuous
 62
     7
100
AcDbLine
 10
-2.61088033627675
 20
-857.4453833247426
 30
0.0
 11
-26.03990331888053
 21
-887.626432175246
 31
0.0
  0
LINE
  5
1DF
330
4F
100
AcDbEntity
  8
0
  6
Continuous
 62
     7
100
AcDbLine
 10
-41.31977572844698
 20
-874.0434961517058
 30
0.0
 11
-44.42988836202494
 21
-875.3113441259484
 31
0.0
  0
LINE
  5
1E0
330
4F
100
AcDbEntity
  8
0
  6
Continuous
 62
     7
100
AcDbLine
 10
-42.18800788138469
 20
-871.9136668325846
 30
0.0
 11
-45.29812051496265
 21
-873.1815148068235
 31
0.0
  0
LINE
  5
1E1
330
4F
100
AcDbEntity
  8
0
  6
Continuous
 62
     7
100
AcDbLine
 10
-55.60411494296568
 20
-864.1197204157615
 30
0.0
 11
-47.92512895117034
 21
-863.1525754319409
 31
0.0
  0
LINE
  5
1E2
330
4F
100
AcDbEntity
  8
0
  6
Continuous
 62
     7
100
AcDbLine
 10
-57.52084679988184
 20
-864.3611269768298
 30
0.0
 11
-55.60411494296568
 21
-864.1197204157615
 31
0.0
  0
LINE
  5
1E3
330
4F
100
AcDbEntity
  8
0
  6
Continuous
 62
     7
100
AcDbLine
 10
-43.28765780856338
 20
-860.2503297536277
 30
0.0
 11
-44.88025510283478
 21
-860.4509125501136
 31
0.0
  0
LINE
  5
1E4
330
4F
100
AcDbEntity
  8
0
  6
Continuous
 62
     7
100
AcDbLine
 10
-43.23674516062238
 20
-851.1789860732933
 30
0.0
 11
-44.82699066588975
 21
-850.9605396657898
 31
0.0
  0
LINE
  5
1E5
330
4F
100
AcDbEntity
  8
0
  6
Continuous
 62
     7
100
AcDbLine
 10
-0.79405457588655
 20
-858.8557535443579
 30
0.0
 11
-24.22307755849033
 21
-889.0368023948613
 31
0.0
  0
LINE
  5
1E6
330
4F
100
AcDbEntity
  8
0
  6
Continuous
 62
     7
100
AcDbLine
 10
7.27552844571619
 20
-811.4434786317906
 30
0.0
 11
7.73259620867611
 21
-808.1161180953604
 31
0.0
  0
LINE
  5
1E7
330
4F
100
AcDbEntity
  8
0
  6
Continuous
 62
     7
100
AcDbLine
 10
-55.8915224120974
 20
-861.8377482540818
 30
0.0
 11
-48.21253642030206
 21
-860.8706032702576
 31
0.0
  0
LINE
  5
1E8
330
4F
100
AcDbEntity
  8
0
  6
Continuous
 62
     7
100
AcDbLine
 10
-44.51398710715512
 20
-848.6819372932332
 30
0.0
 11
-47.84134764358532
 21
-848.2248695302769
 31
0.0
  0
LINE
  5
1E9
330
4F
100
AcDbEntity
  8
0
  6
Continuous
 62
     7
100
AcDbLine
 10
-44.82699066588975
 20
-850.9605396657898
 30
0.0
 11
-48.15435120231996
 21
-850.5034719028336
 31
0.0
  0
LINE
  5
1EA
330
4F
100
AcDbEntity
  8
0
  6
Continuous
 62
     7
100
AcDbLine
 10
-36.32284965529107
 20
-829.216505485816
 30
0.0
 11
-38.9758945259091
 21
-827.1569929236284
 31
0.0
  0
LINE
  5
1EB
330
4F
100
AcDbEntity
  8
0
  6
Continuous
 62
     7
100
AcDbLine
 10
-34.91247943567214
 20
-827.3996797254258
 30
0.0
 11
-37.56552430629017
 21
-825.3401671632382
 31
0.0
  0
LINE
  5
1EC
330
4F
100
AcDbEntity
  8
0
  6
Continuous
 62
     7
100
AcDbLine
 10
-28.16410876861846
 20
-820.7266363474919
 30
0.0
 11
-30.19371225273062
 21
-818.0506414340816
 31
0.0
  0
LINE
  5
1ED
330
4F
100
AcDbEntity
  8
0
  6
Continuous
 62
     7
100
AcDbLine
 10
-26.33156664043781
 20
-819.3367480971465
 30
0.0
 11
-28.36117012454997
 21
-816.6607531837362
 31
0.0
  0
LINE
  5
1EE
330
4F
100
AcDbEntity
  8
0
  6
Continuous
 62
     7
100
AcDbLine
 10
-42.00624836429779
 20
-839.5287268738612
 30
0.0
 11
-45.10193399785567
 21
-838.226049040506
 31
0.0
  0
LINE
  5
1EF
330
4F
100
AcDbEntity
  8
0
  6
Continuous
 62
     7
100
AcDbLine
 10
-41.11416445296345
 20
-837.4087772765524
 30
0.0
 11
-44.20985008652133
 21
-836.1060994431973
 31
0.0
  0
LINE
  5
1F0
330
4F
100
AcDbEntity
  8
0
  6
Continuous
 62
     7
100
AcDbLine
 10
-18.08603041275637
 20
-814.6376900104988
 30
0.0
 11
-19.35387838699899
 21
-811.5275773769208
 31
0.0
  0
LINE
  5
1F1
330
4F
100
AcDbEntity
  8
0
  6
Continuous
 62
     7
100
AcDbLine
 10
-15.95620109363154
 20
-813.7694578575611
 30
0.0
 11
-17.22404906787415
 21
-810.6593452239831
 31
0.0
  0
LINE
  5
1F2
330
4F
100
AcDbEntity
  8
0
  6
Continuous
 62
     7
100
AcDbLine
 10
-6.77541897284391
 20
-811.3646181052427
 30
0.0
 11
-7.1951096929879
 21
-808.0323367877718
 31
0.0
  0
LINE
  5
1F3
330
4F
100
AcDbEntity
  8
0
  6
Continuous
 62
     7
100
AcDbLine
 10
-27.56260939778804
 20
-836.0169275516382
 30
0.0
 11
-33.07933666353711
 21
-831.734388190871
 31
0.0
  0
LINE
  5
1F4
330
4F
100
AcDbEntity
  8
0
  6
Continuous
 62
     7
100
AcDbLine
 10
-26.15223917421463
 20
-834.2001017861512
 30
0.0
 11
-26.12157895205019
 21
-834.1606055739685
 31
0.0
  0
LINE
  5
1F5
330
4F
100
AcDbEntity
  8
0
  6
Continuous
 62
     7
100
AcDbLine
 10
-26.15223917421463
 20
-834.2001017861512
 30
0.0
 11
-31.66896642809661
 21
-829.9175624100935
 31
0.0
  0
LINE
  5
1F6
330
4F
100
AcDbEntity
  8
0
  6
Continuous
 62
     7
100
AcDbLine
 10
-2.61088033627675
 20
-857.4453833247426
 30
0.0
 11
-40.51892566936294
 21
-862.21978660268
 31
0.0
  0
LINE
  5
1F7
330
4F
100
AcDbEntity
  8
0
  6
Continuous
 62
     7
100
AcDbLine
 10
-40.80633313849467
 20
-859.9378144410002
 30
0.0
 11
-2.89828780540847
 21
-855.1634111630592
 31
0.0
  0
LINE
  5
1F8
330
4F
100
AcDbEntity
  8
0
  6
Continuous
 62
     7
100
AcDbLine
 10
-44.59284763370306
 20
-862.7328847117933
 30
0.0
 11
-47.92512895117034
 21
-863.1525754319409
 31
0.0
  0
LINE
  5
1F9
330
4F
100
AcDbEntity
  8
0
  6
Continuous
 62
     7
100
AcDbLine
 10
-44.88025510283478
 20
-860.4509125501136
 30
0.0
 11
-48.21253642030206
 21
-860.8706032702576
 31
0.0
  0
LINE
  5
1FA
330
4F
100
AcDbEntity
  8
0
  6
Continuous
 62
     7
100
AcDbLine
 10
0.79405457589019
 20
-853.0591779335373
 30
0.0
 11
-3.98034868920149
 21
-815.151132599196
 31
0.0
  0
LINE
  5
1FB
330
4F
100
AcDbEntity
  8
0
  6
Continuous
 62
     7
100
AcDbLine
 10
-1.48791758578955
 20
-853.346585402669
 30
0.0
 11
-6.26232087648896
 21
-815.4385400715546
 31
0.0
  0
LINE
  5
1FC
330
4F
100
AcDbEntity
  8
0
  6
Continuous
 62
     7
100
AcDbLine
 10
-24.7184502650889
 20
-833.9838857736322
 30
0.0
 11
-5.76026841754356
 21
-848.7007924131176
 31
0.0
  0
LINE
  5
1FD
330
4F
100
AcDbEntity
  8
0
  6
Continuous
 62
     7
100
AcDbLine
 10
-27.593269615998
 20
-836.0564237587241
 30
0.0
 11
-27.56260939778804
 21
-836.0169275516382
 31
0.0
  0
LINE
  5
1FE
330
4F
100
AcDbEntity
  8
0
  6
Continuous
 62
     7
100
AcDbLine
 10
-4.49344681116054
 20
-811.077210636111
 30
0.0
 11
-4.91313753130817
 21
-807.7449293186437
 31
0.0
  0
LINE
  5
1FF
330
4F
100
AcDbEntity
  8
0
  6
Continuous
 62
     7
100
AcDbLine
 10
-8.45836796811273
 20
-852.1764590851672
 30
0.0
 11
-27.41654981566171
 21
-837.4595524456818
 31
0.0
  0
LINE
  5
200
330
4F
100
AcDbEntity
  8
0
  6
Continuous
 62
     7
100
AcDbLine
 10
4.99692607315956
 20
-811.130475073056
 30
0.0
 11
5.45399383611948
 21
-807.8031145366258
 31
0.0
  0
LINE
  5
201
330
4F
100
AcDbEntity
  8
0
  6
Continuous
 62
     7
100
AcDbLine
 10
-7.024579058987
 20
-851.9602430726482
 30
0.0
 11
-7.05523928115508
 21
-851.9997392848309
 31
0.0
  0
LINE
  5
202
330
4F
100
AcDbEntity
  8
0
  6
Continuous
 62
     7
100
AcDbLine
 10
-5.58354861720727
 20
-850.1039211000752
 30
0.0
 11
-5.61420883541359
 21
-850.1434173071611
 31
0.0
  0
LINE
  5
203
330
4F
100
AcDbEntity
  8
0
  6
Continuous
 62
     7
100
AcDbLine
 10
-2.89828780540847
 20
-855.1634111630592
 30
0.0
 11
-7.024579058987
 21
-851.9602430726482
 31
0.0
  0
LINE
  5
204
330
4F
100
AcDbEntity
  8
0
  6
Continuous
 62
     7
100
AcDbLine
 10
-1.48791758578955
 20
-853.346585402669
 30
0.0
 11
-5.61420883541359
 21
-850.1434173071611
 31
0.0
  0
LINE
  5
205
330
4F
100
AcDbEntity
  8
0
  6
Continuous
 62
     7
100
AcDbLine
 10
0.79405457589019
 20
-853.0591779335373
 30
0.0
 11
24.22307755849397
 21
-822.8781290830339
 31
0.0
  0
LINE
  5
206
330
4F
100
AcDbEntity
  8
0
  6
Continuous
 62
     7
100
AcDbLine
 10
2.89828780541211
 20
-856.751520314836
 30
0.0
 11
40.80633313850194
 21
-851.9771170368986
 31
0.0
  0
LINE
  5
207
330
4F
100
AcDbEntity
  8
0
  6
Continuous
 62
     7
100
AcDbLine
 10
2.61088033628039
 20
-854.4695481531562
 30
0.0
 11
40.51892566937022
 21
-849.6951448752152
 31
0.0
  0
LINE
  5
208
330
4F
100
AcDbEntity
  8
0
  6
Continuous
 62
     7
100
AcDbLine
 10
28.55778601352722
 20
-821.0449863032736
 30
0.0
 11
30.61729857571481
 21
-818.3919414326556
 31
0.0
  0
LINE
  5
209
330
4F
100
AcDbEntity
  8
0
  6
Continuous
 62
     7
100
AcDbLine
 10
35.23082939145752
 20
-827.7933569703273
 30
0.0
 11
37.90682430487141
 21
-825.7637534862151
 31
0.0
  0
LINE
  5
20A
330
4F
100
AcDbEntity
  8
0
  6
Continuous
 62
     7
100
AcDbLine
 10
41.31977572845062
 20
-837.8714353261894
 30
0.0
 11
44.42988836202858
 21
-836.6035873519468
 31
0.0
  0
LINE
  5
20B
330
4F
100
AcDbEntity
  8
0
  6
Continuous
 62
     7
100
AcDbLine
 10
44.82699066589339
 20
-860.9543918121053
 30
0.0
 11
48.1543512023236
 21
-861.4114595750652
 31
0.0
  0
LINE
  5
20C
330
4F
100
AcDbEntity
  8
0
  6
Continuous
 62
     7
100
AcDbLine
 10
44.88025510284206
 20
-851.4640189277852
 30
0.0
 11
48.21253642030933
 21
-851.0443282076376
 31
0.0
  0
LINE
  5
20D
330
4F
100
AcDbEntity
  8
0
  6
Continuous
 62
     7
100
AcDbLine
 10
44.59284763371034
 20
-849.1820467661018
 30
0.0
 11
47.92512895117761
 21
-848.7623560459579
 31
0.0
  0
LINE
  5
20E
330
4F
100
AcDbEntity
  8
0
  6
Continuous
 62
     7
100
AcDbLine
 10
44.51398710716239
 20
-863.232994184662
 30
0.0
 11
47.84134764358896
 21
-863.6900619476219
 31
0.0
  0
LINE
  5
20F
330
4F
100
AcDbEntity
  8
0
  6
Continuous
 62
     7
100
AcDbLine
 10
42.18800788139197
 20
-840.0012646453142
 30
0.0
 11
45.29812051496629
 21
-838.7334166710716
 31
0.0
  0
LINE
  5
210
330
4F
100
AcDbEntity
  8
0
  6
Continuous
 62
     7
100
AcDbLine
 10
36.62071764180291
 20
-829.6258990985043
 30
0.0
 11
39.2967125552168
 21
-827.5962956143958
 31
0.0
  0
LINE
  5
211
330
4F
100
AcDbEntity
  8
0
  6
Continuous
 62
     7
100
AcDbLine
 10
2.61088033628039
 20
-854.4695481531562
 30
0.0
 11
26.03990331888417
 21
-824.2884993026528
 31
0.0
  0
LINE
  5
212
330
4F
100
AcDbEntity
  8
0
  6
Continuous
 62
     7
100
AcDbLine
 10
2.89828780541211
 20
-856.751520314836
 30
0.0
 11
7.02457905899428
 21
-859.954688405247
 31
0.0
  0
LINE
  5
213
330
4F
100
AcDbEntity
  8
0
  6
Continuous
 62
     7
100
AcDbLine
 10
1.48791758579682
 20
-858.5683460752261
 30
0.0
 11
5.61420883937535
 21
-861.7715141656372
 31
0.0
  0
LINE
  5
214
330
4F
100
AcDbEntity
  8
0
  6
Continuous
 62
     7
100
AcDbLine
 10
27.41654981566899
 20
-874.4553790322134
 30
0.0
 11
8.45836796812
 21
-859.738472392728
 31
0.0
  0
LINE
  5
215
330
4F
100
AcDbEntity
  8
0
  6
Continuous
 62
     7
100
AcDbLine
 10
7.05523928115872
 20
-859.9151921930643
 30
0.0
 11
7.02457905899428
 21
-859.954688405247
 31
0.0
  0
LINE
  5
216
330
4F
100
AcDbEntity
  8
0
  6
Continuous
 62
     7
100
AcDbLine
 10
-85.05833336885189
 20
-865.5112195875518
 30
0.0
 11
-73.4555831464495
 21
-864.0498884055232
 31
0.0
  0
LINE
  5
217
330
4F
100
AcDbEntity
  8
0
  6
Continuous
 62
     7
100
AcDbLine
 10
-73.4555831464495
 20
-864.0498884055232
 30
0.0
 11
-62.1974434042786
 21
-862.6319598677619
 31
0.0
  0
LINE
  5
218
330
4F
100
AcDbEntity
  8
0
  6
Continuous
 62
     7
100
AcDbLine
 10
-84.77092589972017
 20
-867.7931917492315
 30
0.0
 11
-73.16817567731778
 21
-866.331860567203
 31
0.0
  0
LINE
  5
219
330
4F
100
AcDbEntity
  8
0
  6
Continuous
 62
     7
100
AcDbLine
 10
-84.77092589972017
 20
-867.7931917492315
 30
0.0
 11
-85.05833336885189
 21
-865.5112195875518
 31
0.0
  0
LINE
  5
21A
330
4F
100
AcDbEntity
  8
0
  6
Continuous
 62
     7
100
AcDbLine
 10
-73.16817567731778
 20
-866.331860567203
 30
0.0
 11
-61.91003593514688
 21
-864.9139320294453
 31
0.0
  0
LINE
  5
21B
330
4F
100
AcDbEntity
  8
0
  6
Continuous
 62
     7
100
AcDbLine
 10
-29.71954796580758
 20
-923.6180781268631
 30
0.0
 11
-25.31844022917358
 21
-913.1592788419075
 31
0.0
  0
LINE
  5
21C
330
4F
100
AcDbEntity
  8
0
  6
Continuous
 62
     7
100
AcDbLine
 10
73.04711795341427
 20
-867.1524895754701
 30
0.0
 11
61.8056031103115
 21
-865.6082823922261
 31
0.0
  0
LINE
  5
21D
330
4F
100
AcDbEntity
  8
0
  6
Continuous
 62
     7
100
AcDbLine
 10
-67.49591232634339
 20
-908.5929680859481
 30
0.0
 11
-68.88580057668878
 21
-906.7604259577711
 31
0.0
  0
LINE
  5
21E
330
4F
100
AcDbEntity
  8
0
  6
Continuous
 62
     7
100
AcDbLine
 10
-68.88580057668878
 20
-906.7604259577711
 30
0.0
 11
-59.56818972133624
 21
-899.6935009195913
 31
0.0
  0
LINE
  5
21F
330
4F
100
AcDbEntity
  8
0
  6
Continuous
 62
     7
100
AcDbLine
 10
-67.49591232634339
 20
-908.5929680859481
 30
0.0
 11
-58.17830147099085
 21
-901.5260430477683
 31
0.0
  0
LINE
  5
220
330
4F
100
AcDbEntity
  8
0
  6
Continuous
 62
     7
100
AcDbLine
 10
-32.13542355272148
 20
-935.2891040755821
 30
0.0
 11
-27.59959836849885
 21
-924.5101620382011
 31
0.0
  0
LINE
  5
221
330
4F
100
AcDbEntity
  8
0
  6
Continuous
 62
     7
100
AcDbLine
 10
-32.13542355272148
 20
-935.2891040755821
 30
0.0
 11
-34.25537315003021
 21
-934.3970201642442
 31
0.0
  0
LINE
  5
222
330
4F
100
AcDbEntity
  8
0
  6
Continuous
 62
     7
100
AcDbLine
 10
-34.25537315003021
 20
-934.3970201642442
 30
0.0
 11
-29.71954796580758
 21
-923.6180781268631
 31
0.0
  0
LINE
  5
223
330
4F
100
AcDbEntity
  8
0
  6
Continuous
 62
     7
100
AcDbLine
 10
79.33163833663639
 20
-888.0928892916709
 30
0.0
 11
68.55269629925533
 21
-883.5570641074482
 31
0.0
  0
LINE
  5
224
330
4F
100
AcDbEntity
  8
0
  6
Continuous
 62
     7
100
AcDbLine
 10
52.63550234700597
 20
-923.4533780652964
 30
0.0
 11
50.80296021882532
 21
-924.8432663156418
 31
0.0
  0
LINE
  5
225
330
4F
100
AcDbEntity
  8
0
  6
Continuous
 62
     7
100
AcDbLine
 10
52.63550234700597
 20
-923.4533780652964
 30
0.0
 11
45.56857730882257
 21
-914.1357672099439
 31
0.0
  0
LINE
  5
226
330
4F
100
AcDbEntity
  8
0
  6
Continuous
 62
     7
100
AcDbLine
 10
50.80296021882532
 20
-924.8432663156418
 30
0.0
 11
43.73603518064556
 21
-915.5256554602893
 31
0.0
  0
LINE
  5
227
330
4F
100
AcDbEntity
  8
0
  6
Continuous
 62
     7
100
AcDbLine
 10
45.56857730882257
 20
-914.1357672099439
 30
0.0
 11
38.71154530328568
 21
-905.094896462746
 31
0.0
  0
LINE
  5
228
330
4F
100
AcDbEntity
  8
0
  6
Continuous
 62
     7
100
AcDbLine
 10
78.43955442529841
 20
-890.2128388889832
 30
0.0
 11
67.66061238792099
 21
-885.6770137047606
 31
0.0
  0
LINE
  5
229
330
4F
100
AcDbEntity
  8
0
  6
Continuous
 62
     7
100
AcDbLine
 10
79.33163833663639
 20
-888.0928892916709
 30
0.0
 11
78.43955442529841
 21
-890.2128388889832
 31
0.0
  0
LINE
  5
22A
330
4F
100
AcDbEntity
  8
0
  6
Continuous
 62
     7
100
AcDbLine
 10
51.572974429022
 20
-787.6462470656516
 30
0.0
 11
44.40190825472018
 21
-796.8839476166977
 31
0.0
  0
LINE
  5
22B
330
4F
100
AcDbEntity
  8
0
  6
Continuous
 62
     7
100
AcDbLine
 10
51.572974429022
 20
-787.6462470656516
 30
0.0
 11
53.3898001894122
 21
-789.0566172852705
 31
0.0
  0
LINE
  5
22C
330
4F
100
AcDbEntity
  8
0
  6
Continuous
 62
     7
100
AcDbLine
 10
-68.3112186732942
 20
-804.3844913099274
 30
0.0
 11
-66.90084845367528
 21
-802.5676655495372
 31
0.0
  0
LINE
  5
22D
330
4F
100
AcDbEntity
  8
0
  6
Continuous
 62
     7
100
AcDbLine
 10
-68.3112186732942
 20
-804.3844913099274
 30
0.0
 11
-59.07351812224806
 21
-811.5555574842328
 31
0.0
  0
LINE
  5
22E
330
4F
100
AcDbEntity
  8
0
  6
Continuous
 62
     7
100
AcDbLine
 10
-59.07351812224806
 20
-811.5555574842328
 30
0.0
 11
-50.11018428272291
 21
-818.513637555181
 31
0.0
  0
LINE
  5
22F
330
4F
100
AcDbEntity
  8
0
  6
Continuous
 62
     7
100
AcDbLine
 10
68.31121867329784
 20
-907.5304401679678
 30
0.0
 11
59.0735181222517
 21
-900.3593739936623
 31
0.0
  0
LINE
  5
230
330
4F
100
AcDbEntity
  8
0
  6
Continuous
 62
     7
100
AcDbLine
 10
66.90084845368256
 20
-909.347265928358
 30
0.0
 11
57.66314790263641
 21
-902.1761997540525
 31
0.0
  0
LINE
  5
231
330
4F
100
AcDbEntity
  8
0
  6
Continuous
 62
     7
100
AcDbLine
 10
-66.90084845367528
 20
-802.5676655495372
 30
0.0
 11
-57.66314790262913
 21
-809.7387317238426
 31
0.0
  0
LINE
  5
232
330
4F
100
AcDbEntity
  8
0
  6
Continuous
 62
     7
100
AcDbLine
 10
68.31121867329784
 20
-907.5304401679678
 30
0.0
 11
66.90084845368256
 21
-909.347265928358
 31
0.0
  0
LINE
  5
233
330
4F
100
AcDbEntity
  8
0
  6
Continuous
 62
     7
100
AcDbLine
 10
-51.57297442901472
 20
-924.2686844122436
 30
0.0
 11
-44.40190825471291
 21
-915.0309838611975
 31
0.0
  0
LINE
  5
234
330
4F
100
AcDbEntity
  8
0
  6
Continuous
 62
     7
100
AcDbLine
 10
-53.38980018940492
 20
-922.8583141926283
 30
0.0
 11
-46.21873401510311
 21
-913.6206136415822
 31
0.0
  0
LINE
  5
235
330
4F
100
AcDbEntity
  8
0
  6
Continuous
 62
     7
100
AcDbLine
 10
53.3898001894122
 20
-789.0566172852705
 30
0.0
 11
46.21873401510675
 21
-798.2943178363166
 31
0.0
  0
LINE
  5
236
330
4F
100
AcDbEntity
  8
0
  6
Continuous
 62
     7
100
AcDbLine
 10
-51.57297442901472
 20
-924.2686844122436
 30
0.0
 11
-53.38980018940492
 21
-922.8583141926283
 31
0.0
  0
LINE
  5
237
330
4F
100
AcDbEntity
  8
0
  6
Continuous
 62
     7
100
AcDbLine
 10
92.07448201764782
 20
-868.6137483336242
 30
0.0
 11
92.18197961887927
 21
-868.1851029298778
 31
0.0
  0
LINE
  5
238
330
4F
100
AcDbEntity
  8
0
  6
Continuous
 62
     7
100
AcDbLine
 10
89.39600485298433
 20
-870.0283627637509
 30
0.0
 11
89.72672451690232
 21
-867.7472219339434
 31
0.0
  0
LINE
  5
239
330
4F
100
AcDbEntity
  8
0
  6
Continuous
 62
     7
100
AcDbLine
 10
89.80294711359966
 20
-870.0871498294182
 30
0.0
 11
89.39600485298433
 21
-870.0283627637509
 31
0.0
  0
LINE
  5
23A
330
4F
100
AcDbEntity
  8
0
  6
Continuous
 62
     7
100
AcDbLine
 10
90.04791207367452
 20
-868.3950723595881
 30
0.0
 11
89.80294711359966
 21
-870.0871498294182
 31
0.0
  0
ARC
  5
23B
330
4F
100
AcDbEntity
  8
1
  6
Continuous
 62
     7
100
AcDbCircle
 10
73.82489156075462
 20
-914.1458269982504
 30
0.0
 40
4.499999999997949
100
AcDbArc
 50
-66.37937020844888
 51
-53.6206297915424
  0
ARC
  5
23C
330
4F
100
AcDbEntity
  8
1
  6
Continuous
 62
     7
100
AcDbCircle
 10
73.82489156075462
 20
-914.1458269982504
 30
0.0
 40
4.500000000001283
100
AcDbArc
 50
-156.3793702084674
 51
-143.6206297916072
  0
ARC
  5
23D
330
4F
100
AcDbEntity
  8
1
  6
Continuous
 62
     7
100
AcDbCircle
 10
73.82489156075462
 20
-914.1458269982504
 30
0.0
 40
4.500000000001283
100
AcDbArc
 50
113.6206297915326
 51
126.3793702084301
  0
ARC
  5
23E
330
4F
100
AcDbEntity
  8
1
  6
Continuous
 62
     7
100
AcDbCircle
 10
73.82489156075462
 20
-914.1458269982504
 30
0.0
 40
4.499999999999407
100
AcDbArc
 50
23.62062979159357
 51
36.37937020845761
  0
ARC
  5
23F
330
4F
100
AcDbEntity
  8
1
  6
Continuous
 62
     7
100
AcDbCircle
 10
-13.48015327476242
 20
-948.9858778918388
 30
0.0
 40
4.500000000001683
100
AcDbArc
 50
-126.37937020843
 51
-113.620629791575
  0
ARC
  5
240
330
4F
100
AcDbEntity
  8
1
  6
Continuous
 62
     7
100
AcDbCircle
 10
-13.48015327476242
 20
-948.9858778918388
 30
0.0
 40
4.500000000001684
100
AcDbArc
 50
143.6206297915698
 51
156.3793702084674
  0
ARC
  5
241
330
4F
100
AcDbEntity
  8
1
  6
Continuous
 62
     7
100
AcDbCircle
 10
-13.48015327476242
 20
-948.9858778918388
 30
0.0
 40
4.49999999999876
100
AcDbArc
 50
53.62062979154238
 51
66.37937020844878
  0
ARC
  5
242
330
4F
100
AcDbEntity
  8
1
  6
Continuous
 62
     7
100
AcDbCircle
 10
-13.48015327476242
 20
-948.9858778918388
 30
0.0
 40
4.499999999998764
100
AcDbArc
 50
-36.37937020845757
 51
-23.62062979159354
  0
ARC
  5
243
330
4F
100
AcDbEntity
  8
1
  6
Continuous
 62
     7
100
AcDbCircle
 10
-87.30504483551704
 20
-890.7975166325377
 30
0.0
 40
4.499999999998948
100
AcDbArc
 50
173.6206297915557
 51
-173.6206297915557
  0
ARC
  5
244
330
4F
100
AcDbEntity
  8
1
  6
Continuous
 62
     7
100
AcDbCircle
 10
-87.30504483551704
 20
-890.7975166325377
 30
0.0
 40
4.499999999998948
100
AcDbArc
 50
83.62062979155571
 51
96.3793702084443
  0
ARC
  5
245
330
4F
100
AcDbEntity
  8
1
  6
Continuous
 62
     7
100
AcDbCircle
 10
-87.30504483551704
 20
-890.7975166325377
 30
0.0
 40
4.500000000002563
100
AcDbArc
 50
-6.37937020843915
 51
6.37937020843915
  0
ARC
  5
246
330
4F
100
AcDbEntity
  8
1
  6
Continuous
 62
     7
100
AcDbCircle
 10
-87.30504483551704
 20
-890.7975166325377
 30
0.0
 40
4.500000000002563
100
AcDbArc
 50
-96.37937020843916
 51
-83.62062979156084
  0
ARC
  5
247
330
4F
100
AcDbEntity
  8
1
  6
Continuous
 62
     7
100
AcDbCircle
 10
-73.82489156075098
 20
-797.7691044796447
 30
0.0
 40
4.499999999999407
100
AcDbArc
 50
113.6206297915936
 51
126.3793702084576
  0
ARC
  5
248
330
4F
100
AcDbEntity
  8
1
  6
Continuous
 62
     7
100
AcDbCircle
 10
-73.82489156075098
 20
-797.7691044796447
 30
0.0
 40
4.499999999997949
100
AcDbArc
 50
23.62062979155112
 51
36.37937020845761
  0
ARC
  5
249
330
4F
100
AcDbEntity
  8
1
  6
Continuous
 62
     7
100
AcDbCircle
 10
-73.82489156075098
 20
-797.7691044796447
 30
0.0
 40
4.500000000001283
100
AcDbArc
 50
-66.37937020846744
 51
-53.62062979156987
  0
ARC
  5
24A
330
4F
100
AcDbEntity
  8
1
  6
Continuous
 62
     7
100
AcDbCircle
 10
-73.82489156075098
 20
-797.7691044796447
 30
0.0
 40
4.500000000001283
100
AcDbArc
 50
-156.3793702084674
 51
-143.6206297915699
  0
ARC
  5
24B
330
4F
100
AcDbEntity
  8
1
  6
Continuous
 62
     7
100
AcDbCircle
 10
13.48015327476605
 20
-762.9290535860528
 30
0.0
 40
4.500000000001688
100
AcDbArc
 50
53.62062979156987
 51
66.37937020846732
  0
ARC
  5
24C
330
4F
100
AcDbEntity
  8
1
  6
Continuous
 62
     7
100
AcDbCircle
 10
13.48015327476605
 20
-762.9290535860528
 30
0.0
 40
4.499999999996604
100
AcDbArc
 50
-36.37937020842029
 51
-23.62062979155111
  0
ARC
  5
24D
330
4F
100
AcDbEntity
  8
1
  6
Continuous
 62
     7
100
AcDbCircle
 10
13.48015327476605
 20
-762.9290535860528
 30
0.0
 40
4.49999999999876
100
AcDbArc
 50
-126.3793702084576
 51
-113.6206297915936
  0
ARC
  5
24E
330
4F
100
AcDbEntity
  8
1
  6
Continuous
 62
     7
100
AcDbCircle
 10
13.48015327476605
 20
-762.9290535860528
 30
0.0
 40
4.500000000001686
100
AcDbArc
 50
143.6206297915699
 51
156.379370208425
  0
ARC
  5
24F
330
4F
100
AcDbEntity
  8
1
  6
Continuous
 62
     7
100
AcDbCircle
 10
87.30504483551704
 20
-821.1174148453501
 30
0.0
 40
4.499999999998948
100
AcDbArc
 50
83.62062979155571
 51
96.3793702084443
  0
ARC
  5
250
330
4F
100
AcDbEntity
  8
1
  6
Continuous
 62
     7
100
AcDbCircle
 10
87.30504483551704
 20
-821.1174148453501
 30
0.0
 40
4.499999999998948
100
AcDbArc
 50
173.6206297915557
 51
-173.6206297915557
  0
ARC
  5
251
330
4F
100
AcDbEntity
  8
1
  6
Continuous
 62
     7
100
AcDbCircle
 10
87.30504483551704
 20
-821.1174148453501
 30
0.0
 40
4.499999999998948
100
AcDbArc
 50
-96.3793702084443
 51
-83.62062979155571
  0
ARC
  5
252
330
4F
100
AcDbEntity
  8
1
  6
Continuous
 62
     7
100
AcDbCircle
 10
87.30504483551704
 20
-821.1174148453501
 30
0.0
 40
4.500000000002563
100
AcDbArc
 50
-6.37937020843915
 51
6.37937020843915
  0
ARC
  5
253
330
4F
100
AcDbEntity
  8
0
  6
Continuous
 62
     7
100
AcDbCircle
 10
0.00000000000364
 20
-855.9574657389494
 30
0.0
 40
70.50000000000107
100
AcDbArc
 50
143.1130859681924
 51
156.2437790509309
  0
ARC
  5
254
330
4F
100
AcDbEntity
  8
0
  6
Continuous
 62
     7
100
AcDbCircle
 10
0.00000000000364
 20
-855.9574657389494
 30
0.0
 40
73.9000000000018
100
AcDbArc
 50
143.0700807650843
 51
151.3664650696025
  0
ARC
  5
255
330
4F
100
AcDbEntity
  8
0
  6
Continuous
 62
     7
100
AcDbCircle
 10
0.00000000000364
 20
-855.9574657389494
 30
0.0
 40
73.9000000000019
100
AcDbArc
 50
151.3664650696025
 51
156.2867842540391
  0
ARC
  5
256
330
4F
100
AcDbEntity
  8
0
  6
Continuous
 62
     7
100
AcDbCircle
 10
0.00000000000364
 20
-855.9574657389494
 30
0.0
 40
73.90000000000055
100
AcDbArc
 50
158.0700807650826
 51
171.2867842540396
  0
ARC
  5
257
330
4F
100
AcDbEntity
  8
0
  6
Continuous
 62
     7
100
AcDbCircle
 10
0.00000000000364
 20
-855.9574657389494
 30
0.0
 40
70.49999999999979
100
AcDbArc
 50
158.1130859681896
 51
171.2437790509339
  0
ARC
  5
258
330
4F
100
AcDbEntity
  8
0
  6
Continuous
 62
     7
100
AcDbCircle
 10
0.00000000000364
 20
-855.9574657389494
 30
0.0
 40
73.9000000000007
100
AcDbArc
 50
42.99031006067008
 51
51.28678425404065
  0
ARC
  5
259
330
4F
100
AcDbEntity
  8
0
  6
Continuous
 62
     7
100
AcDbCircle
 10
0.00000000000364
 20
-855.9574657389494
 30
0.0
 40
45.10463792494741
100
AcDbArc
 50
8.6394194571629
 51
20.71744556196385
  0
ARC
  5
25A
330
4F
100
AcDbEntity
  8
0
  6
Continuous
 62
     7
100
AcDbCircle
 10
0.00000000000364
 20
-855.9574657389494
 30
0.0
 40
45.10463792494984
100
AcDbArc
 50
68.63941945716371
 51
80.71744556196464
  0
ARC
  5
25B
330
4F
100
AcDbEntity
  8
0
  6
Continuous
 62
     7
100
AcDbCircle
 10
0.00000000000364
 20
-855.9574657389494
 30
0.0
 40
45.1046379249496
100
AcDbArc
 50
53.63941945716279
 51
65.71744556196235
  0
ARC
  5
25C
330
4F
100
AcDbEntity
  8
0
  6
Continuous
 62
     7
100
AcDbCircle
 10
0.00000000000364
 20
-855.9574657389494
 30
0.0
 40
45.1046379249474
100
AcDbArc
 50
98.6394194571629
 51
110.7174455619639
  0
ARC
  5
25D
330
4F
100
AcDbEntity
  8
0
  6
Continuous
 62
     7
100
AcDbCircle
 10
0.00000000000364
 20
-855.9574657389494
 30
0.0
 40
45.10463792494824
100
AcDbArc
 50
83.63941945716283
 51
95.71744556196211
  0
ARC
  5
25E
330
4F
100
AcDbEntity
  8
0
  6
Continuous
 62
     7
100
AcDbCircle
 10
0.00000000000364
 20
-855.9574657389494
 30
0.0
 40
70.50000000000045
100
AcDbArc
 50
-21.8869140318038
 51
-8.75622094906608
  0
ARC
  5
25F
330
4F
100
AcDbEntity
  8
0
  6
Continuous
 62
     7
100
AcDbCircle
 10
0.00000000000364
 20
-855.9574657389494
 30
0.0
 40
73.8999999999992
100
AcDbArc
 50
-21.92991923491481
 51
-8.7132157459608
  0
ARC
  5
260
330
4F
100
AcDbEntity
  8
0
  6
Continuous
 62
     7
100
AcDbCircle
 10
0.00000000000364
 20
-855.9574657389494
 30
0.0
 40
70.49999999999888
100
AcDbArc
 50
-36.88691403180528
 51
-23.7562209490664
  0
ARC
  5
261
330
4F
100
AcDbEntity
  8
0
  6
Continuous
 62
     7
100
AcDbCircle
 10
0.00000000000364
 20
-855.9574657389494
 30
0.0
 40
73.89999999999696
100
AcDbArc
 50
-28.63353493039634
 51
-23.7132157459609
  0
ARC
  5
262
330
4F
100
AcDbEntity
  8
0
  6
Continuous
 62
     7
100
AcDbCircle
 10
0.00000000000364
 20
-855.9574657389494
 30
0.0
 40
45.10463792494667
100
AcDbArc
 50
-36.36058054283995
 51
-24.28255443803764
  0
ARC
  5
263
330
4F
100
AcDbEntity
  8
0
  6
Continuous
 62
     7
100
AcDbCircle
 10
0.00000000000364
 20
-855.9574657389494
 30
0.0
 40
45.10463792494462
100
AcDbArc
 50
-6.36058054283768
 51
5.7174455619621
  0
ARC
  5
264
330
4F
100
AcDbEntity
  8
0
  6
Continuous
 62
     7
100
AcDbCircle
 10
0.00000000000364
 20
-855.9574657389494
 30
0.0
 40
45.10463792494645
100
AcDbArc
 50
-21.36058054283797
 51
-9.28255443803536
  0
ARC
  5
265
330
4F
100
AcDbEntity
  8
0
  6
Continuous
 62
     7
100
AcDbCircle
 10
0.00000000000364
 20
-855.9574657389494
 30
0.0
 40
45.10463792494888
100
AcDbArc
 50
113.6394194571613
 51
125.7174455619614
  0
ARC
  5
266
330
4F
100
AcDbEntity
  8
0
  6
Continuous
 62
     7
100
AcDbCircle
 10
0.00000000000364
 20
-855.9574657389494
 30
0.0
 40
45.10463792494917
100
AcDbArc
 50
128.6394194571606
 51
140.7174455619635
  0
ARC
  5
267
330
4F
100
AcDbEntity
  8
0
  6
Continuous
 62
     7
100
AcDbCircle
 10
0.00000000000364
 20
-855.9574657389494
 30
0.0
 40
73.90000000000337
100
AcDbArc
 50
132.9903100606682
 51
141.2867842540385
  0
ARC
  5
268
330
4F
100
AcDbEntity
  8
0
  6
Continuous
 62
     7
100
AcDbCircle
 10
0.00000000000364
 20
-855.9574657389494
 30
0.0
 40
70.50000000000266
100
AcDbArc
 50
128.1130859681925
 51
141.2437790509311
  0
ARC
  5
269
330
4F
100
AcDbEntity
  8
0
  6
Continuous
 62
     7
100
AcDbCircle
 10
0.00000000000364
 20
-855.9574657389494
 30
0.0
 40
73.90000000000319
100
AcDbArc
 50
98.0700807650839
 51
111.2867842540399
  0
ARC
  5
26A
330
4F
100
AcDbEntity
  8
0
  6
Continuous
 62
     7
100
AcDbCircle
 10
0.00000000000364
 20
-855.9574657389494
 30
0.0
 40
70.50000000000124
100
AcDbArc
 50
98.1130859681924
 51
111.2437790509304
  0
ARC
  5
26B
330
4F
100
AcDbEntity
  8
0
  6
Continuous
 62
     7
100
AcDbCircle
 10
0.00000000000364
 20
-855.9574657389494
 30
0.0
 40
73.90000000000326
100
AcDbArc
 50
128.0700807650833
 51
132.9903100606682
  0
ARC
  5
26C
330
4F
100
AcDbEntity
  8
0
  6
Continuous
 62
     7
100
AcDbCircle
 10
0.00000000000364
 20
-855.9574657389494
 30
0.0
 40
73.90000000000136
100
AcDbArc
 50
113.0700807650847
 51
126.2867842540375
  0
ARC
  5
26D
330
4F
100
AcDbEntity
  8
0
  6
Continuous
 62
     7
100
AcDbCircle
 10
0.00000000000364
 20
-855.9574657389494
 30
0.0
 40
70.50000000000225
100
AcDbArc
 50
113.1130859681931
 51
126.2437790509314
  0
ARC
  5
26E
330
4F
100
AcDbEntity
  8
0
  6
Continuous
 62
     7
100
AcDbCircle
 10
0.00000000000364
 20
-855.9574657389494
 30
0.0
 40
73.90000000000136
100
AcDbArc
 50
23.07008076508469
 51
36.28678425404141
  0
ARC
  5
26F
330
4F
100
AcDbEntity
  8
0
  6
Continuous
 62
     7
100
AcDbCircle
 10
0.00000000000364
 20
-855.9574657389494
 30
0.0
 40
70.50000000000081
100
AcDbArc
 50
23.11308596819041
 51
36.24377905093552
  0
ARC
  5
270
330
4F
100
AcDbEntity
  8
0
  6
Continuous
 62
     7
100
AcDbCircle
 10
0.00000000000364
 20
-855.9574657389494
 30
0.0
 40
73.90000000000039
100
AcDbArc
 50
38.070080765085
 51
42.99031006067008
  0
ARC
  5
271
330
4F
100
AcDbEntity
  8
0
  6
Continuous
 62
     7
100
AcDbCircle
 10
0.00000000000364
 20
-855.9574657389494
 30
0.0
 40
45.10463792494633
100
AcDbArc
 50
38.63941945716351
 51
50.71744556196351
  0
ARC
  5
272
330
4F
100
AcDbEntity
  8
0
  6
Continuous
 62
     7
100
AcDbCircle
 10
0.00000000000364
 20
-855.9574657389494
 30
0.0
 40
45.10463792494555
100
AcDbArc
 50
23.63941945716316
 51
35.71744556196788
  0
ARC
  5
273
330
4F
100
AcDbEntity
  8
0
  6
Continuous
 62
     7
100
AcDbCircle
 10
0.00000000000364
 20
-855.9574657389494
 30
0.0
 40
73.8999999999996
100
AcDbArc
 50
8.07008076508429
 51
21.28678425403994
  0
ARC
  5
274
330
4F
100
AcDbEntity
  8
0
  6
Continuous
 62
     7
100
AcDbCircle
 10
0.00000000000364
 20
-855.9574657389494
 30
0.0
 40
70.50000000000072
100
AcDbArc
 50
8.11308596818947
 51
21.24377905093311
  0
ARC
  5
275
330
4F
100
AcDbEntity
  8
0
  6
Continuous
 62
     7
100
AcDbCircle
 10
0.00000000000364
 20
-855.9574657389494
 30
0.0
 40
70.49999999999844
100
AcDbArc
 50
-6.88691403180551
 51
6.2437790509332
  0
ARC
  5
276
330
4F
100
AcDbEntity
  8
0
  6
Continuous
 62
     7
100
AcDbCircle
 10
0.00000000000364
 20
-855.9574657389494
 30
0.0
 40
70.50000000000266
100
AcDbArc
 50
38.11308596819251
 51
51.24377905093297
  0
ARC
  5
277
330
4F
100
AcDbEntity
  8
0
  6
Continuous
 62
     7
100
AcDbCircle
 10
0.00000000000364
 20
-855.9574657389494
 30
0.0
 40
73.9000000000018
100
AcDbArc
 50
53.07008076508433
 51
61.36646506960254
  0
ARC
  5
278
330
4F
100
AcDbEntity
  8
0
  6
Continuous
 62
     7
100
AcDbCircle
 10
0.00000000000364
 20
-855.9574657389494
 30
0.0
 40
70.50000000000107
100
AcDbArc
 50
53.11308596819235
 51
66.24377905093209
  0
ARC
  5
279
330
4F
100
AcDbEntity
  8
0
  6
Continuous
 62
     7
100
AcDbCircle
 10
0.00000000000364
 20
-855.9574657389494
 30
0.0
 40
70.50000000000247
100
AcDbArc
 50
83.11308596819191
 51
96.2437790509332
  0
ARC
  5
27A
330
4F
100
AcDbEntity
  8
0
  6
Continuous
 62
     7
100
AcDbCircle
 10
0.00000000000364
 20
-855.9574657389494
 30
0.0
 40
73.89999999999918
100
AcDbArc
 50
68.0700807650852
 51
81.28678425403963
  0
ARC
  5
27B
330
4F
100
AcDbEntity
  8
0
  6
Continuous
 62
     7
100
AcDbCircle
 10
0.00000000000364
 20
-855.9574657389494
 30
0.0
 40
70.50000000000182
100
AcDbArc
 50
68.11308596819346
 51
81.24377905093145
  0
ARC
  5
27C
330
4F
100
AcDbEntity
  8
0
  6
Continuous
 62
     7
100
AcDbCircle
 10
0.00000000000364
 20
-855.9574657389494
 30
0.0
 40
73.9000000000019
100
AcDbArc
 50
61.36646506960254
 51
66.2867842540391
  0
ARC
  5
27D
330
4F
100
AcDbEntity
  8
0
  6
Continuous
 62
     7
100
AcDbCircle
 10
0.00000000000364
 20
-855.9574657389494
 30
0.0
 40
73.90000000000198
100
AcDbArc
 50
83.07008076508481
 51
96.2867842540403
  0
ARC
  5
27E
330
4F
100
AcDbEntity
  8
0
  6
Continuous
 62
     7
100
AcDbCircle
 10
0.00000000000364
 20
-855.9574657389494
 30
0.0
 40
73.89999999999823
100
AcDbArc
 50
-47.00968993933198
 51
-38.71321574595935
  0
ARC
  5
27F
330
4F
100
AcDbEntity
  8
0
  6
Continuous
 62
     7
100
AcDbCircle
 10
0.00000000000364
 20
-855.9574657389494
 30
0.0
 40
73.89999999999888
100
AcDbArc
 50
-126.9299192349174
 51
-118.6335349303988
  0
ARC
  5
280
330
4F
100
AcDbEntity
  8
0
  6
Continuous
 62
     7
100
AcDbCircle
 10
0.00000000000364
 20
-855.9574657389494
 30
0.0
 40
73.89999999999871
100
AcDbArc
 50
-118.6335349303988
 51
-113.713215745962
  0
ARC
  5
281
330
4F
100
AcDbEntity
  8
0
  6
Continuous
 62
     7
100
AcDbCircle
 10
0.00000000000364
 20
-855.9574657389494
 30
0.0
 40
70.49999999999815
100
AcDbArc
 50
-126.8869140318094
 51
-113.7562209490691
  0
ARC
  5
282
330
4F
100
AcDbEntity
  8
0
  6
Continuous
 62
     7
100
AcDbCircle
 10
0.00000000000364
 20
-855.9574657389494
 30
0.0
 40
70.49999999999756
100
AcDbArc
 50
-141.886914031808
 51
-128.7562209490689
  0
ARC
  5
283
330
4F
100
AcDbEntity
  8
0
  6
Continuous
 62
     7
100
AcDbCircle
 10
0.00000000000364
 20
-855.9574657389494
 30
0.0
 40
73.89999999999823
100
AcDbArc
 50
-137.009689939332
 51
-128.7132157459615
  0
ARC
  5
284
330
4F
100
AcDbEntity
  8
0
  6
Continuous
 62
     7
100
AcDbCircle
 10
0.00000000000364
 20
-855.9574657389494
 30
0.0
 40
70.50000000000081
100
AcDbArc
 50
-156.8869140318096
 51
-143.7562209490669
  0
ARC
  5
285
330
4F
100
AcDbEntity
  8
0
  6
Continuous
 62
     7
100
AcDbCircle
 10
0.00000000000364
 20
-855.9574657389494
 30
0.0
 40
70.49999999999844
100
AcDbArc
 50
-111.8869140318076
 51
-98.756220949069
  0
ARC
  5
286
330
4F
100
AcDbEntity
  8
0
  6
Continuous
 62
     7
100
AcDbCircle
 10
0.00000000000364
 20
-855.9574657389494
 30
0.0
 40
73.89999999999816
100
AcDbArc
 50
-141.9299192349172
 51
-137.009689939332
  0
ARC
  5
287
330
4F
100
AcDbEntity
  8
0
  6
Continuous
 62
     7
100
AcDbCircle
 10
0.00000000000364
 20
-855.9574657389494
 30
0.0
 40
45.10463792494686
100
AcDbArc
 50
-81.36058054284167
 51
-69.28255443803616
  0
ARC
  5
288
330
4F
100
AcDbEntity
  8
0
  6
Continuous
 62
     7
100
AcDbCircle
 10
0.00000000000364
 20
-855.9574657389494
 30
0.0
 40
45.10463792494742
100
AcDbArc
 50
-156.3605805428429
 51
-144.2825544380386
  0
ARC
  5
289
330
4F
100
AcDbEntity
  8
0
  6
Continuous
 62
     7
100
AcDbCircle
 10
0.00000000000364
 20
-855.9574657389494
 30
0.0
 40
45.10463792494502
100
AcDbArc
 50
-96.36058054284229
 51
-84.2825544380379
  0
ARC
  5
28A
330
4F
100
AcDbEntity
  8
0
  6
Continuous
 62
     7
100
AcDbCircle
 10
0.00000000000364
 20
-855.9574657389494
 30
0.0
 40
70.49999999999712
100
AcDbArc
 50
-81.88691403181012
 51
-68.75622094906964
  0
ARC
  5
28B
330
4F
100
AcDbEntity
  8
0
  6
Continuous
 62
     7
100
AcDbCircle
 10
0.00000000000364
 20
-855.9574657389494
 30
0.0
 40
45.10463792494667
100
AcDbArc
 50
-126.36058054284
 51
-114.2825544380376
  0
ARC
  5
28C
330
4F
100
AcDbEntity
  8
0
  6
Continuous
 62
     7
100
AcDbCircle
 10
0.00000000000364
 20
-855.9574657389494
 30
0.0
 40
45.1046379249469
100
AcDbArc
 50
-141.360580542843
 51
-129.2825544380394
  0
ARC
  5
28D
330
4F
100
AcDbEntity
  8
0
  6
Continuous
 62
     7
100
AcDbCircle
 10
0.00000000000364
 20
-855.9574657389494
 30
0.0
 40
73.89999999999671
100
AcDbArc
 50
-36.92991923491511
 51
-28.63353493039634
  0
ARC
  5
28E
330
4F
100
AcDbEntity
  8
0
  6
Continuous
 62
     7
100
AcDbCircle
 10
0.00000000000364
 20
-855.9574657389494
 30
0.0
 40
73.89999999999814
100
AcDbArc
 50
-51.92991923491722
 51
-47.00968993933198
  0
ARC
  5
28F
330
4F
100
AcDbEntity
  8
0
  6
Continuous
 62
     7
100
AcDbCircle
 10
0.00000000000364
 20
-855.9574657389494
 30
0.0
 40
70.49999999999756
100
AcDbArc
 50
-51.88691403180798
 51
-38.75622094906658
  0
ARC
  5
290
330
4F
100
AcDbEntity
  8
0
  6
Continuous
 62
     7
100
AcDbCircle
 10
0.00000000000364
 20
-855.9574657389494
 30
0.0
 40
45.10463792494633
100
AcDbArc
 50
-51.36058054283649
 51
-39.28255443803648
  0
ARC
  5
291
330
4F
100
AcDbEntity
  8
0
  6
Continuous
 62
     7
100
AcDbCircle
 10
0.00000000000364
 20
-855.9574657389494
 30
0.0
 40
45.10463792494555
100
AcDbArc
 50
-66.36058054283684
 51
-54.28255443803588
  0
ARC
  5
292
330
4F
100
AcDbEntity
  8
0
  6
Continuous
 62
     7
100
AcDbCircle
 10
0.00000000000364
 20
-855.9574657389494
 30
0.0
 40
45.10463792494961
100
AcDbArc
 50
143.6394194571628
 51
155.7174455619624
  0
ARC
  5
293
330
4F
100
AcDbEntity
  8
0
  6
Continuous
 62
     7
100
AcDbCircle
 10
0.00000000000364
 20
-855.9574657389494
 30
0.0
 40
45.10463792494777
100
AcDbArc
 50
158.6394194571577
 51
170.7174455619601
  0
ARC
  5
294
330
4F
100
AcDbEntity
  8
0
  6
Continuous
 62
     7
100
AcDbCircle
 10
0.00000000000364
 20
-855.9574657389494
 30
0.0
 40
73.8999999999996
100
AcDbArc
 50
-81.92991923491572
 51
-68.71321574596007
  0
ARC
  5
295
330
4F
100
AcDbEntity
  8
0
  6
Continuous
 62
     7
100
AcDbCircle
 10
0.00000000000364
 20
-855.9574657389494
 30
0.0
 40
45.10463792494777
100
AcDbArc
 50
-111.3605805428423
 51
-99.28255443804066
  0
ARC
  5
296
330
4F
100
AcDbEntity
  8
0
  6
Continuous
 62
     7
100
AcDbCircle
 10
0.00000000000364
 20
-855.9574657389494
 30
0.0
 40
70.49999999999844
100
AcDbArc
 50
-96.88691403180552
 51
-83.75622094906649
  0
ARC
  5
297
330
4F
100
AcDbEntity
  8
0
  6
Continuous
 62
     7
100
AcDbCircle
 10
0.00000000000364
 20
-855.9574657389494
 30
0.0
 40
73.89999999999802
100
AcDbArc
 50
-66.92991923491421
 51
-53.71321574596085
  0
ARC
  5
298
330
4F
100
AcDbEntity
  8
0
  6
Continuous
 62
     7
100
AcDbCircle
 10
0.00000000000364
 20
-855.9574657389494
 30
0.0
 40
70.49999999999747
100
AcDbArc
 50
-66.88691403180843
 51
-53.75622094906687
  0
ARC
  5
299
330
4F
100
AcDbEntity
  8
0
  6
Continuous
 62
     7
100
AcDbCircle
 10
0.00000000000364
 20
-855.9574657389494
 30
0.0
 40
45.10463792494686
100
AcDbArc
 50
-171.3605805428417
 51
-159.2825544380362
  0
ARC
  5
29A
330
4F
100
AcDbEntity
  8
0
  6
Continuous
 62
     7
100
AcDbCircle
 10
0.00000000000364
 20
-855.9574657389494
 30
0.0
 40
70.49999999999844
100
AcDbArc
 50
173.1130859681945
 51
-173.7562209490698
  0
ARC
  5
29B
330
4F
100
AcDbEntity
  8
0
  6
Continuous
 62
     7
100
AcDbCircle
 10
0.00000000000364
 20
-855.9574657389494
 30
0.0
 40
58.13148319780721
100
AcDbArc
 50
53.31197394583185
 51
66.04489107329519
  0
ARC
  5
29C
330
4F
100
AcDbEntity
  8
0
  6
Continuous
 62
     7
100
AcDbCircle
 10
0.00000000000364
 20
-855.9574657389494
 30
0.0
 40
56.19999999999873
100
AcDbArc
 50
53.35093687884108
 51
66.00592814028717
  0
ARC
  5
29D
330
4F
100
AcDbEntity
  8
0
  6
Continuous
 62
     7
100
AcDbCircle
 10
0.00000000000364
 20
-855.9574657389494
 30
0.0
 40
56.20000000000257
100
AcDbArc
 50
83.35093687883969
 51
96.00592814028596
  0
ARC
  5
29E
330
4F
100
AcDbEntity
  8
0
  6
Continuous
 62
     7
100
AcDbCircle
 10
0.00000000000364
 20
-855.9574657389494
 30
0.0
 40
58.13148319780569
100
AcDbArc
 50
83.3119739458328
 51
96.04489107329404
  0
ARC
  5
29F
330
4F
100
AcDbEntity
  8
0
  6
Continuous
 62
     7
100
AcDbCircle
 10
0.00000000000364
 20
-855.9574657389494
 30
0.0
 40
56.20000000000116
100
AcDbArc
 50
68.3509368788411
 51
81.00592814028353
  0
ARC
  5
2A0
330
4F
100
AcDbEntity
  8
0
  6
Continuous
 62
     7
100
AcDbCircle
 10
0.00000000000364
 20
-855.9574657389494
 30
0.0
 40
58.13148319780497
100
AcDbArc
 50
68.31197394583052
 51
81.04489107329529
  0
ARC
  5
2A1
330
4F
100
AcDbEntity
  8
0
  6
Continuous
 62
     7
100
AcDbCircle
 10
0.00000000000364
 20
-855.9574657389494
 30
0.0
 40
43.50000000000116
100
AcDbArc
 50
53.69332501522609
 51
65.66354000389929
  0
ARC
  5
2A2
330
4F
100
AcDbEntity
  8
0
  6
Continuous
 62
     7
100
AcDbCircle
 10
0.00000000000364
 20
-855.9574657389494
 30
0.0
 40
56.20000000000039
100
AcDbArc
 50
23.35093687884036
 51
36.00592814028388
  0
ARC
  5
2A3
330
4F
100
AcDbEntity
  8
0
  6
Continuous
 62
     7
100
AcDbCircle
 10
0.00000000000364
 20
-855.9574657389494
 30
0.0
 40
58.13148319780561
100
AcDbArc
 50
23.31197394583102
 51
36.04489107329388
  0
ARC
  5
2A4
330
4F
100
AcDbEntity
  8
0
  6
Continuous
 62
     7
100
AcDbCircle
 10
0.00000000000364
 20
-855.9574657389494
 30
0.0
 40
56.19999999999778
100
AcDbArc
 50
-21.64906312116028
 51
-8.99407185971338
  0
ARC
  5
2A5
330
4F
100
AcDbEntity
  8
0
  6
Continuous
 62
     7
100
AcDbCircle
 10
0.00000000000364
 20
-855.9574657389494
 30
0.0
 40
58.13148319780496
100
AcDbArc
 50
-21.68802605416948
 51
-8.95510892670527
  0
ARC
  5
2A6
330
4F
100
AcDbEntity
  8
0
  6
Continuous
 62
     7
100
AcDbCircle
 10
0.00000000000364
 20
-855.9574657389494
 30
0.0
 40
56.19999999999659
100
AcDbArc
 50
-51.64906312115968
 51
-38.99407185971616
  0
ARC
  5
2A7
330
4F
100
AcDbEntity
  8
0
  6
Continuous
 62
     7
100
AcDbCircle
 10
0.00000000000364
 20
-855.9574657389494
 30
0.0
 40
56.19999999999873
100
AcDbArc
 50
-36.64906312115892
 51
-23.99407185971435
  0
ARC
  5
2A8
330
4F
100
AcDbEntity
  8
0
  6
Continuous
 62
     7
100
AcDbCircle
 10
0.00000000000364
 20
-855.9574657389494
 30
0.0
 40
56.20000000000039
100
AcDbArc
 50
-66.64906312115964
 51
-53.99407185971394
  0
ARC
  5
2A9
330
4F
100
AcDbEntity
  8
0
  6
Continuous
 62
     7
100
AcDbCircle
 10
0.00000000000364
 20
-855.9574657389494
 30
0.0
 40
58.13148319780227
100
AcDbArc
 50
-66.68802605416757
 51
-53.95510892670612
  0
ARC
  5
2AA
330
4F
100
AcDbEntity
  8
0
  6
Continuous
 62
     7
100
AcDbCircle
 10
0.00000000000364
 20
-855.9574657389494
 30
0.0
 40
58.13148319780212
100
AcDbArc
 50
-36.68802605416741
 51
-23.95510892670628
  0
ARC
  5
2AB
330
4F
100
AcDbEntity
  8
0
  6
Continuous
 62
     7
100
AcDbCircle
 10
0.00000000000364
 20
-855.9574657389494
 30
0.0
 40
58.13148319780154
100
AcDbArc
 50
-51.6880260541684
 51
-38.95510892670372
  0
ARC
  5
2AC
330
4F
100
AcDbEntity
  8
0
  6
Continuous
 62
     7
100
AcDbCircle
 10
0.00000000000364
 20
-855.9574657389494
 30
0.0
 40
58.13148319780728
100
AcDbArc
 50
-171.6880260541701
 51
-158.9551089267059
  0
ARC
  5
2AD
330
4F
100
AcDbEntity
  8
0
  6
Continuous
 62
     7
100
AcDbCircle
 10
0.00000000000364
 20
-855.9574657389494
 30
0.0
 40
56.20000000000076
100
AcDbArc
 50
-171.6490631211632
 51
-158.9940718597167
  0
ARC
  5
2AE
330
4F
100
AcDbEntity
  8
0
  6
Continuous
 62
     7
100
AcDbCircle
 10
0.00000000000364
 20
-855.9574657389494
 30
0.0
 40
40.99999999999964
100
AcDbArc
 50
-126.2142799496886
 51
-84.42885503119138
  0
ARC
  5
2AF
330
4F
100
AcDbEntity
  8
0
  6
Continuous
 62
     7
100
AcDbCircle
 10
0.00000000000364
 20
-855.9574657389494
 30
0.0
 40
43.50000000000053
100
AcDbArc
 50
-111.3066749847746
 51
-99.33645999610346
  0
ARC
  5
2B0
330
4F
100
AcDbEntity
  8
0
  6
Continuous
 62
     7
100
AcDbCircle
 10
0.00000000000364
 20
-855.9574657389494
 30
0.0
 40
56.19999999999895
100
AcDbArc
 50
-96.64906312116075
 51
-83.99407185971734
  0
ARC
  5
2B1
330
4F
100
AcDbEntity
  8
0
  6
Continuous
 62
     7
100
AcDbCircle
 10
0.00000000000364
 20
-855.9574657389494
 30
0.0
 40
58.1314831978025
100
AcDbArc
 50
-96.68802605417117
 51
-83.95510892670559
  0
ARC
  5
2B2
330
4F
100
AcDbEntity
  8
0
  6
Continuous
 62
     7
100
AcDbCircle
 10
0.00000000000364
 20
-855.9574657389494
 30
0.0
 40
43.499999999997
100
AcDbArc
 50
-81.30667498477618
 51
-69.33645999610373
  0
ARC
  5
2B3
330
4F
100
AcDbEntity
  8
0
  6
Continuous
 62
     7
100
AcDbCircle
 10
0.00000000000364
 20
-855.9574657389494
 30
0.0
 40
43.50000000000006
100
AcDbArc
 50
-96.30667498477433
 51
-84.3364599961034
  0
ARC
  5
2B4
330
4F
100
AcDbEntity
  8
0
  6
Continuous
 62
     7
100
AcDbCircle
 10
0.00000000000364
 20
-855.9574657389494
 30
0.0
 40
56.19999999999769
100
AcDbArc
 50
-81.64906312115893
 51
-68.99407185971532
  0
ARC
  5
2B5
330
4F
100
AcDbEntity
  8
0
  6
Continuous
 62
     7
100
AcDbCircle
 10
0.00000000000364
 20
-855.9574657389494
 30
0.0
 40
58.13148319780368
100
AcDbArc
 50
-81.68802605416957
 51
-68.95510892670595
  0
ARC
  5
2B6
330
4F
100
AcDbEntity
  8
0
  6
Continuous
 62
     7
100
AcDbCircle
 10
6.37347286085787
 20
-862.4242148211306
 30
0.0
 40
0.999999999998595
100
AcDbArc
 50
142.1784325095841
 51
-127.8215674902882
  0
ARC
  5
2B7
330
4F
100
AcDbEntity
  8
0
  6
Continuous
 62
     7
100
AcDbCircle
 10
-0.000000560427
 20
-855.9574660583312
 30
0.0
 40
40.99999976996521
100
AcDbArc
 50
-81.21427910752679
 51
-39.42885420707079
  0
ARC
  5
2B8
330
4F
100
AcDbEntity
  8
0
  6
Continuous
 62
     7
100
AcDbCircle
 10
25.33165470840686
 20
-877.141121460616
 30
0.0
 40
0.9999999999985943
100
AcDbArc
 50
-127.8215674904159
 51
-37.82156749041606
  0
ARC
  5
2B9
330
4F
100
AcDbEntity
  8
0
  6
Continuous
 62
     7
100
AcDbCircle
 10
0.00000000000364
 20
-855.9574657389494
 30
0.0
 40
43.49999999999756
100
AcDbArc
 50
-66.30667498477345
 51
-54.33645999610296
  0
ARC
  5
2BA
330
4F
100
AcDbEntity
  8
0
  6
Continuous
 62
     7
100
AcDbCircle
 10
0.00000000000364
 20
-855.9574657389494
 30
0.0
 40
56.19999999999896
100
AcDbArc
 50
-6.64906312116075
 51
6.00592814028635
  0
ARC
  5
2BB
330
4F
100
AcDbEntity
  8
0
  6
Continuous
 62
     7
100
AcDbCircle
 10
0.00000000000364
 20
-855.9574657389494
 30
0.0
 40
58.13148319780207
100
AcDbArc
 50
-6.68802605416762
 51
6.04489107329441
  0
ARC
  5
2BC
330
4F
100
AcDbEntity
  8
0
  6
Continuous
 62
     7
100
AcDbCircle
 10
0.00000156872193
 20
-855.9574641877371
 30
0.0
 40
43.49999976996588
100
AcDbArc
 50
-51.30667785873824
 51
-39.33646288609098
  0
ARC
  5
2BD
330
4F
100
AcDbEntity
  8
0
  6
Continuous
 62
     7
100
AcDbCircle
 10
0.00000000000364
 20
-855.9574657389494
 30
0.0
 40
43.49999999999901
100
AcDbArc
 50
-36.30667498477005
 51
-24.33645999610269
  0
ARC
  5
2BE
330
4F
100
AcDbEntity
  8
0
  6
Continuous
 62
     7
100
AcDbCircle
 10
26.80334537235467
 20
-875.2453032758604
 30
0.0
 40
1.000000000003696
100
AcDbArc
 50
-37.82156749045289
 51
52.17843250941925
  0
ARC
  5
2BF
330
4F
100
AcDbEntity
  8
0
  6
Continuous
 62
     7
100
AcDbCircle
 10
0.00000000000364
 20
-855.9574657389494
 30
0.0
 40
43.49999999999823
100
AcDbArc
 50
-126.3066749847768
 51
-114.3364599961027
  0
ARC
  5
2C0
330
4F
100
AcDbEntity
  8
0
  6
Continuous
 62
     7
100
AcDbCircle
 10
0.00000000000364
 20
-855.9574657389494
 30
0.0
 40
43.5000000000021
100
AcDbArc
 50
-141.3066749847757
 51
-129.3364599961042
  0
ARC
  5
2C1
330
4F
100
AcDbEntity
  8
0
  6
Continuous
 62
     7
100
AcDbCircle
 10
0.00000000000364
 20
-855.9574657389494
 30
0.0
 40
45.10463792494864
100
AcDbArc
 50
173.6394194571583
 51
-174.2825544380379
  0
ARC
  5
2C2
330
4F
100
AcDbEntity
  8
0
  6
Continuous
 62
     7
100
AcDbCircle
 10
0.00000000000364
 20
-855.9574657389494
 30
0.0
 40
40.99999999999962
100
AcDbArc
 50
-171.2142799496868
 51
-129.4288550311935
  0
ARC
  5
2C3
330
4F
100
AcDbEntity
  8
0
  6
Continuous
 62
     7
100
AcDbCircle
 10
0.00000000000364
 20
-855.9574657389494
 30
0.0
 40
43.50000000000089
100
AcDbArc
 50
-156.3066749847754
 51
-144.3364599961058
  0
ARC
  5
2C4
330
4F
100
AcDbEntity
  8
0
  6
Continuous
 62
     7
100
AcDbCircle
 10
0.00000000000364
 20
-855.9574657389494
 30
0.0
 40
41.00000000000043
100
AcDbArc
 50
53.78572005031852
 51
95.57114495077181
  0
ARC
  5
2C5
330
4F
100
AcDbEntity
  8
0
  6
Continuous
 62
     7
100
AcDbCircle
 10
0.00000000000364
 20
-855.9574657389494
 30
0.0
 40
41.00000000000114
100
AcDbArc
 50
143.7857200683534
 51
-174.4288550311914
  0
ARC
  5
2C6
330
4F
100
AcDbEntity
  8
0
  6
Continuous
 62
     7
100
AcDbCircle
 10
0.00000000000364
 20
-855.9574657389494
 30
0.0
 40
43.50000000000054
100
AcDbArc
 50
158.6933250152254
 51
170.6635400038966
  0
ARC
  5
2C7
330
4F
100
AcDbEntity
  8
0
  6
Continuous
 62
     7
100
AcDbCircle
 10
0.00000000000364
 20
-855.9574657389494
 30
0.0
 40
43.50000000000116
100
AcDbArc
 50
143.6933250152261
 51
155.6635400038949
  0
ARC
  5
2C8
330
4F
100
AcDbEntity
  8
0
  6
Continuous
 62
     7
100
AcDbCircle
 10
0.00000000000364
 20
-855.9574657389494
 30
0.0
 40
43.5000000000021
100
AcDbArc
 50
128.6933250152243
 51
140.6635400038958
  0
ARC
  5
2C9
330
4F
100
AcDbEntity
  8
0
  6
Continuous
 62
     7
100
AcDbCircle
 10
0.00000000000364
 20
-855.9574657389494
 30
0.0
 40
56.20000000000129
100
AcDbArc
 50
98.35093687884054
 51
111.0059281402834
  0
ARC
  5
2CA
330
4F
100
AcDbEntity
  8
0
  6
Continuous
 62
     7
100
AcDbCircle
 10
0.00000000000364
 20
-855.9574657389494
 30
0.0
 40
58.13148319780728
100
AcDbArc
 50
98.31197394582992
 51
111.0448910732928
  0
ARC
  5
2CB
330
4F
100
AcDbEntity
  8
0
  6
Continuous
 62
     7
100
AcDbCircle
 10
0.00000000000364
 20
-855.9574657389494
 30
0.0
 40
56.20000000000257
100
AcDbArc
 50
173.3509368788397
 51
-173.9940718597177
  0
ARC
  5
2CC
330
4F
100
AcDbEntity
  8
0
  6
Continuous
 62
     7
100
AcDbCircle
 10
0.00000000000364
 20
-855.9574657389494
 30
0.0
 40
58.13148319780611
100
AcDbArc
 50
173.3119739458293
 51
-173.9551089267092
  0
ARC
  5
2CD
330
4F
100
AcDbEntity
  8
0
  6
Continuous
 62
     7
100
AcDbCircle
 10
0.00000000000364
 20
-855.9574657389494
 30
0.0
 40
41.00000000000024
100
AcDbArc
 50
98.78572006835925
 51
140.5711449507682
  0
ARC
  5
2CE
330
4F
100
AcDbEntity
  8
0
  6
Continuous
 62
     7
100
AcDbCircle
 10
-25.33165470840322
 20
-834.7738100172792
 30
0.0
 40
1.000000000000827
100
AcDbArc
 50
52.17843250941925
 51
142.1784325095842
  0
ARC
  5
2CF
330
4F
100
AcDbEntity
  8
0
  6
Continuous
 62
     7
100
AcDbCircle
 10
0.00000000000364
 20
-855.9574657389494
 30
0.0
 40
43.50000000000089
100
AcDbArc
 50
113.6933250152246
 51
125.6635400038981
  0
ARC
  5
2D0
330
4F
100
AcDbEntity
  8
0
  6
Continuous
 62
     7
100
AcDbCircle
 10
0.00000000000364
 20
-855.9574657389494
 30
0.0
 40
43.50000000000115
100
AcDbArc
 50
98.69332501522783
 51
110.6635400039008
  0
ARC
  5
2D1
330
4F
100
AcDbEntity
  8
0
  6
Continuous
 62
     7
100
AcDbCircle
 10
0.00000000000364
 20
-855.9574657389494
 30
0.0
 40
43.5000000000006
100
AcDbArc
 50
-171.3066749847769
 51
-159.3364599961037
  0
ARC
  5
2D2
330
4F
100
AcDbEntity
  8
0
  6
Continuous
 62
     7
100
AcDbCircle
 10
0.00000000000364
 20
-855.9574657389494
 30
0.0
 40
43.50000000000006
100
AcDbArc
 50
173.6933250152257
 51
-174.3364599961039
  0
ARC
  5
2D3
330
4F
100
AcDbEntity
  8
0
  6
Continuous
 62
     7
100
AcDbCircle
 10
-26.80334537235103
 20
-836.6696282020348
 30
0.0
 40
0.9999999999985999
100
AcDbArc
 50
142.1784325095843
 51
-127.8215674904161
  0
ARC
  5
2D4
330
4F
100
AcDbEntity
  8
0
  6
Continuous
 62
     7
100
AcDbCircle
 10
-6.37347286085424
 20
-849.4907166567646
 30
0.0
 40
0.999999999998595
100
AcDbArc
 50
-37.8215674904159
 51
52.17843250958403
  0
ARC
  5
2D5
330
4F
100
AcDbEntity
  8
0
  6
Continuous
 62
     7
100
AcDbCircle
 10
-7.84516352480205
 20
-851.3865348415202
 30
0.0
 40
0.9999999999985943
100
AcDbArc
 50
-127.8215674904159
 51
-37.82156749041594
  0
ARC
  5
2D6
330
4F
100
AcDbEntity
  8
0
  6
Continuous
 62
     7
100
AcDbCircle
 10
0.00000000000364
 20
-855.9574657389494
 30
0.0
 40
43.50000000000054
100
AcDbArc
 50
68.69332501522543
 51
80.66354000389656
  0
ARC
  5
2D7
330
4F
100
AcDbEntity
  8
0
  6
Continuous
 62
     7
100
AcDbCircle
 10
0.00000000000364
 20
-855.9574657389494
 30
0.0
 40
43.50000000000006
100
AcDbArc
 50
83.69332501522567
 51
95.66354000389613
  0
ARC
  5
2D8
330
4F
100
AcDbEntity
  8
0
  6
Continuous
 62
     7
100
AcDbCircle
 10
0.00000000000364
 20
-855.9574657389494
 30
0.0
 40
41.00000000000018
100
AcDbArc
 50
8.78572005031826
 51
50.57114496881042
  0
ARC
  5
2D9
330
4F
100
AcDbEntity
  8
0
  6
Continuous
 62
     7
100
AcDbCircle
 10
0.00000000000364
 20
-855.9574657389494
 30
0.0
 40
43.49999999999926
100
AcDbArc
 50
38.69332501522732
 51
50.66354000390258
  0
ARC
  5
2DA
330
4F
100
AcDbEntity
  8
0
  6
Continuous
 62
     7
100
AcDbCircle
 10
0.00000000000364
 20
-855.9574657389494
 30
0.0
 40
43.49999999999902
100
AcDbArc
 50
23.69332501523094
 51
35.66354000390092
  0
ARC
  5
2DB
330
4F
100
AcDbEntity
  8
0
  6
Continuous
 62
     7
100
AcDbCircle
 10
0.00000000000364
 20
-855.9574657389494
 30
0.0
 40
43.49999999999756
100
AcDbArc
 50
8.69332501522855
 51
20.66354000390076
  0
ARC
  5
2DC
330
4F
100
AcDbEntity
  8
0
  6
Continuous
 62
     7
100
AcDbCircle
 10
0.00000000000364
 20
-855.9574657389494
 30
0.0
 40
43.50000000000006
100
AcDbArc
 50
-6.30667498477433
 51
5.66354000390137
  0
ARC
  5
2DD
330
4F
100
AcDbEntity
  8
0
  6
Continuous
 62
     7
100
AcDbCircle
 10
0.00000000000364
 20
-855.9574657389494
 30
0.0
 40
43.49999999999922
100
AcDbArc
 50
-21.30667498477012
 51
-9.33645999610345
  0
ARC
  5
2DE
330
4F
100
AcDbEntity
  8
0
  6
Continuous
 62
     7
100
AcDbCircle
 10
0.00000000000364
 20
-855.9574657389494
 30
0.0
 40
56.19999999999769
100
AcDbArc
 50
8.35093687884107
 51
21.00592814028468
  0
ARC
  5
2DF
330
4F
100
AcDbEntity
  8
0
  6
Continuous
 62
     7
100
AcDbCircle
 10
0.00000000000364
 20
-855.9574657389494
 30
0.0
 40
58.13148319780368
100
AcDbArc
 50
8.31197394583043
 51
21.04489107329405
  0
ARC
  5
2E0
330
4F
100
AcDbEntity
  8
0
  6
Continuous
 62
     7
100
AcDbCircle
 10
0.00000017044658
 20
-855.9574651168259
 30
0.0
 40
40.99999976996593
100
AcDbArc
 50
-36.21428077380514
 51
5.57114412664738
  0
ARC
  5
2E1
330
4F
100
AcDbEntity
  8
0
  6
Continuous
 62
     7
100
AcDbCircle
 10
7.84516352480568
 20
-860.5283966363786
 30
0.0
 40
1.000000000003699
100
AcDbArc
 50
52.17843250954724
 51
142.1784325094194
  0
ARC
  5
2E2
330
4F
100
AcDbEntity
  8
0
  6
Continuous
 62
     7
100
AcDbCircle
 10
0.00000000000364
 20
-855.9574657389494
 30
0.0
 40
58.13148319780429
100
AcDbArc
 50
143.3119739458297
 51
156.0448910732919
  0
ARC
  5
2E3
330
4F
100
AcDbEntity
  8
0
  6
Continuous
 62
     7
100
AcDbCircle
 10
0.00000000000364
 20
-855.9574657389494
 30
0.0
 40
73.90000000000198
100
AcDbArc
 50
173.0700807650848
 51
-173.7132157459625
  0
ARC
  5
2E4
330
4F
100
AcDbEntity
  8
0
  6
Continuous
 62
     7
100
AcDbCircle
 10
0.00000000000364
 20
-855.9574657389494
 30
0.0
 40
56.2000000000025
100
AcDbArc
 50
158.3509368788376
 51
171.0059281402835
  0
ARC
  5
2E5
330
4F
100
AcDbEntity
  8
0
  6
Continuous
 62
     7
100
AcDbCircle
 10
0.00000000000364
 20
-855.9574657389494
 30
0.0
 40
58.13148319780497
100
AcDbArc
 50
158.3119739458305
 51
171.0448910732918
  0
ARC
  5
2E6
330
4F
100
AcDbEntity
  8
0
  6
Continuous
 62
     7
100
AcDbCircle
 10
0.00000000000364
 20
-855.9574657389494
 30
0.0
 40
56.20000000000091
100
AcDbArc
 50
143.3509368788381
 51
156.0059281402838
  0
ARC
  5
2E7
330
4F
100
AcDbEntity
  8
0
  6
Continuous
 62
     7
100
AcDbCircle
 10
0.00000000000364
 20
-855.9574657389494
 30
0.0
 40
58.13148319780417
100
AcDbArc
 50
-156.6880260541723
 51
-143.955108926709
  0
ARC
  5
2E8
330
4F
100
AcDbEntity
  8
0
  6
Continuous
 62
     7
100
AcDbCircle
 10
0.00000000000364
 20
-855.9574657389494
 30
0.0
 40
56.19999999999778
100
AcDbArc
 50
-111.6490631211603
 51
-98.99407185971705
  0
ARC
  5
2E9
330
4F
100
AcDbEntity
  8
0
  6
Continuous
 62
     7
100
AcDbCircle
 10
0.00000000000364
 20
-855.9574657389494
 30
0.0
 40
58.13148319780497
100
AcDbArc
 50
-111.6880260541695
 51
-98.95510892670882
  0
ARC
  5
2EA
330
4F
100
AcDbEntity
  8
0
  6
Continuous
 62
     7
100
AcDbCircle
 10
0.00000000000364
 20
-855.9574657389494
 30
0.0
 40
58.1314831978044
100
AcDbArc
 50
-141.6880260541706
 51
-128.9551089267088
  0
ARC
  5
2EB
330
4F
100
AcDbEntity
  8
0
  6
Continuous
 62
     7
100
AcDbCircle
 10
0.00000000000364
 20
-855.9574657389494
 30
0.0
 40
58.13148319780429
100
AcDbArc
 50
-126.6880260541703
 51
-113.9551089267096
  0
ARC
  5
2EC
330
4F
100
AcDbEntity
  8
0
  6
Continuous
 62
     7
100
AcDbCircle
 10
0.00000000000364
 20
-855.9574657389494
 30
0.0
 40
56.20000000000039
100
AcDbArc
 50
-156.6490631211597
 51
-143.9940718597161
  0
ARC
  5
2ED
330
4F
100
AcDbEntity
  8
0
  6
Continuous
 62
     7
100
AcDbCircle
 10
0.00000000000364
 20
-855.9574657389494
 30
0.0
 40
56.20000000000039
100
AcDbArc
 50
113.3509368788404
 51
126.0059281402839
  0
ARC
  5
2EE
330
4F
100
AcDbEntity
  8
0
  6
Continuous
 62
     7
100
AcDbCircle
 10
0.00000000000364
 20
-855.9574657389494
 30
0.0
 40
58.13148319780561
100
AcDbArc
 50
113.311973945831
 51
126.0448910732939
  0
ARC
  5
2EF
330
4F
100
AcDbEntity
  8
0
  6
Continuous
 62
     7
100
AcDbCircle
 10
0.00000000000364
 20
-855.9574657389494
 30
0.0
 40
56.20000000000169
100
AcDbArc
 50
128.3509368788409
 51
141.0059281402833
  0
ARC
  5
2F0
330
4F
100
AcDbEntity
  8
0
  6
Continuous
 62
     7
100
AcDbCircle
 10
0.00000000000364
 20
-855.9574657389494
 30
0.0
 40
58.13148319780665
100
AcDbArc
 50
38.31197394583219
 51
51.04489107329349
  0
ARC
  5
2F1
330
4F
100
AcDbEntity
  8
0
  6
Continuous
 62
     7
100
AcDbCircle
 10
0.00000000000364
 20
-855.9574657389494
 30
0.0
 40
56.19999999999944
100
AcDbArc
 50
-141.649063121162
 51
-128.994071859719
  0
ARC
  5
2F2
330
4F
100
AcDbEntity
  8
0
  6
Continuous
 62
     7
100
AcDbCircle
 10
0.00000000000364
 20
-855.9574657389494
 30
0.0
 40
56.20000000000091
100
AcDbArc
 50
-126.6490631211619
 51
-113.9940718597177
  0
ARC
  5
2F3
330
4F
100
AcDbEntity
  8
0
  6
Continuous
 62
     7
100
AcDbCircle
 10
0.00000000000364
 20
-855.9574657389494
 30
0.0
 40
56.2000000000017
100
AcDbArc
 50
38.35093687884093
 51
51.00592814028617
  0
ARC
  5
2F4
330
4F
100
AcDbEntity
  8
0
  6
Continuous
 62
     7
100
AcDbCircle
 10
0.00000000000364
 20
-855.9574657389494
 30
0.0
 40
58.13148319780665
100
AcDbArc
 50
128.3119739458322
 51
141.0448910732935
  0
ARC
  5
2F5
330
4F
100
AcDbEntity
  8
0
  6
Continuous
 62
     7
100
AcDbCircle
 10
0.00000000000364
 20
-855.9574657389494
 30
0.0
 40
70.50000000000072
100
AcDbArc
 50
-171.8869140318105
 51
-158.7562209490696
  0
ARC
  5
2F6
330
4F
100
AcDbEntity
  8
0
  6
Continuous
 62
     7
100
AcDbCircle
 10
0.00000000000364
 20
-855.9574657389494
 30
0.0
 40
73.89999999999836
100
AcDbArc
 50
-96.92991923491554
 51
-83.71321574596251
  0
ARC
  5
2F7
330
4F
100
AcDbEntity
  8
0
  6
Continuous
 62
     7
100
AcDbCircle
 10
0.00000000000364
 20
-855.9574657389494
 30
0.0
 40
73.89999999999836
100
AcDbArc
 50
-6.92991923491554
 51
6.2867842540403
  0
ARC
  5
2F8
330
4F
100
AcDbEntity
  8
0
  6
Continuous
 62
     7
100
AcDbCircle
 10
0.00000000000364
 20
-855.9574657389494
 30
0.0
 40
73.89999999999908
100
AcDbArc
 50
-171.9299192349185
 51
-158.7132157459601
  0
ARC
  5
2F9
330
4F
100
AcDbEntity
  8
0
  6
Continuous
 62
     7
100
AcDbCircle
 10
0.00000000000364
 20
-855.9574657389494
 30
0.0
 40
73.89999999999993
100
AcDbArc
 50
-156.9299192349179
 51
-143.7132157459609
  0
ARC
  5
2FA
330
4F
100
AcDbEntity
  8
0
  6
Continuous
 62
     7
100
AcDbCircle
 10
0.00000000000364
 20
-855.9574657389494
 30
0.0
 40
73.90000000000055
100
AcDbArc
 50
-111.9299192349174
 51
-98.7132157459608
  0
ARC
  5
2FB
330
4F
100
AcDbEntity
  8
0
  6
Continuous
 62
     7
100
AcDbCircle
 10
0.0
 20
-855.9574657389458
 30
0.0
 40
74.9999999999985
100
AcDbArc
 50
143.0570022246421
 51
156.2998627944833
  0
ARC
  5
2FC
330
4F
100
AcDbEntity
  8
0
  6
Continuous
 62
     7
100
AcDbCircle
 10
0.0
 20
-855.9574657389458
 30
0.0
 40
75.00000000000095
100
AcDbArc
 50
158.0570022246412
 51
171.2998627944881
  0
ARC
  5
2FD
330
4F
100
AcDbEntity
  8
0
  6
Continuous
 62
     7
100
AcDbCircle
 10
0.0
 20
-855.9574657389458
 30
0.0
 40
78.99999999999754
100
AcDbArc
 50
143.0125144556235
 51
156.344350563503
  0
ARC
  5
2FE
330
4F
100
AcDbEntity
  8
0
  6
Continuous
 62
     7
100
AcDbCircle
 10
0.0
 20
-855.9574657389458
 30
0.0
 40
78.99999999999997
100
AcDbArc
 50
38.01251445562218
 51
51.34435056349908
  0
ARC
  5
2FF
330
4F
100
AcDbEntity
  8
0
  6
Continuous
 62
     7
100
AcDbCircle
 10
0.0
 20
-855.9574657389458
 30
0.0
 40
74.9999999999994
100
AcDbArc
 50
38.05700222463655
 51
51.29986279448327
  0
ARC
  5
300
330
4F
100
AcDbEntity
  8
0
  6
Continuous
 62
     7
100
AcDbCircle
 10
0.0
 20
-855.9574657389458
 30
0.0
 40
75.00000000000021
100
AcDbArc
 50
23.05700222463587
 51
36.29986279448384
  0
ARC
  5
301
330
4F
100
AcDbEntity
  8
0
  6
Continuous
 62
     7
100
AcDbCircle
 10
0.0
 20
-855.9574657389458
 30
0.0
 40
75.00000000000232
100
AcDbArc
 50
-21.94299777536139
 51
-8.70013720551744
  0
ARC
  5
302
330
4F
100
AcDbEntity
  8
0
  6
Continuous
 62
     7
100
AcDbCircle
 10
0.0
 20
-855.9574657389458
 30
0.0
 40
75.00000000000006
100
AcDbArc
 50
133.126210423383
 51
141.2998627944854
  0
ARC
  5
303
330
4F
100
AcDbEntity
  8
0
  6
Continuous
 62
     7
100
AcDbCircle
 10
0.0
 20
-855.9574657389494
 30
0.0
 40
75.00000000000102
100
AcDbArc
 50
128.0570022246426
 51
133.1262104233812
  0
ARC
  5
304
330
4F
100
AcDbEntity
  8
0
  6
Continuous
 62
     7
100
AcDbCircle
 10
0.0
 20
-855.9574657389458
 30
0.0
 40
74.99999999999852
100
AcDbArc
 50
98.0570022246395
 51
111.299862794484
  0
ARC
  5
305
330
4F
100
AcDbEntity
  8
0
  6
Continuous
 62
     7
100
AcDbCircle
 10
0.0
 20
-855.9574657389458
 30
0.0
 40
74.99999999999972
100
AcDbArc
 50
113.0570022246421
 51
126.2998627944839
  0
ARC
  5
306
330
4F
100
AcDbEntity
  8
0
  6
Continuous
 62
     7
100
AcDbCircle
 10
0.0
 20
-855.9574657389458
 30
0.0
 40
78.99999999999852
100
AcDbArc
 50
98.01251445562225
 51
111.3443505635026
  0
ARC
  5
307
330
4F
100
AcDbEntity
  8
0
  6
Continuous
 62
     7
100
AcDbCircle
 10
0.0
 20
-855.9574657389458
 30
0.0
 40
78.99999999999622
100
AcDbArc
 50
113.0125144556249
 51
126.3443505634999
  0
ARC
  5
308
330
4F
100
AcDbEntity
  8
0
  6
Continuous
 62
     7
100
AcDbCircle
 10
0.0
 20
-855.9574657389458
 30
0.0
 40
78.99999999999935
100
AcDbArc
 50
128.0125144556259
 51
141.3443505635028
  0
ARC
  5
309
330
4F
100
AcDbEntity
  8
0
  6
Continuous
 62
     7
100
AcDbCircle
 10
0.0
 20
-855.9574657389458
 30
0.0
 40
78.99999999999899
100
AcDbArc
 50
83.01251445562244
 51
96.34435056350169
  0
ARC
  5
30A
330
4F
100
AcDbEntity
  8
0
  6
Continuous
 62
     7
100
AcDbCircle
 10
0.0
 20
-855.9574657389458
 30
0.0
 40
74.9999999999995
100
AcDbArc
 50
-6.94299777536149
 51
6.29986279448198
  0
ARC
  5
30B
330
4F
100
AcDbEntity
  8
0
  6
Continuous
 62
     7
100
AcDbCircle
 10
0.0
 20
-855.9574657389458
 30
0.0
 40
79.00000000000149
100
AcDbArc
 50
23.01251445562044
 51
36.3443505634999
  0
ARC
  5
30C
330
4F
100
AcDbEntity
  8
0
  6
Continuous
 62
     7
100
AcDbCircle
 10
0.0
 20
-855.9574657389458
 30
0.0
 40
75.0000000000016
100
AcDbArc
 50
8.05700222463636
 51
21.29986279448294
  0
ARC
  5
30D
330
4F
100
AcDbEntity
  8
0
  6
Continuous
 62
     7
100
AcDbCircle
 10
0.0
 20
-855.9574657389458
 30
0.0
 40
79.00000000000162
100
AcDbArc
 50
8.01251445561927
 51
21.3443505634992
  0
ARC
  5
30E
330
4F
100
AcDbEntity
  8
0
  6
Continuous
 62
     7
100
AcDbCircle
 10
0.0
 20
-855.9574657389458
 30
0.0
 40
78.99999999999899
100
AcDbArc
 50
-6.98748554437756
 51
6.34435056349908
  0
ARC
  5
30F
330
4F
100
AcDbEntity
  8
0
  6
Continuous
 62
     7
100
AcDbCircle
 10
0.0
 20
-855.9574657389458
 30
0.0
 40
78.99999999999933
100
AcDbArc
 50
68.01251445562312
 51
81.34435056349814
  0
ARC
  5
310
330
4F
100
AcDbEntity
  8
0
  6
Continuous
 62
     7
100
AcDbCircle
 10
0.0
 20
-855.9574657389458
 30
0.0
 40
74.99999999999893
100
AcDbArc
 50
68.05700222463757
 51
81.29986279448255
  0
ARC
  5
311
330
4F
100
AcDbEntity
  8
0
  6
Continuous
 62
     7
100
AcDbCircle
 10
0.0
 20
-855.9574657389458
 30
0.0
 40
78.99999999999973
100
AcDbArc
 50
53.01251445562143
 51
66.34435056349957
  0
ARC
  5
312
330
4F
100
AcDbEntity
  8
0
  6
Continuous
 62
     7
100
AcDbCircle
 10
0.0
 20
-855.9574657389458
 30
0.0
 40
74.99999999999777
100
AcDbArc
 50
53.05700222463822
 51
66.2998627944833
  0
ARC
  5
313
330
4F
100
AcDbEntity
  8
0
  6
Continuous
 62
     7
100
AcDbCircle
 10
0.0
 20
-855.9574657389458
 30
0.0
 40
74.9999999999995
100
AcDbArc
 50
83.05700222463851
 51
96.29986279448475
  0
ARC
  5
314
330
4F
100
AcDbEntity
  8
0
  6
Continuous
 62
     7
100
AcDbCircle
 10
0.0
 20
-855.9574657389494
 30
0.0
 40
74.99999999999878
100
AcDbArc
 50
-51.94299777535955
 51
-46.87378957661696
  0
ARC
  5
315
330
4F
100
AcDbEntity
  8
0
  6
Continuous
 62
     7
100
AcDbCircle
 10
0.0
 20
-855.9574657389458
 30
0.0
 40
75.00000000000286
100
AcDbArc
 50
-36.94299777536234
 51
-28.76943394102487
  0
ARC
  5
316
330
4F
100
AcDbEntity
  8
0
  6
Continuous
 62
     7
100
AcDbCircle
 10
0.0
 20
-855.9574657389494
 30
0.0
 40
75.00000000000074
100
AcDbArc
 50
-28.76943394102243
 51
-23.70013720551415
  0
ARC
  5
317
330
4F
100
AcDbEntity
  8
0
  6
Continuous
 62
     7
100
AcDbCircle
 10
0.0
 20
-855.9574657389458
 30
0.0
 40
75.00000000000271
100
AcDbArc
 50
-46.87378957661885
 51
-38.70013720551674
  0
ARC
  5
318
330
4F
100
AcDbEntity
  8
0
  6
Continuous
 62
     7
100
AcDbCircle
 10
0.0
 20
-855.9574657389458
 30
0.0
 40
79.00000000000222
100
AcDbArc
 50
-141.9874855443757
 51
-128.6556494364993
  0
ARC
  5
319
330
4F
100
AcDbEntity
  8
0
  6
Continuous
 62
     7
100
AcDbCircle
 10
0.0
 20
-855.9574657389458
 30
0.0
 40
79.00000000000263
100
AcDbArc
 50
-126.987485544377
 51
-113.6556494364994
  0
ARC
  5
31A
330
4F
100
AcDbEntity
  8
0
  6
Continuous
 62
     7
100
AcDbCircle
 10
0.0
 20
-855.9574657389458
 30
0.0
 40
78.99999999999903
100
AcDbArc
 50
-171.9874855443751
 51
-158.6556494364984
  0
ARC
  5
31B
330
4F
100
AcDbEntity
  8
0
  6
Continuous
 62
     7
100
AcDbCircle
 10
0.0
 20
-855.9574657389458
 30
0.0
 40
78.99999999999957
100
AcDbArc
 50
-156.9874855443761
 51
-143.655649436498
  0
ARC
  5
31C
330
4F
100
AcDbEntity
  8
0
  6
Continuous
 62
     7
100
AcDbCircle
 10
0.0
 20
-855.9574657389458
 30
0.0
 40
75.00000000000067
100
AcDbArc
 50
-126.9429977753601
 51
-113.7001372055156
  0
ARC
  5
31D
330
4F
100
AcDbEntity
  8
0
  6
Continuous
 62
     7
100
AcDbCircle
 10
0.0
 20
-855.9574657389458
 30
0.0
 40
75.00000000000102
100
AcDbArc
 50
-141.9429977753574
 51
-128.700137205515
  0
ARC
  5
31E
330
4F
100
AcDbEntity
  8
0
  6
Continuous
 62
     7
100
AcDbCircle
 10
0.0
 20
-855.9574657389458
 30
0.0
 40
75.00000000000165
100
AcDbArc
 50
-156.9429977753616
 51
-143.7001372055139
  0
ARC
  5
31F
330
4F
100
AcDbEntity
  8
0
  6
Continuous
 62
     7
100
AcDbCircle
 10
0.0
 20
-855.9574657389458
 30
0.0
 40
75.00000000000095
100
AcDbArc
 50
-111.9429977753588
 51
-98.70013720551702
  0
ARC
  5
320
330
4F
100
AcDbEntity
  8
0
  6
Continuous
 62
     7
100
AcDbCircle
 10
0.0
 20
-855.9574657389458
 30
0.0
 40
79.0000000000027
100
AcDbArc
 50
-111.9874855443759
 51
-98.65564943649886
  0
ARC
  5
321
330
4F
100
AcDbEntity
  8
0
  6
Continuous
 62
     7
100
AcDbCircle
 10
0.0
 20
-855.9574657389458
 30
0.0
 40
74.99999999999903
100
AcDbArc
 50
-171.9429977753578
 51
-158.7001372055171
  0
ARC
  5
322
330
4F
100
AcDbEntity
  8
0
  6
Continuous
 62
     7
100
AcDbCircle
 10
0.0
 20
-855.9574657389458
 30
0.0
 40
79.00000000000149
100
AcDbArc
 50
-66.98748554437957
 51
-53.65564943650166
  0
ARC
  5
323
330
4F
100
AcDbEntity
  8
0
  6
Continuous
 62
     7
100
AcDbCircle
 10
0.0
 20
-855.9574657389458
 30
0.0
 40
79.00000000000213
100
AcDbArc
 50
-81.98748554437812
 51
-68.65564943649835
  0
ARC
  5
324
330
4F
100
AcDbEntity
  8
0
  6
Continuous
 62
     7
100
AcDbCircle
 10
0.0
 20
-855.9574657389458
 30
0.0
 40
75.00000000000165
100
AcDbArc
 50
-66.94299777536158
 51
-53.70013720551781
  0
ARC
  5
325
330
4F
100
AcDbEntity
  8
0
  6
Continuous
 62
     7
100
AcDbCircle
 10
0.0
 20
-855.9574657389458
 30
0.0
 40
75.00000000000267
100
AcDbArc
 50
-96.9429977753584
 51
-83.70013720551556
  0
ARC
  5
326
330
4F
100
AcDbEntity
  8
0
  6
Continuous
 62
     7
100
AcDbCircle
 10
0.0
 20
-855.9574657389458
 30
0.0
 40
75.00000000000213
100
AcDbArc
 50
-81.94299777536088
 51
-68.70013720551705
  0
ARC
  5
327
330
4F
100
AcDbEntity
  8
0
  6
Continuous
 62
     7
100
AcDbCircle
 10
0.0
 20
-855.9574657389458
 30
0.0
 40
79.0000000000026
100
AcDbArc
 50
-96.98748554437724
 51
-83.65564943649859
  0
ARC
  5
328
330
4F
100
AcDbEntity
  8
0
  6
Continuous
 62
     7
100
AcDbCircle
 10
0.0
 20
-855.9574657389458
 30
0.0
 40
78.99999999999933
100
AcDbArc
 50
-21.98748554437689
 51
-8.65564943649925
  0
ARC
  5
329
330
4F
100
AcDbEntity
  8
0
  6
Continuous
 62
     7
100
AcDbCircle
 10
0.0
 20
-855.9574657389458
 30
0.0
 40
78.99999999999973
100
AcDbArc
 50
-36.98748554437857
 51
-23.65564943649937
  0
ARC
  5
32A
330
4F
100
AcDbEntity
  8
0
  6
Continuous
 62
     7
100
AcDbCircle
 10
0.0
 20
-855.9574657389458
 30
0.0
 40
79.00000000000283
100
AcDbArc
 50
-51.98748554437945
 51
-38.65564943649927
  0
ARC
  5
32B
330
4F
100
AcDbEntity
  8
0
  6
Continuous
 62
     7
100
AcDbCircle
 10
0.0
 20
-855.9574657389458
 30
0.0
 40
78.99999999999933
100
AcDbArc
 50
158.0125144556231
 51
171.344350563506
  0
ARC
  5
32C
330
4F
100
AcDbEntity
  8
0
  6
Continuous
 62
     7
100
AcDbCircle
 10
0.0
 20
-855.9574657389458
 30
0.0
 40
74.99999999999862
100
AcDbArc
 50
173.057002224644
 51
-173.7001372055153
  0
ARC
  5
32D
330
4F
100
AcDbEntity
  8
0
  6
Continuous
 62
     7
100
AcDbCircle
 10
0.0
 20
-855.9574657389458
 30
0.0
 40
78.99999999999855
100
AcDbArc
 50
173.0125144556251
 51
-173.6556494364957
  0
ARC
  5
32E
330
4F
100
AcDbEntity
  8
0
  6
Continuous
 62
     7
100
AcDbCircle
 10
0.0
 20
-855.9574657389458
 30
0.0
 40
70.50000000000107
100
AcDbArc
 50
143.1130859681924
 51
156.2437790509309
  0
ARC
  5
32F
330
4F
100
AcDbEntity
  8
0
  6
Continuous
 62
     7
100
AcDbCircle
 10
0.0
 20
-855.9574657389458
 30
0.0
 40
70.49999999999979
100
AcDbArc
 50
158.1130859681896
 51
171.2437790509339
  0
ARC
  5
330
330
4F
100
AcDbEntity
  8
0
  6
Continuous
 62
     7
100
AcDbCircle
 10
0.0
 20
-855.9574657389458
 30
0.0
 40
52.00000000000149
100
AcDbArc
 50
68.44565402226284
 51
80.91121099685917
  0
ARC
  5
331
330
4F
100
AcDbEntity
  8
0
  6
Continuous
 62
     7
100
AcDbCircle
 10
0.0
 20
-855.9574657389458
 30
0.0
 40
70.50000000000045
100
AcDbArc
 50
-21.8869140318038
 51
-8.75622094906608
  0
ARC
  5
332
330
4F
100
AcDbEntity
  8
0
  6
Continuous
 62
     7
100
AcDbCircle
 10
0.0
 20
-855.9574657389458
 30
0.0
 40
64.49999999999775
100
AcDbArc
 50
-21.79996070122021
 51
-8.84317427964996
  0
ARC
  5
333
330
4F
100
AcDbEntity
  8
0
  6
Continuous
 62
     7
100
AcDbCircle
 10
0.0
 20
-855.9574657389458
 30
0.0
 40
70.49999999999888
100
AcDbArc
 50
-36.88691403180528
 51
-23.7562209490664
  0
ARC
  5
334
330
4F
100
AcDbEntity
  8
0
  6
Continuous
 62
     7
100
AcDbCircle
 10
0.0
 20
-855.9574657389458
 30
0.0
 40
51.9999999999979
100
AcDbArc
 50
-36.55434597773833
 51
-24.08878900313619
  0
ARC
  5
335
330
4F
100
AcDbEntity
  8
0
  6
Continuous
 62
     7
100
AcDbCircle
 10
0.0
 20
-855.9574657389458
 30
0.0
 40
64.5000000000006
100
AcDbArc
 50
-36.79996070122234
 51
-23.84317427965112
  0
ARC
  5
336
330
4F
100
AcDbEntity
  8
0
  6
Continuous
 62
     7
100
AcDbCircle
 10
0.0
 20
-855.9574657389458
 30
0.0
 40
52.00000000000014
100
AcDbArc
 50
-21.55434597773343
 51
-9.08878900313292
  0
ARC
  5
337
330
4F
100
AcDbEntity
  8
0
  6
Continuous
 62
     7
100
AcDbCircle
 10
0.0
 20
-855.9574657389458
 30
0.0
 40
64.49999999999956
100
AcDbArc
 50
128.2000392987784
 51
141.156825720347
  0
ARC
  5
338
330
4F
100
AcDbEntity
  8
0
  6
Continuous
 62
     7
100
AcDbCircle
 10
0.0
 20
-855.9574657389458
 30
0.0
 40
70.50000000000266
100
AcDbArc
 50
128.1130859681925
 51
141.2437790509311
  0
ARC
  5
339
330
4F
100
AcDbEntity
  8
0
  6
Continuous
 62
     7
100
AcDbCircle
 10
0.0
 20
-855.9574657389458
 30
0.0
 40
51.99999999999955
100
AcDbArc
 50
128.4456540222627
 51
140.91121099686
  0
ARC
  5
33A
330
4F
100
AcDbEntity
  8
0
  6
Continuous
 62
     7
100
AcDbCircle
 10
0.0
 20
-855.9574657389458
 30
0.0
 40
64.50000000000217
100
AcDbArc
 50
113.2000392987781
 51
126.1568257203459
  0
ARC
  5
33B
330
4F
100
AcDbEntity
  8
0
  6
Continuous
 62
     7
100
AcDbCircle
 10
0.0
 20
-855.9574657389458
 30
0.0
 40
51.99999999999989
100
AcDbArc
 50
98.44565402226067
 51
110.9112109968599
  0
ARC
  5
33C
330
4F
100
AcDbEntity
  8
0
  6
Continuous
 62
     7
100
AcDbCircle
 10
0.0
 20
-855.9574657389458
 30
0.0
 40
52.00000000000205
100
AcDbArc
 50
113.4456540222643
 51
125.9112109968595
  0
ARC
  5
33D
330
4F
100
AcDbEntity
  8
0
  6
Continuous
 62
     7
100
AcDbCircle
 10
0.0
 20
-855.9574657389458
 30
0.0
 40
70.50000000000124
100
AcDbArc
 50
98.1130859681924
 51
111.2437790509304
  0
ARC
  5
33E
330
4F
100
AcDbEntity
  8
0
  6
Continuous
 62
     7
100
AcDbCircle
 10
0.0
 20
-855.9574657389458
 30
0.0
 40
64.50000000000088
100
AcDbArc
 50
98.20003929877724
 51
111.1568257203458
  0
ARC
  5
33F
330
4F
100
AcDbEntity
  8
0
  6
Continuous
 62
     7
100
AcDbCircle
 10
0.0
 20
-855.9574657389458
 30
0.0
 40
70.50000000000225
100
AcDbArc
 50
113.1130859681931
 51
126.2437790509314
  0
ARC
  5
340
330
4F
100
AcDbEntity
  8
0
  6
Continuous
 62
     7
100
AcDbCircle
 10
0.0
 20
-855.9574657389458
 30
0.0
 40
52.00000000000061
100
AcDbArc
 50
23.44565402226058
 51
35.91121099686509
  0
ARC
  5
341
330
4F
100
AcDbEntity
  8
0
  6
Continuous
 62
     7
100
AcDbCircle
 10
0.0
 20
-855.9574657389458
 30
0.0
 40
51.99999999999955
100
AcDbArc
 50
38.44565402226272
 51
50.91121099686316
  0
ARC
  5
342
330
4F
100
AcDbEntity
  8
0
  6
Continuous
 62
     7
100
AcDbCircle
 10
0.0
 20
-855.9574657389458
 30
0.0
 40
51.99999999999989
100
AcDbArc
 50
8.44565402226067
 51
20.91121099686502
  0
ARC
  5
343
330
4F
100
AcDbEntity
  8
0
  6
Continuous
 62
     7
100
AcDbCircle
 10
0.0
 20
-855.9574657389458
 30
0.0
 40
70.50000000000081
100
AcDbArc
 50
23.11308596819041
 51
36.24377905093552
  0
ARC
  5
344
330
4F
100
AcDbEntity
  8
0
  6
Continuous
 62
     7
100
AcDbCircle
 10
0.0
 20
-855.9574657389458
 30
0.0
 40
64.50000000000036
100
AcDbArc
 50
8.20003929877404
 51
21.15682572034879
  0
ARC
  5
345
330
4F
100
AcDbEntity
  8
0
  6
Continuous
 62
     7
100
AcDbCircle
 10
0.0
 20
-855.9574657389458
 30
0.0
 40
70.50000000000072
100
AcDbArc
 50
8.11308596818947
 51
21.24377905093311
  0
ARC
  5
346
330
4F
100
AcDbEntity
  8
0
  6
Continuous
 62
     7
100
AcDbCircle
 10
0.0
 20
-855.9574657389458
 30
0.0
 40
70.49999999999844
100
AcDbArc
 50
-6.88691403180551
 51
6.2437790509332
  0
ARC
  5
347
330
4F
100
AcDbEntity
  8
0
  6
Continuous
 62
     7
100
AcDbCircle
 10
0.0
 20
-855.9574657389458
 30
0.0
 40
52.00000000000082
100
AcDbArc
 50
53.44565402226406
 51
65.91121099686178
  0
ARC
  5
348
330
4F
100
AcDbEntity
  8
0
  6
Continuous
 62
     7
100
AcDbCircle
 10
0.0
 20
-855.9574657389458
 30
0.0
 40
70.50000000000266
100
AcDbArc
 50
38.11308596819251
 51
51.24377905093297
  0
ARC
  5
349
330
4F
100
AcDbEntity
  8
0
  6
Continuous
 62
     7
100
AcDbCircle
 10
0.0
 20
-855.9574657389458
 30
0.0
 40
70.50000000000107
100
AcDbArc
 50
53.11308596819235
 51
66.2437790509321
  0
ARC
  5
34A
330
4F
100
AcDbEntity
  8
0
  6
Continuous
 62
     7
100
AcDbCircle
 10
0.0
 20
-855.9574657389458
 30
0.0
 40
70.50000000000247
100
AcDbArc
 50
83.11308596819191
 51
96.2437790509332
  0
ARC
  5
34B
330
4F
100
AcDbEntity
  8
0
  6
Continuous
 62
     7
100
AcDbCircle
 10
0.0
 20
-855.9574657389458
 30
0.0
 40
70.50000000000182
100
AcDbArc
 50
68.11308596819346
 51
81.24377905093145
  0
ARC
  5
34C
330
4F
100
AcDbEntity
  8
0
  6
Continuous
 62
     7
100
AcDbCircle
 10
0.0
 20
-855.9574657389458
 30
0.0
 40
64.50000000000249
100
AcDbArc
 50
68.200039298778
 51
81.15682572034366
  0
ARC
  5
34D
330
4F
100
AcDbEntity
  8
0
  6
Continuous
 62
     7
100
AcDbCircle
 10
0.0
 20
-855.9574657389458
 30
0.0
 40
64.5000000000006
100
AcDbArc
 50
53.20003929877766
 51
66.15682572034592
  0
ARC
  5
34E
330
4F
100
AcDbEntity
  8
0
  6
Continuous
 62
     7
100
AcDbCircle
 10
0.0
 20
-855.9574657389458
 30
0.0
 40
70.49999999999815
100
AcDbArc
 50
-126.8869140318094
 51
-113.7562209490691
  0
ARC
  5
34F
330
4F
100
AcDbEntity
  8
0
  6
Continuous
 62
     7
100
AcDbCircle
 10
0.0
 20
-855.9574657389458
 30
0.0
 40
70.49999999999754
100
AcDbArc
 50
-141.886914031808
 51
-128.7562209490689
  0
ARC
  5
350
330
4F
100
AcDbEntity
  8
0
  6
Continuous
 62
     7
100
AcDbCircle
 10
0.0
 20
-855.9574657389458
 30
0.0
 40
64.49999999999731
100
AcDbArc
 50
-141.7999607012242
 51
-128.843174279653
  0
ARC
  5
351
330
4F
100
AcDbEntity
  8
0
  6
Continuous
 62
     7
100
AcDbCircle
 10
0.0
 20
-855.9574657389458
 30
0.0
 40
70.50000000000081
100
AcDbArc
 50
-156.8869140318096
 51
-143.7562209490669
  0
ARC
  5
352
330
4F
100
AcDbEntity
  8
0
  6
Continuous
 62
     7
100
AcDbCircle
 10
0.0
 20
-855.9574657389458
 30
0.0
 40
64.49999999999768
100
AcDbArc
 50
-126.7999607012243
 51
-113.8431742796554
  0
ARC
  5
353
330
4F
100
AcDbEntity
  8
0
  6
Continuous
 62
     7
100
AcDbCircle
 10
0.0
 20
-855.9574657389458
 30
0.0
 40
70.49999999999844
100
AcDbArc
 50
-111.8869140318076
 51
-98.756220949069
  0
ARC
  5
354
330
4F
100
AcDbEntity
  8
0
  6
Continuous
 62
     7
100
AcDbCircle
 10
0.0
 20
-855.9574657389458
 30
0.0
 40
51.99999999999989
100
AcDbArc
 50
-81.55434597773933
 51
-69.08878900313873
  0
ARC
  5
355
330
4F
100
AcDbEntity
  8
0
  6
Continuous
 62
     7
100
AcDbCircle
 10
0.0
 20
-855.9574657389458
 30
0.0
 40
52.00000000000159
100
AcDbArc
 50
173.445654022263
 51
-174.0887890031375
  0
ARC
  5
356
330
4F
100
AcDbEntity
  8
0
  6
Continuous
 62
     7
100
AcDbCircle
 10
0.0
 20
-855.9574657389458
 30
0.0
 40
64.4999999999991
100
AcDbArc
 50
-111.7999607012232
 51
-98.84317427965365
  0
ARC
  5
357
330
4F
100
AcDbEntity
  8
0
  6
Continuous
 62
     7
100
AcDbCircle
 10
0.0
 20
-855.9574657389458
 30
0.0
 40
64.50000000000075
100
AcDbArc
 50
-156.7999607012249
 51
-143.8431742796522
  0
ARC
  5
358
330
4F
100
AcDbEntity
  8
0
  6
Continuous
 62
     7
100
AcDbCircle
 10
0.0
 20
-855.9574657389458
 30
0.0
 40
51.9999999999979
100
AcDbArc
 50
-126.5543459777383
 51
-114.0887890031399
  0
ARC
  5
359
330
4F
100
AcDbEntity
  8
0
  6
Continuous
 62
     7
100
AcDbCircle
 10
0.0
 20
-855.9574657389458
 30
0.0
 40
51.99999999999955
100
AcDbArc
 50
-141.5543459777373
 51
-129.0887890031394
  0
ARC
  5
35A
330
4F
100
AcDbEntity
  8
0
  6
Continuous
 62
     7
100
AcDbCircle
 10
0.0
 20
-855.9574657389458
 30
0.0
 40
64.49999999999676
100
AcDbArc
 50
-81.79996070122552
 51
-68.84317427965422
  0
ARC
  5
35B
330
4F
100
AcDbEntity
  8
0
  6
Continuous
 62
     7
100
AcDbCircle
 10
0.0
 20
-855.9574657389458
 30
0.0
 40
51.99999999999916
100
AcDbArc
 50
-156.5543459777431
 51
-144.0887890031381
  0
ARC
  5
35C
330
4F
100
AcDbEntity
  8
0
  6
Continuous
 62
     7
100
AcDbCircle
 10
0.0
 20
-855.9574657389458
 30
0.0
 40
51.9999999999981
100
AcDbArc
 50
-111.5543459777386
 51
-99.0887890031375
  0
ARC
  5
35D
330
4F
100
AcDbEntity
  8
0
  6
Continuous
 62
     7
100
AcDbCircle
 10
0.0
 20
-855.9574657389458
 30
0.0
 40
70.49999999999712
100
AcDbArc
 50
-81.88691403181012
 51
-68.75622094906964
  0
ARC
  5
35E
330
4F
100
AcDbEntity
  8
0
  6
Continuous
 62
     7
100
AcDbCircle
 10
0.0
 20
-855.9574657389458
 30
0.0
 40
64.49999999999956
100
AcDbArc
 50
-51.79996070122162
 51
-38.843174279653
  0
ARC
  5
35F
330
4F
100
AcDbEntity
  8
0
  6
Continuous
 62
     7
100
AcDbCircle
 10
0.0
 20
-855.9574657389458
 30
0.0
 40
70.49999999999756
100
AcDbArc
 50
-51.88691403180798
 51
-38.75622094906658
  0
ARC
  5
360
330
4F
100
AcDbEntity
  8
0
  6
Continuous
 62
     7
100
AcDbCircle
 10
0.0
 20
-855.9574657389458
 30
0.0
 40
51.99999999999945
100
AcDbArc
 50
158.4456540222577
 51
170.9112109968631
  0
ARC
  5
361
330
4F
100
AcDbEntity
  8
0
  6
Continuous
 62
     7
100
AcDbCircle
 10
0.0
 20
-855.9574657389458
 30
0.0
 40
52.00000000000298
100
AcDbArc
 50
143.4456540222608
 51
155.9112109968601
  0
ARC
  5
362
330
4F
100
AcDbEntity
  8
0
  6
Continuous
 62
     7
100
AcDbCircle
 10
0.0
 20
-855.9574657389458
 30
0.0
 40
64.49999999999777
100
AcDbArc
 50
-96.79996070122051
 51
-83.84317427965084
  0
ARC
  5
363
330
4F
100
AcDbEntity
  8
0
  6
Continuous
 62
     7
100
AcDbCircle
 10
0.0
 20
-855.9574657389458
 30
0.0
 40
51.99999999999955
100
AcDbArc
 50
-51.55434597773728
 51
-39.08878900313684
  0
ARC
  5
364
330
4F
100
AcDbEntity
  8
0
  6
Continuous
 62
     7
100
AcDbCircle
 10
0.0
 20
-855.9574657389458
 30
0.0
 40
51.99999999999727
100
AcDbArc
 50
-66.55434597773782
 51
-54.08878900313816
  0
ARC
  5
365
330
4F
100
AcDbEntity
  8
0
  6
Continuous
 62
     7
100
AcDbCircle
 10
0.0
 20
-855.9574657389458
 30
0.0
 40
64.4999999999974
100
AcDbArc
 50
-66.79996070122361
 51
-53.84317427965225
  0
ARC
  5
366
330
4F
100
AcDbEntity
  8
0
  6
Continuous
 62
     7
100
AcDbCircle
 10
0.0
 20
-855.9574657389458
 30
0.0
 40
51.99999999999798
100
AcDbArc
 50
-96.55434597773748
 51
-84.0887890031371
  0
ARC
  5
367
330
4F
100
AcDbEntity
  8
0
  6
Continuous
 62
     7
100
AcDbCircle
 10
0.0
 20
-855.9574657389458
 30
0.0
 40
70.49999999999844
100
AcDbArc
 50
-96.88691403180552
 51
-83.75622094906649
  0
ARC
  5
368
330
4F
100
AcDbEntity
  8
0
  6
Continuous
 62
     7
100
AcDbCircle
 10
0.0
 20
-855.9574657389458
 30
0.0
 40
70.49999999999747
100
AcDbArc
 50
-66.88691403180843
 51
-53.75622094906686
  0
ARC
  5
369
330
4F
100
AcDbEntity
  8
0
  6
Continuous
 62
     7
100
AcDbCircle
 10
0.0
 20
-855.9574657389458
 30
0.0
 40
64.50000000000138
100
AcDbArc
 50
-6.79996070122013
 51
6.1568257203456
  0
ARC
  5
36A
330
4F
100
AcDbEntity
  8
0
  6
Continuous
 62
     7
100
AcDbCircle
 10
0.0
 20
-855.9574657389458
 30
0.0
 40
64.50000000000075
100
AcDbArc
 50
23.20003929877513
 51
36.15682572035037
  0
ARC
  5
36B
330
4F
100
AcDbEntity
  8
0
  6
Continuous
 62
     7
100
AcDbCircle
 10
0.0
 20
-855.9574657389458
 30
0.0
 40
64.50000000000242
100
AcDbArc
 50
38.20003929877639
 51
51.15682572034903
  0
ARC
  5
36C
330
4F
100
AcDbEntity
  8
0
  6
Continuous
 62
     7
100
AcDbCircle
 10
0.0
 20
-855.9574657389458
 30
0.0
 40
64.5000000000018
100
AcDbArc
 50
83.20003929877666
 51
96.15682572034882
  0
ARC
  5
36D
330
4F
100
AcDbEntity
  8
0
  6
Continuous
 62
     7
100
AcDbCircle
 10
0.0
 20
-855.9574657389458
 30
0.0
 40
52.00000000000159
100
AcDbArc
 50
83.44565402226299
 51
95.91121099686251
  0
ARC
  5
36E
330
4F
100
AcDbEntity
  8
0
  6
Continuous
 62
     7
100
AcDbCircle
 10
0.0
 20
-855.9574657389458
 30
0.0
 40
64.5000000000018
100
AcDbArc
 50
173.2000392987767
 51
-173.8431742796544
  0
ARC
  5
36F
330
4F
100
AcDbEntity
  8
0
  6
Continuous
 62
     7
100
AcDbCircle
 10
0.0
 20
-855.9574657389458
 30
0.0
 40
64.50000000000045
100
AcDbArc
 50
158.2000392987738
 51
171.15682572035
  0
ARC
  5
370
330
4F
100
AcDbEntity
  8
0
  6
Continuous
 62
     7
100
AcDbCircle
 10
0.0
 20
-855.9574657389458
 30
0.0
 40
64.5000000000006
100
AcDbArc
 50
143.2000392987777
 51
156.1568257203459
  0
ARC
  5
371
330
4F
100
AcDbEntity
  8
0
  6
Continuous
 62
     7
100
AcDbCircle
 10
0.0
 20
-855.9574657389458
 30
0.0
 40
70.49999999999844
100
AcDbArc
 50
173.1130859681945
 51
-173.7562209490698
  0
ARC
  5
372
330
4F
100
AcDbEntity
  8
0
  6
Continuous
 62
     7
100
AcDbCircle
 10
0.0
 20
-855.9574657389458
 30
0.0
 40
51.99999999999989
100
AcDbArc
 50
-171.5543459777394
 51
-159.0887890031425
  0
ARC
  5
373
330
4F
100
AcDbEntity
  8
0
  6
Continuous
 62
     7
100
AcDbCircle
 10
0.0
 20
-855.9574657389458
 30
0.0
 40
52.00000000000159
100
AcDbArc
 50
-6.55434597773702
 51
5.9112109968625
  0
ARC
  5
374
330
4F
100
AcDbEntity
  8
0
  6
Continuous
 62
     7
100
AcDbCircle
 10
0.0
 20
-855.9574657389458
 30
0.0
 40
70.50000000000072
100
AcDbArc
 50
-171.8869140318105
 51
-158.7562209490696
  0
ARC
  5
375
330
4F
100
AcDbEntity
  8
0
  6
Continuous
 62
     7
100
AcDbCircle
 10
0.0
 20
-855.9574657389458
 30
0.0
 40
64.50000000000036
100
AcDbArc
 50
-171.799960701226
 51
-158.8431742796572
  0
CIRCLE
  5
376
330
4F
100
AcDbEntity
  8
0
  6
Continuous
 62
     7
100
AcDbCircle
 10
73.8248915607619
 20
-914.1458269982431
 30
0.0
 40
6.899999999997339
  0
CIRCLE
  5
377
330
4F
100
AcDbEntity
  8
1
  6
Continuous
 62
     7
100
AcDbCircle
 10
73.82489156075462
 20
-914.1458269982504
 30
0.0
 40
5.499999999999073
  0
CIRCLE
  5
378
330
4F
100
AcDbEntity
  8
0
  6
Continuous
 62
     7
100
AcDbCircle
 10
-13.48015327475878
 20
-948.9858778918424
 30
0.0
 40
6.899999999995372
  0
CIRCLE
  5
379
330
4F
100
AcDbEntity
  8
1
  6
Continuous
 62
     7
100
AcDbCircle
 10
-13.48015327476242
 20
-948.9858778918388
 30
0.0
 40
5.500000000002223
  0
CIRCLE
  5
37A
330
4F
100
AcDbEntity
  8
0
  6
Continuous
 62
     7
100
AcDbCircle
 10
-87.30504483551704
 20
-890.797516632545
 30
0.0
 40
6.899999999996075
  0
CIRCLE
  5
37B
330
4F
100
AcDbEntity
  8
1
  6
Continuous
 62
     7
100
AcDbCircle
 10
-87.30504483551704
 20
-890.7975166325377
 30
0.0
 40
5.5
  0
CIRCLE
  5
37C
330
4F
100
AcDbEntity
  8
0
  6
Continuous
 62
     7
100
AcDbCircle
 10
-73.82489156075826
 20
-797.7691044796484
 30
0.0
 40
6.899999999995087
  0
CIRCLE
  5
37D
330
4F
100
AcDbEntity
  8
1
  6
Continuous
 62
     7
100
AcDbCircle
 10
-73.82489156075098
 20
-797.7691044796447
 30
0.0
 40
5.499999999999073
  0
CIRCLE
  5
37E
330
4F
100
AcDbEntity
  8
0
  6
Continuous
 62
     7
100
AcDbCircle
 10
13.48015327475878
 20
-762.9290535860455
 30
0.0
 40
6.899999999995894
  0
CIRCLE
  5
37F
330
4F
100
AcDbEntity
  8
1
  6
Continuous
 62
     7
100
AcDbCircle
 10
13.48015327476605
 20
-762.9290535860528
 30
0.0
 40
5.500000000002224
  0
CIRCLE
  5
380
330
4F
100
AcDbEntity
  8
1
  6
Continuous
 62
     7
100
AcDbCircle
 10
87.30504483551704
 20
-821.1174148453501
 30
0.0
 40
5.5
  0
CIRCLE
  5
381
330
4F
100
AcDbEntity
  8
0
  6
Continuous
 62
     7
100
AcDbCircle
 10
87.30504483551704
 20
-821.1174148453429
 30
0.0
 40
6.899999999996075
  0
CIRCLE
  5
382
330
4F
100
AcDbEntity
  8
0
  6
Continuous
 62
     7
100
AcDbCircle
 10
0.0
 20
-855.9574657389458
 30
0.0
 40
101.7999999999976
  0
CIRCLE
  5
383
330
4F
100
AcDbEntity
  8
0
  6
Continuous
 62
     7
100
AcDbCircle
 10
0.0
 20
-855.9574657389458
 30
0.0
 40
124.4999999999977
  0
CIRCLE
  5
384
330
4F
100
AcDbEntity
  8
0
  6
Continuous
 62
     7
100
AcDbCircle
 10
0.0
 20
-855.9574657389458
 30
0.0
 40
123.3859144827011
  0
SPLINE
  5
385
330
4F
100
AcDbEntity
  8
0
  6
Continuous
 62
     7
100
AcDbSpline
210
0.0
220
0.0
230
1.0
 70
     8
 71
     3
 72
    11
 73
     7
 74
     5
 42
0.0000000001
 43
0.0000000001
 44
0.00000001
 40
0.0
 40
0.0
 40
0.0
 40
0.0
 40
0.0710666732518099
 40
0.1516132822064528
 40
0.2323342454307904
 40
0.3032257578288781
 40
0.3032257578288781
 40
0.3032257578288781
 40
0.3032257578288781
 10
89.72672451690232
 20
-867.7472219339434
 30
0.0
 10
89.7501803578389
 20
-867.7506065711474
 30
0.0
 10
89.80022093056566
 20
-867.7578273390843
 30
0.0
 10
89.87545598086865
 20
-867.7769985320965
 30
0.0
 10
89.94782452681767
 20
-867.8050304431392
 30
0.0
 10
89.99255448810439
 20
-867.828607818846
 30
0.0
 10
90.01346948597711
 20
-867.8396322138724
 30
0.0
 11
89.72672451690232
 21
-867.7472219339434
 31
0.0
 11
89.79688445745569
 21
-867.7585380635214
 31
0.0
 11
89.87491262681215
 21
-867.7785220821606
 31
0.0
 11
89.95017121057845
 21
-867.8077114547705
 31
0.0
 11
90.01346948597711
 21
-867.8396322138724
 31
0.0
  0
SPLINE
  5
386
330
4F
100
AcDbEntity
  8
0
  6
Continuous
 62
     7
100
AcDbSpline
210
0.0
220
0.0
230
1.0
 70
     8
 71
     3
 72
    18
 73
    14
 74
    12
 42
0.0000000001
 43
0.0000000001
 44
0.00000001
 40
0.0
 40
0.0
 40
0.0
 40
0.0
 40
0.0799378774762108
 40
0.1847720433014013
 40
0.3289714865848637
 40
0.5208526455718763
 40
0.6578623695851054
 40
0.8222830153970931
 40
0.9867813589526782
 40
1.056292721957014
 40
1.11816300411568
 40
1.196580488224858
 40
1.315720882352286
 40
1.315720882352286
 40
1.315720882352286
 40
1.315720882352286
 10
90.01346948597711
 20
-867.8396322138724
 30
0.0
 10
90.0365515586857
 20
-867.8529537210522
 30
0.0
 10
90.08990451066101
 20
-867.8837456582311
 30
0.0
 10
90.18059519790513
 20
-867.9456734409082
 30
0.0
 10
90.29355183474507
 20
-868.0400067715236
 30
0.0
 10
90.40545422844488
 20
-868.1515517210198
 30
0.0
 10
90.51098095799026
 20
-868.2777664249821
 30
0.0
 10
90.60562346371438
 20
-868.4009931584034
 30
0.0
 10
90.68046170710409
 20
-868.5107565914824
 30
0.0
 10
90.73539994040382
 20
-868.5926638999194
 30
0.0
 10
90.77317662749996
 20
-868.6515223054892
 30
0.0
 10
90.8185934101592
 20
-868.7251135489128
 30
0.0
 10
90.85302534157238
 20
-868.7812471469958
 30
0.0
 10
90.8737900608321
 20
-868.8150993985946
 30
0.0
 11
90.01346948597711
 21
-867.8396322138724
 31
0.0
 11
90.08226367505618
 21
-867.8803436840541
 31
0.0
 11
90.1688827690112
 21
-867.9393973451317
 31
0.0
 11
90.2801205149517
 21
-868.0311559595575
 31
0.0
 11
90.4159010018293
 21
-868.1667363362994
 31
0.0
 11
90.50444549971144
 21
-868.271290324119
 31
0.0
 11
90.6043506623646
 21
-868.401877870403
 31
0.0
 11
90.69805414281655
 21
-868.5370790641246
 31
0.0
 11
90.73661216925304
 21
-868.5949159743467
 31
0.0
 11
90.77006078900104
 21
-868.6469651976968
 31
0.0
 11
90.8114400651607
 21
-868.7135764378783
 31
0.0
 11
90.8737900608321
 21
-868.8150993985946
 31
0.0
  0
SPLINE
  5
387
330
4F
100
AcDbEntity
  8
0
  6
Continuous
 62
     7
100
AcDbSpline
210
0.0
220
0.0
230
1.0
 70
     8
 71
     3
 72
    19
 73
    15
 74
    13
 42
0.0000000001
 43
0.0000000001
 44
0.00000001
 40
0.0
 40
0.0
 40
0.0
 40
0.0
 40
0.4073649935222414
 40
0.8143956493558633
 40
0.945810696149152
 40
1.077177162271803
 40
1.148655917637472
 40
1.208578854354455
 40
1.290730077067793
 40
1.339985559615604
 40
1.412201867896307
 40
1.484440384422548
 40
1.567419941779812
 40
1.628872913979295
 40
1.628872913979295
 40
1.628872913979295
 40
1.628872913979295
 10
90.8737900608321
 20
-868.8150993985946
 30
0.0
 10
90.94498024267888
 20
-868.9307310169743
 30
0.0
 10
91.08730217827667
 20
-869.161899351107
 30
0.0
 10
91.26865070372288
 20
-869.4203563154351
 30
0.0
 10
91.41010022292848
 20
-869.5932152680105
 30
0.0
 10
91.4864508753882
 20
-869.6745345139657
 30
0.0
 10
91.55058247117536
 20
-869.7342588104477
 30
0.0
 10
91.60533376354542
 20
-869.7797832323109
 30
0.0
 10
91.65627801281993
 20
-869.8182330703908
 30
0.0
 10
91.71294118000417
 20
-869.8556581505907
 30
0.0
 10
91.76960711651033
 20
-869.8868429441674
 30
0.0
 10
91.83894695677904
 20
-869.9175804922752
 30
0.0
 10
91.90766082799838
 20
-869.9408003874978
 30
0.0
 10
91.95515394657596
 20
-869.9489827762887
 30
0.0
 10
91.97536125932311
 20
-869.9524642088472
 30
0.0
 11
90.8737900608321
 21
-868.8150993985946
 31
0.0
 11
91.09082075512922
 21
-869.1598368576563
 31
0.0
 11
91.32747811110312
 21
-869.4909973182366
 31
0.0
 11
91.41124341605928
 21
-869.5922558398992
 31
0.0
 11
91.50146121675789
 21
-869.6877435189926
 31
0.0
 11
91.55388188240431
 21
-869.7363365872412
 31
0.0
 11
91.59988455660641
 21
-869.7747359662862
 31
0.0
 11
91.66565381662667
 21
-869.8239622583433
 31
0.0
 11
91.70683645632744
 21
-869.8509824868452
 31
0.0
 11
91.77004645691204
 21
-869.8859065617476
 31
0.0
 11
91.83608429252126
 21
-869.9151880838726
 31
0.0
 11
91.9150450075872
 21
-869.9406991092437
 31
0.0
 11
91.97536125932311
 21
-869.9524642088472
 31
0.0
  0
SPLINE
  5
388
330
4F
100
AcDbEntity
  8
0
  6
Continuous
 62
     7
100
AcDbSpline
210
0.0
220
0.0
230
1.0
 70
     8
 71
     3
 72
    11
 73
     7
 74
     5
 42
0.0000000001
 43
0.0000000001
 44
0.00000001
 40
0.0
 40
0.0
 40
0.0
 40
0.0
 40
0.2391362193913213
 40
0.4782667052095132
 40
0.7596824545535934
 40
0.9562789610826281
 40
0.9562789610826281
 40
0.9562789610826281
 40
0.9562789610826281
 10
90.61572482618794
 20
-869.1596470654003
 30
0.0
 10
90.57362951977147
 20
-869.091926378534
 30
0.0
 10
90.48943991622315
 20
-868.9564866284845
 30
0.0
 10
90.35212192129224
 20
-868.7441688988342
 30
0.0
 10
90.2151544392612
 20
-868.5462534978752
 30
0.0
 10
90.0966503448777
 20
-868.4391300198156
 30
0.0
 10
90.04791207367452
 20
-868.3950723595881
 30
0.0
 11
90.61572482618794
 21
-869.1596470654003
 31
0.0
 11
90.48887376900029
 21
-868.9569281942631
 31
0.0
 11
90.35864111139745
 21
-868.7563718576857
 31
0.0
 11
90.18952459158706
 21
-868.5314398085995
 31
0.0
 11
90.04791207367452
 21
-868.3950723595881
 31
0.0
  0
SPLINE
  5
389
330
4F
100
AcDbEntity
  8
0
  6
Continuous
 62
     7
100
AcDbSpline
210
0.0
220
0.0
230
1.0
 70
     8
 71
     3
 72
    15
 73
    11
 74
     9
 42
0.0000000001
 43
0.0000000001
 44
0.00000001
 40
0.0
 40
0.0
 40
0.0
 40
0.0
 40
0.1082164627490746
 40
0.2836004453313685
 40
0.5635304672053861
 40
0.9180057313013117
 40
1.174110824834526
 40
1.377525703576208
 40
1.602358092415102
 40
1.837105237286464
 40
1.837105237286464
 40
1.837105237286464
 40
1.837105237286464
 10
91.90288094971402
 20
-870.3875175228604
 30
0.0
 10
91.86732960406695
 20
-870.381232919141
 30
0.0
 10
91.77416099365854
 20
-870.3647629997928
 30
0.0
 10
91.59609411185387
 20
-870.3011683681849
 30
0.0
 10
91.36476238692845
 20
-870.156833871908
 30
0.0
 10
91.15621958766657
 20
-869.9425750611404
 30
0.0
 10
90.99022976604527
 20
-869.7278788567306
 30
0.0
 10
90.86107858034974
 20
-869.5397595226405
 30
0.0
 10
90.73885774137202
 20
-869.3556295903559
 30
0.0
 10
90.65735523039217
 20
-869.2259074289973
 30
0.0
 10
90.61572482618794
 20
-869.1596470654003
 30
0.0
 11
91.90288094971402
 21
-870.3875175228604
 31
0.0
 11
91.79674457392139
 21
-870.3664018286136
 31
0.0
 11
91.63117705066543
 21
-870.30854911399
 31
0.0
 11
91.39241707942301
 21
-870.1624173471537
 31
0.0
 11
91.13941092832829
 21
-869.9141420959422
 31
0.0
 11
90.98165470421463
 21
-869.7123927646247
 31
0.0
 11
90.86554307968254
 21
-869.5453726953456
 31
0.0
 11
90.7414560070765
 21
-869.3578840250664
 31
0.0
 11
90.61572482618794
 21
-869.1596470654003
 31
0.0
  0
SPLINE
  5
38A
330
4F
100
AcDbEntity
  8
0
  6
Continuous
 62
     7
100
AcDbSpline
210
0.0
220
0.0
230
1.0
 70
     8
 71
     3
 72
    39
 73
    35
 74
    33
 42
0.0000000001
 43
0.0000000001
 44
0.00000001
 40
0.0
 40
0.0
 40
0.0
 40
0.0
 40
0.0312232123363417
 40
0.0624119636269115
 40
0.0926110070693767
 40
0.1228421662250588
 40
0.1528190601008717
 40
0.1827673314943629
 40
0.2119273021120702
 40
0.2411120261809456
 40
0.2703049737394557
 40
0.2994758732907751
 40
0.3289402038553189
 40
0.3584260078776281
 40
0.3884919318154637
 40
0.4185375643321547
 40
0.4495742804650401
 40
0.4806271851666389
 40
0.5117882995639058
 40
0.5429482436440686
 40
0.5738690934445339
 40
0.6047724568699022
 40
0.6356119917978036
 40
0.6664778743084436
 40
0.6978396191518531
 40
0.729177968212589
 40
0.7611864550150458
 40
0.7932062748575699
 40
0.8259897484466618
 40
0.8587814475162527
 40
0.8930869416028235
 40
0.9273682713034873
 40
0.9629554988066472
 40
0.9985733607338758
 40
0.9985733607338758
 40
0.9985733607338758
 40
0.9985733607338758
 10
91.97536125932311
 20
-869.9524642088472
 30
0.0
 10
91.98569332111353
 20
-869.9537164469492
 30
0.0
 10
92.0063460412023
 20
-869.9562195410583
 30
0.0
 10
92.03711068021978
 20
-869.9589413870747
 30
0.0
 10
92.06766065219648
 20
-869.9596866102058
 30
0.0
 10
92.09779415528067
 20
-869.9588835859031
 30
0.0
 10
92.1277900353908
 20
-869.9569022561641
 30
0.0
 10
92.15729411693451
 20
-869.9533671982047
 30
0.0
 10
92.18623653811335
 20
-869.9479221085643
 30
0.0
 10
92.21459325038833
 20
-869.9410028995692
 30
0.0
 10
92.24264442696216
 20
-869.9329220355457
 30
0.0
 10
92.27034372639443
 20
-869.9233928255009
 30
0.0
 10
92.29750083516147
 20
-869.9121554916196
 30
0.0
 10
92.32432604693501
 20
-869.8994537646905
 30
0.0
 10
92.35080770891366
 20
-869.8856257770451
 30
0.0
 10
92.37700933100692
 20
-869.8702098769438
 30
0.0
 10
92.40246338532913
 20
-869.8529914863195
 30
0.0
 10
92.42726617437077
 20
-869.8342391566941
 30
0.0
 10
92.45129734302553
 20
-869.8144445904466
 30
0.0
 10
92.47438055119068
 20
-869.7936150242779
 30
0.0
 10
92.49637564576805
 20
-869.7717582314875
 30
0.0
 10
92.51700369834379
 20
-869.7487377411725
 30
0.0
 10
92.53599986837523
 20
-869.7243798787865
 30
0.0
 10
92.55385621548513
 20
-869.6990042385007
 30
0.0
 10
92.57102329513415
 20
-869.6729579745045
 30
0.0
 10
92.58714867155142
 20
-869.6457968960063
 30
0.0
 10
92.60160654787937
 20
-869.6174622396276
 30
0.0
 10
92.6146138193843
 20
-869.5879127310075
 30
0.0
 10
92.62619655344783
 20
-869.5575000171804
 30
0.0
 10
92.63676478980116
 20
-869.5259218060287
 30
0.0
 10
92.64649026653792
 20
-869.4935519474773
 30
0.0
 10
92.6550176200546
 20
-869.4598728097556
 30
0.0
 10
92.66168488121619
 20
-869.4253348425816
 30
0.0
 10
92.6655029556193
 20
-869.4019090596005
 30
0.0
 10
92.66741281414215
 20
-869.3901911288958
 30
0.0
 11
91.97536125932311
 21
-869.9524642088472
 31
0.0
 11
92.00637747609564
 21
-869.956053538272
 31
0.0
 11
92.03745932303575
 21
-869.9586336541331
 31
0.0
 11
92.06764787678483
 21
-869.959429548208
 31
0.0
 11
92.0978698058797
 21
-869.9586825638165
 31
0.0
 11
92.1277767659913
 21
-869.956636127078
 31
0.0
 11
92.157503756676
 21
-869.9530022607775
 31
0.0
 11
92.18617213268156
 21
-869.9476704596157
 31
0.0
 11
92.214539077789
 21
-869.9408100992572
 31
0.0
 11
92.24257809495673
 21
-869.9326834945897
 31
0.0
 11
92.27014668100311
 21
-869.923148587981
 31
0.0
 11
92.29739367552905
 21
-869.9119348435163
 31
0.0
 11
92.32406670335311
 21
-869.8993665411035
 31
0.0
 11
92.35069187658638
 21
-869.8854001552957
 31
0.0
 11
92.37655900780352
 21
-869.8701151444706
 31
0.0
 11
92.40229928937782
 21
-869.8527739895843
 31
0.0
 11
92.42710386841998
 21
-869.8340920263859
 31
0.0
 11
92.45114491788941
 21
-869.8142667145122
 31
0.0
 11
92.47426745359469
 21
-869.7933791474534
 31
0.0
 11
92.4961642833356
 21
-869.7715473403894
 31
0.0
 11
92.51674739163127
 21
-869.748496233607
 31
0.0
 11
92.53579012203635
 21
-869.7242382177507
 31
0.0
 11
92.55363263371001
 21
-869.6990519619683
 31
0.0
 11
92.5708203258307
 21
-869.6728194958397
 31
0.0
 11
92.58674527746737
 21
-869.645828978297
 31
0.0
 11
92.60132885717147
 21
-869.617335778575
 31
0.0
 11
92.6142632252707
 21
-869.5880446368318
 31
0.0
 11
92.62598459263496
 21
-869.5574282084366
 31
0.0
 11
92.63644634008492
 21
-869.5263501234222
 31
0.0
 11
92.64625106565586
 21
-869.4934756001404
 31
0.0
 11
92.65459699360713
 21
-869.4602257121304
 31
0.0
 11
92.66151248226473
 21
-869.4253168768879
 31
0.0
 11
92.66741281414215
 21
-869.3901911288958
 31
0.0
  0
SPLINE
  5
38B
330
4F
100
AcDbEntity
  8
0
  6
Continuous
 62
     7
100
AcDbSpline
210
0.0
220
0.0
230
1.0
 70
     8
 71
     3
 72
    24
 73
    20
 74
    18
 42
0.0000000001
 43
0.0000000001
 44
0.00000001
 40
0.0
 40
0.0
 40
0.0
 40
0.0
 40
0.0508778541447812
 40
0.1089926109576745
 40
0.176279618710299
 40
0.2552221642585682
 40
0.3541845089950996
 40
0.4528488093851407
 40
0.551867657234592
 40
0.6506946517291325
 40
0.749361737367462
 40
0.8484790128942085
 40
0.8597637687191023
 40
0.8858748027945554
 40
0.9251690320887034
 40
0.9761120724997898
 40
1.018785634648473
 40
1.058992235270789
 40
1.103714671429643
 40
1.103714671429643
 40
1.103714671429643
 40
1.103714671429643
 10
92.66741281414215
 20
-869.3901911288958
 30
0.0
 10
92.66946985053087
 20
-869.3733565193435
 30
0.0
 10
92.67387651764786
 20
-869.3372927332343
 30
0.0
 10
92.67812222679471
 20
-869.2786359604713
 30
0.0
 10
92.677053675881
 20
-869.2104306666384
 30
0.0
 10
92.66801873909122
 20
-869.1290617727807
 30
0.0
 10
92.64586789227852
 20
-869.0391352428974
 30
0.0
 10
92.60595358096376
 20
-868.9481776785498
 30
0.0
 10
92.55233341392865
 20
-868.864633536735
 30
0.0
 10
92.48516149828254
 20
-868.7914443154145
 30
0.0
 10
92.40661681163996
 20
-868.7306709331199
 30
0.0
 10
92.34534453360826
 20
-868.6969513930762
 30
0.0
 10
92.3041318606552
 20
-868.6776613982298
 30
0.0
 10
92.2805626836366
 20
-868.6677369854905
 30
0.0
 10
92.24420837294863
 20
-868.6541931979702
 30
0.0
 10
92.20194290402002
 20
-868.6408374276614
 30
0.0
 10
92.15878336072697
 20
-868.6294812462286
 30
0.0
 10
92.11708546213168
 20
-868.6210078904759
 30
0.0
 10
92.08917779998542
 20
-868.6162524707579
 30
0.0
 10
92.07448201764782
 20
-868.6137483336242
 30
0.0
 11
92.66741281414215
 21
-869.3901911288958
 31
0.0
 11
92.67319571339817
 21
-869.339642992248
 31
0.0
 11
92.67711181987397
 21
-869.2816603304473
 31
0.0
 11
92.6761356329532
 21
-869.214380404233
 31
0.0
 11
92.66724165201958
 21
-869.1359404743453
 31
0.0
 11
92.6431451778335
 21
-869.0399565923257
 31
0.0
 11
92.60372202689057
 21
-868.9495107005384
 31
0.0
 11
92.55003384394513
 21
-868.8663102724058
 31
0.0
 11
92.48323282750049
 21
-868.7934789670297
 31
0.0
 11
92.40534477974279
 21
-868.7329096199567
 31
0.0
 11
92.31881811803396
 21
-868.6845632537916
 31
0.0
 11
92.30858933852761
 21
-868.6797969361523
 31
0.0
 11
92.28456079933903
 21
-868.669578550519
 31
0.0
 11
92.24775341854905
 21
-868.6558216186226
 31
0.0
 11
92.1991881142385
 21
-868.6404396621947
 31
0.0
 11
92.15789396695214
 21
-868.6296773991264
 31
0.0
 11
92.11852649412727
 21
-868.6215059355497
 31
0.0
 11
92.07448201764782
 21
-868.6137483336242
 31
0.0
  0
SPLINE
  5
38C
330
4F
100
AcDbEntity
  8
0
  6
Continuous
 62
     7
100
AcDbSpline
210
0.0
220
0.0
230
1.0
 70
     8
 71
     3
 72
    39
 73
    35
 74
    33
 42
0.0000000001
 43
0.0000000001
 44
0.00000001
 40
0.0
 40
0.0
 40
0.0
 40
0.0
 40
0.0603117730424185
 40
0.1206030355235959
 40
0.1777326189681304
 40
0.2348694222641017
 40
0.2894329758053695
 40
0.3440033194640867
 40
0.3964207826227509
 40
0.4488221181918941
 40
0.4995937423645881
 40
0.5503796535558114
 40
0.5999419239007018
 40
0.6494961420458295
 40
0.6982209997603759
 40
0.7469416839836399
 40
0.7957559278396902
 40
0.8445839698097434
 40
0.8934927608125699
 40
0.9423836300948466
 40
0.9914996682909495
 40
1.04063606027569
 40
1.090544056852096
 40
1.140427671606427
 40
1.191601659114692
 40
1.242807508714828
 40
1.295979147159209
 40
1.349113714055927
 40
1.404216501571418
 40
1.45935878570372
 40
1.517299303939826
 40
1.575202549968164
 40
1.63556727717383
 40
1.695968970045326
 40
1.695968970045326
 40
1.695968970045326
 40
1.695968970045326
 10
92.18197961887927
 20
-868.1851029298778
 30
0.0
 10
92.2014374099833
 20
-868.1901587697959
 30
0.0
 10
92.2403463750718
 20
-868.2002687302644
 30
0.0
 10
92.29733988567756
 20
-868.2164923187587
 30
0.0
 10
92.35254891631345
 20
-868.2349302857483
 30
0.0
 10
92.40509356537889
 20
-868.2551364352973
 30
0.0
 10
92.45589317099348
 20
-868.2773426781336
 30
0.0
 10
92.50429273086424
 20
-868.3009847109774
 30
0.0
 10
92.55107896298266
 20
-868.3261926476323
 30
0.0
 10
92.59553393183737
 20
-868.3529539567626
 30
0.0
 10
92.63798274898286
 20
-868.3818394144566
 30
0.0
 10
92.6781514693353
 20
-868.4122674910918
 30
0.0
 10
92.71655261275266
 20
-868.4442669493726
 30
0.0
 10
92.75276962796985
 20
-868.4777227074313
 30
0.0
 10
92.78686821135005
 20
-868.5129479236914
 30
0.0
 10
92.81873401476076
 20
-868.5498833108912
 30
0.0
 10
92.84836357520041
 20
-868.588677298925
 30
0.0
 10
92.87590137584576
 20
-868.6290501287837
 30
0.0
 10
92.90149206199854
 20
-868.6707139263957
 30
0.0
 10
92.9249007059392
 20
-868.7137586025697
 30
0.0
 10
92.94581080955894
 20
-868.7581544245697
 30
0.0
 10
92.96452618655043
 20
-868.8038773926186
 30
0.0
 10
92.98121676137559
 20
-868.850649572385
 30
0.0
 10
92.99569635445555
 20
-868.8988702343472
 30
0.0
 10
93.00750974288033
 20
-868.9482556781129
 30
0.0
 10
93.01730556280276
 20
-868.9991832503313
 30
0.0
 10
93.0255402560964
 20
-869.0510487704487
 30
0.0
 10
93.03159192619174
 20
-869.1045362871746
 30
0.0
 10
93.0345916477174
 20
-869.1589402525758
 30
0.0
 10
93.03523934806772
 20
-869.2150081625762
 30
0.0
 10
93.03422782798133
 20
-869.2720035672211
 30
0.0
 10
93.03096852109876
 20
-869.3306691796205
 30
0.0
 10
93.02490166135007
 20
-869.3899308993311
 30
0.0
 10
93.01985368497357
 20
-869.429868485282
 30
0.0
 10
93.01732892421205
 20
-869.4498433905501
 30
0.0
 11
92.18197961887927
 21
-868.1851029298778
 31
0.0
 11
92.24029417335726
 21
-868.2004952235195
 31
0.0
 11
92.2982178287869
 21
-868.2172250314455
 31
0.0
 11
92.35240235037844
 21
-868.2353310228418
 31
0.0
 11
92.40572770284683
 21
-868.2558498209305
 31
0.0
 11
92.45572929571372
 21
-868.2776906562127
 31
0.0
 11
92.50476910402449
 21
-868.3016284841817
 31
0.0
 11
92.55087879901747
 21
-868.326558114577
 31
0.0
 11
92.59573335519836
 21
-868.3536499723805
 31
0.0
 11
92.63772731788436
 21
-868.3821852999423
 31
0.0
 11
92.67822913349005
 21
-868.4128253343445
 31
0.0
 11
92.71627705125583
 21
-868.444586546466
 31
0.0
 11
92.75264776177784
 21
-868.4782435212572
 31
0.0
 11
92.78652584273026
 21
-868.5132633355098
 31
0.0
 11
92.81833805421613
 21
-868.5501643960848
 31
0.0
 11
92.84800612116133
 21
-868.5889282478926
 31
0.0
 11
92.87555987377053
 21
-868.6292391446797
 31
0.0
 11
92.9011235502545
 21
-868.670935286971
 31
0.0
 11
92.92444468035453
 21
-868.7139055323745
 31
0.0
 11
92.94542025709531
 21
-868.7583173594983
 31
0.0
 11
92.96408142515175
 21
-868.8037722362889
 31
0.0
 11
92.9808161827352
 21
-868.8507909135448
 31
0.0
 11
92.99512129401141
 21
-868.8985793934571
 31
0.0
 11
93.00713355079331
 21
-868.9483235658244
 31
0.0
 11
93.01691310108129
 21
-868.9985868668444
 31
0.0
 11
93.02514893268271
 21
-869.0511168031921
 31
0.0
 11
93.03101908102848
 21
-869.1039261163642
 31
0.0
 11
93.03419131344253
 21
-869.1589375163962
 31
0.0
 11
93.03496595037362
 21
-869.2140743592234
 31
0.0
 11
93.03386301328118
 21
-869.2720043789303
 31
0.0
 11
93.03057580674557
 21
-869.3298142411842
 31
0.0
 11
93.02466624552986
 21
-869.3898890060764
 31
0.0
 11
93.01732892421205
 21
-869.4498433905501
 31
0.0
  0
SPLINE
  5
38D
330
4F
100
AcDbEntity
  8
0
  6
Continuous
 62
     7
100
AcDbSpline
210
0.0
220
0.0
230
1.0
 70
     8
 71
     3
 72
    37
 73
    33
 74
    31
 42
0.0000000001
 43
0.0000000001
 44
0.00000001
 40
0.0
 40
0.0
 40
0.0
 40
0.0
 40
0.0124083622938781
 40
0.0340354548869176
 40
0.063818064541305
 40
0.1007066596832774
 40
0.1436704959846179
 40
0.1917030036856435
 40
0.2438287472598553
 40
0.2991127560966219
 40
0.3566732199307535
 40
0.4722610300418727
 40
0.5874331804942844
 40
0.702395529948303
 40
0.8176981844911965
 40
0.8265720949640578
 40
0.8498622721529295
 40
0.8857629960571399
 40
0.9325515112446672
 40
0.9886119963467785
 40
1.052466852879931
 40
1.12281745784894
 40
1.198596262121924
 40
1.279031092406981
 40
1.34653902492683
 40
1.40941692895144
 40
1.466869850766884
 40
1.517948504072885
 40
1.561580910432556
 40
1.596597982267299
 40
1.62175420766923
 40
1.635746639133261
 40
1.635746639133261
 40
1.635746639133261
 40
1.635746639133261
 10
93.01732892421205
 20
-869.4498433905501
 30
0.0
 10
93.01670183389533
 20
-869.4539316874669
 30
0.0
 10
93.01498175966796
 20
-869.4651456609128
 30
0.0
 10
93.01172280342062
 20
-869.4861676251777
 30
0.0
 10
93.00668071813502
 20
-869.5151674397353
 30
0.0
 10
92.99969152489092
 20
-869.5510409591177
 30
0.0
 10
92.99048388128774
 20
-869.5926684490526
 30
0.0
 10
92.97882388179
 20
-869.6389372169779
 30
0.0
 10
92.9644600133858
 20
-869.6887319672551
 30
0.0
 10
92.94715665360893
 20
-869.7409480962913
 30
0.0
 10
92.91986799411069
 20
-869.8120585150598
 30
0.0
 10
92.87866133677474
 20
-869.8991050667638
 30
0.0
 10
92.8183047936518
 20
-869.9974976587938
 30
0.0
 10
92.74749946827475
 20
-870.088769329883
 30
0.0
 10
92.68972234301759
 20
-870.1439629468837
 30
0.0
 10
92.65338268676932
 20
-870.1770623365229
 30
0.0
 10
92.63605642401487
 20
-870.1917221171691
 30
0.0
 10
92.60827463830574
 20
-870.2135561440966
 30
0.0
 10
92.57061422521177
 20
-870.2404371200439
 30
0.0
 10
92.5237413739356
 20
-870.2703357044628
 30
0.0
 10
92.46827370610401
 20
-870.3011797309703
 30
0.0
 10
92.4048324894112
 20
-870.3309025098367
 30
0.0
 10
92.33403472175826
 20
-870.3574541971486
 30
0.0
 10
92.26197731921215
 20
-870.3771351798621
 30
0.0
 10
92.1927438348365
 20
-870.3895648743501
 30
0.0
 10
92.1304547776265
 20
-870.396346035222
 30
0.0
 10
92.07334782001341
 20
-870.398999878852
 30
0.0
 10
92.02260616072
 20
-870.3986285627616
 30
0.0
 10
91.97941435913111
 20
-870.3962821011248
 30
0.0
 10
91.94495308220837
 20
-870.3930712908963
 30
0.0
 10
91.92042879440216
 20
-870.3899350622361
 30
0.0
 10
91.90750142366095
 20
-870.3881540783976
 30
0.0
 10
91.90288094971402
 20
-870.3875175228604
 30
0.0
 11
93.01732892421205
 21
-869.4498433905501
 31
0.0
 11
93.01544526182597
 21
-869.4621079439798
 31
0.0
 11
93.01208435524887
 21
-869.4834722937478
 31
0.0
 11
93.00699806059237
 21
-869.51281736905
 31
0.0
 11
92.99993823396797
 21
-869.5490240990816
 31
0.0
 11
92.99065673148725
 21
-869.5909734130382
 31
0.0
 11
92.97890540926178
 21
-869.6375462401159
 31
0.0
 11
92.96443612340312
 21
-869.6876235095093
 31
0.0
 11
92.94700073002282
 21
-869.7400861504144
 31
0.0
 11
92.92635108523245
 21
-869.7938150920272
 31
0.0
 11
92.87676880299296
 21
-869.8982284012086
 31
0.0
 11
92.81651640835935
 21
-869.9963827346878
 31
0.0
 11
92.74546669680376
 21
-870.0867612735112
 31
0.0
 11
92.66349246379832
 21
-870.1678471987252
 31
0.0
 11
92.65691532878405
 21
-870.1738043441896
 31
0.0
 11
92.63919697025787
 21
-870.188920300151
 31
0.0
 11
92.610984095398
 21
-870.2111215539217
 31
0.0
 11
92.57292341138273
 21
-870.2383345928138
 31
0.0
 11
92.52566162539038
 21
-870.2684859041401
 31
0.0
 11
92.46984544459917
 21
-870.2995019752123
 31
0.0
 11
92.40612157618745
 21
-870.329309293343
 31
0.0
 11
92.33513672733345
 21
-870.3558343458448
 31
0.0
 11
92.25753760521548
 21
-870.3770036200294
 31
0.0
 11
92.1911111610088
 21
-870.3890389207387
 31
0.0
 11
92.12860481588785
 21
-870.3958644342101
 31
0.0
 11
92.07121485777674
 21
-870.3985534736549
 31
0.0
 11
92.02013757459963
 21
-870.3981793522839
 31
0.0
 11
91.97656925428066
 21
-870.395815383308
 31
0.0
 11
91.94170618474396
 21
-870.3925348799382
 31
0.0
 11
91.9167446539137
 21
-870.3894111553853
 31
0.0
 11
91.90288094971402
 21
-870.3875175228604
 31
0.0
  0
ENDBLK
  5
51
330
4F
100
AcDbEntity
  8
0
100
AcDbBlockEnd
  0
BLOCK
  5
53
330
52
100
AcDbEntity
  8
0
100
AcDbBlockBegin
  2
_X0
 70
     0
 71
     0
 10
337.961464640079
 20
-415.845958
 30
0.0
  3
_X0
  1

  0
LINE
  5
38E
330
52
100
AcDbEntity
  8
LC-003-005-----0
  6
Continuous
 62
     2
100
AcDbLine
 10
-44.04776099999992
 20
68.473907
 30
0.0
 11
-41.72823899999992
 21
70.793429
 31
0.0
  0
LINE
  5
38F
330
52
100
AcDbEntity
  8
LC-003-005-----0
  6
Continuous
 62
     2
100
AcDbLine
 10
-43.09121599999992
 20
66.60202500000003
 30
0.0
 11
-42.20445099999995
 21
67.48879
 31
0.0
  0
LINE
  5
390
330
52
100
AcDbEntity
  8
LC-003-005-----0
  6
Continuous
 62
     2
100
AcDbLine
 10
-56.99637900000005
 20
32.897873
 30
0.0
 11
-56.19726400000002
 21
33.69698700000004
 31
0.0
  0
LINE
  5
391
330
52
100
AcDbEntity
  8
LC-003-005-----0
  6
Continuous
 62
     2
100
AcDbLine
 10
-56.36509599999999
 20
30.70072800000003
 30
0.0
 11
-56.19726400000002
 21
30.86856
 31
0.0
  0
ENDBLK
  5
54
330
52
100
AcDbEntity
  8
0
100
AcDbBlockEnd
  0
BLOCK
  5
56
330
55
100
AcDbEntity
  8
0
100
AcDbBlockBegin
  2
_X1
 70
     0
 71
     0
 10
337.961464640079
 20
-415.845958
 30
0.0
  3
_X1
  1

  0
LINE
  5
392
330
55
100
AcDbEntity
  8
LC-003-005-----0
  6
Continuous
 62
     2
100
AcDbLine
 10
41.56575099999998
 20
69.23460600000004
 30
0.0
 11
43.1246910000001
 21
70.79354599999999
 31
0.0
  0
LINE
  5
393
330
55
100
AcDbEntity
  8
LC-003-005-----0
  6
Continuous
 62
     2
100
AcDbLine
 10
42.32051100000001
 20
67.16093800000004
 30
0.0
 11
43.93481299999996
 21
68.775241
 31
0.0
  0
LINE
  5
394
330
55
100
AcDbEntity
  8
LC-003-005-----0
  6
Continuous
 62
     2
100
AcDbLine
 10
44.36496599999998
 20
66.37696700000004
 30
0.0
 11
44.689573
 21
66.701573
 31
0.0
  0
LINE
  5
395
330
55
100
AcDbEntity
  8
LC-003-005-----0
  6
Continuous
 62
     2
100
AcDbLine
 10
56.19404700000007
 20
32.951213
 30
0.0
 11
56.76572799999997
 21
33.52289400000001
 31
0.0
  0
LINE
  5
396
330
55
100
AcDbEntity
  8
LC-003-005-----0
  6
Continuous
 62
     2
100
AcDbLine
 10
56.71064800000011
 20
30.639387
 30
0.0
 11
57.520487
 21
31.44922600000001
 31
0.0
  0
ENDBLK
  5
57
330
55
100
AcDbEntity
  8
0
100
AcDbBlockEnd
  0
BLOCK
  5
5C
330
58
100
AcDbEntity
  8
0
100
AcDbBlockBegin
  2
TOP
 70
     0
 71
     0
 10
0.00000000000004
 20
-159.9823824999999
 30
0.0
  3
TOP
  1

  0
INSERT
  5
59
330
58
100
AcDbEntity
  8
0
100
AcDbBlockReference
  2
Draufsicht
 10
-130.1283278467236
 20
-1032.957465738946
 30
0.0
  0
INSERT
  5
5A
330
58
100
AcDbEntity
  8
LC-003-005-----0
100
AcDbBlockReference
  2
_X0
 10
337.961464640079
 20
-415.845958
 30
0.0
  0
INSERT
  5
5B
330
58
100
AcDbEntity
  8
LC-003-005-----0
100
AcDbBlockReference
  2
_X1
 10
337.961464640079
 20
-415.845958
 30
0.0
  0
POINT
  5
397
330
58
100
AcDbEntity
  8
LC-006-003-----0
 62
     7
100
AcDbPoint
 10
175.0000000000001
 20
-3.236469
 30
0.0
  0
POINT
  5
398
330
58
100
AcDbEntity
  8
LC-006-003-----0
 62
     7
100
AcDbPoint
 10
231.9937100000001
 20
0.0
 30
0.0
  0
POINT
  5
399
330
58
100
AcDbEntity
  8
LC-006-003-----0
 62
     7
100
AcDbPoint
 10
-231.995428
 20
0.0
 30
0.0
  0
POINT
  5
39A
330
58
100
AcDbEntity
  8
LC-006-003-----0
 62
     7
100
AcDbPoint
 10
177.0000000000001
 20
-6.236469
 30
0.0
  0
POINT
  5
39B
330
58
100
AcDbEntity
  8
LC-006-003-----0
 62
     7
100
AcDbPoint
 10
-177.0
 20
-6.236469
 30
0.0
  0
POINT
  5
39C
330
58
100
AcDbEntity
  8
LC-004-003-----0
 62
     7
100
AcDbPoint
 10
70.00123499999995
 20
-47.18897299999998
 30
0.0
  0
POINT
  5
39D
330
58
100
AcDbEntity
  8
LC-005-003-----0
 62
     7
100
AcDbPoint
 10
61.49931500000002
 20
-448.6024231309357
 30
0.0
  0
POINT
  5
39E
330
58
100
AcDbEntity
  8
LC-005-003-----0
 62
     7
100
AcDbPoint
 10
-61.5
 20
-448.6285911309357
 30
0.0
  0
POINT
  5
39F
330
58
100
AcDbEntity
  8
LC-005-003-----0
 62
     7
100
AcDbPoint
 10
45.0
 20
-457.6857571309357
 30
0.0
  0
POINT
  5
3A0
330
58
100
AcDbEntity
  8
LC-005-003-----0
 62
     7
100
AcDbPoint
 10
-45.0
 20
-457.6857571309357
 30
0.0
  0
POINT
  5
3A1
330
58
100
AcDbEntity
  8
LC-005-003-----0
 62
     7
100
AcDbPoint
 10
73.5
 20
-47.18575713093564
 30
0.0
  0
POINT
  5
3A2
330
58
100
AcDbEntity
  8
LC-005-003-----0
 62
     7
100
AcDbPoint
 10
-73.5
 20
-47.18575713093564
 30
0.0
  0
POINT
  5
3A3
330
58
100
AcDbEntity
  8
LC-005-003-----0
 62
     7
100
AcDbPoint
 10
77.75
 20
-47.18575713093564
 30
0.0
  0
POINT
  5
3A4
330
58
100
AcDbEntity
  8
LC-005-003-----0
 62
     7
100
AcDbPoint
 10
-73.5
 20
-47.18575713093564
 30
0.0
  0
POINT
  5
3A5
330
58
100
AcDbEntity
  8
LC-005-003-----0
 62
     7
100
AcDbPoint
 10
77.75
 20
-47.18575713093564
 30
0.0
  0
LINE
  5
3A6
330
58
100
AcDbEntity
  8
LC-001-002-----0
  6
Continuous
 62
     7
100
AcDbLine
 10
-47.69903140939145
 20
5.61161000000004
 30
0.0
 11
-40.21684100000005
 21
30.43110400000001
 31
0.0
  0
LINE
  5
3A7
330
58
100
AcDbEntity
  8
LC-001-002-----0
  6
Continuous
 62
     7
100
AcDbLine
 10
-46.0675195999048
 20
5.61161000000004
 30
0.0
 11
-38.57226899999989
 21
30.43110400000001
 31
0.0
  0
LINE
  5
3A8
330
58
100
AcDbEntity
  8
LC-001-002-----0
  6
Continuous
 62
     7
100
AcDbLine
 10
-40.74993395544563
 20
0.99366702886664
 30
0.0
 11
-40.74993395544561
 21
0.99366702939952
 31
0.0
  0
LINE
  5
3A9
330
58
100
AcDbEntity
  8
LC-001-002-----0
  6
Continuous
 62
     7
100
AcDbLine
 10
47.69592948831207
 20
5.61161000000004
 30
0.0
 11
40.21363099999996
 21
30.43121400000001
 31
0.0
  0
LINE
  5
3AA
330
58
100
AcDbEntity
  8
LC-001-002-----0
  6
Continuous
 62
     7
100
AcDbLine
 10
46.06441645721838
 20
5.61161000000004
 30
0.0
 11
38.56905900000004
 21
30.43121000000002
 31
0.0
  0
LINE
  5
3AB
330
58
100
AcDbEntity
  8
LC-001-002-----0
  6
Continuous
 62
     7
100
AcDbLine
 10
53.25000005355057
 20
0.99387005978444
 30
0.0
 11
53.25000005355059
 21
0.9938700603183
 31
0.0
  0
LINE
  5
3AC
330
58
100
AcDbEntity
  8
LC-001-002-----0
  6
Continuous
 62
     7
100
AcDbLine
 10
40.75000002781915
 20
0.99384285078331
 30
0.0
 11
40.75000002781917
 21
0.99384285131819
 31
0.0
  0
LINE
  5
3AD
330
58
100
AcDbEntity
  8
LC-001-002-----0
  6
Continuous
 62
     7
100
AcDbLine
 10
40.75000002781917
 20
0.99384285131819
 30
0.0
 11
40.75002399999676
 21
1.53480400053232
 31
0.0
  0
LINE
  5
3AE
330
58
100
AcDbEntity
  8
LC-001-002-----0
  6
Continuous
 62
     7
100
AcDbLine
 10
53.25000005355059
 20
0.9938700603183
 30
0.0
 11
53.25002399999676
 21
1.53427800053251
 31
0.0
  0
LINE
  5
3AF
330
58
100
AcDbEntity
  8
LC-001-002-----0
  6
Continuous
 62
     7
100
AcDbLine
 10
40.7499559999992
 20
0.00404200053018
 30
0.0
 11
40.73906199999647
 21
0.00404200053018
 31
0.0
  0
LINE
  5
3B0
330
58
100
AcDbEntity
  8
LC-001-002-----0
  6
Continuous
 62
     7
100
AcDbLine
 10
43.2499559999992
 20
0.00018900053183
 30
0.0
 11
40.99995999999692
 21
0.00030300053041
 31
0.0
  0
LINE
  5
3B1
330
58
100
AcDbEntity
  8
LC-001-002-----0
  6
Continuous
 62
     7
100
AcDbLine
 10
50.7499559999992
 20
-0.0001889994688
 30
0.0
 11
51.97878199999786
 21
-0.00025099946797
 31
0.0
  0
LINE
  5
3B2
330
58
100
AcDbEntity
  8
LC-001-002-----0
  6
Continuous
 62
     7
100
AcDbLine
 10
53.2499559999992
 20
-0.00030199946704
 30
0.0
 11
40.7499559999992
 21
0.00030200053007
 31
0.0
  0
LINE
  5
3B3
330
58
100
AcDbEntity
  8
LC-001-002-----0
  6
Continuous
 62
     7
100
AcDbLine
 10
40.7499559999992
 20
0.00030200053007
 30
0.0
 11
40.75000002781915
 21
0.99384285078331
 31
0.0
  0
LINE
  5
3B4
330
58
100
AcDbEntity
  8
LC-001-002-----0
  6
Continuous
 62
     7
100
AcDbLine
 10
53.2499559999992
 20
-0.00030199946704
 30
0.0
 11
53.25000005355057
 21
0.99387005978444
 31
0.0
  0
LINE
  5
3B5
330
58
100
AcDbEntity
  8
LC-001-002-----0
  6
Continuous
 62
     7
100
AcDbLine
 10
-53.2499339811734
 20
0.99363994147862
 30
0.0
 11
-53.24991000000273
 21
1.53480400053232
 31
0.0
  0
LINE
  5
3B6
330
58
100
AcDbEntity
  8
LC-001-002-----0
  6
Continuous
 62
     7
100
AcDbLine
 10
-40.74993395544561
 20
0.99366702939952
 30
0.0
 11
-40.74991000000273
 21
1.53427800053251
 31
0.0
  0
LINE
  5
3B7
330
58
100
AcDbEntity
  8
LC-001-002-----0
  6
Continuous
 62
     7
100
AcDbLine
 10
-40.74997800000028
 20
-0.00030199946704
 30
0.0
 11
-40.74993395544563
 21
0.99366702886664
 31
0.0
  0
LINE
  5
3B8
330
58
100
AcDbEntity
  8
LC-001-002-----0
  6
Continuous
 62
     7
100
AcDbLine
 10
-53.24997800000028
 20
0.00030200053007
 30
0.0
 11
-53.2499339811734
 21
0.99363994147862
 31
0.0
  0
LINE
  5
3B9
330
58
100
AcDbEntity
  8
LC-001-002-----0
  6
Continuous
 62
     7
100
AcDbLine
 10
-40.74997800000028
 20
-0.00030199946704
 30
0.0
 11
-53.24997800000028
 21
0.00030200053007
 31
0.0
  0
LINE
  5
3BA
330
58
100
AcDbEntity
  8
LC-001-002-----0
  6
Continuous
 62
     7
100
AcDbLine
 10
-43.24997800000028
 20
-0.0001889994688
 30
0.0
 11
-42.02115200000162
 21
-0.00025099946797
 31
0.0
  0
LINE
  5
3BB
330
58
100
AcDbEntity
  8
LC-001-002-----0
  6
Continuous
 62
     7
100
AcDbLine
 10
-50.74997800000028
 20
0.00018900053183
 30
0.0
 11
-52.99997400000257
 21
0.00030300053041
 31
0.0
  0
LINE
  5
3BC
330
58
100
AcDbEntity
  8
LC-001-002-----0
  6
Continuous
 62
     7
100
AcDbLine
 10
-53.24997800000028
 20
0.00404200053018
 30
0.0
 11
-53.26087200000302
 21
0.00404200053018
 31
0.0
  0
LINE
  5
3BD
330
58
100
AcDbEntity
  8
LC-001-002-----0
  6
Continuous
 62
     7
100
AcDbLine
 10
-100.2609720000005
 20
0.00412500053281
 30
0.0
 11
-100.2609720000005
 21
1.53870500053236
 31
0.0
  0
LINE
  5
3BE
330
58
100
AcDbEntity
  8
LC-001-002-----0
  6
Continuous
 62
     7
100
AcDbLine
 10
-87.76097200000049
 20
0.00417700053222
 30
0.0
 11
-87.76097200000049
 21
1.53867900053083
 31
0.0
  0
LINE
  5
3BF
330
58
100
AcDbEntity
  8
LC-001-002-----0
  6
Continuous
 62
     7
100
AcDbLine
 10
-100.2609720000005
 20
0.00412500053281
 30
0.0
 11
-87.76097200000049
 21
0.00417700053222
 31
0.0
  0
LINE
  5
3C0
330
58
100
AcDbEntity
  8
LC-001-002-----0
  6
Continuous
 62
     7
100
AcDbLine
 10
-97.76097200000049
 20
0.00412800053019
 30
0.0
 11
-98.98979800000279
 21
0.00412000053112
 31
0.0
  0
LINE
  5
3C1
330
58
100
AcDbEntity
  8
LC-001-002-----0
  6
Continuous
 62
     7
100
AcDbLine
 10
-90.26097200000049
 20
0.00417500053155
 30
0.0
 11
-88.01097600000185
 21
0.00418900053265
 31
0.0
  0
LINE
  5
3C2
330
58
100
AcDbEntity
  8
LC-001-002-----0
  6
Continuous
 62
     7
100
AcDbLine
 10
-100.2609680000028
 20
0.00412500053281
 30
0.0
 11
-100.2609680000028
 21
0.00404200053018
 31
0.0
  0
LINE
  5
3C3
330
58
100
AcDbEntity
  8
LC-001-002-----0
  6
Continuous
 62
     7
100
AcDbLine
 10
-90.86097200000268
 20
0.00404200053018
 30
0.0
 11
-87.76096800000278
 21
0.00404200053018
 31
0.0
  0
LINE
  5
3C4
330
58
100
AcDbEntity
  8
LC-001-002-----0
  6
Continuous
 62
     7
100
AcDbLine
 10
-100.2609680000028
 20
0.00404200053018
 30
0.0
 11
-97.16097200000195
 21
0.00404200053018
 31
0.0
  0
LINE
  5
3C5
330
58
100
AcDbEntity
  8
LC-001-002-----0
  6
Continuous
 62
     7
100
AcDbLine
 10
100.249926
 20
-0.00030199946704
 30
0.0
 11
100.2499939999975
 21
1.53427800053251
 31
0.0
  0
LINE
  5
3C6
330
58
100
AcDbEntity
  8
LC-001-002-----0
  6
Continuous
 62
     7
100
AcDbLine
 10
87.74992599999996
 20
0.00030200053007
 30
0.0
 11
87.74999399999751
 21
1.53480400053232
 31
0.0
  0
LINE
  5
3C7
330
58
100
AcDbEntity
  8
LC-001-002-----0
  6
Continuous
 62
     7
100
AcDbLine
 10
100.249926
 20
-0.00030199946704
 30
0.0
 11
87.74992599999996
 21
0.00030200053007
 31
0.0
  0
LINE
  5
3C8
330
58
100
AcDbEntity
  8
LC-001-002-----0
  6
Continuous
 62
     7
100
AcDbLine
 10
97.74992599999996
 20
-0.0001889994688
 30
0.0
 11
98.97875199999862
 21
-0.00025099946797
 31
0.0
  0
LINE
  5
3C9
330
58
100
AcDbEntity
  8
LC-001-002-----0
  6
Continuous
 62
     7
100
AcDbLine
 10
90.24992599999996
 20
0.00018900053183
 30
0.0
 11
87.99992999999768
 21
0.00030300053041
 31
0.0
  0
LINE
  5
3CA
330
58
100
AcDbEntity
  8
LC-001-002-----0
  6
Continuous
 62
     7
100
AcDbLine
 10
87.74992599999996
 20
0.00404200053018
 30
0.0
 11
87.73903199999722
 21
0.00404200053018
 31
0.0
  0
LINE
  5
3CB
330
58
100
AcDbEntity
  8
LC-001-002-----0
  6
Continuous
 62
     7
100
AcDbLine
 10
-45.0
 20
-152.1857571309357
 30
0.0
 11
45.00000499999999
 21
-152.1857571309357
 31
0.0
  0
LINE
  5
3CC
330
58
100
AcDbEntity
  8
LC-001-002-----0
  6
Continuous
 62
     7
100
AcDbLine
 10
46.0
 20
-225.6856091309356
 30
0.0
 11
46.0
 21
-204.9861411309358
 31
0.0
  0
LINE
  5
3CD
330
58
100
AcDbEntity
  8
LC-001-002-----0
  6
Continuous
 62
     7
100
AcDbLine
 10
61.0
 20
-201.5064201309358
 30
0.0
 11
-46.5
 21
-201.5064201309358
 31
0.0
  0
LINE
  5
3CE
330
58
100
AcDbEntity
  8
LC-001-002-----0
  6
Continuous
 62
     7
100
AcDbLine
 10
-46.0
 20
-225.6856091309356
 30
0.0
 11
-46.0
 21
-204.9861411309358
 31
0.0
  0
LINE
  5
3CF
330
58
100
AcDbEntity
  8
LC-001-002-----0
  6
Continuous
 62
     7
100
AcDbLine
 10
-61.0
 20
-201.5064201309357
 30
0.0
 11
-46.5
 21
-201.5064201309358
 31
0.0
  0
LINE
  5
3D0
330
58
100
AcDbEntity
  8
LC-001-002-----0
  6
Continuous
 62
     7
100
AcDbLine
 10
-61.0
 20
-201.5064201309357
 30
0.0
 11
-46.5
 21
-201.5064201309358
 31
0.0
  0
LINE
  5
3D1
330
58
100
AcDbEntity
  8
LC-001-002-----0
  6
Continuous
 62
     7
100
AcDbLine
 10
61.0
 20
-275.5062721309357
 30
0.0
 11
-46.5
 21
-275.5062721309357
 31
0.0
  0
LINE
  5
3D2
330
58
100
AcDbEntity
  8
LC-001-002-----0
  6
Continuous
 62
     7
100
AcDbLine
 10
-61.0
 20
-275.5062721309356
 30
0.0
 11
-46.5
 21
-275.5062721309357
 31
0.0
  0
LINE
  5
3D3
330
58
100
AcDbEntity
  8
LC-001-002-----0
  6
Continuous
 62
     7
100
AcDbLine
 10
46.0
 20
-250.3270831309358
 30
0.0
 11
46.0
 21
-229.6464731309358
 31
0.0
  0
LINE
  5
3D4
330
58
100
AcDbEntity
  8
LC-001-002-----0
  6
Continuous
 62
     7
100
AcDbLine
 10
46.0
 20
-250.3270831309358
 30
0.0
 11
46.0
 21
-229.6464731309358
 31
0.0
  0
LINE
  5
3D5
330
58
100
AcDbEntity
  8
LC-001-002-----0
  6
Continuous
 62
     7
100
AcDbLine
 10
-61.05226400000004
 20
-202.5036811309358
 30
0.0
 11
-46.89547100000004
 21
-203.9916201309358
 31
0.0
  0
LINE
  5
3D6
330
58
100
AcDbEntity
  8
LC-001-002-----0
  6
Continuous
 62
     7
100
AcDbLine
 10
61.05226399999992
 20
-202.5036811309358
 30
0.0
 11
46.89547199999993
 21
-203.9916201309358
 31
0.0
  0
LINE
  5
3D7
330
58
100
AcDbEntity
  8
LC-001-002-----0
  6
Continuous
 62
     7
100
AcDbLine
 10
-61.05226400000004
 20
-177.8433501309358
 30
0.0
 11
-46.89547100000004
 21
-179.3312891309357
 31
0.0
  0
LINE
  5
3D8
330
58
100
AcDbEntity
  8
LC-001-002-----0
  6
Continuous
 62
     7
100
AcDbLine
 10
-61.0
 20
-176.8460891309357
 30
0.0
 11
-46.5
 21
-176.8460891309357
 31
0.0
  0
LINE
  5
3D9
330
58
100
AcDbEntity
  8
LC-001-002-----0
  6
Continuous
 62
     7
100
AcDbLine
 10
-61.0
 20
-152.1857571309357
 30
0.0
 11
-45.0
 21
-152.1857571309357
 31
0.0
  0
LINE
  5
3DA
330
58
100
AcDbEntity
  8
LC-001-002-----0
  6
Continuous
 62
     7
100
AcDbLine
 10
61.05226399999992
 20
-177.8433501309358
 30
0.0
 11
46.89547199999993
 21
-179.3312891309357
 31
0.0
  0
LINE
  5
3DB
330
58
100
AcDbEntity
  8
LC-001-002-----0
  6
Continuous
 62
     7
100
AcDbLine
 10
-46.0
 20
-201.0064201309358
 30
0.0
 11
-46.0
 21
-180.3258101309358
 31
0.0
  0
LINE
  5
3DC
330
58
100
AcDbEntity
  8
LC-001-002-----0
  6
Continuous
 62
     7
100
AcDbLine
 10
-46.0
 20
-176.3460891309357
 30
0.0
 11
-46.0
 21
-155.6654791309357
 31
0.0
  0
LINE
  5
3DD
330
58
100
AcDbEntity
  8
LC-001-002-----0
  6
Continuous
 62
     7
100
AcDbLine
 10
61.0
 20
-176.8460891309357
 30
0.0
 11
-46.5
 21
-176.8460891309357
 31
0.0
  0
LINE
  5
3DE
330
58
100
AcDbEntity
  8
LC-001-002-----0
  6
Continuous
 62
     7
100
AcDbLine
 10
46.0
 20
-201.0064201309358
 30
0.0
 11
46.0
 21
-180.3258101309358
 31
0.0
  0
LINE
  5
3DF
330
58
100
AcDbEntity
  8
LC-001-002-----0
  6
Continuous
 62
     7
100
AcDbLine
 10
46.0
 20
-176.3460891309357
 30
0.0
 11
46.0
 21
-155.6654791309357
 31
0.0
  0
LINE
  5
3E0
330
58
100
AcDbEntity
  8
LC-001-002-----0
  6
Continuous
 62
     7
100
AcDbLine
 10
61.05226399999992
 20
-153.1830181309357
 30
0.0
 11
46.89547199999993
 21
-154.6709571309358
 31
0.0
  0
LINE
  5
3E1
330
58
100
AcDbEntity
  8
LC-001-002-----0
  6
Continuous
 62
     7
100
AcDbLine
 10
61.0
 20
-201.5064201309358
 30
0.0
 11
46.5
 21
-201.5064201309358
 31
0.0
  0
LINE
  5
3E2
330
58
100
AcDbEntity
  8
LC-001-002-----0
  6
Continuous
 62
     7
100
AcDbLine
 10
61.0
 20
-152.1857571309357
 30
0.0
 11
45.00000499999999
 21
-152.1857571309357
 31
0.0
  0
LINE
  5
3E3
330
58
100
AcDbEntity
  8
LC-001-002-----0
  6
Continuous
 62
     7
100
AcDbLine
 10
-61.05226400000004
 20
-153.1830181309357
 30
0.0
 11
-46.89547100000004
 21
-154.6709571309358
 31
0.0
  0
LINE
  5
3E4
330
58
100
AcDbEntity
  8
LC-001-002-----0
  6
Continuous
 62
     7
100
AcDbLine
 10
-46.0
 20
-154.6709571309358
 30
0.0
 11
46.0
 21
-154.6709571309358
 31
0.0
  0
LINE
  5
3E5
330
58
100
AcDbEntity
  8
LC-001-002-----0
  6
Continuous
 62
     7
100
AcDbLine
 10
-46.0
 20
-179.3312891309357
 30
0.0
 11
46.0
 21
-179.3312891309357
 31
0.0
  0
LINE
  5
3E6
330
58
100
AcDbEntity
  8
LC-001-002-----0
  6
Continuous
 62
     7
100
AcDbLine
 10
-46.0
 20
-203.9916201309358
 30
0.0
 11
46.0
 21
-203.9916201309358
 31
0.0
  0
LINE
  5
3E7
330
58
100
AcDbEntity
  8
1
  6
PHANTOM
 62
     2
100
AcDbLine
 10
-0.00000000018894
 20
-492.1855682941797
 30
0.0
 11
0.00002749726548
 21
-512.2071881946886
 31
0.0
  0
LINE
  5
3E8
330
58
100
AcDbEntity
  8
LC-005-002-----0
  6
Continuous
 62
     7
100
AcDbLine
 10
-62.50000000000034
 20
-492.1856541309356
 30
0.0
 11
-62.49997250254592
 21
-512.2072740314445
 31
0.0
  0
LINE
  5
3E9
330
58
100
AcDbEntity
  8
LC-005-002-----0
  6
Continuous
 62
     7
100
AcDbLine
 10
-62.50000000000034
 20
-492.1856541309356
 30
0.0
 11
-2.29995800000029
 21
-492.1856541309356
 31
0.0
  0
LINE
  5
3EA
330
58
100
AcDbEntity
  8
LC-005-002-----0
  6
Continuous
 62
     7
100
AcDbLine
 10
62.49999999999967
 20
-492.1857571309357
 30
0.0
 11
62.50002734934026
 21
-512.099531370463
 31
0.0
  0
LINE
  5
3EB
330
58
100
AcDbEntity
  8
LC-005-002-----0
  6
Continuous
 62
     7
100
AcDbLine
 10
2.79499899999973
 20
-492.1857571309357
 30
0.0
 11
62.49999999999967
 21
-492.1857571309357
 31
0.0
  0
LWPOLYLINE
  5
3EC
330
58
100
AcDbEntity
  8
LC-005-002-----0
  6
Continuous
 62
     7
100
AcDbPolyline
 90
        2
 70
     0
 43
1.0
 10
-0.00000000000034
 20
-492.1857571309357
 10
1.86498399999959
 20
-478.0197991309357
  0
LWPOLYLINE
  5
3ED
330
58
100
AcDbEntity
  8
LC-005-002-----0
  6
Continuous
 62
     7
100
AcDbPolyline
 90
        2
 70
     0
 43
1.0
 10
-0.00000000000034
 20
-492.1857571309357
 10
-1.86502200000041
 20
-478.0198041309357
  0
LWPOLYLINE
  5
3EE
330
58
100
AcDbEntity
  8
LC-005-002-----0
  6
Continuous
 62
     7
100
AcDbPolyline
 90
        2
 70
     0
 43
1.0
 10
-1.86502200000041
 20
-478.0198041309357
 10
1.86498399999959
 20
-478.0198041309357
  0
LWPOLYLINE
  5
3EF
330
58
100
AcDbEntity
  8
LC-006-005-----0
  6
Continuous
 62
     3
100
AcDbPolyline
 90
        2
 70
     0
 43
1.0
 10
1.82146399999965
 20
-478.3503691309356
 10
1.49089899999967
 20
-478.0198041309357
  0
LWPOLYLINE
  5
3F0
330
58
100
AcDbEntity
  8
LC-006-005-----0
  6
Continuous
 62
     3
100
AcDbPolyline
 90
        2
 70
     0
 43
1.0
 10
1.7556539999996
 20
-478.8502441309357
 10
0.92521399999964
 20
-478.0198041309357
  0
LWPOLYLINE
  5
3F1
330
58
100
AcDbEntity
  8
LC-006-005-----0
  6
Continuous
 62
     3
100
AcDbPolyline
 90
        2
 70
     0
 43
1.0
 10
1.68984399999965
 20
-479.3501201309356
 10
0.35952799999961
 20
-478.0198041309357
  0
LWPOLYLINE
  5
3F2
330
58
100
AcDbEntity
  8
LC-006-005-----0
  6
Continuous
 62
     3
100
AcDbPolyline
 90
        2
 70
     0
 43
1.0
 10
1.6240339999996
 20
-479.8499951309357
 10
-0.2061570000003
 20
-478.0198041309357
  0
LWPOLYLINE
  5
3F3
330
58
100
AcDbEntity
  8
LC-006-005-----0
  6
Continuous
 62
     3
100
AcDbPolyline
 90
        2
 70
     0
 43
1.0
 10
1.55822399999965
 20
-480.3498711309356
 10
-0.77184200000033
 20
-478.0198041309357
  0
LWPOLYLINE
  5
3F4
330
58
100
AcDbEntity
  8
LC-006-005-----0
  6
Continuous
 62
     3
100
AcDbPolyline
 90
        2
 70
     0
 43
1.0
 10
1.49241499999971
 20
-480.8497461309356
 10
-1.33752800000036
 20
-478.0198041309357
  0
LWPOLYLINE
  5
3F5
330
58
100
AcDbEntity
  8
LC-006-005-----0
  6
Continuous
 62
     3
100
AcDbPolyline
 90
        2
 70
     0
 43
1.0
 10
1.42660499999965
 20
-481.3496221309356
 10
-1.85923200000036
 20
-478.0637851309356
  0
LWPOLYLINE
  5
3F6
330
58
100
AcDbEntity
  8
LC-006-005-----0
  6
Continuous
 62
     3
100
AcDbPolyline
 90
        2
 70
     0
 43
1.0
 10
1.36079499999971
 20
-481.8494971309356
 10
-1.77346500000033
 20
-478.7152381309356
  0
LWPOLYLINE
  5
3F7
330
58
100
AcDbEntity
  8
LC-006-005-----0
  6
Continuous
 62
     3
100
AcDbPolyline
 90
        2
 70
     0
 43
1.0
 10
1.29498499999966
 20
-482.3493731309357
 10
-1.68769700000041
 20
-479.3666911309356
  0
LWPOLYLINE
  5
3F8
330
58
100
AcDbEntity
  8
LC-006-005-----0
  6
Continuous
 62
     3
100
AcDbPolyline
 90
        2
 70
     0
 43
1.0
 10
1.22917499999971
 20
-482.8492491309356
 10
-1.60193000000038
 20
-480.0181431309356
  0
LWPOLYLINE
  5
3F9
330
58
100
AcDbEntity
  8
LC-006-005-----0
  6
Continuous
 62
     3
100
AcDbPolyline
 90
        2
 70
     0
 43
1.0
 10
1.16336499999966
 20
-483.3491241309357
 10
-1.51616300000035
 20
-480.6695961309356
  0
LWPOLYLINE
  5
3FA
330
58
100
AcDbEntity
  8
LC-006-005-----0
  6
Continuous
 62
     3
100
AcDbPolyline
 90
        2
 70
     0
 43
1.0
 10
1.0975549999996
 20
-483.8490001309356
 10
-1.43039600000031
 20
-481.3210481309357
  0
LWPOLYLINE
  5
3FB
330
58
100
AcDbEntity
  8
LC-006-005-----0
  6
Continuous
 62
     3
100
AcDbPolyline
 90
        2
 70
     0
 43
1.0
 10
1.03174599999966
 20
-484.3488751309357
 10
-1.3446290000004
 20
-481.9725011309357
  0
LWPOLYLINE
  5
3FC
330
58
100
AcDbEntity
  8
LC-006-005-----0
  6
Continuous
 62
     3
100
AcDbPolyline
 90
        2
 70
     0
 43
1.0
 10
0.9659359999996
 20
-484.8487511309356
 10
-1.25886200000036
 20
-482.6239541309357
  0
LWPOLYLINE
  5
3FD
330
58
100
AcDbEntity
  8
LC-006-005-----0
  6
Continuous
 62
     3
100
AcDbPolyline
 90
        2
 70
     0
 43
1.0
 10
0.90012599999966
 20
-485.3486261309357
 10
-1.17309400000033
 20
-483.2754061309357
  0
LWPOLYLINE
  5
3FE
330
58
100
AcDbEntity
  8
LC-006-005-----0
  6
Continuous
 62
     3
100
AcDbPolyline
 90
        2
 70
     0
 43
1.0
 10
0.83431599999972
 20
-485.8485021309356
 10
-1.08732700000041
 20
-483.9268591309357
  0
LWPOLYLINE
  5
3FF
330
58
100
AcDbEntity
  8
LC-006-005-----0
  6
Continuous
 62
     3
100
AcDbPolyline
 90
        2
 70
     0
 43
1.0
 10
0.76850599999966
 20
-486.3483781309357
 10
-1.00156000000038
 20
-484.5783111309356
  0
LWPOLYLINE
  5
400
330
58
100
AcDbEntity
  8
LC-006-005-----0
  6
Continuous
 62
     3
100
AcDbPolyline
 90
        2
 70
     0
 43
1.0
 10
0.70269599999961
 20
-486.8482531309356
 10
-0.91579300000035
 20
-485.2297641309356
  0
LWPOLYLINE
  5
401
330
58
100
AcDbEntity
  8
LC-006-005-----0
  6
Continuous
 62
     3
100
AcDbPolyline
 90
        2
 70
     0
 43
1.0
 10
0.63688599999966
 20
-487.3481291309357
 10
-0.83002600000032
 20
-485.8812171309356
  0
LWPOLYLINE
  5
402
330
58
100
AcDbEntity
  8
LC-006-005-----0
  6
Continuous
 62
     3
100
AcDbPolyline
 90
        2
 70
     0
 43
1.0
 10
0.57107599999972
 20
-487.8480041309356
 10
-0.7442580000004
 20
-486.5326691309356
  0
LWPOLYLINE
  5
403
330
58
100
AcDbEntity
  8
LC-006-005-----0
  6
Continuous
 62
     3
100
AcDbPolyline
 90
        2
 70
     0
 43
1.0
 10
0.50526699999966
 20
-488.3478801309357
 10
-0.65849100000037
 20
-487.1841221309356
  0
LWPOLYLINE
  5
404
330
58
100
AcDbEntity
  8
LC-006-005-----0
  6
Continuous
 62
     3
100
AcDbPolyline
 90
        2
 70
     0
 43
1.0
 10
0.43945699999972
 20
-488.8477551309356
 10
-0.57272400000033
 20
-487.8355741309356
  0
LWPOLYLINE
  5
405
330
58
100
AcDbEntity
  8
LC-006-005-----0
  6
Continuous
 62
     3
100
AcDbPolyline
 90
        2
 70
     0
 43
1.0
 10
0.37364699999966
 20
-489.3476311309357
 10
-0.4869570000003
 20
-488.4870271309356
  0
LWPOLYLINE
  5
406
330
58
100
AcDbEntity
  8
LC-006-005-----0
  6
Continuous
 62
     3
100
AcDbPolyline
 90
        2
 70
     0
 43
1.0
 10
0.30783699999961
 20
-489.8475061309356
 10
-0.40119000000038
 20
-489.1384801309357
  0
LWPOLYLINE
  5
407
330
58
100
AcDbEntity
  8
LC-006-005-----0
  6
Continuous
 62
     3
100
AcDbPolyline
 90
        2
 70
     0
 43
1.0
 10
0.24202699999967
 20
-490.3473821309356
 10
-0.31542300000035
 20
-489.7899321309357
  0
LWPOLYLINE
  5
408
330
58
100
AcDbEntity
  8
LC-006-005-----0
  6
Continuous
 62
     3
100
AcDbPolyline
 90
        2
 70
     0
 43
1.0
 10
0.17621699999961
 20
-490.8472581309356
 10
-0.22965500000032
 20
-490.4413851309357
  0
LWPOLYLINE
  5
409
330
58
100
AcDbEntity
  8
LC-006-005-----0
  6
Continuous
 62
     3
100
AcDbPolyline
 90
        2
 70
     0
 43
1.0
 10
0.11040699999967
 20
-491.3471331309356
 10
-0.14388800000029
 20
-491.0928381309357
  0
LWPOLYLINE
  5
40A
330
58
100
AcDbEntity
  8
LC-006-005-----0
  6
Continuous
 62
     3
100
AcDbPolyline
 90
        2
 70
     0
 43
1.0
 10
0.04459799999961
 20
-491.8470091309357
 10
-0.05812100000037
 20
-491.7442901309357
  0
LINE
  5
40B
330
58
100
AcDbEntity
  8
1
  6
Continuous
 62
     7
100
AcDbLine
 10
-62.49997250254592
 20
-512.2072740314445
 30
0.0
 11
-44.9999730000004
 21
-509.7072741309356
 31
0.0
  0
LINE
  5
40C
330
58
100
AcDbEntity
  8
1
  6
Continuous
 62
     7
100
AcDbLine
 10
-44.9999730000004
 20
-509.7072741309356
 30
0.0
 11
-10.99997300000041
 21
-514.7072741309356
 31
0.0
  0
LINE
  5
40D
330
58
100
AcDbEntity
  8
1
  6
Continuous
 62
     7
100
AcDbLine
 10
-10.99997300000041
 20
-514.7072741309356
 30
0.0
 11
13.00002699999959
 21
-511.7072741309356
 31
0.0
  0
LINE
  5
40E
330
58
100
AcDbEntity
  8
1
  6
Continuous
 62
     7
100
AcDbLine
 10
13.00002699999959
 20
-511.7072741309356
 30
0.0
 11
32.00002699999959
 21
-514.7072741309356
 31
0.0
  0
LINE
  5
40F
330
58
100
AcDbEntity
  8
1
  6
Continuous
 62
     7
100
AcDbLine
 10
32.00002699999959
 20
-514.7072741309356
 30
0.0
 11
62.50002734934026
 21
-512.099531370463
 31
0.0
  0
LINE
  5
410
330
58
100
AcDbEntity
  8
LC-001-002-----0
  6
Continuous
 62
     7
100
AcDbLine
 10
49.99996700000008
 20
-32.736469
 30
0.0
 11
80.75
 21
-32.736469
 31
0.0
  0
LINE
  5
411
330
58
100
AcDbEntity
  8
LC-001-002-----0
  6
Continuous
 62
     7
100
AcDbLine
 10
43.99996700000008
 20
-31.736469
 30
0.0
 11
-43.99996699999997
 21
-31.736469
 31
0.0
  0
LINE
  5
412
330
58
100
AcDbEntity
  8
LC-001-002-----0
  6
Continuous
 62
     7
100
AcDbLine
 10
44.49996700000008
 20
-37.73642599999999
 30
0.0
 11
43.99996700000008
 21
-37.23642599999999
 31
0.0
  0
LINE
  5
413
330
58
100
AcDbEntity
  8
LC-001-002-----0
  6
Continuous
 62
     7
100
AcDbLine
 10
49.49996700000008
 20
-37.73642599999999
 30
0.0
 11
49.99996700000008
 21
-37.23642599999999
 31
0.0
  0
LINE
  5
414
330
58
100
AcDbEntity
  8
LC-001-002-----0
  6
Continuous
 62
     7
100
AcDbLine
 10
49.99996700000008
 20
-37.23642599999999
 30
0.0
 11
49.99996700000008
 21
-30.23647699999998
 31
0.0
  0
LINE
  5
415
330
58
100
AcDbEntity
  8
LC-001-002-----0
  6
Continuous
 62
     7
100
AcDbLine
 10
49.49996700000008
 20
-37.73642599999999
 30
0.0
 11
44.49996700000008
 21
-37.73642599999999
 31
0.0
  0
LINE
  5
416
330
58
100
AcDbEntity
  8
LC-001-002-----0
  6
Continuous
 62
     7
100
AcDbLine
 10
43.99996700000008
 20
-37.23642599999999
 30
0.0
 11
43.99996700000008
 21
-30.23643999999996
 31
0.0
  0
LINE
  5
417
330
58
100
AcDbEntity
  8
LC-001-002-----0
  6
DASHDOT
 62
     2
100
AcDbLine
 10
46.99996700000008
 20
12.26357400000001
 30
0.0
 11
46.99996700000008
 21
-37.73642599999999
 31
0.0
  0
LINE
  5
418
330
58
100
AcDbEntity
  8
LC-001-002-----0
  6
Continuous
 62
     7
100
AcDbLine
 10
-49.99996699999997
 20
-31.736469
 30
0.0
 11
-81.75
 21
-31.736469
 31
0.0
  0
LINE
  5
419
330
58
100
AcDbEntity
  8
LC-001-002-----0
  6
Continuous
 62
     7
100
AcDbLine
 10
-43.99996699999997
 20
-32.736469
 30
0.0
 11
43.99996700000008
 21
-32.736469
 31
0.0
  0
LINE
  5
41A
330
58
100
AcDbEntity
  8
LC-001-002-----0
  6
Continuous
 62
     7
100
AcDbLine
 10
-44.49996699999997
 20
-37.73642599999999
 30
0.0
 11
-43.99996699999997
 21
-37.23642599999999
 31
0.0
  0
LINE
  5
41B
330
58
100
AcDbEntity
  8
LC-001-002-----0
  6
Continuous
 62
     7
100
AcDbLine
 10
-49.49996699999997
 20
-37.73642599999999
 30
0.0
 11
-49.99996699999997
 21
-37.23642599999999
 31
0.0
  0
LINE
  5
41C
330
58
100
AcDbEntity
  8
LC-001-002-----0
  6
Continuous
 62
     7
100
AcDbLine
 10
-49.99996699999997
 20
-37.23642599999999
 30
0.0
 11
-49.99996699999997
 21
-30.23647699999998
 31
0.0
  0
LINE
  5
41D
330
58
100
AcDbEntity
  8
LC-001-002-----0
  6
Continuous
 62
     7
100
AcDbLine
 10
-49.49996699999997
 20
-37.73642599999999
 30
0.0
 11
-44.49996699999997
 21
-37.73642599999999
 31
0.0
  0
LINE
  5
41E
330
58
100
AcDbEntity
  8
LC-001-002-----0
  6
Continuous
 62
     7
100
AcDbLine
 10
-43.99996699999997
 20
-37.23642599999999
 30
0.0
 11
-43.99996699999997
 21
-30.23643999999996
 31
0.0
  0
LINE
  5
41F
330
58
100
AcDbEntity
  8
LC-001-002-----0
  6
DASHDOT
 62
     2
100
AcDbLine
 10
-46.99996699999997
 20
12.26357400000001
 30
0.0
 11
-46.99996699999997
 21
-37.73642599999999
 31
0.0
  0
LINE
  5
420
330
58
100
AcDbEntity
  8
LC-001-002-----0
  6
DASHDOT
 62
     2
100
AcDbLine
 10
-93.99993699999993
 20
12.26357400000001
 30
0.0
 11
-93.99993699999993
 21
-37.73642599999999
 31
0.0
  0
LINE
  5
421
330
58
100
AcDbEntity
  8
LC-001-002-----0
  6
DASHDOT
 62
     2
100
AcDbLine
 10
93.99993700000005
 20
12.26357400000001
 30
0.0
 11
93.99993700000005
 21
-37.73642599999999
 31
0.0
  0
LINE
  5
422
330
58
100
AcDbEntity
  8
LC-001-002-----0
  6
Continuous
 62
     7
100
AcDbLine
 10
-127.741663
 20
-3.236469
 30
0.0
 11
128.010255
 21
-3.236469
 31
0.0
  0
LINE
  5
423
330
58
100
AcDbEntity
  8
LC-001-002-----0
  6
Continuous
 62
     7
100
AcDbLine
 10
128.010255
 20
-6.236469
 30
0.0
 11
-128.015855
 21
-6.236469
 31
0.0
  0
LINE
  5
424
330
58
100
AcDbEntity
  8
LC-001-002-----0
  6
Continuous
 62
     7
100
AcDbLine
 10
-101.005186
 20
-14.99480499999999
 30
0.0
 11
101.005186
 21
-14.99480499999999
 31
0.0
  0
LINE
  5
425
330
58
100
AcDbEntity
  8
LC-001-002-----0
  6
Continuous
 62
     7
100
AcDbLine
 10
100.005186
 20
-15.99460999999997
 30
0.0
 11
-100.00518
 21
-15.99460999999997
 31
0.0
  0
LINE
  5
426
330
58
100
AcDbEntity
  8
LC-001-002-----0
  6
Continuous
 62
     7
100
AcDbLine
 10
-85.500001
 20
-30.23617300000001
 30
0.0
 11
85.500001
 21
-30.23617300000001
 31
0.0
  0
LINE
  5
427
330
58
100
AcDbEntity
  8
LC-001-002-----0
  6
Continuous
 62
     7
100
AcDbLine
 10
81.75
 20
-31.736469
 30
0.0
 11
49.99996700000008
 21
-31.736469
 31
0.0
  0
LINE
  5
428
330
58
100
AcDbEntity
  8
LC-001-002-----0
  6
Continuous
 62
     7
100
AcDbLine
 10
-80.75
 20
-32.736469
 30
0.0
 11
-49.99996699999997
 21
-32.736469
 31
0.0
  0
LINE
  5
429
330
58
100
AcDbEntity
  8
LC-001-002-----0
  6
Continuous
 62
     7
100
AcDbLine
 10
-91.49993699999993
 20
-37.73642599999999
 30
0.0
 11
-90.99993699999993
 21
-37.23642599999999
 31
0.0
  0
LINE
  5
42A
330
58
100
AcDbEntity
  8
LC-001-002-----0
  6
Continuous
 62
     7
100
AcDbLine
 10
-96.49993699999993
 20
-37.73642599999999
 30
0.0
 11
-96.99993699999993
 21
-37.23642599999999
 31
0.0
  0
LINE
  5
42B
330
58
100
AcDbEntity
  8
LC-001-002-----0
  6
Continuous
 62
     7
100
AcDbLine
 10
-96.99993699999993
 20
-37.23642599999999
 30
0.0
 11
-96.99993699999993
 21
-30.23647699999998
 31
0.0
  0
LINE
  5
42C
330
58
100
AcDbEntity
  8
LC-001-002-----0
  6
Continuous
 62
     7
100
AcDbLine
 10
-96.49993699999993
 20
-37.73642599999999
 30
0.0
 11
-91.49993699999993
 21
-37.73642599999999
 31
0.0
  0
LINE
  5
42D
330
58
100
AcDbEntity
  8
LC-001-002-----0
  6
Continuous
 62
     7
100
AcDbLine
 10
-90.99993699999993
 20
-37.23642599999999
 30
0.0
 11
-90.99993699999993
 21
-30.23643999999996
 31
0.0
  0
LINE
  5
42E
330
58
100
AcDbEntity
  8
LC-001-002-----0
  6
Continuous
 62
     7
100
AcDbLine
 10
91.49993700000005
 20
-37.73642599999999
 30
0.0
 11
90.99993700000005
 21
-37.23642599999999
 31
0.0
  0
LINE
  5
42F
330
58
100
AcDbEntity
  8
LC-001-002-----0
  6
Continuous
 62
     7
100
AcDbLine
 10
96.49993700000005
 20
-37.73642599999999
 30
0.0
 11
96.99993700000005
 21
-37.23642599999999
 31
0.0
  0
LINE
  5
430
330
58
100
AcDbEntity
  8
LC-001-002-----0
  6
Continuous
 62
     7
100
AcDbLine
 10
96.99993700000005
 20
-37.23642599999999
 30
0.0
 11
96.99993700000005
 21
-30.23646399999996
 31
0.0
  0
LINE
  5
431
330
58
100
AcDbEntity
  8
LC-001-002-----0
  6
Continuous
 62
     7
100
AcDbLine
 10
96.49993700000005
 20
-37.73642599999999
 30
0.0
 11
91.49993700000005
 21
-37.73642599999999
 31
0.0
  0
LINE
  5
432
330
58
100
AcDbEntity
  8
LC-001-002-----0
  6
Continuous
 62
     7
100
AcDbLine
 10
90.99993700000005
 20
-37.23642599999999
 30
0.0
 11
90.99993700000005
 21
-30.236334
 31
0.0
  0
LINE
  5
433
330
58
100
AcDbEntity
  8
LC-001-002-----0
  6
Continuous
 62
     7
100
AcDbLine
 10
140.919893
 20
-3.236469
 30
0.0
 11
231.9954280000001
 21
-3.236469
 31
0.0
  0
LINE
  5
434
330
58
100
AcDbEntity
  8
LC-001-002-----0
  6
Continuous
 62
     7
100
AcDbLine
 10
127.246697
 20
0.0
 30
0.0
 11
231.9937100000001
 21
0.0
 31
0.0
  0
LINE
  5
435
330
58
100
AcDbEntity
  8
LC-001-002-----0
  6
Continuous
 62
     7
100
AcDbLine
 10
221.9954280000001
 20
0.0
 30
0.0
 11
231.9954280000001
 21
0.0
 31
0.0
  0
LINE
  5
436
330
58
100
AcDbEntity
  8
LC-001-002-----0
  6
Continuous
 62
     7
100
AcDbLine
 10
231.9954280000001
 20
0.0
 30
0.0
 11
231.9954280000001
 21
-3.236469
 31
0.0
  0
LINE
  5
437
330
58
100
AcDbEntity
  8
LC-001-002-----0
  6
Continuous
 62
     7
100
AcDbLine
 10
127.246697
 20
0.0
 30
0.0
 11
-231.993711
 21
0.0
 31
0.0
  0
LINE
  5
438
330
58
100
AcDbEntity
  8
LC-001-002-----0
  6
DASHDOT
 62
     2
100
AcDbLine
 10
0.0
 20
-54.80111799999997
 30
0.0
 11
0.0
 21
-348.236469
 31
0.0
  0
LINE
  5
439
330
58
100
AcDbEntity
  8
LC-001-002-----0
  6
DASHDOT
 62
     2
100
AcDbLine
 10
0.0
 20
70.79348700000003
 30
0.0
 11
0.0
 21
-54.37111799999997
 31
0.0
  0
LINE
  5
43A
330
58
100
AcDbEntity
  8
LC-001-002-----0
  6
Continuous
 62
     7
100
AcDbLine
 10
101.005186
 20
-14.99480499999999
 30
0.0
 11
100.005186
 21
-15.99460999999997
 31
0.0
  0
LINE
  5
43B
330
58
100
AcDbEntity
  8
LC-001-002-----0
  6
Continuous
 62
     7
100
AcDbLine
 10
-101.005186
 20
-14.99480499999999
 30
0.0
 11
-100.00518
 21
-15.99461600000001
 31
0.0
  0
LINE
  5
43C
330
58
100
AcDbEntity
  8
LC-001-002-----0
  6
Continuous
 62
     7
100
AcDbLine
 10
-177.0
 20
-5.236469
 30
0.0
 11
-177.0
 21
-6.236469
 31
0.0
  0
LINE
  5
43D
330
58
100
AcDbEntity
  8
LC-001-002-----0
  6
Continuous
 62
     7
100
AcDbLine
 10
-128.010255
 20
-6.236469
 30
0.0
 11
-177.0
 21
-6.236469
 31
0.0
  0
LINE
  5
43E
330
58
100
AcDbEntity
  8
LC-001-002-----0
  6
Continuous
 62
     7
100
AcDbLine
 10
-127.599904
 20
-3.236469
 30
0.0
 11
-175.0
 21
-3.236469
 31
0.0
  0
LINE
  5
43F
330
58
100
AcDbEntity
  8
LC-001-002-----0
  6
Continuous
 62
     7
100
AcDbLine
 10
128.010255
 20
-6.236469
 30
0.0
 11
177.0000000000001
 21
-6.236469
 31
0.0
  0
LINE
  5
440
330
58
100
AcDbEntity
  8
LC-001-002-----0
  6
Continuous
 62
     7
100
AcDbLine
 10
127.736207
 20
-3.236469
 30
0.0
 11
175.0000000000001
 21
-3.236469
 31
0.0
  0
LINE
  5
441
330
58
100
AcDbEntity
  8
LC-001-002-----0
  6
Continuous
 62
     7
100
AcDbLine
 10
177.0000000000001
 20
-5.236469
 30
0.0
 11
177.0000000000001
 21
-6.236469
 31
0.0
  0
LINE
  5
442
330
58
100
AcDbEntity
  8
LC-001-002-----0
  6
Continuous
 62
     7
100
AcDbLine
 10
96.49993700000005
 20
-30.23645799999997
 30
0.0
 11
85.500001
 21
-30.23620999999997
 31
0.0
  0
LINE
  5
443
330
58
100
AcDbEntity
  8
LC-001-002-----0
  6
Continuous
 62
     7
100
AcDbLine
 10
99.50519700000007
 20
-30.236469
 30
0.0
 11
96.49993700000005
 21
-30.23646299999996
 31
0.0
  0
LINE
  5
444
330
58
100
AcDbEntity
  8
LC-001-002-----0
  6
Continuous
 62
     7
100
AcDbLine
 10
100.005186
 20
-15.99460999999997
 30
0.0
 11
100.0051970000001
 21
-29.736468
 31
0.0
  0
LINE
  5
445
330
58
100
AcDbEntity
  8
LC-001-002-----0
  6
Continuous
 62
     7
100
AcDbLine
 10
128.010255
 20
-6.236469
 30
0.0
 11
103.938662
 21
-14.99508900000001
 31
0.0
  0
LINE
  5
446
330
58
100
AcDbEntity
  8
LC-001-002-----0
  6
Continuous
 62
     7
100
AcDbLine
 10
-94.00348899999995
 20
-30.23658499999999
 30
0.0
 11
-85.500001
 21
-30.23617300000001
 31
0.0
  0
LINE
  5
447
330
58
100
AcDbEntity
  8
LC-001-002-----0
  6
Continuous
 62
     7
100
AcDbLine
 10
-99.50509599999998
 20
-30.236492
 30
0.0
 11
-94.00348999999994
 21
-30.23645899999997
 31
0.0
  0
LINE
  5
448
330
58
100
AcDbEntity
  8
LC-001-002-----0
  6
Continuous
 62
     7
100
AcDbLine
 10
-100.00518
 20
-15.99461600000001
 30
0.0
 11
-100.005098
 21
-29.73649499999999
 31
0.0
  0
LINE
  5
449
330
58
100
AcDbEntity
  8
LC-001-002-----0
  6
Continuous
 62
     7
100
AcDbLine
 10
-128.015855
 20
-6.236469
 30
0.0
 11
-103.951415
 21
-14.995091
 31
0.0
  0
LINE
  5
44A
330
58
100
AcDbEntity
  8
LC-001-002-----0
  6
Continuous
 62
     7
100
AcDbLine
 10
85.500001
 20
-31.736469
 30
0.0
 11
85.500001
 21
-30.23620999999997
 31
0.0
  0
LINE
  5
44B
330
58
100
AcDbEntity
  8
LC-001-002-----0
  6
Continuous
 62
     7
100
AcDbLine
 10
103.938662
 20
-14.99508900000001
 30
0.0
 11
101.005186
 21
-14.99480499999999
 31
0.0
  0
LINE
  5
44C
330
58
100
AcDbEntity
  8
LC-001-002-----0
  6
Continuous
 62
     7
100
AcDbLine
 10
-85.500001
 20
-31.736469
 30
0.0
 11
-85.500001
 21
-30.23617300000001
 31
0.0
  0
LINE
  5
44D
330
58
100
AcDbEntity
  8
LC-001-002-----0
  6
Continuous
 62
     7
100
AcDbLine
 10
81.75
 20
-31.736469
 30
0.0
 11
80.75
 21
-32.736469
 31
0.0
  0
LINE
  5
44E
330
58
100
AcDbEntity
  8
LC-001-002-----0
  6
Continuous
 62
     7
100
AcDbLine
 10
85.500001
 20
-31.736469
 30
0.0
 11
81.75
 21
-31.736469
 31
0.0
  0
LINE
  5
44F
330
58
100
AcDbEntity
  8
LC-001-002-----0
  6
Continuous
 62
     7
100
AcDbLine
 10
-81.75
 20
-31.736469
 30
0.0
 11
-80.75
 21
-32.736469
 31
0.0
  0
LINE
  5
450
330
58
100
AcDbEntity
  8
LC-001-002-----0
  6
Continuous
 62
     7
100
AcDbLine
 10
-103.951415
 20
-14.995091
 30
0.0
 11
-101.005186
 21
-14.99480499999999
 31
0.0
  0
LINE
  5
451
330
58
100
AcDbEntity
  8
LC-001-002-----0
  6
Continuous
 62
     7
100
AcDbLine
 10
-85.500001
 20
-31.736469
 30
0.0
 11
-81.75
 21
-31.736469
 31
0.0
  0
LINE
  5
452
330
58
100
AcDbEntity
  8
LC-001-002-----0
  6
Continuous
 62
     7
100
AcDbLine
 10
-221.995428
 20
-3.236469
 30
0.0
 11
-231.995428
 21
-3.236469
 31
0.0
  0
LINE
  5
453
330
58
100
AcDbEntity
  8
LC-001-002-----0
  6
Continuous
 62
     7
100
AcDbLine
 10
-221.995428
 20
0.0
 30
0.0
 11
-231.995428
 21
0.0
 31
0.0
  0
LINE
  5
454
330
58
100
AcDbEntity
  8
LC-001-002-----0
  6
Continuous
 62
     7
100
AcDbLine
 10
-65.6508849999999
 20
0.99361300000004
 30
0.0
 11
-59.70296099999996
 21
0.99362600000001
 31
0.0
  0
LINE
  5
455
330
58
100
AcDbEntity
  8
LC-001-002-----0
  6
Continuous
 62
     7
100
AcDbLine
 10
-33.1421509999999
 20
0.99368300000003
 30
0.0
 11
-18.78260799999998
 21
0.99371400000001
 31
0.0
  0
LINE
  5
456
330
58
100
AcDbEntity
  8
LC-001-002-----0
  6
Continuous
 62
     7
100
AcDbLine
 10
-16.56097799999998
 20
0.993719
 30
0.0
 11
-1.151297
 21
0.99375200000003
 31
0.0
  0
LINE
  5
457
330
58
100
AcDbEntity
  8
LC-001-002-----0
  6
Continuous
 62
     7
100
AcDbLine
 10
-18.78260799999998
 20
0.99371400000001
 30
0.0
 11
-33.1421509999999
 21
0.99368300000003
 31
0.0
  0
LINE
  5
458
330
58
100
AcDbEntity
  8
LC-001-002-----0
  6
Continuous
 62
     7
100
AcDbLine
 10
-1.151297
 20
0.99375200000003
 30
0.0
 11
-16.56097799999998
 21
0.993719
 31
0.0
  0
LINE
  5
459
330
58
100
AcDbEntity
  8
LC-001-002-----0
  6
Continuous
 62
     7
100
AcDbLine
 10
-59.70296099999996
 20
0.99362600000001
 30
0.0
 11
-65.6508849999999
 21
0.99361300000004
 31
0.0
  0
LINE
  5
45A
330
58
100
AcDbEntity
  8
LC-001-002-----0
  6
Continuous
 62
     7
100
AcDbLine
 10
-140.919893
 20
-3.236469
 30
0.0
 11
-221.995428
 21
-3.236469
 31
0.0
  0
LINE
  5
45B
330
58
100
AcDbEntity
  8
LC-001-002-----0
  6
Continuous
 62
     7
100
AcDbLine
 10
58.54979700000001
 20
0.99388200000004
 30
0.0
 11
53.25000005355057
 21
0.99387005978444
 31
0.0
  0
LINE
  5
45C
330
58
100
AcDbEntity
  8
LC-001-002-----0
  6
Continuous
 62
     7
100
AcDbLine
 10
40.75000002781915
 20
0.99384285078331
 30
0.0
 11
35.13087000000007
 21
0.993831
 31
0.0
  0
LINE
  5
45D
330
58
100
AcDbEntity
  8
LC-001-002-----0
  6
Continuous
 62
     7
100
AcDbLine
 10
33.1390110000001
 20
0.99382700000001
 30
0.0
 11
18.77947500000005
 21
0.99379500000003
 31
0.0
  0
LINE
  5
45E
330
58
100
AcDbEntity
  8
LC-001-002-----0
  6
Continuous
 62
     7
100
AcDbLine
 10
16.55784600000004
 20
0.99379100000004
 30
0.0
 11
1.14870299999995
 21
0.99375700000002
 31
0.0
  0
LINE
  5
45F
330
58
100
AcDbEntity
  8
LC-001-002-----0
  6
Continuous
 62
     7
100
AcDbLine
 10
79.48844399999996
 20
14.36525599999999
 30
0.0
 11
62.54234099999997
 21
60.92389400000002
 31
0.0
  0
LINE
  5
460
330
58
100
AcDbEntity
  8
LC-001-002-----0
  6
Continuous
 62
     7
100
AcDbLine
 10
-79.47633699999994
 20
14.40700000000004
 30
0.0
 11
-62.54563399999995
 21
60.923722
 31
0.0
  0
LINE
  5
461
330
58
100
AcDbEntity
  8
LC-001-002-----0
  6
Continuous
 62
     7
100
AcDbLine
 10
56.84483899999998
 20
5.61161000000004
 30
0.0
 11
47.69592948831207
 21
5.61161000000004
 31
0.0
  0
LINE
  5
462
330
58
100
AcDbEntity
  8
LC-001-002-----0
  6
Continuous
 62
     7
100
AcDbLine
 10
46.06441645721838
 20
5.61161000000004
 30
0.0
 11
34.14649599999996
 21
5.61161000000004
 31
0.0
  0
LINE
  5
463
330
58
100
AcDbEntity
  8
LC-001-002-----0
  6
Continuous
 62
     7
100
AcDbLine
 10
32.15463699999998
 20
5.61161000000004
 30
0.0
 11
18.26991600000008
 21
5.61161000000004
 31
0.0
  0
LINE
  5
464
330
58
100
AcDbEntity
  8
LC-001-002-----0
  6
Continuous
 62
     7
100
AcDbLine
 10
16.04828600000008
 20
5.61161000000004
 30
0.0
 11
1.14870299999995
 21
5.61161000000004
 31
0.0
  0
LINE
  5
465
330
58
100
AcDbEntity
  8
LC-001-002-----0
  6
Continuous
 62
     7
100
AcDbLine
 10
-1.151297
 20
5.61161000000004
 30
0.0
 11
-16.051423
 21
5.61161000000004
 31
0.0
  0
LINE
  5
466
330
58
100
AcDbEntity
  8
LC-001-002-----0
  6
Continuous
 62
     7
100
AcDbLine
 10
-18.273053
 20
5.61161000000004
 30
0.0
 11
-32.15775999999994
 21
5.61161000000004
 31
0.0
  0
LINE
  5
467
330
58
100
AcDbEntity
  8
LC-001-002-----0
  6
Continuous
 62
     7
100
AcDbLine
 10
-34.14961800000003
 20
5.61161000000004
 30
0.0
 11
-46.0675195999048
 21
5.61161000000004
 31
0.0
  0
LINE
  5
468
330
58
100
AcDbEntity
  8
LC-001-002-----0
  6
Continuous
 62
     7
100
AcDbLine
 10
-47.69903140939145
 20
5.61161000000004
 30
0.0
 11
-56.84792299999992
 21
5.61161000000004
 31
0.0
  0
LINE
  5
469
330
58
100
AcDbEntity
  8
LC-001-002-----0
  6
Continuous
 62
     7
100
AcDbLine
 10
-53.24993398117342
 20
0.993639940945
 30
0.0
 11
-58.55295999999999
 21
0.993628
 31
0.0
  0
LINE
  5
46A
330
58
100
AcDbEntity
  8
LC-001-002-----0
  6
Continuous
 62
     7
100
AcDbLine
 10
-68.60858199999996
 20
0.993606
 30
0.0
 11
-66.2461689999999
 21
0.99361200000004
 31
0.0
  0
LINE
  5
46B
330
58
100
AcDbEntity
  8
LC-001-002-----0
  6
Continuous
 62
     7
100
AcDbLine
 10
-231.995428
 20
0.0
 30
0.0
 11
-231.995428
 21
-3.236469
 31
0.0
  0
LINE
  5
46C
330
58
100
AcDbEntity
  8
LC-001-002-----0
  6
Continuous
 62
     7
100
AcDbLine
 10
66.65229499999998
 20
0.0
 30
0.0
 11
54.12036500000011
 21
30.43125200000003
 31
0.0
  0
LINE
  5
46D
330
58
100
AcDbEntity
  8
LC-001-002-----0
  6
Continuous
 62
     7
100
AcDbLine
 10
66.05701099999999
 20
0.0
 30
0.0
 11
53.525081
 21
30.43125100000003
 31
0.0
  0
LINE
  5
46E
330
58
100
AcDbEntity
  8
LC-001-002-----0
  6
Continuous
 62
     7
100
AcDbLine
 10
52.20037300000001
 20
35.09356500000001
 30
0.0
 11
43.593526
 21
55.99354600000004
 31
0.0
  0
LINE
  5
46F
330
58
100
AcDbEntity
  8
LC-001-002-----0
  6
Continuous
 62
     7
100
AcDbLine
 10
51.60508900000002
 20
35.09356300000002
 30
0.0
 11
42.99824200000001
 21
55.99354600000004
 31
0.0
  0
LINE
  5
470
330
58
100
AcDbEntity
  8
LC-001-002-----0
  6
Continuous
 62
     7
100
AcDbLine
 10
51.60508900000002
 20
35.09356300000002
 30
0.0
 11
42.99824200000001
 21
55.99354600000004
 31
0.0
  0
LINE
  5
471
330
58
100
AcDbEntity
  8
LC-001-002-----0
  6
Continuous
 62
     7
100
AcDbLine
 10
47.10951699999998
 20
35.09355099999999
 30
0.0
 11
39.39282300000002
 21
55.99354099999999
 31
0.0
  0
LINE
  5
472
330
58
100
AcDbEntity
  8
LC-001-002-----0
  6
Continuous
 62
     7
100
AcDbLine
 10
45.959518
 20
35.093548
 30
0.0
 11
38.24282300000004
 21
55.993539
 31
0.0
  0
LINE
  5
473
330
58
100
AcDbEntity
  8
LC-001-002-----0
  6
Continuous
 62
     7
100
AcDbLine
 10
60.06675900000005
 20
0.0
 30
0.0
 11
48.83093700000006
 21
30.43123800000001
 31
0.0
  0
LINE
  5
474
330
58
100
AcDbEntity
  8
LC-001-002-----0
  6
Continuous
 62
     7
100
AcDbLine
 10
58.91675799999996
 20
0.0
 30
0.0
 11
47.68093699999997
 21
30.43123500000002
 31
0.0
  0
LINE
  5
475
330
58
100
AcDbEntity
  8
LC-001-002-----0
  6
Continuous
 62
     7
100
AcDbLine
 10
48.03003411677802
 20
4.50334833601467
 30
0.0
 11
47.69592948831207
 21
5.61161000000004
 31
0.0
  0
LINE
  5
476
330
58
100
AcDbEntity
  8
LC-001-002-----0
  6
Continuous
 62
     7
100
AcDbLine
 10
46.389942815942
 20
4.5336848898112
 30
0.0
 11
46.06441645721838
 21
5.61161000000004
 31
0.0
  0
LINE
  5
477
330
58
100
AcDbEntity
  8
LC-001-002-----0
  6
Continuous
 62
     7
100
AcDbLine
 10
33.350865
 20
0.0
 30
0.0
 11
26.86384299999997
 21
30.43117799999999
 31
0.0
  0
LINE
  5
478
330
58
100
AcDbEntity
  8
LC-001-002-----0
  6
Continuous
 62
     7
100
AcDbLine
 10
35.34272500000009
 20
0.0
 30
0.0
 11
28.85570100000007
 21
30.43118300000003
 31
0.0
  0
LINE
  5
479
330
58
100
AcDbEntity
  8
LC-001-002-----0
  6
Continuous
 62
     7
100
AcDbLine
 10
38.80809600000009
 20
35.09352799999999
 30
0.0
 11
32.507428
 21
55.99353100000002
 31
0.0
  0
LINE
  5
47A
330
58
100
AcDbEntity
  8
LC-001-002-----0
  6
Continuous
 62
     7
100
AcDbLine
 10
37.16107100000011
 20
35.09352300000001
 30
0.0
 11
30.84940500000005
 21
55.99352900000002
 31
0.0
  0
LINE
  5
47B
330
58
100
AcDbEntity
  8
LC-001-002-----0
  6
Continuous
 62
     7
100
AcDbLine
 10
27.86183400000004
 20
35.09349800000001
 30
0.0
 11
23.4065710000001
 21
55.99351899999999
 31
0.0
  0
LINE
  5
47C
330
58
100
AcDbEntity
  8
LC-001-002-----0
  6
Continuous
 62
     7
100
AcDbLine
 10
25.86997600000007
 20
35.09349200000003
 30
0.0
 11
21.41471300000001
 21
55.993516
 31
0.0
  0
LINE
  5
47D
330
58
100
AcDbEntity
  8
LC-001-002-----0
  6
Continuous
 62
     7
100
AcDbLine
 10
15.01670300000001
 20
35.09346300000004
 30
0.0
 11
12.71046000000001
 21
55.99350400000003
 31
0.0
  0
LINE
  5
47E
330
58
100
AcDbEntity
  8
LC-001-002-----0
  6
Continuous
 62
     7
100
AcDbLine
 10
12.795073
 20
35.093457
 30
0.0
 11
10.48883100000001
 21
55.99350100000004
 31
0.0
  0
LINE
  5
47F
330
58
100
AcDbEntity
  8
LC-001-002-----0
  6
Continuous
 62
     7
100
AcDbLine
 10
18.88913700000001
 20
0.0
 30
0.0
 11
15.53117200000008
 21
30.43114600000001
 31
0.0
  0
LINE
  5
480
330
58
100
AcDbEntity
  8
LC-001-002-----0
  6
Continuous
 62
     7
100
AcDbLine
 10
16.667507
 20
0.0
 30
0.0
 11
13.30954299999996
 21
30.43114000000003
 31
0.0
  0
LINE
  5
481
330
58
100
AcDbEntity
  8
LC-001-002-----0
  6
Continuous
 62
     7
100
AcDbLine
 10
-12.79829600000005
 20
35.09342100000004
 30
0.0
 11
-10.49211099999991
 21
55.993472
 31
0.0
  0
LINE
  5
482
330
58
100
AcDbEntity
  8
LC-001-002-----0
  6
Continuous
 62
     7
100
AcDbLine
 10
-15.01992499999994
 20
35.09342100000004
 30
0.0
 11
-12.71374000000003
 21
55.99346900000001
 31
0.0
  0
LINE
  5
483
330
58
100
AcDbEntity
  8
LC-001-002-----0
  6
Continuous
 62
     7
100
AcDbLine
 10
-25.873199
 20
35.09342100000004
 30
0.0
 11
-21.41799299999991
 21
55.99345700000004
 31
0.0
  0
LINE
  5
484
330
58
100
AcDbEntity
  8
LC-001-002-----0
  6
Continuous
 62
     7
100
AcDbLine
 10
-27.86505699999998
 20
35.09342100000004
 30
0.0
 11
-23.409851
 21
55.99345500000004
 31
0.0
  0
LINE
  5
485
330
58
100
AcDbEntity
  8
LC-001-002-----0
  6
Continuous
 62
     7
100
AcDbLine
 10
-37.16429299999993
 20
35.09342100000004
 30
0.0
 11
-30.85268499999995
 21
55.99344400000001
 31
0.0
  0
LINE
  5
486
330
58
100
AcDbEntity
  8
LC-001-002-----0
  6
Continuous
 62
     7
100
AcDbLine
 10
-38.81131799999992
 20
35.09342100000004
 30
0.0
 11
-32.51070799999991
 21
55.99344200000002
 31
0.0
  0
LINE
  5
487
330
58
100
AcDbEntity
  8
LC-001-002-----0
  6
Continuous
 62
     7
100
AcDbLine
 10
-66.6553459999999
 20
0.0
 30
0.0
 11
-54.12357499999996
 21
30.43110400000001
 31
0.0
  0
LINE
  5
488
330
58
100
AcDbEntity
  8
LC-001-002-----0
  6
Continuous
 62
     7
100
AcDbLine
 10
-66.0600619999999
 20
0.0
 30
0.0
 11
-53.52829099999997
 21
30.43110400000001
 31
0.0
  0
LINE
  5
489
330
58
100
AcDbEntity
  8
LC-001-002-----0
  6
Continuous
 62
     7
100
AcDbLine
 10
-45.96274000000005
 20
35.09342100000004
 30
0.0
 11
-38.24610299999995
 21
55.99343400000004
 31
0.0
  0
LINE
  5
48A
330
58
100
AcDbEntity
  8
LC-001-002-----0
  6
Continuous
 62
     7
100
AcDbLine
 10
-47.11273999999992
 20
35.09342100000004
 30
0.0
 11
-39.39610299999993
 21
55.99343300000004
 31
0.0
  0
LINE
  5
48B
330
58
100
AcDbEntity
  8
LC-001-002-----0
  6
Continuous
 62
     7
100
AcDbLine
 10
-48.03320373179849
 20
4.50311268876651
 30
0.0
 11
-47.69903140939145
 21
5.61161000000004
 31
0.0
  0
LINE
  5
48C
330
58
100
AcDbEntity
  8
LC-001-002-----0
  6
Continuous
 62
     7
100
AcDbLine
 10
-46.39300261906374
 20
4.53381763889879
 30
0.0
 11
-46.0675195999048
 21
5.61161000000004
 31
0.0
  0
LINE
  5
48D
330
58
100
AcDbEntity
  8
LC-001-002-----0
  6
Continuous
 62
     7
100
AcDbLine
 10
-52.20359499999995
 20
35.09342100000004
 30
0.0
 11
-43.5968059999999
 21
55.993427
 31
0.0
  0
LINE
  5
48E
330
58
100
AcDbEntity
  8
LC-001-002-----0
  6
Continuous
 62
     7
100
AcDbLine
 10
-60.06982400000004
 20
0.0
 30
0.0
 11
-48.83414699999992
 21
30.43110400000001
 31
0.0
  0
LINE
  5
48F
330
58
100
AcDbEntity
  8
LC-001-002-----0
  6
Continuous
 62
     7
100
AcDbLine
 10
-16.67062799999997
 20
0.0
 30
0.0
 11
-13.31275300000004
 21
30.43110400000001
 31
0.0
  0
LINE
  5
490
330
58
100
AcDbEntity
  8
LC-001-002-----0
  6
Continuous
 62
     7
100
AcDbLine
 10
-18.89225799999997
 20
0.0
 30
0.0
 11
-15.53438199999994
 21
30.43110400000001
 31
0.0
  0
LINE
  5
491
330
58
100
AcDbEntity
  8
LC-001-002-----0
  6
Continuous
 62
     7
100
AcDbLine
 10
-35.34582999999998
 20
0.0
 30
0.0
 11
-28.85891099999992
 21
30.43110400000001
 31
0.0
  0
LINE
  5
492
330
58
100
AcDbEntity
  8
LC-001-002-----0
  6
Continuous
 62
     7
100
AcDbLine
 10
-33.353972
 20
0.0
 30
0.0
 11
-26.86705300000006
 21
30.43110400000001
 31
0.0
  0
LINE
  5
493
330
58
100
AcDbEntity
  8
LC-001-002-----0
  6
Continuous
 62
     7
100
AcDbLine
 10
-58.91982399999995
 20
0.0
 30
0.0
 11
-47.68414700000005
 21
30.43110400000001
 31
0.0
  0
LINE
  5
494
330
58
100
AcDbEntity
  8
LC-001-002-----0
  6
Continuous
 62
     7
100
AcDbLine
 10
-51.60831199999996
 20
35.09342100000004
 30
0.0
 11
-43.00152199999991
 21
55.99342799999999
 31
0.0
  0
LINE
  5
495
330
58
100
AcDbEntity
  8
LC-001-002-----0
  6
Continuous
 62
     7
100
AcDbLine
 10
1.14870299999995
 20
30.43110400000001
 30
0.0
 11
1.14870299999995
 21
0.0
 31
0.0
  0
LINE
  5
496
330
58
100
AcDbEntity
  8
LC-001-002-----0
  6
Continuous
 62
     7
100
AcDbLine
 10
-1.151297
 20
30.43110400000001
 30
0.0
 11
-1.151297
 21
0.0
 31
0.0
  0
LINE
  5
497
330
58
100
AcDbEntity
  8
LC-001-002-----0
  6
Continuous
 62
     7
100
AcDbLine
 10
-57.89420899999993
 20
30.43110400000001
 30
0.0
 11
57.89099900000008
 21
30.43110400000001
 31
0.0
  0
LINE
  5
498
330
58
100
AcDbEntity
  8
LC-001-002-----0
  6
Continuous
 62
     7
100
AcDbLine
 10
-56.19726400000002
 20
35.09342100000004
 30
0.0
 11
56.19404100000008
 21
35.09342100000004
 31
0.0
  0
LINE
  5
499
330
58
100
AcDbEntity
  8
LC-001-002-----0
  6
Continuous
 62
     7
100
AcDbLine
 10
-48.59028699999999
 20
55.99342000000002
 30
0.0
 11
48.58700699999997
 21
55.99355300000002
 31
0.0
  0
LINE
  5
49A
330
58
100
AcDbEntity
  8
LC-001-002-----0
  6
Continuous
 62
     7
100
AcDbLine
 10
-57.89420899999993
 20
30.43110400000001
 30
0.0
 11
-56.19726400000002
 21
30.730321
 31
0.0
  0
LINE
  5
49B
330
58
100
AcDbEntity
  8
LC-001-002-----0
  6
Continuous
 62
     7
100
AcDbLine
 10
-56.19726400000002
 20
35.09342100000004
 30
0.0
 11
-56.19726400000002
 21
30.730321
 31
0.0
  0
LINE
  5
49C
330
58
100
AcDbEntity
  8
LC-001-002-----0
  6
Continuous
 62
     7
100
AcDbLine
 10
-1.151297
 20
55.99348500000002
 30
0.0
 11
-1.151297
 21
35.09342100000004
 31
0.0
  0
LINE
  5
49D
330
58
100
AcDbEntity
  8
LC-001-002-----0
  6
Continuous
 62
     7
100
AcDbLine
 10
1.14870299999995
 20
55.99348800000001
 30
0.0
 11
1.14870299999995
 21
35.09342100000004
 31
0.0
  0
LINE
  5
49E
330
58
100
AcDbEntity
  8
LC-001-002-----0
  6
Continuous
 62
     7
100
AcDbLine
 10
57.99048400000004
 20
30.41372100000001
 30
0.0
 11
56.19405300000005
 21
30.73047500000001
 31
0.0
  0
LINE
  5
49F
330
58
100
AcDbEntity
  8
LC-001-002-----0
  6
Continuous
 62
     7
100
AcDbLine
 10
56.19404100000008
 20
35.09357600000004
 30
0.0
 11
56.19405300000005
 21
30.73047500000001
 31
0.0
  0
LINE
  5
4A0
330
58
100
AcDbEntity
  8
LC-001-002-----0
  6
Continuous
 62
     7
100
AcDbLine
 10
-44.84139300000004
 20
66.29342100000002
 30
0.0
 11
-42.48852799999997
 21
66.70829500000002
 31
0.0
  0
LINE
  5
4A1
330
58
100
AcDbEntity
  8
LC-001-002-----0
  6
Continuous
 62
     7
100
AcDbLine
 10
-42.48852799999997
 20
66.70829500000002
 30
0.0
 11
-41.00166000000002
 21
70.79343
 31
0.0
  0
LINE
  5
4A2
330
58
100
AcDbEntity
  8
LC-001-002-----0
  6
Continuous
 62
     7
100
AcDbLine
 10
-68.97022499999991
 20
0.0
 30
0.0
 11
-43.20352500000001
 21
70.79342700000001
 31
0.0
  0
LINE
  5
4A3
330
58
100
AcDbEntity
  8
LC-001-002-----0
  6
Continuous
 62
     7
100
AcDbLine
 10
44.83808499999998
 20
66.293544
 30
0.0
 11
42.48521900000003
 21
66.70841200000001
 31
0.0
  0
LINE
  5
4A4
330
58
100
AcDbEntity
  8
LC-001-002-----0
  6
Continuous
 62
     7
100
AcDbLine
 10
42.48521900000003
 20
66.70841200000001
 30
0.0
 11
40.99833999999999
 21
70.793543
 31
0.0
  0
LINE
  5
4A5
330
58
100
AcDbEntity
  8
LC-001-002-----0
  6
Continuous
 62
     7
100
AcDbLine
 10
68.96716700000002
 20
0.0
 30
0.0
 11
43.2002040000001
 21
70.79354599999999
 31
0.0
  0
LINE
  5
4A6
330
58
100
AcDbEntity
  8
LC-001-002-----0
  6
Continuous
 62
     7
100
AcDbLine
 10
-48.45026599999994
 20
70.79342000000003
 30
0.0
 11
48.44694500000003
 21
70.79355300000003
 31
0.0
  0
LINE
  5
4A7
330
58
100
AcDbEntity
  8
LC-001-002-----0
  6
Continuous
 62
     7
100
AcDbLine
 10
84.71701399999995
 20
0.0
 30
0.0
 11
79.48844399999996
 21
14.36525599999999
 31
0.0
  0
LINE
  5
4A8
330
58
100
AcDbEntity
  8
LC-001-002-----0
  6
Continuous
 62
     7
100
AcDbLine
 10
-84.720056
 20
0.0
 30
0.0
 11
-79.47633699999994
 21
14.40700000000004
 31
0.0
  0
LINE
  5
4A9
330
58
100
AcDbEntity
  8
LC-001-002-----0
  6
Continuous
 62
     7
100
AcDbLine
 10
-35.13401099999999
 20
0.99367900000004
 30
0.0
 11
-40.74993395544563
 21
0.99366702886664
 31
0.0
  0
LINE
  5
4AA
330
58
100
AcDbEntity
  8
LC-001-002-----0
  6
Continuous
 62
     7
100
AcDbLine
 10
-90.5014829999999
 20
-30.24411199999997
 30
0.0
 11
-87.00147400000003
 21
-30.24411199999997
 31
0.0
  0
LINE
  5
4AB
330
58
100
AcDbEntity
  8
LC-001-002-----0
  6
Continuous
 62
     7
100
AcDbLine
 10
3.30369400000006
 20
55.99349100000001
 30
0.0
 11
3.30365300000005
 21
70.79349100000002
 31
0.0
  0
LINE
  5
4AC
330
58
100
AcDbEntity
  8
LC-001-002-----0
  6
Continuous
 62
     7
100
AcDbLine
 10
-3.30697399999997
 20
55.99348200000003
 30
0.0
 11
-3.30697399999997
 21
70.79348200000004
 31
0.0
  0
LINE
  5
4AD
330
58
100
AcDbEntity
  8
LC-001-002-----0
  6
Continuous
 62
     7
100
AcDbLine
 10
-80.75
 20
-32.736469
 30
0.0
 11
-80.75
 21
-44.13170600226366
 31
0.0
  0
LINE
  5
4AE
330
58
100
AcDbEntity
  8
LC-004-006-MLN-0
  6
CENTER
 62
     2
100
AcDbLine
 10
0.0
 20
-159.7897571309357
 30
0.0
 11
0.0
 21
-472.1857571309357
 31
0.0
  0
LINE
  5
4AF
330
58
100
AcDbEntity
  8
LC-001-002-----0
  6
Continuous
 62
     7
100
AcDbLine
 10
-73.5
 20
-47.18575713093564
 30
0.0
 11
73.5
 21
-47.18575713093564
 31
0.0
  0
LINE
  5
4B0
330
58
100
AcDbEntity
  8
LC-001-002-----0
  6
Continuous
 62
     7
100
AcDbLine
 10
0.0
 20
-65.37228213093564
 30
0.0
 11
63.00000499999999
 21
-65.37228213093564
 31
0.0
  0
LINE
  5
4B1
330
58
100
AcDbEntity
  8
LC-001-002-----0
  6
Continuous
 62
     7
100
AcDbLine
 10
-63.00000499999999
 20
-65.37228213093564
 30
0.0
 11
0.0
 21
-65.37228213093564
 31
0.0
  0
LINE
  5
4B2
330
58
100
AcDbEntity
  8
LC-001-002-----0
  6
Continuous
 62
     7
100
AcDbLine
 10
-45.0
 20
-101.1861031309357
 30
0.0
 11
45.00000499999999
 21
-101.1861031309357
 31
0.0
  0
LINE
  5
4B3
330
58
100
AcDbEntity
  8
LC-001-002-----0
  6
Continuous
 62
     7
100
AcDbLine
 10
-46.0
 20
-425.9534601309357
 30
0.0
 11
46.0
 21
-425.9534601309357
 31
0.0
  0
LINE
  5
4B4
330
58
100
AcDbEntity
  8
LC-001-002-----0
  6
Continuous
 62
     7
100
AcDbLine
 10
-46.0
 20
-401.2931291309357
 30
0.0
 11
46.0
 21
-401.2931291309357
 31
0.0
  0
LINE
  5
4B5
330
58
100
AcDbEntity
  8
LC-001-002-----0
  6
Continuous
 62
     7
100
AcDbLine
 10
-61.0
 20
-300.1666031309356
 30
0.0
 11
46.5
 21
-300.1666031309356
 31
0.0
  0
LINE
  5
4B6
330
58
100
AcDbEntity
  8
LC-001-002-----0
  6
Continuous
 62
     7
100
AcDbLine
 10
-46.0
 20
-376.6327971309357
 30
0.0
 11
46.0
 21
-376.6327971309357
 31
0.0
  0
LINE
  5
4B7
330
58
100
AcDbEntity
  8
LC-001-002-----0
  6
Continuous
 62
     7
100
AcDbLine
 10
-46.0
 20
-351.9724661309357
 30
0.0
 11
46.0
 21
-351.9724661309357
 31
0.0
  0
LINE
  5
4B8
330
58
100
AcDbEntity
  8
LC-001-002-----0
  6
Continuous
 62
     7
100
AcDbLine
 10
-46.0
 20
-327.3121351309356
 30
0.0
 11
46.0
 21
-327.3121351309356
 31
0.0
  0
LINE
  5
4B9
330
58
100
AcDbEntity
  8
LC-001-002-----0
  6
Continuous
 62
     7
100
AcDbLine
 10
-46.0
 20
-302.6518031309357
 30
0.0
 11
46.0
 21
-302.6518031309357
 31
0.0
  0
LINE
  5
4BA
330
58
100
AcDbEntity
  8
LC-001-002-----0
  6
Continuous
 62
     7
100
AcDbLine
 10
-46.0
 20
-277.9914721309357
 30
0.0
 11
46.0
 21
-277.9914721309357
 31
0.0
  0
LINE
  5
4BB
330
58
100
AcDbEntity
  8
LC-001-002-----0
  6
Continuous
 62
     7
100
AcDbLine
 10
-46.0
 20
-253.3311411309356
 30
0.0
 11
46.0
 21
-253.3311411309356
 31
0.0
  0
LINE
  5
4BC
330
58
100
AcDbEntity
  8
LC-001-002-----0
  6
Continuous
 62
     7
100
AcDbLine
 10
-46.0
 20
-228.6708091309357
 30
0.0
 11
46.0
 21
-228.6708091309357
 31
0.0
  0
LINE
  5
4BD
330
58
100
AcDbEntity
  8
LC-001-002-----0
  6
Continuous
 62
     7
100
AcDbLine
 10
-46.0
 20
-451.6083131309357
 30
0.0
 11
46.0
 21
-451.6083131309357
 31
0.0
  0
LINE
  5
4BE
330
58
100
AcDbEntity
  8
LC-001-002-----0
  6
Continuous
 62
     7
100
AcDbLine
 10
45.0
 20
-452.1857571309357
 30
0.0
 11
-45.0
 21
-452.1857571309357
 31
0.0
  0
LINE
  5
4BF
330
58
100
AcDbEntity
  8
LC-001-002-----0
  6
Continuous
 62
     7
100
AcDbLine
 10
-46.5
 20
-448.1285911309357
 30
0.0
 11
46.5
 21
-448.1285911309357
 31
0.0
  0
LINE
  5
4C0
330
58
100
AcDbEntity
  8
LC-001-002-----0
  6
Continuous
 62
     7
100
AcDbLine
 10
-45.0
 20
-457.6857571309357
 30
0.0
 11
45.0
 21
-457.6857571309357
 31
0.0
  0
LINE
  5
4C1
330
58
100
AcDbEntity
  8
LC-001-002-----0
  6
Continuous
 62
     7
100
AcDbLine
 10
45.0
 20
-452.1857571309357
 30
0.0
 11
45.0
 21
-457.6857571309357
 31
0.0
  0
LINE
  5
4C2
330
58
100
AcDbEntity
  8
LC-001-002-----0
  6
Continuous
 62
     7
100
AcDbLine
 10
-45.0
 20
-452.1857571309357
 30
0.0
 11
-45.0
 21
-457.6857571309357
 31
0.0
  0
LINE
  5
4C3
330
58
100
AcDbEntity
  8
LC-001-002-----0
  6
Continuous
 62
     7
100
AcDbLine
 10
0.0
 20
-462.1857571309357
 30
0.0
 11
-42.0
 21
-462.1857571309357
 31
0.0
  0
LINE
  5
4C4
330
58
100
AcDbEntity
  8
LC-001-002-----0
  6
Continuous
 62
     7
100
AcDbLine
 10
-61.05226400000004
 20
-227.1828701309356
 30
0.0
 11
-46.89547100000004
 21
-228.6708091309357
 31
0.0
  0
LINE
  5
4C5
330
58
100
AcDbEntity
  8
LC-001-002-----0
  6
Continuous
 62
     7
100
AcDbLine
 10
-46.5
 20
-300.1666031309356
 30
0.0
 11
-61.0
 21
-300.1666031309356
 31
0.0
  0
LINE
  5
4C6
330
58
100
AcDbEntity
  8
LC-001-002-----0
  6
Continuous
 62
     7
100
AcDbLine
 10
46.5
 20
-324.8269351309357
 30
0.0
 11
-61.0
 21
-324.8269351309357
 31
0.0
  0
LINE
  5
4C7
330
58
100
AcDbEntity
  8
LC-001-002-----0
  6
Continuous
 62
     7
100
AcDbLine
 10
-46.0
 20
-451.6857571309357
 30
0.0
 11
-45.5
 21
-452.1857571309357
 31
0.0
  0
LINE
  5
4C8
330
58
100
AcDbEntity
  8
LC-001-002-----0
  6
Continuous
 62
     7
100
AcDbLine
 10
-45.5
 20
-452.1857571309357
 30
0.0
 11
-45.0
 21
-452.1857571309357
 31
0.0
  0
LINE
  5
4C9
330
58
100
AcDbEntity
  8
LC-001-002-----0
  6
Continuous
 62
     7
100
AcDbLine
 10
-46.0
 20
-422.9682601309357
 30
0.0
 11
-46.0
 21
-402.2876501309357
 31
0.0
  0
LINE
  5
4CA
330
58
100
AcDbEntity
  8
LC-001-002-----0
  6
Continuous
 62
     7
100
AcDbLine
 10
45.5
 20
-452.1857571309357
 30
0.0
 11
45.0
 21
-452.1857571309357
 31
0.0
  0
LINE
  5
4CB
330
58
100
AcDbEntity
  8
LC-001-002-----0
  6
Continuous
 62
     7
100
AcDbLine
 10
-46.0
 20
-398.3079291309357
 30
0.0
 11
-46.0
 21
-377.6273191309357
 31
0.0
  0
LINE
  5
4CC
330
58
100
AcDbEntity
  8
LC-001-002-----0
  6
Continuous
 62
     7
100
AcDbLine
 10
-46.0
 20
-373.6475971309357
 30
0.0
 11
-46.0
 21
-352.9669881309357
 31
0.0
  0
LINE
  5
4CD
330
58
100
AcDbEntity
  8
LC-001-002-----0
  6
Continuous
 62
     7
100
AcDbLine
 10
61.0
 20
-226.1856091309356
 30
0.0
 11
45.00000499999999
 21
-226.1856091309356
 31
0.0
  0
LINE
  5
4CE
330
58
100
AcDbEntity
  8
LC-001-002-----0
  6
Continuous
 62
     7
100
AcDbLine
 10
-46.5
 20
-349.4872661309357
 30
0.0
 11
-61.0
 21
-349.4872661309357
 31
0.0
  0
LINE
  5
4CF
330
58
100
AcDbEntity
  8
LC-001-002-----0
  6
Continuous
 62
     7
100
AcDbLine
 10
61.0
 20
-275.5062721309357
 30
0.0
 11
46.5
 21
-275.5062721309357
 31
0.0
  0
LINE
  5
4D0
330
58
100
AcDbEntity
  8
LC-001-002-----0
  6
Continuous
 62
     7
100
AcDbLine
 10
61.05226399999992
 20
-227.1828701309356
 30
0.0
 11
46.89547199999993
 21
-228.6708091309357
 31
0.0
  0
LINE
  5
4D1
330
58
100
AcDbEntity
  8
LC-001-002-----0
  6
Continuous
 62
     7
100
AcDbLine
 10
-46.0
 20
-348.9872661309357
 30
0.0
 11
-46.0
 21
-328.3066561309357
 31
0.0
  0
LINE
  5
4D2
330
58
100
AcDbEntity
  8
LC-001-002-----0
  6
Continuous
 62
     7
100
AcDbLine
 10
46.5
 20
-374.1475971309357
 30
0.0
 11
-61.0
 21
-374.1475971309357
 31
0.0
  0
LINE
  5
4D3
330
58
100
AcDbEntity
  8
LC-001-002-----0
  6
Continuous
 62
     7
100
AcDbLine
 10
-46.5
 20
-398.8079291309357
 30
0.0
 11
-61.0
 21
-398.8079291309357
 31
0.0
  0
LINE
  5
4D4
330
58
100
AcDbEntity
  8
LC-001-002-----0
  6
Continuous
 62
     7
100
AcDbLine
 10
-46.5
 20
-300.1666031309356
 30
0.0
 11
61.0
 21
-300.1666031309356
 31
0.0
  0
LINE
  5
4D5
330
58
100
AcDbEntity
  8
LC-001-002-----0
  6
Continuous
 62
     7
100
AcDbLine
 10
46.5
 20
-324.8269351309357
 30
0.0
 11
61.0
 21
-324.8269351309357
 31
0.0
  0
LINE
  5
4D6
330
58
100
AcDbEntity
  8
LC-001-002-----0
  6
Continuous
 62
     7
100
AcDbLine
 10
46.0
 20
-451.6857571309357
 30
0.0
 11
45.5
 21
-452.1857571309357
 31
0.0
  0
LINE
  5
4D7
330
58
100
AcDbEntity
  8
LC-001-002-----0
  6
Continuous
 62
     7
100
AcDbLine
 10
46.0
 20
-422.9682601309357
 30
0.0
 11
46.0
 21
-402.2876501309357
 31
0.0
  0
LINE
  5
4D8
330
58
100
AcDbEntity
  8
LC-001-002-----0
  6
Continuous
 62
     7
100
AcDbLine
 10
46.5
 20
-423.4682601309357
 30
0.0
 11
-61.0
 21
-423.4682601309357
 31
0.0
  0
LINE
  5
4D9
330
58
100
AcDbEntity
  8
LC-001-002-----0
  6
Continuous
 62
     7
100
AcDbLine
 10
46.0
 20
-398.3079291309357
 30
0.0
 11
46.0
 21
-377.6273191309357
 31
0.0
  0
LINE
  5
4DA
330
58
100
AcDbEntity
  8
LC-001-002-----0
  6
Continuous
 62
     7
100
AcDbLine
 10
46.0
 20
-373.6475971309357
 30
0.0
 11
46.0
 21
-352.9669881309357
 31
0.0
  0
LINE
  5
4DB
330
58
100
AcDbEntity
  8
LC-001-002-----0
  6
Continuous
 62
     7
100
AcDbLine
 10
-46.5
 20
-349.4872661309357
 30
0.0
 11
61.0
 21
-349.4872661309357
 31
0.0
  0
LINE
  5
4DC
330
58
100
AcDbEntity
  8
LC-001-002-----0
  6
Continuous
 62
     7
100
AcDbLine
 10
46.0
 20
-348.9872661309357
 30
0.0
 11
46.0
 21
-328.3066561309357
 31
0.0
  0
LINE
  5
4DD
330
58
100
AcDbEntity
  8
LC-001-002-----0
  6
Continuous
 62
     7
100
AcDbLine
 10
-46.0
 20
-324.3269351309357
 30
0.0
 11
-46.0
 21
-303.6463251309357
 31
0.0
  0
LINE
  5
4DE
330
58
100
AcDbEntity
  8
LC-001-002-----0
  6
Continuous
 62
     7
100
AcDbLine
 10
46.5
 20
-374.1475971309357
 30
0.0
 11
61.0
 21
-374.1475971309357
 31
0.0
  0
LINE
  5
4DF
330
58
100
AcDbEntity
  8
LC-001-002-----0
  6
Continuous
 62
     7
100
AcDbLine
 10
-46.0
 20
-299.6666031309356
 30
0.0
 11
-46.0
 21
-278.9859941309356
 31
0.0
  0
LINE
  5
4E0
330
58
100
AcDbEntity
  8
LC-001-002-----0
  6
Continuous
 62
     7
100
AcDbLine
 10
-46.5
 20
-448.1285911309357
 30
0.0
 11
-61.0
 21
-448.1285911309357
 31
0.0
  0
LINE
  5
4E1
330
58
100
AcDbEntity
  8
LC-001-002-----0
  6
Continuous
 62
     7
100
AcDbLine
 10
-46.5
 20
-398.8079291309357
 30
0.0
 11
61.0
 21
-398.8079291309357
 31
0.0
  0
LINE
  5
4E2
330
58
100
AcDbEntity
  8
LC-001-002-----0
  6
Continuous
 62
     7
100
AcDbLine
 10
-46.0
 20
-447.6285911309357
 30
0.0
 11
-46.0
 21
-426.9479821309357
 31
0.0
  0
LINE
  5
4E3
330
58
100
AcDbEntity
  8
LC-001-002-----0
  6
Continuous
 62
     7
100
AcDbLine
 10
46.5
 20
-423.4682601309357
 30
0.0
 11
61.0
 21
-423.4682601309357
 31
0.0
  0
LINE
  5
4E4
330
58
100
AcDbEntity
  8
LC-001-002-----0
  6
Continuous
 62
     7
100
AcDbLine
 10
46.0
 20
-324.3269351309357
 30
0.0
 11
46.0
 21
-303.6463251309357
 31
0.0
  0
LINE
  5
4E5
330
58
100
AcDbEntity
  8
LC-001-002-----0
  6
Continuous
 62
     7
100
AcDbLine
 10
46.0
 20
-299.6666031309356
 30
0.0
 11
46.0
 21
-278.9859941309356
 31
0.0
  0
LINE
  5
4E6
330
58
100
AcDbEntity
  8
LC-001-002-----0
  6
Continuous
 62
     7
100
AcDbLine
 10
46.5
 20
-448.1285911309357
 30
0.0
 11
61.0
 21
-448.1285911309357
 31
0.0
  0
LINE
  5
4E7
330
58
100
AcDbEntity
  8
LC-001-002-----0
  6
Continuous
 62
     7
100
AcDbLine
 10
46.0
 20
-447.6285911309357
 30
0.0
 11
46.0
 21
-426.9479821309357
 31
0.0
  0
LINE
  5
4E8
330
58
100
AcDbEntity
  8
LC-001-002-----0
  6
Continuous
 62
     7
100
AcDbLine
 10
46.0
 20
-250.3459411309356
 30
0.0
 11
46.0
 21
-229.6653311309356
 31
0.0
  0
LINE
  5
4E9
330
58
100
AcDbEntity
  8
LC-001-002-----0
  6
Continuous
 62
     7
100
AcDbLine
 10
46.0
 20
-275.0062721309357
 30
0.0
 11
46.0
 21
-254.3256621309357
 31
0.0
  0
LINE
  5
4EA
330
58
100
AcDbEntity
  8
LC-001-002-----0
  6
Continuous
 62
     7
100
AcDbLine
 10
61.05226399999992
 20
-449.1258521309356
 30
0.0
 11
46.89547199999993
 21
-450.6137911309357
 31
0.0
  0
LINE
  5
4EB
330
58
100
AcDbEntity
  8
LC-001-002-----0
  6
Continuous
 62
     7
100
AcDbLine
 10
61.05226399999992
 20
-424.4655211309357
 30
0.0
 11
46.89547199999993
 21
-425.9534601309357
 31
0.0
  0
LINE
  5
4EC
330
58
100
AcDbEntity
  8
LC-001-002-----0
  6
Continuous
 62
     7
100
AcDbLine
 10
61.05226399999992
 20
-399.8051901309357
 30
0.0
 11
46.89547199999993
 21
-401.2931291309357
 31
0.0
  0
LINE
  5
4ED
330
58
100
AcDbEntity
  8
LC-001-002-----0
  6
Continuous
 62
     7
100
AcDbLine
 10
61.05226399999992
 20
-375.1448581309357
 30
0.0
 11
46.89547199999993
 21
-376.6327971309357
 31
0.0
  0
LINE
  5
4EE
330
58
100
AcDbEntity
  8
LC-001-002-----0
  6
Continuous
 62
     7
100
AcDbLine
 10
61.05226399999992
 20
-350.4845271309357
 30
0.0
 11
46.89547199999993
 21
-351.9724661309357
 31
0.0
  0
LINE
  5
4EF
330
58
100
AcDbEntity
  8
LC-001-002-----0
  6
Continuous
 62
     7
100
AcDbLine
 10
61.0
 20
-250.8459411309356
 30
0.0
 11
-46.5
 21
-250.8459411309356
 31
0.0
  0
LINE
  5
4F0
330
58
100
AcDbEntity
  8
LC-001-002-----0
  6
Continuous
 62
     7
100
AcDbLine
 10
61.05226399999992
 20
-325.8241961309357
 30
0.0
 11
46.89547199999993
 21
-327.3121351309356
 31
0.0
  0
LINE
  5
4F1
330
58
100
AcDbEntity
  8
LC-001-002-----0
  6
Continuous
 62
     7
100
AcDbLine
 10
61.05226399999992
 20
-301.1638641309357
 30
0.0
 11
46.89547199999993
 21
-302.6518031309357
 31
0.0
  0
LINE
  5
4F2
330
58
100
AcDbEntity
  8
LC-001-002-----0
  6
Continuous
 62
     7
100
AcDbLine
 10
-46.0
 20
-250.3459411309356
 30
0.0
 11
-46.0
 21
-229.6653311309356
 31
0.0
  0
LINE
  5
4F3
330
58
100
AcDbEntity
  8
LC-001-002-----0
  6
Continuous
 62
     7
100
AcDbLine
 10
-46.0
 20
-275.0062721309357
 30
0.0
 11
-46.0
 21
-254.3256621309357
 31
0.0
  0
LINE
  5
4F4
330
58
100
AcDbEntity
  8
LC-001-002-----0
  6
Continuous
 62
     7
100
AcDbLine
 10
-61.05226400000004
 20
-449.1258521309356
 30
0.0
 11
-46.89547100000004
 21
-450.6137911309357
 31
0.0
  0
LINE
  5
4F5
330
58
100
AcDbEntity
  8
LC-001-002-----0
  6
Continuous
 62
     7
100
AcDbLine
 10
-61.05226400000004
 20
-424.4655211309357
 30
0.0
 11
-46.89547100000004
 21
-425.9534601309357
 31
0.0
  0
LINE
  5
4F6
330
58
100
AcDbEntity
  8
LC-001-002-----0
  6
Continuous
 62
     7
100
AcDbLine
 10
-61.05226400000004
 20
-399.8051901309357
 30
0.0
 11
-46.89547100000004
 21
-401.2931291309357
 31
0.0
  0
LINE
  5
4F7
330
58
100
AcDbEntity
  8
LC-001-002-----0
  6
Continuous
 62
     7
100
AcDbLine
 10
-61.05226400000004
 20
-375.1448581309357
 30
0.0
 11
-46.89547100000004
 21
-376.6327971309357
 31
0.0
  0
LINE
  5
4F8
330
58
100
AcDbEntity
  8
LC-001-002-----0
  6
Continuous
 62
     7
100
AcDbLine
 10
61.05226399999992
 20
-251.8432021309357
 30
0.0
 11
46.89547199999993
 21
-253.3311411309356
 31
0.0
  0
LINE
  5
4F9
330
58
100
AcDbEntity
  8
LC-001-002-----0
  6
Continuous
 62
     7
100
AcDbLine
 10
-61.0
 20
-226.1856091309356
 30
0.0
 11
45.00000499999999
 21
-226.1856091309356
 31
0.0
  0
LINE
  5
4FA
330
58
100
AcDbEntity
  8
LC-001-002-----0
  6
Continuous
 62
     7
100
AcDbLine
 10
-61.05226400000004
 20
-350.4845271309357
 30
0.0
 11
-46.89547100000004
 21
-351.9724661309357
 31
0.0
  0
LINE
  5
4FB
330
58
100
AcDbEntity
  8
LC-001-002-----0
  6
Continuous
 62
     7
100
AcDbLine
 10
-61.0
 20
-250.8459411309356
 30
0.0
 11
-46.5
 21
-250.8459411309356
 31
0.0
  0
LINE
  5
4FC
330
58
100
AcDbEntity
  8
LC-001-002-----0
  6
Continuous
 62
     7
100
AcDbLine
 10
-61.05226400000004
 20
-325.8241961309357
 30
0.0
 11
-46.89547100000004
 21
-327.3121351309356
 31
0.0
  0
LINE
  5
4FD
330
58
100
AcDbEntity
  8
LC-001-002-----0
  6
Continuous
 62
     7
100
AcDbLine
 10
-61.05226400000004
 20
-301.1638641309357
 30
0.0
 11
-46.89547100000004
 21
-302.6518031309357
 31
0.0
  0
LINE
  5
4FE
330
58
100
AcDbEntity
  8
LC-001-002-----0
  6
Continuous
 62
     7
100
AcDbLine
 10
-61.05226400000004
 20
-251.8432021309357
 30
0.0
 11
-46.89547100000004
 21
-253.3311411309356
 31
0.0
  0
LINE
  5
4FF
330
58
100
AcDbEntity
  8
LC-001-002-----0
  6
Continuous
 62
     7
100
AcDbLine
 10
61.05226399999992
 20
-276.5035331309357
 30
0.0
 11
46.89547199999993
 21
-277.9914721309357
 31
0.0
  0
LINE
  5
500
330
58
100
AcDbEntity
  8
LC-001-002-----0
  6
Continuous
 62
     7
100
AcDbLine
 10
-61.05226400000004
 20
-276.5035331309357
 30
0.0
 11
-46.89547100000004
 21
-277.9914721309357
 31
0.0
  0
LINE
  5
501
330
58
100
AcDbEntity
  8
LC-001-002-----0
  6
Continuous
 62
     7
100
AcDbLine
 10
-46.0
 20
-451.6083131309357
 30
0.0
 11
-46.0
 21
-451.6857571309357
 31
0.0
  0
LINE
  5
502
330
58
100
AcDbEntity
  8
LC-001-002-----0
  6
Continuous
 62
     7
100
AcDbLine
 10
46.0
 20
-451.6083131309357
 30
0.0
 11
46.0
 21
-451.6857571309357
 31
0.0
  0
LINE
  5
503
330
58
100
AcDbEntity
  8
LC-001-002-----0
  6
Continuous
 62
     7
100
AcDbLine
 10
-73.5
 20
-47.18575713093564
 30
0.0
 11
-77.75
 21
-47.18575713093564
 31
0.0
  0
LINE
  5
504
330
58
100
AcDbEntity
  8
LC-001-002-----0
  6
Continuous
 62
     7
100
AcDbLine
 10
-63.00000499999999
 20
-65.37228213093564
 30
0.0
 11
-73.5
 21
-47.18575713093564
 31
0.0
  0
LINE
  5
505
330
58
100
AcDbEntity
  8
LC-001-002-----0
  6
Continuous
 62
     7
100
AcDbLine
 10
-63.00000499999999
 20
-98.18610313093566
 30
0.0
 11
-63.00000499999999
 21
-65.37228213093564
 31
0.0
  0
LINE
  5
506
330
58
100
AcDbEntity
  8
LC-001-002-----0
  6
Continuous
 62
     7
100
AcDbLine
 10
-45.00000499999999
 20
-101.1861031309357
 30
0.0
 11
-60.00000499999999
 21
-101.1861031309357
 31
0.0
  0
LINE
  5
507
330
58
100
AcDbEntity
  8
LC-001-002-----0
  6
Continuous
 62
     7
100
AcDbLine
 10
45.00000499999999
 20
-101.1861031309357
 30
0.0
 11
60.00000499999999
 21
-101.1861031309357
 31
0.0
  0
LINE
  5
508
330
58
100
AcDbEntity
  8
LC-001-002-----0
  6
Continuous
 62
     7
100
AcDbLine
 10
63.00000499999999
 20
-98.18610313093566
 30
0.0
 11
63.00000499999999
 21
-65.37228213093564
 31
0.0
  0
LINE
  5
509
330
58
100
AcDbEntity
  8
LC-001-002-----0
  6
Continuous
 62
     7
100
AcDbLine
 10
63.00000499999999
 20
-65.37228213093564
 30
0.0
 11
73.5
 21
-47.18575713093564
 31
0.0
  0
LINE
  5
50A
330
58
100
AcDbEntity
  8
LC-001-002-----0
  6
Continuous
 62
     7
100
AcDbLine
 10
42.0
 20
-462.1857571309357
 30
0.0
 11
43.79422900000009
 21
-462.1857571309357
 31
0.0
  0
LINE
  5
50B
330
58
100
AcDbEntity
  8
LC-001-002-----0
  6
Continuous
 62
     7
100
AcDbLine
 10
-42.0
 20
-462.1857571309357
 30
0.0
 11
-43.79422899999997
 21
-462.1857571309357
 31
0.0
  0
LINE
  5
50C
330
58
100
AcDbEntity
  8
LC-001-002-----0
  6
Continuous
 62
     7
100
AcDbLine
 10
43.79422900000009
 20
-462.1857571309357
 30
0.0
 11
0.0
 21
-462.1857571309357
 31
0.0
  0
LINE
  5
50D
330
58
100
AcDbEntity
  8
LC-001-002-----0
  6
Continuous
 62
     7
100
AcDbLine
 10
-43.79422899999997
 20
-462.1857571309357
 30
0.0
 11
-45.0
 21
-457.6857571309357
 31
0.0
  0
LINE
  5
50E
330
58
100
AcDbEntity
  8
LC-001-002-----0
  6
Continuous
 62
     7
100
AcDbLine
 10
43.79422900000009
 20
-462.1857571309357
 30
0.0
 11
45.0
 21
-457.6857571309357
 31
0.0
  0
LINE
  5
50F
330
58
100
AcDbEntity
  8
LC-001-002-----0
  6
Continuous
 62
     7
100
AcDbLine
 10
45.00000499999999
 20
-101.1861031309357
 30
0.0
 11
45.00000499999999
 21
-152.1857571309357
 31
0.0
  0
LINE
  5
510
330
58
100
AcDbEntity
  8
LC-001-002-----0
  6
Continuous
 62
     7
100
AcDbLine
 10
-45.0
 20
-101.1861031309357
 30
0.0
 11
-45.0
 21
-152.1857571309357
 31
0.0
  0
LINE
  5
511
330
58
100
AcDbEntity
  8
LC-001-002-----0
  6
Continuous
 62
     7
100
AcDbLine
 10
0.0
 20
-462.1857571309357
 30
0.0
 11
42.0
 21
-462.1857571309357
 31
0.0
  0
LINE
  5
512
330
58
100
AcDbEntity
  8
LC-001-002-----0
  6
Continuous
 62
     7
100
AcDbLine
 10
73.5
 20
-47.18575713093564
 30
0.0
 11
77.75
 21
-47.18575713093564
 31
0.0
  0
LINE
  5
513
330
58
100
AcDbEntity
  8
LC-001-002-----0
  6
Continuous
 62
     7
100
AcDbLine
 10
-73.5
 20
-47.18575713093564
 30
0.0
 11
73.5
 21
-47.18575713093564
 31
0.0
  0
LINE
  5
514
330
58
100
AcDbEntity
  8
LC-001-002-----0
  6
Continuous
 62
     7
100
AcDbLine
 10
-73.5
 20
-47.18575713093564
 30
0.0
 11
-77.75
 21
-47.18575713093564
 31
0.0
  0
LINE
  5
515
330
58
100
AcDbEntity
  8
LC-001-002-----0
  6
Continuous
 62
     7
100
AcDbLine
 10
-63.00000499999999
 20
-65.37228213093564
 30
0.0
 11
-73.5
 21
-47.18575713093564
 31
0.0
  0
LINE
  5
516
330
58
100
AcDbEntity
  8
LC-001-002-----0
  6
Continuous
 62
     7
100
AcDbLine
 10
73.5
 20
-47.18575713093564
 30
0.0
 11
77.75
 21
-47.18575713093564
 31
0.0
  0
LINE
  5
517
330
58
100
AcDbEntity
  8
LC-001-002-----0
  6
Continuous
 62
     7
100
AcDbLine
 10
80.75
 20
-32.736469
 30
0.0
 11
80.75
 21
-44.18575713093564
 31
0.0
  0
ARC
  5
518
330
58
100
AcDbEntity
  8
LC-001-002-----0
  6
Continuous
 62
     7
100
AcDbCircle
 10
-47.00025500000311
 20
-6.85148699946657
 30
0.0
 40
11.4014874978041
100
AcDbArc
 50
63.12196099999268
 51
86.94693616129528
  0
LINE
  5
519
330
58
100
AcDbEntity
  8
LC-001-002-----0
  6
Continuous
 62
     7
100
AcDbLine
 10
48.03003411694181
 20
4.503348335997
 30
0.0
 11
48.03003411677802
 21
4.50334833601467
 31
0.0
  0
LINE
  5
51A
330
58
100
AcDbEntity
  8
LC-001-002-----0
  6
Continuous
 62
     7
100
AcDbLine
 10
46.38994281610167
 20
4.53368488982088
 30
0.0
 11
46.389942815942
 21
4.5336848898112
 31
0.0
  0
ARC
  5
51B
330
58
100
AcDbEntity
  8
LC-001-002-----0
  6
Continuous
 62
     7
100
AcDbCircle
 10
46.99967899999638
 20
-6.85148699946657
 30
0.0
 40
11.4014874978041
100
AcDbArc
 50
63.12196099999268
 51
84.81509314757537
  0
ARC
  5
51C
330
58
100
AcDbEntity
  8
LC-001-002-----0
  6
Continuous
 62
     7
100
AcDbCircle
 10
46.99967899999638
 20
-6.85148699946657
 30
0.0
 40
11.40148749780359
100
AcDbArc
 50
84.81509314840314
 51
93.0655634827716
  0
ARC
  5
51D
330
58
100
AcDbEntity
  8
LC-003-002-RND-0
  6
Continuous
 62
     7
100
AcDbCircle
 10
51.25002399999676
 20
1.5343660005332
 30
0.0
 40
1.999999999999862
100
AcDbArc
 50
-0.00252999999489
 51
63.12196099999171
  0
ARC
  5
51E
330
58
100
AcDbEntity
  8
LC-001-002-----0
  6
Continuous
 62
     7
100
AcDbCircle
 10
46.99967899999638
 20
-6.85148699946657
 30
0.0
 40
11.40148749780247
100
AcDbArc
 50
93.06556348357546
 51
116.8733199999972
  0
ARC
  5
51F
330
58
100
AcDbEntity
  8
LC-003-002-RND-0
  6
Continuous
 62
     7
100
AcDbCircle
 10
42.75002399999676
 20
1.53471600053163
 30
0.0
 40
1.999999999999662
100
AcDbArc
 50
116.8733199999784
 51
179.9974700000051
  0
LINE
  5
520
330
58
100
AcDbEntity
  8
LC-001-002-----0
  6
Continuous
 62
     7
100
AcDbLine
 10
-46.39300261906374
 20
4.53381763889879
 30
0.0
 11
-46.39300261922153
 21
4.53381763890721
 31
0.0
  0
ARC
  5
521
330
58
100
AcDbEntity
  8
LC-001-002-----0
  6
Continuous
 62
     7
100
AcDbCircle
 10
-47.00025500000311
 20
-6.85148699946657
 30
0.0
 40
11.40148749780223
100
AcDbArc
 50
86.94693616208932
 51
95.19799420517408
  0
ARC
  5
522
330
58
100
AcDbEntity
  8
LC-001-002-----0
  6
Continuous
 62
     7
100
AcDbCircle
 10
-47.00025500000311
 20
-6.85148699946657
 30
0.0
 40
11.40148749780094
100
AcDbArc
 50
95.19799420517408
 51
116.8733199999972
  0
ARC
  5
523
330
58
100
AcDbEntity
  8
LC-003-002-RND-0
  6
Continuous
 62
     7
100
AcDbCircle
 10
-51.24991000000273
 20
1.53471600053163
 30
0.0
 40
1.999999999999655
100
AcDbArc
 50
116.8733199999781
 51
179.9974700000051
  0
ARC
  5
524
330
58
100
AcDbEntity
  8
LC-003-002-RND-0
  6
Continuous
 62
     7
100
AcDbCircle
 10
-42.74991000000273
 20
1.5343660005332
 30
0.0
 40
1.999999999999862
100
AcDbArc
 50
-0.00252999999489
 51
63.12196099999152
  0
ARC
  5
525
330
58
100
AcDbEntity
  8
LC-003-002-RND-0
  6
Continuous
 62
     7
100
AcDbCircle
 10
-89.76097200000049
 20
1.53867900053083
 30
0.0
 40
2.0
100
AcDbArc
 50
0.0
 51
63.12415000007062
  0
ARC
  5
526
330
58
100
AcDbEntity
  8
LC-001-002-----0
  6
Continuous
 62
     7
100
AcDbCircle
 10
-94.01099700000168
 20
-6.84733599946921
 30
0.0
 40
11.40148749780681
100
AcDbArc
 50
63.12415000000443
 51
116.8755089999916
  0
ARC
  5
527
330
58
100
AcDbEntity
  8
LC-003-002-RND-0
  6
Continuous
 62
     7
100
AcDbCircle
 10
-98.26097200000049
 20
1.53870500053236
 30
0.0
 40
2.000000000001474
100
AcDbArc
 50
116.8755089999991
 51
180.0
  0
ARC
  5
528
330
58
100
AcDbEntity
  8
LC-003-002-RND-0
  6
Continuous
 62
     7
100
AcDbCircle
 10
89.74999399999751
 20
1.53471600053163
 30
0.0
 40
1.999999999999658
100
AcDbArc
 50
116.8733199999782
 51
179.9974700000051
  0
ARC
  5
529
330
58
100
AcDbEntity
  8
LC-001-002-----0
  6
Continuous
 62
     7
100
AcDbCircle
 10
93.99964899999713
 20
-6.85148699946657
 30
0.0
 40
11.4014874978041
100
AcDbArc
 50
63.12196099999268
 51
116.8733199999972
  0
ARC
  5
52A
330
58
100
AcDbEntity
  8
LC-003-002-RND-0
  6
Continuous
 62
     7
100
AcDbCircle
 10
98.24999399999751
 20
1.5343660005332
 30
0.0
 40
1.999999999999912
100
AcDbArc
 50
-0.00252999999489
 51
63.12196099999152
  0
ARC
  5
52B
330
58
100
AcDbEntity
  8
LC-002-002-RND-0
  6
Continuous
 62
     7
100
AcDbCircle
 10
46.5
 20
-225.6856091309356
 30
0.0
 40
0.5
100
AcDbArc
 50
180.0
 51
-90.0
  0
ARC
  5
52C
330
58
100
AcDbEntity
  8
LC-002-002-RND-0
  6
Continuous
 62
     7
100
AcDbCircle
 10
-46.5
 20
-225.6856091309356
 30
0.0
 40
0.5
100
AcDbArc
 50
-90.0
 51
0.0
  0
ARC
  5
52D
330
58
100
AcDbEntity
  8
LC-002-002-RND-0
  6
Continuous
 62
     7
100
AcDbCircle
 10
-61.0
 20
-202.0064201309357
 30
0.0
 40
0.5
100
AcDbArc
 50
90.0
 51
-96.00000000002284
  0
ARC
  5
52E
330
58
100
AcDbEntity
  8
LC-002-002-RND-0
  6
Continuous
 62
     7
100
AcDbCircle
 10
-61.0
 20
-276.0062721309356
 30
0.0
 40
0.5
100
AcDbArc
 50
90.0
 51
-96.0000000000225
  0
ARC
  5
52F
330
58
100
AcDbEntity
  8
LC-002-002-RND-0
  6
Continuous
 62
     7
100
AcDbCircle
 10
-47.0
 20
-155.6654791309357
 30
0.0
 40
1.0
100
AcDbArc
 50
0.0
 51
83.9999999999769
  0
ARC
  5
530
330
58
100
AcDbEntity
  8
LC-002-002-RND-0
  6
Continuous
 62
     7
100
AcDbCircle
 10
47.0
 20
-155.6654791309357
 30
0.0
 40
0.9999999999996487
100
AcDbArc
 50
96.0000000000231
 51
180.0
  0
ARC
  5
531
330
58
100
AcDbEntity
  8
LC-002-002-RND-0
  6
Continuous
 62
     7
100
AcDbCircle
 10
-61.0
 20
-152.6857571309357
 30
0.0
 40
0.5
100
AcDbArc
 50
90.0
 51
-96.00000000002284
  0
ARC
  5
532
330
58
100
AcDbEntity
  8
LC-002-002-RND-0
  6
Continuous
 62
     7
100
AcDbCircle
 10
-47.0
 20
-204.9861421309357
 30
0.0
 40
1.0
100
AcDbArc
 50
0.0
 51
83.9999999999769
  0
ARC
  5
533
330
58
100
AcDbEntity
  8
LC-002-002-RND-0
  6
Continuous
 62
     7
100
AcDbCircle
 10
-47.0
 20
-180.3258101309358
 30
0.0
 40
1.0
100
AcDbArc
 50
0.0
 51
83.99999999997809
  0
ARC
  5
534
330
58
100
AcDbEntity
  8
LC-002-002-RND-0
  6
Continuous
 62
     7
100
AcDbCircle
 10
-61.0
 20
-177.3460891309357
 30
0.0
 40
0.5
100
AcDbArc
 50
90.0
 51
-96.00000000002284
  0
ARC
  5
535
330
58
100
AcDbEntity
  8
LC-002-002-RND-0
  6
Continuous
 62
     7
100
AcDbCircle
 10
61.0
 20
-152.6857571309357
 30
0.0
 40
0.4999999999998813
100
AcDbArc
 50
-83.99999999997716
 51
90.0
  0
ARC
  5
536
330
58
100
AcDbEntity
  8
LC-002-002-RND-0
  6
Continuous
 62
     7
100
AcDbCircle
 10
47.0
 20
-204.9861421309357
 30
0.0
 40
0.9999999999996487
100
AcDbArc
 50
96.0000000000231
 51
180.0
  0
ARC
  5
537
330
58
100
AcDbEntity
  8
LC-002-002-RND-0
  6
Continuous
 62
     7
100
AcDbCircle
 10
47.0
 20
-180.3258101309358
 30
0.0
 40
0.9999999999998466
100
AcDbArc
 50
96.00000000002193
 51
180.0
  0
ARC
  5
538
330
58
100
AcDbEntity
  8
LC-002-002-RND-0
  6
Continuous
 62
     7
100
AcDbCircle
 10
61.0
 20
-202.0064201309358
 30
0.0
 40
0.4999999999998813
100
AcDbArc
 50
-83.99999999997716
 51
90.0
  0
ARC
  5
539
330
58
100
AcDbEntity
  8
LC-002-002-RND-0
  6
Continuous
 62
     7
100
AcDbCircle
 10
-46.5
 20
-201.0064201309358
 30
0.0
 40
0.5
100
AcDbArc
 50
-90.0
 51
0.0
  0
ARC
  5
53A
330
58
100
AcDbEntity
  8
LC-002-002-RND-0
  6
Continuous
 62
     7
100
AcDbCircle
 10
61.0
 20
-177.3460891309357
 30
0.0
 40
0.4999999999998813
100
AcDbArc
 50
-83.99999999997716
 51
90.0
  0
ARC
  5
53B
330
58
100
AcDbEntity
  8
LC-002-002-RND-0
  6
Continuous
 62
     7
100
AcDbCircle
 10
-46.5
 20
-176.3460891309357
 30
0.0
 40
0.5
100
AcDbArc
 50
-90.0
 51
0.0
  0
ARC
  5
53C
330
58
100
AcDbEntity
  8
LC-002-002-RND-0
  6
Continuous
 62
     7
100
AcDbCircle
 10
46.5
 20
-201.0064201309358
 30
0.0
 40
0.5
100
AcDbArc
 50
180.0
 51
-90.0
  0
ARC
  5
53D
330
58
100
AcDbEntity
  8
LC-002-002-RND-0
  6
Continuous
 62
     7
100
AcDbCircle
 10
46.5
 20
-176.3460891309357
 30
0.0
 40
0.5
100
AcDbArc
 50
180.0
 51
-90.0
  0
ARC
  5
53E
330
58
100
AcDbEntity
  8
LC-002-002-RND-0
  6
Continuous
 62
     7
100
AcDbCircle
 10
175.0000000000001
 20
-5.236469
 30
0.0
 40
2.0
100
AcDbArc
 50
0.0
 51
90.0
  0
ARC
  5
53F
330
58
100
AcDbEntity
  8
LC-002-002-RND-0
  6
Continuous
 62
     7
100
AcDbCircle
 10
-175.0
 20
-5.236469
 30
0.0
 40
2.0
100
AcDbArc
 50
90.0
 51
180.0
  0
ARC
  5
540
330
58
100
AcDbEntity
  8
LC-002-002-RND-0
  6
Continuous
 62
     7
100
AcDbCircle
 10
99.50519700000007
 20
-29.736469
 30
0.0
 40
0.5
100
AcDbArc
 50
-90.0
 51
0.00004499999191
  0
ARC
  5
541
330
58
100
AcDbEntity
  8
LC-002-002-RND-0
  6
Continuous
 62
     7
100
AcDbCircle
 10
-99.50509799999998
 20
-29.736492
 30
0.0
 40
0.4999999999995142
100
AcDbArc
 50
-179.9996659999872
 51
-89.99975200002976
  0
ARC
  5
542
330
58
100
AcDbEntity
  8
LC-002-002-RND-0
  6
Continuous
 62
     7
100
AcDbCircle
 10
-48.450245
 20
55.79342000000003
 30
0.0
 40
15.00000000000027
100
AcDbArc
 50
90.00007900000142
 51
160.0000000000008
  0
ARC
  5
543
330
58
100
AcDbEntity
  8
LC-002-002-RND-0
  6
Continuous
 62
     7
100
AcDbCircle
 10
48.44696600000009
 20
55.79355300000003
 30
0.0
 40
14.99999999999944
100
AcDbArc
 50
20.00015699999918
 51
90.00007900000188
  0
ARC
  5
544
330
58
100
AcDbEntity
  8
LC-002-002-RND-0
  6
Continuous
 62
     7
100
AcDbCircle
 10
-77.75
 20
-44.13170600226366
 30
0.0
 40
3.0
100
AcDbArc
 50
180.0
 51
-90.0
  0
ARC
  5
545
330
58
100
AcDbEntity
  8
LC-002-002-RND-0
  6
Continuous
 62
     7
100
AcDbCircle
 10
-46.5
 20
-299.6666031309356
 30
0.0
 40
0.5
100
AcDbArc
 50
-90.0
 51
0.0
  0
ARC
  5
546
330
58
100
AcDbEntity
  8
LC-002-002-RND-0
  6
Continuous
 62
     7
100
AcDbCircle
 10
-46.5
 20
-324.3269351309357
 30
0.0
 40
0.5
100
AcDbArc
 50
-90.0
 51
0.0
  0
ARC
  5
547
330
58
100
AcDbEntity
  8
LC-002-002-RND-0
  6
Continuous
 62
     7
100
AcDbCircle
 10
-46.5
 20
-348.9872661309357
 30
0.0
 40
0.5
100
AcDbArc
 50
-90.0
 51
0.0
  0
ARC
  5
548
330
58
100
AcDbEntity
  8
LC-002-002-RND-0
  6
Continuous
 62
     7
100
AcDbCircle
 10
-46.5
 20
-373.6475971309357
 30
0.0
 40
0.5
100
AcDbArc
 50
-90.0
 51
0.0
  0
ARC
  5
549
330
58
100
AcDbEntity
  8
LC-002-002-RND-0
  6
Continuous
 62
     7
100
AcDbCircle
 10
-46.5
 20
-398.3079291309357
 30
0.0
 40
0.5
100
AcDbArc
 50
-90.0
 51
0.0
  0
ARC
  5
54A
330
58
100
AcDbEntity
  8
LC-002-002-RND-0
  6
Continuous
 62
     7
100
AcDbCircle
 10
-46.5
 20
-422.9682601309357
 30
0.0
 40
0.5
100
AcDbArc
 50
-90.0
 51
0.0
  0
ARC
  5
54B
330
58
100
AcDbEntity
  8
LC-002-002-RND-0
  6
Continuous
 62
     7
100
AcDbCircle
 10
-46.5
 20
-447.6285911309357
 30
0.0
 40
0.5
100
AcDbArc
 50
-90.0
 51
0.0
  0
ARC
  5
54C
330
58
100
AcDbEntity
  8
LC-002-002-RND-0
  6
Continuous
 62
     7
100
AcDbCircle
 10
46.5
 20
-299.6666031309356
 30
0.0
 40
0.5
100
AcDbArc
 50
180.0
 51
-90.0
  0
ARC
  5
54D
330
58
100
AcDbEntity
  8
LC-002-002-RND-0
  6
Continuous
 62
     7
100
AcDbCircle
 10
46.5
 20
-324.3269351309357
 30
0.0
 40
0.5
100
AcDbArc
 50
180.0
 51
-90.0
  0
ARC
  5
54E
330
58
100
AcDbEntity
  8
LC-002-002-RND-0
  6
Continuous
 62
     7
100
AcDbCircle
 10
46.5
 20
-348.9872661309357
 30
0.0
 40
0.5
100
AcDbArc
 50
180.0
 51
-90.0
  0
ARC
  5
54F
330
58
100
AcDbEntity
  8
LC-002-002-RND-0
  6
Continuous
 62
     7
100
AcDbCircle
 10
46.5
 20
-373.6475971309357
 30
0.0
 40
0.5
100
AcDbArc
 50
180.0
 51
-90.0
  0
ARC
  5
550
330
58
100
AcDbEntity
  8
LC-002-002-RND-0
  6
Continuous
 62
     7
100
AcDbCircle
 10
46.5
 20
-398.3079291309357
 30
0.0
 40
0.5
100
AcDbArc
 50
180.0
 51
-90.0
  0
ARC
  5
551
330
58
100
AcDbEntity
  8
LC-002-002-RND-0
  6
Continuous
 62
     7
100
AcDbCircle
 10
46.5
 20
-422.9682601309357
 30
0.0
 40
0.5
100
AcDbArc
 50
180.0
 51
-90.0
  0
ARC
  5
552
330
58
100
AcDbEntity
  8
LC-002-002-RND-0
  6
Continuous
 62
     7
100
AcDbCircle
 10
46.5
 20
-447.6285911309357
 30
0.0
 40
0.5
100
AcDbArc
 50
180.0
 51
-90.0
  0
ARC
  5
553
330
58
100
AcDbEntity
  8
LC-002-002-RND-0
  6
Continuous
 62
     7
100
AcDbCircle
 10
46.5
 20
-250.3459411309356
 30
0.0
 40
0.5
100
AcDbArc
 50
180.0
 51
-90.0
  0
ARC
  5
554
330
58
100
AcDbEntity
  8
LC-002-002-RND-0
  6
Continuous
 62
     7
100
AcDbCircle
 10
46.5
 20
-275.0062721309357
 30
0.0
 40
0.5
100
AcDbArc
 50
180.0
 51
-90.0
  0
ARC
  5
555
330
58
100
AcDbEntity
  8
LC-002-002-RND-0
  6
Continuous
 62
     7
100
AcDbCircle
 10
61.0
 20
-448.6285911309357
 30
0.0
 40
0.4999999999999661
100
AcDbArc
 50
-83.99999999997819
 51
90.0
  0
ARC
  5
556
330
58
100
AcDbEntity
  8
LC-002-002-RND-0
  6
Continuous
 62
     7
100
AcDbCircle
 10
47.0
 20
-451.6083131309357
 30
0.0
 40
1.000000000000044
100
AcDbArc
 50
96.00000000002073
 51
180.0
  0
ARC
  5
557
330
58
100
AcDbEntity
  8
LC-002-002-RND-0
  6
Continuous
 62
     7
100
AcDbCircle
 10
61.0
 20
-423.9682601309357
 30
0.0
 40
0.5000000000000225
100
AcDbArc
 50
-83.99999999997887
 51
90.0
  0
ARC
  5
558
330
58
100
AcDbEntity
  8
LC-002-002-RND-0
  6
Continuous
 62
     7
100
AcDbCircle
 10
47.0
 20
-426.9479821309357
 30
0.0
 40
1.000000000000101
100
AcDbArc
 50
96.00000000002039
 51
180.0
  0
ARC
  5
559
330
58
100
AcDbEntity
  8
LC-002-002-RND-0
  6
Continuous
 62
     7
100
AcDbCircle
 10
61.0
 20
-399.3079291309357
 30
0.0
 40
0.4999999999999661
100
AcDbArc
 50
-83.99999999997819
 51
90.0
  0
ARC
  5
55A
330
58
100
AcDbEntity
  8
LC-002-002-RND-0
  6
Continuous
 62
     7
100
AcDbCircle
 10
47.0
 20
-402.2876501309357
 30
0.0
 40
1.000000000000044
100
AcDbArc
 50
96.00000000002073
 51
180.0
  0
ARC
  5
55B
330
58
100
AcDbEntity
  8
LC-002-002-RND-0
  6
Continuous
 62
     7
100
AcDbCircle
 10
61.0
 20
-374.6475971309357
 30
0.0
 40
0.4999999999999661
100
AcDbArc
 50
-83.99999999997819
 51
90.0
  0
ARC
  5
55C
330
58
100
AcDbEntity
  8
LC-002-002-RND-0
  6
Continuous
 62
     7
100
AcDbCircle
 10
47.0
 20
-377.6273191309357
 30
0.0
 40
1.000000000000044
100
AcDbArc
 50
96.00000000002073
 51
180.0
  0
ARC
  5
55D
330
58
100
AcDbEntity
  8
LC-002-002-RND-0
  6
Continuous
 62
     7
100
AcDbCircle
 10
47.0
 20
-352.9669881309357
 30
0.0
 40
1.000000000000044
100
AcDbArc
 50
96.00000000002073
 51
180.0
  0
ARC
  5
55E
330
58
100
AcDbEntity
  8
LC-002-002-RND-0
  6
Continuous
 62
     7
100
AcDbCircle
 10
61.0
 20
-349.9872661309357
 30
0.0
 40
0.4999999999999661
100
AcDbArc
 50
-83.99999999997819
 51
90.0
  0
ARC
  5
55F
330
58
100
AcDbEntity
  8
LC-002-002-RND-0
  6
Continuous
 62
     7
100
AcDbCircle
 10
61.0
 20
-325.3269351309357
 30
0.0
 40
0.4999999999999095
100
AcDbArc
 50
-83.9999999999775
 51
90.0
  0
ARC
  5
560
330
58
100
AcDbEntity
  8
LC-002-002-RND-0
  6
Continuous
 62
     7
100
AcDbCircle
 10
47.0
 20
-328.3066561309357
 30
0.0
 40
0.9999999999997617
100
AcDbArc
 50
96.00000000002244
 51
180.0
  0
ARC
  5
561
330
58
100
AcDbEntity
  8
LC-002-002-RND-0
  6
Continuous
 62
     7
100
AcDbCircle
 10
61.0
 20
-300.6666031309356
 30
0.0
 40
0.5000000000000225
100
AcDbArc
 50
-83.99999999997887
 51
90.0
  0
ARC
  5
562
330
58
100
AcDbEntity
  8
LC-002-002-RND-0
  6
Continuous
 62
     7
100
AcDbCircle
 10
47.0
 20
-303.6463251309357
 30
0.0
 40
0.9999999999997617
100
AcDbArc
 50
96.00000000002244
 51
180.0
  0
ARC
  5
563
330
58
100
AcDbEntity
  8
LC-002-002-RND-0
  6
Continuous
 62
     7
100
AcDbCircle
 10
-46.5
 20
-250.3459411309356
 30
0.0
 40
0.5
100
AcDbArc
 50
-90.0
 51
0.0
  0
ARC
  5
564
330
58
100
AcDbEntity
  8
LC-002-002-RND-0
  6
Continuous
 62
     7
100
AcDbCircle
 10
61.0
 20
-251.3459411309356
 30
0.0
 40
0.4999999999998813
100
AcDbArc
 50
-83.99999999997716
 51
90.0
  0
ARC
  5
565
330
58
100
AcDbEntity
  8
LC-002-002-RND-0
  6
Continuous
 62
     7
100
AcDbCircle
 10
-46.5
 20
-275.0062721309357
 30
0.0
 40
0.5
100
AcDbArc
 50
-90.0
 51
0.0
  0
ARC
  5
566
330
58
100
AcDbEntity
  8
LC-002-002-RND-0
  6
Continuous
 62
     7
100
AcDbCircle
 10
61.0
 20
-276.0062721309357
 30
0.0
 40
0.499999999999853
100
AcDbArc
 50
-83.99999999997682
 51
90.0
  0
ARC
  5
567
330
58
100
AcDbEntity
  8
LC-002-002-RND-0
  6
Continuous
 62
     7
100
AcDbCircle
 10
-61.0
 20
-448.6285911309357
 30
0.0
 40
0.5
100
AcDbArc
 50
90.0
 51
-96.00000000002181
  0
ARC
  5
568
330
58
100
AcDbEntity
  8
LC-002-002-RND-0
  6
Continuous
 62
     7
100
AcDbCircle
 10
-47.0
 20
-451.6083131309357
 30
0.0
 40
1.0
100
AcDbArc
 50
0.0
 51
83.99999999997928
  0
ARC
  5
569
330
58
100
AcDbEntity
  8
LC-002-002-RND-0
  6
Continuous
 62
     7
100
AcDbCircle
 10
47.0
 20
-254.3256621309357
 30
0.0
 40
0.9999999999998748
100
AcDbArc
 50
96.00000000002176
 51
180.0
  0
ARC
  5
56A
330
58
100
AcDbEntity
  8
LC-002-002-RND-0
  6
Continuous
 62
     7
100
AcDbCircle
 10
-61.0
 20
-423.9682601309357
 30
0.0
 40
0.5
100
AcDbArc
 50
90.0
 51
-96.00000000002115
  0
ARC
  5
56B
330
58
100
AcDbEntity
  8
LC-002-002-RND-0
  6
Continuous
 62
     7
100
AcDbCircle
 10
-47.0
 20
-426.9479821309357
 30
0.0
 40
1.0
100
AcDbArc
 50
0.0
 51
83.99999999997961
  0
ARC
  5
56C
330
58
100
AcDbEntity
  8
LC-002-002-RND-0
  6
Continuous
 62
     7
100
AcDbCircle
 10
-61.0
 20
-399.3079291309357
 30
0.0
 40
0.5
100
AcDbArc
 50
90.0
 51
-96.00000000002181
  0
ARC
  5
56D
330
58
100
AcDbEntity
  8
LC-002-002-RND-0
  6
Continuous
 62
     7
100
AcDbCircle
 10
-47.0
 20
-402.2876501309357
 30
0.0
 40
1.0
100
AcDbArc
 50
0.0
 51
83.99999999997928
  0
ARC
  5
56E
330
58
100
AcDbEntity
  8
LC-002-002-RND-0
  6
Continuous
 62
     7
100
AcDbCircle
 10
-61.0
 20
-374.6475971309357
 30
0.0
 40
0.5
100
AcDbArc
 50
90.0
 51
-96.00000000002181
  0
ARC
  5
56F
330
58
100
AcDbEntity
  8
LC-002-002-RND-0
  6
Continuous
 62
     7
100
AcDbCircle
 10
-47.0
 20
-377.6273191309357
 30
0.0
 40
1.0
100
AcDbArc
 50
0.0
 51
83.99999999997928
  0
ARC
  5
570
330
58
100
AcDbEntity
  8
LC-002-002-RND-0
  6
Continuous
 62
     7
100
AcDbCircle
 10
-47.0
 20
-352.9669881309357
 30
0.0
 40
1.0
100
AcDbArc
 50
0.0
 51
83.99999999997928
  0
ARC
  5
571
330
58
100
AcDbEntity
  8
LC-002-002-RND-0
  6
Continuous
 62
     7
100
AcDbCircle
 10
-61.0
 20
-349.9872661309357
 30
0.0
 40
0.5
100
AcDbArc
 50
90.0
 51
-96.00000000002181
  0
ARC
  5
572
330
58
100
AcDbEntity
  8
LC-002-002-RND-0
  6
Continuous
 62
     7
100
AcDbCircle
 10
-61.0
 20
-325.3269351309357
 30
0.0
 40
0.5
100
AcDbArc
 50
90.0
 51
-96.0000000000225
  0
ARC
  5
573
330
58
100
AcDbEntity
  8
LC-002-002-RND-0
  6
Continuous
 62
     7
100
AcDbCircle
 10
-47.0
 20
-328.3066561309357
 30
0.0
 40
1.0
100
AcDbArc
 50
0.0
 51
83.99999999997758
  0
ARC
  5
574
330
58
100
AcDbEntity
  8
LC-002-002-RND-0
  6
Continuous
 62
     7
100
AcDbCircle
 10
-61.0
 20
-300.6666031309356
 30
0.0
 40
0.5
100
AcDbArc
 50
90.0
 51
-96.00000000002115
  0
ARC
  5
575
330
58
100
AcDbEntity
  8
LC-002-002-RND-0
  6
Continuous
 62
     7
100
AcDbCircle
 10
-47.0
 20
-303.6463251309357
 30
0.0
 40
1.0
100
AcDbArc
 50
0.0
 51
83.99999999997758
  0
ARC
  5
576
330
58
100
AcDbEntity
  8
LC-002-002-RND-0
  6
Continuous
 62
     7
100
AcDbCircle
 10
47.0
 20
-278.9859941309356
 30
0.0
 40
0.9999999999996487
100
AcDbArc
 50
96.0000000000231
 51
180.0
  0
ARC
  5
577
330
58
100
AcDbEntity
  8
LC-002-002-RND-0
  6
Continuous
 62
     7
100
AcDbCircle
 10
61.0
 20
-226.6856091309356
 30
0.0
 40
0.4999999999998813
100
AcDbArc
 50
-83.99999999997716
 51
90.0
  0
ARC
  5
578
330
58
100
AcDbEntity
  8
LC-002-002-RND-0
  6
Continuous
 62
     7
100
AcDbCircle
 10
-61.0
 20
-251.3459411309356
 30
0.0
 40
0.5
100
AcDbArc
 50
90.0
 51
-96.00000000002284
  0
ARC
  5
579
330
58
100
AcDbEntity
  8
LC-002-002-RND-0
  6
Continuous
 62
     7
100
AcDbCircle
 10
-47.0
 20
-254.3256621309357
 30
0.0
 40
1.0
100
AcDbArc
 50
0.0
 51
83.99999999997824
  0
ARC
  5
57A
330
58
100
AcDbEntity
  8
LC-002-002-RND-0
  6
Continuous
 62
     7
100
AcDbCircle
 10
-47.0
 20
-278.9859941309356
 30
0.0
 40
1.0
100
AcDbArc
 50
0.0
 51
83.9999999999769
  0
ARC
  5
57B
330
58
100
AcDbEntity
  8
LC-002-002-RND-0
  6
Continuous
 62
     7
100
AcDbCircle
 10
-61.0
 20
-226.6856091309356
 30
0.0
 40
0.5
100
AcDbArc
 50
90.0
 51
-96.00000000002284
  0
ARC
  5
57C
330
58
100
AcDbEntity
  8
LC-002-002-RND-0
  6
Continuous
 62
     7
100
AcDbCircle
 10
47.0
 20
-229.6653311309356
 30
0.0
 40
0.9999999999996769
100
AcDbArc
 50
96.00000000002295
 51
180.0
  0
ARC
  5
57D
330
58
100
AcDbEntity
  8
LC-002-002-RND-0
  6
Continuous
 62
     7
100
AcDbCircle
 10
-47.0
 20
-229.6653311309356
 30
0.0
 40
1.0
100
AcDbArc
 50
0.0
 51
83.99999999997706
  0
ARC
  5
57E
330
58
100
AcDbEntity
  8
LC-002-002-RND-0
  6
Continuous
 62
     7
100
AcDbCircle
 10
-60.00000499999999
 20
-98.18610313093566
 30
0.0
 40
3.0
100
AcDbArc
 50
180.0
 51
-90.0
  0
ARC
  5
57F
330
58
100
AcDbEntity
  8
LC-002-002-RND-0
  6
Continuous
 62
     7
100
AcDbCircle
 10
60.00000499999999
 20
-98.18610313093566
 30
0.0
 40
3.000000000000043
100
AcDbArc
 50
-90.0
 51
0.0
  0
ARC
  5
580
330
58
100
AcDbEntity
  8
LC-002-002-RND-0
  6
Continuous
 62
     7
100
AcDbCircle
 10
77.75
 20
-44.18575713093564
 30
0.0
 40
3.0
100
AcDbArc
 50
-90.0
 51
0.0
  0
ENDBLK
  5
5D
330
58
100
AcDbEntity
  8
0
100
AcDbBlockEnd
  0
BLOCK
  5
589
330
581
100
AcDbEntity
  8
0
100
AcDbBlockBegin
  2
*D5
 70
     1
 71
     0
 10
0.0
 20
0.0
 30
0.0
  3
*D5
  1

  0
LINE
  5
582
330
581
100
AcDbEntity
  8
1
  6
Continuous
 62
     4
100
AcDbLine
 10
105.887281157309
 20
-462.1857571309357
 30
0.0
 11
105.887281157309
 21
-152.1857571309357
 31
0.0
  0
LINE
  5
583
330
581
100
AcDbEntity
  8
1
  6
Continuous
 62
     4
100
AcDbLine
 10
60.99999999999999
 20
-152.1857571309357
 30
0.0
 11
107.887281157309
 21
-152.1857571309357
 31
0.0
  0
LINE
  5
584
330
581
100
AcDbEntity
  8
1
  6
Continuous
 62
     4
100
AcDbLine
 10
43.79422900000009
 20
-462.1857571309357
 30
0.0
 11
107.887281157309
 21
-462.1857571309357
 31
0.0
  0
SOLID
  5
585
330
581
100
AcDbEntity
  8
1
 62
     4
100
AcDbTrace
 10
104.3074511862603
 20
-450.1857571309357
 30
0.0
 11
107.4671111283578
 21
-450.1857571309357
 31
0.0
 12
105.887281157309
 22
-462.1857571309357
 32
0.0
 13
105.887281157309
 23
-462.1857571309357
 33
0.0
  0
SOLID
  5
586
330
581
100
AcDbEntity
  8
1
 62
     4
100
AcDbTrace
 10
107.4671111283578
 20
-164.1857571309357
 30
0.0
 11
104.3074511862603
 21
-164.1857571309357
 31
0.0
 12
105.887281157309
 22
-152.1857571309357
 32
0.0
 13
105.887281157309
 23
-152.1857571309357
 33
0.0
  0
MTEXT
  5
588
330
581
100
AcDbEntity
  8
1
 62
     1
100
AcDbMText
 10
103.887281157309
 20
-317.460897228843
 30
0.0
 40
12.0
 41
0.0
 71
     7
 72
     1
  1
310
  7
CONVERTER_11
 11
0.0
 21
1.0
 31
0.0
 73
     1
 44
0.60024009603842
  0
ENDBLK
  5
58A
330
581
100
AcDbEntity
  8
0
100
AcDbBlockEnd
  0
BLOCK
  5
594
330
58D
100
AcDbEntity
  8
0
100
AcDbBlockBegin
  2
*D6
 70
     1
 71
     0
 10
0.0
 20
0.0
 30
0.0
  3
*D6
  1

  0
LINE
  5
58E
330
58D
100
AcDbEntity
  8
1
  6
Continuous
 62
     4
100
AcDbLine
 10
-231.995428
 20
136.48972161057
 30
0.0
 11
231.9954280000001
 21
136.48972161057
 31
0.0
  0
LINE
  5
58F
330
58D
100
AcDbEntity
  8
1
  6
Continuous
 62
     4
100
AcDbLine
 10
231.9954280000001
 20
0.0
 30
0.0
 11
231.9954280000001
 21
138.48972161057
 31
0.0
  0
LINE
  5
590
330
58D
100
AcDbEntity
  8
1
  6
Continuous
 62
     4
100
AcDbLine
 10
-231.995428
 20
0.0
 30
0.0
 11
-231.995428
 21
138.48972161057
 31
0.0
  0
SOLID
  5
591
330
58D
100
AcDbEntity
  8
1
 62
     4
100
AcDbTrace
 10
-217.995428
 20
138.3328565767935
 30
0.0
 11
-217.995428
 21
134.6465866443465
 31
0.0
 12
-231.995428
 22
136.48972161057
 32
0.0
 13
-231.995428
 23
136.48972161057
 33
0.0
  0
SOLID
  5
592
330
58D
100
AcDbEntity
  8
1
 62
     4
100
AcDbTrace
 10
217.9954280000001
 20
134.6465866443465
 30
0.0
 11
217.9954280000001
 21
138.3328565767935
 31
0.0
 12
231.9954280000001
 22
136.48972161057
 32
0.0
 13
231.9954280000001
 23
136.48972161057
 33
0.0
  0
MTEXT
  5
593
330
58D
100
AcDbEntity
  8
1
 62
     1
100
AcDbMText
 10
-39.95557767865
 20
138.48972161057
 30
0.0
 40
14.0
 41
0.0
 71
     7
 72
     1
  1
500x500
  7
CONVERTER_11
 11
0.9999999999970619
 21
2.424068405545306E-6
 31
0.0
 73
     1
 44
0.60024009603842
  0
ENDBLK
  5
595
330
58D
100
AcDbEntity
  8
0
100
AcDbBlockEnd
  0
BLOCK
  5
59F
330
598
100
AcDbEntity
  8
0
100
AcDbBlockBegin
  2
*D7
 70
     1
 71
     0
 10
0.0
 20
0.0
 30
0.0
  3
*D7
  1

  0
LINE
  5
599
330
598
100
AcDbEntity
  8
1
  6
Continuous
 62
     4
100
AcDbLine
 10
-177.0
 20
96.194292433471
 30
0.0
 11
177.0000000000001
 21
96.194292433471
 31
0.0
  0
LINE
  5
59A
330
598
100
AcDbEntity
  8
1
  6
Continuous
 62
     4
100
AcDbLine
 10
177.0000000000001
 20
-5.236469
 30
0.0
 11
177.0000000000001
 21
98.194292433471
 31
0.0
  0
LINE
  5
59B
330
598
100
AcDbEntity
  8
1
  6
Continuous
 62
     4
100
AcDbLine
 10
-177.0
 20
-5.236469
 30
0.0
 11
-177.0
 21
98.194292433471
 31
0.0
  0
SOLID
  5
59C
330
598
100
AcDbEntity
  8
1
 62
     4
100
AcDbTrace
 10
-163.0
 20
98.03742739969455
 30
0.0
 11
-163.0
 21
94.35115746724746
 31
0.0
 12
-177.0
 22
96.194292433471
 32
0.0
 13
-177.0
 23
96.194292433471
 33
0.0
  0
SOLID
  5
59D
330
598
100
AcDbEntity
  8
1
 62
     4
100
AcDbTrace
 10
163.0000000000001
 20
94.35115746724746
 30
0.0
 11
163.0000000000001
 21
98.03742739969455
 31
0.0
 12
177.0000000000001
 22
96.194292433471
 32
0.0
 13
177.0000000000001
 23
96.194292433471
 33
0.0
  0
MTEXT
  5
59E
330
598
100
AcDbEntity
  8
1
 62
     1
100
AcDbMText
 10
-30.70507523641351
 20
98.19423677686042
 30
0.0
 40
14.0
 41
0.0
 71
     7
 72
     1
  1
\C1;\U+00d8\C1;354
  7
CONVERTER_11
 11
0.9999999999970619
 21
2.424068405545306E-6
 31
0.0
 73
     1
 44
0.60024009603842
  0
ENDBLK
  5
5A0
330
598
100
AcDbEntity
  8
0
100
AcDbBlockEnd
  0
BLOCK
  5
5AA
330
5A3
100
AcDbEntity
  8
0
100
AcDbBlockBegin
  2
*D8
 70
     1
 71
     0
 10
0.0
 20
0.0
 30
0.0
  3
*D8
  1

  0
LINE
  5
5A4
330
5A3
100
AcDbEntity
  8
1
  6
Continuous
 62
     4
100
AcDbLine
 10
62.50007109640968
 20
-543.9529234026138
 30
0.0
 11
-62.49992890321321
 21
-543.9530950761257
 31
0.0
  0
LINE
  5
5A5
330
5A3
100
AcDbEntity
  8
1
  6
Continuous
 62
     4
100
AcDbLine
 10
62.50002734934025
 20
-512.099531370463
 30
0.0
 11
62.50007384318587
 21
-545.9529234026119
 31
0.0
  0
LINE
  5
5A6
330
5A3
100
AcDbEntity
  8
1
  6
Continuous
 62
     4
100
AcDbLine
 10
-62.49997250254591
 20
-512.2072740314445
 30
0.0
 11
-62.49992615643702
 21
-545.9530950761238
 31
0.0
  0
SOLID
  5
5A7
330
5A3
100
AcDbEntity
  8
1
 62
     4
100
AcDbTrace
 10
48.5000736277624
 20
-545.7960775962682
 30
0.0
 11
48.50006856508335
 21
-542.1098076638247
 31
0.0
 12
62.50007109640968
 22
-543.9529234026138
 32
0.0
 13
62.50007109640968
 23
-543.9529234026138
 33
0.0
  0
SOLID
  5
5A8
330
5A3
100
AcDbEntity
  8
1
 62
     4
100
AcDbTrace
 10
-48.49993143456594
 20
-542.1099408824713
 30
0.0
 11
-48.49992637188689
 21
-545.7962108149148
 31
0.0
 12
-62.49992890321321
 22
-543.9530950761257
 32
0.0
 13
-62.49992890321321
 23
-543.9530950761257
 33
0.0
  0
MTEXT
  5
5A9
330
5A3
100
AcDbEntity
  8
1
 62
     1
100
AcDbMText
 10
-18.85265900803405
 20
-541.9530592551029
 30
0.0
 40
14.0
 41
0.0
 71
     7
 72
     1
  1
\C1;DN\C1;125
  7
CONVERTER_11
 11
0.9999999999970619
 21
2.424068405545306E-6
 31
0.0
 73
     1
 44
0.60024009603842
  0
ENDBLK
  5
5AB
330
5A3
100
AcDbEntity
  8
0
100
AcDbBlockEnd
  0
BLOCK
  5
5B6
330
5AE
100
AcDbEntity
  8
0
100
AcDbBlockBegin
  2
*D9
 70
     1
 71
     0
 10
0.0
 20
0.0
 30
0.0
  3
*D9
  1

  0
LINE
  5
5AF
330
5AE
100
AcDbEntity
  8
1
  6
Continuous
 62
     4
100
AcDbLine
 10
73.5
 20
-76.653278387302
 30
0.0
 11
-73.5
 21
-76.653278387302
 31
0.0
  0
LINE
  5
5B0
330
5AE
100
AcDbEntity
  8
1
  6
Continuous
 62
     4
100
AcDbLine
 10
-73.5
 20
-76.653278387302
 30
0.0
 11
-147.927334662055
 21
-76.653278387302
 31
0.0
  0
LINE
  5
5B1
330
5AE
100
AcDbEntity
  8
1
  6
Continuous
 62
     4
100
AcDbLine
 10
73.5
 20
-47.18575713093563
 30
0.0
 11
73.5
 21
-78.653278387302
 31
0.0
  0
LINE
  5
5B2
330
5AE
100
AcDbEntity
  8
1
  6
Continuous
 62
     4
100
AcDbLine
 10
-73.5
 20
-47.18575713093563
 30
0.0
 11
-73.5
 21
-78.653278387302
 31
0.0
  0
SOLID
  5
5B3
330
5AE
100
AcDbEntity
  8
1
 62
     4
100
AcDbTrace
 10
59.5
 20
-78.49641335352554
 30
0.0
 11
59.5
 21
-74.81014342107845
 31
0.0
 12
73.5
 22
-76.653278387302
 32
0.0
 13
73.5
 23
-76.653278387302
 33
0.0
  0
SOLID
  5
5B4
330
5AE
100
AcDbEntity
  8
1
 62
     4
100
AcDbTrace
 10
-59.5
 20
-74.81014342107845
 30
0.0
 11
-59.5
 21
-78.49641335352554
 31
0.0
 12
-73.5
 22
-76.653278387302
 32
0.0
 13
-73.5
 23
-76.653278387302
 33
0.0
  0
MTEXT
  5
5B5
330
5AE
100
AcDbEntity
  8
1
 62
     1
100
AcDbMText
 10
-154.0873346619875
 20
-74.65333404391258
 30
0.0
 40
14.0
 41
0.0
 71
     7
 72
     1
  1
\C1;\U+00d8\C1;147
  7
CONVERTER_11
 11
0.9999999999970619
 21
2.424068405545306E-6
 31
0.0
 73
     1
 44
0.60024009603842
  0
ENDBLK
  5
5B7
330
5AE
100
AcDbEntity
  8
0
100
AcDbBlockEnd
  0
BLOCK
  5
5C1
330
5BA
100
AcDbEntity
  8
0
100
AcDbBlockBegin
  2
*D10
 70
     1
 71
     0
 10
0.0
 20
0.0
 30
0.0
  3
*D10
  1

  0
LINE
  5
5BB
330
5BA
100
AcDbEntity
  8
1
  6
Continuous
 62
     4
100
AcDbLine
 10
172.473568303559
 20
-462.1857571309357
 30
0.0
 11
172.473568303559
 21
-47.1857571309356
 31
0.0
  0
LINE
  5
5BC
330
5BA
100
AcDbEntity
  8
1
  6
Continuous
 62
     4
100
AcDbLine
 10
77.75
 20
-47.1857571309356
 30
0.0
 11
174.473568303559
 21
-47.1857571309356
 31
0.0
  0
LINE
  5
5BD
330
5BA
100
AcDbEntity
  8
1
  6
Continuous
 62
     4
100
AcDbLine
 10
43.7942290000001
 20
-462.1857571309357
 30
0.0
 11
174.473568303559
 21
-462.1857571309357
 31
0.0
  0
SOLID
  5
5BE
330
5BA
100
AcDbEntity
  8
1
 62
     4
100
AcDbTrace
 10
170.6304333373355
 20
-448.1857571309357
 30
0.0
 11
174.3167032697826
 21
-448.1857571309357
 31
0.0
 12
172.473568303559
 22
-462.1857571309357
 32
0.0
 13
172.473568303559
 23
-462.1857571309357
 33
0.0
  0
SOLID
  5
5BF
330
5BA
100
AcDbEntity
  8
1
 62
     4
100
AcDbTrace
 10
174.3167032697826
 20
-61.1857571309356
 30
0.0
 11
170.6304333373355
 21
-61.1857571309356
 31
0.0
 12
172.473568303559
 22
-47.1857571309356
 32
0.0
 13
172.473568303559
 23
-47.1857571309356
 33
0.0
  0
MTEXT
  5
5C0
330
5BA
100
AcDbEntity
  8
1
 62
     1
100
AcDbMText
 10
170.473568303559
 20
-268.628124539347
 30
0.0
 40
14.0
 41
0.0
 71
     7
 72
     1
  1
415
  7
CONVERTER_11
 11
0.0
 21
1.0
 31
0.0
 73
     1
 44
0.60024009603842
  0
ENDBLK
  5
5C2
330
5BA
100
AcDbEntity
  8
0
100
AcDbBlockEnd
  0
BLOCK
  5
5CC
330
5C5
100
AcDbEntity
  8
0
100
AcDbBlockBegin
  2
*D11
 70
     1
 71
     0
 10
0.0
 20
0.0
 30
0.0
  3
*D11
  1

  0
LINE
  5
5C6
330
5C5
100
AcDbEntity
  8
1
  6
Continuous
 62
     4
100
AcDbLine
 10
248.220186240905
 20
-462.1857571309357
 30
0.0
 11
248.220186240905
 21
-3.236469
 31
0.0
  0
LINE
  5
5C7
330
5C5
100
AcDbEntity
  8
1
  6
Continuous
 62
     4
100
AcDbLine
 10
231.9954280000001
 20
-3.236469
 30
0.0
 11
250.220186240905
 21
-3.236469
 31
0.0
  0
LINE
  5
5C8
330
5C5
100
AcDbEntity
  8
1
  6
Continuous
 62
     4
100
AcDbLine
 10
43.79422900000012
 20
-462.1857571309357
 30
0.0
 11
250.220186240905
 21
-462.1857571309357
 31
0.0
  0
SOLID
  5
5C9
330
5C5
100
AcDbEntity
  8
1
 62
     4
100
AcDbTrace
 10
246.3770512746815
 20
-448.1857571309357
 30
0.0
 11
250.0633212071286
 21
-448.1857571309357
 31
0.0
 12
248.220186240905
 22
-462.1857571309357
 32
0.0
 13
248.220186240905
 23
-462.1857571309357
 33
0.0
  0
SOLID
  5
5CA
330
5C5
100
AcDbEntity
  8
1
 62
     4
100
AcDbTrace
 10
250.0633212071286
 20
-17.236469
 30
0.0
 11
246.3770512746815
 21
-17.236469
 31
0.0
 12
248.220186240905
 22
-3.236469
 32
0.0
 13
248.220186240905
 23
-3.236469
 33
0.0
  0
MTEXT
  5
5CB
330
5C5
100
AcDbEntity
  8
1
 62
     1
100
AcDbMText
 10
246.220186240905
 20
-245.994535008785
 30
0.0
 40
14.0
 41
0.0
 71
     7
 72
     1
  1
458
  7
CONVERTER_11
 11
0.0
 21
1.0
 31
0.0
 73
     1
 44
0.60024009603842
  0
ENDBLK
  5
5CD
330
5C5
100
AcDbEntity
  8
0
100
AcDbBlockEnd
  0
ENDSEC
  0
SECTION
  2
ENTITIES
  0
INSERT
  5
5E
330
1F
100
AcDbEntity
  8
0
100
AcDbBlockReference
  2
TOP
 10
0.00000000000004
 20
-159.9823824999999
 30
0.0
  0
DIMENSION
  5
58C
330
1F
100
AcDbEntity
  8
1
100
AcDbDimension
  2
*D5
 10
105.887281157309
 20
-462.1857571309357
 30
0.0
 11
97.887281157309
 21
-304.860897228843
 31
0.0
 70
    32
  1
<>
 71
     5
 42
-1.0
 53
90.0
  3
ME10_DIM_10
100
AcDbAlignedDimension
 13
61.0
 23
-152.1857571309357
 33
0.0
 14
43.79422900000009
 24
-462.1857571309357
 34
0.0
 50
90.0
100
AcDbRotatedDimension
  0
DIMENSION
  5
597
330
1F
100
AcDbEntity
  8
1
100
AcDbDimension
  2
*D6
 10
-231.995428
 20
136.48972161057
 30
0.0
 11
2.04442232135
 21
145.48972161057
 31
0.0
 70
    32
  1
500x500
 71
     5
 42
-1.0
 53
0.00013888888889
  3
ME10_DIM_11
100
AcDbAlignedDimension
 13
231.9954280000001
 23
0.0
 33
0.0
 14
-231.995428
 24
0.0
 34
0.0
100
AcDbRotatedDimension
  0
DIMENSION
  5
5A2
330
1F
100
AcDbEntity
  8
1
100
AcDbDimension
  2
*D7
 10
-177.0
 20
96.194292433471
 30
0.0
 11
0.65492476351903
 21
105.194292433471
 31
0.0
 70
    32
  1
<>
 71
     5
 42
-1.0
 53
0.00013888888889
  3
ME10_DIM_12
100
AcDbAlignedDimension
 13
177.0000000000001
 23
-5.236469
 33
0.0
 14
-177.0
 24
-5.236469
 34
0.0
100
AcDbRotatedDimension
  0
DIMENSION
  5
5AD
330
1F
100
AcDbEntity
  8
1
100
AcDbDimension
  2
*D8
 10
62.50007109640968
 20
-543.9529234026138
 30
0.0
 11
3.40733137818248
 21
-534.9530045598706
 31
0.0
 70
    32
  1
<>
 71
     5
 42
-1.0
 53
0.00013888888889
  3
ME10_DIM_13
100
AcDbAlignedDimension
 13
-62.49997250254592
 23
-512.2072740314445
 33
0.0
 14
62.50002734934026
 24
-512.099531370463
 34
0.0
 50
0.00007868934149
100
AcDbRotatedDimension
  0
DIMENSION
  5
5B9
330
1F
100
AcDbEntity
  8
1
100
AcDbDimension
  2
*D9
 10
73.5
 20
-76.653278387302
 30
0.0
 11
-124.827334662055
 21
-67.653278387302
 31
0.0
 70
    32
  1
<>
 71
     5
 42
-1.0
 53
0.00013888888889
  3
ME10_DIM_14
100
AcDbAlignedDimension
 13
-73.5
 23
-47.18575713093564
 33
0.0
 14
73.5
 24
-47.18575713093564
 34
0.0
100
AcDbRotatedDimension
  0
DIMENSION
  5
5C4
330
1F
100
AcDbEntity
  8
1
100
AcDbDimension
  2
*D10
 10
172.473568303559
 20
-462.1857571309357
 30
0.0
 11
163.473568303559
 21
-253.928124539347
 31
0.0
 70
    32
  1
<>
 71
     5
 42
-1.0
 53
90.0
  3
ME10_DIM_15
100
AcDbAlignedDimension
 13
77.75
 23
-47.18575713093564
 33
0.0
 14
43.79422900000009
 24
-462.1857571309357
 34
0.0
 50
90.0
100
AcDbRotatedDimension
  0
DIMENSION
  5
5CF
330
1F
100
AcDbEntity
  8
1
100
AcDbDimension
  2
*D11
 10
248.220186240905
 20
-462.1857571309357
 30
0.0
 11
239.220186240905
 21
-229.194535008785
 31
0.0
 70
    32
  1
458
 71
     5
 42
-1.0
 53
90.0
  3
ME10_DIM_16
100
AcDbAlignedDimension
 13
231.9954280000001
 23
-3.236469
 33
0.0
 14
43.79422900000009
 24
-462.1857571309357
 34
0.0
 50
90.0
100
AcDbRotatedDimension
  0
ENDSEC
  0
SECTION
  2
OBJECTS
  0
DICTIONARY
  5
C
330
0
100
AcDbDictionary
281
     1
  3
ACAD_GROUP
350
D
  3
ACAD_LAYOUT
350
1A
  3
ACAD_MLINESTYLE
350
17
  3
ACAD_PLOTSETTINGS
350
19
  3
ACAD_PLOTSTYLENAME
350
E
  3
ACAD_TABLESTYLE
350
5D0
  3
ACAD_VISUALSTYLE
350
2A
  0
DICTIONARY
  5
D
102
{ACAD_REACTORS
330
C
102
}
330
C
100
AcDbDictionary
281
     1
  0
DICTIONARY
  5
1A
102
{ACAD_REACTORS
330
C
102
}
330
C
100
AcDbDictionary
281
     1
  3
Layout1
350
1E
  3
Layout2
350
26
  3
Model
350
22
  0
DICTIONARY
  5
17
102
{ACAD_REACTORS
330
C
102
}
330
C
100
AcDbDictionary
281
     1
  3
Standard
350
18
  0
DICTIONARY
  5
19
102
{ACAD_REACTORS
330
C
102
}
330
C
100
AcDbDictionary
281
     1
  0
ACDBDICTIONARYWDFLT
  5
E
102
{ACAD_REACTORS
330
C
102
}
330
C
100
AcDbDictionary
281
     1
  3
Normal
350
F
100
AcDbDictionaryWithDefault
340
F
  0
DICTIONARY
  5
5D0
102
{ACAD_REACTORS
330
C
102
}
330
C
100
AcDbDictionary
281
     1
  0
DICTIONARY
  5
2A
102
{ACAD_REACTORS
330
C
102
}
330
C
100
AcDbDictionary
281
     1
  3
2dWireframe
350
2F
  3
3D Hidden
350
31
  3
3dWireframe
350
30
  3
Basic
350
32
  3
Brighten
350
36
  3
ColorChange
350
3A
  3
Conceptual
350
34
  3
Dim
350
35
  3
Facepattern
350
39
  3
Flat
350
2B
  3
FlatWithEdges
350
2C
  3
Gouraud
350
2D
  3
GouraudWithEdges
350
2E
  3
Linepattern
350
38
  3
Realistic
350
33
  3
Thicken
350
37
  0
LAYOUT
  5
1E
102
{ACAD_REACTORS
330
1A
102
}
330
1A
100
AcDbPlotSettings
  1

  2
none_device
  4

  6

 40
0.0
 41
0.0
 42
0.0
 43
0.0
 44
0.0
 45
0.0
 46
0.0
 47
0.0
 48
0.0
 49
0.0
140
0.0
141
0.0
142
1.0
143
1.0
 70
   688
 72
     0
 73
     0
 74
     5
  7

 75
    16
147
1.0
148
0.0
149
0.0
100
AcDbLayout
  1
Layout1
 70
     1
 71
     1
 10
0.0
 20
0.0
 11
12.0
 21
9.0
 12
0.0
 22
0.0
 32
0.0
 14
1.00000000000000E+20
 24
1.00000000000000E+20
 34
1.00000000000000E+20
 15
-1.00000000000000E+20
 25
-1.00000000000000E+20
 35
-1.00000000000000E+20
146
0.0
 13
0.0
 23
0.0
 33
0.0
 16
1.0
 26
0.0
 36
0.0
 17
0.0
 27
1.0
 37
0.0
 76
     0
330
1B
  0
LAYOUT
  5
26
102
{ACAD_REACTORS
330
1A
102
}
330
1A
100
AcDbPlotSettings
  1

  2
none_device
  4

  6

 40
0.0
 41
0.0
 42
0.0
 43
0.0
 44
0.0
 45
0.0
 46
0.0
 47
0.0
 48
0.0
 49
0.0
140
0.0
141
0.0
142
1.0
143
1.0
 70
   688
 72
     0
 73
     0
 74
     5
  7

 75
    16
147
1.0
148
0.0
149
0.0
100
AcDbLayout
  1
Layout2
 70
     1
 71
     2
 10
0.0
 20
0.0
 11
0.0
 21
0.0
 12
0.0
 22
0.0
 32
0.0
 14
0.0
 24
0.0
 34
0.0
 15
0.0
 25
0.0
 35
0.0
146
0.0
 13
0.0
 23
0.0
 33
0.0
 16
1.0
 26
0.0
 36
0.0
 17
0.0
 27
1.0
 37
0.0
 76
     0
330
23
  0
LAYOUT
  5
22
102
{ACAD_REACTORS
330
1A
102
}
330
1A
100
AcDbPlotSettings
  1

  2
none_device
  4

  6

 40
0.0
 41
0.0
 42
0.0
 43
0.0
 44
0.0
 45
0.0
 46
0.0
 47
0.0
 48
0.0
 49
0.0
140
0.0
141
0.0
142
1.0
143
1.0
 70
  1712
 72
     0
 73
     0
 74
     0
  7

 75
     0
147
1.0
148
0.0
149
0.0
100
AcDbLayout
  1
Model
 70
     1
 71
     0
 10
0.0
 20
0.0
 11
12.0
 21
9.0
 12
0.0
 22
0.0
 32
0.0
 14
-250.0
 24
-1105.957465738946
 34
0.0
 15
250.220186240905
 25
152.48972161057
 35
0.0
146
0.0
 13
0.0
 23
0.0
 33
0.0
 16
1.0
 26
0.0
 36
0.0
 17
0.0
 27
1.0
 37
0.0
 76
     0
330
1F
331
29
  0
MLINESTYLE
  5
18
102
{ACAD_REACTORS
330
17
102
}
330
17
100
AcDbMlineStyle
  2
Standard
 70
     0
  3

 62
   256
 51
90.0
 52
90.0
 71
     2
 49
0.5
 62
   256
  6
BYLAYER
 49
-0.5
 62
   256
  6
BYLAYER
  0
ACDBPLACEHOLDER
  5
F
102
{ACAD_REACTORS
330
E
102
}
330
E
  0
VISUALSTYLE
  5
2F
102
{ACAD_REACTORS
330
2A
102
}
330
2A
100
AcDbVisualStyle
  2
2dWireframe
 70
     4
 71
     0
 72
     2
 73
     0
 90
        0
 40
-0.6
 41
-30.0
 62
     5
 63
     7
 74
     1
 91
        4
 64
     7
 65
   257
 75
     1
175
     1
 42
1.0
 92
        0
 66
   257
 43
1.0
 76
     1
 77
     6
 78
     2
 67
     7
 79
     5
170
     0
171
     0
290
     0
174
     0
 93
        1
 44
0.0
173
     0
291
     0
 45
0.0
1001
ACAD
1000
AcDbSavedByObjectVersion
1070
     0
  0
VISUALSTYLE
  5
31
102
{ACAD_REACTORS
330
2A
102
}
330
2A
100
AcDbVisualStyle
  2
3D Hidden
 70
     6
 71
     1
 72
     2
 73
     2
 90
        0
 40
-0.6
 41
-30.0
 62
     5
 63
     7
 74
     2
 91
        2
 64
     7
 65
   257
 75
     2
175
     1
 42
40.0
 92
        0
 66
   257
 43
1.0
 76
     1
 77
     6
 78
     2
 67
     7
 79
     3
170
     0
171
     0
290
     0
174
     0
 93
        1
 44
0.0
173
     0
291
     0
 45
0.0
1001
ACAD
1000
AcDbSavedByObjectVersion
1070
     0
  0
VISUALSTYLE
  5
30
102
{ACAD_REACTORS
330
2A
102
}
330
2A
100
AcDbVisualStyle
  2
3dWireframe
 70
     5
 71
     0
 72
     2
 73
     0
 90
        0
 40
-0.6
 41
-30.0
 62
     5
 63
     7
 74
     1
 91
        4
 64
     7
 65
   257
 75
     1
175
     1
 42
1.0
 92
        0
 66
   257
 43
1.0
 76
     1
 77
     6
 78
     2
 67
     7
 79
     5
170
     0
171
     0
290
     0
174
     0
 93
        1
 44
0.0
173
     0
291
     0
 45
0.0
1001
ACAD
1000
AcDbSavedByObjectVersion
1070
     0
  0
VISUALSTYLE
  5
32
102
{ACAD_REACTORS
330
2A
102
}
330
2A
100
AcDbVisualStyle
  2
Basic
 70
     7
 71
     1
 72
     0
 73
     1
 90
        0
 40
-0.6
 41
-30.0
 62
     5
 63
     7
 74
     0
 91
        4
 64
     7
 65
   257
 75
     1
175
     1
 42
1.0
 92
        8
 66
     7
 43
1.0
 76
     1
 77
     6
 78
     2
 67
     7
 79
     5
170
     0
171
     0
290
     0
174
     0
 93
        1
 44
0.0
173
     0
291
     1
 45
0.0
1001
ACAD
1000
AcDbSavedByObjectVersion
1070
     0
  0
VISUALSTYLE
  5
36
102
{ACAD_REACTORS
330
2A
102
}
330
2A
100
AcDbVisualStyle
  2
Brighten
 70
    12
 71
     2
 72
     2
 73
     0
 90
        0
 40
-0.6
 41
-30.0
 62
     5
 63
     7
 74
     1
 91
        4
 64
     7
 65
   257
 75
     1
175
     1
 42
1.0
 92
        8
 66
     7
 43
1.0
 76
     1
 77
     6
 78
     2
 67
     7
 79
     5
170
     0
171
     0
290
     0
174
     0
 93
        1
 44
50.0
173
     0
291
     1
 45
0.0
1001
ACAD
1000
AcDbSavedByObjectVersion
1070
     0
  0
VISUALSTYLE
  5
3A
102
{ACAD_REACTORS
330
2A
102
}
330
2A
100
AcDbVisualStyle
  2
ColorChange
 70
    16
 71
     2
 72
     2
 73
     3
 90
        0
 40
-0.6
 41
-30.0
 62
     5
 63
     8
 74
     1
 91
        4
 64
     7
 65
   257
 75
     1
175
     1
 42
1.0
 92
        8
 66
     8
 43
1.0
 76
     1
 77
     6
 78
     2
 67
     7
 79
     5
170
     0
171
     0
290
     0
174
     0
 93
        1
 44
0.0
173
     0
291
     1
 45
0.0
1001
ACAD
1000
AcDbSavedByObjectVersion
1070
     0
  0
VISUALSTYLE
  5
34
102
{ACAD_REACTORS
330
2A
102
}
330
2A
100
AcDbVisualStyle
  2
Conceptual
 70
     9
 71
     3
 72
     2
 73
     0
 90
        0
 40
-0.6
 41
-30.0
 62
     5
 63
     7
 74
     2
 91
        2
 64
     7
 65
   257
 75
     1
175
     1
 42
40.0
 92
        8
 66
     7
 43
1.0
 76
     1
 77
     6
 78
     2
 67
     7
 79
     3
170
     0
171
     0
290
     0
174
     0
 93
        1
 44
0.0
173
     0
291
     0
 45
0.0
1001
ACAD
1000
AcDbSavedByObjectVersion
1070
     0
  0
VISUALSTYLE
  5
35
102
{ACAD_REACTORS
330
2A
102
}
330
2A
100
AcDbVisualStyle
  2
Dim
 70
    11
 71
     2
 72
     2
 73
     0
 90
        0
 40
-0.6
 41
-30.0
 62
     5
 63
     7
 74
     1
 91
        4
 64
     7
 65
   257
 75
     1
175
     1
 42
1.0
 92
        8
 66
     7
 43
1.0
 76
     1
 77
     6
 78
     2
 67
     7
 79
     5
170
     0
171
     0
290
     0
174
     0
 93
        1
 44
-50.0
173
     0
291
     1
 45
0.0
1001
ACAD
1000
AcDbSavedByObjectVersion
1070
     0
  0
VISUALSTYLE
  5
39
102
{ACAD_REACTORS
330
2A
102
}
330
2A
100
AcDbVisualStyle
  2
Facepattern
 70
    15
 71
     2
 72
     2
 73
     0
 90
        0
 40
-0.6
 41
-30.0
 62
     5
 63
     7
 74
     1
 91
        4
 64
     7
 65
   257
 75
     1
175
     1
 42
1.0
 92
        8
 66
     7
 43
1.0
 76
     1
 77
     6
 78
     2
 67
     7
 79
     5
170
     0
171
     0
290
     0
174
     0
 93
        1
 44
0.0
173
     0
291
     1
 45
0.0
1001
ACAD
1000
AcDbSavedByObjectVersion
1070
     0
  0
VISUALSTYLE
  5
2B
102
{ACAD_REACTORS
330
2A
102
}
330
2A
100
AcDbVisualStyle
  2
Flat
 70
     0
 71
     2
 72
     1
 73
     1
 90
        2
 40
-0.6
 41
30.0
 62
     5
 63
     7
 74
     0
 91
        4
 64
     7
 65
   257
 75
     1
175
     1
 42
1.0
 92
        8
 66
     7
 43
1.0
 76
     1
 77
     6
 78
     2
 67
     7
 79
     5
170
     0
171
     0
290
     0
174
     0
 93
       13
 44
0.0
173
     0
291
     1
 45
0.0
1001
ACAD
1000
AcDbSavedByObjectVersion
1070
     0
  0
VISUALSTYLE
  5
2C
102
{ACAD_REACTORS
330
2A
102
}
330
2A
100
AcDbVisualStyle
  2
FlatWithEdges
 70
     1
 71
     2
 72
     1
 73
     1
 90
        2
 40
-0.6
 41
30.0
 62
     5
 63
     7
 74
     1
 91
        4
 64
     7
 65
   257
 75
     1
175
     1
 42
1.0
 92
        0
 66
   257
 43
1.0
 76
     1
 77
     6
 78
     2
 67
     7
 79
     5
170
     0
171
     0
290
     0
174
     0
 93
       13
 44
0.0
173
     0
291
     1
 45
0.0
1001
ACAD
1000
AcDbSavedByObjectVersion
1070
     0
  0
VISUALSTYLE
  5
2D
102
{ACAD_REACTORS
330
2A
102
}
330
2A
100
AcDbVisualStyle
  2
Gouraud
 70
     2
 71
     2
 72
     2
 73
     1
 90
        2
 40
-0.6
 41
30.0
 62
     5
 63
     7
 74
     0
 91
        4
 64
     7
 65
   257
 75
     1
175
     1
 42
1.0
 92
        0
 66
     7
 43
1.0
 76
     1
 77
     6
 78
     2
 67
     7
 79
     5
170
     0
171
     0
290
     0
174
     0
 93
       13
 44
0.0
173
     0
291
     1
 45
0.0
1001
ACAD
1000
AcDbSavedByObjectVersion
1070
     0
  0
VISUALSTYLE
  5
2E
102
{ACAD_REACTORS
330
2A
102
}
330
2A
100
AcDbVisualStyle
  2
GouraudWithEdges
 70
     3
 71
     2
 72
     2
 73
     1
 90
        2
 40
-0.6
 41
30.0
 62
     5
 63
     7
 74
     1
 91
        4
 64
     7
 65
   257
 75
     1
175
     1
 42
1.0
 92
        0
 66
   257
 43
1.0
 76
     1
 77
     6
 78
     2
 67
     7
 79
     5
170
     0
171
     0
290
     0
174
     0
 93
       13
 44
0.0
173
     0
291
     1
 45
0.0
1001
ACAD
1000
AcDbSavedByObjectVersion
1070
     0
  0
VISUALSTYLE
  5
38
102
{ACAD_REACTORS
330
2A
102
}
330
2A
100
AcDbVisualStyle
  2
Linepattern
 70
    14
 71
     2
 72
     2
 73
     0
 90
        0
 40
-0.6
 41
-30.0
 62
     5
 63
     7
 74
     1
 91
        4
 64
     7
 65
   257
 75
     7
175
     7
 42
1.0
 92
        8
 66
     7
 43
1.0
 76
     1
 77
     6
 78
     2
 67
     7
 79
     5
170
     0
171
     0
290
     0
174
     0
 93
        1
 44
0.0
173
     0
291
     1
 45
0.0
1001
ACAD
1000
AcDbSavedByObjectVersion
1070
     0
  0
VISUALSTYLE
  5
33
102
{ACAD_REACTORS
330
2A
102
}
330
2A
100
AcDbVisualStyle
  2
Realistic
 70
     8
 71
     2
 72
     2
 73
     0
 90
        0
 40
-0.6
 41
-30.0
 62
     5
 63
     7
 74
     1
 91
        0
 64
     7
 65
   257
 75
     1
175
     1
 42
1.0
 92
        8
 66
     8
 43
1.0
 76
     1
 77
     6
 78
     2
 67
     7
 79
     5
170
     0
171
     0
290
     0
174
     0
 93
       13
 44
0.0
173
     0
291
     0
 45
0.0
1001
ACAD
1000
AcDbSavedByObjectVersion
1070
     0
  0
VISUALSTYLE
  5
37
102
{ACAD_REACTORS
330
2A
102
}
330
2A
100
AcDbVisualStyle
  2
Thicken
 70
    13
 71
     2
 72
     2
 73
     0
 90
        0
 40
-0.6
 41
-30.0
 62
     5
 63
     7
 74
     1
 91
        4
 64
     7
 65
   257
 75
     1
175
     1
 42
1.0
 92
       12
 66
     7
 43
1.0
 76
     1
 77
     6
 78
     2
 67
     7
 79
     5
170
     0
171
     0
290
     0
174
     0
 93
        1
 44
0.0
173
     0
291
     1
 45
0.0
1001
ACAD
1000
AcDbSavedByObjectVersion
1070
     0
  0
ENDSEC
  0
EOF
