  0
SECTION
  2
HEADER
  9
$ACADVER
  1
AC1015
  9
$ACADMAINTVER
 70
     6
  9
$DWGCODEPAGE
  3
ANSI_1252
  9
$INSBASE
 10
0.0
 20
0.0
 30
0.0
  9
$EXTMIN
 10
-250.0000000000003
 20
-971.8369164839714
 30
0.0
  9
$EXTMAX
 10
249.9999999999997
 20
152.48972161057
 30
0.0
  9
$LIMMIN
 10
0.0
 20
0.0
  9
$LIMMAX
 10
12.0
 20
9.0
  9
$ORTHOMODE
 70
     0
  9
$REGENMODE
 70
     1
  9
$FILLMODE
 70
     1
  9
$QTEXTMODE
 70
     0
  9
$MIRRTEXT
 70
     1
  9
$LTSCALE
 40
1.0
  9
$ATTMODE
 70
     1
  9
$TEXTSIZE
 40
0.2
  9
$TRACEWID
 40
0.05
  9
$TEXTSTYLE
  7
Standard
  9
$CLAYER
  8
0
  9
$CELTYPE
  6
ByLayer
  9
$CECOLOR
 62
   256
  9
$CELTSCALE
 40
1.0
  9
$DISPSILH
 70
     0
  9
$DIMSCALE
 40
1.0
  9
$DIMASZ
 40
0.18
  9
$DIMEXO
 40
0.0625
  9
$DIMDLI
 40
0.38
  9
$DIMRND
 40
0.0
  9
$DIMDLE
 40
0.0
  9
$DIMEXE
 40
0.18
  9
$DIMTP
 40
0.0
  9
$DIMTM
 40
0.0
  9
$DIMTXT
 40
0.18
  9
$DIMCEN
 40
0.09
  9
$DIMTSZ
 40
0.0
  9
$DIMTOL
 70
     0
  9
$DIMLIM
 70
     0
  9
$DIMTIH
 70
     1
  9
$DIMTOH
 70
     1
  9
$DIMSE1
 70
     0
  9
$DIMSE2
 70
     0
  9
$DIMTAD
 70
     0
  9
$DIMZIN
 70
     0
  9
$DIMBLK
  1

  9
$DIMASO
 70
     1
  9
$DIMSHO
 70
     1
  9
$DIMPOST
  1

  9
$DIMAPOST
  1

  9
$DIMALT
 70
     0
  9
$DIMALTD
 70
     2
  9
$DIMALTF
 40
25.4
  9
$DIMLFAC
 40
1.0
  9
$DIMTOFL
 70
     0
  9
$DIMTVP
 40
0.0
  9
$DIMTIX
 70
     0
  9
$DIMSOXD
 70
     0
  9
$DIMSAH
 70
     0
  9
$DIMBLK1
  1

  9
$DIMBLK2
  1

  9
$DIMSTYLE
  2
Standard
  9
$DIMCLRD
 70
     0
  9
$DIMCLRE
 70
     0
  9
$DIMCLRT
 70
     0
  9
$DIMTFAC
 40
1.0
  9
$DIMGAP
 40
0.09
  9
$DIMJUST
 70
     0
  9
$DIMSD1
 70
     0
  9
$DIMSD2
 70
     0
  9
$DIMTOLJ
 70
     1
  9
$DIMTZIN
 70
     0
  9
$DIMALTZ
 70
     0
  9
$DIMALTTZ
 70
     0
  9
$DIMUPT
 70
     0
  9
$DIMDEC
 70
     4
  9
$DIMTDEC
 70
     4
  9
$DIMALTU
 70
     2
  9
$DIMALTTD
 70
     2
  9
$DIMTXSTY
  7
Standard
  9
$DIMAUNIT
 70
     0
  9
$DIMADEC
 70
     0
  9
$DIMALTRND
 40
0.0
  9
$DIMAZIN
 70
     0
  9
$DIMDSEP
 70
    46
  9
$DIMATFIT
 70
     3
  9
$DIMFRAC
 70
     0
  9
$DIMLDRBLK
  1

  9
$DIMLUNIT
 70
     2
  9
$DIMLWD
 70
    -2
  9
$DIMLWE
 70
    -2
  9
$DIMTMOVE
 70
     0
  9
$LUNITS
 70
     2
  9
$LUPREC
 70
     4
  9
$SKETCHINC
 40
0.1
  9
$FILLETRAD
 40
0.5
  9
$AUNITS
 70
     0
  9
$AUPREC
 70
     0
  9
$MENU
  1
.
  9
$ELEVATION
 40
0.0
  9
$PELEVATION
 40
0.0
  9
$THICKNESS
 40
0.0
  9
$LIMCHECK
 70
     0
  9
$CHAMFERA
 40
0.5
  9
$CHAMFERB
 40
0.5
  9
$CHAMFERC
 40
1.0
  9
$CHAMFERD
 40
0.0
  9
$SKPOLY
 70
     0
  9
$TDCREATE
 40
2454725.442065544
  9
$TDUCREATE
 40
2454725.35873221
  9
$TDUPDATE
 40
2454725.442065556
  9
$TDUUPDATE
 40
2454725.358732222
  9
$TDINDWG
 40
0.0000000116
  9
$TDUSRTIMER
 40
0.0000000116
  9
$USRTIMER
 70
     1
  9
$ANGBASE
 50
0.0
  9
$ANGDIR
 70
     0
  9
$PDMODE
 70
     0
  9
$PDSIZE
 40
0.0
  9
$PLINEWID
 40
0.0
  9
$SPLFRAME
 70
     0
  9
$SPLINETYPE
 70
     6
  9
$SPLINESEGS
 70
     8
  9
$HANDSEED
  5
619
  9
$SURFTAB1
 70
     6
  9
$SURFTAB2
 70
     6
  9
$SURFTYPE
 70
     6
  9
$SURFU
 70
     6
  9
$SURFV
 70
     6
  9
$UCSBASE
  2

  9
$UCSNAME
  2

  9
$UCSORG
 10
0.0
 20
0.0
 30
0.0
  9
$UCSXDIR
 10
1.0
 20
0.0
 30
0.0
  9
$UCSYDIR
 10
0.0
 20
1.0
 30
0.0
  9
$UCSORTHOREF
  2

  9
$UCSORTHOVIEW
 70
     0
  9
$UCSORGTOP
 10
0.0
 20
0.0
 30
0.0
  9
$UCSORGBOTTOM
 10
0.0
 20
0.0
 30
0.0
  9
$UCSORGLEFT
 10
0.0
 20
0.0
 30
0.0
  9
$UCSORGRIGHT
 10
0.0
 20
0.0
 30
0.0
  9
$UCSORGFRONT
 10
0.0
 20
0.0
 30
0.0
  9
$UCSORGBACK
 10
0.0
 20
0.0
 30
0.0
  9
$PUCSBASE
  2

  9
$PUCSNAME
  2

  9
$PUCSORG
 10
0.0
 20
0.0
 30
0.0
  9
$PUCSXDIR
 10
1.0
 20
0.0
 30
0.0
  9
$PUCSYDIR
 10
0.0
 20
1.0
 30
0.0
  9
$PUCSORTHOREF
  2

  9
$PUCSORTHOVIEW
 70
     0
  9
$PUCSORGTOP
 10
0.0
 20
0.0
 30
0.0
  9
$PUCSORGBOTTOM
 10
0.0
 20
0.0
 30
0.0
  9
$PUCSORGLEFT
 10
0.0
 20
0.0
 30
0.0
  9
$PUCSORGRIGHT
 10
0.0
 20
0.0
 30
0.0
  9
$PUCSORGFRONT
 10
0.0
 20
0.0
 30
0.0
  9
$PUCSORGBACK
 10
0.0
 20
0.0
 30
0.0
  9
$USERI1
 70
     0
  9
$USERI2
 70
     0
  9
$USERI3
 70
     0
  9
$USERI4
 70
     0
  9
$USERI5
 70
     0
  9
$USERR1
 40
15.5
  9
$USERR2
 40
0.0
  9
$USERR3
 40
0.0
  9
$USERR4
 40
0.0
  9
$USERR5
 40
0.0
  9
$WORLDVIEW
 70
     1
  9
$SHADEDGE
 70
     3
  9
$SHADEDIF
 70
    70
  9
$TILEMODE
 70
     1
  9
$MAXACTVP
 70
    64
  9
$PINSBASE
 10
0.0
 20
0.0
 30
0.0
  9
$PLIMCHECK
 70
     0
  9
$PEXTMIN
 10
1.00000000000000E+20
 20
1.00000000000000E+20
 30
1.00000000000000E+20
  9
$PEXTMAX
 10
-1.00000000000000E+20
 20
-1.00000000000000E+20
 30
-1.00000000000000E+20
  9
$PLIMMIN
 10
0.0
 20
0.0
  9
$PLIMMAX
 10
12.0
 20
9.0
  9
$UNITMODE
 70
     0
  9
$VISRETAIN
 70
     1
  9
$PLINEGEN
 70
     0
  9
$PSLTSCALE
 70
     1
  9
$TREEDEPTH
 70
  3020
  9
$CMLSTYLE
  2
Standard
  9
$CMLJUST
 70
     0
  9
$CMLSCALE
 40
1.0
  9
$PROXYGRAPHICS
 70
     1
  9
$MEASUREMENT
 70
     1
  9
$CELWEIGHT
370
    -1
  9
$ENDCAPS
280
     0
  9
$JOINSTYLE
280
     0
  9
$LWDISPLAY
290
     0
  9
$INSUNITS
 70
     1
  9
$HYPERLINKBASE
  1

  9
$STYLESHEET
  1

  9
$XEDIT
290
     1
  9
$CEPSNTYPE
380
     0
  9
$PSTYLEMODE
290
     1
  9
$FINGERPRINTGUID
  2
{6B953F8F-CE8E-45EB-84BD-8A6E2447E165}
  9
$VERSIONGUID
  2
{FAEB1C32-E019-11D5-929B-00C0DF256EC4}
  9
$EXTNAMES
290
     1
  9
$PSVPSCALE
 40
0.0
  9
$OLESTARTUP
290
     0
  0
ENDSEC
  0
SECTION
  2
CLASSES
  0
CLASS
  1
ACDBDICTIONARYWDFLT
  2
AcDbDictionaryWithDefault
  3
ObjectDBX Classes
 90
        0
280
     0
281
     0
  0
CLASS
  1
VISUALSTYLE
  2
AcDbVisualStyle
  3
ObjectDBX Classes
 90
     4095
280
     0
281
     0
  0
CLASS
  1

  2
exOdDbCircle
  3

 90
        0
280
     0
281
     1
  0
CLASS
  1

  2
exOdDbSpline
  3

 90
        0
280
     0
281
     1
  0
CLASS
  1

  2
exOdDbPolyline
  3

 90
        0
280
     0
281
     1
  0
CLASS
  1
ACDBPLACEHOLDER
  2
AcDbPlaceHolder
  3
ObjectDBX Classes
 90
        0
280
     0
281
     0
  0
CLASS
  1
LAYOUT
  2
AcDbLayout
  3
ObjectDBX Classes
 90
        0
280
     0
281
     0
  0
ENDSEC
  0
SECTION
  2
TABLES
  0
TABLE
  2
VPORT
  5
8
330
0
100
AcDbSymbolTable
 70
     1
  0
VPORT
  5
29
330
8
100
AcDbSymbolTableRecord
100
AcDbViewportTableRecord
  2
*Active
 70
     0
 10
0.0
 20
0.0
 11
1.0
 21
1.0
 12
-0.00000000000031
 22
-409.6735974367007
 13
0.0
 23
0.0
 14
0.5
 24
0.5
 15
0.5
 25
0.5
 16
0.0
 26
0.0
 36
1.0
 17
0.0
 27
0.0
 37
0.0
 40
1236.759301903996
 41
1.60267857142857
 42
50.0
 43
0.0
 44
0.0
 50
0.0
 51
0.0
 71
     0
 72
   100
 73
     1
 74
     3
 75
     0
 76
     0
 77
     0
 78
     0
281
     0
 65
     1
110
0.0
120
0.0
130
0.0
111
1.0
121
0.0
131
0.0
112
0.0
122
1.0
132
0.0
 79
     0
146
0.0
  0
ENDTAB
  0
TABLE
  2
LTYPE
  5
5
330
0
100
AcDbSymbolTable
 70
     9
  0
LTYPE
  5
14
330
5
100
AcDbSymbolTableRecord
100
AcDbLinetypeTableRecord
  2
ByBlock
 70
     0
  3

 72
    65
 73
     0
 40
0.0
  0
LTYPE
  5
15
330
5
100
AcDbSymbolTableRecord
100
AcDbLinetypeTableRecord
  2
ByLayer
 70
     0
  3

 72
    65
 73
     0
 40
0.0
  0
LTYPE
  5
16
330
5
100
AcDbSymbolTableRecord
100
AcDbLinetypeTableRecord
  2
Continuous
 70
     0
  3
Solid line
 72
    65
 73
     0
 40
0.0
  0
LTYPE
  5
3B
330
5
100
AcDbSymbolTableRecord
100
AcDbLinetypeTableRecord
  2
DASHED
 70
     0
  3
Dashed
 72
    65
 73
     2
 40
15.0
 49
7.0
 74
     0
 49
-8.0
 74
     0
  0
LTYPE
  5
3C
330
5
100
AcDbSymbolTableRecord
100
AcDbLinetypeTableRecord
  2
DOTTED
 70
     0
  3
Dotted
 72
    65
 73
     2
 40
1.0
 49
0.0
 74
     0
 49
-1.0
 74
     0
  0
LTYPE
  5
3D
330
5
100
AcDbSymbolTableRecord
100
AcDbLinetypeTableRecord
  2
DOT_CENTER
 70
     0
  3
Dot_Center
 72
    65
 73
     4
 40
14.0
 49
12.0
 74
     0
 49
-1.0
 74
     0
 49
0.0
 74
     0
 49
-1.0
 74
     0
  0
LTYPE
  5
3E
330
5
100
AcDbSymbolTableRecord
100
AcDbLinetypeTableRecord
  2
LONG_DASHED
 70
     0
  3
Long_Dashed
 72
    65
 73
     2
 40
15.0
 49
10.0
 74
     0
 49
-5.0
 74
     0
  0
LTYPE
  5
3F
330
5
100
AcDbSymbolTableRecord
100
AcDbLinetypeTableRecord
  2
DASH_CENTER
 70
     0
  3
Dash_Center
 72
    65
 73
     4
 40
14.0
 49
11.0
 74
     0
 49
-1.0
 74
     0
 49
1.0
 74
     0
 49
-1.0
 74
     0
  0
LTYPE
  5
40
330
5
100
AcDbSymbolTableRecord
100
AcDbLinetypeTableRecord
  2
PHANTOM
 70
     0
  3
Phantom
 72
    65
 73
     6
 40
13.0
 49
10.0
 74
     0
 49
-1.0
 74
     0
 49
0.0
 74
     0
 49
-1.0
 74
     0
 49
0.0
 74
     0
 49
-1.0
 74
     0
  0
LTYPE
  5
41
330
5
100
AcDbSymbolTableRecord
100
AcDbLinetypeTableRecord
  2
CENTER_DASH_DASH
 70
     0
  3
Center_Dash_Dash
 72
    65
 73
     6
 40
14.0
 49
9.0
 74
     0
 49
-1.0
 74
     0
 49
1.0
 74
     0
 49
-1.0
 74
     0
 49
1.0
 74
     0
 49
-1.0
 74
     0
  0
LTYPE
  5
42
330
5
100
AcDbSymbolTableRecord
100
AcDbLinetypeTableRecord
  2
DASHDOT
 70
     0
  3
DASHDOT
 72
    65
 73
     4
 40
16.0
 49
10.0
 74
     0
 49
-3.0
 74
     0
 49
0.0
 74
     0
 49
-3.0
 74
     0
  0
ENDTAB
  0
TABLE
  2
LAYER
  5
2
330
0
100
AcDbSymbolTable
 70
     9
  0
LAYER
  5
10
330
2
100
AcDbSymbolTableRecord
100
AcDbLayerTableRecord
  2
0
 70
     0
 62
     7
  6
Continuous
370
    -3
390
F
  0
LAYER
  5
43
330
2
100
AcDbSymbolTableRecord
100
AcDbLayerTableRecord
  2
1
 70
     0
 62
     7
  6
Continuous
370
    -3
390
F
  0
LAYER
  5
44
330
2
100
AcDbSymbolTableRecord
100
AcDbLayerTableRecord
  2
LC-001-002-----0
 70
     0
 62
     7
  6
Continuous
370
    -3
390
F
  0
LAYER
  5
45
330
2
100
AcDbSymbolTableRecord
100
AcDbLayerTableRecord
  2
LC-002-002-RND-0
 70
     0
 62
     7
  6
Continuous
370
    -3
390
F
  0
LAYER
  5
46
330
2
100
AcDbSymbolTableRecord
100
AcDbLayerTableRecord
  2
LC-003-002-RND-0
 70
     0
 62
     7
  6
Continuous
370
    -3
390
F
  0
LAYER
  5
47
330
2
100
AcDbSymbolTableRecord
100
AcDbLayerTableRecord
  2
LC-003-005-----0
 70
     0
 62
     7
  6
Continuous
370
    -3
390
F
  0
LAYER
  5
48
330
2
100
AcDbSymbolTableRecord
100
AcDbLayerTableRecord
  2
LC-005-002-----0
 70
     0
 62
     7
  6
Continuous
370
    -3
390
F
  0
LAYER
  5
49
330
2
100
AcDbSymbolTableRecord
100
AcDbLayerTableRecord
  2
LC-006-003-----0
 70
     0
 62
     7
  6
Continuous
370
    -3
390
F
  0
LAYER
  5
4A
330
2
100
AcDbSymbolTableRecord
100
AcDbLayerTableRecord
  2
LC-006-005-----0
 70
     0
 62
     7
  6
Continuous
370
    -3
390
F
  0
ENDTAB
  0
TABLE
  2
STYLE
  5
3
330
0
100
AcDbSymbolTable
 70
     2
  0
STYLE
  5
11
330
3
100
AcDbSymbolTableRecord
100
AcDbTextStyleTableRecord
  2
Standard
 70
     0
 40
0.0
 41
1.0
 50
0.0
 71
     0
 42
0.2
  3
txt
  4

  0
STYLE
  5
5D0
330
3
100
AcDbSymbolTableRecord
100
AcDbTextStyleTableRecord
  2
CONVERTER_11
 70
     0
 40
0.0
 41
0.9
 50
0.0
 71
     0
 42
0.2
  3
txt.shx
  4

  0
ENDTAB
  0
TABLE
  2
VIEW
  5
6
330
0
100
AcDbSymbolTable
 70
     0
  0
ENDTAB
  0
TABLE
  2
UCS
  5
7
330
0
100
AcDbSymbolTable
 70
     0
  0
ENDTAB
  0
TABLE
  2
APPID
  5
9
330
0
100
AcDbSymbolTable
 70
     1
  0
APPID
  5
12
330
9
100
AcDbSymbolTableRecord
100
AcDbRegAppTableRecord
  2
ACAD
 70
     0
  0
ENDTAB
  0
TABLE
  2
DIMSTYLE
  5
A
330
0
100
AcDbSymbolTable
 70
     8
100
AcDbDimStyleTable
  0
DIMSTYLE
105
27
330
A
100
AcDbSymbolTableRecord
100
AcDbDimStyleTableRecord
  2
Standard
 70
     0
340
11
  0
DIMSTYLE
105
5D4
102
{ACAD_REACTORS
330
5D5
102
}
330
A
100
AcDbSymbolTableRecord
100
AcDbDimStyleTableRecord
  2
ME10_DIM_10
 70
     0
  3
Ø<>
 41
14.0
 42
0.0
 44
2.0
 73
     0
 74
     0
 77
     1
 78
     8
140
14.0
147
2.0
172
     1
173
     1
176
     4
177
     4
178
     1
271
     2
340
5D0
  0
DIMSTYLE
105
5DF
102
{ACAD_REACTORS
330
5E0
102
}
330
A
100
AcDbSymbolTableRecord
100
AcDbDimStyleTableRecord
  2
ME10_DIM_11
 70
     0
  3
Ø<>
 41
14.0
 42
0.0
 44
2.0
 73
     0
 74
     0
 77
     1
 78
     8
140
14.0
147
2.0
172
     1
173
     1
176
     4
177
     4
178
     1
271
     2
340
5D0
  0
DIMSTYLE
105
5EA
102
{ACAD_REACTORS
330
5EB
102
}
330
A
100
AcDbSymbolTableRecord
100
AcDbDimStyleTableRecord
  2
ME10_DIM_12
 70
     0
  3
DN<>
 41
14.0
 42
0.0
 44
2.0
 73
     0
 74
     0
 77
     1
 78
     8
140
14.0
147
2.0
172
     1
173
     1
176
     4
177
     4
178
     1
271
     2
340
5D0
  0
DIMSTYLE
105
5F5
102
{ACAD_REACTORS
330
5F6
102
}
330
A
100
AcDbSymbolTableRecord
100
AcDbDimStyleTableRecord
  2
ME10_DIM_13
 70
     0
 41
14.0
 42
0.0
 44
2.0
 73
     0
 74
     0
 77
     1
 78
     8
140
14.0
147
2.0
172
     1
173
     1
176
     4
177
     4
178
     1
271
     2
340
5D0
  0
DIMSTYLE
105
600
102
{ACAD_REACTORS
330
601
102
}
330
A
100
AcDbSymbolTableRecord
100
AcDbDimStyleTableRecord
  2
ME10_DIM_14
 70
     0
 41
14.0
 42
0.0
 44
2.0
 73
     0
 74
     0
 77
     1
 78
     8
140
14.0
147
2.0
172
     1
173
     1
176
     4
177
     4
178
     1
271
     2
340
5D0
  0
DIMSTYLE
105
60B
102
{ACAD_REACTORS
330
60C
102
}
330
A
100
AcDbSymbolTableRecord
100
AcDbDimStyleTableRecord
  2
ME10_DIM_15
 70
     0
 41
14.0
 42
0.0
 44
2.0
 73
     0
 74
     0
 77
     1
 78
     8
140
14.0
147
2.0
172
     1
173
     1
176
     4
177
     4
178
     1
271
     2
340
5D0
  0
DIMSTYLE
105
616
102
{ACAD_REACTORS
330
617
102
}
330
A
100
AcDbSymbolTableRecord
100
AcDbDimStyleTableRecord
  2
ME10_DIM_16
 70
     0
 41
14.0
 42
0.0
 44
2.0
 73
     0
 74
     0
 77
     1
 78
     8
140
14.0
147
2.0
172
     1
173
     1
176
     4
177
     4
178
     1
271
     2
340
5D0
  0
ENDTAB
  0
TABLE
  2
BLOCK_RECORD
  5
1
330
0
100
AcDbSymbolTable
 70
    12
  0
BLOCK_RECORD
  5
1F
330
1
100
AcDbSymbolTableRecord
100
AcDbBlockTableRecord
  2
*Model_Space
340
22
  0
BLOCK_RECORD
  5
1B
330
1
100
AcDbSymbolTableRecord
100
AcDbBlockTableRecord
  2
*Paper_Space
340
1E
  0
BLOCK_RECORD
  5
23
330
1
100
AcDbSymbolTableRecord
100
AcDbBlockTableRecord
  2
*Paper_Space0
340
26
  0
BLOCK_RECORD
  5
4B
330
1
100
AcDbSymbolTableRecord
100
AcDbBlockTableRecord
  2
Draufsicht
340
0
102
{BLKREFS
331
55
102
}
  0
BLOCK_RECORD
  5
4E
330
1
100
AcDbSymbolTableRecord
100
AcDbBlockTableRecord
  2
_X0
340
0
102
{BLKREFS
331
56
102
}
  0
BLOCK_RECORD
  5
51
330
1
100
AcDbSymbolTableRecord
100
AcDbBlockTableRecord
  2
_X1
340
0
102
{BLKREFS
331
57
102
}
  0
BLOCK_RECORD
  5
54
330
1
100
AcDbSymbolTableRecord
100
AcDbBlockTableRecord
  2
TOP
340
0
102
{BLKREFS
331
5A
102
}
  0
BLOCK_RECORD
  5
5C9
330
1
100
AcDbSymbolTableRecord
100
AcDbBlockTableRecord
  2
*D5
340
0
  0
BLOCK_RECORD
  5
5D6
330
1
100
AcDbSymbolTableRecord
100
AcDbBlockTableRecord
  2
*D6
340
0
  0
BLOCK_RECORD
  5
5E1
330
1
100
AcDbSymbolTableRecord
100
AcDbBlockTableRecord
  2
*D7
340
0
  0
BLOCK_RECORD
  5
5EC
330
1
100
AcDbSymbolTableRecord
100
AcDbBlockTableRecord
  2
*D8
340
0
  0
BLOCK_RECORD
  5
5F7
330
1
100
AcDbSymbolTableRecord
100
AcDbBlockTableRecord
  2
*D9
340
0
  0
BLOCK_RECORD
  5
602
330
1
100
AcDbSymbolTableRecord
100
AcDbBlockTableRecord
  2
*D10
340
0
  0
BLOCK_RECORD
  5
60D
330
1
100
AcDbSymbolTableRecord
100
AcDbBlockTableRecord
  2
*D11
340
0
  0
ENDTAB
  0
ENDSEC
  0
SECTION
  2
BLOCKS
  0
BLOCK
  5
20
330
1F
100
AcDbEntity
  8
0
100
AcDbBlockBegin
  2
*Model_Space
 70
     0
 71
     0
 10
0.0
 20
0.0
 30
0.0
  3
*Model_Space
  1

  0
ENDBLK
  5
21
330
1F
100
AcDbEntity
  8
0
100
AcDbBlockEnd
  0
BLOCK
  5
1C
330
1B
100
AcDbEntity
 67
     1
  8
0
100
AcDbBlockBegin
  2
*Paper_Space
 70
     0
 71
     0
 10
0.0
 20
0.0
 30
0.0
  3
*Paper_Space
  1

  0
ENDBLK
  5
1D
330
1B
100
AcDbEntity
 67
     1
  8
0
100
AcDbBlockEnd
  0
BLOCK
  5
24
330
23
100
AcDbEntity
  8
0
100
AcDbBlockBegin
  2
*Paper_Space0
 70
     0
 71
     0
 10
0.0
 20
0.0
 30
0.0
  3
*Paper_Space0
  1

  0
ENDBLK
  5
25
330
23
100
AcDbEntity
  8
0
100
AcDbBlockEnd
  0
BLOCK
  5
4C
330
4B
100
AcDbEntity
  8
0
100
AcDbBlockBegin
  2
Draufsicht
 70
     0
 71
     0
 10
-96.5568056801967
 20
-898.8369164839714
 30
0.0
  3
Draufsicht
  1

  0
LINE
  5
5B
330
4B
100
AcDbEntity
  8
1
  6
PHANTOM
 62
     2
100
AcDbLine
 10
79.06434525364932
 20
-777.0002777432746
 30
0.0
 11
68.58543786785924
 21
-783.0502777432739
 31
0.0
  0
LINE
  5
5C
330
4B
100
AcDbEntity
  8
1
  6
PHANTOM
 62
     2
100
AcDbLine
 10
76.8498915607521
 20
-785.2647314361711
 30
0.0
 11
70.79989156075283
 21
-774.7858240503774
 31
0.0
  0
LINE
  5
5D
330
4B
100
AcDbEntity
  8
1
  6
Continuous
 62
     7
100
AcDbLine
 10
72.02183628514797
 20
-775.9022943970667
 30
0.0
 11
74.00790426264541
 21
-779.3422650413813
 31
0.0
  0
LINE
  5
5E
330
4B
100
AcDbEntity
  8
1
  6
Continuous
 62
     7
100
AcDbLine
 10
74.00790426264541
 20
-779.3422650413813
 30
0.0
 11
77.44787490696001
 21
-777.3561970638839
 31
0.0
  0
LINE
  5
5F
330
4B
100
AcDbEntity
  8
1
  6
Continuous
 62
     7
100
AcDbLine
 10
77.94787490696001
 20
-778.2222224676661
 30
0.0
 11
74.50790426264541
 21
-780.2082904451672
 31
0.0
  0
LINE
  5
60
330
4B
100
AcDbEntity
  8
1
  6
Continuous
 62
     7
100
AcDbLine
 10
74.50790426264541
 20
-780.2082904451672
 30
0.0
 11
76.49397224014649
 21
-783.6482610894818
 31
0.0
  0
LINE
  5
61
330
4B
100
AcDbEntity
  8
1
  6
Continuous
 62
     7
100
AcDbLine
 10
75.6279468363606
 20
-784.1482610894818
 30
0.0
 11
73.64187885886315
 21
-780.7082904451672
 31
0.0
  0
LINE
  5
62
330
4B
100
AcDbEntity
  8
1
  6
Continuous
 62
     7
100
AcDbLine
 10
73.64187885886315
 20
-780.7082904451672
 30
0.0
 11
70.20190821454491
 21
-782.6943584226647
 31
0.0
  0
LINE
  5
63
330
4B
100
AcDbEntity
  8
1
  6
Continuous
 62
     7
100
AcDbLine
 10
69.70190821454491
 20
-781.8283330188824
 30
0.0
 11
73.14187885886315
 21
-779.8422650413813
 31
0.0
  0
LINE
  5
64
330
4B
100
AcDbEntity
  8
1
  6
Continuous
 62
     7
100
AcDbLine
 10
73.14187885886315
 20
-779.8422650413813
 30
0.0
 11
71.15581088136207
 21
-776.4022943970667
 31
0.0
  0
LINE
  5
65
330
4B
100
AcDbEntity
  8
1
  6
PHANTOM
 62
     2
100
AcDbLine
 10
-8.24069958186772
 20
-817.8903286368659
 30
0.0
 11
-18.71960696766143
 21
-811.8403286368666
 31
0.0
  0
LINE
  5
66
330
4B
100
AcDbEntity
  8
1
  6
PHANTOM
 62
     2
100
AcDbLine
 10
-16.50515327476421
 20
-820.1047823297631
 30
0.0
 11
-10.45515327476494
 21
-809.6258749439694
 31
0.0
  0
LINE
  5
67
330
4B
100
AcDbEntity
  8
1
  6
Continuous
 62
     7
100
AcDbLine
 10
-10.81107259537055
 20
-811.2423452906587
 30
0.0
 11
-12.79714057287163
 21
-814.6823159349733
 31
0.0
  0
LINE
  5
68
330
4B
100
AcDbEntity
  8
1
  6
Continuous
 62
     7
100
AcDbLine
 10
-12.79714057287163
 20
-814.6823159349733
 30
0.0
 11
-9.35716992855703
 21
-816.6683839124744
 31
0.0
  0
LINE
  5
69
330
4B
100
AcDbEntity
  8
1
  6
Continuous
 62
     7
100
AcDbLine
 10
-9.85716992855703
 20
-817.5344093162566
 30
0.0
 11
-13.29714057287163
 21
-815.5483413387592
 31
0.0
  0
LINE
  5
6A
330
4B
100
AcDbEntity
  8
1
  6
Continuous
 62
     7
100
AcDbLine
 10
-13.29714057287163
 20
-815.5483413387592
 30
0.0
 11
-15.28320855037271
 21
-818.9883119830738
 31
0.0
  0
LINE
  5
6B
330
4B
100
AcDbEntity
  8
1
  6
Continuous
 62
     7
100
AcDbLine
 10
-16.14923395415497
 20
-818.4883119830738
 30
0.0
 11
-14.16316597665752
 21
-815.0483413387592
 31
0.0
  0
LINE
  5
6C
330
4B
100
AcDbEntity
  8
1
  6
Continuous
 62
     7
100
AcDbLine
 10
-14.16316597665752
 20
-815.0483413387592
 30
0.0
 11
-17.60313662097212
 21
-813.0622733612581
 31
0.0
  0
LINE
  5
6D
330
4B
100
AcDbEntity
  8
1
  6
Continuous
 62
     7
100
AcDbLine
 10
-17.10313662097212
 20
-812.1962479574722
 30
0.0
 11
-13.66316597665752
 21
-814.1823159349733
 31
0.0
  0
LINE
  5
6E
330
4B
100
AcDbEntity
  8
1
  6
Continuous
 62
     7
100
AcDbLine
 10
-13.66316597665752
 20
-814.1823159349733
 30
0.0
 11
-11.67709799915645
 21
-810.7423452906587
 31
0.0
  0
LINE
  5
6F
330
4B
100
AcDbEntity
  8
1
  6
PHANTOM
 62
     2
100
AcDbLine
 10
-87.30504483551738
 20
-762.7269673775663
 30
0.0
 11
-87.30504483551738
 21
-750.6269673775641
 31
0.0
  0
LINE
  5
70
330
4B
100
AcDbEntity
  8
1
  6
PHANTOM
 62
     2
100
AcDbLine
 10
-93.35504483551665
 20
-756.6769673775634
 30
0.0
 11
-81.2550448355181
 21
-756.6769673775634
 31
0.0
  0
LINE
  5
71
330
4B
100
AcDbEntity
  8
1
  6
Continuous
 62
     7
100
AcDbLine
 10
-82.83290888051522
 20
-757.1769673775634
 30
0.0
 11
-86.80504483551738
 21
-757.1769673775634
 31
0.0
  0
LINE
  5
72
330
4B
100
AcDbEntity
  8
1
  6
Continuous
 62
     7
100
AcDbLine
 10
-86.80504483551738
 20
-757.1769673775634
 30
0.0
 11
-86.80504483551738
 21
-761.1491033325656
 31
0.0
  0
LINE
  5
73
330
4B
100
AcDbEntity
  8
1
  6
Continuous
 62
     7
100
AcDbLine
 10
-87.80504483551738
 20
-761.1491033325656
 30
0.0
 11
-87.80504483551738
 21
-757.1769673775634
 31
0.0
  0
LINE
  5
74
330
4B
100
AcDbEntity
  8
1
  6
Continuous
 62
     7
100
AcDbLine
 10
-87.80504483551738
 20
-757.1769673775634
 30
0.0
 11
-91.7771807905159
 21
-757.1769673775634
 31
0.0
  0
LINE
  5
75
330
4B
100
AcDbEntity
  8
1
  6
Continuous
 62
     7
100
AcDbLine
 10
-91.7771807905159
 20
-756.1769673775634
 30
0.0
 11
-87.80504483551738
 21
-756.1769673775634
 31
0.0
  0
LINE
  5
76
330
4B
100
AcDbEntity
  8
1
  6
Continuous
 62
     7
100
AcDbLine
 10
-87.80504483551738
 20
-756.1769673775634
 30
0.0
 11
-87.80504483551738
 21
-752.2048314225649
 31
0.0
  0
LINE
  5
77
330
4B
100
AcDbEntity
  8
1
  6
Continuous
 62
     7
100
AcDbLine
 10
-86.80504483551738
 20
-752.2048314225649
 30
0.0
 11
-86.80504483551738
 21
-756.1769673775634
 31
0.0
  0
LINE
  5
78
330
4B
100
AcDbEntity
  8
1
  6
Continuous
 62
     7
100
AcDbLine
 10
-86.80504483551738
 20
-756.1769673775634
 30
0.0
 11
-82.83290888051522
 21
-756.1769673775634
 31
0.0
  0
LINE
  5
79
330
4B
100
AcDbEntity
  8
1
  6
PHANTOM
 62
     2
100
AcDbLine
 10
-79.06434525365
 20
-666.6735552246719
 30
0.0
 11
-68.58543786785629
 21
-660.6235552246726
 31
0.0
  0
LINE
  5
7A
330
4B
100
AcDbEntity
  8
1
  6
PHANTOM
 62
     2
100
AcDbLine
 10
-76.84989156075278
 20
-658.4091015317754
 30
0.0
 11
-70.79989156075351
 21
-668.8880089175655
 31
0.0
  0
LINE
  5
7B
330
4B
100
AcDbEntity
  8
1
  6
Continuous
 62
     7
100
AcDbLine
 10
-72.02183628514501
 20
-667.7715385708798
 30
0.0
 11
-74.0079042626461
 21
-664.3315679265615
 31
0.0
  0
LINE
  5
7C
330
4B
100
AcDbEntity
  8
1
  6
Continuous
 62
     7
100
AcDbLine
 10
-74.0079042626461
 20
-664.3315679265615
 30
0.0
 11
-77.44787490696069
 21
-666.3176359040626
 31
0.0
  0
LINE
  5
7D
330
4B
100
AcDbEntity
  8
1
  6
Continuous
 62
     7
100
AcDbLine
 10
-77.94787490696069
 20
-665.4516105002767
 30
0.0
 11
-74.5079042626461
 21
-663.4655425227793
 31
0.0
  0
LINE
  5
7E
330
4B
100
AcDbEntity
  8
1
  6
Continuous
 62
     7
100
AcDbLine
 10
-74.5079042626461
 20
-663.4655425227793
 30
0.0
 11
-76.49397224014353
 21
-660.0255718784647
 31
0.0
  0
LINE
  5
7F
330
4B
100
AcDbEntity
  8
1
  6
Continuous
 62
     7
100
AcDbLine
 10
-75.62794683636128
 20
-659.5255718784647
 30
0.0
 11
-73.6418788588602
 21
-662.9655425227793
 31
0.0
  0
LINE
  5
80
330
4B
100
AcDbEntity
  8
1
  6
Continuous
 62
     7
100
AcDbLine
 10
-73.6418788588602
 20
-662.9655425227793
 30
0.0
 11
-70.2019082145456
 21
-660.9794745452782
 31
0.0
  0
LINE
  5
81
330
4B
100
AcDbEntity
  8
1
  6
Continuous
 62
     7
100
AcDbLine
 10
-69.7019082145456
 20
-661.8454999490641
 30
0.0
 11
-73.1418788588602
 21
-663.8315679265615
 31
0.0
  0
LINE
  5
82
330
4B
100
AcDbEntity
  8
1
  6
Continuous
 62
     7
100
AcDbLine
 10
-73.1418788588602
 20
-663.8315679265615
 30
0.0
 11
-71.15581088135912
 21
-667.2715385708798
 31
0.0
  0
LINE
  5
83
330
4B
100
AcDbEntity
  8
1
  6
PHANTOM
 62
     2
100
AcDbLine
 10
8.24069958186703
 20
-625.783504331077
 30
0.0
 11
18.71960696766075
 21
-631.8335043310763
 31
0.0
  0
LINE
  5
84
330
4B
100
AcDbEntity
  8
1
  6
PHANTOM
 62
     2
100
AcDbLine
 10
16.50515327476353
 20
-623.5690506381798
 30
0.0
 11
10.45515327476426
 21
-634.0479580239735
 31
0.0
  0
LINE
  5
85
330
4B
100
AcDbEntity
  8
1
  6
Continuous
 62
     7
100
AcDbLine
 10
10.8110725953735
 20
-632.4314876772842
 30
0.0
 11
12.79714057287094
 21
-628.9915170329696
 31
0.0
  0
LINE
  5
86
330
4B
100
AcDbEntity
  8
1
  6
Continuous
 62
     7
100
AcDbLine
 10
12.79714057287094
 20
-628.9915170329696
 30
0.0
 11
9.35716992855635
 21
-627.0054490554685
 31
0.0
  0
LINE
  5
87
330
4B
100
AcDbEntity
  8
1
  6
Continuous
 62
     7
100
AcDbLine
 10
9.85716992855635
 20
-626.1394236516862
 30
0.0
 11
13.29714057287094
 21
-628.1254916291837
 31
0.0
  0
LINE
  5
88
330
4B
100
AcDbEntity
  8
1
  6
Continuous
 62
     7
100
AcDbLine
 10
13.29714057287094
 20
-628.1254916291837
 30
0.0
 11
15.28320855037202
 21
-624.6855209848691
 31
0.0
  0
LINE
  5
89
330
4B
100
AcDbEntity
  8
1
  6
Continuous
 62
     7
100
AcDbLine
 10
16.14923395415792
 20
-625.1855209848691
 30
0.0
 11
14.16316597665684
 21
-628.6254916291837
 31
0.0
  0
LINE
  5
8A
330
4B
100
AcDbEntity
  8
1
  6
Continuous
 62
     7
100
AcDbLine
 10
14.16316597665684
 20
-628.6254916291837
 30
0.0
 11
17.60313662097144
 21
-630.6115596066848
 31
0.0
  0
LINE
  5
8B
330
4B
100
AcDbEntity
  8
1
  6
Continuous
 62
     7
100
AcDbLine
 10
17.10313662097144
 20
-631.477585010467
 30
0.0
 11
13.66316597665684
 21
-629.4915170329696
 31
0.0
  0
LINE
  5
8C
330
4B
100
AcDbEntity
  8
1
  6
Continuous
 62
     7
100
AcDbLine
 10
13.66316597665684
 20
-629.4915170329696
 30
0.0
 11
11.67709799915576
 21
-632.9314876772842
 31
0.0
  0
LINE
  5
8D
330
4B
100
AcDbEntity
  8
1
  6
Continuous
 62
     7
100
AcDbLine
 10
86.8050448355167
 20
-687.4968655903758
 30
0.0
 11
82.83290888051818
 21
-687.4968655903758
 31
0.0
  0
LINE
  5
8E
330
4B
100
AcDbEntity
  8
1
  6
Continuous
 62
     7
100
AcDbLine
 10
86.8050448355167
 20
-691.4690015453743
 30
0.0
 11
86.8050448355167
 21
-687.4968655903758
 31
0.0
  0
LINE
  5
8F
330
4B
100
AcDbEntity
  8
1
  6
Continuous
 62
     7
100
AcDbLine
 10
87.8050448355167
 20
-687.4968655903758
 30
0.0
 11
87.8050448355167
 21
-691.4690015453743
 31
0.0
  0
LINE
  5
90
330
4B
100
AcDbEntity
  8
1
  6
Continuous
 62
     7
100
AcDbLine
 10
91.77718079051886
 20
-687.4968655903758
 30
0.0
 11
87.8050448355167
 21
-687.4968655903758
 31
0.0
  0
LINE
  5
91
330
4B
100
AcDbEntity
  8
1
  6
Continuous
 62
     7
100
AcDbLine
 10
87.8050448355167
 20
-686.4968655903758
 30
0.0
 11
91.77718079051886
 21
-686.4968655903758
 31
0.0
  0
LINE
  5
92
330
4B
100
AcDbEntity
  8
1
  6
Continuous
 62
     7
100
AcDbLine
 10
87.8050448355167
 20
-682.5247296353773
 30
0.0
 11
87.8050448355167
 21
-686.4968655903758
 31
0.0
  0
LINE
  5
93
330
4B
100
AcDbEntity
  8
1
  6
Continuous
 62
     7
100
AcDbLine
 10
86.8050448355167
 20
-686.4968655903758
 30
0.0
 11
86.8050448355167
 21
-682.5247296353773
 31
0.0
  0
LINE
  5
94
330
4B
100
AcDbEntity
  8
1
  6
Continuous
 62
     7
100
AcDbLine
 10
82.83290888051818
 20
-686.4968655903758
 30
0.0
 11
86.8050448355167
 21
-686.4968655903758
 31
0.0
  0
LINE
  5
95
330
4B
100
AcDbEntity
  8
1
  6
PHANTOM
 62
     2
100
AcDbLine
 10
87.3050448355167
 20
-680.9468655903765
 30
0.0
 11
87.3050448355167
 21
-693.0468655903751
 31
0.0
  0
LINE
  5
96
330
4B
100
AcDbEntity
  8
1
  6
PHANTOM
 62
     2
100
AcDbLine
 10
93.3550448355196
 20
-686.9968655903758
 30
0.0
 11
81.25504483551742
 21
-686.9968655903758
 31
0.0
  0
LINE
  5
97
330
4B
100
AcDbEntity
  8
1
  6
Continuous
 62
     7
100
AcDbLine
 10
-250.0000000000003
 20
-971.8369164839714
 30
0.0
 11
-250.0000000000003
 21
-471.8369164839714
 31
0.0
  0
LINE
  5
98
330
4B
100
AcDbEntity
  8
1
  6
Continuous
 62
     7
100
AcDbLine
 10
249.9999999999997
 20
-971.8369164839714
 30
0.0
 11
-250.0000000000003
 21
-971.8369164839714
 31
0.0
  0
LINE
  5
99
330
4B
100
AcDbEntity
  8
1
  6
Continuous
 62
     7
100
AcDbLine
 10
249.9999999999997
 20
-471.8369164839714
 30
0.0
 11
249.9999999999997
 21
-971.8369164839714
 31
0.0
  0
LINE
  5
9A
330
4B
100
AcDbEntity
  8
1
  6
Continuous
 62
     7
100
AcDbLine
 10
-250.0000000000003
 20
-471.8369164839714
 30
0.0
 11
249.9999999999997
 21
-471.8369164839714
 31
0.0
  0
LINE
  5
9B
330
4B
100
AcDbEntity
  8
0
  6
Continuous
 62
     7
100
AcDbLine
 10
-78.43955442529511
 20
-687.5815433339412
 30
0.0
 11
-67.66061238791406
 21
-692.1173685181639
 31
0.0
  0
LINE
  5
9C
330
4B
100
AcDbEntity
  8
0
  6
Continuous
 62
     7
100
AcDbLine
 10
-84.63273439032162
 20
-709.0504174438101
 30
0.0
 11
-73.04711795341098
 21
-710.6418926474544
 31
0.0
  0
LINE
  5
9D
330
4B
100
AcDbEntity
  8
0
  6
Continuous
 62
     7
100
AcDbLine
 10
-84.94573794905625
 20
-711.3290198163668
 30
0.0
 11
-73.36012151214561
 21
-712.920495020011
 31
0.0
  0
LINE
  5
9E
330
4B
100
AcDbEntity
  8
0
  6
Continuous
 62
     7
100
AcDbLine
 10
-84.94573794905625
 20
-711.3290198163668
 30
0.0
 11
-84.63273439032162
 21
-709.0504174438101
 31
0.0
  0
LINE
  5
9F
330
4B
100
AcDbEntity
  8
0
  6
Continuous
 62
     7
100
AcDbLine
 10
-65.2622860948253
 20
-686.113058718096
 30
0.0
 11
-64.86222577082333
 21
-686.4236185853806
 31
0.0
  0
LINE
  5
A0
330
4B
100
AcDbEntity
  8
0
  6
Continuous
 62
     7
100
AcDbLine
 10
-65.2622860948253
 20
-686.113058718096
 30
0.0
 11
-65.74226703732381
 21
-685.7404578655332
 31
0.0
  0
LINE
  5
A1
330
4B
100
AcDbEntity
  8
0
  6
Continuous
 62
     7
100
AcDbLine
 10
-79.33163833662945
 20
-689.70149293125
 30
0.0
 11
-68.5526962992484
 21
-694.2373181154726
 31
0.0
  0
LINE
  5
A2
330
4B
100
AcDbEntity
  8
0
  6
Continuous
 62
     7
100
AcDbLine
 10
-67.66061238791406
 20
-692.1173685181639
 30
0.0
 11
-57.20181310295845
 21
-696.5184762547979
 31
0.0
  0
LINE
  5
A3
330
4B
100
AcDbEntity
  8
0
  6
Continuous
 62
     7
100
AcDbLine
 10
-79.33163833662945
 20
-689.70149293125
 30
0.0
 11
-78.43955442529511
 21
-687.5815433339412
 31
0.0
  0
LINE
  5
A4
330
4B
100
AcDbEntity
  8
0
  6
Continuous
 62
     7
100
AcDbLine
 10
37.44382818377164
 20
-671.7267322012485
 30
0.0
 11
34.73109498369342
 21
-675.2212498040826
 31
0.0
  0
LINE
  5
A5
330
4B
100
AcDbEntity
  8
0
  6
Continuous
 62
     7
100
AcDbLine
 10
46.21873401510641
 20
-664.1737685813423
 30
0.0
 11
39.26065394416185
 21
-673.1371024208638
 31
0.0
  0
LINE
  5
A6
330
4B
100
AcDbEntity
  8
0
  6
Continuous
 62
     7
100
AcDbLine
 10
54.0555614381916
 20
-671.4463789039655
 30
0.0
 11
54.36612138374369
 21
-671.0463184791406
 31
0.0
  0
LINE
  5
A7
330
4B
100
AcDbEntity
  8
0
  6
Continuous
 62
     7
100
AcDbLine
 10
54.73872232879478
 20
-670.5663374175019
 30
0.0
 11
54.36612138374369
 21
-671.0463184791406
 31
0.0
  0
LINE
  5
A8
330
4B
100
AcDbEntity
  8
0
  6
Continuous
 62
     7
100
AcDbLine
 10
34.73109498369342
 20
-675.2212498040826
 30
0.0
 11
33.54646110630313
 21
-676.7472841141789
 31
0.0
  0
LINE
  5
A9
330
4B
100
AcDbEntity
  8
0
  6
Continuous
 62
     7
100
AcDbLine
 10
43.28765780856668
 20
-717.5440524692931
 30
0.0
 11
44.88025510284172
 21
-717.3434696728109
 31
0.0
  0
LINE
  5
AA
330
4B
100
AcDbEntity
  8
0
  6
Continuous
 62
     7
100
AcDbLine
 10
40.70159167182612
 20
-706.4866580047092
 30
0.0
 11
42.18800788139163
 21
-705.8807153903399
 31
0.0
  0
LINE
  5
AB
330
4B
100
AcDbEntity
  8
0
  6
Continuous
 62
     7
100
AcDbLine
 10
43.00025033943496
 20
-715.2620803076134
 30
0.0
 11
44.59284763370999
 21
-715.0614975111275
 31
0.0
  0
LINE
  5
AC
330
4B
100
AcDbEntity
  8
0
  6
Continuous
 62
     7
100
AcDbLine
 10
7.05708203821598
 20
-678.9131748820837
 30
0.0
 11
7.27552844571585
 21
-677.3229293768163
 31
0.0
  0
LINE
  5
AD
330
4B
100
AcDbEntity
  8
0
  6
Continuous
 62
     7
100
AcDbLine
 10
17.92609961258097
 20
-682.2022731440884
 30
0.0
 11
18.54868846240026
 21
-680.722752031008
 31
0.0
  0
LINE
  5
AE
330
4B
100
AcDbEntity
  8
0
  6
Continuous
 62
     7
100
AcDbLine
 10
25.75665736224221
 20
-686.782036630746
 30
0.0
 11
26.74096025313668
 21
-685.5140668286804
 31
0.0
  0
LINE
  5
AF
330
4B
100
AcDbEntity
  8
0
  6
Continuous
 62
     7
100
AcDbLine
 10
33.54646110630313
 20
-676.7472841141789
 30
0.0
 11
28.80047281532427
 21
-682.8610219580623
 31
0.0
  0
LINE
  5
B0
330
4B
100
AcDbEntity
  8
0
  6
Continuous
 62
     7
100
AcDbLine
 10
21.48263928314157
 20
-667.8205712891431
 30
0.0
 11
20.73333756920658
 21
-669.6012130500058
 31
0.0
  0
LINE
  5
B1
330
4B
100
AcDbEntity
  8
0
  6
Continuous
 62
     7
100
AcDbLine
 10
20.73333756920658
 20
-669.6012130500058
 30
0.0
 11
17.73141669844301
 21
-676.7349824861158
 31
0.0
  0
LINE
  5
B2
330
4B
100
AcDbEntity
  8
0
  6
Continuous
 62
     7
100
AcDbLine
 10
22.85328716651532
 20
-670.4932969613401
 30
0.0
 11
19.85136629575538
 21
-677.6270663974501
 31
0.0
  0
LINE
  5
B3
330
4B
100
AcDbEntity
  8
0
  6
Continuous
 62
     7
100
AcDbLine
 10
-6.57483617635842
 20
-678.8366661445398
 30
0.0
 11
-6.77541897284425
 21
-677.2440688502684
 31
0.0
  0
LINE
  5
B4
330
4B
100
AcDbEntity
  8
0
  6
Continuous
 62
     7
100
AcDbLine
 10
-4.29286401467505
 20
-678.549258675408
 30
0.0
 11
-4.49344681116088
 21
-676.9566613811367
 31
0.0
  0
LINE
  5
B5
330
4B
100
AcDbEntity
  8
0
  6
Continuous
 62
     7
100
AcDbLine
 10
4.77847966565935
 20
-678.6001713233491
 30
0.0
 11
4.99692607315922
 21
-677.0099258180817
 31
0.0
  0
LINE
  5
B6
330
4B
100
AcDbEntity
  8
0
  6
Continuous
 62
     7
100
AcDbLine
 10
53.12426128349728
 20
-745.4395053644221
 30
0.0
 11
51.34361952263464
 21
-744.6902036504871
 31
0.0
  0
LINE
  5
B7
330
4B
100
AcDbEntity
  8
0
  6
Continuous
 62
     7
100
AcDbLine
 10
57.20181310296141
 20
-747.1553567131523
 30
0.0
 11
53.12426128349728
 21
-745.4395053644221
 31
0.0
  0
LINE
  5
B8
330
4B
100
AcDbEntity
  8
0
  6
Continuous
 62
     7
100
AcDbLine
 10
54.01634519483525
 20
-743.3195557671133
 30
0.0
 11
52.23570343396898
 21
-742.5702540531784
 31
0.0
  0
LINE
  5
B9
330
4B
100
AcDbEntity
  8
0
  6
Continuous
 62
     7
100
AcDbLine
 10
68.55269629925499
 20
-749.4365148524739
 30
0.0
 11
58.09389701429939
 21
-745.0354071158399
 31
0.0
  0
LINE
  5
BA
330
4B
100
AcDbEntity
  8
0
  6
Continuous
 62
     7
100
AcDbLine
 10
51.34361952263464
 20
-744.6902036504871
 30
0.0
 11
44.20985008652463
 21
-741.6882827797272
 31
0.0
  0
LINE
  5
BB
330
4B
100
AcDbEntity
  8
0
  6
Continuous
 62
     7
100
AcDbLine
 10
58.09389701429939
 20
-745.0354071158399
 30
0.0
 11
54.01634519483525
 21
-743.3195557671133
 31
0.0
  0
LINE
  5
BC
330
4B
100
AcDbEntity
  8
0
  6
Continuous
 62
     7
100
AcDbLine
 10
52.23570343396898
 20
-742.5702540531784
 30
0.0
 11
45.10193399785896
 21
-739.5683331824148
 31
0.0
  0
LINE
  5
BD
330
4B
100
AcDbEntity
  8
0
  6
Continuous
 62
     7
100
AcDbLine
 10
45.08963236979946
 20
-755.3833775902749
 30
0.0
 11
38.9758945259124
 21
-750.6373892992924
 31
0.0
  0
LINE
  5
BE
330
4B
100
AcDbEntity
  8
0
  6
Continuous
 62
     7
100
AcDbLine
 10
46.61566667989212
 20
-756.5680114676616
 30
0.0
 11
45.08963236979946
 21
-755.3833775902749
 31
0.0
  0
LINE
  5
BF
330
4B
100
AcDbEntity
  8
0
  6
Continuous
 62
     7
100
AcDbLine
 10
50.11018428272985
 20
-759.2807446677434
 30
0.0
 11
46.61566667989212
 21
-756.5680114676616
 31
0.0
  0
LINE
  5
C0
330
4B
100
AcDbEntity
  8
0
  6
Continuous
 62
     7
100
AcDbLine
 10
67.66061238792065
 20
-751.5564644497863
 30
0.0
 11
57.20181310296141
 21
-747.1553567131523
 31
0.0
  0
LINE
  5
C1
330
4B
100
AcDbEntity
  8
0
  6
Continuous
 62
     7
100
AcDbLine
 10
65.2622860948319
 20
-757.5607742498505
 30
0.0
 11
64.86222577082629
 21
-757.2502143825659
 31
0.0
  0
LINE
  5
C2
330
4B
100
AcDbEntity
  8
0
  6
Continuous
 62
     7
100
AcDbLine
 10
39.63464333988634
 20
-739.7630160965527
 30
0.0
 11
41.11416445297039
 21
-740.385604946372
 31
0.0
  0
LINE
  5
C3
330
4B
100
AcDbEntity
  8
0
  6
Continuous
 62
     7
100
AcDbLine
 10
35.05487985323236
 20
-747.5935738462103
 30
0.0
 11
36.32284965529436
 21
-748.5778767371085
 31
0.0
  0
LINE
  5
C4
330
4B
100
AcDbEntity
  8
0
  6
Continuous
 62
     7
100
AcDbLine
 10
42.92374160189468
 20
-728.8939985221878
 30
0.0
 11
44.51398710716205
 21
-729.1124449296876
 31
0.0
  0
LINE
  5
C5
330
4B
100
AcDbEntity
  8
0
  6
Continuous
 62
     7
100
AcDbLine
 10
43.23674516062931
 20
-726.6153961496311
 30
0.0
 11
44.82699066589305
 21
-726.833842557131
 31
0.0
  0
LINE
  5
C6
330
4B
100
AcDbEntity
  8
0
  6
Continuous
 62
     7
100
AcDbLine
 10
40.52672725122432
 20
-737.6430664992404
 30
0.0
 11
42.00624836430472
 21
-738.2656553490597
 31
0.0
  0
LINE
  5
C7
330
4B
100
AcDbEntity
  8
0
  6
Continuous
 62
     7
100
AcDbLine
 10
-17.48008779838381
 20
-682.00355696509
 30
0.0
 11
-18.08603041275671
 21
-680.5171407555245
 31
0.0
  0
LINE
  5
C8
330
4B
100
AcDbEntity
  8
0
  6
Continuous
 62
     7
100
AcDbLine
 10
-38.71154530328238
 20
-672.6994857601749
 30
0.0
 11
-36.03820751674391
 21
-676.2242325270236
 31
0.0
  0
LINE
  5
C9
330
4B
100
AcDbEntity
  8
0
  6
Continuous
 62
     7
100
AcDbLine
 10
-36.03820751674391
 20
-676.2242325270236
 30
0.0
 11
-34.87077737376274
 21
-677.7634677268215
 31
0.0
  0
LINE
  5
CA
330
4B
100
AcDbEntity
  8
0
  6
Continuous
 62
     7
100
AcDbLine
 10
-36.87900317510173
 20
-671.3095975098295
 30
0.0
 11
-34.20566538856326
 21
-674.8343442766782
 31
0.0
  0
LINE
  5
CB
330
4B
100
AcDbEntity
  8
0
  6
Continuous
 62
     7
100
AcDbLine
 10
-34.20566538856326
 20
-674.8343442766782
 30
0.0
 11
-33.03823524558209
 21
-676.3735794764762
 31
0.0
  0
LINE
  5
CC
330
4B
100
AcDbEntity
  8
0
  6
Continuous
 62
     7
100
AcDbLine
 10
-27.19410032416306
 20
-687.8850254091121
 30
0.0
 11
-28.1641087686188
 21
-686.6060870925176
 31
0.0
  0
LINE
  5
CD
330
4B
100
AcDbEntity
  8
0
  6
Continuous
 62
     7
100
AcDbLine
 10
-33.64450963360685
 20
-694.263433361346
 30
0.0
 11
-34.91247943567248
 21
-693.2791304704515
 31
0.0
  0
LINE
  5
CE
330
4B
100
AcDbEntity
  8
0
  6
Continuous
 62
     7
100
AcDbLine
 10
-52.63550234699903
 20
-654.341004157628
 30
0.0
 11
-45.56857730881927
 21
-663.658615012977
 31
0.0
  0
LINE
  5
CF
330
4B
100
AcDbEntity
  8
0
  6
Continuous
 62
     7
100
AcDbLine
 10
-52.63550234699903
 20
-654.341004157628
 30
0.0
 11
-50.80296021881838
 21
-652.951115907279
 31
0.0
  0
LINE
  5
D0
330
4B
100
AcDbEntity
  8
0
  6
Continuous
 62
     7
100
AcDbLine
 10
-15.35025847926261
 20
-681.1353248121522
 30
0.0
 11
-15.95620109363188
 21
-679.6489086025867
 31
0.0
  0
LINE
  5
D1
330
4B
100
AcDbEntity
  8
0
  6
Continuous
 62
     7
100
AcDbLine
 10
-50.80296021881838
 20
-652.951115907279
 30
0.0
 11
-43.73603518063862
 21
-662.2687267626316
 31
0.0
  0
LINE
  5
D2
330
4B
100
AcDbEntity
  8
0
  6
Continuous
 62
     7
100
AcDbLine
 10
-43.73603518063862
 20
-662.2687267626316
 30
0.0
 11
-36.87900317510173
 21
-671.3095975098295
 31
0.0
  0
LINE
  5
D3
330
4B
100
AcDbEntity
  8
0
  6
Continuous
 62
     7
100
AcDbLine
 10
-45.56857730881927
 20
-663.658615012977
 30
0.0
 11
-38.71154530328238
 21
-672.6994857601749
 31
0.0
  0
LINE
  5
D4
330
4B
100
AcDbEntity
  8
0
  6
Continuous
 62
     7
100
AcDbLine
 10
-34.87077737376274
 20
-677.7634677268215
 30
0.0
 11
-30.19371225273096
 21
-683.9300921791073
 31
0.0
  0
LINE
  5
D5
330
4B
100
AcDbEntity
  8
0
  6
Continuous
 62
     7
100
AcDbLine
 10
-25.36155819598605
 20
-686.4951371587667
 30
0.0
 11
-26.33156664043816
 21
-685.2161988421722
 31
0.0
  0
LINE
  5
D6
330
4B
100
AcDbEntity
  8
0
  6
Continuous
 62
     7
100
AcDbLine
 10
-57.66314790262948
 20
-675.6181824688683
 30
0.0
 11
-48.69981406310797
 21
-682.5762625398165
 31
0.0
  0
LINE
  5
D7
330
4B
100
AcDbEntity
  8
0
  6
Continuous
 62
     7
100
AcDbLine
 10
-50.39053758000625
 20
-667.7813550457831
 30
0.0
 11
-50.79059800483117
 21
-667.4707951002347
 31
0.0
  0
LINE
  5
D8
330
4B
100
AcDbEntity
  8
0
  6
Continuous
 62
     7
100
AcDbLine
 10
-51.27057906646985
 20
-667.09819415518
 30
0.0
 11
-50.79059800483117
 21
-667.4707951002347
 31
0.0
  0
LINE
  5
D9
330
4B
100
AcDbEntity
  8
0
  6
Continuous
 62
     7
100
AcDbLine
 10
-33.03823524558209
 20
-676.3735794764762
 30
0.0
 11
-28.36117012455031
 21
-682.5402039287619
 31
0.0
  0
LINE
  5
DA
330
4B
100
AcDbEntity
  8
0
  6
Continuous
 62
     7
100
AcDbLine
 10
-8.09242266657418
 20
-648.3813333375219
 30
0.0
 11
-6.67449412881285
 21
-659.6394730796928
 31
0.0
  0
LINE
  5
DB
330
4B
100
AcDbEntity
  8
0
  6
Continuous
 62
     7
100
AcDbLine
 10
-10.37439482825391
 20
-648.66874080665
 30
0.0
 11
-8.95646629049259
 21
-659.9268805488246
 31
0.0
  0
LINE
  5
DC
330
4B
100
AcDbEntity
  8
0
  6
Continuous
 62
     7
100
AcDbLine
 10
-8.95646629049259
 20
-659.9268805488246
 30
0.0
 11
-8.40366123787715
 21
-664.3160696840896
 31
0.0
  0
LINE
  5
DD
330
4B
100
AcDbEntity
  8
0
  6
Continuous
 62
     7
100
AcDbLine
 10
-6.12168907619741
 20
-664.0286622149579
 30
0.0
 11
-5.88028251513276
 21
-665.945394071874
 31
0.0
  0
LINE
  5
DE
330
4B
100
AcDbEntity
  8
0
  6
Continuous
 62
     7
100
AcDbLine
 10
-6.67449412881285
 20
-659.6394730796928
 30
0.0
 11
-6.12168907619741
 21
-664.0286622149579
 31
0.0
  0
LINE
  5
DF
330
4B
100
AcDbEntity
  8
0
  6
Continuous
 62
     7
100
AcDbLine
 10
-8.40366123787715
 20
-664.3160696840896
 30
0.0
 11
-8.16225467681249
 21
-666.2328015410058
 31
0.0
  0
LINE
  5
E0
330
4B
100
AcDbEntity
  8
0
  6
Continuous
 62
     7
100
AcDbLine
 10
-9.5537538486027
 20
-636.7785831151159
 30
0.0
 11
-8.09242266657418
 21
-648.3813333375219
 31
0.0
  0
LINE
  5
E1
330
4B
100
AcDbEntity
  8
0
  6
Continuous
 62
     7
100
AcDbLine
 10
-11.83572601028243
 20
-637.0659905842476
 30
0.0
 11
-10.37439482825391
 21
-648.66874080665
 31
0.0
  0
LINE
  5
E2
330
4B
100
AcDbEntity
  8
0
  6
Continuous
 62
     7
100
AcDbLine
 10
-11.83572601028243
 20
-637.0659905842476
 30
0.0
 11
-9.5537538486027
 21
-636.7785831151159
 31
0.0
  0
LINE
  5
E3
330
4B
100
AcDbEntity
  8
0
  6
Continuous
 62
     7
100
AcDbLine
 10
-43.67926215017758
 20
-686.4736296172814
 30
0.0
 11
-37.56552430629051
 21
-691.2196179082639
 31
0.0
  0
LINE
  5
E4
330
4B
100
AcDbEntity
  8
0
  6
Continuous
 62
     7
100
AcDbLine
 10
-26.82838393830423
 20
-652.9787447448216
 30
0.0
 11
-22.54494916614965
 21
-663.4862857675871
 31
0.0
  0
LINE
  5
E5
330
4B
100
AcDbEntity
  8
0
  6
Continuous
 62
     7
100
AcDbLine
 10
-28.95821325742907
 20
-653.8469768977593
 30
0.0
 11
-24.67477848527449
 21
-664.3545179205285
 31
0.0
  0
LINE
  5
E6
330
4B
100
AcDbEntity
  8
0
  6
Continuous
 62
     7
100
AcDbLine
 10
-20.14570720726658
 20
-669.3717806210116
 30
0.0
 11
-17.22404906787449
 21
-676.5387959690088
 31
0.0
  0
LINE
  5
E7
330
4B
100
AcDbEntity
  8
0
  6
Continuous
 62
     7
100
AcDbLine
 10
-24.67477848527449
 20
-664.3545179205285
 30
0.0
 11
-23.00480406728491
 21
-668.451072586904
 31
0.0
  0
LINE
  5
E8
330
4B
100
AcDbEntity
  8
0
  6
Continuous
 62
     7
100
AcDbLine
 10
-22.54494916614965
 20
-663.4862857675871
 30
0.0
 11
-20.87497474816007
 21
-667.5828404339627
 31
0.0
  0
LINE
  5
E9
330
4B
100
AcDbEntity
  8
0
  6
Continuous
 62
     7
100
AcDbLine
 10
-22.27553652639142
 20
-670.2400127739529
 30
0.0
 11
-19.35387838699933
 21
-677.4070281219465
 31
0.0
  0
LINE
  5
EA
330
4B
100
AcDbEntity
  8
0
  6
Continuous
 62
     7
100
AcDbLine
 10
-23.00480406728491
 20
-668.451072586904
 30
0.0
 11
-22.27553652639142
 21
-670.2400127739529
 31
0.0
  0
LINE
  5
EB
330
4B
100
AcDbEntity
  8
0
  6
Continuous
 62
     7
100
AcDbLine
 10
-20.87497474816007
 20
-667.5828404339627
 30
0.0
 11
-20.14570720726658
 21
-669.3717806210116
 31
0.0
  0
LINE
  5
EC
330
4B
100
AcDbEntity
  8
0
  6
Continuous
 62
     7
100
AcDbLine
 10
-45.20529646027023
 20
-685.2889957398947
 30
0.0
 11
-43.67926215017758
 21
-686.4736296172814
 31
0.0
  0
LINE
  5
ED
330
4B
100
AcDbEntity
  8
0
  6
Continuous
 62
     7
100
AcDbLine
 10
-48.69981406310797
 20
-682.5762625398165
 30
0.0
 11
-45.20529646027023
 21
-685.2889957398947
 31
0.0
  0
LINE
  5
EE
330
4B
100
AcDbEntity
  8
0
  6
Continuous
 62
     7
100
AcDbLine
 10
-31.24293420091306
 20
-642.1495689901312
 30
0.0
 11
-26.82838393830423
 21
-652.9787447448216
 31
0.0
  0
LINE
  5
EF
330
4B
100
AcDbEntity
  8
0
  6
Continuous
 62
     7
100
AcDbLine
 10
-33.37276352003789
 20
-643.0178011430689
 30
0.0
 11
-28.95821325742907
 21
-653.8469768977593
 31
0.0
  0
LINE
  5
F0
330
4B
100
AcDbEntity
  8
0
  6
Continuous
 62
     7
100
AcDbLine
 10
-33.37276352003789
 20
-643.0178011430689
 30
0.0
 11
-31.24293420091306
 21
-642.1495689901312
 31
0.0
  0
LINE
  5
F1
330
4B
100
AcDbEntity
  8
0
  6
Continuous
 62
     7
100
AcDbLine
 10
84.94573794905921
 20
-732.3448131515834
 30
0.0
 11
73.36012151214857
 21
-730.7533379479391
 31
0.0
  0
LINE
  5
F2
330
4B
100
AcDbEntity
  8
0
  6
Continuous
 62
     7
100
AcDbLine
 10
73.16817567732471
 20
-711.4625216557179
 30
0.0
 11
61.91003593515382
 21
-712.8804501934792
 31
0.0
  0
LINE
  5
F3
330
4B
100
AcDbEntity
  8
0
  6
Continuous
 62
     7
100
AcDbLine
 10
73.45558314645643
 20
-713.7444938173976
 30
0.0
 11
62.1974434042819
 21
-715.1624223551589
 31
0.0
  0
LINE
  5
F4
330
4B
100
AcDbEntity
  8
0
  6
Continuous
 62
     7
100
AcDbLine
 10
84.7709258997271
 20
-710.0011904736893
 30
0.0
 11
73.16817567732471
 21
-711.4625216557179
 31
0.0
  0
LINE
  5
F5
330
4B
100
AcDbEntity
  8
0
  6
Continuous
 62
     7
100
AcDbLine
 10
85.05833336885883
 20
-712.2831626353691
 30
0.0
 11
73.45558314645643
 21
-713.7444938173976
 31
0.0
  0
LINE
  5
F6
330
4B
100
AcDbEntity
  8
0
  6
Continuous
 62
     7
100
AcDbLine
 10
84.7709258997271
 20
-710.0011904736893
 30
0.0
 11
85.05833336885883
 21
-712.2831626353691
 31
0.0
  0
LINE
  5
F7
330
4B
100
AcDbEntity
  8
0
  6
Continuous
 62
     7
100
AcDbLine
 10
73.36012151214857
 20
-730.7533379479391
 30
0.0
 11
62.11860666904579
 21
-729.2091307646951
 31
0.0
  0
LINE
  5
F8
330
4B
100
AcDbEntity
  8
0
  6
Continuous
 62
     7
100
AcDbLine
 10
35.36328686669333
 20
-678.1576543337942
 30
0.0
 11
30.61729857571447
 21
-684.2713921776813
 31
0.0
  0
LINE
  5
F9
330
4B
100
AcDbEntity
  8
0
  6
Continuous
 62
     7
100
AcDbLine
 10
62.1974434042819
 20
-715.1624223551589
 30
0.0
 11
57.80825426901686
 21
-715.7152274077744
 31
0.0
  0
LINE
  5
FA
330
4B
100
AcDbEntity
  8
0
  6
Continuous
 62
     7
100
AcDbLine
 10
57.52084679988514
 20
-713.4332552460946
 30
0.0
 11
55.60411494296898
 21
-713.6746618071593
 31
0.0
  0
LINE
  5
FB
330
4B
100
AcDbEntity
  8
0
  6
Continuous
 62
     7
100
AcDbLine
 10
51.59690371002546
 20
-699.5613799575804
 30
0.0
 11
44.42988836202824
 21
-702.4830380969725
 31
0.0
  0
LINE
  5
FC
330
4B
100
AcDbEntity
  8
0
  6
Continuous
 62
     7
100
AcDbLine
 10
57.80825426901686
 20
-715.7152274077744
 30
0.0
 11
55.8915224121007
 21
-715.956633968839
 31
0.0
  0
LINE
  5
FD
330
4B
100
AcDbEntity
  8
0
  6
Continuous
 62
     7
100
AcDbLine
 10
59.56818972134317
 20
-678.1008813033295
 30
0.0
 11
50.5273189741489
 21
-684.95791330887
 31
0.0
  0
LINE
  5
FE
330
4B
100
AcDbEntity
  8
0
  6
Continuous
 62
     7
100
AcDbLine
 10
33.9518910748626
 20
-694.6428161598087
 30
0.0
 11
35.23082939145718
 21
-693.672807715353
 31
0.0
  0
LINE
  5
FF
330
4B
100
AcDbEntity
  8
0
  6
Continuous
 62
     7
100
AcDbLine
 10
39.83335951888478
 20
-704.3568286855843
 30
0.0
 11
41.31977572845028
 21
-703.7508860712151
 31
0.0
  0
LINE
  5
100
330
4B
100
AcDbEntity
  8
0
  6
Continuous
 62
     7
100
AcDbLine
 10
35.341779325208
 20
-696.4753582879857
 30
0.0
 11
36.62071764180257
 21
-695.50534984353
 31
0.0
  0
LINE
  5
101
330
4B
100
AcDbEntity
  8
0
  6
Continuous
 62
     7
100
AcDbLine
 10
27.57348312262877
 20
-688.1924068503613
 30
0.0
 11
28.55778601352688
 21
-686.9244370482993
 31
0.0
  0
LINE
  5
102
330
4B
100
AcDbEntity
  8
0
  6
Continuous
 62
     7
100
AcDbLine
 10
52.46513586296317
 20
-701.6912092767052
 30
0.0
 11
45.29812051496594
 21
-704.6128674160973
 31
0.0
  0
LINE
  5
103
330
4B
100
AcDbEntity
  8
0
  6
Continuous
 62
     7
100
AcDbLine
 10
61.91003593515382
 20
-712.8804501934792
 30
0.0
 11
57.52084679988514
 21
-713.4332552460946
 31
0.0
  0
LINE
  5
104
330
4B
100
AcDbEntity
  8
0
  6
Continuous
 62
     7
100
AcDbLine
 10
57.48239856344992
 20
-697.1621379986973
 30
0.0
 11
53.38584389707432
 21
-698.8321124166869
 31
0.0
  0
LINE
  5
105
330
4B
100
AcDbEntity
  8
0
  6
Continuous
 62
     7
100
AcDbLine
 10
49.13743072379987
 20
-683.1253711806894
 30
0.0
 11
45.61268395695481
 21
-685.7987089672279
 31
0.0
  0
LINE
  5
106
330
4B
100
AcDbEntity
  8
0
  6
Continuous
 62
     7
100
AcDbLine
 10
39.26065394416185
 20
-673.1371024208638
 30
0.0
 11
36.54792074408363
 21
-676.6316200237015
 31
0.0
  0
LINE
  5
107
330
4B
100
AcDbEntity
  8
0
  6
Continuous
 62
     7
100
AcDbLine
 10
50.5273189741489
 20
-684.95791330887
 30
0.0
 11
47.0025722073002
 21
-687.6312510954085
 31
0.0
  0
LINE
  5
108
330
4B
100
AcDbEntity
  8
0
  6
Continuous
 62
     7
100
AcDbLine
 10
36.54792074408363
 20
-676.6316200237015
 30
0.0
 11
35.36328686669333
 21
-678.1576543337942
 31
0.0
  0
LINE
  5
109
330
4B
100
AcDbEntity
  8
0
  6
Continuous
 62
     7
100
AcDbLine
 10
47.0025722073002
 20
-687.6312510954085
 30
0.0
 11
45.46333700750222
 21
-688.7986812383897
 31
0.0
  0
LINE
  5
10A
330
4B
100
AcDbEntity
  8
0
  6
Continuous
 62
     7
100
AcDbLine
 10
45.61268395695481
 20
-685.7987089672279
 30
0.0
 11
44.07344875715683
 21
-686.966139110209
 31
0.0
  0
LINE
  5
10B
330
4B
100
AcDbEntity
  8
0
  6
Continuous
 62
     7
100
AcDbLine
 10
44.07344875715683
 20
-686.966139110209
 30
0.0
 11
37.90682430487107
 21
-691.6432042312408
 31
0.0
  0
LINE
  5
10C
330
4B
100
AcDbEntity
  8
0
  6
Continuous
 62
     7
100
AcDbLine
 10
45.46333700750222
 20
-688.7986812383897
 30
0.0
 11
39.29671255521646
 21
-693.4757463594215
 31
0.0
  0
LINE
  5
10D
330
4B
100
AcDbEntity
  8
0
  6
Continuous
 62
     7
100
AcDbLine
 10
53.38584389707432
 20
-698.8321124166869
 30
0.0
 11
51.59690371002546
 21
-699.5613799575804
 31
0.0
  0
LINE
  5
10E
330
4B
100
AcDbEntity
  8
0
  6
Continuous
 62
     7
100
AcDbLine
 10
54.25407605001203
 20
-700.9619417358117
 30
0.0
 11
52.46513586296317
 21
-701.6912092767052
 31
0.0
  0
LINE
  5
10F
330
4B
100
AcDbEntity
  8
0
  6
Continuous
 62
     7
100
AcDbLine
 10
79.68734749384714
 20
-690.5939822830587
 30
0.0
 11
68.85817173915677
 21
-695.0085325456675
 31
0.0
  0
LINE
  5
110
330
4B
100
AcDbEntity
  8
0
  6
Continuous
 62
     7
100
AcDbLine
 10
68.85817173915677
 20
-695.0085325456675
 30
0.0
 11
58.35063071638763
 21
-699.2919673178221
 31
0.0
  0
LINE
  5
111
330
4B
100
AcDbEntity
  8
0
  6
Continuous
 62
     7
100
AcDbLine
 10
58.35063071638763
 20
-699.2919673178221
 30
0.0
 11
54.25407605001203
 21
-700.9619417358117
 31
0.0
  0
LINE
  5
112
330
4B
100
AcDbEntity
  8
0
  6
Continuous
 62
     7
100
AcDbLine
 10
67.98993958621907
 20
-692.8787032265427
 30
0.0
 11
57.48239856344992
 21
-697.1621379986973
 31
0.0
  0
LINE
  5
113
330
4B
100
AcDbEntity
  8
0
  6
Continuous
 62
     7
100
AcDbLine
 10
78.8191153409058
 20
-688.4641529639339
 30
0.0
 11
79.68734749384714
 21
-690.5939822830587
 31
0.0
  0
LINE
  5
114
330
4B
100
AcDbEntity
  8
0
  6
Continuous
 62
     7
100
AcDbLine
 10
78.8191153409058
 20
-688.4641529639339
 30
0.0
 11
67.98993958621907
 21
-692.8787032265427
 31
0.0
  0
LINE
  5
115
330
4B
100
AcDbEntity
  8
0
  6
Continuous
 62
     7
100
AcDbLine
 10
55.60411494296898
 20
-713.6746618071593
 30
0.0
 11
47.92512895117727
 21
-714.6418067909835
 31
0.0
  0
LINE
  5
116
330
4B
100
AcDbEntity
  8
0
  6
Continuous
 62
     7
100
AcDbLine
 10
55.8915224121007
 20
-715.956633968839
 30
0.0
 11
48.21253642030899
 21
-716.9237789526633
 31
0.0
  0
LINE
  5
117
330
4B
100
AcDbEntity
  8
0
  6
Continuous
 62
     7
100
AcDbLine
 10
-8.16225467681249
 20
-666.2328015410058
 30
0.0
 11
-7.19510969298824
 21
-673.9117875327975
 31
0.0
  0
LINE
  5
118
330
4B
100
AcDbEntity
  8
0
  6
Continuous
 62
     7
100
AcDbLine
 10
-5.88028251513276
 20
-665.945394071874
 30
0.0
 11
-4.91313753130851
 21
-673.6243800636694
 31
0.0
  0
LINE
  5
119
330
4B
100
AcDbEntity
  8
0
  6
Continuous
 62
     7
100
AcDbLine
 10
6.50727134022929
 20
-666.0149188512769
 30
0.0
 11
5.45399383611914
 21
-673.6825652816515
 31
0.0
  0
LINE
  5
11A
330
4B
100
AcDbEntity
  8
0
  6
Continuous
 62
     7
100
AcDbLine
 10
8.78587371278593
 20
-666.3279224100115
 30
0.0
 11
7.73259620867577
 21
-673.9955688403861
 31
0.0
  0
LINE
  5
11B
330
4B
100
AcDbEntity
  8
0
  6
Continuous
 62
     7
100
AcDbLine
 10
15.80615001527224
 20
-681.310189232754
 30
0.0
 11
16.42873886508789
 21
-679.83066811967
 31
0.0
  0
LINE
  5
11C
330
4B
100
AcDbEntity
  8
0
  6
Continuous
 62
     7
100
AcDbLine
 10
67.49591232635032
 20
-669.2014141369727
 30
0.0
 11
58.17830147099778
 21
-676.2683391751525
 31
0.0
  0
LINE
  5
11D
330
4B
100
AcDbEntity
  8
0
  6
Continuous
 62
     7
100
AcDbLine
 10
68.88580057669571
 20
-671.0339562651534
 30
0.0
 11
59.56818972134317
 21
-678.1008813033295
 31
0.0
  0
LINE
  5
11E
330
4B
100
AcDbEntity
  8
0
  6
Continuous
 62
     7
100
AcDbLine
 10
67.49591232635032
 20
-669.2014141369727
 30
0.0
 11
68.88580057669571
 21
-671.0339562651534
 31
0.0
  0
LINE
  5
11F
330
4B
100
AcDbEntity
  8
0
  6
Continuous
 62
     7
100
AcDbLine
 10
58.17830147099778
 20
-676.2683391751525
 30
0.0
 11
49.13743072379987
 21
-683.1253711806894
 31
0.0
  0
LINE
  5
120
330
4B
100
AcDbEntity
  8
0
  6
Continuous
 62
     7
100
AcDbLine
 10
44.40190825471984
 20
-662.7633983617234
 30
0.0
 11
37.44382818377164
 21
-671.7267322012485
 31
0.0
  0
LINE
  5
121
330
4B
100
AcDbEntity
  8
0
  6
Continuous
 62
     7
100
AcDbLine
 10
9.0487795897385
 20
-664.4140209917314
 30
0.0
 11
8.78587371278593
 21
-666.3279224100115
 31
0.0
  0
LINE
  5
122
330
4B
100
AcDbEntity
  8
0
  6
Continuous
 62
     7
100
AcDbLine
 10
7.37221428072337
 20
-659.718309814929
 30
0.0
 11
6.77017721718187
 21
-664.1010174329967
 31
0.0
  0
LINE
  5
123
330
4B
100
AcDbEntity
  8
0
  6
Continuous
 62
     7
100
AcDbLine
 10
9.65081665328
 20
-660.0313133736636
 30
0.0
 11
9.0487795897385
 21
-664.4140209917314
 31
0.0
  0
LINE
  5
124
330
4B
100
AcDbEntity
  8
0
  6
Continuous
 62
     7
100
AcDbLine
 10
8.91642146396737
 20
-648.4767949718262
 30
0.0
 11
7.37221428072337
 21
-659.718309814929
 31
0.0
  0
LINE
  5
125
330
4B
100
AcDbEntity
  8
0
  6
Continuous
 62
     7
100
AcDbLine
 10
11.195023836524
 20
-648.7897985305608
 30
0.0
 11
9.65081665328
 21
-660.0313133736636
 31
0.0
  0
LINE
  5
126
330
4B
100
AcDbEntity
  8
0
  6
Continuous
 62
     7
100
AcDbLine
 10
12.78649904016822
 20
-637.2041820936502
 30
0.0
 11
11.195023836524
 21
-648.7897985305608
 31
0.0
  0
LINE
  5
127
330
4B
100
AcDbEntity
  8
0
  6
Continuous
 62
     7
100
AcDbLine
 10
10.50789666761159
 20
-636.8911785349155
 30
0.0
 11
8.91642146396737
 21
-648.4767949718262
 31
0.0
  0
LINE
  5
128
330
4B
100
AcDbEntity
  8
0
  6
Continuous
 62
     7
100
AcDbLine
 10
10.50789666761159
 20
-636.8911785349155
 30
0.0
 11
12.78649904016822
 21
-637.2041820936502
 31
0.0
  0
LINE
  5
129
330
4B
100
AcDbEntity
  8
0
  6
Continuous
 62
     7
100
AcDbLine
 10
6.77017721718187
 20
-664.1010174329967
 30
0.0
 11
6.50727134022929
 21
-666.0149188512769
 31
0.0
  0
LINE
  5
12A
330
4B
100
AcDbEntity
  8
0
  6
Continuous
 62
     7
100
AcDbLine
 10
32.13542355272477
 20
-642.5052781473423
 30
0.0
 11
27.59959836850214
 21
-653.2842201847234
 31
0.0
  0
LINE
  5
12B
330
4B
100
AcDbEntity
  8
0
  6
Continuous
 62
     7
100
AcDbLine
 10
32.13542355272477
 20
-642.5052781473423
 30
0.0
 11
34.25537315003714
 21
-643.3973620586767
 31
0.0
  0
LINE
  5
12C
330
4B
100
AcDbEntity
  8
0
  6
Continuous
 62
     7
100
AcDbLine
 10
34.25537315003714
 20
-643.3973620586767
 30
0.0
 11
29.71954796581451
 21
-654.1763040960577
 31
0.0
  0
LINE
  5
12D
330
4B
100
AcDbEntity
  8
0
  6
Continuous
 62
     7
100
AcDbLine
 10
27.59959836850214
 20
-653.2842201847234
 30
0.0
 11
23.19849063186814
 21
-663.743019469679
 31
0.0
  0
LINE
  5
12E
330
4B
100
AcDbEntity
  8
0
  6
Continuous
 62
     7
100
AcDbLine
 10
29.71954796581451
 20
-654.1763040960577
 30
0.0
 11
25.31844022918051
 21
-664.6351033810133
 31
0.0
  0
LINE
  5
12F
330
4B
100
AcDbEntity
  8
0
  6
Continuous
 62
     7
100
AcDbLine
 10
23.6025888804503
 20
-668.7126552004775
 30
0.0
 11
22.85328716651532
 21
-670.4932969613401
 31
0.0
  0
LINE
  5
130
330
4B
100
AcDbEntity
  8
0
  6
Continuous
 62
     7
100
AcDbLine
 10
25.31844022918051
 20
-664.6351033810133
 30
0.0
 11
23.6025888804503
 21
-668.7126552004775
 31
0.0
  0
LINE
  5
131
330
4B
100
AcDbEntity
  8
0
  6
Continuous
 62
     7
100
AcDbLine
 10
23.19849063186814
 20
-663.743019469679
 30
0.0
 11
21.48263928314157
 21
-667.8205712891431
 31
0.0
  0
LINE
  5
132
330
4B
100
AcDbEntity
  8
0
  6
Continuous
 62
     7
100
AcDbLine
 10
35.72385776588237
 20
-656.5746303891428
 30
0.0
 11
35.41329789859776
 21
-656.9746907131484
 31
0.0
  0
LINE
  5
133
330
4B
100
AcDbEntity
  8
0
  6
Continuous
 62
     7
100
AcDbLine
 10
35.72385776588237
 20
-656.5746303891428
 30
0.0
 11
36.09645861844513
 21
-656.094649446648
 31
0.0
  0
LINE
  5
134
330
4B
100
AcDbEntity
  8
0
  6
Continuous
 62
     7
100
AcDbLine
 10
65.2622860948319
 20
-757.5607742498505
 30
0.0
 11
65.74226703733041
 21
-757.9333751024169
 31
0.0
  0
LINE
  5
135
330
4B
100
AcDbEntity
  8
0
  6
Continuous
 62
     7
100
AcDbLine
 10
50.39053758000921
 20
-775.8924779221634
 30
0.0
 11
50.79059800483412
 21
-776.2030378677118
 31
0.0
  0
LINE
  5
136
330
4B
100
AcDbEntity
  8
0
  6
Continuous
 62
     7
100
AcDbLine
 10
51.27057906647644
 20
-776.5756388127666
 30
0.0
 11
50.79059800483412
 21
-776.2030378677118
 31
0.0
  0
LINE
  5
137
330
4B
100
AcDbEntity
  8
0
  6
Continuous
 62
     7
100
AcDbLine
 10
-35.72385776587578
 20
-787.0992025788037
 30
0.0
 11
-35.41329789859117
 21
-786.6991422547981
 31
0.0
  0
LINE
  5
138
330
4B
100
AcDbEntity
  8
0
  6
Continuous
 62
     7
100
AcDbLine
 10
-35.72385776587578
 20
-787.0992025788037
 30
0.0
 11
-36.09645861843853
 21
-787.5791835212985
 31
0.0
  0
LINE
  5
139
330
4B
100
AcDbEntity
  8
0
  6
Continuous
 62
     7
100
AcDbLine
 10
-54.05556143818501
 20
-772.227454063981
 30
0.0
 11
-54.3661213837371
 21
-772.6275144888059
 31
0.0
  0
LINE
  5
13A
330
4B
100
AcDbEntity
  8
0
  6
Continuous
 62
     7
100
AcDbLine
 10
-54.73872232878819
 20
-773.1074955504446
 30
0.0
 11
-54.3661213837371
 21
-772.6275144888059
 31
0.0
  0
LINE
  5
13B
330
4B
100
AcDbEntity
  8
0
  6
Continuous
 62
     7
100
AcDbLine
 10
-46.21873401510345
 20
-779.5000643866078
 30
0.0
 11
-39.26065394415525
 21
-770.5367305470827
 31
0.0
  0
LINE
  5
13C
330
4B
100
AcDbEntity
  8
0
  6
Continuous
 62
     7
100
AcDbLine
 10
-44.40190825471325
 20
-780.9104346062231
 30
0.0
 11
-37.44382818376505
 21
-771.9471007667016
 31
0.0
  0
LINE
  5
13D
330
4B
100
AcDbEntity
  8
0
  6
Continuous
 62
     7
100
AcDbLine
 10
-78.81911534090284
 20
-755.2096800040126
 30
0.0
 11
-67.98993958621247
 21
-750.7951297414038
 31
0.0
  0
LINE
  5
13E
330
4B
100
AcDbEntity
  8
0
  6
Continuous
 62
     7
100
AcDbLine
 10
-79.68734749384055
 20
-753.0798506848878
 30
0.0
 11
-68.85817173915018
 21
-748.6653004222826
 31
0.0
  0
LINE
  5
13F
330
4B
100
AcDbEntity
  8
0
  6
Continuous
 62
     7
100
AcDbLine
 10
-78.81911534090284
 20
-755.2096800040126
 30
0.0
 11
-79.68734749384055
 21
-753.0798506848878
 31
0.0
  0
LINE
  5
140
330
4B
100
AcDbEntity
  8
0
  6
Continuous
 62
     7
100
AcDbLine
 10
-27.59959836849919
 20
-790.3896127832268
 30
0.0
 11
-23.19849063186518
 21
-779.9308134982712
 31
0.0
  0
LINE
  5
141
330
4B
100
AcDbEntity
  8
0
  6
Continuous
 62
     7
100
AcDbLine
 10
-58.17830147099119
 20
-767.405493792794
 30
0.0
 11
-49.13743072379691
 21
-760.5484617872571
 31
0.0
  0
LINE
  5
142
330
4B
100
AcDbEntity
  8
0
  6
Continuous
 62
     7
100
AcDbLine
 10
-59.56818972133658
 20
-765.572951664617
 30
0.0
 11
-50.5273189741423
 21
-758.7159196590801
 31
0.0
  0
LINE
  5
143
330
4B
100
AcDbEntity
  8
0
  6
Continuous
 62
     7
100
AcDbLine
 10
-37.44382818376505
 20
-771.9471007667016
 30
0.0
 11
-34.73109498368683
 21
-768.4525831638639
 31
0.0
  0
LINE
  5
144
330
4B
100
AcDbEntity
  8
0
  6
Continuous
 62
     7
100
AcDbLine
 10
-39.26065394415525
 20
-770.5367305470827
 30
0.0
 11
-36.54792074407703
 21
-767.042212944245
 31
0.0
  0
LINE
  5
145
330
4B
100
AcDbEntity
  8
0
  6
Continuous
 62
     7
100
AcDbLine
 10
-12.78649904016163
 20
-806.4696508742963
 30
0.0
 11
-11.19502383651741
 21
-794.8840344373857
 31
0.0
  0
LINE
  5
146
330
4B
100
AcDbEntity
  8
0
  6
Continuous
 62
     7
100
AcDbLine
 10
-10.507896667605
 20
-806.782654433031
 30
0.0
 11
-12.78649904016163
 21
-806.4696508742963
 31
0.0
  0
LINE
  5
147
330
4B
100
AcDbEntity
  8
0
  6
Continuous
 62
     7
100
AcDbLine
 10
-10.507896667605
 20
-806.782654433031
 30
0.0
 11
-8.91642146396077
 21
-795.1970379961203
 31
0.0
  0
LINE
  5
148
330
4B
100
AcDbEntity
  8
0
  6
Continuous
 62
     7
100
AcDbLine
 10
8.40366123788374
 20
-779.3577632838569
 30
0.0
 11
8.16225467681909
 21
-777.4410314269408
 31
0.0
  0
LINE
  5
149
330
4B
100
AcDbEntity
  8
0
  6
Continuous
 62
     7
100
AcDbLine
 10
28.95821325743566
 20
-789.8268560701872
 30
0.0
 11
24.67477848527744
 21
-779.3193150474217
 31
0.0
  0
LINE
  5
14A
330
4B
100
AcDbEntity
  8
0
  6
Continuous
 62
     7
100
AcDbLine
 10
15.35025847926556
 20
-762.5385081557979
 30
0.0
 11
15.95620109363847
 21
-764.0249243653634
 31
0.0
  0
LINE
  5
14B
330
4B
100
AcDbEntity
  8
0
  6
Continuous
 62
     7
100
AcDbLine
 10
-55.82199763269489
 20
-715.3296451437491
 30
0.0
 11
-48.1543512023203
 21
-716.3829226478592
 31
0.0
  0
LINE
  5
14C
330
4B
100
AcDbEntity
  8
0
  6
Continuous
 62
     7
100
AcDbLine
 10
-55.50899407396025
 20
-713.0510427711924
 30
0.0
 11
-47.84134764358566
 21
-714.1043202753026
 31
0.0
  0
LINE
  5
14D
330
4B
100
AcDbEntity
  8
0
  6
Continuous
 62
     7
100
AcDbLine
 10
6.57483617636137
 20
-764.8371668234067
 30
0.0
 11
6.77541897284721
 21
-766.4297641176818
 31
0.0
  0
LINE
  5
14E
330
4B
100
AcDbEntity
  8
0
  6
Continuous
 62
     7
100
AcDbLine
 10
8.16225467681909
 20
-777.4410314269408
 30
0.0
 11
7.19510969299483
 21
-769.762045435149
 31
0.0
  0
LINE
  5
14F
330
4B
100
AcDbEntity
  8
0
  6
Continuous
 62
     7
100
AcDbLine
 10
4.29286401468164
 20
-765.1245742925385
 30
0.0
 11
4.49344681116747
 21
-766.7171715868135
 31
0.0
  0
LINE
  5
150
330
4B
100
AcDbEntity
  8
0
  6
Continuous
 62
     7
100
AcDbLine
 10
20.14570720727318
 20
-774.3020523469349
 30
0.0
 11
17.22404906787745
 21
-767.1350369989377
 31
0.0
  0
LINE
  5
151
330
4B
100
AcDbEntity
  8
0
  6
Continuous
 62
     7
100
AcDbLine
 10
20.87497474816667
 20
-776.0909925339838
 30
0.0
 11
20.14570720727318
 21
-774.3020523469349
 31
0.0
  0
LINE
  5
152
330
4B
100
AcDbEntity
  8
0
  6
Continuous
 62
     7
100
AcDbLine
 10
22.54494916615261
 20
-780.1875472003594
 30
0.0
 11
20.87497474816667
 21
-776.0909925339838
 31
0.0
  0
LINE
  5
153
330
4B
100
AcDbEntity
  8
0
  6
Continuous
 62
     7
100
AcDbLine
 10
24.67477848527744
 20
-779.3193150474217
 30
0.0
 11
23.0048040672915
 21
-775.2227603810425
 31
0.0
  0
LINE
  5
154
330
4B
100
AcDbEntity
  8
0
  6
Continuous
 62
     7
100
AcDbLine
 10
22.27553652639801
 20
-773.4338201939972
 30
0.0
 11
19.35387838700228
 21
-766.266804846
 31
0.0
  0
LINE
  5
155
330
4B
100
AcDbEntity
  8
0
  6
Continuous
 62
     7
100
AcDbLine
 10
23.0048040672915
 20
-775.2227603810425
 30
0.0
 11
22.27553652639801
 21
-773.4338201939972
 31
0.0
  0
LINE
  5
156
330
4B
100
AcDbEntity
  8
0
  6
Continuous
 62
     7
100
AcDbLine
 10
26.82838393831082
 20
-790.6950882231286
 30
0.0
 11
22.54494916615261
 21
-780.1875472003594
 31
0.0
  0
LINE
  5
157
330
4B
100
AcDbEntity
  8
0
  6
Continuous
 62
     7
100
AcDbLine
 10
-67.98993958621247
 20
-750.7951297414038
 30
0.0
 11
-57.48239856344333
 21
-746.5116949692492
 31
0.0
  0
LINE
  5
158
330
4B
100
AcDbEntity
  8
0
  6
Continuous
 62
     7
100
AcDbLine
 10
-4.77847966565275
 20
-765.0736616446011
 30
0.0
 11
-4.99692607315626
 21
-766.6639071498648
 31
0.0
  0
LINE
  5
159
330
4B
100
AcDbEntity
  8
0
  6
Continuous
 62
     7
100
AcDbLine
 10
6.67449412881945
 20
-784.0343598882537
 30
0.0
 11
6.12168907620401
 21
-779.6451707529886
 31
0.0
  0
LINE
  5
15A
330
4B
100
AcDbEntity
  8
0
  6
Continuous
 62
     7
100
AcDbLine
 10
10.37439482826051
 20
-795.0050921612965
 30
0.0
 11
8.95646629049918
 21
-783.746952419122
 31
0.0
  0
LINE
  5
15B
330
4B
100
AcDbEntity
  8
0
  6
Continuous
 62
     7
100
AcDbLine
 10
8.09242266657714
 20
-795.2924996304282
 30
0.0
 11
6.67449412881945
 21
-784.0343598882537
 31
0.0
  0
LINE
  5
15C
330
4B
100
AcDbEntity
  8
0
  6
Continuous
 62
     7
100
AcDbLine
 10
11.83572601028902
 20
-806.6078423836989
 30
0.0
 11
10.37439482826051
 21
-795.0050921612965
 31
0.0
  0
LINE
  5
15D
330
4B
100
AcDbEntity
  8
0
  6
Continuous
 62
     7
100
AcDbLine
 10
11.83572601028902
 20
-806.6078423836989
 30
0.0
 11
9.55375384860565
 21
-806.8952498528306
 31
0.0
  0
LINE
  5
15E
330
4B
100
AcDbEntity
  8
0
  6
Continuous
 62
     7
100
AcDbLine
 10
9.55375384860565
 20
-806.8952498528306
 30
0.0
 11
8.09242266657714
 21
-795.2924996304282
 31
0.0
  0
LINE
  5
15F
330
4B
100
AcDbEntity
  8
0
  6
Continuous
 62
     7
100
AcDbLine
 10
-68.85817173915018
 20
-748.6653004222826
 30
0.0
 11
-58.35063071638467
 21
-744.3818656501244
 31
0.0
  0
LINE
  5
160
330
4B
100
AcDbEntity
  8
0
  6
Continuous
 62
     7
100
AcDbLine
 10
-49.13743072379691
 20
-760.5484617872571
 30
0.0
 11
-45.61268395694822
 21
-757.8751240007186
 31
0.0
  0
LINE
  5
161
330
4B
100
AcDbEntity
  8
0
  6
Continuous
 62
     7
100
AcDbLine
 10
-50.5273189741423
 20
-758.7159196590801
 30
0.0
 11
-47.00257220729361
 21
-756.042581872538
 31
0.0
  0
LINE
  5
162
330
4B
100
AcDbEntity
  8
0
  6
Continuous
 62
     7
100
AcDbLine
 10
-34.73109498368683
 20
-768.4525831638639
 30
0.0
 11
-33.54646110630017
 21
-766.9265488537712
 31
0.0
  0
LINE
  5
163
330
4B
100
AcDbEntity
  8
0
  6
Continuous
 62
     7
100
AcDbLine
 10
-36.54792074407703
 20
-767.042212944245
 30
0.0
 11
-35.36328686669037
 21
-765.5161786341523
 31
0.0
  0
LINE
  5
164
330
4B
100
AcDbEntity
  8
0
  6
Continuous
 62
     7
100
AcDbLine
 10
-25.31844022917392
 20
-779.0387295869332
 30
0.0
 11
-23.60258888044734
 21
-774.961177767469
 31
0.0
  0
LINE
  5
165
330
4B
100
AcDbEntity
  8
0
  6
Continuous
 62
     7
100
AcDbLine
 10
-23.60258888044734
 20
-774.961177767469
 30
0.0
 11
-22.85328716651236
 21
-773.1805360066064
 31
0.0
  0
LINE
  5
166
330
4B
100
AcDbEntity
  8
0
  6
Continuous
 62
     7
100
AcDbLine
 10
-21.48263928313497
 20
-775.853261678807
 30
0.0
 11
-20.73333756919999
 21
-774.0726199179408
 31
0.0
  0
LINE
  5
167
330
4B
100
AcDbEntity
  8
0
  6
Continuous
 62
     7
100
AcDbLine
 10
-23.19849063186518
 20
-779.9308134982712
 30
0.0
 11
-21.48263928313497
 21
-775.853261678807
 31
0.0
  0
LINE
  5
168
330
4B
100
AcDbEntity
  8
0
  6
Continuous
 62
     7
100
AcDbLine
 10
-45.61268395694822
 20
-757.8751240007186
 30
0.0
 11
-44.07344875715023
 21
-756.7076938577375
 31
0.0
  0
LINE
  5
169
330
4B
100
AcDbEntity
  8
0
  6
Continuous
 62
     7
100
AcDbLine
 10
-58.35063071638467
 20
-744.3818656501244
 30
0.0
 11
-54.25407605000544
 21
-742.7118912321384
 31
0.0
  0
LINE
  5
16A
330
4B
100
AcDbEntity
  8
0
  6
Continuous
 62
     7
100
AcDbLine
 10
-22.85328716651236
 20
-773.1805360066064
 30
0.0
 11
-19.85136629574879
 21
-766.0467665704964
 31
0.0
  0
LINE
  5
16B
330
4B
100
AcDbEntity
  8
0
  6
Continuous
 62
     7
100
AcDbLine
 10
-20.73333756919999
 20
-774.0726199179408
 30
0.0
 11
-17.73141669844006
 21
-766.9388504818307
 31
0.0
  0
LINE
  5
16C
330
4B
100
AcDbEntity
  8
0
  6
Continuous
 62
     7
100
AcDbLine
 10
-45.46333700749563
 20
-754.8751517295605
 30
0.0
 11
-39.29671255520987
 21
-750.1980866085287
 31
0.0
  0
LINE
  5
16D
330
4B
100
AcDbEntity
  8
0
  6
Continuous
 62
     7
100
AcDbLine
 10
-39.83335951888182
 20
-739.3170042823622
 30
0.0
 11
-41.31977572844733
 21
-739.9229468967314
 31
0.0
  0
LINE
  5
16E
330
4B
100
AcDbEntity
  8
0
  6
Continuous
 62
     7
100
AcDbLine
 10
-35.34177932520504
 20
-747.1984746799608
 30
0.0
 11
-36.62071764179962
 21
-748.1684831244165
 31
0.0
  0
LINE
  5
16F
330
4B
100
AcDbEntity
  8
0
  6
Continuous
 62
     7
100
AcDbLine
 10
-52.46513586296021
 20
-741.982623691245
 30
0.0
 11
-45.29812051496299
 21
-739.0609655518492
 31
0.0
  0
LINE
  5
170
330
4B
100
AcDbEntity
  8
0
  6
Continuous
 62
     7
100
AcDbLine
 10
-33.95189107485965
 20
-749.0310168081414
 30
0.0
 11
-35.23082939145422
 21
-750.0010252525935
 31
0.0
  0
LINE
  5
171
330
4B
100
AcDbEntity
  8
0
  6
Continuous
 62
     7
100
AcDbLine
 10
-17.92609961257438
 20
-761.4715598238581
 30
0.0
 11
-18.54868846239367
 21
-762.9510809369422
 31
0.0
  0
LINE
  5
172
330
4B
100
AcDbEntity
  8
0
  6
Continuous
 62
     7
100
AcDbLine
 10
5.88028251513572
 20
-777.7284388960725
 30
0.0
 11
4.91313753131146
 21
-770.0494529042808
 31
0.0
  0
LINE
  5
173
330
4B
100
AcDbEntity
  8
0
  6
Continuous
 62
     7
100
AcDbLine
 10
6.12168907620401
 20
-779.6451707529886
 30
0.0
 11
5.88028251513572
 21
-777.7284388960725
 31
0.0
  0
LINE
  5
174
330
4B
100
AcDbEntity
  8
0
  6
Continuous
 62
     7
100
AcDbLine
 10
8.95646629049918
 20
-783.746952419122
 30
0.0
 11
8.40366123788374
 21
-779.3577632838569
 31
0.0
  0
LINE
  5
175
330
4B
100
AcDbEntity
  8
0
  6
Continuous
 62
     7
100
AcDbLine
 10
-51.59690371001886
 20
-744.1124530103698
 30
0.0
 11
-44.42988836202528
 21
-741.1907948709741
 31
0.0
  0
LINE
  5
176
330
4B
100
AcDbEntity
  8
0
  6
Continuous
 62
     7
100
AcDbLine
 10
-25.75665736223562
 20
-756.8917963372005
 30
0.0
 11
-26.74096025313008
 21
-758.1597661392661
 31
0.0
  0
LINE
  5
177
330
4B
100
AcDbEntity
  8
0
  6
Continuous
 62
     7
100
AcDbLine
 10
-27.57348312262582
 20
-755.4814261175852
 30
0.0
 11
-28.55778601352029
 21
-756.7493959196472
 31
0.0
  0
LINE
  5
178
330
4B
100
AcDbEntity
  8
0
  6
Continuous
 62
     7
100
AcDbLine
 10
-47.00257220729361
 20
-756.042581872538
 30
0.0
 11
-45.46333700749563
 21
-754.8751517295605
 31
0.0
  0
LINE
  5
179
330
4B
100
AcDbEntity
  8
0
  6
Continuous
 62
     7
100
AcDbLine
 10
-53.38584389706773
 20
-744.8417205512596
 30
0.0
 11
-51.59690371001886
 21
-744.1124530103698
 31
0.0
  0
LINE
  5
17A
330
4B
100
AcDbEntity
  8
0
  6
Continuous
 62
     7
100
AcDbLine
 10
-57.48239856344333
 20
-746.5116949692492
 30
0.0
 11
-53.38584389706773
 21
-744.8417205512596
 31
0.0
  0
LINE
  5
17B
330
4B
100
AcDbEntity
  8
0
  6
Continuous
 62
     7
100
AcDbLine
 10
-54.25407605000544
 20
-742.7118912321384
 30
0.0
 11
-52.46513586296021
 21
-741.982623691245
 31
0.0
  0
LINE
  5
17C
330
4B
100
AcDbEntity
  8
0
  6
Continuous
 62
     7
100
AcDbLine
 10
-35.36328686669037
 20
-765.5161786341523
 30
0.0
 11
-30.61729857570788
 21
-759.4024407902689
 31
0.0
  0
LINE
  5
17D
330
4B
100
AcDbEntity
  8
0
  6
Continuous
 62
     7
100
AcDbLine
 10
-33.54646110630017
 20
-766.9265488537712
 30
0.0
 11
-28.80047281531768
 21
-760.8128110098842
 31
0.0
  0
LINE
  5
17E
330
4B
100
AcDbEntity
  8
0
  6
Continuous
 62
     7
100
AcDbLine
 10
-44.07344875715023
 20
-756.7076938577375
 30
0.0
 11
-37.90682430486447
 21
-752.0306287367057
 31
0.0
  0
LINE
  5
17F
330
4B
100
AcDbEntity
  8
0
  6
Continuous
 62
     7
100
AcDbLine
 10
31.24293420091601
 20
-801.5242639778153
 30
0.0
 11
26.82838393831082
 21
-790.6950882231286
 31
0.0
  0
LINE
  5
180
330
4B
100
AcDbEntity
  8
0
  6
Continuous
 62
     7
100
AcDbLine
 10
-42.92374160188808
 20
-714.7798344457624
 30
0.0
 11
-44.51398710715546
 21
-714.5613880382589
 31
0.0
  0
LINE
  5
181
330
4B
100
AcDbEntity
  8
0
  6
Continuous
 62
     7
100
AcDbLine
 10
59.07351812225136
 20
-766.238824738688
 30
0.0
 11
50.11018428272985
 21
-759.2807446677434
 31
0.0
  0
LINE
  5
182
330
4B
100
AcDbEntity
  8
0
  6
Continuous
 62
     7
100
AcDbLine
 10
57.66314790263607
 20
-768.0556504990782
 30
0.0
 11
48.69981406311092
 21
-761.0975704281336
 31
0.0
  0
LINE
  5
183
330
4B
100
AcDbEntity
  8
0
  6
Continuous
 62
     7
100
AcDbLine
 10
48.69981406311092
 20
-761.0975704281336
 30
0.0
 11
45.20529646027683
 21
-758.3848372280518
 31
0.0
  0
LINE
  5
184
330
4B
100
AcDbEntity
  8
0
  6
Continuous
 62
     7
100
AcDbLine
 10
45.20529646027683
 20
-758.3848372280518
 30
0.0
 11
43.67926215018053
 21
-757.2002033506651
 31
0.0
  0
LINE
  5
185
330
4B
100
AcDbEntity
  8
0
  6
Continuous
 62
     7
100
AcDbLine
 10
43.67926215018053
 20
-757.2002033506651
 30
0.0
 11
37.56552430629711
 21
-752.4542150596826
 31
0.0
  0
LINE
  5
186
330
4B
100
AcDbEntity
  8
0
  6
Continuous
 62
     7
100
AcDbLine
 10
27.19410004604981
 20
-755.7888071921407
 30
0.0
 11
28.1641087686254
 21
-757.067745875429
 31
0.0
  0
LINE
  5
187
330
4B
100
AcDbEntity
  8
0
  6
Continuous
 62
     7
100
AcDbLine
 10
25.36155819598901
 20
-757.1786958091798
 30
0.0
 11
26.33156664044475
 21
-758.4576341257743
 31
0.0
  0
LINE
  5
188
330
4B
100
AcDbEntity
  8
0
  6
Continuous
 62
     7
100
AcDbLine
 10
33.64450963361344
 20
-749.4103996066005
 30
0.0
 11
34.91247943567907
 21
-750.3947024974987
 31
0.0
  0
LINE
  5
189
330
4B
100
AcDbEntity
  8
0
  6
Continuous
 62
     7
100
AcDbLine
 10
17.4800877983904
 20
-761.6702760028566
 30
0.0
 11
18.08603041276331
 21
-763.1566922124221
 31
0.0
  0
LINE
  5
18A
330
4B
100
AcDbEntity
  8
0
  6
Continuous
 62
     7
100
AcDbLine
 10
-39.63464333988338
 20
-703.9108168713938
 30
0.0
 11
-41.11416445296379
 21
-703.2882280215781
 31
0.0
  0
LINE
  5
18B
330
4B
100
AcDbEntity
  8
0
  6
Continuous
 62
     7
100
AcDbLine
 10
-40.52672725121772
 20
-706.0307664687061
 30
0.0
 11
-42.00624836429813
 21
-705.4081776188868
 31
0.0
  0
LINE
  5
18C
330
4B
100
AcDbEntity
  8
0
  6
Continuous
 62
     7
100
AcDbLine
 10
-35.05487985322577
 20
-696.0802591217362
 30
0.0
 11
-36.32284965529141
 21
-695.0959562308417
 31
0.0
  0
LINE
  5
18D
330
4B
100
AcDbEntity
  8
0
  6
Continuous
 62
     7
100
AcDbLine
 10
33.37276352004085
 20
-800.6560318248776
 30
0.0
 11
28.95821325743566
 21
-789.8268560701872
 31
0.0
  0
LINE
  5
18E
330
4B
100
AcDbEntity
  8
0
  6
Continuous
 62
     7
100
AcDbLine
 10
-57.4228954922404
 20
-712.7881368942362
 30
0.0
 11
-55.50899407396025
 21
-713.0510427711924
 31
0.0
  0
LINE
  5
18F
330
4B
100
AcDbEntity
  8
0
  6
Continuous
 62
     7
100
AcDbLine
 10
33.37276352004085
 20
-800.6560318248776
 30
0.0
 11
31.24293420091601
 21
-801.5242639778153
 31
0.0
  0
LINE
  5
190
330
4B
100
AcDbEntity
  8
0
  6
Continuous
 62
     7
100
AcDbLine
 10
34.87077737376569
 20
-765.910365241125
 30
0.0
 11
30.19371225273756
 21
-759.7437407888392
 31
0.0
  0
LINE
  5
191
330
4B
100
AcDbEntity
  8
0
  6
Continuous
 62
     7
100
AcDbLine
 10
34.20566538856986
 20
-768.839488691272
 30
0.0
 11
33.03823524558868
 21
-767.3002534914704
 31
0.0
  0
LINE
  5
192
330
4B
100
AcDbEntity
  8
0
  6
Continuous
 62
     7
100
AcDbLine
 10
33.03823524558868
 20
-767.3002534914704
 30
0.0
 11
28.36117012455691
 21
-761.1336290391846
 31
0.0
  0
LINE
  5
193
330
4B
100
AcDbEntity
  8
0
  6
Continuous
 62
     7
100
AcDbLine
 10
36.03820751674687
 20
-767.449600440923
 30
0.0
 11
34.87077737376569
 21
-765.910365241125
 31
0.0
  0
LINE
  5
194
330
4B
100
AcDbEntity
  8
0
  6
Continuous
 62
     7
100
AcDbLine
 10
36.87900317510832
 20
-772.364235458117
 30
0.0
 11
34.20566538856986
 21
-768.839488691272
 31
0.0
  0
LINE
  5
195
330
4B
100
AcDbEntity
  8
0
  6
Continuous
 62
     7
100
AcDbLine
 10
38.71154530328533
 20
-770.9743472077716
 30
0.0
 11
36.03820751674687
 21
-767.449600440923
 31
0.0
  0
LINE
  5
196
330
4B
100
AcDbEntity
  8
0
  6
Continuous
 62
     7
100
AcDbLine
 10
-6.5072713402227
 20
-777.6589141166696
 30
0.0
 11
-5.45399383611255
 21
-769.991267686295
 31
0.0
  0
LINE
  5
197
330
4B
100
AcDbEntity
  8
0
  6
Continuous
 62
     7
100
AcDbLine
 10
-8.78587371277933
 20
-777.345910557935
 30
0.0
 11
-7.73259620866918
 21
-769.6782641275604
 31
0.0
  0
LINE
  5
198
330
4B
100
AcDbEntity
  8
0
  6
Continuous
 62
     7
100
AcDbLine
 10
-7.05708203820939
 20
-764.7606580858665
 30
0.0
 11
-7.27552844571289
 21
-766.3509035911302
 31
0.0
  0
LINE
  5
199
330
4B
100
AcDbEntity
  8
0
  6
Continuous
 62
     7
100
AcDbLine
 10
-15.80615001526564
 20
-762.3636437351961
 30
0.0
 11
-16.42873886508494
 21
-763.8431648482765
 31
0.0
  0
LINE
  5
19A
330
4B
100
AcDbEntity
  8
0
  6
Continuous
 62
     7
100
AcDbLine
 10
-9.04877958973555
 20
-779.2598119762151
 30
0.0
 11
-8.78587371277933
 21
-777.345910557935
 31
0.0
  0
LINE
  5
19B
330
4B
100
AcDbEntity
  8
0
  6
Continuous
 62
     7
100
AcDbLine
 10
-6.77017721717891
 20
-779.5728155349498
 30
0.0
 11
-6.5072713402227
 21
-777.6589141166696
 31
0.0
  0
LINE
  5
19C
330
4B
100
AcDbEntity
  8
0
  6
Continuous
 62
     7
100
AcDbLine
 10
-9.65081665327341
 20
-783.6425195942829
 30
0.0
 11
-9.04877958973555
 21
-779.2598119762151
 31
0.0
  0
LINE
  5
19D
330
4B
100
AcDbEntity
  8
0
  6
Continuous
 62
     7
100
AcDbLine
 10
-7.37221428071678
 20
-783.9555231530176
 30
0.0
 11
-6.77017721717891
 21
-779.5728155349498
 31
0.0
  0
LINE
  5
19E
330
4B
100
AcDbEntity
  8
0
  6
Continuous
 62
     7
100
AcDbLine
 10
-8.91642146396077
 20
-795.1970379961203
 30
0.0
 11
-7.37221428071678
 21
-783.9555231530176
 31
0.0
  0
LINE
  5
19F
330
4B
100
AcDbEntity
  8
0
  6
Continuous
 62
     7
100
AcDbLine
 10
-11.19502383651741
 20
-794.8840344373857
 30
0.0
 11
-9.65081665327341
 21
-783.6425195942829
 31
0.0
  0
LINE
  5
1A0
330
4B
100
AcDbEntity
  8
0
  6
Continuous
 62
     7
100
AcDbLine
 10
43.73603518064522
 20
-781.405106205315
 30
0.0
 11
36.87900317510832
 21
-772.364235458117
 31
0.0
  0
LINE
  5
1A1
330
4B
100
AcDbEntity
  8
0
  6
Continuous
 62
     7
100
AcDbLine
 10
-43.000250339432
 20
-728.4117526603331
 30
0.0
 11
-44.5928476337034
 21
-728.612335456819
 31
0.0
  0
LINE
  5
1A2
330
4B
100
AcDbEntity
  8
0
  6
Continuous
 62
     7
100
AcDbLine
 10
-57.73589905097504
 20
-715.0667392667929
 30
0.0
 11
-55.82199763269489
 21
-715.3296451437491
 31
0.0
  0
LINE
  5
1A3
330
4B
100
AcDbEntity
  8
0
  6
Continuous
 62
     7
100
AcDbLine
 10
-40.70159167181953
 20
-737.1871749632373
 30
0.0
 11
-42.18800788138503
 21
-737.7931175776102
 31
0.0
  0
LINE
  5
1A4
330
4B
100
AcDbEntity
  8
0
  6
Continuous
 62
     7
100
AcDbLine
 10
-61.8056031103082
 20
-712.1860998306984
 30
0.0
 11
-57.4228954922404
 21
-712.7881368942362
 31
0.0
  0
LINE
  5
1A5
330
4B
100
AcDbEntity
  8
0
  6
Continuous
 62
     7
100
AcDbLine
 10
-62.11860666904283
 20
-714.464702203255
 30
0.0
 11
-57.73589905097504
 21
-715.0667392667929
 31
0.0
  0
LINE
  5
1A6
330
4B
100
AcDbEntity
  8
0
  6
Continuous
 62
     7
100
AcDbLine
 10
-51.34361952263168
 20
-698.9836293174594
 30
0.0
 11
-44.20985008652167
 21
-701.985550188223
 31
0.0
  0
LINE
  5
1A7
330
4B
100
AcDbEntity
  8
0
  6
Continuous
 62
     7
100
AcDbLine
 10
-52.23570343396602
 20
-701.1035789147681
 30
0.0
 11
-45.10193399785601
 21
-704.1054997855317
 31
0.0
  0
LINE
  5
1A8
330
4B
100
AcDbEntity
  8
0
  6
Continuous
 62
     7
100
AcDbLine
 10
-68.5526962992484
 20
-694.2373181154726
 30
0.0
 11
-58.09389701429279
 21
-698.6384258521066
 31
0.0
  0
LINE
  5
1A9
330
4B
100
AcDbEntity
  8
0
  6
Continuous
 62
     7
100
AcDbLine
 10
-73.36012151214561
 20
-712.920495020011
 30
0.0
 11
-62.11860666904283
 21
-714.464702203255
 31
0.0
  0
LINE
  5
1AA
330
4B
100
AcDbEntity
  8
0
  6
Continuous
 62
     7
100
AcDbLine
 10
-45.08963236979287
 20
-688.2904553776716
 30
0.0
 11
-38.97589452590944
 21
-693.0364436686541
 31
0.0
  0
LINE
  5
1AB
330
4B
100
AcDbEntity
  8
0
  6
Continuous
 62
     7
100
AcDbLine
 10
-54.01634519482866
 20
-700.3542772008368
 30
0.0
 11
-52.23570343396602
 21
-701.1035789147681
 31
0.0
  0
LINE
  5
1AC
330
4B
100
AcDbEntity
  8
0
  6
Continuous
 62
     7
100
AcDbLine
 10
-53.12426128349432
 20
-698.2343276035244
 30
0.0
 11
-51.34361952263168
 21
-698.9836293174594
 31
0.0
  0
LINE
  5
1AD
330
4B
100
AcDbEntity
  8
0
  6
Continuous
 62
     7
100
AcDbLine
 10
-50.11018428272325
 20
-684.3930883002067
 30
0.0
 11
-46.61566667988552
 21
-687.105821500285
 31
0.0
  0
LINE
  5
1AE
330
4B
100
AcDbEntity
  8
0
  6
Continuous
 62
     7
100
AcDbLine
 10
-46.61566667988552
 20
-687.105821500285
 30
0.0
 11
-45.08963236979287
 21
-688.2904553776716
 31
0.0
  0
LINE
  5
1AF
330
4B
100
AcDbEntity
  8
0
  6
Continuous
 62
     7
100
AcDbLine
 10
-58.09389701429279
 20
-698.6384258521066
 30
0.0
 11
-54.01634519482866
 21
-700.3542772008368
 31
0.0
  0
LINE
  5
1B0
330
4B
100
AcDbEntity
  8
0
  6
Continuous
 62
     7
100
AcDbLine
 10
-57.20181310295845
 20
-696.5184762547979
 30
0.0
 11
-53.12426128349432
 21
-698.2343276035244
 31
0.0
  0
LINE
  5
1B1
330
4B
100
AcDbEntity
  8
0
  6
Continuous
 62
     7
100
AcDbLine
 10
-73.04711795341098
 20
-710.6418926474544
 30
0.0
 11
-61.8056031103082
 21
-712.1860998306984
 31
0.0
  0
LINE
  5
1B2
330
4B
100
AcDbEntity
  8
0
  6
Continuous
 62
     7
100
AcDbLine
 10
84.63273439032457
 20
-734.62341552414
 30
0.0
 11
73.04711795341393
 21
-733.0319403204958
 31
0.0
  0
LINE
  5
1B3
330
4B
100
AcDbEntity
  8
0
  6
Continuous
 62
     7
100
AcDbLine
 10
84.94573794905921
 20
-732.3448131515834
 30
0.0
 11
84.63273439032457
 21
-734.62341552414
 31
0.0
  0
LINE
  5
1B4
330
4B
100
AcDbEntity
  8
0
  6
Continuous
 62
     7
100
AcDbLine
 10
26.74096025313668
 20
-685.5140668286804
 30
0.0
 11
28.80047281532427
 21
-682.8610219580623
 31
0.0
  0
LINE
  5
1B5
330
4B
100
AcDbEntity
  8
0
  6
Continuous
 62
     7
100
AcDbLine
 10
16.42873886508789
 20
-679.83066811967
 30
0.0
 11
17.73141669844301
 21
-676.7349824861158
 31
0.0
  0
LINE
  5
1B6
330
4B
100
AcDbEntity
  8
0
  6
Continuous
 62
     7
100
AcDbLine
 10
18.54868846240026
 20
-680.722752031008
 30
0.0
 11
19.85136629575538
 21
-677.6270663974501
 31
0.0
  0
LINE
  5
1B7
330
4B
100
AcDbEntity
  8
0
  6
Continuous
 62
     7
100
AcDbLine
 10
57.73589905097799
 20
-728.6070937011536
 30
0.0
 11
55.82199763269784
 21
-728.3441878242011
 31
0.0
  0
LINE
  5
1B8
330
4B
100
AcDbEntity
  8
0
  6
Continuous
 62
     7
100
AcDbLine
 10
57.42289549224336
 20
-730.8856960737103
 30
0.0
 11
55.50899407396321
 21
-730.6227901967541
 31
0.0
  0
LINE
  5
1B9
330
4B
100
AcDbEntity
  8
0
  6
Continuous
 62
     7
100
AcDbLine
 10
61.80560311031115
 20
-731.4877331372518
 30
0.0
 11
57.42289549224336
 21
-730.8856960737103
 31
0.0
  0
LINE
  5
1BA
330
4B
100
AcDbEntity
  8
0
  6
Continuous
 62
     7
100
AcDbLine
 10
55.82199763269784
 20
-728.3441878242011
 30
0.0
 11
48.15435120232326
 21
-727.2909103200909
 31
0.0
  0
LINE
  5
1BB
330
4B
100
AcDbEntity
  8
0
  6
Continuous
 62
     7
100
AcDbLine
 10
55.50899407396321
 20
-730.6227901967541
 30
0.0
 11
47.84134764358862
 21
-729.5695126926475
 31
0.0
  0
LINE
  5
1BC
330
4B
100
AcDbEntity
  8
0
  6
Continuous
 62
     7
100
AcDbLine
 10
62.11860666904579
 20
-729.2091307646951
 30
0.0
 11
57.73589905097799
 21
-728.6070937011536
 31
0.0
  0
LINE
  5
1BD
330
4B
100
AcDbEntity
  8
0
  6
Continuous
 62
     7
100
AcDbLine
 10
-35.23082939145422
 20
-750.0010252525935
 30
0.0
 11
-37.90682430486447
 21
-752.0306287367057
 31
0.0
  0
LINE
  5
1BE
330
4B
100
AcDbEntity
  8
0
  6
Continuous
 62
     7
100
AcDbLine
 10
-36.62071764179962
 20
-748.1684831244165
 30
0.0
 11
-39.29671255520987
 21
-750.1980866085287
 31
0.0
  0
LINE
  5
1BF
330
4B
100
AcDbEntity
  8
0
  6
Continuous
 62
     7
100
AcDbLine
 10
1.48791758579648
 20
-724.4477968202518
 30
0.0
 11
6.26232086373386
 21
-762.3558421533417
 31
0.0
  0
LINE
  5
1C0
330
4B
100
AcDbEntity
  8
0
  6
Continuous
 62
     7
100
AcDbLine
 10
-0.79405457588689
 20
-724.7352042893835
 30
0.0
 11
3.98034870205413
 21
-762.6432496224734
 31
0.0
  0
LINE
  5
1C1
330
4B
100
AcDbEntity
  8
0
  6
Continuous
 62
     7
100
AcDbLine
 10
-16.42873886508494
 20
-763.8431648482765
 30
0.0
 11
-17.73141669844006
 21
-766.9388504818307
 31
0.0
  0
LINE
  5
1C2
330
4B
100
AcDbEntity
  8
0
  6
Continuous
 62
     7
100
AcDbLine
 10
-18.54868846239367
 20
-762.9510809369422
 30
0.0
 11
-19.85136629574879
 21
-766.0467665704964
 31
0.0
  0
LINE
  5
1C3
330
4B
100
AcDbEntity
  8
0
  6
Continuous
 62
     7
100
AcDbLine
 10
-7.27552844571289
 20
-766.3509035911302
 30
0.0
 11
-7.73259620866918
 21
-769.6782641275604
 31
0.0
  0
LINE
  5
1C4
330
4B
100
AcDbEntity
  8
0
  6
Continuous
 62
     7
100
AcDbLine
 10
5.76026841754685
 20
-729.0935898098069
 30
0.0
 11
24.71845026509584
 21
-743.8104964492886
 31
0.0
  0
LINE
  5
1C5
330
4B
100
AcDbEntity
  8
0
  6
Continuous
 62
     7
100
AcDbLine
 10
18.08603041276331
 20
-763.1566922124221
 30
0.0
 11
19.35387838700228
 21
-766.266804846
 31
0.0
  0
LINE
  5
1C6
330
4B
100
AcDbEntity
  8
0
  6
Continuous
 62
     7
100
AcDbLine
 10
6.77541897284721
 20
-766.4297641176818
 30
0.0
 11
7.19510969299483
 21
-769.762045435149
 31
0.0
  0
LINE
  5
1C7
330
4B
100
AcDbEntity
  8
0
  6
Continuous
 62
     7
100
AcDbLine
 10
-4.99692607315626
 20
-766.6639071498648
 30
0.0
 11
-5.45399383611255
 21
-769.991267686295
 31
0.0
  0
LINE
  5
1C8
330
4B
100
AcDbEntity
  8
0
  6
Continuous
 62
     7
100
AcDbLine
 10
4.49344681116747
 20
-766.7171715868135
 30
0.0
 11
4.91313753131146
 21
-770.0494529042808
 31
0.0
  0
LINE
  5
1C9
330
4B
100
AcDbEntity
  8
0
  6
Continuous
 62
     7
100
AcDbLine
 10
15.95620109363847
 20
-764.0249243653634
 30
0.0
 11
17.22404906787745
 21
-767.1350369989377
 31
0.0
  0
LINE
  5
1CA
330
4B
100
AcDbEntity
  8
0
  6
Continuous
 62
     7
100
AcDbLine
 10
5.61420883937501
 20
-727.6509649106629
 30
0.0
 11
5.58354861721057
 21
-727.6904611228456
 31
0.0
  0
LINE
  5
1CB
330
4B
100
AcDbEntity
  8
0
  6
Continuous
 62
     7
100
AcDbLine
 10
26.33156664044475
 20
-758.4576341257743
 30
0.0
 11
28.36117012455691
 21
-761.1336290391846
 31
0.0
  0
LINE
  5
1CC
330
4B
100
AcDbEntity
  8
0
  6
Continuous
 62
     7
100
AcDbLine
 10
28.1641087686254
 20
-757.067745875429
 30
0.0
 11
30.19371225273756
 21
-759.7437407888392
 31
0.0
  0
LINE
  5
1CD
330
4B
100
AcDbEntity
  8
0
  6
Continuous
 62
     7
100
AcDbLine
 10
34.91247943567907
 20
-750.3947024974987
 30
0.0
 11
37.56552430629711
 21
-752.4542150596826
 31
0.0
  0
LINE
  5
1CE
330
4B
100
AcDbEntity
  8
0
  6
Continuous
 62
     7
100
AcDbLine
 10
36.32284965529436
 20
-748.5778767371085
 30
0.0
 11
38.9758945259124
 21
-750.6373892992924
 31
0.0
  0
LINE
  5
1CF
330
4B
100
AcDbEntity
  8
0
  6
Continuous
 62
     7
100
AcDbLine
 10
42.00624836430472
 20
-738.2656553490597
 30
0.0
 11
45.10193399785896
 21
-739.5683331824148
 31
0.0
  0
LINE
  5
1D0
330
4B
100
AcDbEntity
  8
0
  6
Continuous
 62
     7
100
AcDbLine
 10
41.11416445297039
 20
-740.385604946372
 30
0.0
 11
44.20985008652463
 21
-741.6882827797272
 31
0.0
  0
LINE
  5
1D1
330
4B
100
AcDbEntity
  8
0
  6
Continuous
 62
     7
100
AcDbLine
 10
26.12157895205348
 20
-743.6337766489523
 30
0.0
 11
26.15223917422156
 21
-743.5942804367733
 31
0.0
  0
LINE
  5
1D2
330
4B
100
AcDbEntity
  8
0
  6
Continuous
 62
     7
100
AcDbLine
 10
26.15223917422156
 20
-743.5942804367733
 30
0.0
 11
31.66896607273486
 21
-747.8768195206248
 31
0.0
  0
LINE
  5
1D3
330
4B
100
AcDbEntity
  8
0
  6
Continuous
 62
     7
100
AcDbLine
 10
27.56260939383685
 20
-741.7774546763831
 30
0.0
 11
33.07933629235015
 21
-746.0599937602383
 31
0.0
  0
LINE
  5
1D4
330
4B
100
AcDbEntity
  8
0
  6
Continuous
 62
     7
100
AcDbLine
 10
27.56260939383685
 20
-741.7774546763831
 30
0.0
 11
27.59326961600493
 21
-741.7379584642003
 31
0.0
  0
LINE
  5
1D5
330
4B
100
AcDbEntity
  8
0
  6
Continuous
 62
     7
100
AcDbLine
 10
-61.91003593514722
 20
-730.793382774471
 30
0.0
 11
-57.52084679988218
 21
-730.2405777218555
 31
0.0
  0
LINE
  5
1D6
330
4B
100
AcDbEntity
  8
0
  6
Continuous
 62
     7
100
AcDbLine
 10
-62.19744340427894
 20
-728.5114106127876
 30
0.0
 11
-57.80825426901026
 21
-727.9586055601721
 31
0.0
  0
LINE
  5
1D7
330
4B
100
AcDbEntity
  8
0
  6
Continuous
 62
     7
100
AcDbLine
 10
-57.80825426901026
 20
-727.9586055601721
 30
0.0
 11
-55.89152241209774
 21
-727.7171989991075
 31
0.0
  0
LINE
  5
1D8
330
4B
100
AcDbEntity
  8
0
  6
Continuous
 62
     7
100
AcDbLine
 10
-28.55778601352029
 20
-756.7493959196472
 30
0.0
 11
-30.61729857570788
 21
-759.4024407902689
 31
0.0
  0
LINE
  5
1D9
330
4B
100
AcDbEntity
  8
0
  6
Continuous
 62
     7
100
AcDbLine
 10
-26.74096025313008
 20
-758.1597661392661
 30
0.0
 11
-28.80047281531768
 21
-760.8128110098842
 31
0.0
  0
LINE
  5
1DA
330
4B
100
AcDbEntity
  8
0
  6
Continuous
 62
     7
100
AcDbLine
 10
-2.61088033627709
 20
-723.3248340697683
 30
0.0
 11
-26.03990331888087
 21
-753.5058829202717
 31
0.0
  0
LINE
  5
1DB
330
4B
100
AcDbEntity
  8
0
  6
Continuous
 62
     7
100
AcDbLine
 10
-41.31977572844733
 20
-739.9229468967314
 30
0.0
 11
-44.42988836202528
 21
-741.1907948709741
 31
0.0
  0
LINE
  5
1DC
330
4B
100
AcDbEntity
  8
0
  6
Continuous
 62
     7
100
AcDbLine
 10
-42.18800788138503
 20
-737.7931175776102
 30
0.0
 11
-45.29812051496299
 21
-739.0609655518492
 31
0.0
  0
LINE
  5
1DD
330
4B
100
AcDbEntity
  8
0
  6
Continuous
 62
     7
100
AcDbLine
 10
-55.60411494296602
 20
-729.9991711607872
 30
0.0
 11
-47.92512895117068
 21
-729.0320261769666
 31
0.0
  0
LINE
  5
1DE
330
4B
100
AcDbEntity
  8
0
  6
Continuous
 62
     7
100
AcDbLine
 10
-57.52084679988218
 20
-730.2405777218555
 30
0.0
 11
-55.60411494296602
 21
-729.9991711607872
 31
0.0
  0
LINE
  5
1DF
330
4B
100
AcDbEntity
  8
0
  6
Continuous
 62
     7
100
AcDbLine
 10
-43.28765780856372
 20
-726.1297804986534
 30
0.0
 11
-44.88025510283512
 21
-726.3303632951393
 31
0.0
  0
LINE
  5
1E0
330
4B
100
AcDbEntity
  8
0
  6
Continuous
 62
     7
100
AcDbLine
 10
-43.23674516062272
 20
-717.058436818319
 30
0.0
 11
-44.82699066589009
 21
-716.8399904108155
 31
0.0
  0
LINE
  5
1E1
330
4B
100
AcDbEntity
  8
0
  6
Continuous
 62
     7
100
AcDbLine
 10
-0.79405457588689
 20
-724.7352042893835
 30
0.0
 11
-24.22307755849067
 21
-754.916253139887
 31
0.0
  0
LINE
  5
1E2
330
4B
100
AcDbEntity
  8
0
  6
Continuous
 62
     7
100
AcDbLine
 10
7.27552844571585
 20
-677.3229293768163
 30
0.0
 11
7.73259620867577
 21
-673.9955688403861
 31
0.0
  0
LINE
  5
1E3
330
4B
100
AcDbEntity
  8
0
  6
Continuous
 62
     7
100
AcDbLine
 10
-55.89152241209774
 20
-727.7171989991075
 30
0.0
 11
-48.2125364203024
 21
-726.7500540152832
 31
0.0
  0
LINE
  5
1E4
330
4B
100
AcDbEntity
  8
0
  6
Continuous
 62
     7
100
AcDbLine
 10
-44.51398710715546
 20
-714.5613880382589
 30
0.0
 11
-47.84134764358566
 21
-714.1043202753026
 31
0.0
  0
LINE
  5
1E5
330
4B
100
AcDbEntity
  8
0
  6
Continuous
 62
     7
100
AcDbLine
 10
-44.82699066589009
 20
-716.8399904108155
 30
0.0
 11
-48.1543512023203
 21
-716.3829226478592
 31
0.0
  0
LINE
  5
1E6
330
4B
100
AcDbEntity
  8
0
  6
Continuous
 62
     7
100
AcDbLine
 10
-36.32284965529141
 20
-695.0959562308417
 30
0.0
 11
-38.97589452590944
 21
-693.0364436686541
 31
0.0
  0
LINE
  5
1E7
330
4B
100
AcDbEntity
  8
0
  6
Continuous
 62
     7
100
AcDbLine
 10
-34.91247943567248
 20
-693.2791304704515
 30
0.0
 11
-37.56552430629051
 21
-691.2196179082639
 31
0.0
  0
LINE
  5
1E8
330
4B
100
AcDbEntity
  8
0
  6
Continuous
 62
     7
100
AcDbLine
 10
-28.1641087686188
 20
-686.6060870925176
 30
0.0
 11
-30.19371225273096
 21
-683.9300921791073
 31
0.0
  0
LINE
  5
1E9
330
4B
100
AcDbEntity
  8
0
  6
Continuous
 62
     7
100
AcDbLine
 10
-26.33156664043816
 20
-685.2161988421722
 30
0.0
 11
-28.36117012455031
 21
-682.5402039287619
 31
0.0
  0
LINE
  5
1EA
330
4B
100
AcDbEntity
  8
0
  6
Continuous
 62
     7
100
AcDbLine
 10
-42.00624836429813
 20
-705.4081776188868
 30
0.0
 11
-45.10193399785601
 21
-704.1054997855317
 31
0.0
  0
LINE
  5
1EB
330
4B
100
AcDbEntity
  8
0
  6
Continuous
 62
     7
100
AcDbLine
 10
-41.11416445296379
 20
-703.2882280215781
 30
0.0
 11
-44.20985008652167
 21
-701.985550188223
 31
0.0
  0
LINE
  5
1EC
330
4B
100
AcDbEntity
  8
0
  6
Continuous
 62
     7
100
AcDbLine
 10
-18.08603041275671
 20
-680.5171407555245
 30
0.0
 11
-19.35387838699933
 21
-677.4070281219465
 31
0.0
  0
LINE
  5
1ED
330
4B
100
AcDbEntity
  8
0
  6
Continuous
 62
     7
100
AcDbLine
 10
-15.95620109363188
 20
-679.6489086025867
 30
0.0
 11
-17.22404906787449
 21
-676.5387959690088
 31
0.0
  0
LINE
  5
1EE
330
4B
100
AcDbEntity
  8
0
  6
Continuous
 62
     7
100
AcDbLine
 10
-6.77541897284425
 20
-677.2440688502684
 30
0.0
 11
-7.19510969298824
 21
-673.9117875327975
 31
0.0
  0
LINE
  5
1EF
330
4B
100
AcDbEntity
  8
0
  6
Continuous
 62
     7
100
AcDbLine
 10
-27.56260939778838
 20
-701.8963782966639
 30
0.0
 11
-33.07933666353745
 21
-697.6138389358966
 31
0.0
  0
LINE
  5
1F0
330
4B
100
AcDbEntity
  8
0
  6
Continuous
 62
     7
100
AcDbLine
 10
-26.15223917421497
 20
-700.0795525311769
 30
0.0
 11
-26.12157895205053
 21
-700.0400563189942
 31
0.0
  0
LINE
  5
1F1
330
4B
100
AcDbEntity
  8
0
  6
Continuous
 62
     7
100
AcDbLine
 10
-26.15223917421497
 20
-700.0795525311769
 30
0.0
 11
-31.66896642809695
 21
-695.7970131551192
 31
0.0
  0
LINE
  5
1F2
330
4B
100
AcDbEntity
  8
0
  6
Continuous
 62
     7
100
AcDbLine
 10
-2.61088033627709
 20
-723.3248340697683
 30
0.0
 11
-40.51892566936328
 21
-728.0992373477056
 31
0.0
  0
LINE
  5
1F3
330
4B
100
AcDbEntity
  8
0
  6
Continuous
 62
     7
100
AcDbLine
 10
-40.80633313849501
 20
-725.8172651860259
 30
0.0
 11
-2.89828780540881
 21
-721.0428619080849
 31
0.0
  0
LINE
  5
1F4
330
4B
100
AcDbEntity
  8
0
  6
Continuous
 62
     7
100
AcDbLine
 10
-44.5928476337034
 20
-728.612335456819
 30
0.0
 11
-47.92512895117068
 21
-729.0320261769666
 31
0.0
  0
LINE
  5
1F5
330
4B
100
AcDbEntity
  8
0
  6
Continuous
 62
     7
100
AcDbLine
 10
-44.88025510283512
 20
-726.3303632951393
 30
0.0
 11
-48.2125364203024
 21
-726.7500540152832
 31
0.0
  0
LINE
  5
1F6
330
4B
100
AcDbEntity
  8
0
  6
Continuous
 62
     7
100
AcDbLine
 10
0.79405457588985
 20
-718.938628678563
 30
0.0
 11
-3.98034868920183
 21
-681.0305833442217
 31
0.0
  0
LINE
  5
1F7
330
4B
100
AcDbEntity
  8
0
  6
Continuous
 62
     7
100
AcDbLine
 10
-1.48791758578989
 20
-719.2260361476947
 30
0.0
 11
-6.2623208764893
 21
-681.3179908165803
 31
0.0
  0
LINE
  5
1F8
330
4B
100
AcDbEntity
  8
0
  6
Continuous
 62
     7
100
AcDbLine
 10
-24.71845026508925
 20
-699.8633365186579
 30
0.0
 11
-5.7602684175439
 21
-714.5802431581433
 31
0.0
  0
LINE
  5
1F9
330
4B
100
AcDbEntity
  8
0
  6
Continuous
 62
     7
100
AcDbLine
 10
-27.59326961599834
 20
-701.9358745037498
 30
0.0
 11
-27.56260939778838
 21
-701.8963782966639
 31
0.0
  0
LINE
  5
1FA
330
4B
100
AcDbEntity
  8
0
  6
Continuous
 62
     7
100
AcDbLine
 10
-4.49344681116088
 20
-676.9566613811367
 30
0.0
 11
-4.91313753130851
 21
-673.6243800636694
 31
0.0
  0
LINE
  5
1FB
330
4B
100
AcDbEntity
  8
0
  6
Continuous
 62
     7
100
AcDbLine
 10
-8.45836796811307
 20
-718.0559098301928
 30
0.0
 11
-27.41654981566205
 21
-703.3390031907074
 31
0.0
  0
LINE
  5
1FC
330
4B
100
AcDbEntity
  8
0
  6
Continuous
 62
     7
100
AcDbLine
 10
4.99692607315922
 20
-677.0099258180817
 30
0.0
 11
5.45399383611914
 21
-673.6825652816515
 31
0.0
  0
LINE
  5
1FD
330
4B
100
AcDbEntity
  8
0
  6
Continuous
 62
     7
100
AcDbLine
 10
-7.02457905898734
 20
-717.8396938176738
 30
0.0
 11
-7.05523928115542
 21
-717.8791900298565
 31
0.0
  0
LINE
  5
1FE
330
4B
100
AcDbEntity
  8
0
  6
Continuous
 62
     7
100
AcDbLine
 10
-5.58354861720761
 20
-715.9833718451009
 30
0.0
 11
-5.61420883541393
 21
-716.0228680521868
 31
0.0
  0
LINE
  5
1FF
330
4B
100
AcDbEntity
  8
0
  6
Continuous
 62
     7
100
AcDbLine
 10
-2.89828780540881
 20
-721.0428619080849
 30
0.0
 11
-7.02457905898734
 21
-717.8396938176738
 31
0.0
  0
LINE
  5
200
330
4B
100
AcDbEntity
  8
0
  6
Continuous
 62
     7
100
AcDbLine
 10
-1.48791758578989
 20
-719.2260361476947
 30
0.0
 11
-5.61420883541393
 21
-716.0228680521868
 31
0.0
  0
LINE
  5
201
330
4B
100
AcDbEntity
  8
0
  6
Continuous
 62
     7
100
AcDbLine
 10
0.79405457588985
 20
-718.938628678563
 30
0.0
 11
24.22307755849363
 21
-688.7575798280595
 31
0.0
  0
LINE
  5
202
330
4B
100
AcDbEntity
  8
0
  6
Continuous
 62
     7
100
AcDbLine
 10
2.89828780541177
 20
-722.6309710598616
 30
0.0
 11
40.8063331385016
 21
-717.8565677819242
 31
0.0
  0
LINE
  5
203
330
4B
100
AcDbEntity
  8
0
  6
Continuous
 62
     7
100
AcDbLine
 10
2.61088033628005
 20
-720.3489988981819
 30
0.0
 11
40.51892566936988
 21
-715.5745956202409
 31
0.0
  0
LINE
  5
204
330
4B
100
AcDbEntity
  8
0
  6
Continuous
 62
     7
100
AcDbLine
 10
28.55778601352688
 20
-686.9244370482993
 30
0.0
 11
30.61729857571447
 21
-684.2713921776813
 31
0.0
  0
LINE
  5
205
330
4B
100
AcDbEntity
  8
0
  6
Continuous
 62
     7
100
AcDbLine
 10
35.23082939145718
 20
-693.672807715353
 30
0.0
 11
37.90682430487107
 21
-691.6432042312408
 31
0.0
  0
LINE
  5
206
330
4B
100
AcDbEntity
  8
0
  6
Continuous
 62
     7
100
AcDbLine
 10
41.31977572845028
 20
-703.7508860712151
 30
0.0
 11
44.42988836202824
 21
-702.4830380969725
 31
0.0
  0
LINE
  5
207
330
4B
100
AcDbEntity
  8
0
  6
Continuous
 62
     7
100
AcDbLine
 10
44.82699066589305
 20
-726.833842557131
 30
0.0
 11
48.15435120232326
 21
-727.2909103200909
 31
0.0
  0
LINE
  5
208
330
4B
100
AcDbEntity
  8
0
  6
Continuous
 62
     7
100
AcDbLine
 10
44.88025510284172
 20
-717.3434696728109
 30
0.0
 11
48.21253642030899
 21
-716.9237789526633
 31
0.0
  0
LINE
  5
209
330
4B
100
AcDbEntity
  8
0
  6
Continuous
 62
     7
100
AcDbLine
 10
44.59284763370999
 20
-715.0614975111275
 30
0.0
 11
47.92512895117727
 21
-714.6418067909835
 31
0.0
  0
LINE
  5
20A
330
4B
100
AcDbEntity
  8
0
  6
Continuous
 62
     7
100
AcDbLine
 10
44.51398710716205
 20
-729.1124449296876
 30
0.0
 11
47.84134764358862
 21
-729.5695126926475
 31
0.0
  0
LINE
  5
20B
330
4B
100
AcDbEntity
  8
0
  6
Continuous
 62
     7
100
AcDbLine
 10
42.18800788139163
 20
-705.8807153903399
 30
0.0
 11
45.29812051496594
 21
-704.6128674160973
 31
0.0
  0
LINE
  5
20C
330
4B
100
AcDbEntity
  8
0
  6
Continuous
 62
     7
100
AcDbLine
 10
36.62071764180257
 20
-695.50534984353
 30
0.0
 11
39.29671255521646
 21
-693.4757463594215
 31
0.0
  0
LINE
  5
20D
330
4B
100
AcDbEntity
  8
0
  6
Continuous
 62
     7
100
AcDbLine
 10
2.61088033628005
 20
-720.3489988981819
 30
0.0
 11
26.03990331888383
 21
-690.1679500476785
 31
0.0
  0
LINE
  5
20E
330
4B
100
AcDbEntity
  8
0
  6
Continuous
 62
     7
100
AcDbLine
 10
2.89828780541177
 20
-722.6309710598616
 30
0.0
 11
7.02457905899394
 21
-725.8341391502727
 31
0.0
  0
LINE
  5
20F
330
4B
100
AcDbEntity
  8
0
  6
Continuous
 62
     7
100
AcDbLine
 10
1.48791758579648
 20
-724.4477968202518
 30
0.0
 11
5.61420883937501
 21
-727.6509649106629
 31
0.0
  0
LINE
  5
210
330
4B
100
AcDbEntity
  8
0
  6
Continuous
 62
     7
100
AcDbLine
 10
27.41654981566865
 20
-740.3348297772391
 30
0.0
 11
8.45836796811966
 21
-725.6179231377537
 31
0.0
  0
LINE
  5
211
330
4B
100
AcDbEntity
  8
0
  6
Continuous
 62
     7
100
AcDbLine
 10
7.05523928115838
 20
-725.79464293809
 30
0.0
 11
7.02457905899394
 21
-725.8341391502727
 31
0.0
  0
LINE
  5
212
330
4B
100
AcDbEntity
  8
0
  6
Continuous
 62
     7
100
AcDbLine
 10
-85.05833336885223
 20
-731.3906703325774
 30
0.0
 11
-73.45558314644984
 21
-729.9293391505489
 31
0.0
  0
LINE
  5
213
330
4B
100
AcDbEntity
  8
0
  6
Continuous
 62
     7
100
AcDbLine
 10
-73.45558314644984
 20
-729.9293391505489
 30
0.0
 11
-62.19744340427894
 21
-728.5114106127876
 31
0.0
  0
LINE
  5
214
330
4B
100
AcDbEntity
  8
0
  6
Continuous
 62
     7
100
AcDbLine
 10
-84.77092589972051
 20
-733.6726424942572
 30
0.0
 11
-73.16817567731812
 21
-732.2113113122286
 31
0.0
  0
LINE
  5
215
330
4B
100
AcDbEntity
  8
0
  6
Continuous
 62
     7
100
AcDbLine
 10
-84.77092589972051
 20
-733.6726424942572
 30
0.0
 11
-85.05833336885223
 21
-731.3906703325774
 31
0.0
  0
LINE
  5
216
330
4B
100
AcDbEntity
  8
0
  6
Continuous
 62
     7
100
AcDbLine
 10
-73.16817567731812
 20
-732.2113113122286
 30
0.0
 11
-61.91003593514722
 21
-730.793382774471
 31
0.0
  0
LINE
  5
217
330
4B
100
AcDbEntity
  8
0
  6
Continuous
 62
     7
100
AcDbLine
 10
-29.71954796580792
 20
-789.4975288718888
 30
0.0
 11
-25.31844022917392
 21
-779.0387295869332
 31
0.0
  0
LINE
  5
218
330
4B
100
AcDbEntity
  8
0
  6
Continuous
 62
     7
100
AcDbLine
 10
73.04711795341393
 20
-733.0319403204958
 30
0.0
 11
61.80560311031115
 21
-731.4877331372518
 31
0.0
  0
LINE
  5
219
330
4B
100
AcDbEntity
  8
0
  6
Continuous
 62
     7
100
AcDbLine
 10
-67.49591232634373
 20
-774.4724188309738
 30
0.0
 11
-68.88580057668912
 21
-772.6398767027968
 31
0.0
  0
LINE
  5
21A
330
4B
100
AcDbEntity
  8
0
  6
Continuous
 62
     7
100
AcDbLine
 10
-68.88580057668912
 20
-772.6398767027968
 30
0.0
 11
-59.56818972133658
 21
-765.572951664617
 31
0.0
  0
LINE
  5
21B
330
4B
100
AcDbEntity
  8
0
  6
Continuous
 62
     7
100
AcDbLine
 10
-67.49591232634373
 20
-774.4724188309738
 30
0.0
 11
-58.17830147099119
 21
-767.405493792794
 31
0.0
  0
LINE
  5
21C
330
4B
100
AcDbEntity
  8
0
  6
Continuous
 62
     7
100
AcDbLine
 10
-32.13542355272182
 20
-801.1685548206078
 30
0.0
 11
-27.59959836849919
 21
-790.3896127832268
 31
0.0
  0
LINE
  5
21D
330
4B
100
AcDbEntity
  8
0
  6
Continuous
 62
     7
100
AcDbLine
 10
-32.13542355272182
 20
-801.1685548206078
 30
0.0
 11
-34.25537315003055
 21
-800.2764709092698
 31
0.0
  0
LINE
  5
21E
330
4B
100
AcDbEntity
  8
0
  6
Continuous
 62
     7
100
AcDbLine
 10
-34.25537315003055
 20
-800.2764709092698
 30
0.0
 11
-29.71954796580792
 21
-789.4975288718888
 31
0.0
  0
LINE
  5
21F
330
4B
100
AcDbEntity
  8
0
  6
Continuous
 62
     7
100
AcDbLine
 10
79.33163833663605
 20
-753.9723400366966
 30
0.0
 11
68.55269629925499
 21
-749.4365148524739
 31
0.0
  0
LINE
  5
220
330
4B
100
AcDbEntity
  8
0
  6
Continuous
 62
     7
100
AcDbLine
 10
52.63550234700563
 20
-789.3328288103221
 30
0.0
 11
50.80296021882498
 21
-790.7227170606675
 31
0.0
  0
LINE
  5
221
330
4B
100
AcDbEntity
  8
0
  6
Continuous
 62
     7
100
AcDbLine
 10
52.63550234700563
 20
-789.3328288103221
 30
0.0
 11
45.56857730882223
 21
-780.0152179549696
 31
0.0
  0
LINE
  5
222
330
4B
100
AcDbEntity
  8
0
  6
Continuous
 62
     7
100
AcDbLine
 10
50.80296021882498
 20
-790.7227170606675
 30
0.0
 11
43.73603518064522
 21
-781.405106205315
 31
0.0
  0
LINE
  5
223
330
4B
100
AcDbEntity
  8
0
  6
Continuous
 62
     7
100
AcDbLine
 10
45.56857730882223
 20
-780.0152179549696
 30
0.0
 11
38.71154530328533
 21
-770.9743472077716
 31
0.0
  0
LINE
  5
224
330
4B
100
AcDbEntity
  8
0
  6
Continuous
 62
     7
100
AcDbLine
 10
78.43955442529807
 20
-756.0922896340089
 30
0.0
 11
67.66061238792065
 21
-751.5564644497863
 31
0.0
  0
LINE
  5
225
330
4B
100
AcDbEntity
  8
0
  6
Continuous
 62
     7
100
AcDbLine
 10
79.33163833663605
 20
-753.9723400366966
 30
0.0
 11
78.43955442529807
 21
-756.0922896340089
 31
0.0
  0
LINE
  5
226
330
4B
100
AcDbEntity
  8
0
  6
Continuous
 62
     7
100
AcDbLine
 10
51.57297442902166
 20
-653.5256978106772
 30
0.0
 11
44.40190825471984
 21
-662.7633983617234
 31
0.0
  0
LINE
  5
227
330
4B
100
AcDbEntity
  8
0
  6
Continuous
 62
     7
100
AcDbLine
 10
51.57297442902166
 20
-653.5256978106772
 30
0.0
 11
53.38980018941186
 21
-654.9360680302962
 31
0.0
  0
LINE
  5
228
330
4B
100
AcDbEntity
  8
0
  6
Continuous
 62
     7
100
AcDbLine
 10
-68.31121867329455
 20
-670.2639420549531
 30
0.0
 11
-66.90084845367562
 21
-668.4471162945629
 31
0.0
  0
LINE
  5
229
330
4B
100
AcDbEntity
  8
0
  6
Continuous
 62
     7
100
AcDbLine
 10
-68.31121867329455
 20
-670.2639420549531
 30
0.0
 11
-59.0735181222484
 21
-677.4350082292585
 31
0.0
  0
LINE
  5
22A
330
4B
100
AcDbEntity
  8
0
  6
Continuous
 62
     7
100
AcDbLine
 10
-59.0735181222484
 20
-677.4350082292585
 30
0.0
 11
-50.11018428272325
 21
-684.3930883002067
 31
0.0
  0
LINE
  5
22B
330
4B
100
AcDbEntity
  8
0
  6
Continuous
 62
     7
100
AcDbLine
 10
68.3112186732975
 20
-773.4098909129934
 30
0.0
 11
59.07351812225136
 21
-766.238824738688
 31
0.0
  0
LINE
  5
22C
330
4B
100
AcDbEntity
  8
0
  6
Continuous
 62
     7
100
AcDbLine
 10
66.90084845368222
 20
-775.2267166733836
 30
0.0
 11
57.66314790263607
 21
-768.0556504990782
 31
0.0
  0
LINE
  5
22D
330
4B
100
AcDbEntity
  8
0
  6
Continuous
 62
     7
100
AcDbLine
 10
-66.90084845367562
 20
-668.4471162945629
 30
0.0
 11
-57.66314790262948
 21
-675.6181824688683
 31
0.0
  0
LINE
  5
22E
330
4B
100
AcDbEntity
  8
0
  6
Continuous
 62
     7
100
AcDbLine
 10
68.3112186732975
 20
-773.4098909129934
 30
0.0
 11
66.90084845368222
 21
-775.2267166733836
 31
0.0
  0
LINE
  5
22F
330
4B
100
AcDbEntity
  8
0
  6
Continuous
 62
     7
100
AcDbLine
 10
-51.57297442901506
 20
-790.1481351572693
 30
0.0
 11
-44.40190825471325
 21
-780.9104346062231
 31
0.0
  0
LINE
  5
230
330
4B
100
AcDbEntity
  8
0
  6
Continuous
 62
     7
100
AcDbLine
 10
-53.38980018940526
 20
-788.737764937654
 30
0.0
 11
-46.21873401510345
 21
-779.5000643866078
 31
0.0
  0
LINE
  5
231
330
4B
100
AcDbEntity
  8
0
  6
Continuous
 62
     7
100
AcDbLine
 10
53.38980018941186
 20
-654.9360680302962
 30
0.0
 11
46.21873401510641
 21
-664.1737685813423
 31
0.0
  0
LINE
  5
232
330
4B
100
AcDbEntity
  8
0
  6
Continuous
 62
     7
100
AcDbLine
 10
-51.57297442901506
 20
-790.1481351572693
 30
0.0
 11
-53.38980018940526
 21
-788.737764937654
 31
0.0
  0
LINE
  5
233
330
4B
100
AcDbEntity
  8
0
  6
Continuous
 62
     7
100
AcDbLine
 10
92.07448201764748
 20
-734.4931990786499
 30
0.0
 11
92.18197961887893
 21
-734.0645536749034
 31
0.0
  0
LINE
  5
234
330
4B
100
AcDbEntity
  8
0
  6
Continuous
 62
     7
100
AcDbLine
 10
89.39600485298399
 20
-735.9078135087766
 30
0.0
 11
89.72672451690198
 21
-733.626672678969
 31
0.0
  0
LINE
  5
235
330
4B
100
AcDbEntity
  8
0
  6
Continuous
 62
     7
100
AcDbLine
 10
89.80294711359932
 20
-735.9666005744439
 30
0.0
 11
89.39600485298399
 21
-735.9078135087766
 31
0.0
  0
LINE
  5
236
330
4B
100
AcDbEntity
  8
0
  6
Continuous
 62
     7
100
AcDbLine
 10
90.04791207367418
 20
-734.2745231046138
 30
0.0
 11
89.80294711359932
 21
-735.9666005744439
 31
0.0
  0
ARC
  5
237
330
4B
100
AcDbEntity
  8
1
  6
Continuous
 62
     7
100
AcDbCircle
 10
73.82489156075428
 20
-780.0252777432761
 30
0.0
 40
4.499999999997949
100
AcDbArc
 50
-66.37937020844888
 51
-53.6206297915424
  0
ARC
  5
238
330
4B
100
AcDbEntity
  8
1
  6
Continuous
 62
     7
100
AcDbCircle
 10
73.82489156075428
 20
-780.0252777432761
 30
0.0
 40
4.500000000001283
100
AcDbArc
 50
-156.3793702084674
 51
-143.6206297916072
  0
ARC
  5
239
330
4B
100
AcDbEntity
  8
1
  6
Continuous
 62
     7
100
AcDbCircle
 10
73.82489156075428
 20
-780.0252777432761
 30
0.0
 40
4.500000000001283
100
AcDbArc
 50
113.6206297915326
 51
126.3793702084301
  0
ARC
  5
23A
330
4B
100
AcDbEntity
  8
1
  6
Continuous
 62
     7
100
AcDbCircle
 10
73.82489156075428
 20
-780.0252777432761
 30
0.0
 40
4.499999999999407
100
AcDbArc
 50
23.62062979159357
 51
36.37937020845761
  0
ARC
  5
23B
330
4B
100
AcDbEntity
  8
1
  6
Continuous
 62
     7
100
AcDbCircle
 10
-13.48015327476276
 20
-814.8653286368644
 30
0.0
 40
4.500000000001688
100
AcDbArc
 50
-126.3793702084301
 51
-113.620629791575
  0
ARC
  5
23C
330
4B
100
AcDbEntity
  8
1
  6
Continuous
 62
     7
100
AcDbCircle
 10
-13.48015327476276
 20
-814.8653286368644
 30
0.0
 40
4.500000000001683
100
AcDbArc
 50
143.6206297915698
 51
156.3793702084674
  0
ARC
  5
23D
330
4B
100
AcDbEntity
  8
1
  6
Continuous
 62
     7
100
AcDbCircle
 10
-13.48015327476276
 20
-814.8653286368644
 30
0.0
 40
4.49999999999876
100
AcDbArc
 50
53.6206297915424
 51
66.37937020844889
  0
ARC
  5
23E
330
4B
100
AcDbEntity
  8
1
  6
Continuous
 62
     7
100
AcDbCircle
 10
-13.48015327476276
 20
-814.8653286368644
 30
0.0
 40
4.499999999998763
100
AcDbArc
 50
-36.37937020845758
 51
-23.62062979159355
  0
ARC
  5
23F
330
4B
100
AcDbEntity
  8
1
  6
Continuous
 62
     7
100
AcDbCircle
 10
-87.30504483551738
 20
-756.6769673775634
 30
0.0
 40
4.499999999998948
100
AcDbArc
 50
173.6206297915557
 51
-173.6206297915557
  0
ARC
  5
240
330
4B
100
AcDbEntity
  8
1
  6
Continuous
 62
     7
100
AcDbCircle
 10
-87.30504483551738
 20
-756.6769673775634
 30
0.0
 40
4.499999999998948
100
AcDbArc
 50
83.62062979155571
 51
96.3793702084443
  0
ARC
  5
241
330
4B
100
AcDbEntity
  8
1
  6
Continuous
 62
     7
100
AcDbCircle
 10
-87.30504483551738
 20
-756.6769673775634
 30
0.0
 40
4.500000000002563
100
AcDbArc
 50
-6.37937020843915
 51
6.37937020843915
  0
ARC
  5
242
330
4B
100
AcDbEntity
  8
1
  6
Continuous
 62
     7
100
AcDbCircle
 10
-87.30504483551738
 20
-756.6769673775634
 30
0.0
 40
4.500000000002563
100
AcDbArc
 50
-96.37937020843916
 51
-83.62062979156084
  0
ARC
  5
243
330
4B
100
AcDbEntity
  8
1
  6
Continuous
 62
     7
100
AcDbCircle
 10
-73.82489156075133
 20
-663.6485552246704
 30
0.0
 40
4.499999999999407
100
AcDbArc
 50
113.6206297915936
 51
126.3793702084576
  0
ARC
  5
244
330
4B
100
AcDbEntity
  8
1
  6
Continuous
 62
     7
100
AcDbCircle
 10
-73.82489156075133
 20
-663.6485552246704
 30
0.0
 40
4.499999999997949
100
AcDbArc
 50
23.62062979155112
 51
36.37937020845761
  0
ARC
  5
245
330
4B
100
AcDbEntity
  8
1
  6
Continuous
 62
     7
100
AcDbCircle
 10
-73.82489156075133
 20
-663.6485552246704
 30
0.0
 40
4.500000000001283
100
AcDbArc
 50
-66.37937020846744
 51
-53.62062979156987
  0
ARC
  5
246
330
4B
100
AcDbEntity
  8
1
  6
Continuous
 62
     7
100
AcDbCircle
 10
-73.82489156075133
 20
-663.6485552246704
 30
0.0
 40
4.500000000001283
100
AcDbArc
 50
-156.3793702084674
 51
-143.6206297915699
  0
ARC
  5
247
330
4B
100
AcDbEntity
  8
1
  6
Continuous
 62
     7
100
AcDbCircle
 10
13.48015327476571
 20
-628.8085043310784
 30
0.0
 40
4.500000000001689
100
AcDbArc
 50
53.62062979156985
 51
66.37937020846745
  0
ARC
  5
248
330
4B
100
AcDbEntity
  8
1
  6
Continuous
 62
     7
100
AcDbCircle
 10
13.48015327476571
 20
-628.8085043310784
 30
0.0
 40
4.499999999996604
100
AcDbArc
 50
-36.3793702084203
 51
-23.62062979155112
  0
ARC
  5
249
330
4B
100
AcDbEntity
  8
1
  6
Continuous
 62
     7
100
AcDbCircle
 10
13.48015327476571
 20
-628.8085043310784
 30
0.0
 40
4.49999999999876
100
AcDbArc
 50
-126.3793702084576
 51
-113.6206297915936
  0
ARC
  5
24A
330
4B
100
AcDbEntity
  8
1
  6
Continuous
 62
     7
100
AcDbCircle
 10
13.48015327476571
 20
-628.8085043310784
 30
0.0
 40
4.500000000001688
100
AcDbArc
 50
143.6206297915699
 51
156.379370208425
  0
ARC
  5
24B
330
4B
100
AcDbEntity
  8
1
  6
Continuous
 62
     7
100
AcDbCircle
 10
87.3050448355167
 20
-686.9968655903758
 30
0.0
 40
4.499999999998948
100
AcDbArc
 50
83.62062979155571
 51
96.3793702084443
  0
ARC
  5
24C
330
4B
100
AcDbEntity
  8
1
  6
Continuous
 62
     7
100
AcDbCircle
 10
87.3050448355167
 20
-686.9968655903758
 30
0.0
 40
4.499999999998948
100
AcDbArc
 50
173.6206297915557
 51
-173.6206297915557
  0
ARC
  5
24D
330
4B
100
AcDbEntity
  8
1
  6
Continuous
 62
     7
100
AcDbCircle
 10
87.3050448355167
 20
-686.9968655903758
 30
0.0
 40
4.499999999998948
100
AcDbArc
 50
-96.3793702084443
 51
-83.62062979155571
  0
ARC
  5
24E
330
4B
100
AcDbEntity
  8
1
  6
Continuous
 62
     7
100
AcDbCircle
 10
87.3050448355167
 20
-686.9968655903758
 30
0.0
 40
4.500000000002563
100
AcDbArc
 50
-6.37937020843915
 51
6.37937020843915
  0
ARC
  5
24F
330
4B
100
AcDbEntity
  8
0
  6
Continuous
 62
     7
100
AcDbCircle
 10
0.0000000000033
 20
-721.8369164839751
 30
0.0
 40
70.50000000000107
100
AcDbArc
 50
143.1130859681924
 51
156.2437790509309
  0
ARC
  5
250
330
4B
100
AcDbEntity
  8
0
  6
Continuous
 62
     7
100
AcDbCircle
 10
0.0000000000033
 20
-721.8369164839751
 30
0.0
 40
73.9000000000018
100
AcDbArc
 50
143.0700807650843
 51
151.3664650696025
  0
ARC
  5
251
330
4B
100
AcDbEntity
  8
0
  6
Continuous
 62
     7
100
AcDbCircle
 10
0.0000000000033
 20
-721.8369164839751
 30
0.0
 40
73.9000000000019
100
AcDbArc
 50
151.3664650696025
 51
156.2867842540391
  0
ARC
  5
252
330
4B
100
AcDbEntity
  8
0
  6
Continuous
 62
     7
100
AcDbCircle
 10
0.0000000000033
 20
-721.8369164839751
 30
0.0
 40
73.90000000000055
100
AcDbArc
 50
158.0700807650826
 51
171.2867842540396
  0
ARC
  5
253
330
4B
100
AcDbEntity
  8
0
  6
Continuous
 62
     7
100
AcDbCircle
 10
0.0000000000033
 20
-721.8369164839751
 30
0.0
 40
70.49999999999979
100
AcDbArc
 50
158.1130859681896
 51
171.2437790509339
  0
ARC
  5
254
330
4B
100
AcDbEntity
  8
0
  6
Continuous
 62
     7
100
AcDbCircle
 10
0.0000000000033
 20
-721.8369164839751
 30
0.0
 40
73.9000000000007
100
AcDbArc
 50
42.99031006067008
 51
51.28678425404065
  0
ARC
  5
255
330
4B
100
AcDbEntity
  8
0
  6
Continuous
 62
     7
100
AcDbCircle
 10
0.0000000000033
 20
-721.8369164839751
 30
0.0
 40
45.10463792494739
100
AcDbArc
 50
8.63941945716291
 51
20.71744556196385
  0
ARC
  5
256
330
4B
100
AcDbEntity
  8
0
  6
Continuous
 62
     7
100
AcDbCircle
 10
0.0000000000033
 20
-721.8369164839751
 30
0.0
 40
45.10463792494983
100
AcDbArc
 50
68.63941945716371
 51
80.71744556196464
  0
ARC
  5
257
330
4B
100
AcDbEntity
  8
0
  6
Continuous
 62
     7
100
AcDbCircle
 10
0.0000000000033
 20
-721.8369164839751
 30
0.0
 40
45.1046379249496
100
AcDbArc
 50
53.63941945716279
 51
65.71744556196236
  0
ARC
  5
258
330
4B
100
AcDbEntity
  8
0
  6
Continuous
 62
     7
100
AcDbCircle
 10
0.0000000000033
 20
-721.8369164839751
 30
0.0
 40
45.1046379249474
100
AcDbArc
 50
98.6394194571629
 51
110.7174455619639
  0
ARC
  5
259
330
4B
100
AcDbEntity
  8
0
  6
Continuous
 62
     7
100
AcDbCircle
 10
0.0000000000033
 20
-721.8369164839751
 30
0.0
 40
45.10463792494824
100
AcDbArc
 50
83.63941945716283
 51
95.71744556196211
  0
ARC
  5
25A
330
4B
100
AcDbEntity
  8
0
  6
Continuous
 62
     7
100
AcDbCircle
 10
0.0000000000033
 20
-721.8369164839751
 30
0.0
 40
70.50000000000045
100
AcDbArc
 50
-21.8869140318038
 51
-8.75622094906608
  0
ARC
  5
25B
330
4B
100
AcDbEntity
  8
0
  6
Continuous
 62
     7
100
AcDbCircle
 10
0.0000000000033
 20
-721.8369164839751
 30
0.0
 40
73.8999999999992
100
AcDbArc
 50
-21.92991923491481
 51
-8.7132157459608
  0
ARC
  5
25C
330
4B
100
AcDbEntity
  8
0
  6
Continuous
 62
     7
100
AcDbCircle
 10
0.0000000000033
 20
-721.8369164839751
 30
0.0
 40
70.49999999999888
100
AcDbArc
 50
-36.88691403180528
 51
-23.7562209490664
  0
ARC
  5
25D
330
4B
100
AcDbEntity
  8
0
  6
Continuous
 62
     7
100
AcDbCircle
 10
0.0000000000033
 20
-721.8369164839751
 30
0.0
 40
73.89999999999696
100
AcDbArc
 50
-28.63353493039634
 51
-23.7132157459609
  0
ARC
  5
25E
330
4B
100
AcDbEntity
  8
0
  6
Continuous
 62
     7
100
AcDbCircle
 10
0.0000000000033
 20
-721.8369164839751
 30
0.0
 40
45.10463792494667
100
AcDbArc
 50
-36.36058054283995
 51
-24.28255443803764
  0
ARC
  5
25F
330
4B
100
AcDbEntity
  8
0
  6
Continuous
 62
     7
100
AcDbCircle
 10
0.0000000000033
 20
-721.8369164839751
 30
0.0
 40
45.10463792494462
100
AcDbArc
 50
-6.36058054283768
 51
5.71744556196209
  0
ARC
  5
260
330
4B
100
AcDbEntity
  8
0
  6
Continuous
 62
     7
100
AcDbCircle
 10
0.0000000000033
 20
-721.8369164839751
 30
0.0
 40
45.10463792494645
100
AcDbArc
 50
-21.36058054283797
 51
-9.28255443803536
  0
ARC
  5
261
330
4B
100
AcDbEntity
  8
0
  6
Continuous
 62
     7
100
AcDbCircle
 10
0.0000000000033
 20
-721.8369164839751
 30
0.0
 40
45.10463792494888
100
AcDbArc
 50
113.6394194571613
 51
125.7174455619614
  0
ARC
  5
262
330
4B
100
AcDbEntity
  8
0
  6
Continuous
 62
     7
100
AcDbCircle
 10
0.0000000000033
 20
-721.8369164839751
 30
0.0
 40
45.10463792494917
100
AcDbArc
 50
128.6394194571606
 51
140.7174455619635
  0
ARC
  5
263
330
4B
100
AcDbEntity
  8
0
  6
Continuous
 62
     7
100
AcDbCircle
 10
0.0000000000033
 20
-721.8369164839751
 30
0.0
 40
73.90000000000337
100
AcDbArc
 50
132.9903100606682
 51
141.2867842540385
  0
ARC
  5
264
330
4B
100
AcDbEntity
  8
0
  6
Continuous
 62
     7
100
AcDbCircle
 10
0.0000000000033
 20
-721.8369164839751
 30
0.0
 40
70.50000000000266
100
AcDbArc
 50
128.1130859681925
 51
141.2437790509311
  0
ARC
  5
265
330
4B
100
AcDbEntity
  8
0
  6
Continuous
 62
     7
100
AcDbCircle
 10
0.0000000000033
 20
-721.8369164839751
 30
0.0
 40
73.90000000000319
100
AcDbArc
 50
98.0700807650839
 51
111.2867842540399
  0
ARC
  5
266
330
4B
100
AcDbEntity
  8
0
  6
Continuous
 62
     7
100
AcDbCircle
 10
0.0000000000033
 20
-721.8369164839751
 30
0.0
 40
70.50000000000124
100
AcDbArc
 50
98.1130859681924
 51
111.2437790509304
  0
ARC
  5
267
330
4B
100
AcDbEntity
  8
0
  6
Continuous
 62
     7
100
AcDbCircle
 10
0.0000000000033
 20
-721.8369164839751
 30
0.0
 40
73.90000000000326
100
AcDbArc
 50
128.0700807650833
 51
132.9903100606682
  0
ARC
  5
268
330
4B
100
AcDbEntity
  8
0
  6
Continuous
 62
     7
100
AcDbCircle
 10
0.0000000000033
 20
-721.8369164839751
 30
0.0
 40
73.90000000000137
100
AcDbArc
 50
113.0700807650847
 51
126.2867842540375
  0
ARC
  5
269
330
4B
100
AcDbEntity
  8
0
  6
Continuous
 62
     7
100
AcDbCircle
 10
0.0000000000033
 20
-721.8369164839751
 30
0.0
 40
70.50000000000225
100
AcDbArc
 50
113.1130859681931
 51
126.2437790509314
  0
ARC
  5
26A
330
4B
100
AcDbEntity
  8
0
  6
Continuous
 62
     7
100
AcDbCircle
 10
0.0000000000033
 20
-721.8369164839751
 30
0.0
 40
73.90000000000136
100
AcDbArc
 50
23.07008076508469
 51
36.28678425404142
  0
ARC
  5
26B
330
4B
100
AcDbEntity
  8
0
  6
Continuous
 62
     7
100
AcDbCircle
 10
0.0000000000033
 20
-721.8369164839751
 30
0.0
 40
70.50000000000081
100
AcDbArc
 50
23.11308596819041
 51
36.24377905093552
  0
ARC
  5
26C
330
4B
100
AcDbEntity
  8
0
  6
Continuous
 62
     7
100
AcDbCircle
 10
0.0000000000033
 20
-721.8369164839751
 30
0.0
 40
73.90000000000039
100
AcDbArc
 50
38.070080765085
 51
42.99031006067008
  0
ARC
  5
26D
330
4B
100
AcDbEntity
  8
0
  6
Continuous
 62
     7
100
AcDbCircle
 10
0.0000000000033
 20
-721.8369164839751
 30
0.0
 40
45.10463792494633
100
AcDbArc
 50
38.63941945716351
 51
50.71744556196351
  0
ARC
  5
26E
330
4B
100
AcDbEntity
  8
0
  6
Continuous
 62
     7
100
AcDbCircle
 10
0.0000000000033
 20
-721.8369164839751
 30
0.0
 40
45.10463792494555
100
AcDbArc
 50
23.63941945716316
 51
35.71744556196788
  0
ARC
  5
26F
330
4B
100
AcDbEntity
  8
0
  6
Continuous
 62
     7
100
AcDbCircle
 10
0.0000000000033
 20
-721.8369164839751
 30
0.0
 40
73.8999999999996
100
AcDbArc
 50
8.07008076508429
 51
21.28678425403994
  0
ARC
  5
270
330
4B
100
AcDbEntity
  8
0
  6
Continuous
 62
     7
100
AcDbCircle
 10
0.0000000000033
 20
-721.8369164839751
 30
0.0
 40
70.50000000000072
100
AcDbArc
 50
8.11308596818947
 51
21.24377905093311
  0
ARC
  5
271
330
4B
100
AcDbEntity
  8
0
  6
Continuous
 62
     7
100
AcDbCircle
 10
0.0000000000033
 20
-721.8369164839751
 30
0.0
 40
70.49999999999844
100
AcDbArc
 50
-6.88691403180551
 51
6.2437790509332
  0
ARC
  5
272
330
4B
100
AcDbEntity
  8
0
  6
Continuous
 62
     7
100
AcDbCircle
 10
0.0000000000033
 20
-721.8369164839751
 30
0.0
 40
70.50000000000266
100
AcDbArc
 50
38.11308596819251
 51
51.24377905093297
  0
ARC
  5
273
330
4B
100
AcDbEntity
  8
0
  6
Continuous
 62
     7
100
AcDbCircle
 10
0.0000000000033
 20
-721.8369164839751
 30
0.0
 40
73.9000000000018
100
AcDbArc
 50
53.07008076508433
 51
61.36646506960254
  0
ARC
  5
274
330
4B
100
AcDbEntity
  8
0
  6
Continuous
 62
     7
100
AcDbCircle
 10
0.0000000000033
 20
-721.8369164839751
 30
0.0
 40
70.50000000000107
100
AcDbArc
 50
53.11308596819234
 51
66.24377905093209
  0
ARC
  5
275
330
4B
100
AcDbEntity
  8
0
  6
Continuous
 62
     7
100
AcDbCircle
 10
0.0000000000033
 20
-721.8369164839751
 30
0.0
 40
70.50000000000247
100
AcDbArc
 50
83.11308596819191
 51
96.24377905093321
  0
ARC
  5
276
330
4B
100
AcDbEntity
  8
0
  6
Continuous
 62
     7
100
AcDbCircle
 10
0.0000000000033
 20
-721.8369164839751
 30
0.0
 40
73.89999999999918
100
AcDbArc
 50
68.0700807650852
 51
81.28678425403963
  0
ARC
  5
277
330
4B
100
AcDbEntity
  8
0
  6
Continuous
 62
     7
100
AcDbCircle
 10
0.0000000000033
 20
-721.8369164839751
 30
0.0
 40
70.50000000000182
100
AcDbArc
 50
68.11308596819346
 51
81.24377905093145
  0
ARC
  5
278
330
4B
100
AcDbEntity
  8
0
  6
Continuous
 62
     7
100
AcDbCircle
 10
0.0000000000033
 20
-721.8369164839751
 30
0.0
 40
73.9000000000019
100
AcDbArc
 50
61.36646506960254
 51
66.2867842540391
  0
ARC
  5
279
330
4B
100
AcDbEntity
  8
0
  6
Continuous
 62
     7
100
AcDbCircle
 10
0.0000000000033
 20
-721.8369164839751
 30
0.0
 40
73.90000000000198
100
AcDbArc
 50
83.07008076508481
 51
96.2867842540403
  0
ARC
  5
27A
330
4B
100
AcDbEntity
  8
0
  6
Continuous
 62
     7
100
AcDbCircle
 10
0.0000000000033
 20
-721.8369164839751
 30
0.0
 40
73.89999999999823
100
AcDbArc
 50
-47.00968993933198
 51
-38.71321574595935
  0
ARC
  5
27B
330
4B
100
AcDbEntity
  8
0
  6
Continuous
 62
     7
100
AcDbCircle
 10
0.0000000000033
 20
-721.8369164839751
 30
0.0
 40
73.89999999999888
100
AcDbArc
 50
-126.9299192349174
 51
-118.6335349303988
  0
ARC
  5
27C
330
4B
100
AcDbEntity
  8
0
  6
Continuous
 62
     7
100
AcDbCircle
 10
0.0000000000033
 20
-721.8369164839751
 30
0.0
 40
73.89999999999871
100
AcDbArc
 50
-118.6335349303988
 51
-113.713215745962
  0
ARC
  5
27D
330
4B
100
AcDbEntity
  8
0
  6
Continuous
 62
     7
100
AcDbCircle
 10
0.0000000000033
 20
-721.8369164839751
 30
0.0
 40
70.49999999999815
100
AcDbArc
 50
-126.8869140318094
 51
-113.7562209490691
  0
ARC
  5
27E
330
4B
100
AcDbEntity
  8
0
  6
Continuous
 62
     7
100
AcDbCircle
 10
0.0000000000033
 20
-721.8369164839751
 30
0.0
 40
70.49999999999756
100
AcDbArc
 50
-141.886914031808
 51
-128.7562209490689
  0
ARC
  5
27F
330
4B
100
AcDbEntity
  8
0
  6
Continuous
 62
     7
100
AcDbCircle
 10
0.0000000000033
 20
-721.8369164839751
 30
0.0
 40
73.89999999999823
100
AcDbArc
 50
-137.009689939332
 51
-128.7132157459615
  0
ARC
  5
280
330
4B
100
AcDbEntity
  8
0
  6
Continuous
 62
     7
100
AcDbCircle
 10
0.0000000000033
 20
-721.8369164839751
 30
0.0
 40
70.50000000000081
100
AcDbArc
 50
-156.8869140318096
 51
-143.7562209490669
  0
ARC
  5
281
330
4B
100
AcDbEntity
  8
0
  6
Continuous
 62
     7
100
AcDbCircle
 10
0.0000000000033
 20
-721.8369164839751
 30
0.0
 40
70.49999999999844
100
AcDbArc
 50
-111.8869140318077
 51
-98.756220949069
  0
ARC
  5
282
330
4B
100
AcDbEntity
  8
0
  6
Continuous
 62
     7
100
AcDbCircle
 10
0.0000000000033
 20
-721.8369164839751
 30
0.0
 40
73.89999999999814
100
AcDbArc
 50
-141.9299192349172
 51
-137.009689939332
  0
ARC
  5
283
330
4B
100
AcDbEntity
  8
0
  6
Continuous
 62
     7
100
AcDbCircle
 10
0.0000000000033
 20
-721.8369164839751
 30
0.0
 40
45.10463792494686
100
AcDbArc
 50
-81.36058054284167
 51
-69.28255443803616
  0
ARC
  5
284
330
4B
100
AcDbEntity
  8
0
  6
Continuous
 62
     7
100
AcDbCircle
 10
0.0000000000033
 20
-721.8369164839751
 30
0.0
 40
45.10463792494743
100
AcDbArc
 50
-156.3605805428429
 51
-144.2825544380386
  0
ARC
  5
285
330
4B
100
AcDbEntity
  8
0
  6
Continuous
 62
     7
100
AcDbCircle
 10
0.0000000000033
 20
-721.8369164839751
 30
0.0
 40
45.10463792494502
100
AcDbArc
 50
-96.36058054284229
 51
-84.2825544380379
  0
ARC
  5
286
330
4B
100
AcDbEntity
  8
0
  6
Continuous
 62
     7
100
AcDbCircle
 10
0.0000000000033
 20
-721.8369164839751
 30
0.0
 40
70.49999999999712
100
AcDbArc
 50
-81.88691403181012
 51
-68.75622094906964
  0
ARC
  5
287
330
4B
100
AcDbEntity
  8
0
  6
Continuous
 62
     7
100
AcDbCircle
 10
0.0000000000033
 20
-721.8369164839751
 30
0.0
 40
45.10463792494667
100
AcDbArc
 50
-126.36058054284
 51
-114.2825544380376
  0
ARC
  5
288
330
4B
100
AcDbEntity
  8
0
  6
Continuous
 62
     7
100
AcDbCircle
 10
0.0000000000033
 20
-721.8369164839751
 30
0.0
 40
45.1046379249469
100
AcDbArc
 50
-141.360580542843
 51
-129.2825544380394
  0
ARC
  5
289
330
4B
100
AcDbEntity
  8
0
  6
Continuous
 62
     7
100
AcDbCircle
 10
0.0000000000033
 20
-721.8369164839751
 30
0.0
 40
73.89999999999671
100
AcDbArc
 50
-36.92991923491511
 51
-28.63353493039634
  0
ARC
  5
28A
330
4B
100
AcDbEntity
  8
0
  6
Continuous
 62
     7
100
AcDbCircle
 10
0.0000000000033
 20
-721.8369164839751
 30
0.0
 40
73.89999999999814
100
AcDbArc
 50
-51.92991923491722
 51
-47.00968993933198
  0
ARC
  5
28B
330
4B
100
AcDbEntity
  8
0
  6
Continuous
 62
     7
100
AcDbCircle
 10
0.0000000000033
 20
-721.8369164839751
 30
0.0
 40
70.49999999999756
100
AcDbArc
 50
-51.88691403180798
 51
-38.75622094906658
  0
ARC
  5
28C
330
4B
100
AcDbEntity
  8
0
  6
Continuous
 62
     7
100
AcDbCircle
 10
0.0000000000033
 20
-721.8369164839751
 30
0.0
 40
45.10463792494633
100
AcDbArc
 50
-51.36058054283649
 51
-39.2825544380365
  0
ARC
  5
28D
330
4B
100
AcDbEntity
  8
0
  6
Continuous
 62
     7
100
AcDbCircle
 10
0.0000000000033
 20
-721.8369164839751
 30
0.0
 40
45.10463792494555
100
AcDbArc
 50
-66.36058054283684
 51
-54.28255443803588
  0
ARC
  5
28E
330
4B
100
AcDbEntity
  8
0
  6
Continuous
 62
     7
100
AcDbCircle
 10
0.0000000000033
 20
-721.8369164839751
 30
0.0
 40
45.1046379249496
100
AcDbArc
 50
143.6394194571628
 51
155.7174455619624
  0
ARC
  5
28F
330
4B
100
AcDbEntity
  8
0
  6
Continuous
 62
     7
100
AcDbCircle
 10
0.0000000000033
 20
-721.8369164839751
 30
0.0
 40
45.10463792494777
100
AcDbArc
 50
158.6394194571577
 51
170.7174455619601
  0
ARC
  5
290
330
4B
100
AcDbEntity
  8
0
  6
Continuous
 62
     7
100
AcDbCircle
 10
0.0000000000033
 20
-721.8369164839751
 30
0.0
 40
73.8999999999996
100
AcDbArc
 50
-81.92991923491572
 51
-68.71321574596007
  0
ARC
  5
291
330
4B
100
AcDbEntity
  8
0
  6
Continuous
 62
     7
100
AcDbCircle
 10
0.0000000000033
 20
-721.8369164839751
 30
0.0
 40
45.10463792494777
100
AcDbArc
 50
-111.3605805428423
 51
-99.28255443804066
  0
ARC
  5
292
330
4B
100
AcDbEntity
  8
0
  6
Continuous
 62
     7
100
AcDbCircle
 10
0.0000000000033
 20
-721.8369164839751
 30
0.0
 40
70.49999999999844
100
AcDbArc
 50
-96.88691403180552
 51
-83.75622094906649
  0
ARC
  5
293
330
4B
100
AcDbEntity
  8
0
  6
Continuous
 62
     7
100
AcDbCircle
 10
0.0000000000033
 20
-721.8369164839751
 30
0.0
 40
73.89999999999802
100
AcDbArc
 50
-66.92991923491421
 51
-53.71321574596085
  0
ARC
  5
294
330
4B
100
AcDbEntity
  8
0
  6
Continuous
 62
     7
100
AcDbCircle
 10
0.0000000000033
 20
-721.8369164839751
 30
0.0
 40
70.49999999999747
100
AcDbArc
 50
-66.88691403180843
 51
-53.75622094906687
  0
ARC
  5
295
330
4B
100
AcDbEntity
  8
0
  6
Continuous
 62
     7
100
AcDbCircle
 10
0.0000000000033
 20
-721.8369164839751
 30
0.0
 40
45.10463792494686
100
AcDbArc
 50
-171.3605805428417
 51
-159.2825544380362
  0
ARC
  5
296
330
4B
100
AcDbEntity
  8
0
  6
Continuous
 62
     7
100
AcDbCircle
 10
0.0000000000033
 20
-721.8369164839751
 30
0.0
 40
70.49999999999844
100
AcDbArc
 50
173.1130859681945
 51
-173.7562209490698
  0
ARC
  5
297
330
4B
100
AcDbEntity
  8
0
  6
Continuous
 62
     7
100
AcDbCircle
 10
0.0000000000033
 20
-721.8369164839751
 30
0.0
 40
58.1314831978072
100
AcDbArc
 50
53.31197394583186
 51
66.04489107329519
  0
ARC
  5
298
330
4B
100
AcDbEntity
  8
0
  6
Continuous
 62
     7
100
AcDbCircle
 10
0.0000000000033
 20
-721.8369164839751
 30
0.0
 40
56.19999999999873
100
AcDbArc
 50
53.35093687884108
 51
66.00592814028717
  0
ARC
  5
299
330
4B
100
AcDbEntity
  8
0
  6
Continuous
 62
     7
100
AcDbCircle
 10
0.0000000000033
 20
-721.8369164839751
 30
0.0
 40
56.20000000000257
100
AcDbArc
 50
83.35093687883969
 51
96.00592814028597
  0
ARC
  5
29A
330
4B
100
AcDbEntity
  8
0
  6
Continuous
 62
     7
100
AcDbCircle
 10
0.0000000000033
 20
-721.8369164839751
 30
0.0
 40
58.13148319780569
100
AcDbArc
 50
83.3119739458328
 51
96.04489107329404
  0
ARC
  5
29B
330
4B
100
AcDbEntity
  8
0
  6
Continuous
 62
     7
100
AcDbCircle
 10
0.0000000000033
 20
-721.8369164839751
 30
0.0
 40
56.20000000000116
100
AcDbArc
 50
68.3509368788411
 51
81.00592814028353
  0
ARC
  5
29C
330
4B
100
AcDbEntity
  8
0
  6
Continuous
 62
     7
100
AcDbCircle
 10
0.0000000000033
 20
-721.8369164839751
 30
0.0
 40
58.13148319780497
100
AcDbArc
 50
68.31197394583052
 51
81.04489107329529
  0
ARC
  5
29D
330
4B
100
AcDbEntity
  8
0
  6
Continuous
 62
     7
100
AcDbCircle
 10
0.0000000000033
 20
-721.8369164839751
 30
0.0
 40
43.50000000000116
100
AcDbArc
 50
53.69332501522609
 51
65.66354000389929
  0
ARC
  5
29E
330
4B
100
AcDbEntity
  8
0
  6
Continuous
 62
     7
100
AcDbCircle
 10
0.0000000000033
 20
-721.8369164839751
 30
0.0
 40
56.20000000000039
100
AcDbArc
 50
23.35093687884036
 51
36.00592814028388
  0
ARC
  5
29F
330
4B
100
AcDbEntity
  8
0
  6
Continuous
 62
     7
100
AcDbCircle
 10
0.0000000000033
 20
-721.8369164839751
 30
0.0
 40
58.1314831978056
100
AcDbArc
 50
23.31197394583103
 51
36.04489107329388
  0
ARC
  5
2A0
330
4B
100
AcDbEntity
  8
0
  6
Continuous
 62
     7
100
AcDbCircle
 10
0.0000000000033
 20
-721.8369164839751
 30
0.0
 40
56.19999999999778
100
AcDbArc
 50
-21.64906312116028
 51
-8.99407185971338
  0
ARC
  5
2A1
330
4B
100
AcDbEntity
  8
0
  6
Continuous
 62
     7
100
AcDbCircle
 10
0.0000000000033
 20
-721.8369164839751
 30
0.0
 40
58.13148319780497
100
AcDbArc
 50
-21.68802605416948
 51
-8.95510892670527
  0
ARC
  5
2A2
330
4B
100
AcDbEntity
  8
0
  6
Continuous
 62
     7
100
AcDbCircle
 10
0.0000000000033
 20
-721.8369164839751
 30
0.0
 40
56.19999999999659
100
AcDbArc
 50
-51.64906312115968
 51
-38.99407185971618
  0
ARC
  5
2A3
330
4B
100
AcDbEntity
  8
0
  6
Continuous
 62
     7
100
AcDbCircle
 10
0.0000000000033
 20
-721.8369164839751
 30
0.0
 40
56.19999999999873
100
AcDbArc
 50
-36.64906312115892
 51
-23.99407185971435
  0
ARC
  5
2A4
330
4B
100
AcDbEntity
  8
0
  6
Continuous
 62
     7
100
AcDbCircle
 10
0.0000000000033
 20
-721.8369164839751
 30
0.0
 40
56.20000000000039
100
AcDbArc
 50
-66.64906312115964
 51
-53.99407185971394
  0
ARC
  5
2A5
330
4B
100
AcDbEntity
  8
0
  6
Continuous
 62
     7
100
AcDbCircle
 10
0.0000000000033
 20
-721.8369164839751
 30
0.0
 40
58.13148319780227
100
AcDbArc
 50
-66.68802605416757
 51
-53.95510892670612
  0
ARC
  5
2A6
330
4B
100
AcDbEntity
  8
0
  6
Continuous
 62
     7
100
AcDbCircle
 10
0.0000000000033
 20
-721.8369164839751
 30
0.0
 40
58.13148319780212
100
AcDbArc
 50
-36.68802605416741
 51
-23.95510892670628
  0
ARC
  5
2A7
330
4B
100
AcDbEntity
  8
0
  6
Continuous
 62
     7
100
AcDbCircle
 10
0.0000000000033
 20
-721.8369164839751
 30
0.0
 40
58.13148319780154
100
AcDbArc
 50
-51.6880260541684
 51
-38.95510892670372
  0
ARC
  5
2A8
330
4B
100
AcDbEntity
  8
0
  6
Continuous
 62
     7
100
AcDbCircle
 10
0.0000000000033
 20
-721.8369164839751
 30
0.0
 40
58.13148319780728
100
AcDbArc
 50
-171.6880260541701
 51
-158.9551089267059
  0
ARC
  5
2A9
330
4B
100
AcDbEntity
  8
0
  6
Continuous
 62
     7
100
AcDbCircle
 10
0.0000000000033
 20
-721.8369164839751
 30
0.0
 40
56.20000000000076
100
AcDbArc
 50
-171.6490631211632
 51
-158.9940718597167
  0
ARC
  5
2AA
330
4B
100
AcDbEntity
  8
0
  6
Continuous
 62
     7
100
AcDbCircle
 10
0.0000000000033
 20
-721.8369164839751
 30
0.0
 40
40.99999999999964
100
AcDbArc
 50
-126.2142799496886
 51
-84.42885503119138
  0
ARC
  5
2AB
330
4B
100
AcDbEntity
  8
0
  6
Continuous
 62
     7
100
AcDbCircle
 10
0.0000000000033
 20
-721.8369164839751
 30
0.0
 40
43.50000000000053
100
AcDbArc
 50
-111.3066749847746
 51
-99.33645999610346
  0
ARC
  5
2AC
330
4B
100
AcDbEntity
  8
0
  6
Continuous
 62
     7
100
AcDbCircle
 10
0.0000000000033
 20
-721.8369164839751
 30
0.0
 40
56.19999999999895
100
AcDbArc
 50
-96.64906312116075
 51
-83.99407185971734
  0
ARC
  5
2AD
330
4B
100
AcDbEntity
  8
0
  6
Continuous
 62
     7
100
AcDbCircle
 10
0.0000000000033
 20
-721.8369164839751
 30
0.0
 40
58.1314831978025
100
AcDbArc
 50
-96.68802605417117
 51
-83.95510892670559
  0
ARC
  5
2AE
330
4B
100
AcDbEntity
  8
0
  6
Continuous
 62
     7
100
AcDbCircle
 10
0.0000000000033
 20
-721.8369164839751
 30
0.0
 40
43.499999999997
100
AcDbArc
 50
-81.30667498477618
 51
-69.33645999610373
  0
ARC
  5
2AF
330
4B
100
AcDbEntity
  8
0
  6
Continuous
 62
     7
100
AcDbCircle
 10
0.0000000000033
 20
-721.8369164839751
 30
0.0
 40
43.50000000000006
100
AcDbArc
 50
-96.30667498477433
 51
-84.3364599961034
  0
ARC
  5
2B0
330
4B
100
AcDbEntity
  8
0
  6
Continuous
 62
     7
100
AcDbCircle
 10
0.0000000000033
 20
-721.8369164839751
 30
0.0
 40
56.19999999999769
100
AcDbArc
 50
-81.64906312115893
 51
-68.99407185971532
  0
ARC
  5
2B1
330
4B
100
AcDbEntity
  8
0
  6
Continuous
 62
     7
100
AcDbCircle
 10
0.0000000000033
 20
-721.8369164839751
 30
0.0
 40
58.13148319780368
100
AcDbArc
 50
-81.68802605416957
 51
-68.95510892670595
  0
ARC
  5
2B2
330
4B
100
AcDbEntity
  8
0
  6
Continuous
 62
     7
100
AcDbCircle
 10
6.37347286085753
 20
-728.3036655661563
 30
0.0
 40
0.9999999999985936
100
AcDbArc
 50
142.178432509584
 51
-127.8215674902881
  0
ARC
  5
2B3
330
4B
100
AcDbEntity
  8
0
  6
Continuous
 62
     7
100
AcDbCircle
 10
-0.00000056042734
 20
-721.8369168033569
 30
0.0
 40
40.99999976996521
100
AcDbArc
 50
-81.21427910752679
 51
-39.42885420707079
  0
ARC
  5
2B4
330
4B
100
AcDbEntity
  8
0
  6
Continuous
 62
     7
100
AcDbCircle
 10
25.33165470840652
 20
-743.0205722056417
 30
0.0
 40
0.9999999999985966
100
AcDbArc
 50
-127.8215674904161
 51
-37.82156749041619
  0
ARC
  5
2B5
330
4B
100
AcDbEntity
  8
0
  6
Continuous
 62
     7
100
AcDbCircle
 10
0.0000000000033
 20
-721.8369164839751
 30
0.0
 40
43.49999999999756
100
AcDbArc
 50
-66.30667498477345
 51
-54.33645999610296
  0
ARC
  5
2B6
330
4B
100
AcDbEntity
  8
0
  6
Continuous
 62
     7
100
AcDbCircle
 10
0.0000000000033
 20
-721.8369164839751
 30
0.0
 40
56.19999999999894
100
AcDbArc
 50
-6.64906312116075
 51
6.00592814028635
  0
ARC
  5
2B7
330
4B
100
AcDbEntity
  8
0
  6
Continuous
 62
     7
100
AcDbCircle
 10
0.0000000000033
 20
-721.8369164839751
 30
0.0
 40
58.13148319780207
100
AcDbArc
 50
-6.68802605416762
 51
6.04489107329441
  0
ARC
  5
2B8
330
4B
100
AcDbEntity
  8
0
  6
Continuous
 62
     7
100
AcDbCircle
 10
0.00000156872159
 20
-721.8369149327627
 30
0.0
 40
43.49999976996588
100
AcDbArc
 50
-51.30667785873824
 51
-39.33646288609098
  0
ARC
  5
2B9
330
4B
100
AcDbEntity
  8
0
  6
Continuous
 62
     7
100
AcDbCircle
 10
0.0000000000033
 20
-721.8369164839751
 30
0.0
 40
43.499999999999
100
AcDbArc
 50
-36.30667498477005
 51
-24.33645999610269
  0
ARC
  5
2BA
330
4B
100
AcDbEntity
  8
0
  6
Continuous
 62
     7
100
AcDbCircle
 10
26.80334537235433
 20
-741.124754020886
 30
0.0
 40
1.000000000003696
100
AcDbArc
 50
-37.82156749045289
 51
52.17843250941925
  0
ARC
  5
2BB
330
4B
100
AcDbEntity
  8
0
  6
Continuous
 62
     7
100
AcDbCircle
 10
0.0000000000033
 20
-721.8369164839751
 30
0.0
 40
43.49999999999824
100
AcDbArc
 50
-126.3066749847768
 51
-114.3364599961027
  0
ARC
  5
2BC
330
4B
100
AcDbEntity
  8
0
  6
Continuous
 62
     7
100
AcDbCircle
 10
0.0000000000033
 20
-721.8369164839751
 30
0.0
 40
43.5000000000021
100
AcDbArc
 50
-141.3066749847757
 51
-129.3364599961042
  0
ARC
  5
2BD
330
4B
100
AcDbEntity
  8
0
  6
Continuous
 62
     7
100
AcDbCircle
 10
0.0000000000033
 20
-721.8369164839751
 30
0.0
 40
45.10463792494863
100
AcDbArc
 50
173.6394194571583
 51
-174.2825544380379
  0
ARC
  5
2BE
330
4B
100
AcDbEntity
  8
0
  6
Continuous
 62
     7
100
AcDbCircle
 10
0.0000000000033
 20
-721.8369164839751
 30
0.0
 40
40.99999999999962
100
AcDbArc
 50
-171.2142799496868
 51
-129.4288550311935
  0
ARC
  5
2BF
330
4B
100
AcDbEntity
  8
0
  6
Continuous
 62
     7
100
AcDbCircle
 10
0.0000000000033
 20
-721.8369164839751
 30
0.0
 40
43.50000000000089
100
AcDbArc
 50
-156.3066749847754
 51
-144.3364599961058
  0
ARC
  5
2C0
330
4B
100
AcDbEntity
  8
0
  6
Continuous
 62
     7
100
AcDbCircle
 10
0.0000000000033
 20
-721.8369164839751
 30
0.0
 40
41.00000000000043
100
AcDbArc
 50
53.78572005031851
 51
95.57114495077181
  0
ARC
  5
2C1
330
4B
100
AcDbEntity
  8
0
  6
Continuous
 62
     7
100
AcDbCircle
 10
0.0000000000033
 20
-721.8369164839751
 30
0.0
 40
41.00000000000113
100
AcDbArc
 50
143.7857200683534
 51
-174.4288550311914
  0
ARC
  5
2C2
330
4B
100
AcDbEntity
  8
0
  6
Continuous
 62
     7
100
AcDbCircle
 10
0.0000000000033
 20
-721.8369164839751
 30
0.0
 40
43.50000000000054
100
AcDbArc
 50
158.6933250152254
 51
170.6635400038966
  0
ARC
  5
2C3
330
4B
100
AcDbEntity
  8
0
  6
Continuous
 62
     7
100
AcDbCircle
 10
0.0000000000033
 20
-721.8369164839751
 30
0.0
 40
43.50000000000116
100
AcDbArc
 50
143.6933250152261
 51
155.6635400038949
  0
ARC
  5
2C4
330
4B
100
AcDbEntity
  8
0
  6
Continuous
 62
     7
100
AcDbCircle
 10
0.0000000000033
 20
-721.8369164839751
 30
0.0
 40
43.5000000000021
100
AcDbArc
 50
128.6933250152243
 51
140.6635400038959
  0
ARC
  5
2C5
330
4B
100
AcDbEntity
  8
0
  6
Continuous
 62
     7
100
AcDbCircle
 10
0.0000000000033
 20
-721.8369164839751
 30
0.0
 40
56.20000000000129
100
AcDbArc
 50
98.35093687884054
 51
111.0059281402833
  0
ARC
  5
2C6
330
4B
100
AcDbEntity
  8
0
  6
Continuous
 62
     7
100
AcDbCircle
 10
0.0000000000033
 20
-721.8369164839751
 30
0.0
 40
58.13148319780728
100
AcDbArc
 50
98.31197394582992
 51
111.0448910732928
  0
ARC
  5
2C7
330
4B
100
AcDbEntity
  8
0
  6
Continuous
 62
     7
100
AcDbCircle
 10
0.0000000000033
 20
-721.8369164839751
 30
0.0
 40
56.20000000000257
100
AcDbArc
 50
173.3509368788397
 51
-173.9940718597177
  0
ARC
  5
2C8
330
4B
100
AcDbEntity
  8
0
  6
Continuous
 62
     7
100
AcDbCircle
 10
0.0000000000033
 20
-721.8369164839751
 30
0.0
 40
58.13148319780611
100
AcDbArc
 50
173.3119739458293
 51
-173.9551089267092
  0
ARC
  5
2C9
330
4B
100
AcDbEntity
  8
0
  6
Continuous
 62
     7
100
AcDbCircle
 10
0.0000000000033
 20
-721.8369164839751
 30
0.0
 40
41.00000000000024
100
AcDbArc
 50
98.78572006835925
 51
140.5711449507682
  0
ARC
  5
2CA
330
4B
100
AcDbEntity
  8
0
  6
Continuous
 62
     7
100
AcDbCircle
 10
-25.33165470840356
 20
-700.6532607623049
 30
0.0
 40
1.000000000000821
100
AcDbArc
 50
52.17843250941974
 51
142.1784325095843
  0
ARC
  5
2CB
330
4B
100
AcDbEntity
  8
0
  6
Continuous
 62
     7
100
AcDbCircle
 10
0.0000000000033
 20
-721.8369164839751
 30
0.0
 40
43.50000000000089
100
AcDbArc
 50
113.6933250152246
 51
125.6635400038981
  0
ARC
  5
2CC
330
4B
100
AcDbEntity
  8
0
  6
Continuous
 62
     7
100
AcDbCircle
 10
0.0000000000033
 20
-721.8369164839751
 30
0.0
 40
43.50000000000115
100
AcDbArc
 50
98.69332501522783
 51
110.6635400039008
  0
ARC
  5
2CD
330
4B
100
AcDbEntity
  8
0
  6
Continuous
 62
     7
100
AcDbCircle
 10
0.0000000000033
 20
-721.8369164839751
 30
0.0
 40
43.5000000000006
100
AcDbArc
 50
-171.3066749847769
 51
-159.3364599961037
  0
ARC
  5
2CE
330
4B
100
AcDbEntity
  8
0
  6
Continuous
 62
     7
100
AcDbCircle
 10
0.0000000000033
 20
-721.8369164839751
 30
0.0
 40
43.50000000000006
100
AcDbArc
 50
173.6933250152257
 51
-174.3364599961039
  0
ARC
  5
2CF
330
4B
100
AcDbEntity
  8
0
  6
Continuous
 62
     7
100
AcDbCircle
 10
-26.80334537235137
 20
-702.5490789470605
 30
0.0
 40
0.9999999999985999
100
AcDbArc
 50
142.1784325095843
 51
-127.8215674904161
  0
ARC
  5
2D0
330
4B
100
AcDbEntity
  8
0
  6
Continuous
 62
     7
100
AcDbCircle
 10
-6.37347286085458
 20
-715.3701674017902
 30
0.0
 40
0.999999999998595
100
AcDbArc
 50
-37.8215674904159
 51
52.17843250958403
  0
ARC
  5
2D1
330
4B
100
AcDbEntity
  8
0
  6
Continuous
 62
     7
100
AcDbCircle
 10
-7.84516352480239
 20
-717.2659855865459
 30
0.0
 40
0.9999999999985943
100
AcDbArc
 50
-127.8215674904159
 51
-37.82156749041594
  0
ARC
  5
2D2
330
4B
100
AcDbEntity
  8
0
  6
Continuous
 62
     7
100
AcDbCircle
 10
0.0000000000033
 20
-721.8369164839751
 30
0.0
 40
43.50000000000054
100
AcDbArc
 50
68.69332501522543
 51
80.66354000389656
  0
ARC
  5
2D3
330
4B
100
AcDbEntity
  8
0
  6
Continuous
 62
     7
100
AcDbCircle
 10
0.0000000000033
 20
-721.8369164839751
 30
0.0
 40
43.50000000000006
100
AcDbArc
 50
83.69332501522567
 51
95.66354000389613
  0
ARC
  5
2D4
330
4B
100
AcDbEntity
  8
0
  6
Continuous
 62
     7
100
AcDbCircle
 10
0.0000000000033
 20
-721.8369164839751
 30
0.0
 40
41.00000000000018
100
AcDbArc
 50
8.78572005031826
 51
50.57114496881042
  0
ARC
  5
2D5
330
4B
100
AcDbEntity
  8
0
  6
Continuous
 62
     7
100
AcDbCircle
 10
0.0000000000033
 20
-721.8369164839751
 30
0.0
 40
43.49999999999926
100
AcDbArc
 50
38.69332501522732
 51
50.66354000390258
  0
ARC
  5
2D6
330
4B
100
AcDbEntity
  8
0
  6
Continuous
 62
     7
100
AcDbCircle
 10
0.0000000000033
 20
-721.8369164839751
 30
0.0
 40
43.49999999999902
100
AcDbArc
 50
23.69332501523094
 51
35.66354000390092
  0
ARC
  5
2D7
330
4B
100
AcDbEntity
  8
0
  6
Continuous
 62
     7
100
AcDbCircle
 10
0.0000000000033
 20
-721.8369164839751
 30
0.0
 40
43.49999999999756
100
AcDbArc
 50
8.69332501522855
 51
20.66354000390076
  0
ARC
  5
2D8
330
4B
100
AcDbEntity
  8
0
  6
Continuous
 62
     7
100
AcDbCircle
 10
0.0000000000033
 20
-721.8369164839751
 30
0.0
 40
43.50000000000006
100
AcDbArc
 50
-6.30667498477433
 51
5.66354000390137
  0
ARC
  5
2D9
330
4B
100
AcDbEntity
  8
0
  6
Continuous
 62
     7
100
AcDbCircle
 10
0.0000000000033
 20
-721.8369164839751
 30
0.0
 40
43.49999999999922
100
AcDbArc
 50
-21.30667498477012
 51
-9.33645999610344
  0
ARC
  5
2DA
330
4B
100
AcDbEntity
  8
0
  6
Continuous
 62
     7
100
AcDbCircle
 10
0.0000000000033
 20
-721.8369164839751
 30
0.0
 40
56.19999999999769
100
AcDbArc
 50
8.35093687884107
 51
21.00592814028468
  0
ARC
  5
2DB
330
4B
100
AcDbEntity
  8
0
  6
Continuous
 62
     7
100
AcDbCircle
 10
0.0000000000033
 20
-721.8369164839751
 30
0.0
 40
58.13148319780368
100
AcDbArc
 50
8.31197394583043
 51
21.04489107329405
  0
ARC
  5
2DC
330
4B
100
AcDbEntity
  8
0
  6
Continuous
 62
     7
100
AcDbCircle
 10
0.00000017044624
 20
-721.8369158618516
 30
0.0
 40
40.99999976996593
100
AcDbArc
 50
-36.21428077380514
 51
5.57114412664738
  0
ARC
  5
2DD
330
4B
100
AcDbEntity
  8
0
  6
Continuous
 62
     7
100
AcDbCircle
 10
7.84516352480534
 20
-726.4078473814043
 30
0.0
 40
1.000000000003698
100
AcDbArc
 50
52.17843250954727
 51
142.1784325094195
  0
ARC
  5
2DE
330
4B
100
AcDbEntity
  8
0
  6
Continuous
 62
     7
100
AcDbCircle
 10
0.0000000000033
 20
-721.8369164839751
 30
0.0
 40
58.13148319780429
100
AcDbArc
 50
143.3119739458297
 51
156.0448910732919
  0
ARC
  5
2DF
330
4B
100
AcDbEntity
  8
0
  6
Continuous
 62
     7
100
AcDbCircle
 10
0.0000000000033
 20
-721.8369164839751
 30
0.0
 40
73.90000000000198
100
AcDbArc
 50
173.0700807650848
 51
-173.7132157459625
  0
ARC
  5
2E0
330
4B
100
AcDbEntity
  8
0
  6
Continuous
 62
     7
100
AcDbCircle
 10
0.0000000000033
 20
-721.8369164839751
 30
0.0
 40
56.2000000000025
100
AcDbArc
 50
158.3509368788376
 51
171.0059281402835
  0
ARC
  5
2E1
330
4B
100
AcDbEntity
  8
0
  6
Continuous
 62
     7
100
AcDbCircle
 10
0.0000000000033
 20
-721.8369164839751
 30
0.0
 40
58.13148319780497
100
AcDbArc
 50
158.3119739458305
 51
171.0448910732918
  0
ARC
  5
2E2
330
4B
100
AcDbEntity
  8
0
  6
Continuous
 62
     7
100
AcDbCircle
 10
0.0000000000033
 20
-721.8369164839751
 30
0.0
 40
56.20000000000091
100
AcDbArc
 50
143.3509368788381
 51
156.0059281402838
  0
ARC
  5
2E3
330
4B
100
AcDbEntity
  8
0
  6
Continuous
 62
     7
100
AcDbCircle
 10
0.0000000000033
 20
-721.8369164839751
 30
0.0
 40
58.13148319780417
100
AcDbArc
 50
-156.6880260541723
 51
-143.955108926709
  0
ARC
  5
2E4
330
4B
100
AcDbEntity
  8
0
  6
Continuous
 62
     7
100
AcDbCircle
 10
0.0000000000033
 20
-721.8369164839751
 30
0.0
 40
56.19999999999778
100
AcDbArc
 50
-111.6490631211603
 51
-98.99407185971705
  0
ARC
  5
2E5
330
4B
100
AcDbEntity
  8
0
  6
Continuous
 62
     7
100
AcDbCircle
 10
0.0000000000033
 20
-721.8369164839751
 30
0.0
 40
58.13148319780496
100
AcDbArc
 50
-111.6880260541695
 51
-98.95510892670882
  0
ARC
  5
2E6
330
4B
100
AcDbEntity
  8
0
  6
Continuous
 62
     7
100
AcDbCircle
 10
0.0000000000033
 20
-721.8369164839751
 30
0.0
 40
58.1314831978044
100
AcDbArc
 50
-141.6880260541706
 51
-128.9551089267088
  0
ARC
  5
2E7
330
4B
100
AcDbEntity
  8
0
  6
Continuous
 62
     7
100
AcDbCircle
 10
0.0000000000033
 20
-721.8369164839751
 30
0.0
 40
58.13148319780429
100
AcDbArc
 50
-126.6880260541703
 51
-113.9551089267096
  0
ARC
  5
2E8
330
4B
100
AcDbEntity
  8
0
  6
Continuous
 62
     7
100
AcDbCircle
 10
0.0000000000033
 20
-721.8369164839751
 30
0.0
 40
56.20000000000039
100
AcDbArc
 50
-156.6490631211596
 51
-143.9940718597161
  0
ARC
  5
2E9
330
4B
100
AcDbEntity
  8
0
  6
Continuous
 62
     7
100
AcDbCircle
 10
0.0000000000033
 20
-721.8369164839751
 30
0.0
 40
56.20000000000039
100
AcDbArc
 50
113.3509368788404
 51
126.0059281402839
  0
ARC
  5
2EA
330
4B
100
AcDbEntity
  8
0
  6
Continuous
 62
     7
100
AcDbCircle
 10
0.0000000000033
 20
-721.8369164839751
 30
0.0
 40
58.13148319780561
100
AcDbArc
 50
113.311973945831
 51
126.0448910732939
  0
ARC
  5
2EB
330
4B
100
AcDbEntity
  8
0
  6
Continuous
 62
     7
100
AcDbCircle
 10
0.0000000000033
 20
-721.8369164839751
 30
0.0
 40
56.2000000000017
100
AcDbArc
 50
128.3509368788409
 51
141.0059281402833
  0
ARC
  5
2EC
330
4B
100
AcDbEntity
  8
0
  6
Continuous
 62
     7
100
AcDbCircle
 10
0.0000000000033
 20
-721.8369164839751
 30
0.0
 40
58.13148319780665
100
AcDbArc
 50
38.31197394583219
 51
51.04489107329348
  0
ARC
  5
2ED
330
4B
100
AcDbEntity
  8
0
  6
Continuous
 62
     7
100
AcDbCircle
 10
0.0000000000033
 20
-721.8369164839751
 30
0.0
 40
56.19999999999944
100
AcDbArc
 50
-141.649063121162
 51
-128.994071859719
  0
ARC
  5
2EE
330
4B
100
AcDbEntity
  8
0
  6
Continuous
 62
     7
100
AcDbCircle
 10
0.0000000000033
 20
-721.8369164839751
 30
0.0
 40
56.20000000000091
100
AcDbArc
 50
-126.6490631211619
 51
-113.9940718597177
  0
ARC
  5
2EF
330
4B
100
AcDbEntity
  8
0
  6
Continuous
 62
     7
100
AcDbCircle
 10
0.0000000000033
 20
-721.8369164839751
 30
0.0
 40
56.2000000000017
100
AcDbArc
 50
38.35093687884093
 51
51.00592814028617
  0
ARC
  5
2F0
330
4B
100
AcDbEntity
  8
0
  6
Continuous
 62
     7
100
AcDbCircle
 10
0.0000000000033
 20
-721.8369164839751
 30
0.0
 40
58.13148319780665
100
AcDbArc
 50
128.3119739458322
 51
141.0448910732935
  0
ARC
  5
2F1
330
4B
100
AcDbEntity
  8
0
  6
Continuous
 62
     7
100
AcDbCircle
 10
0.0000000000033
 20
-721.8369164839751
 30
0.0
 40
70.50000000000072
100
AcDbArc
 50
-171.8869140318105
 51
-158.7562209490696
  0
ARC
  5
2F2
330
4B
100
AcDbEntity
  8
0
  6
Continuous
 62
     7
100
AcDbCircle
 10
0.0000000000033
 20
-721.8369164839751
 30
0.0
 40
73.89999999999836
100
AcDbArc
 50
-96.92991923491554
 51
-83.71321574596251
  0
ARC
  5
2F3
330
4B
100
AcDbEntity
  8
0
  6
Continuous
 62
     7
100
AcDbCircle
 10
0.0000000000033
 20
-721.8369164839751
 30
0.0
 40
73.89999999999836
100
AcDbArc
 50
-6.92991923491554
 51
6.2867842540403
  0
ARC
  5
2F4
330
4B
100
AcDbEntity
  8
0
  6
Continuous
 62
     7
100
AcDbCircle
 10
0.0000000000033
 20
-721.8369164839751
 30
0.0
 40
73.89999999999908
100
AcDbArc
 50
-171.9299192349185
 51
-158.7132157459601
  0
ARC
  5
2F5
330
4B
100
AcDbEntity
  8
0
  6
Continuous
 62
     7
100
AcDbCircle
 10
0.0000000000033
 20
-721.8369164839751
 30
0.0
 40
73.89999999999993
100
AcDbArc
 50
-156.9299192349179
 51
-143.7132157459609
  0
ARC
  5
2F6
330
4B
100
AcDbEntity
  8
0
  6
Continuous
 62
     7
100
AcDbCircle
 10
0.0000000000033
 20
-721.8369164839751
 30
0.0
 40
73.90000000000055
100
AcDbArc
 50
-111.9299192349174
 51
-98.7132157459608
  0
ARC
  5
2F7
330
4B
100
AcDbEntity
  8
0
  6
Continuous
 62
     7
100
AcDbCircle
 10
-0.00000000000034
 20
-721.8369164839714
 30
0.0
 40
74.9999999999985
100
AcDbArc
 50
143.0570022246421
 51
156.2998627944833
  0
ARC
  5
2F8
330
4B
100
AcDbEntity
  8
0
  6
Continuous
 62
     7
100
AcDbCircle
 10
-0.00000000000034
 20
-721.8369164839714
 30
0.0
 40
75.00000000000095
100
AcDbArc
 50
158.0570022246412
 51
171.2998627944881
  0
ARC
  5
2F9
330
4B
100
AcDbEntity
  8
0
  6
Continuous
 62
     7
100
AcDbCircle
 10
-0.00000000000034
 20
-721.8369164839714
 30
0.0
 40
78.99999999999753
100
AcDbArc
 50
143.0125144556235
 51
156.344350563503
  0
ARC
  5
2FA
330
4B
100
AcDbEntity
  8
0
  6
Continuous
 62
     7
100
AcDbCircle
 10
-0.00000000000034
 20
-721.8369164839714
 30
0.0
 40
78.99999999999997
100
AcDbArc
 50
38.01251445562218
 51
51.34435056349909
  0
ARC
  5
2FB
330
4B
100
AcDbEntity
  8
0
  6
Continuous
 62
     7
100
AcDbCircle
 10
-0.00000000000034
 20
-721.8369164839714
 30
0.0
 40
74.9999999999994
100
AcDbArc
 50
38.05700222463655
 51
51.29986279448326
  0
ARC
  5
2FC
330
4B
100
AcDbEntity
  8
0
  6
Continuous
 62
     7
100
AcDbCircle
 10
-0.00000000000034
 20
-721.8369164839714
 30
0.0
 40
75.00000000000021
100
AcDbArc
 50
23.05700222463587
 51
36.29986279448384
  0
ARC
  5
2FD
330
4B
100
AcDbEntity
  8
0
  6
Continuous
 62
     7
100
AcDbCircle
 10
-0.00000000000034
 20
-721.8369164839714
 30
0.0
 40
75.00000000000232
100
AcDbArc
 50
-21.94299777536139
 51
-8.70013720551744
  0
ARC
  5
2FE
330
4B
100
AcDbEntity
  8
0
  6
Continuous
 62
     7
100
AcDbCircle
 10
-0.00000000000034
 20
-721.8369164839714
 30
0.0
 40
75.00000000000006
100
AcDbArc
 50
133.126210423383
 51
141.2998627944854
  0
ARC
  5
2FF
330
4B
100
AcDbEntity
  8
0
  6
Continuous
 62
     7
100
AcDbCircle
 10
-0.00000000000034
 20
-721.8369164839751
 30
0.0
 40
75.00000000000102
100
AcDbArc
 50
128.0570022246426
 51
133.1262104233812
  0
ARC
  5
300
330
4B
100
AcDbEntity
  8
0
  6
Continuous
 62
     7
100
AcDbCircle
 10
-0.00000000000034
 20
-721.8369164839714
 30
0.0
 40
74.99999999999852
100
AcDbArc
 50
98.0570022246395
 51
111.299862794484
  0
ARC
  5
301
330
4B
100
AcDbEntity
  8
0
  6
Continuous
 62
     7
100
AcDbCircle
 10
-0.00000000000034
 20
-721.8369164839714
 30
0.0
 40
74.99999999999972
100
AcDbArc
 50
113.0570022246421
 51
126.2998627944839
  0
ARC
  5
302
330
4B
100
AcDbEntity
  8
0
  6
Continuous
 62
     7
100
AcDbCircle
 10
-0.00000000000034
 20
-721.8369164839714
 30
0.0
 40
78.99999999999852
100
AcDbArc
 50
98.01251445562225
 51
111.3443505635026
  0
ARC
  5
303
330
4B
100
AcDbEntity
  8
0
  6
Continuous
 62
     7
100
AcDbCircle
 10
-0.00000000000034
 20
-721.8369164839714
 30
0.0
 40
78.99999999999622
100
AcDbArc
 50
113.0125144556249
 51
126.3443505634999
  0
ARC
  5
304
330
4B
100
AcDbEntity
  8
0
  6
Continuous
 62
     7
100
AcDbCircle
 10
-0.00000000000034
 20
-721.8369164839714
 30
0.0
 40
78.99999999999935
100
AcDbArc
 50
128.0125144556259
 51
141.3443505635028
  0
ARC
  5
305
330
4B
100
AcDbEntity
  8
0
  6
Continuous
 62
     7
100
AcDbCircle
 10
-0.00000000000034
 20
-721.8369164839714
 30
0.0
 40
78.99999999999899
100
AcDbArc
 50
83.01251445562244
 51
96.34435056350169
  0
ARC
  5
306
330
4B
100
AcDbEntity
  8
0
  6
Continuous
 62
     7
100
AcDbCircle
 10
-0.00000000000034
 20
-721.8369164839714
 30
0.0
 40
74.9999999999995
100
AcDbArc
 50
-6.94299777536149
 51
6.29986279448198
  0
ARC
  5
307
330
4B
100
AcDbEntity
  8
0
  6
Continuous
 62
     7
100
AcDbCircle
 10
-0.00000000000034
 20
-721.8369164839714
 30
0.0
 40
79.00000000000149
100
AcDbArc
 50
23.01251445562044
 51
36.3443505634999
  0
ARC
  5
308
330
4B
100
AcDbEntity
  8
0
  6
Continuous
 62
     7
100
AcDbCircle
 10
-0.00000000000034
 20
-721.8369164839714
 30
0.0
 40
75.0000000000016
100
AcDbArc
 50
8.05700222463636
 51
21.29986279448294
  0
ARC
  5
309
330
4B
100
AcDbEntity
  8
0
  6
Continuous
 62
     7
100
AcDbCircle
 10
-0.00000000000034
 20
-721.8369164839714
 30
0.0
 40
79.00000000000162
100
AcDbArc
 50
8.01251445561927
 51
21.3443505634992
  0
ARC
  5
30A
330
4B
100
AcDbEntity
  8
0
  6
Continuous
 62
     7
100
AcDbCircle
 10
-0.00000000000034
 20
-721.8369164839714
 30
0.0
 40
78.99999999999899
100
AcDbArc
 50
-6.98748554437756
 51
6.34435056349908
  0
ARC
  5
30B
330
4B
100
AcDbEntity
  8
0
  6
Continuous
 62
     7
100
AcDbCircle
 10
-0.00000000000034
 20
-721.8369164839714
 30
0.0
 40
78.99999999999933
100
AcDbArc
 50
68.01251445562312
 51
81.34435056349814
  0
ARC
  5
30C
330
4B
100
AcDbEntity
  8
0
  6
Continuous
 62
     7
100
AcDbCircle
 10
-0.00000000000034
 20
-721.8369164839714
 30
0.0
 40
74.99999999999893
100
AcDbArc
 50
68.05700222463757
 51
81.29986279448255
  0
ARC
  5
30D
330
4B
100
AcDbEntity
  8
0
  6
Continuous
 62
     7
100
AcDbCircle
 10
-0.00000000000034
 20
-721.8369164839714
 30
0.0
 40
78.99999999999973
100
AcDbArc
 50
53.01251445562143
 51
66.34435056349957
  0
ARC
  5
30E
330
4B
100
AcDbEntity
  8
0
  6
Continuous
 62
     7
100
AcDbCircle
 10
-0.00000000000034
 20
-721.8369164839714
 30
0.0
 40
74.99999999999777
100
AcDbArc
 50
53.05700222463822
 51
66.2998627944833
  0
ARC
  5
30F
330
4B
100
AcDbEntity
  8
0
  6
Continuous
 62
     7
100
AcDbCircle
 10
-0.00000000000034
 20
-721.8369164839714
 30
0.0
 40
74.9999999999995
100
AcDbArc
 50
83.05700222463851
 51
96.29986279448475
  0
ARC
  5
310
330
4B
100
AcDbEntity
  8
0
  6
Continuous
 62
     7
100
AcDbCircle
 10
-0.00000000000034
 20
-721.8369164839751
 30
0.0
 40
74.99999999999878
100
AcDbArc
 50
-51.94299777535955
 51
-46.87378957661696
  0
ARC
  5
311
330
4B
100
AcDbEntity
  8
0
  6
Continuous
 62
     7
100
AcDbCircle
 10
-0.00000000000034
 20
-721.8369164839714
 30
0.0
 40
75.00000000000286
100
AcDbArc
 50
-36.94299777536234
 51
-28.76943394102487
  0
ARC
  5
312
330
4B
100
AcDbEntity
  8
0
  6
Continuous
 62
     7
100
AcDbCircle
 10
-0.00000000000034
 20
-721.8369164839751
 30
0.0
 40
75.00000000000074
100
AcDbArc
 50
-28.76943394102243
 51
-23.70013720551415
  0
ARC
  5
313
330
4B
100
AcDbEntity
  8
0
  6
Continuous
 62
     7
100
AcDbCircle
 10
-0.00000000000034
 20
-721.8369164839714
 30
0.0
 40
75.00000000000273
100
AcDbArc
 50
-46.87378957661885
 51
-38.70013720551674
  0
ARC
  5
314
330
4B
100
AcDbEntity
  8
0
  6
Continuous
 62
     7
100
AcDbCircle
 10
-0.00000000000034
 20
-721.8369164839714
 30
0.0
 40
79.00000000000222
100
AcDbArc
 50
-141.9874855443757
 51
-128.6556494364993
  0
ARC
  5
315
330
4B
100
AcDbEntity
  8
0
  6
Continuous
 62
     7
100
AcDbCircle
 10
-0.00000000000034
 20
-721.8369164839714
 30
0.0
 40
79.00000000000263
100
AcDbArc
 50
-126.987485544377
 51
-113.6556494364994
  0
ARC
  5
316
330
4B
100
AcDbEntity
  8
0
  6
Continuous
 62
     7
100
AcDbCircle
 10
-0.00000000000034
 20
-721.8369164839714
 30
0.0
 40
78.99999999999903
100
AcDbArc
 50
-171.9874855443751
 51
-158.6556494364984
  0
ARC
  5
317
330
4B
100
AcDbEntity
  8
0
  6
Continuous
 62
     7
100
AcDbCircle
 10
-0.00000000000034
 20
-721.8369164839714
 30
0.0
 40
78.99999999999957
100
AcDbArc
 50
-156.9874855443761
 51
-143.655649436498
  0
ARC
  5
318
330
4B
100
AcDbEntity
  8
0
  6
Continuous
 62
     7
100
AcDbCircle
 10
-0.00000000000034
 20
-721.8369164839714
 30
0.0
 40
75.00000000000067
100
AcDbArc
 50
-126.9429977753601
 51
-113.7001372055156
  0
ARC
  5
319
330
4B
100
AcDbEntity
  8
0
  6
Continuous
 62
     7
100
AcDbCircle
 10
-0.00000000000034
 20
-721.8369164839714
 30
0.0
 40
75.00000000000102
100
AcDbArc
 50
-141.9429977753574
 51
-128.700137205515
  0
ARC
  5
31A
330
4B
100
AcDbEntity
  8
0
  6
Continuous
 62
     7
100
AcDbCircle
 10
-0.00000000000034
 20
-721.8369164839714
 30
0.0
 40
75.00000000000165
100
AcDbArc
 50
-156.9429977753616
 51
-143.7001372055139
  0
ARC
  5
31B
330
4B
100
AcDbEntity
  8
0
  6
Continuous
 62
     7
100
AcDbCircle
 10
-0.00000000000034
 20
-721.8369164839714
 30
0.0
 40
75.00000000000095
100
AcDbArc
 50
-111.9429977753588
 51
-98.70013720551702
  0
ARC
  5
31C
330
4B
100
AcDbEntity
  8
0
  6
Continuous
 62
     7
100
AcDbCircle
 10
-0.00000000000034
 20
-721.8369164839714
 30
0.0
 40
79.0000000000027
100
AcDbArc
 50
-111.9874855443759
 51
-98.65564943649886
  0
ARC
  5
31D
330
4B
100
AcDbEntity
  8
0
  6
Continuous
 62
     7
100
AcDbCircle
 10
-0.00000000000034
 20
-721.8369164839714
 30
0.0
 40
74.99999999999903
100
AcDbArc
 50
-171.9429977753578
 51
-158.7001372055171
  0
ARC
  5
31E
330
4B
100
AcDbEntity
  8
0
  6
Continuous
 62
     7
100
AcDbCircle
 10
-0.00000000000034
 20
-721.8369164839714
 30
0.0
 40
79.00000000000149
100
AcDbArc
 50
-66.98748554437957
 51
-53.65564943650167
  0
ARC
  5
31F
330
4B
100
AcDbEntity
  8
0
  6
Continuous
 62
     7
100
AcDbCircle
 10
-0.00000000000034
 20
-721.8369164839714
 30
0.0
 40
79.00000000000213
100
AcDbArc
 50
-81.98748554437812
 51
-68.65564943649835
  0
ARC
  5
320
330
4B
100
AcDbEntity
  8
0
  6
Continuous
 62
     7
100
AcDbCircle
 10
-0.00000000000034
 20
-721.8369164839714
 30
0.0
 40
75.00000000000165
100
AcDbArc
 50
-66.94299777536158
 51
-53.70013720551781
  0
ARC
  5
321
330
4B
100
AcDbEntity
  8
0
  6
Continuous
 62
     7
100
AcDbCircle
 10
-0.00000000000034
 20
-721.8369164839714
 30
0.0
 40
75.00000000000267
100
AcDbArc
 50
-96.9429977753584
 51
-83.70013720551556
  0
ARC
  5
322
330
4B
100
AcDbEntity
  8
0
  6
Continuous
 62
     7
100
AcDbCircle
 10
-0.00000000000034
 20
-721.8369164839714
 30
0.0
 40
75.00000000000213
100
AcDbArc
 50
-81.94299777536088
 51
-68.70013720551705
  0
ARC
  5
323
330
4B
100
AcDbEntity
  8
0
  6
Continuous
 62
     7
100
AcDbCircle
 10
-0.00000000000034
 20
-721.8369164839714
 30
0.0
 40
79.0000000000026
100
AcDbArc
 50
-96.98748554437724
 51
-83.65564943649859
  0
ARC
  5
324
330
4B
100
AcDbEntity
  8
0
  6
Continuous
 62
     7
100
AcDbCircle
 10
-0.00000000000034
 20
-721.8369164839714
 30
0.0
 40
78.99999999999933
100
AcDbArc
 50
-21.98748554437689
 51
-8.65564943649925
  0
ARC
  5
325
330
4B
100
AcDbEntity
  8
0
  6
Continuous
 62
     7
100
AcDbCircle
 10
-0.00000000000034
 20
-721.8369164839714
 30
0.0
 40
78.99999999999973
100
AcDbArc
 50
-36.98748554437857
 51
-23.65564943649937
  0
ARC
  5
326
330
4B
100
AcDbEntity
  8
0
  6
Continuous
 62
     7
100
AcDbCircle
 10
-0.00000000000034
 20
-721.8369164839714
 30
0.0
 40
79.00000000000283
100
AcDbArc
 50
-51.98748554437945
 51
-38.65564943649927
  0
ARC
  5
327
330
4B
100
AcDbEntity
  8
0
  6
Continuous
 62
     7
100
AcDbCircle
 10
-0.00000000000034
 20
-721.8369164839714
 30
0.0
 40
78.99999999999933
100
AcDbArc
 50
158.0125144556231
 51
171.344350563506
  0
ARC
  5
328
330
4B
100
AcDbEntity
  8
0
  6
Continuous
 62
     7
100
AcDbCircle
 10
-0.00000000000034
 20
-721.8369164839714
 30
0.0
 40
74.99999999999862
100
AcDbArc
 50
173.057002224644
 51
-173.7001372055153
  0
ARC
  5
329
330
4B
100
AcDbEntity
  8
0
  6
Continuous
 62
     7
100
AcDbCircle
 10
-0.00000000000034
 20
-721.8369164839714
 30
0.0
 40
78.99999999999855
100
AcDbArc
 50
173.0125144556251
 51
-173.6556494364957
  0
ARC
  5
32A
330
4B
100
AcDbEntity
  8
0
  6
Continuous
 62
     7
100
AcDbCircle
 10
-0.00000000000034
 20
-721.8369164839714
 30
0.0
 40
70.50000000000107
100
AcDbArc
 50
143.1130859681924
 51
156.2437790509309
  0
ARC
  5
32B
330
4B
100
AcDbEntity
  8
0
  6
Continuous
 62
     7
100
AcDbCircle
 10
-0.00000000000034
 20
-721.8369164839714
 30
0.0
 40
70.49999999999979
100
AcDbArc
 50
158.1130859681896
 51
171.2437790509339
  0
ARC
  5
32C
330
4B
100
AcDbEntity
  8
0
  6
Continuous
 62
     7
100
AcDbCircle
 10
-0.00000000000034
 20
-721.8369164839714
 30
0.0
 40
52.00000000000149
100
AcDbArc
 50
68.44565402226284
 51
80.91121099685917
  0
ARC
  5
32D
330
4B
100
AcDbEntity
  8
0
  6
Continuous
 62
     7
100
AcDbCircle
 10
-0.00000000000034
 20
-721.8369164839714
 30
0.0
 40
70.50000000000045
100
AcDbArc
 50
-21.8869140318038
 51
-8.75622094906608
  0
ARC
  5
32E
330
4B
100
AcDbEntity
  8
0
  6
Continuous
 62
     7
100
AcDbCircle
 10
-0.00000000000034
 20
-721.8369164839714
 30
0.0
 40
64.49999999999775
100
AcDbArc
 50
-21.79996070122021
 51
-8.84317427964996
  0
ARC
  5
32F
330
4B
100
AcDbEntity
  8
0
  6
Continuous
 62
     7
100
AcDbCircle
 10
-0.00000000000034
 20
-721.8369164839714
 30
0.0
 40
70.49999999999888
100
AcDbArc
 50
-36.88691403180528
 51
-23.7562209490664
  0
ARC
  5
330
330
4B
100
AcDbEntity
  8
0
  6
Continuous
 62
     7
100
AcDbCircle
 10
-0.00000000000034
 20
-721.8369164839714
 30
0.0
 40
51.9999999999979
100
AcDbArc
 50
-36.55434597773833
 51
-24.08878900313619
  0
ARC
  5
331
330
4B
100
AcDbEntity
  8
0
  6
Continuous
 62
     7
100
AcDbCircle
 10
-0.00000000000034
 20
-721.8369164839714
 30
0.0
 40
64.5000000000006
100
AcDbArc
 50
-36.79996070122234
 51
-23.84317427965112
  0
ARC
  5
332
330
4B
100
AcDbEntity
  8
0
  6
Continuous
 62
     7
100
AcDbCircle
 10
-0.00000000000034
 20
-721.8369164839714
 30
0.0
 40
52.00000000000015
100
AcDbArc
 50
-21.55434597773343
 51
-9.08878900313292
  0
ARC
  5
333
330
4B
100
AcDbEntity
  8
0
  6
Continuous
 62
     7
100
AcDbCircle
 10
-0.00000000000034
 20
-721.8369164839714
 30
0.0
 40
64.49999999999956
100
AcDbArc
 50
128.2000392987784
 51
141.156825720347
  0
ARC
  5
334
330
4B
100
AcDbEntity
  8
0
  6
Continuous
 62
     7
100
AcDbCircle
 10
-0.00000000000034
 20
-721.8369164839714
 30
0.0
 40
70.50000000000266
100
AcDbArc
 50
128.1130859681925
 51
141.2437790509311
  0
ARC
  5
335
330
4B
100
AcDbEntity
  8
0
  6
Continuous
 62
     7
100
AcDbCircle
 10
-0.00000000000034
 20
-721.8369164839714
 30
0.0
 40
51.99999999999955
100
AcDbArc
 50
128.4456540222627
 51
140.91121099686
  0
ARC
  5
336
330
4B
100
AcDbEntity
  8
0
  6
Continuous
 62
     7
100
AcDbCircle
 10
-0.00000000000034
 20
-721.8369164839714
 30
0.0
 40
64.50000000000217
100
AcDbArc
 50
113.2000392987781
 51
126.1568257203459
  0
ARC
  5
337
330
4B
100
AcDbEntity
  8
0
  6
Continuous
 62
     7
100
AcDbCircle
 10
-0.00000000000034
 20
-721.8369164839714
 30
0.0
 40
51.99999999999989
100
AcDbArc
 50
98.44565402226067
 51
110.9112109968599
  0
ARC
  5
338
330
4B
100
AcDbEntity
  8
0
  6
Continuous
 62
     7
100
AcDbCircle
 10
-0.00000000000034
 20
-721.8369164839714
 30
0.0
 40
52.00000000000205
100
AcDbArc
 50
113.4456540222643
 51
125.9112109968595
  0
ARC
  5
339
330
4B
100
AcDbEntity
  8
0
  6
Continuous
 62
     7
100
AcDbCircle
 10
-0.00000000000034
 20
-721.8369164839714
 30
0.0
 40
70.50000000000124
100
AcDbArc
 50
98.1130859681924
 51
111.2437790509304
  0
ARC
  5
33A
330
4B
100
AcDbEntity
  8
0
  6
Continuous
 62
     7
100
AcDbCircle
 10
-0.00000000000034
 20
-721.8369164839714
 30
0.0
 40
64.50000000000088
100
AcDbArc
 50
98.20003929877724
 51
111.1568257203458
  0
ARC
  5
33B
330
4B
100
AcDbEntity
  8
0
  6
Continuous
 62
     7
100
AcDbCircle
 10
-0.00000000000034
 20
-721.8369164839714
 30
0.0
 40
70.50000000000225
100
AcDbArc
 50
113.1130859681931
 51
126.2437790509314
  0
ARC
  5
33C
330
4B
100
AcDbEntity
  8
0
  6
Continuous
 62
     7
100
AcDbCircle
 10
-0.00000000000034
 20
-721.8369164839714
 30
0.0
 40
52.00000000000061
100
AcDbArc
 50
23.44565402226058
 51
35.91121099686509
  0
ARC
  5
33D
330
4B
100
AcDbEntity
  8
0
  6
Continuous
 62
     7
100
AcDbCircle
 10
-0.00000000000034
 20
-721.8369164839714
 30
0.0
 40
51.99999999999955
100
AcDbArc
 50
38.44565402226272
 51
50.91121099686316
  0
ARC
  5
33E
330
4B
100
AcDbEntity
  8
0
  6
Continuous
 62
     7
100
AcDbCircle
 10
-0.00000000000034
 20
-721.8369164839714
 30
0.0
 40
51.99999999999989
100
AcDbArc
 50
8.44565402226067
 51
20.91121099686502
  0
ARC
  5
33F
330
4B
100
AcDbEntity
  8
0
  6
Continuous
 62
     7
100
AcDbCircle
 10
-0.00000000000034
 20
-721.8369164839714
 30
0.0
 40
70.50000000000081
100
AcDbArc
 50
23.11308596819041
 51
36.24377905093552
  0
ARC
  5
340
330
4B
100
AcDbEntity
  8
0
  6
Continuous
 62
     7
100
AcDbCircle
 10
-0.00000000000034
 20
-721.8369164839714
 30
0.0
 40
64.50000000000036
100
AcDbArc
 50
8.20003929877404
 51
21.15682572034879
  0
ARC
  5
341
330
4B
100
AcDbEntity
  8
0
  6
Continuous
 62
     7
100
AcDbCircle
 10
-0.00000000000034
 20
-721.8369164839714
 30
0.0
 40
70.50000000000072
100
AcDbArc
 50
8.11308596818947
 51
21.24377905093311
  0
ARC
  5
342
330
4B
100
AcDbEntity
  8
0
  6
Continuous
 62
     7
100
AcDbCircle
 10
-0.00000000000034
 20
-721.8369164839714
 30
0.0
 40
70.49999999999844
100
AcDbArc
 50
-6.88691403180551
 51
6.2437790509332
  0
ARC
  5
343
330
4B
100
AcDbEntity
  8
0
  6
Continuous
 62
     7
100
AcDbCircle
 10
-0.00000000000034
 20
-721.8369164839714
 30
0.0
 40
52.00000000000082
100
AcDbArc
 50
53.44565402226406
 51
65.91121099686178
  0
ARC
  5
344
330
4B
100
AcDbEntity
  8
0
  6
Continuous
 62
     7
100
AcDbCircle
 10
-0.00000000000034
 20
-721.8369164839714
 30
0.0
 40
70.50000000000266
100
AcDbArc
 50
38.11308596819251
 51
51.24377905093297
  0
ARC
  5
345
330
4B
100
AcDbEntity
  8
0
  6
Continuous
 62
     7
100
AcDbCircle
 10
-0.00000000000034
 20
-721.8369164839714
 30
0.0
 40
70.50000000000107
100
AcDbArc
 50
53.11308596819235
 51
66.24377905093209
  0
ARC
  5
346
330
4B
100
AcDbEntity
  8
0
  6
Continuous
 62
     7
100
AcDbCircle
 10
-0.00000000000034
 20
-721.8369164839714
 30
0.0
 40
70.50000000000247
100
AcDbArc
 50
83.11308596819191
 51
96.2437790509332
  0
ARC
  5
347
330
4B
100
AcDbEntity
  8
0
  6
Continuous
 62
     7
100
AcDbCircle
 10
-0.00000000000034
 20
-721.8369164839714
 30
0.0
 40
70.50000000000182
100
AcDbArc
 50
68.11308596819346
 51
81.24377905093145
  0
ARC
  5
348
330
4B
100
AcDbEntity
  8
0
  6
Continuous
 62
     7
100
AcDbCircle
 10
-0.00000000000034
 20
-721.8369164839714
 30
0.0
 40
64.50000000000247
100
AcDbArc
 50
68.200039298778
 51
81.15682572034366
  0
ARC
  5
349
330
4B
100
AcDbEntity
  8
0
  6
Continuous
 62
     7
100
AcDbCircle
 10
-0.00000000000034
 20
-721.8369164839714
 30
0.0
 40
64.50000000000058
100
AcDbArc
 50
53.20003929877767
 51
66.15682572034592
  0
ARC
  5
34A
330
4B
100
AcDbEntity
  8
0
  6
Continuous
 62
     7
100
AcDbCircle
 10
-0.00000000000034
 20
-721.8369164839714
 30
0.0
 40
70.49999999999815
100
AcDbArc
 50
-126.8869140318094
 51
-113.7562209490691
  0
ARC
  5
34B
330
4B
100
AcDbEntity
  8
0
  6
Continuous
 62
     7
100
AcDbCircle
 10
-0.00000000000034
 20
-721.8369164839714
 30
0.0
 40
70.49999999999756
100
AcDbArc
 50
-141.886914031808
 51
-128.7562209490689
  0
ARC
  5
34C
330
4B
100
AcDbEntity
  8
0
  6
Continuous
 62
     7
100
AcDbCircle
 10
-0.00000000000034
 20
-721.8369164839714
 30
0.0
 40
64.4999999999973
100
AcDbArc
 50
-141.7999607012242
 51
-128.843174279653
  0
ARC
  5
34D
330
4B
100
AcDbEntity
  8
0
  6
Continuous
 62
     7
100
AcDbCircle
 10
-0.00000000000034
 20
-721.8369164839714
 30
0.0
 40
70.50000000000081
100
AcDbArc
 50
-156.8869140318096
 51
-143.7562209490669
  0
ARC
  5
34E
330
4B
100
AcDbEntity
  8
0
  6
Continuous
 62
     7
100
AcDbCircle
 10
-0.00000000000034
 20
-721.8369164839714
 30
0.0
 40
64.49999999999768
100
AcDbArc
 50
-126.7999607012243
 51
-113.8431742796554
  0
ARC
  5
34F
330
4B
100
AcDbEntity
  8
0
  6
Continuous
 62
     7
100
AcDbCircle
 10
-0.00000000000034
 20
-721.8369164839714
 30
0.0
 40
70.49999999999844
100
AcDbArc
 50
-111.8869140318076
 51
-98.756220949069
  0
ARC
  5
350
330
4B
100
AcDbEntity
  8
0
  6
Continuous
 62
     7
100
AcDbCircle
 10
-0.00000000000034
 20
-721.8369164839714
 30
0.0
 40
51.99999999999989
100
AcDbArc
 50
-81.55434597773933
 51
-69.08878900313873
  0
ARC
  5
351
330
4B
100
AcDbEntity
  8
0
  6
Continuous
 62
     7
100
AcDbCircle
 10
-0.00000000000034
 20
-721.8369164839714
 30
0.0
 40
52.00000000000159
100
AcDbArc
 50
173.445654022263
 51
-174.0887890031375
  0
ARC
  5
352
330
4B
100
AcDbEntity
  8
0
  6
Continuous
 62
     7
100
AcDbCircle
 10
-0.00000000000034
 20
-721.8369164839714
 30
0.0
 40
64.4999999999991
100
AcDbArc
 50
-111.7999607012232
 51
-98.84317427965365
  0
ARC
  5
353
330
4B
100
AcDbEntity
  8
0
  6
Continuous
 62
     7
100
AcDbCircle
 10
-0.00000000000034
 20
-721.8369164839714
 30
0.0
 40
64.50000000000075
100
AcDbArc
 50
-156.7999607012249
 51
-143.8431742796522
  0
ARC
  5
354
330
4B
100
AcDbEntity
  8
0
  6
Continuous
 62
     7
100
AcDbCircle
 10
-0.00000000000034
 20
-721.8369164839714
 30
0.0
 40
51.9999999999979
100
AcDbArc
 50
-126.5543459777383
 51
-114.0887890031399
  0
ARC
  5
355
330
4B
100
AcDbEntity
  8
0
  6
Continuous
 62
     7
100
AcDbCircle
 10
-0.00000000000034
 20
-721.8369164839714
 30
0.0
 40
51.99999999999955
100
AcDbArc
 50
-141.5543459777373
 51
-129.0887890031394
  0
ARC
  5
356
330
4B
100
AcDbEntity
  8
0
  6
Continuous
 62
     7
100
AcDbCircle
 10
-0.00000000000034
 20
-721.8369164839714
 30
0.0
 40
64.49999999999676
100
AcDbArc
 50
-81.79996070122552
 51
-68.84317427965422
  0
ARC
  5
357
330
4B
100
AcDbEntity
  8
0
  6
Continuous
 62
     7
100
AcDbCircle
 10
-0.00000000000034
 20
-721.8369164839714
 30
0.0
 40
51.99999999999916
100
AcDbArc
 50
-156.5543459777431
 51
-144.0887890031381
  0
ARC
  5
358
330
4B
100
AcDbEntity
  8
0
  6
Continuous
 62
     7
100
AcDbCircle
 10
-0.00000000000034
 20
-721.8369164839714
 30
0.0
 40
51.9999999999981
100
AcDbArc
 50
-111.5543459777386
 51
-99.0887890031375
  0
ARC
  5
359
330
4B
100
AcDbEntity
  8
0
  6
Continuous
 62
     7
100
AcDbCircle
 10
-0.00000000000034
 20
-721.8369164839714
 30
0.0
 40
70.49999999999712
100
AcDbArc
 50
-81.88691403181012
 51
-68.75622094906964
  0
ARC
  5
35A
330
4B
100
AcDbEntity
  8
0
  6
Continuous
 62
     7
100
AcDbCircle
 10
-0.00000000000034
 20
-721.8369164839714
 30
0.0
 40
64.49999999999956
100
AcDbArc
 50
-51.79996070122162
 51
-38.843174279653
  0
ARC
  5
35B
330
4B
100
AcDbEntity
  8
0
  6
Continuous
 62
     7
100
AcDbCircle
 10
-0.00000000000034
 20
-721.8369164839714
 30
0.0
 40
70.49999999999756
100
AcDbArc
 50
-51.88691403180799
 51
-38.75622094906658
  0
ARC
  5
35C
330
4B
100
AcDbEntity
  8
0
  6
Continuous
 62
     7
100
AcDbCircle
 10
-0.00000000000034
 20
-721.8369164839714
 30
0.0
 40
51.99999999999944
100
AcDbArc
 50
158.4456540222577
 51
170.9112109968631
  0
ARC
  5
35D
330
4B
100
AcDbEntity
  8
0
  6
Continuous
 62
     7
100
AcDbCircle
 10
-0.00000000000034
 20
-721.8369164839714
 30
0.0
 40
52.00000000000298
100
AcDbArc
 50
143.4456540222608
 51
155.9112109968601
  0
ARC
  5
35E
330
4B
100
AcDbEntity
  8
0
  6
Continuous
 62
     7
100
AcDbCircle
 10
-0.00000000000034
 20
-721.8369164839714
 30
0.0
 40
64.49999999999777
100
AcDbArc
 50
-96.79996070122051
 51
-83.84317427965084
  0
ARC
  5
35F
330
4B
100
AcDbEntity
  8
0
  6
Continuous
 62
     7
100
AcDbCircle
 10
-0.00000000000034
 20
-721.8369164839714
 30
0.0
 40
51.99999999999955
100
AcDbArc
 50
-51.55434597773728
 51
-39.08878900313685
  0
ARC
  5
360
330
4B
100
AcDbEntity
  8
0
  6
Continuous
 62
     7
100
AcDbCircle
 10
-0.00000000000034
 20
-721.8369164839714
 30
0.0
 40
51.99999999999727
100
AcDbArc
 50
-66.55434597773782
 51
-54.08878900313816
  0
ARC
  5
361
330
4B
100
AcDbEntity
  8
0
  6
Continuous
 62
     7
100
AcDbCircle
 10
-0.00000000000034
 20
-721.8369164839714
 30
0.0
 40
64.4999999999974
100
AcDbArc
 50
-66.79996070122361
 51
-53.84317427965225
  0
ARC
  5
362
330
4B
100
AcDbEntity
  8
0
  6
Continuous
 62
     7
100
AcDbCircle
 10
-0.00000000000034
 20
-721.8369164839714
 30
0.0
 40
51.99999999999798
100
AcDbArc
 50
-96.55434597773748
 51
-84.0887890031371
  0
ARC
  5
363
330
4B
100
AcDbEntity
  8
0
  6
Continuous
 62
     7
100
AcDbCircle
 10
-0.00000000000034
 20
-721.8369164839714
 30
0.0
 40
70.49999999999844
100
AcDbArc
 50
-96.88691403180552
 51
-83.75622094906649
  0
ARC
  5
364
330
4B
100
AcDbEntity
  8
0
  6
Continuous
 62
     7
100
AcDbCircle
 10
-0.00000000000034
 20
-721.8369164839714
 30
0.0
 40
70.49999999999747
100
AcDbArc
 50
-66.88691403180843
 51
-53.75622094906687
  0
ARC
  5
365
330
4B
100
AcDbEntity
  8
0
  6
Continuous
 62
     7
100
AcDbCircle
 10
-0.00000000000034
 20
-721.8369164839714
 30
0.0
 40
64.50000000000138
100
AcDbArc
 50
-6.79996070122013
 51
6.1568257203456
  0
ARC
  5
366
330
4B
100
AcDbEntity
  8
0
  6
Continuous
 62
     7
100
AcDbCircle
 10
-0.00000000000034
 20
-721.8369164839714
 30
0.0
 40
64.50000000000075
100
AcDbArc
 50
23.20003929877513
 51
36.15682572035037
  0
ARC
  5
367
330
4B
100
AcDbEntity
  8
0
  6
Continuous
 62
     7
100
AcDbCircle
 10
-0.00000000000034
 20
-721.8369164839714
 30
0.0
 40
64.50000000000242
100
AcDbArc
 50
38.20003929877638
 51
51.15682572034903
  0
ARC
  5
368
330
4B
100
AcDbEntity
  8
0
  6
Continuous
 62
     7
100
AcDbCircle
 10
-0.00000000000034
 20
-721.8369164839714
 30
0.0
 40
64.5000000000018
100
AcDbArc
 50
83.20003929877666
 51
96.15682572034882
  0
ARC
  5
369
330
4B
100
AcDbEntity
  8
0
  6
Continuous
 62
     7
100
AcDbCircle
 10
-0.00000000000034
 20
-721.8369164839714
 30
0.0
 40
52.00000000000159
100
AcDbArc
 50
83.44565402226299
 51
95.91121099686251
  0
ARC
  5
36A
330
4B
100
AcDbEntity
  8
0
  6
Continuous
 62
     7
100
AcDbCircle
 10
-0.00000000000034
 20
-721.8369164839714
 30
0.0
 40
64.5000000000018
100
AcDbArc
 50
173.2000392987767
 51
-173.8431742796544
  0
ARC
  5
36B
330
4B
100
AcDbEntity
  8
0
  6
Continuous
 62
     7
100
AcDbCircle
 10
-0.00000000000034
 20
-721.8369164839714
 30
0.0
 40
64.50000000000044
100
AcDbArc
 50
158.2000392987738
 51
171.15682572035
  0
ARC
  5
36C
330
4B
100
AcDbEntity
  8
0
  6
Continuous
 62
     7
100
AcDbCircle
 10
-0.00000000000034
 20
-721.8369164839714
 30
0.0
 40
64.5000000000006
100
AcDbArc
 50
143.2000392987777
 51
156.1568257203459
  0
ARC
  5
36D
330
4B
100
AcDbEntity
  8
0
  6
Continuous
 62
     7
100
AcDbCircle
 10
-0.00000000000034
 20
-721.8369164839714
 30
0.0
 40
70.49999999999844
100
AcDbArc
 50
173.1130859681945
 51
-173.7562209490698
  0
ARC
  5
36E
330
4B
100
AcDbEntity
  8
0
  6
Continuous
 62
     7
100
AcDbCircle
 10
-0.00000000000034
 20
-721.8369164839714
 30
0.0
 40
51.99999999999989
100
AcDbArc
 50
-171.5543459777394
 51
-159.0887890031425
  0
ARC
  5
36F
330
4B
100
AcDbEntity
  8
0
  6
Continuous
 62
     7
100
AcDbCircle
 10
-0.00000000000034
 20
-721.8369164839714
 30
0.0
 40
52.00000000000159
100
AcDbArc
 50
-6.55434597773702
 51
5.9112109968625
  0
ARC
  5
370
330
4B
100
AcDbEntity
  8
0
  6
Continuous
 62
     7
100
AcDbCircle
 10
-0.00000000000034
 20
-721.8369164839714
 30
0.0
 40
70.50000000000072
100
AcDbArc
 50
-171.8869140318105
 51
-158.7562209490696
  0
ARC
  5
371
330
4B
100
AcDbEntity
  8
0
  6
Continuous
 62
     7
100
AcDbCircle
 10
-0.00000000000034
 20
-721.8369164839714
 30
0.0
 40
64.50000000000036
100
AcDbArc
 50
-171.799960701226
 51
-158.8431742796572
  0
CIRCLE
  5
372
330
4B
100
AcDbEntity
  8
0
  6
Continuous
 62
     7
100
AcDbCircle
 10
73.82489156076156
 20
-780.0252777432688
 30
0.0
 40
6.899999999997339
  0
CIRCLE
  5
373
330
4B
100
AcDbEntity
  8
1
  6
Continuous
 62
     7
100
AcDbCircle
 10
73.82489156075428
 20
-780.0252777432761
 30
0.0
 40
5.499999999999073
  0
CIRCLE
  5
374
330
4B
100
AcDbEntity
  8
0
  6
Continuous
 62
     7
100
AcDbCircle
 10
-13.48015327475912
 20
-814.8653286368681
 30
0.0
 40
6.899999999995373
  0
CIRCLE
  5
375
330
4B
100
AcDbEntity
  8
1
  6
Continuous
 62
     7
100
AcDbCircle
 10
-13.48015327476276
 20
-814.8653286368644
 30
0.0
 40
5.500000000002224
  0
CIRCLE
  5
376
330
4B
100
AcDbEntity
  8
0
  6
Continuous
 62
     7
100
AcDbCircle
 10
-87.30504483551738
 20
-756.6769673775707
 30
0.0
 40
6.899999999996075
  0
CIRCLE
  5
377
330
4B
100
AcDbEntity
  8
1
  6
Continuous
 62
     7
100
AcDbCircle
 10
-87.30504483551738
 20
-756.6769673775634
 30
0.0
 40
5.5
  0
CIRCLE
  5
378
330
4B
100
AcDbEntity
  8
0
  6
Continuous
 62
     7
100
AcDbCircle
 10
-73.8248915607586
 20
-663.648555224674
 30
0.0
 40
6.899999999995087
  0
CIRCLE
  5
379
330
4B
100
AcDbEntity
  8
1
  6
Continuous
 62
     7
100
AcDbCircle
 10
-73.82489156075133
 20
-663.6485552246704
 30
0.0
 40
5.499999999999073
  0
CIRCLE
  5
37A
330
4B
100
AcDbEntity
  8
0
  6
Continuous
 62
     7
100
AcDbCircle
 10
13.48015327475844
 20
-628.8085043310712
 30
0.0
 40
6.899999999995895
  0
CIRCLE
  5
37B
330
4B
100
AcDbEntity
  8
1
  6
Continuous
 62
     7
100
AcDbCircle
 10
13.48015327476571
 20
-628.8085043310784
 30
0.0
 40
5.500000000002223
  0
CIRCLE
  5
37C
330
4B
100
AcDbEntity
  8
1
  6
Continuous
 62
     7
100
AcDbCircle
 10
87.3050448355167
 20
-686.9968655903758
 30
0.0
 40
5.5
  0
CIRCLE
  5
37D
330
4B
100
AcDbEntity
  8
0
  6
Continuous
 62
     7
100
AcDbCircle
 10
87.3050448355167
 20
-686.9968655903685
 30
0.0
 40
6.899999999996075
  0
CIRCLE
  5
37E
330
4B
100
AcDbEntity
  8
0
  6
Continuous
 62
     7
100
AcDbCircle
 10
-0.00000000000034
 20
-721.8369164839714
 30
0.0
 40
101.7999999999976
  0
CIRCLE
  5
37F
330
4B
100
AcDbEntity
  8
0
  6
Continuous
 62
     7
100
AcDbCircle
 10
-0.00000000000034
 20
-721.8369164839714
 30
0.0
 40
124.4999999999977
  0
CIRCLE
  5
380
330
4B
100
AcDbEntity
  8
0
  6
Continuous
 62
     7
100
AcDbCircle
 10
-0.00000000000034
 20
-721.8369164839714
 30
0.0
 40
123.3859144827011
  0
SPLINE
  5
381
330
4B
100
AcDbEntity
  8
0
  6
Continuous
 62
     7
100
AcDbSpline
210
0.0
220
0.0
230
1.0
 70
     8
 71
     3
 72
    11
 73
     7
 74
     5
 42
0.0000000001
 43
0.0000000001
 44
0.00000001
 40
0.0
 40
0.0
 40
0.0
 40
0.0
 40
0.0710666732518099
 40
0.1516132822064528
 40
0.2323342454307904
 40
0.3032257578288781
 40
0.3032257578288781
 40
0.3032257578288781
 40
0.3032257578288781
 10
89.72672451690198
 20
-733.626672678969
 30
0.0
 10
89.75018035783854
 20
-733.6300573161731
 30
0.0
 10
89.80022093056532
 20
-733.63727808411
 30
0.0
 10
89.87545598086831
 20
-733.6564492771222
 30
0.0
 10
89.94782452681733
 20
-733.6844811881651
 30
0.0
 10
89.99255448810405
 20
-733.7080585638716
 30
0.0
 10
90.01346948597677
 20
-733.7190829588981
 30
0.0
 11
89.72672451690198
 21
-733.626672678969
 31
0.0
 11
89.79688445745535
 21
-733.6379888085471
 31
0.0
 11
89.8749126268118
 21
-733.6579728271863
 31
0.0
 11
89.9501712105781
 21
-733.6871621997961
 31
0.0
 11
90.01346948597677
 21
-733.7190829588981
 31
0.0
  0
SPLINE
  5
382
330
4B
100
AcDbEntity
  8
0
  6
Continuous
 62
     7
100
AcDbSpline
210
0.0
220
0.0
230
1.0
 70
     8
 71
     3
 72
    18
 73
    14
 74
    12
 42
0.0000000001
 43
0.0000000001
 44
0.00000001
 40
0.0
 40
0.0
 40
0.0
 40
0.0
 40
0.0799378774761986
 40
0.1847720433014008
 40
0.3289714865848632
 40
0.5208526455718757
 40
0.6578623695851049
 40
0.8222830153970927
 40
0.9867813589526777
 40
1.056292721957108
 40
1.118163004115679
 40
1.196580488224961
 40
1.315720882352285
 40
1.315720882352285
 40
1.315720882352285
 40
1.315720882352285
 10
90.01346948597677
 20
-733.7190829588981
 30
0.0
 10
90.03655155868535
 20
-733.7324044660778
 30
0.0
 10
90.08990451066067
 20
-733.7631964032569
 30
0.0
 10
90.1805951979048
 20
-733.8251241859339
 30
0.0
 10
90.29355183474476
 20
-733.9194575165493
 30
0.0
 10
90.4054542284445
 20
-734.0310024660454
 30
0.0
 10
90.51098095798994
 20
-734.1572171700079
 30
0.0
 10
90.605623463714
 20
-734.2804439034292
 30
0.0
 10
90.6804617071039
 20
-734.3902073365085
 30
0.0
 10
90.73539994040338
 20
-734.472114644945
 30
0.0
 10
90.7731766274997
 20
-734.5309730505146
 30
0.0
 10
90.81859341015883
 20
-734.6045642939389
 30
0.0
 10
90.85302534157199
 20
-734.6606978920215
 30
0.0
 10
90.87379006083177
 20
-734.6945501436203
 30
0.0
 11
90.01346948597677
 21
-733.7190829588981
 31
0.0
 11
90.08226367505583
 21
-733.7597944290798
 31
0.0
 11
90.16888276901086
 21
-733.8188480901574
 31
0.0
 11
90.28012051495136
 21
-733.9106067045832
 31
0.0
 11
90.41590100182896
 21
-734.0461870813251
 31
0.0
 11
90.5044454997111
 21
-734.1507410691447
 31
0.0
 11
90.60435066236425
 21
-734.2813286154287
 31
0.0
 11
90.6980541428162
 21
-734.4165298091502
 31
0.0
 11
90.7366121692527
 21
-734.4743667193725
 31
0.0
 11
90.7700607890007
 21
-734.5264159427225
 31
0.0
 11
90.81144006516037
 21
-734.593027182904
 31
0.0
 11
90.87379006083177
 21
-734.6945501436203
 31
0.0
  0
SPLINE
  5
383
330
4B
100
AcDbEntity
  8
0
  6
Continuous
 62
     7
100
AcDbSpline
210
0.0
220
0.0
230
1.0
 70
     8
 71
     3
 72
    19
 73
    15
 74
    13
 42
0.0000000001
 43
0.0000000001
 44
0.00000001
 40
0.0
 40
0.0
 40
0.0
 40
0.0
 40
0.407364993522249
 40
0.8143956493558625
 40
0.9458106961492388
 40
1.077177162271808
 40
1.148655917637409
 40
1.208578854354454
 40
1.290730077067804
 40
1.339985559615603
 40
1.412201867896318
 40
1.484440384422546
 40
1.567419941779824
 40
1.628872913979293
 40
1.628872913979293
 40
1.628872913979293
 40
1.628872913979293
 10
90.87379006083177
 20
-734.6945501436203
 30
0.0
 10
90.94498024267854
 20
-734.8101817620002
 30
0.0
 10
91.08730217827633
 20
-735.0413500961329
 30
0.0
 10
91.26865070372261
 20
-735.299807060461
 30
0.0
 10
91.4101002229281
 20
-735.4726660130361
 30
0.0
 10
91.48645087538779
 20
-735.5539852589914
 30
0.0
 10
91.55058247117515
 20
-735.6137095554733
 30
0.0
 10
91.60533376354502
 20
-735.6592339773368
 30
0.0
 10
91.65627801281958
 20
-735.6976838154163
 30
0.0
 10
91.71294118000385
 20
-735.7351088956165
 30
0.0
 10
91.76960711650999
 20
-735.7662936891929
 30
0.0
 10
91.83894695677868
 20
-735.7970312373006
 30
0.0
 10
91.90766082799803
 20
-735.8202511325235
 30
0.0
 10
91.95515394657559
 20
-735.8284335213143
 30
0.0
 10
91.97536125932277
 20
-735.8319149538729
 30
0.0
 11
90.87379006083177
 21
-734.6945501436203
 31
0.0
 11
91.09082075512889
 21
-735.039287602682
 31
0.0
 11
91.32747811110278
 21
-735.3704480632623
 31
0.0
 11
91.41124341605894
 21
-735.471706584925
 31
0.0
 11
91.50146121675755
 21
-735.5671942640183
 31
0.0
 11
91.55388188240399
 21
-735.6157873322668
 31
0.0
 11
91.59988455660607
 21
-735.6541867113119
 31
0.0
 11
91.66565381662635
 21
-735.703413003369
 31
0.0
 11
91.7068364563271
 21
-735.7304332318708
 31
0.0
 11
91.77004645691171
 21
-735.7653573067732
 31
0.0
 11
91.83608429252092
 21
-735.7946388288983
 31
0.0
 11
91.91504500758687
 21
-735.8201498542694
 31
0.0
 11
91.97536125932277
 21
-735.8319149538729
 31
0.0
  0
SPLINE
  5
384
330
4B
100
AcDbEntity
  8
0
  6
Continuous
 62
     7
100
AcDbSpline
210
0.0
220
0.0
230
1.0
 70
     8
 71
     3
 72
    11
 73
     7
 74
     5
 42
0.0000000001
 43
0.0000000001
 44
0.00000001
 40
0.0
 40
0.0
 40
0.0
 40
0.0
 40
0.2391362193913213
 40
0.4782667052095132
 40
0.759682454553585
 40
0.9562789610826299
 40
0.9562789610826299
 40
0.9562789610826299
 40
0.9562789610826299
 10
90.6157248261876
 20
-735.039097810426
 30
0.0
 10
90.57362951977113
 20
-734.9713771235597
 30
0.0
 10
90.4894399162228
 20
-734.83593737351
 30
0.0
 10
90.35212192129191
 20
-734.6236196438601
 30
0.0
 10
90.21515443926083
 20
-734.4257042429007
 30
0.0
 10
90.09665034487733
 20
-734.318580764841
 30
0.0
 10
90.04791207367418
 20
-734.2745231046138
 30
0.0
 11
90.6157248261876
 21
-735.039097810426
 31
0.0
 11
90.48887376899995
 21
-734.8363789392888
 31
0.0
 11
90.3586411113971
 21
-734.6358226027114
 31
0.0
 11
90.18952459158673
 21
-734.4108905536252
 31
0.0
 11
90.04791207367418
 21
-734.2745231046138
 31
0.0
  0
SPLINE
  5
385
330
4B
100
AcDbEntity
  8
0
  6
Continuous
 62
     7
100
AcDbSpline
210
0.0
220
0.0
230
1.0
 70
     8
 71
     3
 72
    15
 73
    11
 74
     9
 42
0.0000000001
 43
0.0000000001
 44
0.00000001
 40
0.0
 40
0.0
 40
0.0
 40
0.0
 40
0.1082164627490746
 40
0.2836004453313685
 40
0.5635304672053861
 40
0.9180057313013117
 40
1.174110824834437
 40
1.377525703576212
 40
1.602358092415098
 40
1.837105237286468
 40
1.837105237286468
 40
1.837105237286468
 40
1.837105237286468
 10
91.90288094971368
 20
-736.2669682678861
 30
0.0
 10
91.8673296040666
 20
-736.2606836641665
 30
0.0
 10
91.77416099365819
 20
-736.2442137448185
 30
0.0
 10
91.59609411185355
 20
-736.1806191132105
 30
0.0
 10
91.36476238692808
 20
-736.0362846169335
 30
0.0
 10
91.15621958766633
 20
-735.8220258061665
 30
0.0
 10
90.99022976604485
 20
-735.6073296017562
 30
0.0
 10
90.86107858034944
 20
-735.4192102676661
 30
0.0
 10
90.7388577413717
 20
-735.2350803353813
 30
0.0
 10
90.65735523039184
 20
-735.105358174023
 30
0.0
 10
90.6157248261876
 20
-735.039097810426
 30
0.0
 11
91.90288094971368
 21
-736.2669682678861
 31
0.0
 11
91.79674457392105
 21
-736.2458525736392
 31
0.0
 11
91.63117705066509
 21
-736.1879998590157
 31
0.0
 11
91.39241707942267
 21
-736.0418680921794
 31
0.0
 11
91.13941092832795
 21
-735.7935928409679
 31
0.0
 11
90.9816547042143
 21
-735.5918435096505
 31
0.0
 11
90.8655430796822
 21
-735.4248234403713
 31
0.0
 11
90.74145600707617
 21
-735.237334770092
 31
0.0
 11
90.6157248261876
 21
-735.039097810426
 31
0.0
  0
SPLINE
  5
386
330
4B
100
AcDbEntity
  8
0
  6
Continuous
 62
     7
100
AcDbSpline
210
0.0
220
0.0
230
1.0
 70
     8
 71
     3
 72
    39
 73
    35
 74
    33
 42
0.0000000001
 43
0.0000000001
 44
0.00000001
 40
0.0
 40
0.0
 40
0.0
 40
0.0
 40
0.0312232123363286
 40
0.0624119636268985
 40
0.0926110070693667
 40
0.1228421662250488
 40
0.1528190601008474
 40
0.1827673314943666
 40
0.2119273021120531
 40
0.2411120261809018
 40
0.2703049737394752
 40
0.2994758732907574
 40
0.3289402038553013
 40
0.358426007877562
 40
0.3884919318154629
 40
0.4185375643320839
 40
0.4495742804650328
 40
0.4806271851665632
 40
0.5117882995638191
 40
0.5429482436440687
 40
0.5738690934444637
 40
0.6047724568699073
 40
0.6356119917978087
 40
0.6664778743083477
 40
0.6978396191516699
 40
0.7291779682126016
 40
0.7611864550150519
 40
0.7932062748576799
 40
0.825989748446782
 40
0.8587814475162606
 40
0.8930869416027184
 40
0.9273682713033892
 40
0.9629554988066579
 40
0.9985733607338865
 40
0.9985733607338865
 40
0.9985733607338865
 40
0.9985733607338865
 10
91.97536125932277
 20
-735.8319149538729
 30
0.0
 10
91.9856933211132
 20
-735.8331671919748
 30
0.0
 10
92.00634604120201
 20
-735.8356702860839
 30
0.0
 10
92.03711068021944
 20
-735.8383921321001
 30
0.0
 10
92.06766065219617
 20
-735.839137355232
 30
0.0
 10
92.09779415528027
 20
-735.8383343309285
 30
0.0
 10
92.12779003539052
 20
-735.8363530011901
 30
0.0
 10
92.1572941169341
 20
-735.8328179432298
 30
0.0
 10
92.18623653811304
 20
-735.8273728535902
 30
0.0
 10
92.21459325038802
 20
-735.8204536445949
 30
0.0
 10
92.24264442696176
 20
-735.8123727805713
 30
0.0
 10
92.27034372639409
 20
-735.8028435705262
 30
0.0
 10
92.29750083516112
 20
-735.7916062366453
 30
0.0
 10
92.32432604693473
 20
-735.7789045097165
 30
0.0
 10
92.35080770891327
 20
-735.7650765220709
 30
0.0
 10
92.37700933100668
 20
-735.7496606219696
 30
0.0
 10
92.4024633853287
 20
-735.732442231345
 30
0.0
 10
92.42726617437044
 20
-735.7136899017196
 30
0.0
 10
92.45129734302523
 20
-735.6938953354725
 30
0.0
 10
92.47438055119025
 20
-735.6730657693037
 30
0.0
 10
92.49637564576777
 20
-735.651208976513
 30
0.0
 10
92.51700369834343
 20
-735.6281884861985
 30
0.0
 10
92.53599986837486
 20
-735.6038306238119
 30
0.0
 10
92.55385621548476
 20
-735.5784549835269
 30
0.0
 10
92.57102329513391
 20
-735.55240871953
 30
0.0
 10
92.58714867155102
 20
-735.5252476410323
 30
0.0
 10
92.60160654787904
 20
-735.496912984653
 30
0.0
 10
92.61461381938392
 20
-735.4673634760333
 30
0.0
 10
92.62619655344743
 20
-735.4369507622055
 30
0.0
 10
92.63676478980088
 20
-735.4053725510549
 30
0.0
 10
92.64649026653754
 20
-735.3730026925025
 30
0.0
 10
92.65501762005428
 20
-735.3393235547817
 30
0.0
 10
92.66168488121585
 20
-735.3047855876073
 30
0.0
 10
92.66550295561898
 20
-735.2813598046262
 30
0.0
 10
92.66741281414181
 20
-735.2696418739215
 30
0.0
 11
91.97536125932277
 21
-735.8319149538729
 31
0.0
 11
92.0063774760953
 21
-735.8355042832976
 31
0.0
 11
92.0374593230354
 21
-735.8380843991587
 31
0.0
 11
92.06764787678449
 21
-735.8388802932337
 31
0.0
 11
92.09786980587936
 21
-735.8381333088422
 31
0.0
 11
92.12777676599094
 21
-735.8360868721037
 31
0.0
 11
92.15750375667565
 21
-735.832453005803
 31
0.0
 11
92.18617213268122
 21
-735.8271212046413
 31
0.0
 11
92.21453907778866
 21
-735.820260844283
 31
0.0
 11
92.24257809495639
 21
-735.8121342396153
 31
0.0
 11
92.27014668100277
 21
-735.8025993330067
 31
0.0
 11
92.29739367552871
 21
-735.791385588542
 31
0.0
 11
92.32406670335277
 21
-735.7788172861293
 31
0.0
 11
92.35069187658605
 21
-735.7648509003213
 31
0.0
 11
92.37655900780318
 21
-735.7495658894964
 31
0.0
 11
92.40229928937748
 21
-735.73222473461
 31
0.0
 11
92.42710386841964
 21
-735.7135427714117
 31
0.0
 11
92.45114491788905
 21
-735.693717459538
 31
0.0
 11
92.47426745359435
 21
-735.6728298924791
 31
0.0
 11
92.49616428333528
 21
-735.6509980854152
 31
0.0
 11
92.51674739163093
 21
-735.6279469786327
 31
0.0
 11
92.535790122036
 21
-735.6036889627763
 31
0.0
 11
92.55363263370965
 21
-735.5785027069941
 31
0.0
 11
92.57082032583035
 21
-735.5522702408656
 31
0.0
 11
92.58674527746703
 21
-735.5252797233227
 31
0.0
 11
92.60132885717111
 21
-735.4967865236007
 31
0.0
 11
92.61426322527035
 21
-735.4674953818574
 31
0.0
 11
92.62598459263464
 21
-735.4368789534622
 31
0.0
 11
92.63644634008458
 21
-735.4058008684478
 31
0.0
 11
92.6462510656555
 21
-735.3729263451662
 31
0.0
 11
92.6545969936068
 21
-735.3396764571562
 31
0.0
 11
92.66151248226438
 21
-735.3047676219136
 31
0.0
 11
92.66741281414181
 21
-735.2696418739215
 31
0.0
  0
SPLINE
  5
387
330
4B
100
AcDbEntity
  8
0
  6
Continuous
 62
     7
100
AcDbSpline
210
0.0
220
0.0
230
1.0
 70
     8
 71
     3
 72
    24
 73
    20
 74
    18
 42
0.0000000001
 43
0.0000000001
 44
0.00000001
 40
0.0
 40
0.0
 40
0.0
 40
0.0
 40
0.0508778541445553
 40
0.1089926109576754
 40
0.1762796187102999
 40
0.2552221642585691
 40
0.3541845089952108
 40
0.4528488093852518
 40
0.5518676572346076
 40
0.6506946517290645
 40
0.7493617373674638
 40
0.8484790128942102
 40
0.8597637687189952
 40
0.8858748027945503
 40
0.9251690320886983
 40
0.9761120724997847
 40
1.018785634648468
 40
1.058992235270784
 40
1.103714671429638
 40
1.103714671429638
 40
1.103714671429638
 40
1.103714671429638
 10
92.66741281414181
 20
-735.2696418739215
 30
0.0
 10
92.66946985053053
 20
-735.252807264369
 30
0.0
 10
92.67387651764753
 20
-735.2167434782601
 30
0.0
 10
92.67812222679441
 20
-735.1580867054972
 30
0.0
 10
92.67705367588064
 20
-735.0898814116641
 30
0.0
 10
92.66801873909088
 20
-735.0085125178061
 30
0.0
 10
92.64586789227819
 20
-734.9185859879228
 30
0.0
 10
92.60595358096343
 20
-734.8276284235752
 30
0.0
 10
92.55233341392835
 20
-734.7440842817609
 30
0.0
 10
92.48516149828212
 20
-734.6708950604398
 30
0.0
 10
92.40661681163958
 20
-734.6101216781462
 30
0.0
 10
92.34534453360817
 20
-734.576402138101
 30
0.0
 10
92.30413186065475
 20
-734.5571121432558
 30
0.0
 10
92.28056268363638
 20
-734.5471877305158
 30
0.0
 10
92.24420837294826
 20
-734.5336439429963
 30
0.0
 10
92.20194290401965
 20
-734.5202881726868
 30
0.0
 10
92.15878336072663
 20
-734.5089319912543
 30
0.0
 10
92.11708546213134
 20
-734.5004586355014
 30
0.0
 10
92.08917779998508
 20
-734.4957032157836
 30
0.0
 10
92.07448201764748
 20
-734.4931990786499
 30
0.0
 11
92.66741281414181
 21
-735.2696418739215
 31
0.0
 11
92.67319571339783
 21
-735.2190937372739
 31
0.0
 11
92.67711181987363
 21
-735.161111075473
 31
0.0
 11
92.67613563295286
 21
-735.0938311492587
 31
0.0
 11
92.66724165201924
 21
-735.0153912193709
 31
0.0
 11
92.64314517783316
 21
-734.9194073373512
 31
0.0
 11
92.60372202689022
 21
-734.828961445564
 31
0.0
 11
92.55003384394479
 21
-734.7457610174315
 31
0.0
 11
92.48323282750015
 21
-734.6729297120555
 31
0.0
 11
92.40534477974245
 21
-734.6123603649824
 31
0.0
 11
92.31881811803362
 21
-734.5640139988172
 31
0.0
 11
92.30858933852728
 21
-734.5592476811782
 31
0.0
 11
92.28456079933869
 21
-734.5490292955446
 31
0.0
 11
92.24775341854871
 21
-734.5352723636482
 31
0.0
 11
92.19918811423815
 21
-734.5198904072204
 31
0.0
 11
92.1578939669518
 21
-734.5091281441521
 31
0.0
 11
92.11852649412693
 21
-734.5009566805754
 31
0.0
 11
92.07448201764748
 21
-734.4931990786499
 31
0.0
  0
SPLINE
  5
388
330
4B
100
AcDbEntity
  8
0
  6
Continuous
 62
     7
100
AcDbSpline
210
0.0
220
0.0
230
1.0
 70
     8
 71
     3
 72
    39
 73
    35
 74
    33
 42
0.0000000001
 43
0.0000000001
 44
0.00000001
 40
0.0
 40
0.0
 40
0.0
 40
0.0
 40
0.0603117730424048
 40
0.1206030355236273
 40
0.1777326189681484
 40
0.2348694222640788
 40
0.2894329758052687
 40
0.3440033194640856
 40
0.3964207826226957
 40
0.4488221181918854
 40
0.4995937423645273
 40
0.5503796535558192
 40
0.5999419239007715
 40
0.6494961420458325
 40
0.6982209997603888
 40
0.7469416839836435
 40
0.7957559278396034
 40
0.8445839698096566
 40
0.89349276081258
 40
0.9423836300947568
 40
0.9914996682909625
 40
1.040636060275808
 40
1.090544056852107
 40
1.140427671606333
 40
1.191601659114816
 40
1.242807508714729
 40
1.295979147159332
 40
1.349113714056051
 40
1.404216501571429
 40
1.459358785703731
 40
1.517299303939724
 40
1.575202549968176
 40
1.635567277173954
 40
1.695968970045337
 40
1.695968970045337
 40
1.695968970045337
 40
1.695968970045337
 10
92.18197961887893
 20
-734.0645536749034
 30
0.0
 10
92.20143740998296
 20
-734.0696095148214
 30
0.0
 10
92.24034637507143
 20
-734.07971947529
 30
0.0
 10
92.29733988567722
 20
-734.0959430637846
 30
0.0
 10
92.35254891631305
 20
-734.114381030774
 30
0.0
 10
92.40509356537854
 20
-734.1345871803231
 30
0.0
 10
92.45589317099325
 20
-734.1567934231591
 30
0.0
 10
92.5042927308638
 20
-734.1804354560034
 30
0.0
 10
92.5510789629824
 20
-734.2056433926576
 30
0.0
 10
92.59553393183693
 20
-734.2324047017885
 30
0.0
 10
92.63798274898261
 20
-734.2612901594825
 30
0.0
 10
92.67815146933492
 20
-734.2917182361173
 30
0.0
 10
92.71655261275228
 20
-734.3237176943985
 30
0.0
 10
92.75276962796951
 20
-734.3571734524569
 30
0.0
 10
92.78686821134974
 20
-734.3923986687172
 30
0.0
 10
92.81873401476038
 20
-734.4293340559168
 30
0.0
 10
92.84836357520012
 20
-734.4681280439507
 30
0.0
 10
92.87590137584544
 20
-734.5085008738091
 30
0.0
 10
92.90149206199811
 20
-734.5501646714215
 30
0.0
 10
92.92490070593892
 20
-734.5932093475952
 30
0.0
 10
92.94581080955858
 20
-734.6376051695955
 30
0.0
 10
92.96452618655005
 20
-734.6833281376443
 30
0.0
 10
92.98121676137524
 20
-734.7301003174106
 30
0.0
 10
92.9956963544553
 20
-734.7783209793729
 30
0.0
 10
93.00750974287989
 20
-734.8277064231382
 30
0.0
 10
93.0173055628025
 20
-734.8786339953571
 30
0.0
 10
93.02554025609602
 20
-734.9304995154747
 30
0.0
 10
93.0315919261914
 20
-734.9839870322
 30
0.0
 10
93.03459164771704
 20
-735.0383909976017
 30
0.0
 10
93.03523934806742
 20
-735.0944589076016
 30
0.0
 10
93.03422782798103
 20
-735.151454312247
 30
0.0
 10
93.0309685210984
 20
-735.2101199246462
 30
0.0
 10
93.02490166134973
 20
-735.2693816443568
 30
0.0
 10
93.01985368497321
 20
-735.3093192303077
 30
0.0
 10
93.01732892421171
 20
-735.3292941355758
 30
0.0
 11
92.18197961887893
 21
-734.0645536749034
 31
0.0
 11
92.2402941733569
 21
-734.0799459685452
 31
0.0
 11
92.29821782878656
 21
-734.0966757764713
 31
0.0
 11
92.35240235037809
 21
-734.1147817678676
 31
0.0
 11
92.40572770284648
 21
-734.1353005659562
 31
0.0
 11
92.45572929571338
 21
-734.1571414012382
 31
0.0
 11
92.50476910402415
 21
-734.1810792292074
 31
0.0
 11
92.55087879901713
 21
-734.2060088596025
 31
0.0
 11
92.595733355198
 21
-734.2331007174062
 31
0.0
 11
92.63772731788401
 21
-734.2616360449679
 31
0.0
 11
92.67822913348971
 21
-734.2922760793701
 31
0.0
 11
92.71627705125547
 21
-734.3240372914918
 31
0.0
 11
92.7526477617775
 21
-734.3576942662829
 31
0.0
 11
92.78652584272993
 21
-734.3927140805355
 31
0.0
 11
92.81833805421579
 21
-734.4296151411105
 31
0.0
 11
92.84800612116099
 21
-734.4683789929181
 31
0.0
 11
92.87555987377019
 21
-734.5086898897052
 31
0.0
 11
92.90112355025416
 21
-734.5503860319967
 31
0.0
 11
92.92444468035418
 21
-734.5933562774001
 31
0.0
 11
92.94542025709497
 21
-734.637768104524
 31
0.0
 11
92.9640814251514
 21
-734.6832229813147
 31
0.0
 11
92.98081618273486
 21
-734.7302416585704
 31
0.0
 11
92.99512129401108
 21
-734.7780301384827
 31
0.0
 11
93.00713355079297
 21
-734.8277743108501
 31
0.0
 11
93.01691310108095
 21
-734.87803761187
 31
0.0
 11
93.02514893268236
 21
-734.9305675482179
 31
0.0
 11
93.03101908102813
 21
-734.98337686139
 31
0.0
 11
93.03419131344218
 21
-735.0383882614219
 31
0.0
 11
93.03496595037329
 21
-735.0935251042491
 31
0.0
 11
93.03386301328085
 21
-735.1514551239559
 31
0.0
 11
93.03057580674522
 21
-735.2092649862099
 31
0.0
 11
93.02466624552952
 21
-735.2693397511022
 31
0.0
 11
93.01732892421171
 21
-735.3292941355758
 31
0.0
  0
SPLINE
  5
389
330
4B
100
AcDbEntity
  8
0
  6
Continuous
 62
     7
100
AcDbSpline
210
0.0
220
0.0
230
1.0
 70
     8
 71
     3
 72
    37
 73
    33
 74
    31
 42
0.0000000001
 43
0.0000000001
 44
0.00000001
 40
0.0
 40
0.0
 40
0.0
 40
0.0
 40
0.0124083622938781
 40
0.0340354548870299
 40
0.0638180645413053
 40
0.1007066596832777
 40
0.1436704959846182
 40
0.1917030036855336
 40
0.2438287472597453
 40
0.2991127560966199
 40
0.3566732199307515
 40
0.4722610300417679
 40
0.5874331804942765
 40
0.7023955299482951
 40
0.8176981844911886
 40
0.8265720949639631
 40
0.8498622721528565
 40
0.885762996057126
 40
0.9325515112446533
 40
0.9886119963467647
 40
1.05246685287993
 40
1.122817457848926
 40
1.19859626212187
 40
1.279031092406957
 40
1.346539024926812
 40
1.40941692895141
 40
1.466869850766867
 40
1.517948504072869
 40
1.56158091043254
 40
1.596597982267283
 40
1.621754207669214
 40
1.635746639133245
 40
1.635746639133245
 40
1.635746639133245
 40
1.635746639133245
 10
93.01732892421171
 20
-735.3292941355758
 30
0.0
 10
93.01670183389498
 20
-735.3333824324926
 30
0.0
 10
93.01498175966765
 20
-735.3445964059389
 30
0.0
 10
93.0117228034203
 20
-735.3656183702034
 30
0.0
 10
93.00668071813462
 20
-735.3946181847604
 30
0.0
 10
92.99969152489061
 20
-735.4304917041436
 30
0.0
 10
92.99048388128736
 20
-735.4721191940779
 30
0.0
 10
92.97882388178968
 20
-735.5183879620035
 30
0.0
 10
92.96446001338545
 20
-735.568182712281
 30
0.0
 10
92.9471566536086
 20
-735.6203988413166
 30
0.0
 10
92.91986799411038
 20
-735.6915092600858
 30
0.0
 10
92.87866133677427
 20
-735.7785558117887
 30
0.0
 10
92.81830479365158
 20
-735.87694840382
 30
0.0
 10
92.74749946827424
 20
-735.9682200749078
 30
0.0
 10
92.68972234301754
 20
-736.0234136919105
 30
0.0
 10
92.65338268676892
 20
-736.0565130815485
 30
0.0
 10
92.6360564240145
 20
-736.0711728621947
 30
0.0
 10
92.60827463830543
 20
-736.0930068891223
 30
0.0
 10
92.5706142252114
 20
-736.1198878650694
 30
0.0
 10
92.52374137393527
 20
-736.1497864494886
 30
0.0
 10
92.46827370610362
 20
-736.1806304759957
 30
0.0
 10
92.40483248941091
 20
-736.2103532548626
 30
0.0
 10
92.33403472175789
 20
-736.2369049421743
 30
0.0
 10
92.26197731921181
 20
-736.2565859248876
 30
0.0
 10
92.1927438348362
 20
-736.2690156193759
 30
0.0
 10
92.13045477762617
 20
-736.2757967802476
 30
0.0
 10
92.07334782001303
 20
-736.2784506238775
 30
0.0
 10
92.02260616071969
 20
-736.2780793077875
 30
0.0
 10
91.97941435913077
 20
-736.2757328461505
 30
0.0
 10
91.94495308220803
 20
-736.2725220359218
 30
0.0
 10
91.92042879440181
 20
-736.2693858072618
 30
0.0
 10
91.9075014236606
 20
-736.2676048234232
 30
0.0
 10
91.90288094971368
 20
-736.2669682678861
 30
0.0
 11
93.01732892421171
 21
-735.3292941355758
 31
0.0
 11
93.01544526182563
 21
-735.3415586890055
 31
0.0
 11
93.01208435524853
 21
-735.3629230387736
 31
0.0
 11
93.00699806059203
 21
-735.3922681140757
 31
0.0
 11
92.99993823396763
 21
-735.4284748441073
 31
0.0
 11
92.99065673148691
 21
-735.4704241580639
 31
0.0
 11
92.97890540926144
 21
-735.5169969851414
 31
0.0
 11
92.96443612340278
 21
-735.5670742545349
 31
0.0
 11
92.94700073002248
 21
-735.6195368954401
 31
0.0
 11
92.92635108523211
 21
-735.6732658370529
 31
0.0
 11
92.87676880299261
 21
-735.7776791462342
 31
0.0
 11
92.816516408359
 21
-735.8758334797135
 31
0.0
 11
92.74546669680342
 21
-735.9662120185369
 31
0.0
 11
92.66349246379798
 21
-736.0472979437509
 31
0.0
 11
92.65691532878373
 21
-736.0532550892152
 31
0.0
 11
92.63919697025752
 21
-736.0683710451766
 31
0.0
 11
92.61098409539765
 21
-736.0905722989473
 31
0.0
 11
92.57292341138239
 21
-736.1177853378395
 31
0.0
 11
92.52566162539004
 21
-736.1479366491658
 31
0.0
 11
92.46984544459882
 21
-736.1789527202379
 31
0.0
 11
92.4061215761871
 21
-736.2087600383687
 31
0.0
 11
92.33513672733311
 21
-736.2352850908703
 31
0.0
 11
92.25753760521513
 21
-736.2564543650551
 31
0.0
 11
92.19111116100848
 21
-736.2684896657645
 31
0.0
 11
92.12860481588753
 21
-736.2753151792358
 31
0.0
 11
92.0712148577764
 21
-736.2780042186806
 31
0.0
 11
92.02013757459929
 21
-736.2776300973096
 31
0.0
 11
91.97656925428032
 21
-736.2752661283337
 31
0.0
 11
91.94170618474362
 21
-736.2719856249639
 31
0.0
 11
91.91674465391336
 21
-736.268861900411
 31
0.0
 11
91.90288094971368
 21
-736.2669682678861
 31
0.0
  0
ENDBLK
  5
4D
330
4B
100
AcDbEntity
  8
0
100
AcDbBlockEnd
  0
BLOCK
  5
4F
330
4E
100
AcDbEntity
  8
0
100
AcDbBlockBegin
  2
_X0
 70
     0
 71
     0
 10
337.961464640079
 20
-415.845958
 30
0.0
  3
_X0
  1

  0
LINE
  5
38A
330
4E
100
AcDbEntity
  8
LC-003-005-----0
  6
Continuous
 62
     2
100
AcDbLine
 10
-56.36509599999999
 20
30.70072800000003
 30
0.0
 11
-56.19726400000002
 21
30.86856
 31
0.0
  0
LINE
  5
38B
330
4E
100
AcDbEntity
  8
LC-003-005-----0
  6
Continuous
 62
     2
100
AcDbLine
 10
-56.99637900000005
 20
32.897873
 30
0.0
 11
-56.19726400000002
 21
33.69698700000004
 31
0.0
  0
LINE
  5
38C
330
4E
100
AcDbEntity
  8
LC-003-005-----0
  6
Continuous
 62
     2
100
AcDbLine
 10
-43.09121599999992
 20
66.60202500000003
 30
0.0
 11
-42.20445099999995
 21
67.48879
 31
0.0
  0
LINE
  5
38D
330
4E
100
AcDbEntity
  8
LC-003-005-----0
  6
Continuous
 62
     2
100
AcDbLine
 10
-44.04776099999992
 20
68.473907
 30
0.0
 11
-41.72823899999992
 21
70.793429
 31
0.0
  0
ENDBLK
  5
50
330
4E
100
AcDbEntity
  8
0
100
AcDbBlockEnd
  0
BLOCK
  5
52
330
51
100
AcDbEntity
  8
0
100
AcDbBlockBegin
  2
_X1
 70
     0
 71
     0
 10
337.961464640079
 20
-415.845958
 30
0.0
  3
_X1
  1

  0
LINE
  5
38E
330
51
100
AcDbEntity
  8
LC-003-005-----0
  6
Continuous
 62
     2
100
AcDbLine
 10
56.71064800000011
 20
30.639387
 30
0.0
 11
57.520487
 21
31.44922600000001
 31
0.0
  0
LINE
  5
38F
330
51
100
AcDbEntity
  8
LC-003-005-----0
  6
Continuous
 62
     2
100
AcDbLine
 10
56.19404700000007
 20
32.951213
 30
0.0
 11
56.76572799999997
 21
33.52289400000001
 31
0.0
  0
LINE
  5
390
330
51
100
AcDbEntity
  8
LC-003-005-----0
  6
Continuous
 62
     2
100
AcDbLine
 10
44.36496599999998
 20
66.37696700000004
 30
0.0
 11
44.689573
 21
66.701573
 31
0.0
  0
LINE
  5
391
330
51
100
AcDbEntity
  8
LC-003-005-----0
  6
Continuous
 62
     2
100
AcDbLine
 10
42.32051100000001
 20
67.16093800000004
 30
0.0
 11
43.93481299999996
 21
68.775241
 31
0.0
  0
LINE
  5
392
330
51
100
AcDbEntity
  8
LC-003-005-----0
  6
Continuous
 62
     2
100
AcDbLine
 10
41.56575099999998
 20
69.23460600000004
 30
0.0
 11
43.1246910000001
 21
70.79354599999999
 31
0.0
  0
ENDBLK
  5
53
330
51
100
AcDbEntity
  8
0
100
AcDbBlockEnd
  0
BLOCK
  5
58
330
54
100
AcDbEntity
  8
0
100
AcDbBlockBegin
  2
TOP
 70
     0
 71
     0
 10
337.961464640079
 20
-415.845958
 30
0.0
  3
TOP
  1

  0
INSERT
  5
55
330
54
100
AcDbEntity
  8
0
100
AcDbBlockReference
  2
Draufsicht
 10
-96.5568056801967
 20
-898.8369164839714
 30
0.0
  0
INSERT
  5
56
330
54
100
AcDbEntity
  8
LC-003-005-----0
100
AcDbBlockReference
  2
_X0
 10
337.961464640079
 20
-415.845958
 30
0.0
  0
INSERT
  5
57
330
54
100
AcDbEntity
  8
LC-003-005-----0
100
AcDbBlockReference
  2
_X1
 10
337.961464640079
 20
-415.845958
 30
0.0
  0
POINT
  5
393
330
54
100
AcDbEntity
  8
LC-006-003-----0
 62
     7
100
AcDbPoint
 10
-62.5
 20
-47.18767700000001
 30
0.0
  0
POINT
  5
394
330
54
100
AcDbEntity
  8
LC-006-003-----0
 62
     7
100
AcDbPoint
 10
62.5
 20
-47.18767700000001
 30
0.0
  0
POINT
  5
395
330
54
100
AcDbEntity
  8
LC-006-003-----0
 62
     7
100
AcDbPoint
 10
80.25
 20
-47.18767700000001
 30
0.0
  0
POINT
  5
396
330
54
100
AcDbEntity
  8
LC-006-003-----0
 62
     7
100
AcDbPoint
 10
26.79422899999997
 20
-348.236469
 30
0.0
  0
POINT
  5
397
330
54
100
AcDbEntity
  8
LC-006-003-----0
 62
     7
100
AcDbPoint
 10
-177.0
 20
-6.236469
 30
0.0
  0
POINT
  5
398
330
54
100
AcDbEntity
  8
LC-006-003-----0
 62
     7
100
AcDbPoint
 10
177.0000000000001
 20
-6.236469
 30
0.0
  0
POINT
  5
399
330
54
100
AcDbEntity
  8
LC-006-003-----0
 62
     7
100
AcDbPoint
 10
-231.995428
 20
0.0
 30
0.0
  0
POINT
  5
39A
330
54
100
AcDbEntity
  8
LC-006-003-----0
 62
     7
100
AcDbPoint
 10
231.9937100000001
 20
0.0
 30
0.0
  0
POINT
  5
39B
330
54
100
AcDbEntity
  8
LC-006-003-----0
 62
     7
100
AcDbPoint
 10
-28.0
 20
-343.736469
 30
0.0
  0
POINT
  5
39C
330
54
100
AcDbEntity
  8
LC-006-003-----0
 62
     7
100
AcDbPoint
 10
28.0
 20
-343.736469
 30
0.0
  0
POINT
  5
39D
330
54
100
AcDbEntity
  8
LC-006-003-----0
 62
     7
100
AcDbPoint
 10
-34.98731599999996
 20
-334.678598
 30
0.0
  0
POINT
  5
39E
330
54
100
AcDbEntity
  8
LC-006-003-----0
 62
     7
100
AcDbPoint
 10
34.98359400000004
 20
-334.61775
 30
0.0
  0
POINT
  5
39F
330
54
100
AcDbEntity
  8
LC-006-003-----0
 62
     7
100
AcDbPoint
 10
25.0
 20
-348.236469
 30
0.0
  0
POINT
  5
3A0
330
54
100
AcDbEntity
  8
LC-006-003-----0
 62
     7
100
AcDbPoint
 10
34.50070500000004
 20
-112.236321
 30
0.0
  0
POINT
  5
3A1
330
54
100
AcDbEntity
  8
LC-006-003-----0
 62
     7
100
AcDbPoint
 10
25.0
 20
-348.236469
 30
0.0
  0
POINT
  5
3A2
330
54
100
AcDbEntity
  8
LC-006-003-----0
 62
     7
100
AcDbPoint
 10
175.0000000000001
 20
-3.236469
 30
0.0
  0
LINE
  5
3A3
330
54
100
AcDbEntity
  8
LC-001-002-----0
  6
Continuous
 62
     7
100
AcDbLine
 10
-47.69903140939145
 20
5.61161000000004
 30
0.0
 11
-40.21684100000005
 21
30.43110400000001
 31
0.0
  0
LINE
  5
3A4
330
54
100
AcDbEntity
  8
LC-001-002-----0
  6
Continuous
 62
     7
100
AcDbLine
 10
-46.0675195999048
 20
5.61161000000004
 30
0.0
 11
-38.57226899999989
 21
30.43110400000001
 31
0.0
  0
LINE
  5
3A5
330
54
100
AcDbEntity
  8
LC-001-002-----0
  6
Continuous
 62
     7
100
AcDbLine
 10
46.06441645721837
 20
5.61161000000004
 30
0.0
 11
38.56905900000004
 21
30.43121000000002
 31
0.0
  0
LINE
  5
3A6
330
54
100
AcDbEntity
  8
LC-001-002-----0
  6
Continuous
 62
     7
100
AcDbLine
 10
47.6959294883121
 20
5.61161000000004
 30
0.0
 11
40.21363099999996
 21
30.43121400000001
 31
0.0
  0
LINE
  5
3A7
330
54
100
AcDbEntity
  8
LC-001-002-----0
  6
Continuous
 62
     7
100
AcDbLine
 10
-100.260972
 20
0.00412500053426
 30
0.0
 11
-100.260972
 21
1.53870500053381
 31
0.0
  0
LINE
  5
3A8
330
54
100
AcDbEntity
  8
LC-001-002-----0
  6
Continuous
 62
     7
100
AcDbLine
 10
-87.76097200000004
 20
0.00417700053367
 30
0.0
 11
-87.76097200000004
 21
1.53867900053228
 31
0.0
  0
LINE
  5
3A9
330
54
100
AcDbEntity
  8
LC-001-002-----0
  6
Continuous
 62
     7
100
AcDbLine
 10
-100.260972
 20
0.00412500053426
 30
0.0
 11
-87.76097200000004
 21
0.00417700053367
 31
0.0
  0
LINE
  5
3AA
330
54
100
AcDbEntity
  8
LC-001-002-----0
  6
Continuous
 62
     7
100
AcDbLine
 10
-97.76097200000004
 20
0.00412800053164
 30
0.0
 11
-98.98979800000234
 21
0.00412000053257
 31
0.0
  0
LINE
  5
3AB
330
54
100
AcDbEntity
  8
LC-001-002-----0
  6
Continuous
 62
     7
100
AcDbLine
 10
-90.26097200000004
 20
0.004175000533
 30
0.0
 11
-88.01097600000139
 21
0.0041890005341
 31
0.0
  0
LINE
  5
3AC
330
54
100
AcDbEntity
  8
LC-001-002-----0
  6
Continuous
 62
     7
100
AcDbLine
 10
-100.2609680000023
 20
0.00412500053426
 30
0.0
 11
-100.2609680000023
 21
0.00404200053163
 31
0.0
  0
LINE
  5
3AD
330
54
100
AcDbEntity
  8
LC-001-002-----0
  6
Continuous
 62
     7
100
AcDbLine
 10
-90.86097200000222
 20
0.00404200053163
 30
0.0
 11
-87.76096800000232
 21
0.00404200053163
 31
0.0
  0
LINE
  5
3AE
330
54
100
AcDbEntity
  8
LC-001-002-----0
  6
Continuous
 62
     7
100
AcDbLine
 10
-100.2609680000023
 20
0.00404200053163
 30
0.0
 11
-97.1609720000015
 21
0.00404200053163
 31
0.0
  0
LINE
  5
3AF
330
54
100
AcDbEntity
  8
LC-001-002-----0
  6
Continuous
 62
     7
100
AcDbLine
 10
-40.74993395544516
 20
0.99366702886618
 30
0.0
 11
-40.74993395544516
 21
0.99366702940097
 31
0.0
  0
LINE
  5
3B0
330
54
100
AcDbEntity
  8
LC-001-002-----0
  6
Continuous
 62
     7
100
AcDbLine
 10
-53.24993398117294
 20
0.99363994148007
 30
0.0
 11
-53.24991000000227
 21
1.53480400053377
 31
0.0
  0
LINE
  5
3B1
330
54
100
AcDbEntity
  8
LC-001-002-----0
  6
Continuous
 62
     7
100
AcDbLine
 10
-40.74993395544516
 20
0.99366702940097
 30
0.0
 11
-40.74991000000227
 21
1.53427800053396
 31
0.0
  0
LINE
  5
3B2
330
54
100
AcDbEntity
  8
LC-001-002-----0
  6
Continuous
 62
     7
100
AcDbLine
 10
-40.74997799999983
 20
-0.00030199946559
 30
0.0
 11
-40.74993395544516
 21
0.99366702886618
 31
0.0
  0
LINE
  5
3B3
330
54
100
AcDbEntity
  8
LC-001-002-----0
  6
Continuous
 62
     7
100
AcDbLine
 10
-53.24997799999983
 20
0.00030200053152
 30
0.0
 11
-53.24993398117294
 21
0.99363994148007
 31
0.0
  0
LINE
  5
3B4
330
54
100
AcDbEntity
  8
LC-001-002-----0
  6
Continuous
 62
     7
100
AcDbLine
 10
-40.74997799999983
 20
-0.00030199946559
 30
0.0
 11
-53.24997799999983
 21
0.00030200053152
 31
0.0
  0
LINE
  5
3B5
330
54
100
AcDbEntity
  8
LC-001-002-----0
  6
Continuous
 62
     7
100
AcDbLine
 10
-43.24997799999983
 20
-0.00018899946735
 30
0.0
 11
-42.02115200000117
 21
-0.00025099946652
 31
0.0
  0
LINE
  5
3B6
330
54
100
AcDbEntity
  8
LC-001-002-----0
  6
Continuous
 62
     7
100
AcDbLine
 10
-50.74997799999983
 20
0.00018900053328
 30
0.0
 11
-52.99997400000211
 21
0.00030300053186
 31
0.0
  0
LINE
  5
3B7
330
54
100
AcDbEntity
  8
LC-001-002-----0
  6
Continuous
 62
     7
100
AcDbLine
 10
-53.24997799999983
 20
0.00404200053163
 30
0.0
 11
-53.26087200000256
 21
0.00404200053163
 31
0.0
  0
LINE
  5
3B8
330
54
100
AcDbEntity
  8
LC-001-002-----0
  6
Continuous
 62
     7
100
AcDbLine
 10
53.25000005355105
 20
0.99387005978497
 30
0.0
 11
53.25000005355105
 21
0.99387006031975
 31
0.0
  0
LINE
  5
3B9
330
54
100
AcDbEntity
  8
LC-001-002-----0
  6
Continuous
 62
     7
100
AcDbLine
 10
40.75000002781962
 20
0.99384285078486
 30
0.0
 11
40.75000002781962
 21
0.99384285131964
 31
0.0
  0
LINE
  5
3BA
330
54
100
AcDbEntity
  8
LC-001-002-----0
  6
Continuous
 62
     7
100
AcDbLine
 10
40.75000002781962
 20
0.99384285131964
 30
0.0
 11
40.75002399999721
 21
1.53480400053377
 31
0.0
  0
LINE
  5
3BB
330
54
100
AcDbEntity
  8
LC-001-002-----0
  6
Continuous
 62
     7
100
AcDbLine
 10
53.25000005355105
 20
0.99387006031975
 30
0.0
 11
53.25002399999721
 21
1.53427800053396
 31
0.0
  0
LINE
  5
3BC
330
54
100
AcDbEntity
  8
LC-001-002-----0
  6
Continuous
 62
     7
100
AcDbLine
 10
40.74995599999966
 20
0.00404200053163
 30
0.0
 11
40.73906199999692
 21
0.00404200053163
 31
0.0
  0
LINE
  5
3BD
330
54
100
AcDbEntity
  8
LC-001-002-----0
  6
Continuous
 62
     7
100
AcDbLine
 10
43.24995599999966
 20
0.00018900053328
 30
0.0
 11
40.99995999999737
 21
0.00030300053186
 31
0.0
  0
LINE
  5
3BE
330
54
100
AcDbEntity
  8
LC-001-002-----0
  6
Continuous
 62
     7
100
AcDbLine
 10
50.74995599999966
 20
-0.00018899946735
 30
0.0
 11
51.97878199999832
 21
-0.00025099946652
 31
0.0
  0
LINE
  5
3BF
330
54
100
AcDbEntity
  8
LC-001-002-----0
  6
Continuous
 62
     7
100
AcDbLine
 10
53.24995599999966
 20
-0.00030199946559
 30
0.0
 11
40.74995599999966
 21
0.00030200053152
 31
0.0
  0
LINE
  5
3C0
330
54
100
AcDbEntity
  8
LC-001-002-----0
  6
Continuous
 62
     7
100
AcDbLine
 10
40.74995599999966
 20
0.00030200053152
 30
0.0
 11
40.75000002781962
 21
0.99384285078486
 31
0.0
  0
LINE
  5
3C1
330
54
100
AcDbEntity
  8
LC-001-002-----0
  6
Continuous
 62
     7
100
AcDbLine
 10
53.24995599999966
 20
-0.00030199946559
 30
0.0
 11
53.25000005355105
 21
0.99387005978497
 31
0.0
  0
LINE
  5
3C2
330
54
100
AcDbEntity
  8
LC-001-002-----0
  6
Continuous
 62
     7
100
AcDbLine
 10
100.2499260000004
 20
-0.00030199946559
 30
0.0
 11
100.249993999998
 21
1.53427800053396
 31
0.0
  0
LINE
  5
3C3
330
54
100
AcDbEntity
  8
LC-001-002-----0
  6
Continuous
 62
     7
100
AcDbLine
 10
87.74992600000041
 20
0.00030200053152
 30
0.0
 11
87.74999399999797
 21
1.53480400053377
 31
0.0
  0
LINE
  5
3C4
330
54
100
AcDbEntity
  8
LC-001-002-----0
  6
Continuous
 62
     7
100
AcDbLine
 10
100.2499260000004
 20
-0.00030199946559
 30
0.0
 11
87.74992600000041
 21
0.00030200053152
 31
0.0
  0
LINE
  5
3C5
330
54
100
AcDbEntity
  8
LC-001-002-----0
  6
Continuous
 62
     7
100
AcDbLine
 10
97.74992600000041
 20
-0.00018899946735
 30
0.0
 11
98.97875199999908
 21
-0.00025099946652
 31
0.0
  0
LINE
  5
3C6
330
54
100
AcDbEntity
  8
LC-001-002-----0
  6
Continuous
 62
     7
100
AcDbLine
 10
90.24992600000041
 20
0.00018900053328
 30
0.0
 11
87.99992999999813
 21
0.00030300053186
 31
0.0
  0
LINE
  5
3C7
330
54
100
AcDbEntity
  8
LC-001-002-----0
  6
Continuous
 62
     7
100
AcDbLine
 10
87.74992600000041
 20
0.00404200053163
 30
0.0
 11
87.73903199999768
 21
0.00404200053163
 31
0.0
  0
LINE
  5
3C8
330
54
100
AcDbEntity
  8
LC-001-002-----0
  6
Continuous
 62
     7
100
AcDbLine
 10
-3.30697399999997
 20
55.99348200000003
 30
0.0
 11
-3.30697399999997
 21
70.79348200000004
 31
0.0
  0
LINE
  5
3C9
330
54
100
AcDbEntity
  8
LC-001-002-----0
  6
Continuous
 62
     7
100
AcDbLine
 10
3.30369400000006
 20
55.99349100000001
 30
0.0
 11
3.30365300000005
 21
70.79349100000002
 31
0.0
  0
LINE
  5
3CA
330
54
100
AcDbEntity
  8
LC-001-002-----0
  6
Continuous
 62
     7
100
AcDbLine
 10
-90.5014829999999
 20
-30.24411199999997
 30
0.0
 11
-87.00147400000003
 21
-30.24411199999997
 31
0.0
  0
LINE
  5
3CB
330
54
100
AcDbEntity
  8
LC-001-002-----0
  6
Continuous
 62
     7
100
AcDbLine
 10
-35.13401099999999
 20
0.99367900000004
 30
0.0
 11
-40.74993395544516
 21
0.99366702886618
 31
0.0
  0
LINE
  5
3CC
330
54
100
AcDbEntity
  8
LC-001-002-----0
  6
Continuous
 62
     7
100
AcDbLine
 10
-84.720056
 20
0.0
 30
0.0
 11
-79.47633699999994
 21
14.40700000000004
 31
0.0
  0
LINE
  5
3CD
330
54
100
AcDbEntity
  8
LC-001-002-----0
  6
Continuous
 62
     7
100
AcDbLine
 10
84.71701399999995
 20
0.0
 30
0.0
 11
79.48844399999996
 21
14.36525599999999
 31
0.0
  0
LINE
  5
3CE
330
54
100
AcDbEntity
  8
LC-001-002-----0
  6
Continuous
 62
     7
100
AcDbLine
 10
-48.45026599999994
 20
70.79342000000003
 30
0.0
 11
48.44694500000003
 21
70.79355300000003
 31
0.0
  0
LINE
  5
3CF
330
54
100
AcDbEntity
  8
LC-001-002-----0
  6
Continuous
 62
     7
100
AcDbLine
 10
68.96716700000002
 20
0.0
 30
0.0
 11
43.2002040000001
 21
70.79354599999999
 31
0.0
  0
LINE
  5
3D0
330
54
100
AcDbEntity
  8
LC-001-002-----0
  6
Continuous
 62
     7
100
AcDbLine
 10
42.48521900000003
 20
66.70841200000001
 30
0.0
 11
40.99833999999999
 21
70.793543
 31
0.0
  0
LINE
  5
3D1
330
54
100
AcDbEntity
  8
LC-001-002-----0
  6
Continuous
 62
     7
100
AcDbLine
 10
44.83808499999998
 20
66.293544
 30
0.0
 11
42.48521900000003
 21
66.70841200000001
 31
0.0
  0
LINE
  5
3D2
330
54
100
AcDbEntity
  8
LC-001-002-----0
  6
Continuous
 62
     7
100
AcDbLine
 10
-68.97022499999991
 20
0.0
 30
0.0
 11
-43.20352500000001
 21
70.79342700000001
 31
0.0
  0
LINE
  5
3D3
330
54
100
AcDbEntity
  8
LC-001-002-----0
  6
Continuous
 62
     7
100
AcDbLine
 10
-42.48852799999997
 20
66.70829500000002
 30
0.0
 11
-41.00166000000002
 21
70.79343
 31
0.0
  0
LINE
  5
3D4
330
54
100
AcDbEntity
  8
LC-001-002-----0
  6
Continuous
 62
     7
100
AcDbLine
 10
-44.84139300000004
 20
66.29342100000002
 30
0.0
 11
-42.48852799999997
 21
66.70829500000002
 31
0.0
  0
LINE
  5
3D5
330
54
100
AcDbEntity
  8
LC-001-002-----0
  6
Continuous
 62
     7
100
AcDbLine
 10
56.19404100000008
 20
35.09357600000004
 30
0.0
 11
56.19405300000005
 21
30.73047500000001
 31
0.0
  0
LINE
  5
3D6
330
54
100
AcDbEntity
  8
LC-001-002-----0
  6
Continuous
 62
     7
100
AcDbLine
 10
57.99048400000004
 20
30.41372100000001
 30
0.0
 11
56.19405300000005
 21
30.73047500000001
 31
0.0
  0
LINE
  5
3D7
330
54
100
AcDbEntity
  8
LC-001-002-----0
  6
Continuous
 62
     7
100
AcDbLine
 10
1.14870299999995
 20
55.99348800000001
 30
0.0
 11
1.14870299999995
 21
35.09342100000004
 31
0.0
  0
LINE
  5
3D8
330
54
100
AcDbEntity
  8
LC-001-002-----0
  6
Continuous
 62
     7
100
AcDbLine
 10
-1.151297
 20
55.99348500000002
 30
0.0
 11
-1.151297
 21
35.09342100000004
 31
0.0
  0
LINE
  5
3D9
330
54
100
AcDbEntity
  8
LC-001-002-----0
  6
Continuous
 62
     7
100
AcDbLine
 10
-56.19726400000002
 20
35.09342100000004
 30
0.0
 11
-56.19726400000002
 21
30.730321
 31
0.0
  0
LINE
  5
3DA
330
54
100
AcDbEntity
  8
LC-001-002-----0
  6
Continuous
 62
     7
100
AcDbLine
 10
-57.89420899999993
 20
30.43110400000001
 30
0.0
 11
-56.19726400000002
 21
30.730321
 31
0.0
  0
LINE
  5
3DB
330
54
100
AcDbEntity
  8
LC-001-002-----0
  6
Continuous
 62
     7
100
AcDbLine
 10
-48.59028699999999
 20
55.99342000000002
 30
0.0
 11
48.58700699999997
 21
55.99355300000002
 31
0.0
  0
LINE
  5
3DC
330
54
100
AcDbEntity
  8
LC-001-002-----0
  6
Continuous
 62
     7
100
AcDbLine
 10
-56.19726400000002
 20
35.09342100000004
 30
0.0
 11
56.19404100000008
 21
35.09342100000004
 31
0.0
  0
LINE
  5
3DD
330
54
100
AcDbEntity
  8
LC-001-002-----0
  6
Continuous
 62
     7
100
AcDbLine
 10
-57.89420899999993
 20
30.43110400000001
 30
0.0
 11
57.89099900000008
 21
30.43110400000001
 31
0.0
  0
LINE
  5
3DE
330
54
100
AcDbEntity
  8
LC-001-002-----0
  6
Continuous
 62
     7
100
AcDbLine
 10
-1.151297
 20
30.43110400000001
 30
0.0
 11
-1.151297
 21
0.0
 31
0.0
  0
LINE
  5
3DF
330
54
100
AcDbEntity
  8
LC-001-002-----0
  6
Continuous
 62
     7
100
AcDbLine
 10
1.14870299999995
 20
30.43110400000001
 30
0.0
 11
1.14870299999995
 21
0.0
 31
0.0
  0
LINE
  5
3E0
330
54
100
AcDbEntity
  8
LC-001-002-----0
  6
Continuous
 62
     7
100
AcDbLine
 10
-51.60831199999996
 20
35.09342100000004
 30
0.0
 11
-43.00152199999991
 21
55.99342799999999
 31
0.0
  0
LINE
  5
3E1
330
54
100
AcDbEntity
  8
LC-001-002-----0
  6
Continuous
 62
     7
100
AcDbLine
 10
-58.91982399999995
 20
0.0
 30
0.0
 11
-47.68414700000005
 21
30.43110400000001
 31
0.0
  0
LINE
  5
3E2
330
54
100
AcDbEntity
  8
LC-001-002-----0
  6
Continuous
 62
     7
100
AcDbLine
 10
-33.353972
 20
0.0
 30
0.0
 11
-26.86705300000006
 21
30.43110400000001
 31
0.0
  0
LINE
  5
3E3
330
54
100
AcDbEntity
  8
LC-001-002-----0
  6
Continuous
 62
     7
100
AcDbLine
 10
-35.34582999999998
 20
0.0
 30
0.0
 11
-28.85891099999992
 21
30.43110400000001
 31
0.0
  0
LINE
  5
3E4
330
54
100
AcDbEntity
  8
LC-001-002-----0
  6
Continuous
 62
     7
100
AcDbLine
 10
-18.89225799999997
 20
0.0
 30
0.0
 11
-15.53438199999994
 21
30.43110400000001
 31
0.0
  0
LINE
  5
3E5
330
54
100
AcDbEntity
  8
LC-001-002-----0
  6
Continuous
 62
     7
100
AcDbLine
 10
-16.67062799999997
 20
0.0
 30
0.0
 11
-13.31275300000004
 21
30.43110400000001
 31
0.0
  0
LINE
  5
3E6
330
54
100
AcDbEntity
  8
LC-001-002-----0
  6
Continuous
 62
     7
100
AcDbLine
 10
-60.06982400000004
 20
0.0
 30
0.0
 11
-48.83414699999992
 21
30.43110400000001
 31
0.0
  0
LINE
  5
3E7
330
54
100
AcDbEntity
  8
LC-001-002-----0
  6
Continuous
 62
     7
100
AcDbLine
 10
-52.20359499999995
 20
35.09342100000004
 30
0.0
 11
-43.5968059999999
 21
55.993427
 31
0.0
  0
LINE
  5
3E8
330
54
100
AcDbEntity
  8
LC-001-002-----0
  6
Continuous
 62
     7
100
AcDbLine
 10
-46.39300261906368
 20
4.53381763889898
 30
0.0
 11
-46.0675195999048
 21
5.61161000000004
 31
0.0
  0
LINE
  5
3E9
330
54
100
AcDbEntity
  8
LC-001-002-----0
  6
Continuous
 62
     7
100
AcDbLine
 10
-48.03320373179846
 20
4.50311268876663
 30
0.0
 11
-47.69903140939145
 21
5.61161000000004
 31
0.0
  0
LINE
  5
3EA
330
54
100
AcDbEntity
  8
LC-001-002-----0
  6
Continuous
 62
     7
100
AcDbLine
 10
-47.11273999999992
 20
35.09342100000004
 30
0.0
 11
-39.39610299999993
 21
55.99343300000004
 31
0.0
  0
LINE
  5
3EB
330
54
100
AcDbEntity
  8
LC-001-002-----0
  6
Continuous
 62
     7
100
AcDbLine
 10
-45.96274000000005
 20
35.09342100000004
 30
0.0
 11
-38.24610299999995
 21
55.99343400000004
 31
0.0
  0
LINE
  5
3EC
330
54
100
AcDbEntity
  8
LC-001-002-----0
  6
Continuous
 62
     7
100
AcDbLine
 10
-66.0600619999999
 20
0.0
 30
0.0
 11
-53.52829099999997
 21
30.43110400000001
 31
0.0
  0
LINE
  5
3ED
330
54
100
AcDbEntity
  8
LC-001-002-----0
  6
Continuous
 62
     7
100
AcDbLine
 10
-66.6553459999999
 20
0.0
 30
0.0
 11
-54.12357499999996
 21
30.43110400000001
 31
0.0
  0
LINE
  5
3EE
330
54
100
AcDbEntity
  8
LC-001-002-----0
  6
Continuous
 62
     7
100
AcDbLine
 10
-38.81131799999992
 20
35.09342100000004
 30
0.0
 11
-32.51070799999991
 21
55.99344200000002
 31
0.0
  0
LINE
  5
3EF
330
54
100
AcDbEntity
  8
LC-001-002-----0
  6
Continuous
 62
     7
100
AcDbLine
 10
-37.16429299999993
 20
35.09342100000004
 30
0.0
 11
-30.85268499999995
 21
55.99344400000001
 31
0.0
  0
LINE
  5
3F0
330
54
100
AcDbEntity
  8
LC-001-002-----0
  6
Continuous
 62
     7
100
AcDbLine
 10
-27.86505699999998
 20
35.09342100000004
 30
0.0
 11
-23.409851
 21
55.99345500000004
 31
0.0
  0
LINE
  5
3F1
330
54
100
AcDbEntity
  8
LC-001-002-----0
  6
Continuous
 62
     7
100
AcDbLine
 10
-25.873199
 20
35.09342100000004
 30
0.0
 11
-21.41799299999991
 21
55.99345700000004
 31
0.0
  0
LINE
  5
3F2
330
54
100
AcDbEntity
  8
LC-001-002-----0
  6
Continuous
 62
     7
100
AcDbLine
 10
-15.01992499999994
 20
35.09342100000004
 30
0.0
 11
-12.71374000000003
 21
55.99346900000001
 31
0.0
  0
LINE
  5
3F3
330
54
100
AcDbEntity
  8
LC-001-002-----0
  6
Continuous
 62
     7
100
AcDbLine
 10
-12.79829600000005
 20
35.09342100000004
 30
0.0
 11
-10.49211099999991
 21
55.993472
 31
0.0
  0
LINE
  5
3F4
330
54
100
AcDbEntity
  8
LC-001-002-----0
  6
Continuous
 62
     7
100
AcDbLine
 10
16.667507
 20
0.0
 30
0.0
 11
13.30954299999996
 21
30.43114000000003
 31
0.0
  0
LINE
  5
3F5
330
54
100
AcDbEntity
  8
LC-001-002-----0
  6
Continuous
 62
     7
100
AcDbLine
 10
18.88913700000001
 20
0.0
 30
0.0
 11
15.53117200000008
 21
30.43114600000001
 31
0.0
  0
LINE
  5
3F6
330
54
100
AcDbEntity
  8
LC-001-002-----0
  6
Continuous
 62
     7
100
AcDbLine
 10
12.795073
 20
35.093457
 30
0.0
 11
10.48883100000001
 21
55.99350100000004
 31
0.0
  0
LINE
  5
3F7
330
54
100
AcDbEntity
  8
LC-001-002-----0
  6
Continuous
 62
     7
100
AcDbLine
 10
15.01670300000001
 20
35.09346300000004
 30
0.0
 11
12.71046000000001
 21
55.99350400000003
 31
0.0
  0
LINE
  5
3F8
330
54
100
AcDbEntity
  8
LC-001-002-----0
  6
Continuous
 62
     7
100
AcDbLine
 10
25.86997600000007
 20
35.09349200000003
 30
0.0
 11
21.41471300000001
 21
55.993516
 31
0.0
  0
LINE
  5
3F9
330
54
100
AcDbEntity
  8
LC-001-002-----0
  6
Continuous
 62
     7
100
AcDbLine
 10
27.86183400000004
 20
35.09349800000001
 30
0.0
 11
23.4065710000001
 21
55.99351899999999
 31
0.0
  0
LINE
  5
3FA
330
54
100
AcDbEntity
  8
LC-001-002-----0
  6
Continuous
 62
     7
100
AcDbLine
 10
37.16107100000011
 20
35.09352300000001
 30
0.0
 11
30.84940500000005
 21
55.99352900000002
 31
0.0
  0
LINE
  5
3FB
330
54
100
AcDbEntity
  8
LC-001-002-----0
  6
Continuous
 62
     7
100
AcDbLine
 10
38.80809600000009
 20
35.09352799999999
 30
0.0
 11
32.507428
 21
55.99353100000002
 31
0.0
  0
LINE
  5
3FC
330
54
100
AcDbEntity
  8
LC-001-002-----0
  6
Continuous
 62
     7
100
AcDbLine
 10
35.34272500000009
 20
0.0
 30
0.0
 11
28.85570100000007
 21
30.43118300000003
 31
0.0
  0
LINE
  5
3FD
330
54
100
AcDbEntity
  8
LC-001-002-----0
  6
Continuous
 62
     7
100
AcDbLine
 10
33.350865
 20
0.0
 30
0.0
 11
26.86384299999997
 21
30.43117799999999
 31
0.0
  0
LINE
  5
3FE
330
54
100
AcDbEntity
  8
LC-001-002-----0
  6
Continuous
 62
     7
100
AcDbLine
 10
46.38994281594157
 20
4.5336848898126
 30
0.0
 11
46.06441645721837
 21
5.61161000000004
 31
0.0
  0
LINE
  5
3FF
330
54
100
AcDbEntity
  8
LC-001-002-----0
  6
Continuous
 62
     7
100
AcDbLine
 10
48.03003411677855
 20
4.503348336013
 30
0.0
 11
47.6959294883121
 21
5.61161000000004
 31
0.0
  0
LINE
  5
400
330
54
100
AcDbEntity
  8
LC-001-002-----0
  6
Continuous
 62
     7
100
AcDbLine
 10
58.91675799999996
 20
0.0
 30
0.0
 11
47.68093699999997
 21
30.43123500000002
 31
0.0
  0
LINE
  5
401
330
54
100
AcDbEntity
  8
LC-001-002-----0
  6
Continuous
 62
     7
100
AcDbLine
 10
60.06675900000005
 20
0.0
 30
0.0
 11
48.83093700000006
 21
30.43123800000001
 31
0.0
  0
LINE
  5
402
330
54
100
AcDbEntity
  8
LC-001-002-----0
  6
Continuous
 62
     7
100
AcDbLine
 10
45.959518
 20
35.093548
 30
0.0
 11
38.24282300000004
 21
55.993539
 31
0.0
  0
LINE
  5
403
330
54
100
AcDbEntity
  8
LC-001-002-----0
  6
Continuous
 62
     7
100
AcDbLine
 10
47.10951699999998
 20
35.09355099999999
 30
0.0
 11
39.39282300000002
 21
55.99354099999999
 31
0.0
  0
LINE
  5
404
330
54
100
AcDbEntity
  8
LC-001-002-----0
  6
Continuous
 62
     7
100
AcDbLine
 10
51.60508900000002
 20
35.09356300000002
 30
0.0
 11
42.99824200000001
 21
55.99354600000004
 31
0.0
  0
LINE
  5
405
330
54
100
AcDbEntity
  8
LC-001-002-----0
  6
Continuous
 62
     7
100
AcDbLine
 10
51.60508900000002
 20
35.09356300000002
 30
0.0
 11
42.99824200000001
 21
55.99354600000004
 31
0.0
  0
LINE
  5
406
330
54
100
AcDbEntity
  8
LC-001-002-----0
  6
Continuous
 62
     7
100
AcDbLine
 10
52.20037300000001
 20
35.09356500000001
 30
0.0
 11
43.593526
 21
55.99354600000004
 31
0.0
  0
LINE
  5
407
330
54
100
AcDbEntity
  8
LC-001-002-----0
  6
Continuous
 62
     7
100
AcDbLine
 10
66.05701099999999
 20
0.0
 30
0.0
 11
53.525081
 21
30.43125100000003
 31
0.0
  0
LINE
  5
408
330
54
100
AcDbEntity
  8
LC-001-002-----0
  6
Continuous
 62
     7
100
AcDbLine
 10
66.65229499999998
 20
0.0
 30
0.0
 11
54.12036500000011
 21
30.43125200000003
 31
0.0
  0
LINE
  5
409
330
54
100
AcDbEntity
  8
LC-001-002-----0
  6
Continuous
 62
     7
100
AcDbLine
 10
-231.995428
 20
0.0
 30
0.0
 11
-231.995428
 21
-3.236469
 31
0.0
  0
LINE
  5
40A
330
54
100
AcDbEntity
  8
LC-001-002-----0
  6
Continuous
 62
     7
100
AcDbLine
 10
-68.60858199999996
 20
0.993606
 30
0.0
 11
-66.2461689999999
 21
0.99361200000004
 31
0.0
  0
LINE
  5
40B
330
54
100
AcDbEntity
  8
LC-001-002-----0
  6
Continuous
 62
     7
100
AcDbLine
 10
-53.24993398117297
 20
0.993639940945
 30
0.0
 11
-58.55295999999999
 21
0.993628
 31
0.0
  0
LINE
  5
40C
330
54
100
AcDbEntity
  8
LC-001-002-----0
  6
Continuous
 62
     7
100
AcDbLine
 10
-47.69903140939145
 20
5.61161000000004
 30
0.0
 11
-56.84792299999992
 21
5.61161000000004
 31
0.0
  0
LINE
  5
40D
330
54
100
AcDbEntity
  8
LC-001-002-----0
  6
Continuous
 62
     7
100
AcDbLine
 10
-34.14961800000003
 20
5.61161000000004
 30
0.0
 11
-46.0675195999048
 21
5.61161000000004
 31
0.0
  0
LINE
  5
40E
330
54
100
AcDbEntity
  8
LC-001-002-----0
  6
Continuous
 62
     7
100
AcDbLine
 10
-18.273053
 20
5.61161000000004
 30
0.0
 11
-32.15775999999994
 21
5.61161000000004
 31
0.0
  0
LINE
  5
40F
330
54
100
AcDbEntity
  8
LC-001-002-----0
  6
Continuous
 62
     7
100
AcDbLine
 10
-1.151297
 20
5.61161000000004
 30
0.0
 11
-16.051423
 21
5.61161000000004
 31
0.0
  0
LINE
  5
410
330
54
100
AcDbEntity
  8
LC-001-002-----0
  6
Continuous
 62
     7
100
AcDbLine
 10
16.04828600000008
 20
5.61161000000004
 30
0.0
 11
1.14870299999995
 21
5.61161000000004
 31
0.0
  0
LINE
  5
411
330
54
100
AcDbEntity
  8
LC-001-002-----0
  6
Continuous
 62
     7
100
AcDbLine
 10
32.15463699999998
 20
5.61161000000004
 30
0.0
 11
18.26991600000008
 21
5.61161000000004
 31
0.0
  0
LINE
  5
412
330
54
100
AcDbEntity
  8
LC-001-002-----0
  6
Continuous
 62
     7
100
AcDbLine
 10
46.06441645721837
 20
5.61161000000004
 30
0.0
 11
34.14649599999996
 21
5.61161000000004
 31
0.0
  0
LINE
  5
413
330
54
100
AcDbEntity
  8
LC-001-002-----0
  6
Continuous
 62
     7
100
AcDbLine
 10
56.84483899999998
 20
5.61161000000004
 30
0.0
 11
47.6959294883121
 21
5.61161000000004
 31
0.0
  0
LINE
  5
414
330
54
100
AcDbEntity
  8
LC-001-002-----0
  6
Continuous
 62
     7
100
AcDbLine
 10
-79.47633699999994
 20
14.40700000000004
 30
0.0
 11
-62.54563399999995
 21
60.923722
 31
0.0
  0
LINE
  5
415
330
54
100
AcDbEntity
  8
LC-001-002-----0
  6
Continuous
 62
     7
100
AcDbLine
 10
79.48844399999996
 20
14.36525599999999
 30
0.0
 11
62.54234099999997
 21
60.92389400000002
 31
0.0
  0
LINE
  5
416
330
54
100
AcDbEntity
  8
LC-001-002-----0
  6
Continuous
 62
     7
100
AcDbLine
 10
16.55784600000004
 20
0.99379100000004
 30
0.0
 11
1.14870299999995
 21
0.99375700000002
 31
0.0
  0
LINE
  5
417
330
54
100
AcDbEntity
  8
LC-001-002-----0
  6
Continuous
 62
     7
100
AcDbLine
 10
33.1390110000001
 20
0.99382700000001
 30
0.0
 11
18.77947500000005
 21
0.99379500000003
 31
0.0
  0
LINE
  5
418
330
54
100
AcDbEntity
  8
LC-001-002-----0
  6
Continuous
 62
     7
100
AcDbLine
 10
40.7500000278196
 20
0.99384285078331
 30
0.0
 11
35.13087000000007
 21
0.993831
 31
0.0
  0
LINE
  5
419
330
54
100
AcDbEntity
  8
LC-001-002-----0
  6
Continuous
 62
     7
100
AcDbLine
 10
58.54979700000001
 20
0.99388200000004
 30
0.0
 11
53.25000005355105
 21
0.99387005978497
 31
0.0
  0
LINE
  5
41A
330
54
100
AcDbEntity
  8
LC-001-002-----0
  6
Continuous
 62
     7
100
AcDbLine
 10
-140.919893
 20
-3.236469
 30
0.0
 11
-221.995428
 21
-3.236469
 31
0.0
  0
LINE
  5
41B
330
54
100
AcDbEntity
  8
LC-001-002-----0
  6
Continuous
 62
     7
100
AcDbLine
 10
-59.70296099999996
 20
0.99362600000001
 30
0.0
 11
-65.6508849999999
 21
0.99361300000004
 31
0.0
  0
LINE
  5
41C
330
54
100
AcDbEntity
  8
LC-001-002-----0
  6
Continuous
 62
     7
100
AcDbLine
 10
-1.151297
 20
0.99375200000003
 30
0.0
 11
-16.56097799999998
 21
0.993719
 31
0.0
  0
LINE
  5
41D
330
54
100
AcDbEntity
  8
LC-001-002-----0
  6
Continuous
 62
     7
100
AcDbLine
 10
-18.78260799999998
 20
0.99371400000001
 30
0.0
 11
-33.1421509999999
 21
0.99368300000003
 31
0.0
  0
LINE
  5
41E
330
54
100
AcDbEntity
  8
LC-001-002-----0
  6
Continuous
 62
     7
100
AcDbLine
 10
-16.56097799999998
 20
0.993719
 30
0.0
 11
-1.151297
 21
0.99375200000003
 31
0.0
  0
LINE
  5
41F
330
54
100
AcDbEntity
  8
LC-001-002-----0
  6
Continuous
 62
     7
100
AcDbLine
 10
-33.1421509999999
 20
0.99368300000003
 30
0.0
 11
-18.78260799999998
 21
0.99371400000001
 31
0.0
  0
LINE
  5
420
330
54
100
AcDbEntity
  8
LC-001-002-----0
  6
Continuous
 62
     7
100
AcDbLine
 10
-65.6508849999999
 20
0.99361300000004
 30
0.0
 11
-59.70296099999996
 21
0.99362600000001
 31
0.0
  0
LINE
  5
421
330
54
100
AcDbEntity
  8
LC-001-002-----0
  6
Continuous
 62
     7
100
AcDbLine
 10
-221.995428
 20
0.0
 30
0.0
 11
-231.995428
 21
0.0
 31
0.0
  0
LINE
  5
422
330
54
100
AcDbEntity
  8
LC-001-002-----0
  6
Continuous
 62
     7
100
AcDbLine
 10
-221.995428
 20
-3.236469
 30
0.0
 11
-231.995428
 21
-3.236469
 31
0.0
  0
LINE
  5
423
330
54
100
AcDbEntity
  8
LC-001-002-----0
  6
Continuous
 62
     7
100
AcDbLine
 10
-25.0
 20
-348.236469
 30
0.0
 11
0.0
 21
-348.236469
 31
0.0
  0
LINE
  5
424
330
54
100
AcDbEntity
  8
LC-001-002-----0
  6
Continuous
 62
     7
100
AcDbLine
 10
-85.500001
 20
-31.736469
 30
0.0
 11
-81.75
 21
-31.736469
 31
0.0
  0
LINE
  5
425
330
54
100
AcDbEntity
  8
LC-001-002-----0
  6
Continuous
 62
     7
100
AcDbLine
 10
-103.951415
 20
-14.995091
 30
0.0
 11
-101.005186
 21
-14.99480499999999
 31
0.0
  0
LINE
  5
426
330
54
100
AcDbEntity
  8
LC-001-002-----0
  6
Continuous
 62
     7
100
AcDbLine
 10
-81.75
 20
-31.736469
 30
0.0
 11
-80.75
 21
-32.736469
 31
0.0
  0
LINE
  5
427
330
54
100
AcDbEntity
  8
LC-001-002-----0
  6
Continuous
 62
     7
100
AcDbLine
 10
-28.0
 20
-98.23672299999998
 30
0.0
 11
-28.0
 21
-112.236321
 31
0.0
  0
LINE
  5
428
330
54
100
AcDbEntity
  8
LC-001-002-----0
  6
Continuous
 62
     7
100
AcDbLine
 10
85.500001
 20
-31.736469
 30
0.0
 11
81.75
 21
-31.736469
 31
0.0
  0
LINE
  5
429
330
54
100
AcDbEntity
  8
LC-001-002-----0
  6
Continuous
 62
     7
100
AcDbLine
 10
81.75
 20
-31.736469
 30
0.0
 11
80.75
 21
-32.736469
 31
0.0
  0
LINE
  5
42A
330
54
100
AcDbEntity
  8
LC-001-002-----0
  6
Continuous
 62
     7
100
AcDbLine
 10
28.00000499999999
 20
-98.23668499999997
 30
0.0
 11
28.00000499999999
 21
-112.236321
 31
0.0
  0
LINE
  5
42B
330
54
100
AcDbEntity
  8
LC-001-002-----0
  6
Continuous
 62
     7
100
AcDbLine
 10
26.79422899999997
 20
-348.236469
 30
0.0
 11
28.0
 21
-343.736469
 31
0.0
  0
LINE
  5
42C
330
54
100
AcDbEntity
  8
LC-001-002-----0
  6
Continuous
 62
     7
100
AcDbLine
 10
-26.79422899999997
 20
-348.236469
 30
0.0
 11
-28.0
 21
-343.736469
 31
0.0
  0
LINE
  5
42D
330
54
100
AcDbEntity
  8
LC-001-002-----0
  6
Continuous
 62
     7
100
AcDbLine
 10
-25.0
 20
-348.236469
 30
0.0
 11
-26.79422899999997
 21
-348.236469
 31
0.0
  0
LINE
  5
42E
330
54
100
AcDbEntity
  8
LC-001-002-----0
  6
Continuous
 62
     7
100
AcDbLine
 10
25.0
 20
-348.236469
 30
0.0
 11
26.79422899999997
 21
-348.236469
 31
0.0
  0
LINE
  5
42F
330
54
100
AcDbEntity
  8
LC-001-002-----0
  6
Continuous
 62
     7
100
AcDbLine
 10
62.5
 20
-47.18767700000001
 30
0.0
 11
80.75
 21
-47.18767700000001
 31
0.0
  0
LINE
  5
430
330
54
100
AcDbEntity
  8
LC-001-002-----0
  6
Continuous
 62
     7
100
AcDbLine
 10
-80.75
 20
-32.736469
 30
0.0
 11
-80.75
 21
-47.18767700000001
 31
0.0
  0
LINE
  5
431
330
54
100
AcDbEntity
  8
LC-001-002-----0
  6
Continuous
 62
     7
100
AcDbLine
 10
-85.500001
 20
-31.736469
 30
0.0
 11
-85.500001
 21
-30.23617300000001
 31
0.0
  0
LINE
  5
432
330
54
100
AcDbEntity
  8
LC-001-002-----0
  6
Continuous
 62
     7
100
AcDbLine
 10
-62.5
 20
-47.18767700000001
 30
0.0
 11
-28.00003400000003
 21
-98.236469
 31
0.0
  0
LINE
  5
433
330
54
100
AcDbEntity
  8
LC-001-002-----0
  6
Continuous
 62
     7
100
AcDbLine
 10
62.5
 20
-47.18767700000001
 30
0.0
 11
28.00003400000003
 21
-98.236469
 31
0.0
  0
LINE
  5
434
330
54
100
AcDbEntity
  8
LC-001-002-----0
  6
Continuous
 62
     7
100
AcDbLine
 10
-80.75
 20
-47.18767700000001
 30
0.0
 11
-62.5
 21
-47.18767700000001
 31
0.0
  0
LINE
  5
435
330
54
100
AcDbEntity
  8
LC-001-002-----0
  6
Continuous
 62
     7
100
AcDbLine
 10
103.938662
 20
-14.99508900000001
 30
0.0
 11
101.005186
 21
-14.99480499999999
 31
0.0
  0
LINE
  5
436
330
54
100
AcDbEntity
  8
LC-001-002-----0
  6
Continuous
 62
     7
100
AcDbLine
 10
85.500001
 20
-31.736469
 30
0.0
 11
85.500001
 21
-30.23620999999997
 31
0.0
  0
LINE
  5
437
330
54
100
AcDbEntity
  8
LC-001-002-----0
  6
Continuous
 62
     7
100
AcDbLine
 10
80.75
 20
-32.736469
 30
0.0
 11
80.75
 21
-47.18767700000001
 31
0.0
  0
LINE
  5
438
330
54
100
AcDbEntity
  8
LC-001-002-----0
  6
Continuous
 62
     7
100
AcDbLine
 10
-128.015855
 20
-6.236469
 30
0.0
 11
-103.951415
 21
-14.995091
 31
0.0
  0
LINE
  5
439
330
54
100
AcDbEntity
  8
LC-001-002-----0
  6
Continuous
 62
     7
100
AcDbLine
 10
-100.00518
 20
-15.99461600000001
 30
0.0
 11
-100.005098
 21
-29.73649499999999
 31
0.0
  0
LINE
  5
43A
330
54
100
AcDbEntity
  8
LC-001-002-----0
  6
Continuous
 62
     7
100
AcDbLine
 10
-99.50509599999998
 20
-30.236492
 30
0.0
 11
-94.00348999999994
 21
-30.23645899999997
 31
0.0
  0
LINE
  5
43B
330
54
100
AcDbEntity
  8
LC-001-002-----0
  6
Continuous
 62
     7
100
AcDbLine
 10
-94.00348899999995
 20
-30.23658499999999
 30
0.0
 11
-85.500001
 21
-30.23617300000001
 31
0.0
  0
LINE
  5
43C
330
54
100
AcDbEntity
  8
LC-001-002-----0
  6
Continuous
 62
     7
100
AcDbLine
 10
128.010255
 20
-6.236469
 30
0.0
 11
103.938662
 21
-14.99508900000001
 31
0.0
  0
LINE
  5
43D
330
54
100
AcDbEntity
  8
LC-001-002-----0
  6
Continuous
 62
     7
100
AcDbLine
 10
100.005186
 20
-15.99460999999997
 30
0.0
 11
100.0051970000001
 21
-29.736468
 31
0.0
  0
LINE
  5
43E
330
54
100
AcDbEntity
  8
LC-001-002-----0
  6
Continuous
 62
     7
100
AcDbLine
 10
99.50519700000007
 20
-30.236469
 30
0.0
 11
96.49993700000005
 21
-30.23646299999996
 31
0.0
  0
LINE
  5
43F
330
54
100
AcDbEntity
  8
LC-001-002-----0
  6
Continuous
 62
     7
100
AcDbLine
 10
96.49993700000005
 20
-30.23645799999997
 30
0.0
 11
85.500001
 21
-30.23620999999997
 31
0.0
  0
LINE
  5
440
330
54
100
AcDbEntity
  8
LC-001-002-----0
  6
Continuous
 62
     7
100
AcDbLine
 10
177.0000000000001
 20
-5.236469
 30
0.0
 11
177.0000000000001
 21
-6.236469
 31
0.0
  0
LINE
  5
441
330
54
100
AcDbEntity
  8
LC-001-002-----0
  6
Continuous
 62
     7
100
AcDbLine
 10
127.736207
 20
-3.236469
 30
0.0
 11
175.0000000000001
 21
-3.236469
 31
0.0
  0
LINE
  5
442
330
54
100
AcDbEntity
  8
LC-001-002-----0
  6
Continuous
 62
     7
100
AcDbLine
 10
128.010255
 20
-6.236469
 30
0.0
 11
177.0000000000001
 21
-6.236469
 31
0.0
  0
LINE
  5
443
330
54
100
AcDbEntity
  8
LC-001-002-----0
  6
Continuous
 62
     7
100
AcDbLine
 10
-127.599904
 20
-3.236469
 30
0.0
 11
-175.0
 21
-3.236469
 31
0.0
  0
LINE
  5
444
330
54
100
AcDbEntity
  8
LC-001-002-----0
  6
Continuous
 62
     7
100
AcDbLine
 10
-128.010255
 20
-6.236469
 30
0.0
 11
-177.0
 21
-6.236469
 31
0.0
  0
LINE
  5
445
330
54
100
AcDbEntity
  8
LC-001-002-----0
  6
Continuous
 62
     7
100
AcDbLine
 10
-177.0
 20
-5.236469
 30
0.0
 11
-177.0
 21
-6.236469
 31
0.0
  0
LINE
  5
446
330
54
100
AcDbEntity
  8
LC-001-002-----0
  6
Continuous
 62
     7
100
AcDbLine
 10
-101.005186
 20
-14.99480499999999
 30
0.0
 11
-100.00518
 21
-15.99461600000001
 31
0.0
  0
LINE
  5
447
330
54
100
AcDbEntity
  8
LC-001-002-----0
  6
Continuous
 62
     7
100
AcDbLine
 10
101.005186
 20
-14.99480499999999
 30
0.0
 11
100.005186
 21
-15.99460999999997
 31
0.0
  0
LINE
  5
448
330
54
100
AcDbEntity
  8
LC-001-002-----0
  6
Continuous
 62
     7
100
AcDbLine
 10
-34.62149499999998
 20
-113.220081
 30
0.0
 11
-29.75807799999996
 21
-114.432667
 31
0.0
  0
LINE
  5
449
330
54
100
AcDbEntity
  8
LC-001-002-----0
  6
Continuous
 62
     7
100
AcDbLine
 10
-34.62079099999994
 20
-125.550246
 30
0.0
 11
-29.75737300000003
 21
-126.762832
 31
0.0
  0
LINE
  5
44A
330
54
100
AcDbEntity
  8
LC-001-002-----0
  6
Continuous
 62
     7
100
AcDbLine
 10
34.62149499999998
 20
-113.220081
 30
0.0
 11
29.75807799999996
 21
-114.432667
 31
0.0
  0
LINE
  5
44B
330
54
100
AcDbEntity
  8
LC-001-002-----0
  6
Continuous
 62
     7
100
AcDbLine
 10
34.62079000000006
 20
-125.550246
 30
0.0
 11
29.75737300000003
 21
-126.762832
 31
0.0
  0
LINE
  5
44C
330
54
100
AcDbEntity
  8
LC-001-002-----0
  6
Continuous
 62
     7
100
AcDbLine
 10
-34.62008600000002
 20
-137.880412
 30
0.0
 11
-29.75666899999999
 21
-139.092998
 31
0.0
  0
LINE
  5
44D
330
54
100
AcDbEntity
  8
LC-001-002-----0
  6
Continuous
 62
     7
100
AcDbLine
 10
-34.5
 20
-149.226818
 30
0.0
 11
-29.5
 21
-149.226818
 31
0.0
  0
LINE
  5
44E
330
54
100
AcDbEntity
  8
LC-001-002-----0
  6
Continuous
 62
     7
100
AcDbLine
 10
-34.5
 20
-136.896653
 30
0.0
 11
-29.5
 21
-136.896653
 31
0.0
  0
LINE
  5
44F
330
54
100
AcDbEntity
  8
LC-001-002-----0
  6
Continuous
 62
     7
100
AcDbLine
 10
-34.5
 20
-124.566487
 30
0.0
 11
-29.5
 21
-124.566487
 31
0.0
  0
LINE
  5
450
330
54
100
AcDbEntity
  8
LC-001-002-----0
  6
Continuous
 62
     7
100
AcDbLine
 10
-34.50070500000004
 20
-112.236321
 30
0.0
 11
-28.0
 21
-112.236321
 31
0.0
  0
LINE
  5
451
330
54
100
AcDbEntity
  8
LC-001-002-----0
  6
Continuous
 62
     7
100
AcDbLine
 10
-34.61938099999998
 20
-150.210578
 30
0.0
 11
-29.75596399999995
 21
-151.423164
 31
0.0
  0
LINE
  5
452
330
54
100
AcDbEntity
  8
LC-001-002-----0
  6
Continuous
 62
     7
100
AcDbLine
 10
34.62008600000002
 20
-137.880412
 30
0.0
 11
29.75666899999999
 21
-139.092998
 31
0.0
  0
LINE
  5
453
330
54
100
AcDbEntity
  8
LC-001-002-----0
  6
Continuous
 62
     7
100
AcDbLine
 10
-34.61867599999994
 20
-162.540743
 30
0.0
 11
-29.75525899999991
 21
-163.753329
 31
0.0
  0
LINE
  5
454
330
54
100
AcDbEntity
  8
LC-001-002-----0
  6
Continuous
 62
     7
100
AcDbLine
 10
-34.6179719999999
 20
-174.870909
 30
0.0
 11
-29.75455499999998
 21
-176.083495
 31
0.0
  0
LINE
  5
455
330
54
100
AcDbEntity
  8
LC-001-002-----0
  6
Continuous
 62
     7
100
AcDbLine
 10
-34.61726699999997
 20
-187.201075
 30
0.0
 11
-29.75384999999994
 21
-188.413661
 31
0.0
  0
LINE
  5
456
330
54
100
AcDbEntity
  8
LC-001-002-----0
  6
Continuous
 62
     7
100
AcDbLine
 10
-29.0
 20
-161.056984
 30
0.0
 11
-29.0
 21
-152.396084
 31
0.0
  0
LINE
  5
457
330
54
100
AcDbEntity
  8
LC-001-002-----0
  6
Continuous
 62
     7
100
AcDbLine
 10
-29.0
 20
-148.726818
 30
0.0
 11
-29.0
 21
-140.065918
 31
0.0
  0
LINE
  5
458
330
54
100
AcDbEntity
  8
LC-001-002-----0
  6
Continuous
 62
     7
100
AcDbLine
 10
-29.0
 20
-136.396653
 30
0.0
 11
-29.0
 21
-127.735752
 31
0.0
  0
LINE
  5
459
330
54
100
AcDbEntity
  8
LC-001-002-----0
  6
Continuous
 62
     7
100
AcDbLine
 10
-29.0
 20
-124.066487
 30
0.0
 11
-29.0
 21
-115.402962
 31
0.0
  0
LINE
  5
45A
330
54
100
AcDbEntity
  8
LC-001-002-----0
  6
Continuous
 62
     7
100
AcDbLine
 10
-34.61656200000004
 20
-199.53124
 30
0.0
 11
-29.75314500000002
 21
-200.743826
 31
0.0
  0
LINE
  5
45B
330
54
100
AcDbEntity
  8
LC-001-002-----0
  6
Continuous
 62
     7
100
AcDbLine
 10
34.5
 20
-149.226818
 30
0.0
 11
29.5
 21
-149.226818
 31
0.0
  0
LINE
  5
45C
330
54
100
AcDbEntity
  8
LC-001-002-----0
  6
Continuous
 62
     7
100
AcDbLine
 10
34.5
 20
-136.896653
 30
0.0
 11
29.5
 21
-136.896653
 31
0.0
  0
LINE
  5
45D
330
54
100
AcDbEntity
  8
LC-001-002-----0
  6
Continuous
 62
     7
100
AcDbLine
 10
34.5
 20
-124.566487
 30
0.0
 11
29.5
 21
-124.566487
 31
0.0
  0
LINE
  5
45E
330
54
100
AcDbEntity
  8
LC-001-002-----0
  6
Continuous
 62
     7
100
AcDbLine
 10
34.50070500000004
 20
-112.236321
 30
0.0
 11
28.0
 21
-112.236321
 31
0.0
  0
LINE
  5
45F
330
54
100
AcDbEntity
  8
LC-001-002-----0
  6
Continuous
 62
     7
100
AcDbLine
 10
34.61938100000009
 20
-150.210578
 30
0.0
 11
29.75596400000006
 21
-151.423164
 31
0.0
  0
LINE
  5
460
330
54
100
AcDbEntity
  8
LC-001-002-----0
  6
Continuous
 62
     7
100
AcDbLine
 10
-34.615858
 20
-211.861406
 30
0.0
 11
-29.75244099999998
 21
-213.073992
 31
0.0
  0
LINE
  5
461
330
54
100
AcDbEntity
  8
LC-001-002-----0
  6
Continuous
 62
     7
100
AcDbLine
 10
34.61867600000005
 20
-162.540743
 30
0.0
 11
29.75525900000002
 21
-163.753329
 31
0.0
  0
LINE
  5
462
330
54
100
AcDbEntity
  8
LC-001-002-----0
  6
Continuous
 62
     7
100
AcDbLine
 10
34.61797200000001
 20
-174.870909
 30
0.0
 11
29.7545550000001
 21
-176.083495
 31
0.0
  0
LINE
  5
463
330
54
100
AcDbEntity
  8
LC-001-002-----0
  6
Continuous
 62
     7
100
AcDbLine
 10
34.61726699999997
 20
-187.201075
 30
0.0
 11
29.75384999999994
 21
-188.413661
 31
0.0
  0
LINE
  5
464
330
54
100
AcDbEntity
  8
LC-001-002-----0
  6
Continuous
 62
     7
100
AcDbLine
 10
-34.61515299999996
 20
-224.191572
 30
0.0
 11
-29.75173600000005
 21
-225.404158
 31
0.0
  0
LINE
  5
465
330
54
100
AcDbEntity
  8
LC-001-002-----0
  6
Continuous
 62
     7
100
AcDbLine
 10
-34.61444799999993
 20
-236.521737
 30
0.0
 11
-29.7510309999999
 21
-237.734323
 31
0.0
  0
LINE
  5
466
330
54
100
AcDbEntity
  8
LC-001-002-----0
  6
Continuous
 62
     7
100
AcDbLine
 10
-34.613744
 20
-248.851903
 30
0.0
 11
-29.75032699999997
 21
-250.064489
 31
0.0
  0
LINE
  5
467
330
54
100
AcDbEntity
  8
LC-001-002-----0
  6
Continuous
 62
     7
100
AcDbLine
 10
-34.61303899999996
 20
-261.182069
 30
0.0
 11
-29.74962199999993
 21
-262.394655
 31
0.0
  0
LINE
  5
468
330
54
100
AcDbEntity
  8
LC-001-002-----0
  6
Continuous
 62
     7
100
AcDbLine
 10
-29.0
 20
-337.348568
 30
0.0
 11
-29.0
 21
-337.736469
 31
0.0
  0
LINE
  5
469
330
54
100
AcDbEntity
  8
LC-001-002-----0
  6
Continuous
 62
     7
100
AcDbLine
 10
-29.0
 20
-333.679303
 30
0.0
 11
-29.0
 21
-325.018403
 31
0.0
  0
LINE
  5
46A
330
54
100
AcDbEntity
  8
LC-001-002-----0
  6
Continuous
 62
     7
100
AcDbLine
 10
-29.0
 20
-173.38715
 30
0.0
 11
-29.0
 21
-164.726249
 31
0.0
  0
LINE
  5
46B
330
54
100
AcDbEntity
  8
LC-001-002-----0
  6
Continuous
 62
     7
100
AcDbLine
 10
-29.5
 20
-334.179303
 30
0.0
 11
-34.5
 21
-334.179303
 31
0.0
  0
LINE
  5
46C
330
54
100
AcDbEntity
  8
LC-001-002-----0
  6
Continuous
 62
     7
100
AcDbLine
 10
-29.0
 20
-185.717315
 30
0.0
 11
-29.0
 21
-177.056415
 31
0.0
  0
LINE
  5
46D
330
54
100
AcDbEntity
  8
LC-001-002-----0
  6
Continuous
 62
     7
100
AcDbLine
 10
-29.0
 20
-198.047481
 30
0.0
 11
-29.0
 21
-189.386581
 31
0.0
  0
LINE
  5
46E
330
54
100
AcDbEntity
  8
LC-001-002-----0
  6
Continuous
 62
     7
100
AcDbLine
 10
-29.0
 20
-210.377647
 30
0.0
 11
-29.0
 21
-201.716746
 31
0.0
  0
LINE
  5
46F
330
54
100
AcDbEntity
  8
LC-001-002-----0
  6
Continuous
 62
     7
100
AcDbLine
 10
-34.61233400000003
 20
-273.512234
 30
0.0
 11
-29.74891700000001
 21
-274.72482
 31
0.0
  0
LINE
  5
470
330
54
100
AcDbEntity
  8
LC-001-002-----0
  6
Continuous
 62
     7
100
AcDbLine
 10
-29.5
 20
-321.849138
 30
0.0
 11
-34.5
 21
-321.849138
 31
0.0
  0
LINE
  5
471
330
54
100
AcDbEntity
  8
LC-001-002-----0
  6
Continuous
 62
     7
100
AcDbLine
 10
-29.5
 20
-309.518972
 30
0.0
 11
-34.5
 21
-309.518972
 31
0.0
  0
LINE
  5
472
330
54
100
AcDbEntity
  8
LC-001-002-----0
  6
Continuous
 62
     7
100
AcDbLine
 10
-34.61162899999999
 20
-285.8423999999999
 30
0.0
 11
-29.74821199999997
 21
-287.054986
 31
0.0
  0
LINE
  5
473
330
54
100
AcDbEntity
  8
LC-001-002-----0
  6
Continuous
 62
     7
100
AcDbLine
 10
-29.5
 20
-297.188806
 30
0.0
 11
-34.5
 21
-297.188806
 31
0.0
  0
LINE
  5
474
330
54
100
AcDbEntity
  8
LC-001-002-----0
  6
Continuous
 62
     7
100
AcDbLine
 10
-34.61092499999995
 20
-298.172566
 30
0.0
 11
-29.74750800000004
 21
-299.385152
 31
0.0
  0
LINE
  5
475
330
54
100
AcDbEntity
  8
LC-001-002-----0
  6
Continuous
 62
     7
100
AcDbLine
 10
-29.5
 20
-284.858641
 30
0.0
 11
-34.5
 21
-284.858641
 31
0.0
  0
LINE
  5
476
330
54
100
AcDbEntity
  8
LC-001-002-----0
  6
Continuous
 62
     7
100
AcDbLine
 10
-34.61021999999991
 20
-310.502731
 30
0.0
 11
-29.746803
 21
-311.715317
 31
0.0
  0
LINE
  5
477
330
54
100
AcDbEntity
  8
LC-001-002-----0
  6
Continuous
 62
     7
100
AcDbLine
 10
-29.5
 20
-272.528475
 30
0.0
 11
-34.5
 21
-272.528475
 31
0.0
  0
LINE
  5
478
330
54
100
AcDbEntity
  8
LC-001-002-----0
  6
Continuous
 62
     7
100
AcDbLine
 10
-29.5
 20
-260.198309
 30
0.0
 11
-34.5
 21
-260.198309
 31
0.0
  0
LINE
  5
479
330
54
100
AcDbEntity
  8
LC-001-002-----0
  6
Continuous
 62
     7
100
AcDbLine
 10
-29.0
 20
-222.707812
 30
0.0
 11
-29.0
 21
-214.046912
 31
0.0
  0
LINE
  5
47A
330
54
100
AcDbEntity
  8
LC-001-002-----0
  6
Continuous
 62
     7
100
AcDbLine
 10
-29.0
 20
-235.037978
 30
0.0
 11
-29.0
 21
-226.377078
 31
0.0
  0
LINE
  5
47B
330
54
100
AcDbEntity
  8
LC-001-002-----0
  6
Continuous
 62
     7
100
AcDbLine
 10
-34.60951499999999
 20
-322.832897
 30
0.0
 11
-29.74609799999996
 21
-324.045483
 31
0.0
  0
LINE
  5
47C
330
54
100
AcDbEntity
  8
LC-001-002-----0
  6
Continuous
 62
     7
100
AcDbLine
 10
-29.5
 20
-247.868144
 30
0.0
 11
-34.5
 21
-247.868144
 31
0.0
  0
LINE
  5
47D
330
54
100
AcDbEntity
  8
LC-001-002-----0
  6
Continuous
 62
     7
100
AcDbLine
 10
-34.60881099999995
 20
-335.163063
 30
0.0
 11
-29.74539399999992
 21
-336.375649
 31
0.0
  0
LINE
  5
47E
330
54
100
AcDbEntity
  8
LC-001-002-----0
  6
Continuous
 62
     7
100
AcDbLine
 10
-29.5
 20
-235.537978
 30
0.0
 11
-34.5
 21
-235.537978
 31
0.0
  0
LINE
  5
47F
330
54
100
AcDbEntity
  8
LC-001-002-----0
  6
Continuous
 62
     7
100
AcDbLine
 10
-29.0
 20
-259.698309
 30
0.0
 11
-29.0
 21
-251.037409
 31
0.0
  0
LINE
  5
480
330
54
100
AcDbEntity
  8
LC-001-002-----0
  6
Continuous
 62
     7
100
AcDbLine
 10
-29.0
 20
-284.358641
 30
0.0
 11
-29.0
 21
-275.69774
 31
0.0
  0
LINE
  5
481
330
54
100
AcDbEntity
  8
LC-001-002-----0
  6
Continuous
 62
     7
100
AcDbLine
 10
-29.0
 20
-296.688806
 30
0.0
 11
-29.0
 21
-288.027906
 31
0.0
  0
LINE
  5
482
330
54
100
AcDbEntity
  8
LC-001-002-----0
  6
Continuous
 62
     7
100
AcDbLine
 10
-29.0
 20
-309.018972
 30
0.0
 11
-29.0
 21
-300.358071
 31
0.0
  0
LINE
  5
483
330
54
100
AcDbEntity
  8
LC-001-002-----0
  6
Continuous
 62
     7
100
AcDbLine
 10
-29.0
 20
-321.349138
 30
0.0
 11
-29.0
 21
-312.688237
 31
0.0
  0
LINE
  5
484
330
54
100
AcDbEntity
  8
LC-001-002-----0
  6
Continuous
 62
     7
100
AcDbLine
 10
29.0
 20
-161.056984
 30
0.0
 11
29.0
 21
-152.396084
 31
0.0
  0
LINE
  5
485
330
54
100
AcDbEntity
  8
LC-001-002-----0
  6
Continuous
 62
     7
100
AcDbLine
 10
29.0
 20
-148.726818
 30
0.0
 11
29.0
 21
-140.065918
 31
0.0
  0
LINE
  5
486
330
54
100
AcDbEntity
  8
LC-001-002-----0
  6
Continuous
 62
     7
100
AcDbLine
 10
29.0
 20
-136.396653
 30
0.0
 11
29.0
 21
-127.735752
 31
0.0
  0
LINE
  5
487
330
54
100
AcDbEntity
  8
LC-001-002-----0
  6
Continuous
 62
     7
100
AcDbLine
 10
29.0
 20
-124.066487
 30
0.0
 11
29.0
 21
-115.402962
 31
0.0
  0
LINE
  5
488
330
54
100
AcDbEntity
  8
LC-001-002-----0
  6
Continuous
 62
     7
100
AcDbLine
 10
-29.0
 20
-272.028475
 30
0.0
 11
-29.0
 21
-263.367574
 31
0.0
  0
LINE
  5
489
330
54
100
AcDbEntity
  8
LC-001-002-----0
  6
Continuous
 62
     7
100
AcDbLine
 10
34.61656200000004
 20
-199.53124
 30
0.0
 11
29.75314500000002
 21
-200.743826
 31
0.0
  0
LINE
  5
48A
330
54
100
AcDbEntity
  8
LC-001-002-----0
  6
Continuous
 62
     7
100
AcDbLine
 10
-29.0
 20
-247.368144
 30
0.0
 11
-29.0
 21
-238.707243
 31
0.0
  0
LINE
  5
48B
330
54
100
AcDbEntity
  8
LC-001-002-----0
  6
Continuous
 62
     7
100
AcDbLine
 10
34.615858
 20
-211.861406
 30
0.0
 11
29.75244099999998
 21
-213.073992
 31
0.0
  0
LINE
  5
48C
330
54
100
AcDbEntity
  8
LC-001-002-----0
  6
Continuous
 62
     7
100
AcDbLine
 10
34.61515300000008
 20
-224.191572
 30
0.0
 11
29.75173600000005
 21
-225.404158
 31
0.0
  0
LINE
  5
48D
330
54
100
AcDbEntity
  8
LC-001-002-----0
  6
Continuous
 62
     7
100
AcDbLine
 10
-28.5
 20
-338.236469
 30
0.0
 11
-28.0
 21
-338.236469
 31
0.0
  0
LINE
  5
48E
330
54
100
AcDbEntity
  8
LC-001-002-----0
  6
Continuous
 62
     7
100
AcDbLine
 10
-29.0
 20
-337.736469
 30
0.0
 11
-28.5
 21
-338.236469
 31
0.0
  0
LINE
  5
48F
330
54
100
AcDbEntity
  8
LC-001-002-----0
  6
Continuous
 62
     7
100
AcDbLine
 10
-29.5
 20
-223.207812
 30
0.0
 11
-34.5
 21
-223.207812
 31
0.0
  0
LINE
  5
490
330
54
100
AcDbEntity
  8
LC-001-002-----0
  6
Continuous
 62
     7
100
AcDbLine
 10
34.61444800000004
 20
-236.521737
 30
0.0
 11
29.75103100000001
 21
-237.734323
 31
0.0
  0
LINE
  5
491
330
54
100
AcDbEntity
  8
LC-001-002-----0
  6
Continuous
 62
     7
100
AcDbLine
 10
-29.5
 20
-210.877647
 30
0.0
 11
-34.5
 21
-210.877647
 31
0.0
  0
LINE
  5
492
330
54
100
AcDbEntity
  8
LC-001-002-----0
  6
Continuous
 62
     7
100
AcDbLine
 10
-29.5
 20
-198.547481
 30
0.0
 11
-34.5
 21
-198.547481
 31
0.0
  0
LINE
  5
493
330
54
100
AcDbEntity
  8
LC-001-002-----0
  6
Continuous
 62
     7
100
AcDbLine
 10
34.613743
 20
-248.851903
 30
0.0
 11
29.75032599999997
 21
-250.064489
 31
0.0
  0
LINE
  5
494
330
54
100
AcDbEntity
  8
LC-001-002-----0
  6
Continuous
 62
     7
100
AcDbLine
 10
-29.5
 20
-186.217315
 30
0.0
 11
-34.5
 21
-186.217315
 31
0.0
  0
LINE
  5
495
330
54
100
AcDbEntity
  8
LC-001-002-----0
  6
Continuous
 62
     7
100
AcDbLine
 10
34.61303899999996
 20
-261.182069
 30
0.0
 11
29.74962200000005
 21
-262.394655
 31
0.0
  0
LINE
  5
496
330
54
100
AcDbEntity
  8
LC-001-002-----0
  6
Continuous
 62
     7
100
AcDbLine
 10
-29.5
 20
-173.88715
 30
0.0
 11
-34.5
 21
-173.88715
 31
0.0
  0
LINE
  5
497
330
54
100
AcDbEntity
  8
LC-001-002-----0
  6
Continuous
 62
     7
100
AcDbLine
 10
29.0
 20
-337.348568
 30
0.0
 11
29.0
 21
-337.736469
 31
0.0
  0
LINE
  5
498
330
54
100
AcDbEntity
  8
LC-001-002-----0
  6
Continuous
 62
     7
100
AcDbLine
 10
29.0
 20
-333.679303
 30
0.0
 11
29.0
 21
-325.018403
 31
0.0
  0
LINE
  5
499
330
54
100
AcDbEntity
  8
LC-001-002-----0
  6
Continuous
 62
     7
100
AcDbLine
 10
29.0
 20
-173.38715
 30
0.0
 11
29.0
 21
-164.726249
 31
0.0
  0
LINE
  5
49A
330
54
100
AcDbEntity
  8
LC-001-002-----0
  6
Continuous
 62
     7
100
AcDbLine
 10
29.5
 20
-334.179303
 30
0.0
 11
34.5
 21
-334.179303
 31
0.0
  0
LINE
  5
49B
330
54
100
AcDbEntity
  8
LC-001-002-----0
  6
Continuous
 62
     7
100
AcDbLine
 10
29.0
 20
-185.717315
 30
0.0
 11
29.0
 21
-177.056415
 31
0.0
  0
LINE
  5
49C
330
54
100
AcDbEntity
  8
LC-001-002-----0
  6
Continuous
 62
     7
100
AcDbLine
 10
29.0
 20
-198.047481
 30
0.0
 11
29.0
 21
-189.386581
 31
0.0
  0
LINE
  5
49D
330
54
100
AcDbEntity
  8
LC-001-002-----0
  6
Continuous
 62
     7
100
AcDbLine
 10
29.0
 20
-210.377647
 30
0.0
 11
29.0
 21
-201.716746
 31
0.0
  0
LINE
  5
49E
330
54
100
AcDbEntity
  8
LC-001-002-----0
  6
Continuous
 62
     7
100
AcDbLine
 10
34.61233400000003
 20
-273.512234
 30
0.0
 11
29.74891700000001
 21
-274.72482
 31
0.0
  0
LINE
  5
49F
330
54
100
AcDbEntity
  8
LC-001-002-----0
  6
Continuous
 62
     7
100
AcDbLine
 10
29.5
 20
-321.849138
 30
0.0
 11
34.5
 21
-321.849138
 31
0.0
  0
LINE
  5
4A0
330
54
100
AcDbEntity
  8
LC-001-002-----0
  6
Continuous
 62
     7
100
AcDbLine
 10
29.5
 20
-309.518972
 30
0.0
 11
34.5
 21
-309.518972
 31
0.0
  0
LINE
  5
4A1
330
54
100
AcDbEntity
  8
LC-001-002-----0
  6
Continuous
 62
     7
100
AcDbLine
 10
34.61162900000011
 20
-285.8423999999999
 30
0.0
 11
29.74821200000008
 21
-287.054986
 31
0.0
  0
LINE
  5
4A2
330
54
100
AcDbEntity
  8
LC-001-002-----0
  6
Continuous
 62
     7
100
AcDbLine
 10
29.5
 20
-297.188806
 30
0.0
 11
34.5
 21
-297.188806
 31
0.0
  0
LINE
  5
4A3
330
54
100
AcDbEntity
  8
LC-001-002-----0
  6
Continuous
 62
     7
100
AcDbLine
 10
34.61092500000007
 20
-298.172566
 30
0.0
 11
29.74750800000004
 21
-299.385152
 31
0.0
  0
LINE
  5
4A4
330
54
100
AcDbEntity
  8
LC-001-002-----0
  6
Continuous
 62
     7
100
AcDbLine
 10
29.5
 20
-284.858641
 30
0.0
 11
34.5
 21
-284.858641
 31
0.0
  0
LINE
  5
4A5
330
54
100
AcDbEntity
  8
LC-001-002-----0
  6
Continuous
 62
     7
100
AcDbLine
 10
34.61022000000003
 20
-310.502731
 30
0.0
 11
29.746803
 21
-311.715317
 31
0.0
  0
LINE
  5
4A6
330
54
100
AcDbEntity
  8
LC-001-002-----0
  6
Continuous
 62
     7
100
AcDbLine
 10
29.5
 20
-272.528475
 30
0.0
 11
34.5
 21
-272.528475
 31
0.0
  0
LINE
  5
4A7
330
54
100
AcDbEntity
  8
LC-001-002-----0
  6
Continuous
 62
     7
100
AcDbLine
 10
29.5
 20
-260.198309
 30
0.0
 11
34.5
 21
-260.198309
 31
0.0
  0
LINE
  5
4A8
330
54
100
AcDbEntity
  8
LC-001-002-----0
  6
Continuous
 62
     7
100
AcDbLine
 10
29.0
 20
-222.707812
 30
0.0
 11
29.0
 21
-214.046912
 31
0.0
  0
LINE
  5
4A9
330
54
100
AcDbEntity
  8
LC-001-002-----0
  6
Continuous
 62
     7
100
AcDbLine
 10
29.0
 20
-235.037978
 30
0.0
 11
29.0
 21
-226.377078
 31
0.0
  0
LINE
  5
4AA
330
54
100
AcDbEntity
  8
LC-001-002-----0
  6
Continuous
 62
     7
100
AcDbLine
 10
34.60951499999999
 20
-322.832897
 30
0.0
 11
29.74609799999996
 21
-324.045483
 31
0.0
  0
LINE
  5
4AB
330
54
100
AcDbEntity
  8
LC-001-002-----0
  6
Continuous
 62
     7
100
AcDbLine
 10
29.5
 20
-247.868144
 30
0.0
 11
34.5
 21
-247.868144
 31
0.0
  0
LINE
  5
4AC
330
54
100
AcDbEntity
  8
LC-001-002-----0
  6
Continuous
 62
     7
100
AcDbLine
 10
34.60881099999995
 20
-335.163063
 30
0.0
 11
29.74539400000003
 21
-336.375649
 31
0.0
  0
LINE
  5
4AD
330
54
100
AcDbEntity
  8
LC-001-002-----0
  6
Continuous
 62
     7
100
AcDbLine
 10
29.5
 20
-235.537978
 30
0.0
 11
34.5
 21
-235.537978
 31
0.0
  0
LINE
  5
4AE
330
54
100
AcDbEntity
  8
LC-001-002-----0
  6
Continuous
 62
     7
100
AcDbLine
 10
29.0
 20
-259.698309
 30
0.0
 11
29.0
 21
-251.037409
 31
0.0
  0
LINE
  5
4AF
330
54
100
AcDbEntity
  8
LC-001-002-----0
  6
Continuous
 62
     7
100
AcDbLine
 10
29.0
 20
-284.358641
 30
0.0
 11
29.0
 21
-275.69774
 31
0.0
  0
LINE
  5
4B0
330
54
100
AcDbEntity
  8
LC-001-002-----0
  6
Continuous
 62
     7
100
AcDbLine
 10
29.0
 20
-296.688806
 30
0.0
 11
29.0
 21
-288.027906
 31
0.0
  0
LINE
  5
4B1
330
54
100
AcDbEntity
  8
LC-001-002-----0
  6
Continuous
 62
     7
100
AcDbLine
 10
29.0
 20
-309.018972
 30
0.0
 11
29.0
 21
-300.358071
 31
0.0
  0
LINE
  5
4B2
330
54
100
AcDbEntity
  8
LC-001-002-----0
  6
Continuous
 62
     7
100
AcDbLine
 10
29.0
 20
-321.349138
 30
0.0
 11
29.0
 21
-312.688237
 31
0.0
  0
LINE
  5
4B3
330
54
100
AcDbEntity
  8
LC-001-002-----0
  6
Continuous
 62
     7
100
AcDbLine
 10
29.0
 20
-272.028475
 30
0.0
 11
29.0
 21
-263.367574
 31
0.0
  0
LINE
  5
4B4
330
54
100
AcDbEntity
  8
LC-001-002-----0
  6
Continuous
 62
     7
100
AcDbLine
 10
29.0
 20
-247.368144
 30
0.0
 11
29.0
 21
-238.707243
 31
0.0
  0
LINE
  5
4B5
330
54
100
AcDbEntity
  8
LC-001-002-----0
  6
Continuous
 62
     7
100
AcDbLine
 10
28.5
 20
-338.236469
 30
0.0
 11
28.0
 21
-338.236469
 31
0.0
  0
LINE
  5
4B6
330
54
100
AcDbEntity
  8
LC-001-002-----0
  6
Continuous
 62
     7
100
AcDbLine
 10
29.0
 20
-337.736469
 30
0.0
 11
28.5
 21
-338.236469
 31
0.0
  0
LINE
  5
4B7
330
54
100
AcDbEntity
  8
LC-001-002-----0
  6
Continuous
 62
     7
100
AcDbLine
 10
29.5
 20
-223.207812
 30
0.0
 11
34.5
 21
-223.207812
 31
0.0
  0
LINE
  5
4B8
330
54
100
AcDbEntity
  8
LC-001-002-----0
  6
Continuous
 62
     7
100
AcDbLine
 10
29.5
 20
-210.877647
 30
0.0
 11
34.5
 21
-210.877647
 31
0.0
  0
LINE
  5
4B9
330
54
100
AcDbEntity
  8
LC-001-002-----0
  6
Continuous
 62
     7
100
AcDbLine
 10
29.5
 20
-198.547481
 30
0.0
 11
34.5
 21
-198.547481
 31
0.0
  0
LINE
  5
4BA
330
54
100
AcDbEntity
  8
LC-001-002-----0
  6
Continuous
 62
     7
100
AcDbLine
 10
29.5
 20
-186.217315
 30
0.0
 11
34.5
 21
-186.217315
 31
0.0
  0
LINE
  5
4BB
330
54
100
AcDbEntity
  8
LC-001-002-----0
  6
Continuous
 62
     7
100
AcDbLine
 10
29.5
 20
-173.88715
 30
0.0
 11
34.5
 21
-173.88715
 31
0.0
  0
LINE
  5
4BC
330
54
100
AcDbEntity
  8
LC-001-002-----0
  6
Continuous
 62
     7
100
AcDbLine
 10
34.5
 20
-161.556984
 30
0.0
 11
29.5
 21
-161.556984
 31
0.0
  0
LINE
  5
4BD
330
54
100
AcDbEntity
  8
LC-001-002-----0
  6
Continuous
 62
     7
100
AcDbLine
 10
-34.5
 20
-161.556984
 30
0.0
 11
-29.5
 21
-161.556984
 31
0.0
  0
LINE
  5
4BE
330
54
100
AcDbEntity
  8
LC-001-002-----0
  6
DASHDOT
 62
     2
100
AcDbLine
 10
0.0
 20
70.79348700000003
 30
0.0
 11
0.0
 21
-54.37111799999997
 31
0.0
  0
LINE
  5
4BF
330
54
100
AcDbEntity
  8
LC-001-002-----0
  6
DASHDOT
 62
     2
100
AcDbLine
 10
0.0
 20
-54.80111799999997
 30
0.0
 11
0.0
 21
-348.236469
 31
0.0
  0
LINE
  5
4C0
330
54
100
AcDbEntity
  8
LC-001-002-----0
  6
Continuous
 62
     7
100
AcDbLine
 10
127.246697
 20
0.0
 30
0.0
 11
-231.993711
 21
0.0
 31
0.0
  0
LINE
  5
4C1
330
54
100
AcDbEntity
  8
LC-001-002-----0
  6
Continuous
 62
     7
100
AcDbLine
 10
231.9954280000001
 20
0.0
 30
0.0
 11
231.9954280000001
 21
-3.236469
 31
0.0
  0
LINE
  5
4C2
330
54
100
AcDbEntity
  8
LC-001-002-----0
  6
Continuous
 62
     7
100
AcDbLine
 10
221.9954280000001
 20
0.0
 30
0.0
 11
231.9954280000001
 21
0.0
 31
0.0
  0
LINE
  5
4C3
330
54
100
AcDbEntity
  8
LC-001-002-----0
  6
Continuous
 62
     7
100
AcDbLine
 10
127.246697
 20
0.0
 30
0.0
 11
231.9937100000001
 21
0.0
 31
0.0
  0
LINE
  5
4C4
330
54
100
AcDbEntity
  8
LC-001-002-----0
  6
Continuous
 62
     7
100
AcDbLine
 10
140.919893
 20
-3.236469
 30
0.0
 11
231.9954280000001
 21
-3.236469
 31
0.0
  0
LINE
  5
4C5
330
54
100
AcDbEntity
  8
LC-001-002-----0
  6
Continuous
 62
     7
100
AcDbLine
 10
90.99993700000005
 20
-37.23642599999999
 30
0.0
 11
90.99993700000005
 21
-30.236334
 31
0.0
  0
LINE
  5
4C6
330
54
100
AcDbEntity
  8
LC-001-002-----0
  6
Continuous
 62
     7
100
AcDbLine
 10
96.49993700000005
 20
-37.73642599999999
 30
0.0
 11
91.49993700000005
 21
-37.73642599999999
 31
0.0
  0
LINE
  5
4C7
330
54
100
AcDbEntity
  8
LC-001-002-----0
  6
Continuous
 62
     7
100
AcDbLine
 10
96.99993700000005
 20
-37.23642599999999
 30
0.0
 11
96.99993700000005
 21
-30.23646399999996
 31
0.0
  0
LINE
  5
4C8
330
54
100
AcDbEntity
  8
LC-001-002-----0
  6
Continuous
 62
     7
100
AcDbLine
 10
96.49993700000005
 20
-37.73642599999999
 30
0.0
 11
96.99993700000005
 21
-37.23642599999999
 31
0.0
  0
LINE
  5
4C9
330
54
100
AcDbEntity
  8
LC-001-002-----0
  6
Continuous
 62
     7
100
AcDbLine
 10
91.49993700000005
 20
-37.73642599999999
 30
0.0
 11
90.99993700000005
 21
-37.23642599999999
 31
0.0
  0
LINE
  5
4CA
330
54
100
AcDbEntity
  8
LC-001-002-----0
  6
Continuous
 62
     7
100
AcDbLine
 10
-90.99993699999993
 20
-37.23642599999999
 30
0.0
 11
-90.99993699999993
 21
-30.23643999999996
 31
0.0
  0
LINE
  5
4CB
330
54
100
AcDbEntity
  8
LC-001-002-----0
  6
Continuous
 62
     7
100
AcDbLine
 10
-96.49993699999993
 20
-37.73642599999999
 30
0.0
 11
-91.49993699999993
 21
-37.73642599999999
 31
0.0
  0
LINE
  5
4CC
330
54
100
AcDbEntity
  8
LC-001-002-----0
  6
Continuous
 62
     7
100
AcDbLine
 10
-96.99993699999993
 20
-37.23642599999999
 30
0.0
 11
-96.99993699999993
 21
-30.23647699999998
 31
0.0
  0
LINE
  5
4CD
330
54
100
AcDbEntity
  8
LC-001-002-----0
  6
Continuous
 62
     7
100
AcDbLine
 10
-96.49993699999993
 20
-37.73642599999999
 30
0.0
 11
-96.99993699999993
 21
-37.23642599999999
 31
0.0
  0
LINE
  5
4CE
330
54
100
AcDbEntity
  8
LC-001-002-----0
  6
Continuous
 62
     7
100
AcDbLine
 10
-91.49993699999993
 20
-37.73642599999999
 30
0.0
 11
-90.99993699999993
 21
-37.23642599999999
 31
0.0
  0
LINE
  5
4CF
330
54
100
AcDbEntity
  8
LC-001-002-----0
  6
Continuous
 62
     7
100
AcDbLine
 10
0.0
 20
-348.236469
 30
0.0
 11
25.0
 21
-348.236469
 31
0.0
  0
LINE
  5
4D0
330
54
100
AcDbEntity
  8
LC-001-002-----0
  6
Continuous
 62
     7
100
AcDbLine
 10
-28.0
 20
-338.236469
 30
0.0
 11
-28.0
 21
-343.736469
 31
0.0
  0
LINE
  5
4D1
330
54
100
AcDbEntity
  8
LC-001-002-----0
  6
Continuous
 62
     7
100
AcDbLine
 10
28.0
 20
-338.236469
 30
0.0
 11
28.0
 21
-343.736469
 31
0.0
  0
LINE
  5
4D2
330
54
100
AcDbEntity
  8
LC-001-002-----0
  6
Continuous
 62
     7
100
AcDbLine
 10
-28.0
 20
-343.736469
 30
0.0
 11
28.0
 21
-343.736469
 31
0.0
  0
LINE
  5
4D3
330
54
100
AcDbEntity
  8
LC-001-002-----0
  6
Continuous
 62
     7
100
AcDbLine
 10
28.0
 20
-338.236469
 30
0.0
 11
-28.0
 21
-338.236469
 31
0.0
  0
LINE
  5
4D4
330
54
100
AcDbEntity
  8
LC-001-002-----0
  6
Continuous
 62
     7
100
AcDbLine
 10
-29.0
 20
-337.542519
 30
0.0
 11
29.0
 21
-337.542519
 31
0.0
  0
LINE
  5
4D5
330
54
100
AcDbEntity
  8
LC-001-002-----0
  6
Continuous
 62
     7
100
AcDbLine
 10
-29.5
 20
-334.179303
 30
0.0
 11
29.5
 21
-334.179303
 31
0.0
  0
LINE
  5
4D6
330
54
100
AcDbEntity
  8
LC-001-002-----0
  6
Continuous
 62
     7
100
AcDbLine
 10
-29.5
 20
-321.849138
 30
0.0
 11
29.5
 21
-321.849138
 31
0.0
  0
LINE
  5
4D7
330
54
100
AcDbEntity
  8
LC-001-002-----0
  6
Continuous
 62
     7
100
AcDbLine
 10
-29.5
 20
-309.518972
 30
0.0
 11
29.5
 21
-309.518972
 31
0.0
  0
LINE
  5
4D8
330
54
100
AcDbEntity
  8
LC-001-002-----0
  6
Continuous
 62
     7
100
AcDbLine
 10
-29.5
 20
-297.188806
 30
0.0
 11
29.5
 21
-297.188806
 31
0.0
  0
LINE
  5
4D9
330
54
100
AcDbEntity
  8
LC-001-002-----0
  6
Continuous
 62
     7
100
AcDbLine
 10
-29.5
 20
-284.858641
 30
0.0
 11
29.5
 21
-284.858641
 31
0.0
  0
LINE
  5
4DA
330
54
100
AcDbEntity
  8
LC-001-002-----0
  6
Continuous
 62
     7
100
AcDbLine
 10
-29.5
 20
-272.528475
 30
0.0
 11
29.5
 21
-272.528475
 31
0.0
  0
LINE
  5
4DB
330
54
100
AcDbEntity
  8
LC-001-002-----0
  6
Continuous
 62
     7
100
AcDbLine
 10
-29.5
 20
-260.198309
 30
0.0
 11
29.5
 21
-260.198309
 31
0.0
  0
LINE
  5
4DC
330
54
100
AcDbEntity
  8
LC-001-002-----0
  6
Continuous
 62
     7
100
AcDbLine
 10
-29.5
 20
-247.868144
 30
0.0
 11
29.5
 21
-247.868144
 31
0.0
  0
LINE
  5
4DD
330
54
100
AcDbEntity
  8
LC-001-002-----0
  6
Continuous
 62
     7
100
AcDbLine
 10
-29.5
 20
-235.537978
 30
0.0
 11
29.5
 21
-235.537978
 31
0.0
  0
LINE
  5
4DE
330
54
100
AcDbEntity
  8
LC-001-002-----0
  6
Continuous
 62
     7
100
AcDbLine
 10
-29.5
 20
-223.207812
 30
0.0
 11
29.5
 21
-223.207812
 31
0.0
  0
LINE
  5
4DF
330
54
100
AcDbEntity
  8
LC-001-002-----0
  6
Continuous
 62
     7
100
AcDbLine
 10
-29.5
 20
-210.877647
 30
0.0
 11
29.5
 21
-210.877647
 31
0.0
  0
LINE
  5
4E0
330
54
100
AcDbEntity
  8
LC-001-002-----0
  6
Continuous
 62
     7
100
AcDbLine
 10
-29.5
 20
-198.547481
 30
0.0
 11
29.5
 21
-198.547481
 31
0.0
  0
LINE
  5
4E1
330
54
100
AcDbEntity
  8
LC-001-002-----0
  6
Continuous
 62
     7
100
AcDbLine
 10
-29.5
 20
-186.217315
 30
0.0
 11
29.5
 21
-186.217315
 31
0.0
  0
LINE
  5
4E2
330
54
100
AcDbEntity
  8
LC-001-002-----0
  6
Continuous
 62
     7
100
AcDbLine
 10
-29.5
 20
-173.88715
 30
0.0
 11
29.5
 21
-173.88715
 31
0.0
  0
LINE
  5
4E3
330
54
100
AcDbEntity
  8
LC-001-002-----0
  6
Continuous
 62
     7
100
AcDbLine
 10
-29.5
 20
-161.556984
 30
0.0
 11
29.5
 21
-161.556984
 31
0.0
  0
LINE
  5
4E4
330
54
100
AcDbEntity
  8
LC-001-002-----0
  6
Continuous
 62
     7
100
AcDbLine
 10
-29.5
 20
-149.226818
 30
0.0
 11
29.5
 21
-149.226818
 31
0.0
  0
LINE
  5
4E5
330
54
100
AcDbEntity
  8
LC-001-002-----0
  6
Continuous
 62
     7
100
AcDbLine
 10
-29.5
 20
-136.896653
 30
0.0
 11
29.5
 21
-136.896653
 31
0.0
  0
LINE
  5
4E6
330
54
100
AcDbEntity
  8
LC-001-002-----0
  6
Continuous
 62
     7
100
AcDbLine
 10
-29.5
 20
-124.566487
 30
0.0
 11
29.5
 21
-124.566487
 31
0.0
  0
LINE
  5
4E7
330
54
100
AcDbEntity
  8
LC-001-002-----0
  6
Continuous
 62
     7
100
AcDbLine
 10
-29.5
 20
-112.236321
 30
0.0
 11
29.5
 21
-112.236321
 31
0.0
  0
LINE
  5
4E8
330
54
100
AcDbEntity
  8
LC-001-002-----0
  6
Continuous
 62
     7
100
AcDbLine
 10
-29.0
 20
-324.045483
 30
0.0
 11
29.0
 21
-324.045483
 31
0.0
  0
LINE
  5
4E9
330
54
100
AcDbEntity
  8
LC-001-002-----0
  6
Continuous
 62
     7
100
AcDbLine
 10
-28.98801999999989
 20
-336.375649
 30
0.0
 11
28.98802000000001
 21
-336.375649
 31
0.0
  0
LINE
  5
4EA
330
54
100
AcDbEntity
  8
LC-001-002-----0
  6
Continuous
 62
     7
100
AcDbLine
 10
-29.0
 20
-311.715317
 30
0.0
 11
29.0
 21
-311.715317
 31
0.0
  0
LINE
  5
4EB
330
54
100
AcDbEntity
  8
LC-001-002-----0
  6
Continuous
 62
     7
100
AcDbLine
 10
-29.0
 20
-299.385152
 30
0.0
 11
29.0
 21
-299.385152
 31
0.0
  0
LINE
  5
4EC
330
54
100
AcDbEntity
  8
LC-001-002-----0
  6
Continuous
 62
     7
100
AcDbLine
 10
-29.0
 20
-287.054986
 30
0.0
 11
29.0
 21
-287.054986
 31
0.0
  0
LINE
  5
4ED
330
54
100
AcDbEntity
  8
LC-001-002-----0
  6
Continuous
 62
     7
100
AcDbLine
 10
-29.0
 20
-274.72482
 30
0.0
 11
29.0
 21
-274.72482
 31
0.0
  0
LINE
  5
4EE
330
54
100
AcDbEntity
  8
LC-001-002-----0
  6
Continuous
 62
     7
100
AcDbLine
 10
-29.0
 20
-262.394655
 30
0.0
 11
29.0
 21
-262.394655
 31
0.0
  0
LINE
  5
4EF
330
54
100
AcDbEntity
  8
LC-001-002-----0
  6
Continuous
 62
     7
100
AcDbLine
 10
-29.0
 20
-250.064489
 30
0.0
 11
29.0
 21
-250.064489
 31
0.0
  0
LINE
  5
4F0
330
54
100
AcDbEntity
  8
LC-001-002-----0
  6
Continuous
 62
     7
100
AcDbLine
 10
-29.0
 20
-237.734323
 30
0.0
 11
29.0
 21
-237.734323
 31
0.0
  0
LINE
  5
4F1
330
54
100
AcDbEntity
  8
LC-001-002-----0
  6
Continuous
 62
     7
100
AcDbLine
 10
-29.0
 20
-225.404158
 30
0.0
 11
29.0
 21
-225.404158
 31
0.0
  0
LINE
  5
4F2
330
54
100
AcDbEntity
  8
LC-001-002-----0
  6
Continuous
 62
     7
100
AcDbLine
 10
-29.0
 20
-213.073992
 30
0.0
 11
29.0
 21
-213.073992
 31
0.0
  0
LINE
  5
4F3
330
54
100
AcDbEntity
  8
LC-001-002-----0
  6
Continuous
 62
     7
100
AcDbLine
 10
-29.0
 20
-200.743826
 30
0.0
 11
29.0
 21
-200.743826
 31
0.0
  0
LINE
  5
4F4
330
54
100
AcDbEntity
  8
LC-001-002-----0
  6
Continuous
 62
     7
100
AcDbLine
 10
-29.0
 20
-188.413661
 30
0.0
 11
29.0
 21
-188.413661
 31
0.0
  0
LINE
  5
4F5
330
54
100
AcDbEntity
  8
LC-001-002-----0
  6
Continuous
 62
     7
100
AcDbLine
 10
-29.0
 20
-176.083495
 30
0.0
 11
29.0
 21
-176.083495
 31
0.0
  0
LINE
  5
4F6
330
54
100
AcDbEntity
  8
LC-001-002-----0
  6
Continuous
 62
     7
100
AcDbLine
 10
-29.0
 20
-163.753329
 30
0.0
 11
29.0
 21
-163.753329
 31
0.0
  0
LINE
  5
4F7
330
54
100
AcDbEntity
  8
LC-001-002-----0
  6
Continuous
 62
     7
100
AcDbLine
 10
-29.0
 20
-151.423164
 30
0.0
 11
29.0
 21
-151.423164
 31
0.0
  0
LINE
  5
4F8
330
54
100
AcDbEntity
  8
LC-001-002-----0
  6
Continuous
 62
     7
100
AcDbLine
 10
-29.0
 20
-139.092998
 30
0.0
 11
29.0
 21
-139.092998
 31
0.0
  0
LINE
  5
4F9
330
54
100
AcDbEntity
  8
LC-001-002-----0
  6
Continuous
 62
     7
100
AcDbLine
 10
-29.0
 20
-126.762832
 30
0.0
 11
29.0
 21
-126.762832
 31
0.0
  0
LINE
  5
4FA
330
54
100
AcDbEntity
  8
LC-001-002-----0
  6
Continuous
 62
     7
100
AcDbLine
 10
-29.0
 20
-114.432667
 30
0.0
 11
29.0
 21
-114.432667
 31
0.0
  0
LINE
  5
4FB
330
54
100
AcDbEntity
  8
LC-001-002-----0
  6
Continuous
 62
     7
100
AcDbLine
 10
-28.00003400000003
 20
-98.236469
 30
0.0
 11
28.00000499999999
 21
-98.236469
 31
0.0
  0
LINE
  5
4FC
330
54
100
AcDbEntity
  8
LC-001-002-----0
  6
Continuous
 62
     7
100
AcDbLine
 10
-62.5
 20
-47.18767700000001
 30
0.0
 11
62.5
 21
-47.18767700000001
 31
0.0
  0
LINE
  5
4FD
330
54
100
AcDbEntity
  8
LC-001-002-----0
  6
Continuous
 62
     7
100
AcDbLine
 10
-80.75
 20
-32.736469
 30
0.0
 11
-49.99996699999997
 21
-32.736469
 31
0.0
  0
LINE
  5
4FE
330
54
100
AcDbEntity
  8
LC-001-002-----0
  6
Continuous
 62
     7
100
AcDbLine
 10
81.75
 20
-31.736469
 30
0.0
 11
49.99996700000008
 21
-31.736469
 31
0.0
  0
LINE
  5
4FF
330
54
100
AcDbEntity
  8
LC-001-002-----0
  6
Continuous
 62
     7
100
AcDbLine
 10
-85.500001
 20
-30.23617300000001
 30
0.0
 11
85.500001
 21
-30.23617300000001
 31
0.0
  0
LINE
  5
500
330
54
100
AcDbEntity
  8
LC-001-002-----0
  6
Continuous
 62
     7
100
AcDbLine
 10
100.005186
 20
-15.99460999999997
 30
0.0
 11
-100.00518
 21
-15.99460999999997
 31
0.0
  0
LINE
  5
501
330
54
100
AcDbEntity
  8
LC-001-002-----0
  6
Continuous
 62
     7
100
AcDbLine
 10
-101.005186
 20
-14.99480499999999
 30
0.0
 11
101.005186
 21
-14.99480499999999
 31
0.0
  0
LINE
  5
502
330
54
100
AcDbEntity
  8
LC-001-002-----0
  6
Continuous
 62
     7
100
AcDbLine
 10
128.010255
 20
-6.236469
 30
0.0
 11
-128.015855
 21
-6.236469
 31
0.0
  0
LINE
  5
503
330
54
100
AcDbEntity
  8
LC-001-002-----0
  6
Continuous
 62
     7
100
AcDbLine
 10
-127.741663
 20
-3.236469
 30
0.0
 11
128.010255
 21
-3.236469
 31
0.0
  0
LINE
  5
504
330
54
100
AcDbEntity
  8
LC-001-002-----0
  6
DASHDOT
 62
     2
100
AcDbLine
 10
93.99993700000005
 20
12.26357400000001
 30
0.0
 11
93.99993700000005
 21
-37.73642599999999
 31
0.0
  0
LINE
  5
505
330
54
100
AcDbEntity
  8
LC-001-002-----0
  6
DASHDOT
 62
     2
100
AcDbLine
 10
-93.99993699999993
 20
12.26357400000001
 30
0.0
 11
-93.99993699999993
 21
-37.73642599999999
 31
0.0
  0
LINE
  5
506
330
54
100
AcDbEntity
  8
LC-001-002-----0
  6
DASHDOT
 62
     2
100
AcDbLine
 10
-46.99996699999997
 20
12.26357400000001
 30
0.0
 11
-46.99996699999997
 21
-37.73642599999999
 31
0.0
  0
LINE
  5
507
330
54
100
AcDbEntity
  8
LC-001-002-----0
  6
Continuous
 62
     7
100
AcDbLine
 10
-43.99996699999997
 20
-37.23642599999999
 30
0.0
 11
-43.99996699999997
 21
-30.23643999999996
 31
0.0
  0
LINE
  5
508
330
54
100
AcDbEntity
  8
LC-001-002-----0
  6
Continuous
 62
     7
100
AcDbLine
 10
-49.49996699999997
 20
-37.73642599999999
 30
0.0
 11
-44.49996699999997
 21
-37.73642599999999
 31
0.0
  0
LINE
  5
509
330
54
100
AcDbEntity
  8
LC-001-002-----0
  6
Continuous
 62
     7
100
AcDbLine
 10
-49.99996699999997
 20
-37.23642599999999
 30
0.0
 11
-49.99996699999997
 21
-30.23647699999998
 31
0.0
  0
LINE
  5
50A
330
54
100
AcDbEntity
  8
LC-001-002-----0
  6
Continuous
 62
     7
100
AcDbLine
 10
-49.49996699999997
 20
-37.73642599999999
 30
0.0
 11
-49.99996699999997
 21
-37.23642599999999
 31
0.0
  0
LINE
  5
50B
330
54
100
AcDbEntity
  8
LC-001-002-----0
  6
Continuous
 62
     7
100
AcDbLine
 10
-44.49996699999997
 20
-37.73642599999999
 30
0.0
 11
-43.99996699999997
 21
-37.23642599999999
 31
0.0
  0
LINE
  5
50C
330
54
100
AcDbEntity
  8
LC-001-002-----0
  6
Continuous
 62
     7
100
AcDbLine
 10
-43.99996699999997
 20
-32.736469
 30
0.0
 11
43.99996700000008
 21
-32.736469
 31
0.0
  0
LINE
  5
50D
330
54
100
AcDbEntity
  8
LC-001-002-----0
  6
Continuous
 62
     7
100
AcDbLine
 10
-49.99996699999997
 20
-31.736469
 30
0.0
 11
-81.75
 21
-31.736469
 31
0.0
  0
LINE
  5
50E
330
54
100
AcDbEntity
  8
LC-001-002-----0
  6
DASHDOT
 62
     2
100
AcDbLine
 10
46.99996700000008
 20
12.26357400000001
 30
0.0
 11
46.99996700000008
 21
-37.73642599999999
 31
0.0
  0
LINE
  5
50F
330
54
100
AcDbEntity
  8
LC-001-002-----0
  6
Continuous
 62
     7
100
AcDbLine
 10
43.99996700000008
 20
-37.23642599999999
 30
0.0
 11
43.99996700000008
 21
-30.23643999999996
 31
0.0
  0
LINE
  5
510
330
54
100
AcDbEntity
  8
LC-001-002-----0
  6
Continuous
 62
     7
100
AcDbLine
 10
49.49996700000008
 20
-37.73642599999999
 30
0.0
 11
44.49996700000008
 21
-37.73642599999999
 31
0.0
  0
LINE
  5
511
330
54
100
AcDbEntity
  8
LC-001-002-----0
  6
Continuous
 62
     7
100
AcDbLine
 10
49.99996700000008
 20
-37.23642599999999
 30
0.0
 11
49.99996700000008
 21
-30.23647699999998
 31
0.0
  0
LINE
  5
512
330
54
100
AcDbEntity
  8
LC-001-002-----0
  6
Continuous
 62
     7
100
AcDbLine
 10
49.49996700000008
 20
-37.73642599999999
 30
0.0
 11
49.99996700000008
 21
-37.23642599999999
 31
0.0
  0
LINE
  5
513
330
54
100
AcDbEntity
  8
LC-001-002-----0
  6
Continuous
 62
     7
100
AcDbLine
 10
44.49996700000008
 20
-37.73642599999999
 30
0.0
 11
43.99996700000008
 21
-37.23642599999999
 31
0.0
  0
LINE
  5
514
330
54
100
AcDbEntity
  8
LC-001-002-----0
  6
Continuous
 62
     7
100
AcDbLine
 10
43.99996700000008
 20
-31.736469
 30
0.0
 11
-43.99996699999997
 21
-31.736469
 31
0.0
  0
LINE
  5
515
330
54
100
AcDbEntity
  8
LC-001-002-----0
  6
Continuous
 62
     7
100
AcDbLine
 10
49.99996700000008
 20
-32.736469
 30
0.0
 11
80.75
 21
-32.736469
 31
0.0
  0
LINE
  5
516
330
54
100
AcDbEntity
  8
1
  6
Continuous
 62
     7
100
AcDbLine
 10
32.00002699999959
 20
-390.758318
 30
0.0
 11
37.50002734934014
 21
-388.1505752395272
 31
0.0
  0
LINE
  5
517
330
54
100
AcDbEntity
  8
1
  6
Continuous
 62
     7
100
AcDbLine
 10
13.00002699999959
 20
-387.758318
 30
0.0
 11
32.00002699999959
 21
-390.758318
 31
0.0
  0
LINE
  5
518
330
54
100
AcDbEntity
  8
1
  6
Continuous
 62
     7
100
AcDbLine
 10
-10.99997300000041
 20
-390.758318
 30
0.0
 11
13.00002699999959
 21
-387.758318
 31
0.0
  0
LINE
  5
519
330
54
100
AcDbEntity
  8
1
  6
Continuous
 62
     7
100
AcDbLine
 10
-24.99997300000041
 20
-385.758318
 30
0.0
 11
-10.99997300000041
 21
-390.758318
 31
0.0
  0
LINE
  5
51A
330
54
100
AcDbEntity
  8
1
  6
Continuous
 62
     7
100
AcDbLine
 10
-37.49997250254592
 20
-388.2583179005091
 30
0.0
 11
-24.99997300000041
 21
-385.758318
 31
0.0
  0
LWPOLYLINE
  5
51B
330
54
100
AcDbEntity
  8
LC-006-005-----0
  6
Continuous
 62
     3
100
AcDbPolyline
 90
        2
 70
     0
 43
1.0
 10
0.04459799999961
 20
-367.898053
 10
-0.05812100000037
 20
-367.795334
  0
LWPOLYLINE
  5
51C
330
54
100
AcDbEntity
  8
LC-006-005-----0
  6
Continuous
 62
     3
100
AcDbPolyline
 90
        2
 70
     0
 43
1.0
 10
0.11040699999967
 20
-367.398177
 10
-0.14388800000029
 20
-367.143882
  0
LWPOLYLINE
  5
51D
330
54
100
AcDbEntity
  8
LC-006-005-----0
  6
Continuous
 62
     3
100
AcDbPolyline
 90
        2
 70
     0
 43
1.0
 10
0.17621699999961
 20
-366.898302
 10
-0.22965500000032
 20
-366.492429
  0
LWPOLYLINE
  5
51E
330
54
100
AcDbEntity
  8
LC-006-005-----0
  6
Continuous
 62
     3
100
AcDbPolyline
 90
        2
 70
     0
 43
1.0
 10
0.24202699999967
 20
-366.398426
 10
-0.31542300000035
 20
-365.840976
  0
LWPOLYLINE
  5
51F
330
54
100
AcDbEntity
  8
LC-006-005-----0
  6
Continuous
 62
     3
100
AcDbPolyline
 90
        2
 70
     0
 43
1.0
 10
0.30783699999961
 20
-365.89855
 10
-0.40119000000038
 20
-365.189524
  0
LWPOLYLINE
  5
520
330
54
100
AcDbEntity
  8
LC-006-005-----0
  6
Continuous
 62
     3
100
AcDbPolyline
 90
        2
 70
     0
 43
1.0
 10
0.37364699999966
 20
-365.398675
 10
-0.4869570000003
 20
-364.538071
  0
LWPOLYLINE
  5
521
330
54
100
AcDbEntity
  8
LC-006-005-----0
  6
Continuous
 62
     3
100
AcDbPolyline
 90
        2
 70
     0
 43
1.0
 10
0.43945699999972
 20
-364.898799
 10
-0.57272400000033
 20
-363.886618
  0
LWPOLYLINE
  5
522
330
54
100
AcDbEntity
  8
LC-006-005-----0
  6
Continuous
 62
     3
100
AcDbPolyline
 90
        2
 70
     0
 43
1.0
 10
0.50526699999966
 20
-364.398924
 10
-0.65849100000037
 20
-363.235166
  0
LWPOLYLINE
  5
523
330
54
100
AcDbEntity
  8
LC-006-005-----0
  6
Continuous
 62
     3
100
AcDbPolyline
 90
        2
 70
     0
 43
1.0
 10
0.57107599999972
 20
-363.899048
 10
-0.7442580000004
 20
-362.583713
  0
LWPOLYLINE
  5
524
330
54
100
AcDbEntity
  8
LC-006-005-----0
  6
Continuous
 62
     3
100
AcDbPolyline
 90
        2
 70
     0
 43
1.0
 10
0.63688599999966
 20
-363.399173
 10
-0.83002600000032
 20
-361.932261
  0
LWPOLYLINE
  5
525
330
54
100
AcDbEntity
  8
LC-006-005-----0
  6
Continuous
 62
     3
100
AcDbPolyline
 90
        2
 70
     0
 43
1.0
 10
0.70269599999961
 20
-362.899297
 10
-0.91579300000035
 20
-361.280808
  0
LWPOLYLINE
  5
526
330
54
100
AcDbEntity
  8
LC-006-005-----0
  6
Continuous
 62
     3
100
AcDbPolyline
 90
        2
 70
     0
 43
1.0
 10
0.76850599999966
 20
-362.399422
 10
-1.00156000000038
 20
-360.629355
  0
LWPOLYLINE
  5
527
330
54
100
AcDbEntity
  8
LC-006-005-----0
  6
Continuous
 62
     3
100
AcDbPolyline
 90
        2
 70
     0
 43
1.0
 10
0.83431599999972
 20
-361.899546
 10
-1.08732700000041
 20
-359.977903
  0
LWPOLYLINE
  5
528
330
54
100
AcDbEntity
  8
LC-006-005-----0
  6
Continuous
 62
     3
100
AcDbPolyline
 90
        2
 70
     0
 43
1.0
 10
0.90012599999966
 20
-361.39967
 10
-1.17309400000033
 20
-359.32645
  0
LWPOLYLINE
  5
529
330
54
100
AcDbEntity
  8
LC-006-005-----0
  6
Continuous
 62
     3
100
AcDbPolyline
 90
        2
 70
     0
 43
1.0
 10
0.9659359999996
 20
-360.899795
 10
-1.25886200000036
 20
-358.674998
  0
LWPOLYLINE
  5
52A
330
54
100
AcDbEntity
  8
LC-006-005-----0
  6
Continuous
 62
     3
100
AcDbPolyline
 90
        2
 70
     0
 43
1.0
 10
1.03174599999966
 20
-360.399919
 10
-1.3446290000004
 20
-358.023545
  0
LWPOLYLINE
  5
52B
330
54
100
AcDbEntity
  8
LC-006-005-----0
  6
Continuous
 62
     3
100
AcDbPolyline
 90
        2
 70
     0
 43
1.0
 10
1.0975549999996
 20
-359.900044
 10
-1.43039600000031
 20
-357.372092
  0
LWPOLYLINE
  5
52C
330
54
100
AcDbEntity
  8
LC-006-005-----0
  6
Continuous
 62
     3
100
AcDbPolyline
 90
        2
 70
     0
 43
1.0
 10
1.16336499999966
 20
-359.400168
 10
-1.51616300000035
 20
-356.72064
  0
LWPOLYLINE
  5
52D
330
54
100
AcDbEntity
  8
LC-006-005-----0
  6
Continuous
 62
     3
100
AcDbPolyline
 90
        2
 70
     0
 43
1.0
 10
1.22917499999971
 20
-358.900293
 10
-1.60193000000038
 20
-356.069187
  0
LWPOLYLINE
  5
52E
330
54
100
AcDbEntity
  8
LC-006-005-----0
  6
Continuous
 62
     3
100
AcDbPolyline
 90
        2
 70
     0
 43
1.0
 10
1.29498499999966
 20
-358.400417
 10
-1.68769700000041
 20
-355.417735
  0
LWPOLYLINE
  5
52F
330
54
100
AcDbEntity
  8
LC-006-005-----0
  6
Continuous
 62
     3
100
AcDbPolyline
 90
        2
 70
     0
 43
1.0
 10
1.36079499999971
 20
-357.900541
 10
-1.77346500000033
 20
-354.766282
  0
LWPOLYLINE
  5
530
330
54
100
AcDbEntity
  8
LC-006-005-----0
  6
Continuous
 62
     3
100
AcDbPolyline
 90
        2
 70
     0
 43
1.0
 10
1.42660499999965
 20
-357.400666
 10
-1.85923200000036
 20
-354.114829
  0
LWPOLYLINE
  5
531
330
54
100
AcDbEntity
  8
LC-006-005-----0
  6
Continuous
 62
     3
100
AcDbPolyline
 90
        2
 70
     0
 43
1.0
 10
1.49241499999971
 20
-356.90079
 10
-1.33752800000036
 20
-354.070848
  0
LWPOLYLINE
  5
532
330
54
100
AcDbEntity
  8
LC-006-005-----0
  6
Continuous
 62
     3
100
AcDbPolyline
 90
        2
 70
     0
 43
1.0
 10
1.55822399999965
 20
-356.400915
 10
-0.77184200000033
 20
-354.070848
  0
LWPOLYLINE
  5
533
330
54
100
AcDbEntity
  8
LC-006-005-----0
  6
Continuous
 62
     3
100
AcDbPolyline
 90
        2
 70
     0
 43
1.0
 10
1.6240339999996
 20
-355.901039
 10
-0.2061570000003
 20
-354.070848
  0
LWPOLYLINE
  5
534
330
54
100
AcDbEntity
  8
LC-006-005-----0
  6
Continuous
 62
     3
100
AcDbPolyline
 90
        2
 70
     0
 43
1.0
 10
1.68984399999965
 20
-355.401164
 10
0.35952799999961
 20
-354.070848
  0
LWPOLYLINE
  5
535
330
54
100
AcDbEntity
  8
LC-006-005-----0
  6
Continuous
 62
     3
100
AcDbPolyline
 90
        2
 70
     0
 43
1.0
 10
1.7556539999996
 20
-354.901288
 10
0.92521399999964
 20
-354.070848
  0
LWPOLYLINE
  5
536
330
54
100
AcDbEntity
  8
LC-006-005-----0
  6
Continuous
 62
     3
100
AcDbPolyline
 90
        2
 70
     0
 43
1.0
 10
1.82146399999965
 20
-354.401413
 10
1.49089899999967
 20
-354.070848
  0
LWPOLYLINE
  5
537
330
54
100
AcDbEntity
  8
LC-005-002-----0
  6
Continuous
 62
     7
100
AcDbPolyline
 90
        2
 70
     0
 43
1.0
 10
-1.86502200000041
 20
-354.070848
 10
1.86498399999959
 20
-354.070848
  0
LWPOLYLINE
  5
538
330
54
100
AcDbEntity
  8
LC-005-002-----0
  6
Continuous
 62
     7
100
AcDbPolyline
 90
        2
 70
     0
 43
1.0
 10
-0.00000000000034
 20
-368.236801
 10
-1.86502200000041
 20
-354.070848
  0
LWPOLYLINE
  5
539
330
54
100
AcDbEntity
  8
LC-005-002-----0
  6
Continuous
 62
     7
100
AcDbPolyline
 90
        2
 70
     0
 43
1.0
 10
-0.00000000000034
 20
-368.236801
 10
1.86498399999959
 20
-354.070843
  0
LINE
  5
53A
330
54
100
AcDbEntity
  8
LC-005-002-----0
  6
Continuous
 62
     7
100
AcDbLine
 10
2.79499899999973
 20
-368.236801
 30
0.0
 11
37.49999999999966
 21
-368.236801
 31
0.0
  0
LINE
  5
53B
330
54
100
AcDbEntity
  8
LC-005-002-----0
  6
Continuous
 62
     7
100
AcDbLine
 10
37.49999999999966
 20
-368.236801
 30
0.0
 11
37.50002734934014
 21
-388.1505752395272
 31
0.0
  0
LINE
  5
53C
330
54
100
AcDbEntity
  8
LC-005-002-----0
  6
Continuous
 62
     7
100
AcDbLine
 10
-37.50000000000034
 20
-368.236698
 30
0.0
 11
-2.29995800000029
 21
-368.236698
 31
0.0
  0
LINE
  5
53D
330
54
100
AcDbEntity
  8
LC-005-002-----0
  6
Continuous
 62
     7
100
AcDbLine
 10
-37.50000000000034
 20
-368.236698
 30
0.0
 11
-37.49997250254592
 21
-388.2583179005091
 31
0.0
  0
LINE
  5
53E
330
54
100
AcDbEntity
  8
1
  6
PHANTOM
 62
     2
100
AcDbLine
 10
-0.00002746814039
 20
-348.2364741425475
 30
0.0
 11
0.00003520273845
 21
-393.868789645759
 31
0.0
  0
ARC
  5
53F
330
54
100
AcDbEntity
  8
LC-001-002-----0
  6
Continuous
 62
     7
100
AcDbCircle
 10
-47.00025500000265
 20
-6.85148699946512
 30
0.0
 40
11.40148749780223
100
AcDbArc
 50
86.94693616208936
 51
95.19799420433864
  0
ARC
  5
540
330
54
100
AcDbEntity
  8
LC-003-002-RND-0
  6
Continuous
 62
     7
100
AcDbCircle
 10
-89.76097200000004
 20
1.53867900053228
 30
0.0
 40
2.0
100
AcDbArc
 50
0.0
 51
63.12415000007062
  0
ARC
  5
541
330
54
100
AcDbEntity
  8
LC-001-002-----0
  6
Continuous
 62
     7
100
AcDbCircle
 10
-94.01099700000123
 20
-6.84733599946776
 30
0.0
 40
11.40148749780681
100
AcDbArc
 50
63.12415000000443
 51
116.8755089999916
  0
ARC
  5
542
330
54
100
AcDbEntity
  8
LC-003-002-RND-0
  6
Continuous
 62
     7
100
AcDbCircle
 10
-98.26097200000004
 20
1.53870500053381
 30
0.0
 40
2.000000000001474
100
AcDbArc
 50
116.8755089999991
 51
180.0
  0
ARC
  5
543
330
54
100
AcDbEntity
  8
LC-001-002-----0
  6
Continuous
 62
     7
100
AcDbCircle
 10
-47.00025500000265
 20
-6.85148699946512
 30
0.0
 40
11.4014874978041
100
AcDbArc
 50
63.12196099999268
 51
86.94693616130145
  0
LINE
  5
544
330
54
100
AcDbEntity
  8
LC-001-002-----0
  6
Continuous
 62
     7
100
AcDbLine
 10
-46.39300261906465
 20
4.53381763889775
 30
0.0
 11
-46.39300261922108
 21
4.53381763890866
 31
0.0
  0
LINE
  5
545
330
54
100
AcDbEntity
  8
LC-001-002-----0
  6
Continuous
 62
     7
100
AcDbLine
 10
-48.03320373179846
 20
4.50311268876663
 30
0.0
 11
-48.03320373196402
 21
4.50311268875157
 31
0.0
  0
ARC
  5
546
330
54
100
AcDbEntity
  8
LC-001-002-----0
  6
Continuous
 62
     7
100
AcDbCircle
 10
-47.00025500000265
 20
-6.85148699946512
 30
0.0
 40
11.40148749780094
100
AcDbArc
 50
95.19799420517408
 51
116.8733199999972
  0
ARC
  5
547
330
54
100
AcDbEntity
  8
LC-003-002-RND-0
  6
Continuous
 62
     7
100
AcDbCircle
 10
-51.24991000000227
 20
1.53471600053308
 30
0.0
 40
1.99999999999966
100
AcDbArc
 50
116.8733199999784
 51
179.9974700000051
  0
ARC
  5
548
330
54
100
AcDbEntity
  8
LC-003-002-RND-0
  6
Continuous
 62
     7
100
AcDbCircle
 10
-42.74991000000227
 20
1.53436600053465
 30
0.0
 40
1.999999999999862
100
AcDbArc
 50
-0.0025299999949
 51
63.12196099999171
  0
LINE
  5
549
330
54
100
AcDbEntity
  8
LC-001-002-----0
  6
Continuous
 62
     7
100
AcDbLine
 10
48.03003411694226
 20
4.50334833599845
 30
0.0
 11
48.03003411677855
 21
4.503348336013
 31
0.0
  0
LINE
  5
54A
330
54
100
AcDbEntity
  8
LC-001-002-----0
  6
Continuous
 62
     7
100
AcDbLine
 10
46.38994281610212
 20
4.53368488982233
 30
0.0
 11
46.38994281594205
 21
4.53368488981141
 31
0.0
  0
ARC
  5
54B
330
54
100
AcDbEntity
  8
LC-001-002-----0
  6
Continuous
 62
     7
100
AcDbCircle
 10
46.99967899999683
 20
-6.85148699946512
 30
0.0
 40
11.4014874978041
100
AcDbArc
 50
63.12196099999268
 51
84.8150931475754
  0
ARC
  5
54C
330
54
100
AcDbEntity
  8
LC-001-002-----0
  6
Continuous
 62
     7
100
AcDbCircle
 10
46.99967899999683
 20
-6.85148699946512
 30
0.0
 40
11.40148749780049
100
AcDbArc
 50
84.81509314840133
 51
93.06556348277164
  0
ARC
  5
54D
330
54
100
AcDbEntity
  8
LC-001-002-----0
  6
Continuous
 62
     7
100
AcDbCircle
 10
46.99967899999683
 20
-6.85148699946512
 30
0.0
 40
11.40148749780125
100
AcDbArc
 50
93.06556348357783
 51
116.8733199999972
  0
ARC
  5
54E
330
54
100
AcDbEntity
  8
LC-003-002-RND-0
  6
Continuous
 62
     7
100
AcDbCircle
 10
51.25002399999721
 20
1.53436600053465
 30
0.0
 40
1.999999999999862
100
AcDbArc
 50
-0.0025299999949
 51
63.12196099999154
  0
ARC
  5
54F
330
54
100
AcDbEntity
  8
LC-003-002-RND-0
  6
Continuous
 62
     7
100
AcDbCircle
 10
42.75002399999721
 20
1.53471600053308
 30
0.0
 40
1.999999999999654
100
AcDbArc
 50
116.8733199999781
 51
179.9974700000051
  0
ARC
  5
550
330
54
100
AcDbEntity
  8
LC-003-002-RND-0
  6
Continuous
 62
     7
100
AcDbCircle
 10
89.74999399999797
 20
1.53471600053308
 30
0.0
 40
1.999999999999657
100
AcDbArc
 50
116.8733199999782
 51
179.9974700000051
  0
ARC
  5
551
330
54
100
AcDbEntity
  8
LC-001-002-----0
  6
Continuous
 62
     7
100
AcDbCircle
 10
93.99964899999759
 20
-6.85148699946512
 30
0.0
 40
11.4014874978041
100
AcDbArc
 50
63.12196099999268
 51
116.8733199999972
  0
ARC
  5
552
330
54
100
AcDbEntity
  8
LC-003-002-RND-0
  6
Continuous
 62
     7
100
AcDbCircle
 10
98.24999399999797
 20
1.53436600053465
 30
0.0
 40
1.999999999999855
100
AcDbArc
 50
-0.0025299999949
 51
63.12196099999154
  0
ARC
  5
553
330
54
100
AcDbEntity
  8
LC-002-002-RND-0
  6
Continuous
 62
     7
100
AcDbCircle
 10
48.44696600000009
 20
55.79355300000003
 30
0.0
 40
14.99999999999944
100
AcDbArc
 50
20.00015699999918
 51
90.00007900000188
  0
ARC
  5
554
330
54
100
AcDbEntity
  8
LC-002-002-RND-0
  6
Continuous
 62
     7
100
AcDbCircle
 10
-48.450245
 20
55.79342000000003
 30
0.0
 40
15.00000000000027
100
AcDbArc
 50
90.00007900000142
 51
160.0000000000008
  0
ARC
  5
555
330
54
100
AcDbEntity
  8
LC-002-002-RND-0
  6
Continuous
 62
     7
100
AcDbCircle
 10
-99.50509799999998
 20
-29.736492
 30
0.0
 40
0.4999999999995142
100
AcDbArc
 50
-179.9996659999872
 51
-89.99975200002976
  0
ARC
  5
556
330
54
100
AcDbEntity
  8
LC-002-002-RND-0
  6
Continuous
 62
     7
100
AcDbCircle
 10
99.50519700000007
 20
-29.736469
 30
0.0
 40
0.5
100
AcDbArc
 50
-90.0
 51
0.00004499999191
  0
ARC
  5
557
330
54
100
AcDbEntity
  8
LC-002-002-RND-0
  6
Continuous
 62
     7
100
AcDbCircle
 10
-175.0
 20
-5.236469
 30
0.0
 40
2.0
100
AcDbArc
 50
90.0
 51
180.0
  0
ARC
  5
558
330
54
100
AcDbEntity
  8
LC-002-002-RND-0
  6
Continuous
 62
     7
100
AcDbCircle
 10
175.0000000000001
 20
-5.236469
 30
0.0
 40
2.0
100
AcDbArc
 50
0.0
 51
90.0
  0
ARC
  5
559
330
54
100
AcDbEntity
  8
LC-001-002-----0
  6
Continuous
 62
     7
100
AcDbCircle
 10
-30.0
 20
-115.402962
 30
0.0
 40
1.0
100
AcDbArc
 50
0.0
 51
75.99999999997826
  0
ARC
  5
55A
330
54
100
AcDbEntity
  8
LC-001-002-----0
  6
Continuous
 62
     7
100
AcDbCircle
 10
-34.50070500000004
 20
-112.735617
 30
0.0
 40
0.4992950000000036
100
AcDbArc
 50
90.0
 51
-103.9999999999507
  0
ARC
  5
55B
330
54
100
AcDbEntity
  8
LC-001-002-----0
  6
Continuous
 62
     7
100
AcDbCircle
 10
30.0
 20
-115.402962
 30
0.0
 40
1.000000000000105
100
AcDbArc
 50
104.0000000000217
 51
180.0
  0
ARC
  5
55C
330
54
100
AcDbEntity
  8
LC-001-002-----0
  6
Continuous
 62
     7
100
AcDbCircle
 10
-29.99929499999996
 20
-127.733128
 30
0.0
 40
1.0
100
AcDbArc
 50
0.0
 51
75.99999999998478
  0
ARC
  5
55D
330
54
100
AcDbEntity
  8
LC-001-002-----0
  6
Continuous
 62
     7
100
AcDbCircle
 10
-34.5
 20
-125.065782
 30
0.0
 40
0.4992950000000036
100
AcDbArc
 50
90.0
 51
-103.9999999999507
  0
ARC
  5
55E
330
54
100
AcDbEntity
  8
LC-001-002-----0
  6
Continuous
 62
     7
100
AcDbCircle
 10
-29.99859099999992
 20
-140.063294
 30
0.0
 40
1.0
100
AcDbArc
 50
0.0
 51
75.99999999998518
  0
ARC
  5
55F
330
54
100
AcDbEntity
  8
LC-001-002-----0
  6
Continuous
 62
     7
100
AcDbCircle
 10
34.50070500000004
 20
-112.735617
 30
0.0
 40
0.4992949999999201
100
AcDbArc
 50
-76.00000000004925
 51
90.0
  0
ARC
  5
560
330
54
100
AcDbEntity
  8
LC-001-002-----0
  6
Continuous
 62
     7
100
AcDbCircle
 10
29.99929499999996
 20
-127.733128
 30
0.0
 40
1.000000000000062
100
AcDbArc
 50
104.0000000000152
 51
180.0
  0
ARC
  5
561
330
54
100
AcDbEntity
  8
LC-001-002-----0
  6
Continuous
 62
     7
100
AcDbCircle
 10
34.5
 20
-125.065782
 30
0.0
 40
0.4992949999999201
100
AcDbArc
 50
-76.00000000004925
 51
90.0
  0
ARC
  5
562
330
54
100
AcDbEntity
  8
LC-001-002-----0
  6
Continuous
 62
     7
100
AcDbCircle
 10
-34.49929499999996
 20
-137.395948
 30
0.0
 40
0.4992950000000178
100
AcDbArc
 50
90.0
 51
-103.9999999999507
  0
ARC
  5
563
330
54
100
AcDbEntity
  8
LC-001-002-----0
  6
Continuous
 62
     7
100
AcDbCircle
 10
29.99859100000003
 20
-140.063294
 30
0.0
 40
1.000000000000116
100
AcDbArc
 50
104.0000000000209
 51
180.0
  0
ARC
  5
564
330
54
100
AcDbEntity
  8
LC-001-002-----0
  6
Continuous
 62
     7
100
AcDbCircle
 10
34.49929499999996
 20
-137.395948
 30
0.0
 40
0.4992949999999201
100
AcDbArc
 50
-76.00000000004925
 51
90.0
  0
ARC
  5
565
330
54
100
AcDbEntity
  8
LC-001-002-----0
  6
Continuous
 62
     7
100
AcDbCircle
 10
-29.99788599999999
 20
-152.393459
 30
0.0
 40
1.0
100
AcDbArc
 50
0.0
 51
75.99999999998518
  0
ARC
  5
566
330
54
100
AcDbEntity
  8
LC-001-002-----0
  6
Continuous
 62
     7
100
AcDbCircle
 10
-34.49859099999992
 20
-149.726114
 30
0.0
 40
0.4992949999999894
100
AcDbArc
 50
90.0
 51
-103.9999999999507
  0
ARC
  5
567
330
54
100
AcDbEntity
  8
LC-001-002-----0
  6
Continuous
 62
     7
100
AcDbCircle
 10
-29.99718099999996
 20
-164.723625
 30
0.0
 40
1.0
100
AcDbArc
 50
0.0
 51
75.99999999997826
  0
ARC
  5
568
330
54
100
AcDbEntity
  8
LC-001-002-----0
  6
Continuous
 62
     7
100
AcDbCircle
 10
-34.49788599999999
 20
-162.056279
 30
0.0
 40
0.4992949999999894
100
AcDbArc
 50
90.0
 51
-103.9999999999507
  0
ARC
  5
569
330
54
100
AcDbEntity
  8
LC-001-002-----0
  6
Continuous
 62
     7
100
AcDbCircle
 10
-29.99647700000003
 20
-177.053791
 30
0.0
 40
1.0
100
AcDbArc
 50
0.0
 51
75.99999999997807
  0
ARC
  5
56A
330
54
100
AcDbEntity
  8
LC-001-002-----0
  6
Continuous
 62
     7
100
AcDbCircle
 10
-34.49718099999996
 20
-174.386445
 30
0.0
 40
0.4992950000000178
100
AcDbArc
 50
90.0
 51
-103.9999999999507
  0
ARC
  5
56B
330
54
100
AcDbEntity
  8
LC-001-002-----0
  6
Continuous
 62
     7
100
AcDbCircle
 10
-29.99577199999999
 20
-189.383956
 30
0.0
 40
1.0
100
AcDbArc
 50
0.0
 51
75.99999999997847
  0
ARC
  5
56C
330
54
100
AcDbEntity
  8
LC-001-002-----0
  6
Continuous
 62
     7
100
AcDbCircle
 10
-34.49647700000003
 20
-186.716611
 30
0.0
 40
0.4992949999999894
100
AcDbArc
 50
90.0
 51
-103.9999999999507
  0
ARC
  5
56D
330
54
100
AcDbEntity
  8
LC-001-002-----0
  6
Continuous
 62
     7
100
AcDbCircle
 10
-29.99506699999995
 20
-201.714122
 30
0.0
 40
1.0
100
AcDbArc
 50
0.0
 51
75.99999999998478
  0
ARC
  5
56E
330
54
100
AcDbEntity
  8
LC-002-002-RND-0
  6
Continuous
 62
     7
100
AcDbCircle
 10
-29.5
 20
-161.056984
 30
0.0
 40
0.5
100
AcDbArc
 50
-90.0
 51
0.0
  0
ARC
  5
56F
330
54
100
AcDbEntity
  8
LC-002-002-RND-0
  6
Continuous
 62
     7
100
AcDbCircle
 10
-29.5
 20
-148.726818
 30
0.0
 40
0.5
100
AcDbArc
 50
-90.0
 51
0.0
  0
ARC
  5
570
330
54
100
AcDbEntity
  8
LC-002-002-RND-0
  6
Continuous
 62
     7
100
AcDbCircle
 10
-29.5
 20
-136.396653
 30
0.0
 40
0.5
100
AcDbArc
 50
-90.0
 51
0.0
  0
ARC
  5
571
330
54
100
AcDbEntity
  8
LC-002-002-RND-0
  6
Continuous
 62
     7
100
AcDbCircle
 10
-29.5
 20
-124.066487
 30
0.0
 40
0.5
100
AcDbArc
 50
-90.0
 51
0.0
  0
ARC
  5
572
330
54
100
AcDbEntity
  8
LC-001-002-----0
  6
Continuous
 62
     7
100
AcDbCircle
 10
-34.49577199999999
 20
-199.046776
 30
0.0
 40
0.4992949999999894
100
AcDbArc
 50
90.0
 51
-103.9999999999507
  0
ARC
  5
573
330
54
100
AcDbEntity
  8
LC-001-002-----0
  6
Continuous
 62
     7
100
AcDbCircle
 10
-29.99436200000002
 20
-214.044288
 30
0.0
 40
1.0
100
AcDbArc
 50
0.0
 51
75.99999999997866
  0
ARC
  5
574
330
54
100
AcDbEntity
  8
LC-001-002-----0
  6
Continuous
 62
     7
100
AcDbCircle
 10
29.99788599999999
 20
-152.393459
 30
0.0
 40
1.000000000000089
100
AcDbArc
 50
104.0000000000148
 51
180.0
  0
ARC
  5
575
330
54
100
AcDbEntity
  8
LC-001-002-----0
  6
Continuous
 62
     7
100
AcDbCircle
 10
34.49859100000003
 20
-149.726114
 30
0.0
 40
0.4992949999999201
100
AcDbArc
 50
-76.00000000004925
 51
90.0
  0
ARC
  5
576
330
54
100
AcDbEntity
  8
LC-001-002-----0
  6
Continuous
 62
     7
100
AcDbCircle
 10
29.99718100000007
 20
-164.723625
 30
0.0
 40
1.00000000000009
100
AcDbArc
 50
104.0000000000217
 51
180.0
  0
ARC
  5
577
330
54
100
AcDbEntity
  8
LC-001-002-----0
  6
Continuous
 62
     7
100
AcDbCircle
 10
34.49788599999999
 20
-162.056279
 30
0.0
 40
0.4992949999999201
100
AcDbArc
 50
-76.00000000004925
 51
90.0
  0
ARC
  5
578
330
54
100
AcDbEntity
  8
LC-001-002-----0
  6
Continuous
 62
     7
100
AcDbCircle
 10
29.99647600000003
 20
-177.053791
 30
0.0
 40
1.000000000000091
100
AcDbArc
 50
104.0000000000219
 51
180.0
  0
ARC
  5
579
330
54
100
AcDbEntity
  8
LC-001-002-----0
  6
Continuous
 62
     7
100
AcDbCircle
 10
-34.49506699999995
 20
-211.376942
 30
0.0
 40
0.4992950000000178
100
AcDbArc
 50
90.0
 51
-103.9999999999507
  0
ARC
  5
57A
330
54
100
AcDbEntity
  8
LC-001-002-----0
  6
Continuous
 62
     7
100
AcDbCircle
 10
34.49718100000007
 20
-174.386445
 30
0.0
 40
0.4992949999999201
100
AcDbArc
 50
-76.00000000004925
 51
90.0
  0
ARC
  5
57B
330
54
100
AcDbEntity
  8
LC-001-002-----0
  6
Continuous
 62
     7
100
AcDbCircle
 10
29.9957720000001
 20
-189.383956
 30
0.0
 40
1.000000000000118
100
AcDbArc
 50
104.0000000000214
 51
180.0
  0
ARC
  5
57C
330
54
100
AcDbEntity
  8
LC-001-002-----0
  6
Continuous
 62
     7
100
AcDbCircle
 10
34.49647600000003
 20
-186.716611
 30
0.0
 40
0.4992949999999201
100
AcDbArc
 50
-76.00000000004925
 51
90.0
  0
ARC
  5
57D
330
54
100
AcDbEntity
  8
LC-001-002-----0
  6
Continuous
 62
     7
100
AcDbCircle
 10
29.99506699999995
 20
-201.714122
 30
0.0
 40
1.000000000000062
100
AcDbArc
 50
104.0000000000152
 51
180.0
  0
ARC
  5
57E
330
54
100
AcDbEntity
  8
LC-001-002-----0
  6
Continuous
 62
     7
100
AcDbCircle
 10
-29.99365799999998
 20
-226.374453
 30
0.0
 40
1.0
100
AcDbArc
 50
0.0
 51
75.99999999998498
  0
ARC
  5
57F
330
54
100
AcDbEntity
  8
LC-001-002-----0
  6
Continuous
 62
     7
100
AcDbCircle
 10
-34.49436200000002
 20
-223.707108
 30
0.0
 40
0.4992950000000178
100
AcDbArc
 50
90.0
 51
-103.9999999999507
  0
ARC
  5
580
330
54
100
AcDbEntity
  8
LC-001-002-----0
  6
Continuous
 62
     7
100
AcDbCircle
 10
-29.99295300000006
 20
-238.704619
 30
0.0
 40
1.0
100
AcDbArc
 50
0.0
 51
75.99999999997847
  0
ARC
  5
581
330
54
100
AcDbEntity
  8
LC-001-002-----0
  6
Continuous
 62
     7
100
AcDbCircle
 10
-34.49365799999998
 20
-236.037273
 30
0.0
 40
0.4992949999999894
100
AcDbArc
 50
90.0
 51
-103.9999999999507
  0
ARC
  5
582
330
54
100
AcDbEntity
  8
LC-001-002-----0
  6
Continuous
 62
     7
100
AcDbCircle
 10
-29.9922479999999
 20
-251.034785
 30
0.0
 40
1.0
100
AcDbArc
 50
0.0
 51
75.99999999998478
  0
ARC
  5
583
330
54
100
AcDbEntity
  8
LC-001-002-----0
  6
Continuous
 62
     7
100
AcDbCircle
 10
-34.49295300000006
 20
-248.367439
 30
0.0
 40
0.4992949999999894
100
AcDbArc
 50
90.0
 51
-103.9999999999507
  0
ARC
  5
584
330
54
100
AcDbEntity
  8
LC-001-002-----0
  6
Continuous
 62
     7
100
AcDbCircle
 10
-29.99154399999998
 20
-263.36495
 30
0.0
 40
1.0
100
AcDbArc
 50
0.0
 51
75.99999999997885
  0
ARC
  5
585
330
54
100
AcDbEntity
  8
LC-001-002-----0
  6
Continuous
 62
     7
100
AcDbCircle
 10
-34.4922479999999
 20
-260.697605
 30
0.0
 40
0.4992950000000178
100
AcDbArc
 50
90.0
 51
-103.9999999999507
  0
ARC
  5
586
330
54
100
AcDbEntity
  8
LC-001-002-----0
  6
Continuous
 62
     7
100
AcDbCircle
 10
-29.99083899999994
 20
-275.695116
 30
0.0
 40
1.0
100
AcDbArc
 50
0.0
 51
75.9999999999842
  0
ARC
  5
587
330
54
100
AcDbEntity
  8
LC-001-002-----0
  6
Continuous
 62
     7
100
AcDbCircle
 10
-34.49154399999998
 20
-273.02777
 30
0.0
 40
0.499294999999961
100
AcDbArc
 50
90.0
 51
-103.99999999995
  0
ARC
  5
588
330
54
100
AcDbEntity
  8
LC-001-002-----0
  6
Continuous
 62
     7
100
AcDbCircle
 10
-29.99013400000001
 20
-288.025282
 30
0.0
 40
1.0
100
AcDbArc
 50
0.0
 51
75.99999999997826
  0
ARC
  5
589
330
54
100
AcDbEntity
  8
LC-001-002-----0
  6
Continuous
 62
     7
100
AcDbCircle
 10
-34.49083899999994
 20
-285.357936
 30
0.0
 40
0.4992950000000178
100
AcDbArc
 50
90.0
 51
-103.9999999999507
  0
ARC
  5
58A
330
54
100
AcDbEntity
  8
LC-001-002-----0
  6
Continuous
 62
     7
100
AcDbCircle
 10
-29.98942999999997
 20
-300.355447
 30
0.0
 40
1.0
100
AcDbArc
 50
0.0
 51
75.99999999998556
  0
ARC
  5
58B
330
54
100
AcDbEntity
  8
LC-001-002-----0
  6
Continuous
 62
     7
100
AcDbCircle
 10
-34.49013400000001
 20
-297.688101
 30
0.0
 40
0.4992950000000178
100
AcDbArc
 50
90.0
 51
-103.9999999999507
  0
ARC
  5
58C
330
54
100
AcDbEntity
  8
LC-001-002-----0
  6
Continuous
 62
     7
100
AcDbCircle
 10
-29.98872500000005
 20
-312.685613
 30
0.0
 40
1.0
100
AcDbArc
 50
0.0
 51
75.99999999997826
  0
ARC
  5
58D
330
54
100
AcDbEntity
  8
LC-001-002-----0
  6
Continuous
 62
     7
100
AcDbCircle
 10
-34.48942999999997
 20
-310.018267
 30
0.0
 40
0.499294999999961
100
AcDbArc
 50
90.0
 51
-103.9999999999507
  0
ARC
  5
58E
330
54
100
AcDbEntity
  8
LC-001-002-----0
  6
Continuous
 62
     7
100
AcDbCircle
 10
-29.98801999999989
 20
-325.015779
 30
0.0
 40
1.0
100
AcDbArc
 50
0.0
 51
75.99999999998498
  0
ARC
  5
58F
330
54
100
AcDbEntity
  8
LC-001-002-----0
  6
Continuous
 62
     7
100
AcDbCircle
 10
-34.48872500000005
 20
-322.348433
 30
0.0
 40
0.4992950000000178
100
AcDbArc
 50
90.0
 51
-103.9999999999507
  0
ARC
  5
590
330
54
100
AcDbEntity
  8
LC-001-002-----0
  6
Continuous
 62
     7
100
AcDbCircle
 10
-29.98731599999996
 20
-337.345944
 30
0.0
 40
1.0
100
AcDbArc
 50
0.0
 51
75.99999999997866
  0
ARC
  5
591
330
54
100
AcDbEntity
  8
LC-001-002-----0
  6
Continuous
 62
     7
100
AcDbCircle
 10
-34.48801999999989
 20
-334.678598
 30
0.0
 40
0.4992950000000178
100
AcDbArc
 50
90.0
 51
-103.9999999999507
  0
ARC
  5
592
330
54
100
AcDbEntity
  8
LC-002-002-RND-0
  6
Continuous
 62
     7
100
AcDbCircle
 10
29.5
 20
-161.056984
 30
0.0
 40
0.5
100
AcDbArc
 50
180.0
 51
-90.0
  0
ARC
  5
593
330
54
100
AcDbEntity
  8
LC-002-002-RND-0
  6
Continuous
 62
     7
100
AcDbCircle
 10
29.5
 20
-148.726818
 30
0.0
 40
0.5
100
AcDbArc
 50
180.0
 51
-90.0
  0
ARC
  5
594
330
54
100
AcDbEntity
  8
LC-002-002-RND-0
  6
Continuous
 62
     7
100
AcDbCircle
 10
29.5
 20
-136.396653
 30
0.0
 40
0.5
100
AcDbArc
 50
180.0
 51
-90.0
  0
ARC
  5
595
330
54
100
AcDbEntity
  8
LC-002-002-RND-0
  6
Continuous
 62
     7
100
AcDbCircle
 10
29.5
 20
-124.066487
 30
0.0
 40
0.5
100
AcDbArc
 50
180.0
 51
-90.0
  0
ARC
  5
596
330
54
100
AcDbEntity
  8
LC-001-002-----0
  6
Continuous
 62
     7
100
AcDbCircle
 10
34.4957720000001
 20
-199.046776
 30
0.0
 40
0.4992949999999201
100
AcDbArc
 50
-76.00000000004925
 51
90.0
  0
ARC
  5
597
330
54
100
AcDbEntity
  8
LC-001-002-----0
  6
Continuous
 62
     7
100
AcDbCircle
 10
29.99436200000002
 20
-214.044288
 30
0.0
 40
1.000000000000062
100
AcDbArc
 50
104.0000000000152
 51
180.0
  0
ARC
  5
598
330
54
100
AcDbEntity
  8
LC-001-002-----0
  6
Continuous
 62
     7
100
AcDbCircle
 10
34.49506699999995
 20
-211.376942
 30
0.0
 40
0.4992949999999201
100
AcDbArc
 50
-76.00000000004925
 51
90.0
  0
ARC
  5
599
330
54
100
AcDbEntity
  8
LC-001-002-----0
  6
Continuous
 62
     7
100
AcDbCircle
 10
29.99365799999998
 20
-226.374453
 30
0.0
 40
1.000000000000061
100
AcDbArc
 50
104.000000000015
 51
180.0
  0
ARC
  5
59A
330
54
100
AcDbEntity
  8
LC-001-002-----0
  6
Continuous
 62
     7
100
AcDbCircle
 10
34.49436200000002
 20
-223.707108
 30
0.0
 40
0.4992949999999201
100
AcDbArc
 50
-76.00000000004925
 51
90.0
  0
ARC
  5
59B
330
54
100
AcDbEntity
  8
LC-001-002-----0
  6
Continuous
 62
     7
100
AcDbCircle
 10
29.99295300000006
 20
-238.704619
 30
0.0
 40
1.000000000000119
100
AcDbArc
 50
104.0000000000215
 51
180.0
  0
ARC
  5
59C
330
54
100
AcDbEntity
  8
LC-001-002-----0
  6
Continuous
 62
     7
100
AcDbCircle
 10
34.49365799999998
 20
-236.037273
 30
0.0
 40
0.4992949999999201
100
AcDbArc
 50
-76.00000000004925
 51
90.0
  0
ARC
  5
59D
330
54
100
AcDbEntity
  8
LC-001-002-----0
  6
Continuous
 62
     7
100
AcDbCircle
 10
29.99224800000002
 20
-251.034785
 30
0.0
 40
1.000000000000091
100
AcDbArc
 50
104.0000000000219
 51
180.0
  0
ARC
  5
59E
330
54
100
AcDbEntity
  8
LC-001-002-----0
  6
Continuous
 62
     7
100
AcDbCircle
 10
34.49295300000006
 20
-248.367439
 30
0.0
 40
0.4992949999999201
100
AcDbArc
 50
-76.00000000004925
 51
90.0
  0
ARC
  5
59F
330
54
100
AcDbEntity
  8
LC-001-002-----0
  6
Continuous
 62
     7
100
AcDbCircle
 10
29.99154400000009
 20
-263.36495
 30
0.0
 40
1.000000000000146
100
AcDbArc
 50
104.0000000000211
 51
180.0
  0
ARC
  5
5A0
330
54
100
AcDbEntity
  8
LC-001-002-----0
  6
Continuous
 62
     7
100
AcDbCircle
 10
34.49224800000002
 20
-260.697605
 30
0.0
 40
0.4992949999999201
100
AcDbArc
 50
-76.00000000004925
 51
90.0
  0
ARC
  5
5A1
330
54
100
AcDbEntity
  8
LC-001-002-----0
  6
Continuous
 62
     7
100
AcDbCircle
 10
29.99083900000005
 20
-275.695116
 30
0.0
 40
1.000000000000091
100
AcDbArc
 50
104.0000000000219
 51
180.0
  0
ARC
  5
5A2
330
54
100
AcDbEntity
  8
LC-002-002-RND-0
  6
Continuous
 62
     7
100
AcDbCircle
 10
-29.5
 20
-321.349138
 30
0.0
 40
0.5
100
AcDbArc
 50
-90.0
 51
0.0
  0
ARC
  5
5A3
330
54
100
AcDbEntity
  8
LC-002-002-RND-0
  6
Continuous
 62
     7
100
AcDbCircle
 10
-29.5
 20
-333.679303
 30
0.0
 40
0.5
100
AcDbArc
 50
-90.0
 51
0.0
  0
ARC
  5
5A4
330
54
100
AcDbEntity
  8
LC-002-002-RND-0
  6
Continuous
 62
     7
100
AcDbCircle
 10
-29.5
 20
-309.018972
 30
0.0
 40
0.5
100
AcDbArc
 50
-90.0
 51
0.0
  0
ARC
  5
5A5
330
54
100
AcDbEntity
  8
LC-002-002-RND-0
  6
Continuous
 62
     7
100
AcDbCircle
 10
-29.5
 20
-296.688806
 30
0.0
 40
0.5
100
AcDbArc
 50
-90.0
 51
0.0
  0
ARC
  5
5A6
330
54
100
AcDbEntity
  8
LC-001-002-----0
  6
Continuous
 62
     7
100
AcDbCircle
 10
34.49154400000009
 20
-273.02777
 30
0.0
 40
0.4992949999999201
100
AcDbArc
 50
-76.00000000004925
 51
90.0
  0
ARC
  5
5A7
330
54
100
AcDbEntity
  8
LC-002-002-RND-0
  6
Continuous
 62
     7
100
AcDbCircle
 10
-29.5
 20
-284.358641
 30
0.0
 40
0.5
100
AcDbArc
 50
-90.0
 51
0.0
  0
ARC
  5
5A8
330
54
100
AcDbEntity
  8
LC-002-002-RND-0
  6
Continuous
 62
     7
100
AcDbCircle
 10
-29.5
 20
-272.028475
 30
0.0
 40
0.5
100
AcDbArc
 50
-90.0
 51
0.0
  0
ARC
  5
5A9
330
54
100
AcDbEntity
  8
LC-002-002-RND-0
  6
Continuous
 62
     7
100
AcDbCircle
 10
-29.5
 20
-259.698309
 30
0.0
 40
0.5
100
AcDbArc
 50
-90.0
 51
0.0
  0
ARC
  5
5AA
330
54
100
AcDbEntity
  8
LC-002-002-RND-0
  6
Continuous
 62
     7
100
AcDbCircle
 10
-29.5
 20
-247.368144
 30
0.0
 40
0.5
100
AcDbArc
 50
-90.0
 51
0.0
  0
ARC
  5
5AB
330
54
100
AcDbEntity
  8
LC-002-002-RND-0
  6
Continuous
 62
     7
100
AcDbCircle
 10
-29.5
 20
-235.037978
 30
0.0
 40
0.5
100
AcDbArc
 50
-90.0
 51
0.0
  0
ARC
  5
5AC
330
54
100
AcDbEntity
  8
LC-002-002-RND-0
  6
Continuous
 62
     7
100
AcDbCircle
 10
-29.5
 20
-222.707812
 30
0.0
 40
0.5
100
AcDbArc
 50
-90.0
 51
0.0
  0
ARC
  5
5AD
330
54
100
AcDbEntity
  8
LC-002-002-RND-0
  6
Continuous
 62
     7
100
AcDbCircle
 10
-29.5
 20
-210.377647
 30
0.0
 40
0.5
100
AcDbArc
 50
-90.0
 51
0.0
  0
ARC
  5
5AE
330
54
100
AcDbEntity
  8
LC-002-002-RND-0
  6
Continuous
 62
     7
100
AcDbCircle
 10
-29.5
 20
-198.047481
 30
0.0
 40
0.5
100
AcDbArc
 50
-90.0
 51
0.0
  0
ARC
  5
5AF
330
54
100
AcDbEntity
  8
LC-002-002-RND-0
  6
Continuous
 62
     7
100
AcDbCircle
 10
-29.5
 20
-185.717315
 30
0.0
 40
0.5
100
AcDbArc
 50
-90.0
 51
0.0
  0
ARC
  5
5B0
330
54
100
AcDbEntity
  8
LC-002-002-RND-0
  6
Continuous
 62
     7
100
AcDbCircle
 10
-29.5
 20
-173.38715
 30
0.0
 40
0.5
100
AcDbArc
 50
-90.0
 51
0.0
  0
ARC
  5
5B1
330
54
100
AcDbEntity
  8
LC-001-002-----0
  6
Continuous
 62
     7
100
AcDbCircle
 10
29.99013400000001
 20
-288.025282
 30
0.0
 40
1.000000000000061
100
AcDbArc
 50
104.000000000015
 51
180.0
  0
ARC
  5
5B2
330
54
100
AcDbEntity
  8
LC-001-002-----0
  6
Continuous
 62
     7
100
AcDbCircle
 10
34.49083900000005
 20
-285.357936
 30
0.0
 40
0.4992949999999201
100
AcDbArc
 50
-76.00000000004925
 51
90.0
  0
ARC
  5
5B3
330
54
100
AcDbEntity
  8
LC-001-002-----0
  6
Continuous
 62
     7
100
AcDbCircle
 10
29.98942999999997
 20
-300.355447
 30
0.0
 40
1.000000000000117
100
AcDbArc
 50
104.0000000000144
 51
180.0
  0
ARC
  5
5B4
330
54
100
AcDbEntity
  8
LC-001-002-----0
  6
Continuous
 62
     7
100
AcDbCircle
 10
34.49013400000001
 20
-297.688101
 30
0.0
 40
0.4992949999999201
100
AcDbArc
 50
-76.00000000004925
 51
90.0
  0
ARC
  5
5B5
330
54
100
AcDbEntity
  8
LC-001-002-----0
  6
Continuous
 62
     7
100
AcDbCircle
 10
29.98872500000005
 20
-312.685613
 30
0.0
 40
1.000000000000064
100
AcDbArc
 50
104.0000000000156
 51
180.0
  0
ARC
  5
5B6
330
54
100
AcDbEntity
  8
LC-001-002-----0
  6
Continuous
 62
     7
100
AcDbCircle
 10
34.48942999999997
 20
-310.018267
 30
0.0
 40
0.4992949999999201
100
AcDbArc
 50
-76.00000000004925
 51
90.0
  0
ARC
  5
5B7
330
54
100
AcDbEntity
  8
LC-001-002-----0
  6
Continuous
 62
     7
100
AcDbCircle
 10
29.98802000000001
 20
-325.015779
 30
0.0
 40
1.00000000000009
100
AcDbArc
 50
104.0000000000217
 51
180.0
  0
ARC
  5
5B8
330
54
100
AcDbEntity
  8
LC-001-002-----0
  6
Continuous
 62
     7
100
AcDbCircle
 10
29.98731499999997
 20
-337.345944
 30
0.0
 40
1.000000000000065
100
AcDbArc
 50
104.0000000000158
 51
180.0
  0
ARC
  5
5B9
330
54
100
AcDbEntity
  8
LC-001-002-----0
  6
Continuous
 62
     7
100
AcDbCircle
 10
34.48802000000001
 20
-334.678598
 30
0.0
 40
0.4992949999999201
100
AcDbArc
 50
-76.00000000004925
 51
90.0
  0
ARC
  5
5BA
330
54
100
AcDbEntity
  8
LC-002-002-RND-0
  6
Continuous
 62
     7
100
AcDbCircle
 10
29.5
 20
-321.349138
 30
0.0
 40
0.5
100
AcDbArc
 50
180.0
 51
-90.0
  0
ARC
  5
5BB
330
54
100
AcDbEntity
  8
LC-002-002-RND-0
  6
Continuous
 62
     7
100
AcDbCircle
 10
29.5
 20
-333.679303
 30
0.0
 40
0.5
100
AcDbArc
 50
180.0
 51
-90.0
  0
ARC
  5
5BC
330
54
100
AcDbEntity
  8
LC-002-002-RND-0
  6
Continuous
 62
     7
100
AcDbCircle
 10
29.5
 20
-309.018972
 30
0.0
 40
0.5
100
AcDbArc
 50
180.0
 51
-90.0
  0
ARC
  5
5BD
330
54
100
AcDbEntity
  8
LC-002-002-RND-0
  6
Continuous
 62
     7
100
AcDbCircle
 10
29.5
 20
-296.688806
 30
0.0
 40
0.5
100
AcDbArc
 50
180.0
 51
-90.0
  0
ARC
  5
5BE
330
54
100
AcDbEntity
  8
LC-002-002-RND-0
  6
Continuous
 62
     7
100
AcDbCircle
 10
29.5
 20
-284.358641
 30
0.0
 40
0.5
100
AcDbArc
 50
180.0
 51
-90.0
  0
ARC
  5
5BF
330
54
100
AcDbEntity
  8
LC-002-002-RND-0
  6
Continuous
 62
     7
100
AcDbCircle
 10
29.5
 20
-272.028475
 30
0.0
 40
0.5
100
AcDbArc
 50
180.0
 51
-90.0
  0
ARC
  5
5C0
330
54
100
AcDbEntity
  8
LC-002-002-RND-0
  6
Continuous
 62
     7
100
AcDbCircle
 10
29.5
 20
-259.698309
 30
0.0
 40
0.5
100
AcDbArc
 50
180.0
 51
-90.0
  0
ARC
  5
5C1
330
54
100
AcDbEntity
  8
LC-002-002-RND-0
  6
Continuous
 62
     7
100
AcDbCircle
 10
29.5
 20
-247.368144
 30
0.0
 40
0.5
100
AcDbArc
 50
180.0
 51
-90.0
  0
ARC
  5
5C2
330
54
100
AcDbEntity
  8
LC-002-002-RND-0
  6
Continuous
 62
     7
100
AcDbCircle
 10
29.5
 20
-235.037978
 30
0.0
 40
0.5
100
AcDbArc
 50
180.0
 51
-90.0
  0
ARC
  5
5C3
330
54
100
AcDbEntity
  8
LC-002-002-RND-0
  6
Continuous
 62
     7
100
AcDbCircle
 10
29.5
 20
-222.707812
 30
0.0
 40
0.5
100
AcDbArc
 50
180.0
 51
-90.0
  0
ARC
  5
5C4
330
54
100
AcDbEntity
  8
LC-002-002-RND-0
  6
Continuous
 62
     7
100
AcDbCircle
 10
29.5
 20
-210.377647
 30
0.0
 40
0.5
100
AcDbArc
 50
180.0
 51
-90.0
  0
ARC
  5
5C5
330
54
100
AcDbEntity
  8
LC-002-002-RND-0
  6
Continuous
 62
     7
100
AcDbCircle
 10
29.5
 20
-198.047481
 30
0.0
 40
0.5
100
AcDbArc
 50
180.0
 51
-90.0
  0
ARC
  5
5C6
330
54
100
AcDbEntity
  8
LC-002-002-RND-0
  6
Continuous
 62
     7
100
AcDbCircle
 10
29.5
 20
-185.717315
 30
0.0
 40
0.5
100
AcDbArc
 50
180.0
 51
-90.0
  0
ARC
  5
5C7
330
54
100
AcDbEntity
  8
LC-002-002-RND-0
  6
Continuous
 62
     7
100
AcDbCircle
 10
29.5
 20
-173.38715
 30
0.0
 40
0.5
100
AcDbArc
 50
180.0
 51
-90.0
  0
ARC
  5
5C8
330
54
100
AcDbEntity
  8
LC-001-002-----0
  6
Continuous
 62
     7
100
AcDbCircle
 10
34.5
 20
-322.348433
 30
0.0
 40
0.4992949999999201
100
AcDbArc
 50
-76.00000000004925
 51
90.0
  0
ENDBLK
  5
59
330
54
100
AcDbEntity
  8
0
100
AcDbBlockEnd
  0
BLOCK
  5
5D2
330
5C9
100
AcDbEntity
  8
0
100
AcDbBlockBegin
  2
*D5
 70
     1
 71
     0
 10
0.0
 20
0.0
 30
0.0
  3
*D5
  1

  0
LINE
  5
5CA
330
5C9
100
AcDbEntity
  8
1
  6
Continuous
 62
     4
100
AcDbLine
 10
-133.604879862959
 20
-76.79815351648568
 30
0.0
 11
-62.5
 21
-76.79815351648568
 31
0.0
  0
LINE
  5
5CB
330
5C9
100
AcDbEntity
  8
1
  6
Continuous
 62
     4
100
AcDbLine
 10
-62.5
 20
-76.79815351648568
 30
0.0
 11
62.5
 21
-76.79815351648568
 31
0.0
  0
LINE
  5
5CC
330
5C9
100
AcDbEntity
  8
1
  6
Continuous
 62
     4
100
AcDbLine
 10
-62.5
 20
-47.18767700000001
 30
0.0
 11
-62.5
 21
-78.79815351648568
 31
0.0
  0
LINE
  5
5CD
330
5C9
100
AcDbEntity
  8
1
  6
Continuous
 62
     4
100
AcDbLine
 10
62.5
 20
-47.18767700000001
 30
0.0
 11
62.5
 21
-78.79815351648568
 31
0.0
  0
SOLID
  5
5CE
330
5C9
100
AcDbEntity
  8
1
 62
     4
100
AcDbTrace
 10
-48.5
 20
-74.95501855026214
 30
0.0
 11
-48.5
 21
-78.64128848270923
 31
0.0
 12
-62.5
 22
-76.79815351648568
 32
0.0
 13
-62.5
 23
-76.79815351648568
 33
0.0
  0
SOLID
  5
5CF
330
5C9
100
AcDbEntity
  8
1
 62
     4
100
AcDbTrace
 10
48.5
 20
-78.64128848270923
 30
0.0
 11
48.5
 21
-74.95501855026214
 31
0.0
 12
62.5
 22
-76.79815351648568
 32
0.0
 13
62.5
 23
-76.79815351648568
 33
0.0
  0
MTEXT
  5
5D1
330
5C9
100
AcDbEntity
  8
1
 62
     1
100
AcDbMText
 10
-139.7648798628915
 20
-74.79820917309627
 30
0.0
 40
14.0
 41
0.0
 71
     7
 72
     1
  1
\C1;\U+00d8\C1;125
  7
CONVERTER_11
 11
0.9999999999970619
 21
2.424068405545306E-6
 31
0.0
 73
     1
 44
0.60024009603842
  0
ENDBLK
  5
5D3
330
5C9
100
AcDbEntity
  8
0
100
AcDbBlockEnd
  0
BLOCK
  5
5DD
330
5D6
100
AcDbEntity
  8
0
100
AcDbBlockBegin
  2
*D6
 70
     1
 71
     0
 10
0.0
 20
0.0
 30
0.0
  3
*D6
  1

  0
LINE
  5
5D7
330
5D6
100
AcDbEntity
  8
1
  6
Continuous
 62
     4
100
AcDbLine
 10
-177.0
 20
96.194292433471
 30
0.0
 11
177.0000000000001
 21
96.194292433471
 31
0.0
  0
LINE
  5
5D8
330
5D6
100
AcDbEntity
  8
1
  6
Continuous
 62
     4
100
AcDbLine
 10
-177.0
 20
-5.236469
 30
0.0
 11
-177.0
 21
98.194292433471
 31
0.0
  0
LINE
  5
5D9
330
5D6
100
AcDbEntity
  8
1
  6
Continuous
 62
     4
100
AcDbLine
 10
177.0000000000001
 20
-5.236469
 30
0.0
 11
177.0000000000001
 21
98.194292433471
 31
0.0
  0
SOLID
  5
5DA
330
5D6
100
AcDbEntity
  8
1
 62
     4
100
AcDbTrace
 10
-163.0
 20
98.03742739969455
 30
0.0
 11
-163.0
 21
94.35115746724746
 31
0.0
 12
-177.0
 22
96.194292433471
 32
0.0
 13
-177.0
 23
96.194292433471
 33
0.0
  0
SOLID
  5
5DB
330
5D6
100
AcDbEntity
  8
1
 62
     4
100
AcDbTrace
 10
163.0000000000001
 20
94.35115746724746
 30
0.0
 11
163.0000000000001
 21
98.03742739969455
 31
0.0
 12
177.0000000000001
 22
96.194292433471
 32
0.0
 13
177.0000000000001
 23
96.194292433471
 33
0.0
  0
MTEXT
  5
5DC
330
5D6
100
AcDbEntity
  8
1
 62
     1
100
AcDbMText
 10
-30.70507523641351
 20
98.19423677686042
 30
0.0
 40
14.0
 41
0.0
 71
     7
 72
     1
  1
\C1;\U+00d8\C1;354
  7
CONVERTER_11
 11
0.9999999999970619
 21
2.424068405545306E-6
 31
0.0
 73
     1
 44
0.60024009603842
  0
ENDBLK
  5
5DE
330
5D6
100
AcDbEntity
  8
0
100
AcDbBlockEnd
  0
BLOCK
  5
5E8
330
5E1
100
AcDbEntity
  8
0
100
AcDbBlockBegin
  2
*D7
 70
     1
 71
     0
 10
0.0
 20
0.0
 30
0.0
  3
*D7
  1

  0
LINE
  5
5E2
330
5E1
100
AcDbEntity
  8
1
  6
Continuous
 62
     4
100
AcDbLine
 10
37.50007109645668
 20
-420.0040016063806
 30
0.0
 11
-37.4999289032604
 21
-420.0041046104877
 31
0.0
  0
LINE
  5
5E3
330
5E1
100
AcDbEntity
  8
1
  6
Continuous
 62
     4
100
AcDbLine
 10
37.50002734934014
 20
-388.1505752395272
 30
0.0
 11
37.50007384323287
 21
-422.0040016063787
 31
0.0
  0
LINE
  5
5E4
330
5E1
100
AcDbEntity
  8
1
  6
Continuous
 62
     4
100
AcDbLine
 10
-37.49997250254592
 20
-388.2583179005091
 30
0.0
 11
-37.49992615648421
 21
-422.0041046104858
 31
0.0
  0
SOLID
  5
5E5
330
5E1
100
AcDbEntity
  8
1
 62
     4
100
AcDbTrace
 10
23.50007362780951
 20
-421.8471558000358
 30
0.0
 11
23.50006856513025
 21
-418.1608858675922
 31
0.0
 12
37.50007109645668
 22
-420.0040016063806
 32
0.0
 13
37.50007109645668
 23
-420.0040016063806
 33
0.0
  0
SOLID
  5
5E6
330
5E1
100
AcDbEntity
  8
1
 62
     4
100
AcDbTrace
 10
-23.49993143461323
 20
-418.1609504168325
 30
0.0
 11
-23.49992637193397
 21
-421.847220349276
 31
0.0
 12
-37.4999289032604
 22
-420.0041046104877
 32
0.0
 13
-37.4999289032604
 23
-420.0041046104877
 33
0.0
  0
MTEXT
  5
5E7
330
5E1
100
AcDbEntity
  8
1
 62
     1
100
AcDbMText
 10
-16.01556806487049
 20
-418.0040992277403
 30
0.0
 40
14.0
 41
0.0
 71
     7
 72
     1
  1
\C1;DN\C1;75
  7
CONVERTER_11
 11
0.9999999999970619
 21
2.424068405545306E-6
 31
0.0
 73
     1
 44
0.60024009603842
  0
ENDBLK
  5
5E9
330
5E1
100
AcDbEntity
  8
0
100
AcDbBlockEnd
  0
BLOCK
  5
5F3
330
5EC
100
AcDbEntity
  8
0
100
AcDbBlockBegin
  2
*D8
 70
     1
 71
     0
 10
0.0
 20
0.0
 30
0.0
  3
*D8
  1

  0
LINE
  5
5ED
330
5EC
100
AcDbEntity
  8
1
  6
Continuous
 62
     4
100
AcDbLine
 10
-231.995428
 20
136.48972161057
 30
0.0
 11
231.9954280000001
 21
136.48972161057
 31
0.0
  0
LINE
  5
5EE
330
5EC
100
AcDbEntity
  8
1
  6
Continuous
 62
     4
100
AcDbLine
 10
-231.995428
 20
0.0
 30
0.0
 11
-231.995428
 21
138.48972161057
 31
0.0
  0
LINE
  5
5EF
330
5EC
100
AcDbEntity
  8
1
  6
Continuous
 62
     4
100
AcDbLine
 10
231.9954280000001
 20
0.0
 30
0.0
 11
231.9954280000001
 21
138.48972161057
 31
0.0
  0
SOLID
  5
5F0
330
5EC
100
AcDbEntity
  8
1
 62
     4
100
AcDbTrace
 10
-217.995428
 20
138.3328565767935
 30
0.0
 11
-217.995428
 21
134.6465866443465
 31
0.0
 12
-231.995428
 22
136.48972161057
 32
0.0
 13
-231.995428
 23
136.48972161057
 33
0.0
  0
SOLID
  5
5F1
330
5EC
100
AcDbEntity
  8
1
 62
     4
100
AcDbTrace
 10
217.9954280000001
 20
134.6465866443465
 30
0.0
 11
217.9954280000001
 21
138.3328565767935
 31
0.0
 12
231.9954280000001
 22
136.48972161057
 32
0.0
 13
231.9954280000001
 23
136.48972161057
 33
0.0
  0
MTEXT
  5
5F2
330
5EC
100
AcDbEntity
  8
1
 62
     1
100
AcDbMText
 10
-39.95557767865
 20
138.48972161057
 30
0.0
 40
14.0
 41
0.0
 71
     7
 72
     1
  1
500x500
  7
CONVERTER_11
 11
0.9999999999970619
 21
2.424068405545306E-6
 31
0.0
 73
     1
 44
0.60024009603842
  0
ENDBLK
  5
5F4
330
5EC
100
AcDbEntity
  8
0
100
AcDbBlockEnd
  0
BLOCK
  5
5FE
330
5F7
100
AcDbEntity
  8
0
100
AcDbBlockBegin
  2
*D9
 70
     1
 71
     0
 10
0.0
 20
0.0
 30
0.0
  3
*D9
  1

  0
LINE
  5
5F8
330
5F7
100
AcDbEntity
  8
1
  6
Continuous
 62
     4
100
AcDbLine
 10
80.519300212899
 20
-348.236469
 30
0.0
 11
80.519300212899
 21
-112.236322
 31
0.0
  0
LINE
  5
5F9
330
5F7
100
AcDbEntity
  8
1
  6
Continuous
 62
     4
100
AcDbLine
 10
26.79422899999998
 20
-348.236469
 30
0.0
 11
82.519300212899
 21
-348.236469
 31
0.0
  0
LINE
  5
5FA
330
5F7
100
AcDbEntity
  8
1
  6
Continuous
 62
     4
100
AcDbLine
 10
34.50070500000004
 20
-112.236322
 30
0.0
 11
82.519300212899
 21
-112.236322
 31
0.0
  0
SOLID
  5
5FB
330
5F7
100
AcDbEntity
  8
1
 62
     4
100
AcDbTrace
 10
78.67616524667545
 20
-334.236469
 30
0.0
 11
82.36243517912254
 21
-334.236469
 31
0.0
 12
80.519300212899
 22
-348.236469
 32
0.0
 13
80.519300212899
 23
-348.236469
 33
0.0
  0
SOLID
  5
5FC
330
5F7
100
AcDbEntity
  8
1
 62
     4
100
AcDbTrace
 10
82.36243517912253
 20
-126.236322
 30
0.0
 11
78.67616524667545
 21
-126.236322
 31
0.0
 12
80.519300212899
 22
-112.236322
 32
0.0
 13
80.519300212899
 23
-112.236322
 33
0.0
  0
MTEXT
  5
5FD
330
5F7
100
AcDbEntity
  8
1
 62
     1
100
AcDbMText
 10
78.519300212899
 20
-240.221879993556
 30
0.0
 40
14.0
 41
0.0
 71
     7
 72
     1
  1
236
  7
CONVERTER_11
 11
0.0
 21
1.0
 31
0.0
 73
     1
 44
0.60024009603842
  0
ENDBLK
  5
5FF
330
5F7
100
AcDbEntity
  8
0
100
AcDbBlockEnd
  0
BLOCK
  5
609
330
602
100
AcDbEntity
  8
0
100
AcDbBlockBegin
  2
*D10
 70
     1
 71
     0
 10
0.0
 20
0.0
 30
0.0
  3
*D10
  1

  0
LINE
  5
603
330
602
100
AcDbEntity
  8
1
  6
Continuous
 62
     4
100
AcDbLine
 10
241.9954280000001
 20
-348.236469
 30
0.0
 11
241.9954280000001
 21
-3.236469
 31
0.0
  0
LINE
  5
604
330
602
100
AcDbEntity
  8
1
  6
Continuous
 62
     4
100
AcDbLine
 10
26.794229
 20
-348.236469
 30
0.0
 11
243.9954280000001
 21
-348.236469
 31
0.0
  0
LINE
  5
605
330
602
100
AcDbEntity
  8
1
  6
Continuous
 62
     4
100
AcDbLine
 10
231.9954280000001
 20
-3.236469
 30
0.0
 11
243.9954280000001
 21
-3.236469
 31
0.0
  0
SOLID
  5
606
330
602
100
AcDbEntity
  8
1
 62
     4
100
AcDbTrace
 10
240.1522930337765
 20
-334.236469
 30
0.0
 11
243.8385629662236
 21
-334.236469
 31
0.0
 12
241.9954280000001
 22
-348.236469
 32
0.0
 13
241.9954280000001
 23
-348.236469
 33
0.0
  0
SOLID
  5
607
330
602
100
AcDbEntity
  8
1
 62
     4
100
AcDbTrace
 10
243.8385629662236
 20
-17.236469
 30
0.0
 11
240.1522930337765
 21
-17.236469
 31
0.0
 12
241.9954280000001
 22
-3.236469
 32
0.0
 13
241.9954280000001
 23
-3.236469
 33
0.0
  0
MTEXT
  5
608
330
602
100
AcDbEntity
  8
1
 62
     1
100
AcDbMText
 10
239.9954280000001
 20
-192.284214248387
 30
0.0
 40
14.0
 41
0.0
 71
     7
 72
     1
  1
345
  7
CONVERTER_11
 11
0.0
 21
1.0
 31
0.0
 73
     1
 44
0.60024009603842
  0
ENDBLK
  5
60A
330
602
100
AcDbEntity
  8
0
100
AcDbBlockEnd
  0
BLOCK
  5
614
330
60D
100
AcDbEntity
  8
0
100
AcDbBlockBegin
  2
*D11
 70
     1
 71
     0
 10
0.0
 20
0.0
 30
0.0
  3
*D11
  1

  0
LINE
  5
60E
330
60D
100
AcDbEntity
  8
1
  6
Continuous
 62
     4
100
AcDbLine
 10
156.941665893603
 20
-348.236469
 30
0.0
 11
156.941665893603
 21
-47.18767700000001
 31
0.0
  0
LINE
  5
60F
330
60D
100
AcDbEntity
  8
1
  6
Continuous
 62
     4
100
AcDbLine
 10
26.79422899999989
 20
-348.236469
 30
0.0
 11
158.941665893603
 21
-348.236469
 31
0.0
  0
LINE
  5
610
330
60D
100
AcDbEntity
  8
1
  6
Continuous
 62
     4
100
AcDbLine
 10
80.74999999999994
 20
-47.18767700000001
 30
0.0
 11
158.941665893603
 21
-47.18767700000001
 31
0.0
  0
SOLID
  5
611
330
60D
100
AcDbEntity
  8
1
 62
     4
100
AcDbTrace
 10
155.0985309273794
 20
-334.236469
 30
0.0
 11
158.7848008598265
 21
-334.236469
 31
0.0
 12
156.941665893603
 22
-348.236469
 32
0.0
 13
156.941665893603
 23
-348.236469
 33
0.0
  0
SOLID
  5
612
330
60D
100
AcDbEntity
  8
1
 62
     4
100
AcDbTrace
 10
158.7848008598265
 20
-61.18767700000001
 30
0.0
 11
155.0985309273794
 21
-61.18767700000001
 31
0.0
 12
156.941665893603
 22
-47.18767700000001
 32
0.0
 13
156.941665893603
 23
-47.18767700000001
 33
0.0
  0
MTEXT
  5
613
330
60D
100
AcDbEntity
  8
1
 62
     1
100
AcDbMText
 10
154.941665893603
 20
-202.689692268866
 30
0.0
 40
14.0
 41
0.0
 71
     7
 72
     1
  1
301
  7
CONVERTER_11
 11
0.0
 21
1.0
 31
0.0
 73
     1
 44
0.60024009603842
  0
ENDBLK
  5
615
330
60D
100
AcDbEntity
  8
0
100
AcDbBlockEnd
  0
ENDSEC
  0
SECTION
  2
ENTITIES
  0
INSERT
  5
5A
330
1F
100
AcDbEntity
  8
0
100
AcDbBlockReference
  2
TOP
 10
337.961464640079
 20
-415.845958
 30
0.0
  0
DIMENSION
  5
5D5
330
1F
100
AcDbEntity
  8
1
100
AcDbDimension
  2
*D5
 10
-62.5
 20
-76.79815351648568
 30
0.0
 11
-110.504879862959
 21
-67.79815351648568
 31
0.0
 70
    32
  1
<>
 71
     5
 42
-1.0
 53
0.00013888888889
  3
ME10_DIM_10
100
AcDbAlignedDimension
 13
62.5
 23
-47.18767700000001
 33
0.0
 14
-62.5
 24
-47.18767700000001
 34
0.0
100
AcDbRotatedDimension
  0
DIMENSION
  5
5E0
330
1F
100
AcDbEntity
  8
1
100
AcDbDimension
  2
*D6
 10
-177.0
 20
96.194292433471
 30
0.0
 11
0.65492476351903
 21
105.194292433471
 31
0.0
 70
    32
  1
<>
 71
     5
 42
-1.0
 53
0.00013888888889
  3
ME10_DIM_11
100
AcDbAlignedDimension
 13
177.0000000000001
 23
-5.236469
 33
0.0
 14
-177.0
 24
-5.236469
 34
0.0
100
AcDbRotatedDimension
  0
DIMENSION
  5
5EB
330
1F
100
AcDbEntity
  8
1
100
AcDbDimension
  2
*D7
 10
37.50007109645668
 20
-420.0040016063806
 30
0.0
 11
2.04442232135001
 21
-411.004050300738
 31
0.0
 70
    32
  1
<>
 71
     5
 42
-1.0
 53
0.00013888888889
  3
ME10_DIM_12
100
AcDbAlignedDimension
 13
-37.49997250254592
 23
-388.2583179005091
 33
0.0
 14
37.50002734934014
 24
-388.1505752395272
 34
0.0
 50
0.00007868934144
100
AcDbRotatedDimension
  0
DIMENSION
  5
5F6
330
1F
100
AcDbEntity
  8
1
100
AcDbDimension
  2
*D8
 10
-231.995428
 20
136.48972161057
 30
0.0
 11
2.04442232135
 21
145.48972161057
 31
0.0
 70
    32
  1
500x500
 71
     5
 42
-1.0
 53
0.00013888888889
  3
ME10_DIM_13
100
AcDbAlignedDimension
 13
231.9954280000001
 23
0.0
 33
0.0
 14
-231.995428
 24
0.0
 34
0.0
100
AcDbRotatedDimension
  0
DIMENSION
  5
601
330
1F
100
AcDbEntity
  8
1
100
AcDbDimension
  2
*D9
 10
80.519300212899
 20
-348.236469
 30
0.0
 11
71.519300212899
 21
-223.421879993556
 31
0.0
 70
    32
  1
<>
 71
     5
 42
-1.0
 53
90.0
  3
ME10_DIM_14
100
AcDbAlignedDimension
 13
34.50070500000004
 23
-112.236322
 33
0.0
 14
26.79422899999997
 24
-348.236469
 34
0.0
 50
90.0
100
AcDbRotatedDimension
  0
DIMENSION
  5
60C
330
1F
100
AcDbEntity
  8
1
100
AcDbDimension
  2
*D10
 10
241.9954280000001
 20
-348.236469
 30
0.0
 11
232.9954280000001
 21
-175.484214248387
 31
0.0
 70
    32
  1
<>
 71
     5
 42
-1.0
 53
90.0
  3
ME10_DIM_15
100
AcDbAlignedDimension
 13
231.9954280000001
 23
-3.236469
 33
0.0
 14
26.79422899999997
 24
-348.236469
 34
0.0
 50
90.0
100
AcDbRotatedDimension
  0
DIMENSION
  5
617
330
1F
100
AcDbEntity
  8
1
100
AcDbDimension
  2
*D11
 10
156.941665893603
 20
-348.236469
 30
0.0
 11
147.941665893603
 21
-187.989692268866
 31
0.0
 70
    32
  1
301
 71
     5
 42
-1.0
 53
90.0
  3
ME10_DIM_16
100
AcDbAlignedDimension
 13
80.75
 23
-47.18767700000001
 33
0.0
 14
26.79422899999997
 24
-348.236469
 34
0.0
 50
90.0
100
AcDbRotatedDimension
  0
ENDSEC
  0
SECTION
  2
OBJECTS
  0
DICTIONARY
  5
C
330
0
100
AcDbDictionary
281
     1
  3
ACAD_GROUP
350
D
  3
ACAD_LAYOUT
350
1A
  3
ACAD_MLINESTYLE
350
17
  3
ACAD_PLOTSETTINGS
350
19
  3
ACAD_PLOTSTYLENAME
350
E
  3
ACAD_TABLESTYLE
350
618
  3
ACAD_VISUALSTYLE
350
2A
  0
DICTIONARY
  5
D
102
{ACAD_REACTORS
330
C
102
}
330
C
100
AcDbDictionary
281
     1
  0
DICTIONARY
  5
1A
102
{ACAD_REACTORS
330
C
102
}
330
C
100
AcDbDictionary
281
     1
  3
Layout1
350
1E
  3
Layout2
350
26
  3
Model
350
22
  0
DICTIONARY
  5
17
102
{ACAD_REACTORS
330
C
102
}
330
C
100
AcDbDictionary
281
     1
  3
Standard
350
18
  0
DICTIONARY
  5
19
102
{ACAD_REACTORS
330
C
102
}
330
C
100
AcDbDictionary
281
     1
  0
ACDBDICTIONARYWDFLT
  5
E
102
{ACAD_REACTORS
330
C
102
}
330
C
100
AcDbDictionary
281
     1
  3
Normal
350
F
100
AcDbDictionaryWithDefault
340
F
  0
DICTIONARY
  5
618
102
{ACAD_REACTORS
330
C
102
}
330
C
100
AcDbDictionary
281
     1
  0
DICTIONARY
  5
2A
102
{ACAD_REACTORS
330
C
102
}
330
C
100
AcDbDictionary
281
     1
  3
2dWireframe
350
2F
  3
3D Hidden
350
31
  3
3dWireframe
350
30
  3
Basic
350
32
  3
Brighten
350
36
  3
ColorChange
350
3A
  3
Conceptual
350
34
  3
Dim
350
35
  3
Facepattern
350
39
  3
Flat
350
2B
  3
FlatWithEdges
350
2C
  3
Gouraud
350
2D
  3
GouraudWithEdges
350
2E
  3
Linepattern
350
38
  3
Realistic
350
33
  3
Thicken
350
37
  0
LAYOUT
  5
1E
102
{ACAD_REACTORS
330
1A
102
}
330
1A
100
AcDbPlotSettings
  1

  2
none_device
  4

  6

 40
0.0
 41
0.0
 42
0.0
 43
0.0
 44
0.0
 45
0.0
 46
0.0
 47
0.0
 48
0.0
 49
0.0
140
0.0
141
0.0
142
1.0
143
1.0
 70
   688
 72
     0
 73
     0
 74
     5
  7

 75
    16
147
1.0
148
0.0
149
0.0
100
AcDbLayout
  1
Layout1
 70
     1
 71
     1
 10
0.0
 20
0.0
 11
12.0
 21
9.0
 12
0.0
 22
0.0
 32
0.0
 14
1.00000000000000E+20
 24
1.00000000000000E+20
 34
1.00000000000000E+20
 15
-1.00000000000000E+20
 25
-1.00000000000000E+20
 35
-1.00000000000000E+20
146
0.0
 13
0.0
 23
0.0
 33
0.0
 16
1.0
 26
0.0
 36
0.0
 17
0.0
 27
1.0
 37
0.0
 76
     0
330
1B
  0
LAYOUT
  5
26
102
{ACAD_REACTORS
330
1A
102
}
330
1A
100
AcDbPlotSettings
  1

  2
none_device
  4

  6

 40
0.0
 41
0.0
 42
0.0
 43
0.0
 44
0.0
 45
0.0
 46
0.0
 47
0.0
 48
0.0
 49
0.0
140
0.0
141
0.0
142
1.0
143
1.0
 70
   688
 72
     0
 73
     0
 74
     5
  7

 75
    16
147
1.0
148
0.0
149
0.0
100
AcDbLayout
  1
Layout2
 70
     1
 71
     2
 10
0.0
 20
0.0
 11
0.0
 21
0.0
 12
0.0
 22
0.0
 32
0.0
 14
0.0
 24
0.0
 34
0.0
 15
0.0
 25
0.0
 35
0.0
146
0.0
 13
0.0
 23
0.0
 33
0.0
 16
1.0
 26
0.0
 36
0.0
 17
0.0
 27
1.0
 37
0.0
 76
     0
330
23
  0
LAYOUT
  5
22
102
{ACAD_REACTORS
330
1A
102
}
330
1A
100
AcDbPlotSettings
  1

  2
none_device
  4

  6

 40
0.0
 41
0.0
 42
0.0
 43
0.0
 44
0.0
 45
0.0
 46
0.0
 47
0.0
 48
0.0
 49
0.0
140
0.0
141
0.0
142
1.0
143
1.0
 70
  1712
 72
     0
 73
     0
 74
     0
  7

 75
     0
147
1.0
148
0.0
149
0.0
100
AcDbLayout
  1
Model
 70
     1
 71
     0
 10
0.0
 20
0.0
 11
12.0
 21
9.0
 12
0.0
 22
0.0
 32
0.0
 14
-250.0000000000003
 24
-971.8369164839714
 34
0.0
 15
249.9999999999997
 25
152.48972161057
 35
0.0
146
0.0
 13
0.0
 23
0.0
 33
0.0
 16
1.0
 26
0.0
 36
0.0
 17
0.0
 27
1.0
 37
0.0
 76
     0
330
1F
331
29
  0
MLINESTYLE
  5
18
102
{ACAD_REACTORS
330
17
102
}
330
17
100
AcDbMlineStyle
  2
Standard
 70
     0
  3

 62
   256
 51
90.0
 52
90.0
 71
     2
 49
0.5
 62
   256
  6
BYLAYER
 49
-0.5
 62
   256
  6
BYLAYER
  0
ACDBPLACEHOLDER
  5
F
102
{ACAD_REACTORS
330
E
102
}
330
E
  0
VISUALSTYLE
  5
2F
102
{ACAD_REACTORS
330
2A
102
}
330
2A
100
AcDbVisualStyle
  2
2dWireframe
 70
     4
 71
     0
 72
     2
 73
     0
 90
        0
 40
-0.6
 41
-30.0
 62
     5
 63
     7
 74
     1
 91
        4
 64
     7
 65
   257
 75
     1
175
     1
 42
1.0
 92
        0
 66
   257
 43
1.0
 76
     1
 77
     6
 78
     2
 67
     7
 79
     5
170
     0
171
     0
290
     0
174
     0
 93
        1
 44
0.0
173
     0
291
     0
 45
0.0
1001
ACAD
1000
AcDbSavedByObjectVersion
1070
     0
  0
VISUALSTYLE
  5
31
102
{ACAD_REACTORS
330
2A
102
}
330
2A
100
AcDbVisualStyle
  2
3D Hidden
 70
     6
 71
     1
 72
     2
 73
     2
 90
        0
 40
-0.6
 41
-30.0
 62
     5
 63
     7
 74
     2
 91
        2
 64
     7
 65
   257
 75
     2
175
     1
 42
40.0
 92
        0
 66
   257
 43
1.0
 76
     1
 77
     6
 78
     2
 67
     7
 79
     3
170
     0
171
     0
290
     0
174
     0
 93
        1
 44
0.0
173
     0
291
     0
 45
0.0
1001
ACAD
1000
AcDbSavedByObjectVersion
1070
     0
  0
VISUALSTYLE
  5
30
102
{ACAD_REACTORS
330
2A
102
}
330
2A
100
AcDbVisualStyle
  2
3dWireframe
 70
     5
 71
     0
 72
     2
 73
     0
 90
        0
 40
-0.6
 41
-30.0
 62
     5
 63
     7
 74
     1
 91
        4
 64
     7
 65
   257
 75
     1
175
     1
 42
1.0
 92
        0
 66
   257
 43
1.0
 76
     1
 77
     6
 78
     2
 67
     7
 79
     5
170
     0
171
     0
290
     0
174
     0
 93
        1
 44
0.0
173
     0
291
     0
 45
0.0
1001
ACAD
1000
AcDbSavedByObjectVersion
1070
     0
  0
VISUALSTYLE
  5
32
102
{ACAD_REACTORS
330
2A
102
}
330
2A
100
AcDbVisualStyle
  2
Basic
 70
     7
 71
     1
 72
     0
 73
     1
 90
        0
 40
-0.6
 41
-30.0
 62
     5
 63
     7
 74
     0
 91
        4
 64
     7
 65
   257
 75
     1
175
     1
 42
1.0
 92
        8
 66
     7
 43
1.0
 76
     1
 77
     6
 78
     2
 67
     7
 79
     5
170
     0
171
     0
290
     0
174
     0
 93
        1
 44
0.0
173
     0
291
     1
 45
0.0
1001
ACAD
1000
AcDbSavedByObjectVersion
1070
     0
  0
VISUALSTYLE
  5
36
102
{ACAD_REACTORS
330
2A
102
}
330
2A
100
AcDbVisualStyle
  2
Brighten
 70
    12
 71
     2
 72
     2
 73
     0
 90
        0
 40
-0.6
 41
-30.0
 62
     5
 63
     7
 74
     1
 91
        4
 64
     7
 65
   257
 75
     1
175
     1
 42
1.0
 92
        8
 66
     7
 43
1.0
 76
     1
 77
     6
 78
     2
 67
     7
 79
     5
170
     0
171
     0
290
     0
174
     0
 93
        1
 44
50.0
173
     0
291
     1
 45
0.0
1001
ACAD
1000
AcDbSavedByObjectVersion
1070
     0
  0
VISUALSTYLE
  5
3A
102
{ACAD_REACTORS
330
2A
102
}
330
2A
100
AcDbVisualStyle
  2
ColorChange
 70
    16
 71
     2
 72
     2
 73
     3
 90
        0
 40
-0.6
 41
-30.0
 62
     5
 63
     8
 74
     1
 91
        4
 64
     7
 65
   257
 75
     1
175
     1
 42
1.0
 92
        8
 66
     8
 43
1.0
 76
     1
 77
     6
 78
     2
 67
     7
 79
     5
170
     0
171
     0
290
     0
174
     0
 93
        1
 44
0.0
173
     0
291
     1
 45
0.0
1001
ACAD
1000
AcDbSavedByObjectVersion
1070
     0
  0
VISUALSTYLE
  5
34
102
{ACAD_REACTORS
330
2A
102
}
330
2A
100
AcDbVisualStyle
  2
Conceptual
 70
     9
 71
     3
 72
     2
 73
     0
 90
        0
 40
-0.6
 41
-30.0
 62
     5
 63
     7
 74
     2
 91
        2
 64
     7
 65
   257
 75
     1
175
     1
 42
40.0
 92
        8
 66
     7
 43
1.0
 76
     1
 77
     6
 78
     2
 67
     7
 79
     3
170
     0
171
     0
290
     0
174
     0
 93
        1
 44
0.0
173
     0
291
     0
 45
0.0
1001
ACAD
1000
AcDbSavedByObjectVersion
1070
     0
  0
VISUALSTYLE
  5
35
102
{ACAD_REACTORS
330
2A
102
}
330
2A
100
AcDbVisualStyle
  2
Dim
 70
    11
 71
     2
 72
     2
 73
     0
 90
        0
 40
-0.6
 41
-30.0
 62
     5
 63
     7
 74
     1
 91
        4
 64
     7
 65
   257
 75
     1
175
     1
 42
1.0
 92
        8
 66
     7
 43
1.0
 76
     1
 77
     6
 78
     2
 67
     7
 79
     5
170
     0
171
     0
290
     0
174
     0
 93
        1
 44
-50.0
173
     0
291
     1
 45
0.0
1001
ACAD
1000
AcDbSavedByObjectVersion
1070
     0
  0
VISUALSTYLE
  5
39
102
{ACAD_REACTORS
330
2A
102
}
330
2A
100
AcDbVisualStyle
  2
Facepattern
 70
    15
 71
     2
 72
     2
 73
     0
 90
        0
 40
-0.6
 41
-30.0
 62
     5
 63
     7
 74
     1
 91
        4
 64
     7
 65
   257
 75
     1
175
     1
 42
1.0
 92
        8
 66
     7
 43
1.0
 76
     1
 77
     6
 78
     2
 67
     7
 79
     5
170
     0
171
     0
290
     0
174
     0
 93
        1
 44
0.0
173
     0
291
     1
 45
0.0
1001
ACAD
1000
AcDbSavedByObjectVersion
1070
     0
  0
VISUALSTYLE
  5
2B
102
{ACAD_REACTORS
330
2A
102
}
330
2A
100
AcDbVisualStyle
  2
Flat
 70
     0
 71
     2
 72
     1
 73
     1
 90
        2
 40
-0.6
 41
30.0
 62
     5
 63
     7
 74
     0
 91
        4
 64
     7
 65
   257
 75
     1
175
     1
 42
1.0
 92
        8
 66
     7
 43
1.0
 76
     1
 77
     6
 78
     2
 67
     7
 79
     5
170
     0
171
     0
290
     0
174
     0
 93
       13
 44
0.0
173
     0
291
     1
 45
0.0
1001
ACAD
1000
AcDbSavedByObjectVersion
1070
     0
  0
VISUALSTYLE
  5
2C
102
{ACAD_REACTORS
330
2A
102
}
330
2A
100
AcDbVisualStyle
  2
FlatWithEdges
 70
     1
 71
     2
 72
     1
 73
     1
 90
        2
 40
-0.6
 41
30.0
 62
     5
 63
     7
 74
     1
 91
        4
 64
     7
 65
   257
 75
     1
175
     1
 42
1.0
 92
        0
 66
   257
 43
1.0
 76
     1
 77
     6
 78
     2
 67
     7
 79
     5
170
     0
171
     0
290
     0
174
     0
 93
       13
 44
0.0
173
     0
291
     1
 45
0.0
1001
ACAD
1000
AcDbSavedByObjectVersion
1070
     0
  0
VISUALSTYLE
  5
2D
102
{ACAD_REACTORS
330
2A
102
}
330
2A
100
AcDbVisualStyle
  2
Gouraud
 70
     2
 71
     2
 72
     2
 73
     1
 90
        2
 40
-0.6
 41
30.0
 62
     5
 63
     7
 74
     0
 91
        4
 64
     7
 65
   257
 75
     1
175
     1
 42
1.0
 92
        0
 66
     7
 43
1.0
 76
     1
 77
     6
 78
     2
 67
     7
 79
     5
170
     0
171
     0
290
     0
174
     0
 93
       13
 44
0.0
173
     0
291
     1
 45
0.0
1001
ACAD
1000
AcDbSavedByObjectVersion
1070
     0
  0
VISUALSTYLE
  5
2E
102
{ACAD_REACTORS
330
2A
102
}
330
2A
100
AcDbVisualStyle
  2
GouraudWithEdges
 70
     3
 71
     2
 72
     2
 73
     1
 90
        2
 40
-0.6
 41
30.0
 62
     5
 63
     7
 74
     1
 91
        4
 64
     7
 65
   257
 75
     1
175
     1
 42
1.0
 92
        0
 66
   257
 43
1.0
 76
     1
 77
     6
 78
     2
 67
     7
 79
     5
170
     0
171
     0
290
     0
174
     0
 93
       13
 44
0.0
173
     0
291
     1
 45
0.0
1001
ACAD
1000
AcDbSavedByObjectVersion
1070
     0
  0
VISUALSTYLE
  5
38
102
{ACAD_REACTORS
330
2A
102
}
330
2A
100
AcDbVisualStyle
  2
Linepattern
 70
    14
 71
     2
 72
     2
 73
     0
 90
        0
 40
-0.6
 41
-30.0
 62
     5
 63
     7
 74
     1
 91
        4
 64
     7
 65
   257
 75
     7
175
     7
 42
1.0
 92
        8
 66
     7
 43
1.0
 76
     1
 77
     6
 78
     2
 67
     7
 79
     5
170
     0
171
     0
290
     0
174
     0
 93
        1
 44
0.0
173
     0
291
     1
 45
0.0
1001
ACAD
1000
AcDbSavedByObjectVersion
1070
     0
  0
VISUALSTYLE
  5
33
102
{ACAD_REACTORS
330
2A
102
}
330
2A
100
AcDbVisualStyle
  2
Realistic
 70
     8
 71
     2
 72
     2
 73
     0
 90
        0
 40
-0.6
 41
-30.0
 62
     5
 63
     7
 74
     1
 91
        0
 64
     7
 65
   257
 75
     1
175
     1
 42
1.0
 92
        8
 66
     8
 43
1.0
 76
     1
 77
     6
 78
     2
 67
     7
 79
     5
170
     0
171
     0
290
     0
174
     0
 93
       13
 44
0.0
173
     0
291
     0
 45
0.0
1001
ACAD
1000
AcDbSavedByObjectVersion
1070
     0
  0
VISUALSTYLE
  5
37
102
{ACAD_REACTORS
330
2A
102
}
330
2A
100
AcDbVisualStyle
  2
Thicken
 70
    13
 71
     2
 72
     2
 73
     0
 90
        0
 40
-0.6
 41
-30.0
 62
     5
 63
     7
 74
     1
 91
        4
 64
     7
 65
   257
 75
     1
175
     1
 42
1.0
 92
       12
 66
     7
 43
1.0
 76
     1
 77
     6
 78
     2
 67
     7
 79
     5
170
     0
171
     0
290
     0
174
     0
 93
        1
 44
0.0
173
     0
291
     1
 45
0.0
1001
ACAD
1000
AcDbSavedByObjectVersion
1070
     0
  0
ENDSEC
  0
EOF
