  0
SECTION
  2
HEADER
  9
$ACADVER
  1
AC1015
  9
$ACADMAINTVER
 70
     6
  9
$DWGCODEPAGE
  3
ANSI_1252
  9
$INSBASE
 10
0.0
 20
0.0
 30
0.0
  9
$EXTMIN
 10
-177.0008591507167
 20
-971.863954334447
 30
0.0
  9
$EXTMAX
 10
187.0000712634897
 20
147.40667136087
 30
0.0
  9
$LIMMIN
 10
0.0
 20
0.0
  9
$LIMMAX
 10
12.0
 20
9.0
  9
$ORTHOMODE
 70
     0
  9
$REGENMODE
 70
     1
  9
$FILLMODE
 70
     1
  9
$QTEXTMODE
 70
     0
  9
$MIRRTEXT
 70
     1
  9
$LTSCALE
 40
1.0
  9
$ATTMODE
 70
     1
  9
$TEXTSIZE
 40
0.2
  9
$TRACEWID
 40
0.05
  9
$TEXTSTYLE
  7
Standard
  9
$CLAYER
  8
0
  9
$CELTYPE
  6
ByLayer
  9
$CECOLOR
 62
   256
  9
$CELTSCALE
 40
1.0
  9
$DISPSILH
 70
     0
  9
$DIMSCALE
 40
1.0
  9
$DIMASZ
 40
0.18
  9
$DIMEXO
 40
0.0625
  9
$DIMDLI
 40
0.38
  9
$DIMRND
 40
0.0
  9
$DIMDLE
 40
0.0
  9
$DIMEXE
 40
0.18
  9
$DIMTP
 40
0.0
  9
$DIMTM
 40
0.0
  9
$DIMTXT
 40
0.18
  9
$DIMCEN
 40
0.09
  9
$DIMTSZ
 40
0.0
  9
$DIMTOL
 70
     0
  9
$DIMLIM
 70
     0
  9
$DIMTIH
 70
     1
  9
$DIMTOH
 70
     1
  9
$DIMSE1
 70
     0
  9
$DIMSE2
 70
     0
  9
$DIMTAD
 70
     0
  9
$DIMZIN
 70
     0
  9
$DIMBLK
  1

  9
$DIMASO
 70
     1
  9
$DIMSHO
 70
     1
  9
$DIMPOST
  1

  9
$DIMAPOST
  1

  9
$DIMALT
 70
     0
  9
$DIMALTD
 70
     2
  9
$DIMALTF
 40
25.4
  9
$DIMLFAC
 40
1.0
  9
$DIMTOFL
 70
     0
  9
$DIMTVP
 40
0.0
  9
$DIMTIX
 70
     0
  9
$DIMSOXD
 70
     0
  9
$DIMSAH
 70
     0
  9
$DIMBLK1
  1

  9
$DIMBLK2
  1

  9
$DIMSTYLE
  2
Standard
  9
$DIMCLRD
 70
     0
  9
$DIMCLRE
 70
     0
  9
$DIMCLRT
 70
     0
  9
$DIMTFAC
 40
1.0
  9
$DIMGAP
 40
0.09
  9
$DIMJUST
 70
     0
  9
$DIMSD1
 70
     0
  9
$DIMSD2
 70
     0
  9
$DIMTOLJ
 70
     1
  9
$DIMTZIN
 70
     0
  9
$DIMALTZ
 70
     0
  9
$DIMALTTZ
 70
     0
  9
$DIMUPT
 70
     0
  9
$DIMDEC
 70
     4
  9
$DIMTDEC
 70
     4
  9
$DIMALTU
 70
     2
  9
$DIMALTTD
 70
     2
  9
$DIMTXSTY
  7
Standard
  9
$DIMAUNIT
 70
     0
  9
$DIMADEC
 70
     0
  9
$DIMALTRND
 40
0.0
  9
$DIMAZIN
 70
     0
  9
$DIMDSEP
 70
    46
  9
$DIMATFIT
 70
     3
  9
$DIMFRAC
 70
     0
  9
$DIMLDRBLK
  1

  9
$DIMLUNIT
 70
     2
  9
$DIMLWD
 70
    -2
  9
$DIMLWE
 70
    -2
  9
$DIMTMOVE
 70
     0
  9
$LUNITS
 70
     2
  9
$LUPREC
 70
     4
  9
$SKETCHINC
 40
0.1
  9
$FILLETRAD
 40
0.5
  9
$AUNITS
 70
     0
  9
$AUPREC
 70
     0
  9
$MENU
  1
.
  9
$ELEVATION
 40
0.0
  9
$PELEVATION
 40
0.0
  9
$THICKNESS
 40
0.0
  9
$LIMCHECK
 70
     0
  9
$CHAMFERA
 40
0.5
  9
$CHAMFERB
 40
0.5
  9
$CHAMFERC
 40
1.0
  9
$CHAMFERD
 40
0.0
  9
$SKPOLY
 70
     0
  9
$TDCREATE
 40
2454721.53771846
  9
$TDUCREATE
 40
2454721.454385127
  9
$TDUPDATE
 40
2454721.537718472
  9
$TDUUPDATE
 40
2454721.454385139
  9
$TDINDWG
 40
0.0000000116
  9
$TDUSRTIMER
 40
0.0000000116
  9
$USRTIMER
 70
     1
  9
$ANGBASE
 50
0.0
  9
$ANGDIR
 70
     0
  9
$PDMODE
 70
     0
  9
$PDSIZE
 40
0.0
  9
$PLINEWID
 40
0.0
  9
$SPLFRAME
 70
     0
  9
$SPLINETYPE
 70
     6
  9
$SPLINESEGS
 70
     8
  9
$HANDSEED
  5
609
  9
$SURFTAB1
 70
     6
  9
$SURFTAB2
 70
     6
  9
$SURFTYPE
 70
     6
  9
$SURFU
 70
     6
  9
$SURFV
 70
     6
  9
$UCSBASE
  2

  9
$UCSNAME
  2

  9
$UCSORG
 10
0.0
 20
0.0
 30
0.0
  9
$UCSXDIR
 10
1.0
 20
0.0
 30
0.0
  9
$UCSYDIR
 10
0.0
 20
1.0
 30
0.0
  9
$UCSORTHOREF
  2

  9
$UCSORTHOVIEW
 70
     0
  9
$UCSORGTOP
 10
0.0
 20
0.0
 30
0.0
  9
$UCSORGBOTTOM
 10
0.0
 20
0.0
 30
0.0
  9
$UCSORGLEFT
 10
0.0
 20
0.0
 30
0.0
  9
$UCSORGRIGHT
 10
0.0
 20
0.0
 30
0.0
  9
$UCSORGFRONT
 10
0.0
 20
0.0
 30
0.0
  9
$UCSORGBACK
 10
0.0
 20
0.0
 30
0.0
  9
$PUCSBASE
  2

  9
$PUCSNAME
  2

  9
$PUCSORG
 10
0.0
 20
0.0
 30
0.0
  9
$PUCSXDIR
 10
1.0
 20
0.0
 30
0.0
  9
$PUCSYDIR
 10
0.0
 20
1.0
 30
0.0
  9
$PUCSORTHOREF
  2

  9
$PUCSORTHOVIEW
 70
     0
  9
$PUCSORGTOP
 10
0.0
 20
0.0
 30
0.0
  9
$PUCSORGBOTTOM
 10
0.0
 20
0.0
 30
0.0
  9
$PUCSORGLEFT
 10
0.0
 20
0.0
 30
0.0
  9
$PUCSORGRIGHT
 10
0.0
 20
0.0
 30
0.0
  9
$PUCSORGFRONT
 10
0.0
 20
0.0
 30
0.0
  9
$PUCSORGBACK
 10
0.0
 20
0.0
 30
0.0
  9
$USERI1
 70
     0
  9
$USERI2
 70
     0
  9
$USERI3
 70
     0
  9
$USERI4
 70
     0
  9
$USERI5
 70
     0
  9
$USERR1
 40
15.5
  9
$USERR2
 40
0.0
  9
$USERR3
 40
0.0
  9
$USERR4
 40
0.0
  9
$USERR5
 40
0.0
  9
$WORLDVIEW
 70
     1
  9
$SHADEDGE
 70
     3
  9
$SHADEDIF
 70
    70
  9
$TILEMODE
 70
     1
  9
$MAXACTVP
 70
    64
  9
$PINSBASE
 10
0.0
 20
0.0
 30
0.0
  9
$PLIMCHECK
 70
     0
  9
$PEXTMIN
 10
1.00000000000000E+20
 20
1.00000000000000E+20
 30
1.00000000000000E+20
  9
$PEXTMAX
 10
-1.00000000000000E+20
 20
-1.00000000000000E+20
 30
-1.00000000000000E+20
  9
$PLIMMIN
 10
0.0
 20
0.0
  9
$PLIMMAX
 10
12.0
 20
9.0
  9
$UNITMODE
 70
     0
  9
$VISRETAIN
 70
     1
  9
$PLINEGEN
 70
     0
  9
$PSLTSCALE
 70
     1
  9
$TREEDEPTH
 70
  3020
  9
$CMLSTYLE
  2
Standard
  9
$CMLJUST
 70
     0
  9
$CMLSCALE
 40
1.0
  9
$PROXYGRAPHICS
 70
     1
  9
$MEASUREMENT
 70
     1
  9
$CELWEIGHT
370
    -1
  9
$ENDCAPS
280
     0
  9
$JOINSTYLE
280
     0
  9
$LWDISPLAY
290
     0
  9
$INSUNITS
 70
     1
  9
$HYPERLINKBASE
  1

  9
$STYLESHEET
  1

  9
$XEDIT
290
     1
  9
$CEPSNTYPE
380
     0
  9
$PSTYLEMODE
290
     1
  9
$FINGERPRINTGUID
  2
{E76A24BF-81A9-457A-A2AD-26C3DF504BE1}
  9
$VERSIONGUID
  2
{FAEB1C32-E019-11D5-929B-00C0DF256EC4}
  9
$EXTNAMES
290
     1
  9
$PSVPSCALE
 40
0.0
  9
$OLESTARTUP
290
     0
  0
ENDSEC
  0
SECTION
  2
CLASSES
  0
CLASS
  1
ACDBDICTIONARYWDFLT
  2
AcDbDictionaryWithDefault
  3
ObjectDBX Classes
 90
        0
280
     0
281
     0
  0
CLASS
  1
VISUALSTYLE
  2
AcDbVisualStyle
  3
ObjectDBX Classes
 90
     4095
280
     0
281
     0
  0
CLASS
  1

  2
exOdDbCircle
  3

 90
        0
280
     0
281
     1
  0
CLASS
  1

  2
exOdDbPolyline
  3

 90
        0
280
     0
281
     1
  0
CLASS
  1
ACDBPLACEHOLDER
  2
AcDbPlaceHolder
  3
ObjectDBX Classes
 90
        0
280
     0
281
     0
  0
CLASS
  1
LAYOUT
  2
AcDbLayout
  3
ObjectDBX Classes
 90
        0
280
     0
281
     0
  0
ENDSEC
  0
SECTION
  2
TABLES
  0
TABLE
  2
VPORT
  5
8
330
0
100
AcDbSymbolTable
 70
     1
  0
VPORT
  5
29
330
8
100
AcDbSymbolTableRecord
100
AcDbViewportTableRecord
  2
*Active
 70
     0
 10
0.0
 20
0.0
 11
1.0
 21
1.0
 12
4.9996060563865
 22
-412.2286414867885
 13
0.0
 23
0.0
 14
0.5
 24
0.5
 15
0.5
 25
0.5
 16
0.0
 26
0.0
 36
1.0
 17
0.0
 27
0.0
 37
0.0
 40
1231.197688264849
 41
1.60267857142857
 42
50.0
 43
0.0
 44
0.0
 50
0.0
 51
0.0
 71
     0
 72
   100
 73
     1
 74
     3
 75
     0
 76
     0
 77
     0
 78
     0
281
     0
 65
     1
110
0.0
120
0.0
130
0.0
111
1.0
121
0.0
131
0.0
112
0.0
122
1.0
132
0.0
 79
     0
146
0.0
  0
ENDTAB
  0
TABLE
  2
LTYPE
  5
5
330
0
100
AcDbSymbolTable
 70
    10
  0
LTYPE
  5
14
330
5
100
AcDbSymbolTableRecord
100
AcDbLinetypeTableRecord
  2
ByBlock
 70
     0
  3

 72
    65
 73
     0
 40
0.0
  0
LTYPE
  5
15
330
5
100
AcDbSymbolTableRecord
100
AcDbLinetypeTableRecord
  2
ByLayer
 70
     0
  3

 72
    65
 73
     0
 40
0.0
  0
LTYPE
  5
16
330
5
100
AcDbSymbolTableRecord
100
AcDbLinetypeTableRecord
  2
Continuous
 70
     0
  3
Solid line
 72
    65
 73
     0
 40
0.0
  0
LTYPE
  5
3B
330
5
100
AcDbSymbolTableRecord
100
AcDbLinetypeTableRecord
  2
DASHED
 70
     0
  3
Dashed
 72
    65
 73
     2
 40
15.0
 49
7.0
 74
     0
 49
-8.0
 74
     0
  0
LTYPE
  5
3C
330
5
100
AcDbSymbolTableRecord
100
AcDbLinetypeTableRecord
  2
DOTTED
 70
     0
  3
Dotted
 72
    65
 73
     2
 40
1.0
 49
0.0
 74
     0
 49
-1.0
 74
     0
  0
LTYPE
  5
3D
330
5
100
AcDbSymbolTableRecord
100
AcDbLinetypeTableRecord
  2
DOT_CENTER
 70
     0
  3
Dot_Center
 72
    65
 73
     4
 40
14.0
 49
12.0
 74
     0
 49
-1.0
 74
     0
 49
0.0
 74
     0
 49
-1.0
 74
     0
  0
LTYPE
  5
3E
330
5
100
AcDbSymbolTableRecord
100
AcDbLinetypeTableRecord
  2
LONG_DASHED
 70
     0
  3
Long_Dashed
 72
    65
 73
     2
 40
15.0
 49
10.0
 74
     0
 49
-5.0
 74
     0
  0
LTYPE
  5
3F
330
5
100
AcDbSymbolTableRecord
100
AcDbLinetypeTableRecord
  2
DASH_CENTER
 70
     0
  3
Dash_Center
 72
    65
 73
     4
 40
14.0
 49
11.0
 74
     0
 49
-1.0
 74
     0
 49
1.0
 74
     0
 49
-1.0
 74
     0
  0
LTYPE
  5
40
330
5
100
AcDbSymbolTableRecord
100
AcDbLinetypeTableRecord
  2
PHANTOM
 70
     0
  3
Phantom
 72
    65
 73
     6
 40
13.0
 49
10.0
 74
     0
 49
-1.0
 74
     0
 49
0.0
 74
     0
 49
-1.0
 74
     0
 49
0.0
 74
     0
 49
-1.0
 74
     0
  0
LTYPE
  5
41
330
5
100
AcDbSymbolTableRecord
100
AcDbLinetypeTableRecord
  2
CENTER_DASH_DASH
 70
     0
  3
Center_Dash_Dash
 72
    65
 73
     6
 40
14.0
 49
9.0
 74
     0
 49
-1.0
 74
     0
 49
1.0
 74
     0
 49
-1.0
 74
     0
 49
1.0
 74
     0
 49
-1.0
 74
     0
  0
LTYPE
  5
42
330
5
100
AcDbSymbolTableRecord
100
AcDbLinetypeTableRecord
  2
DASHDOT
 70
     0
  3
DASHDOT
 72
    65
 73
     4
 40
16.0
 49
10.0
 74
     0
 49
-3.0
 74
     0
 49
0.0
 74
     0
 49
-3.0
 74
     0
  0
LTYPE
  5
43
330
5
100
AcDbSymbolTableRecord
100
AcDbLinetypeTableRecord
  2
CENTER
 70
     0
  3
CENTER
 72
    65
 73
     4
 40
16.0
 49
10.0
 74
     0
 49
-3.0
 74
     0
 49
0.0
 74
     0
 49
-3.0
 74
     0
  0
ENDTAB
  0
TABLE
  2
LAYER
  5
2
330
0
100
AcDbSymbolTable
 70
    10
  0
LAYER
  5
10
330
2
100
AcDbSymbolTableRecord
100
AcDbLayerTableRecord
  2
0
 70
     0
 62
     7
  6
Continuous
370
    -3
390
F
  0
LAYER
  5
44
330
2
100
AcDbSymbolTableRecord
100
AcDbLayerTableRecord
  2
1
 70
     0
 62
     7
  6
Continuous
370
    -3
390
F
  0
LAYER
  5
45
330
2
100
AcDbSymbolTableRecord
100
AcDbLayerTableRecord
  2
LC-001-002-RND-0
 70
     0
 62
     7
  6
Continuous
370
    -3
390
F
  0
LAYER
  5
46
330
2
100
AcDbSymbolTableRecord
100
AcDbLayerTableRecord
  2
LC-002-002-----0
 70
     0
 62
     7
  6
Continuous
370
    -3
390
F
  0
LAYER
  5
47
330
2
100
AcDbSymbolTableRecord
100
AcDbLayerTableRecord
  2
LC-003-002-RND-0
 70
     0
 62
     7
  6
Continuous
370
    -3
390
F
  0
LAYER
  5
48
330
2
100
AcDbSymbolTableRecord
100
AcDbLayerTableRecord
  2
LC-005-002-----0
 70
     0
 62
     7
  6
Continuous
370
    -3
390
F
  0
LAYER
  5
49
330
2
100
AcDbSymbolTableRecord
100
AcDbLayerTableRecord
  2
LC-006-002-----0
 70
     0
 62
     7
  6
Continuous
370
    -3
390
F
  0
LAYER
  5
4A
330
2
100
AcDbSymbolTableRecord
100
AcDbLayerTableRecord
  2
LC-006-003-----0
 70
     0
 62
     7
  6
Continuous
370
    -3
390
F
  0
LAYER
  5
4B
330
2
100
AcDbSymbolTableRecord
100
AcDbLayerTableRecord
  2
LC-006-005-----0
 70
     0
 62
     7
  6
Continuous
370
    -3
390
F
  0
LAYER
  5
4C
330
2
100
AcDbSymbolTableRecord
100
AcDbLayerTableRecord
  2
LC-007-006-MLN-0
 70
     0
 62
     7
  6
Continuous
370
    -3
390
F
  0
ENDTAB
  0
TABLE
  2
STYLE
  5
3
330
0
100
AcDbSymbolTable
 70
     2
  0
STYLE
  5
11
330
3
100
AcDbSymbolTableRecord
100
AcDbTextStyleTableRecord
  2
Standard
 70
     0
 40
0.0
 41
1.0
 50
0.0
 71
     0
 42
0.2
  3
txt
  4

  0
STYLE
  5
5CA
330
3
100
AcDbSymbolTableRecord
100
AcDbTextStyleTableRecord
  2
CONVERTER_11
 70
     0
 40
0.0
 41
0.9
 50
0.0
 71
     0
 42
0.2
  3
txt.shx
  4

  0
ENDTAB
  0
TABLE
  2
VIEW
  5
6
330
0
100
AcDbSymbolTable
 70
     0
  0
ENDTAB
  0
TABLE
  2
UCS
  5
7
330
0
100
AcDbSymbolTable
 70
     0
  0
ENDTAB
  0
TABLE
  2
APPID
  5
9
330
0
100
AcDbSymbolTable
 70
     1
  0
APPID
  5
12
330
9
100
AcDbSymbolTableRecord
100
AcDbRegAppTableRecord
  2
ACAD
 70
     0
  0
ENDTAB
  0
TABLE
  2
DIMSTYLE
  5
A
330
0
100
AcDbSymbolTable
 70
     7
100
AcDbDimStyleTable
  0
DIMSTYLE
105
27
330
A
100
AcDbSymbolTableRecord
100
AcDbDimStyleTableRecord
  2
Standard
 70
     0
340
11
  0
DIMSTYLE
105
5CE
102
{ACAD_REACTORS
330
5CF
102
}
330
A
100
AcDbSymbolTableRecord
100
AcDbDimStyleTableRecord
  2
ME10_DIM_10
 70
     0
 41
12.0
 42
0.0
 44
2.0
 73
     0
 74
     0
 77
     1
 78
     8
140
12.0
147
2.0
172
     1
173
     1
176
     4
177
     4
178
     1
271
     2
340
5CA
  0
DIMSTYLE
105
5D9
102
{ACAD_REACTORS
330
5DA
102
}
330
A
100
AcDbSymbolTableRecord
100
AcDbDimStyleTableRecord
  2
ME10_DIM_11
 70
     0
 41
12.0
 42
0.0
 44
2.0
 73
     0
 74
     0
 77
     1
 78
     8
140
12.0
147
2.0
172
     1
173
     1
176
     4
177
     4
178
     1
271
     0
340
5CA
  0
DIMSTYLE
105
5E4
102
{ACAD_REACTORS
330
5E5
102
}
330
A
100
AcDbSymbolTableRecord
100
AcDbDimStyleTableRecord
  2
ME10_DIM_12
 70
     0
  3
Ø<>
 41
12.0
 42
0.0
 44
2.0
 73
     0
 74
     0
 77
     1
 78
     8
140
12.0
147
2.0
172
     1
173
     1
176
     4
177
     4
178
     1
271
     2
340
5CA
  0
DIMSTYLE
105
5EF
102
{ACAD_REACTORS
330
5F0
102
}
330
A
100
AcDbSymbolTableRecord
100
AcDbDimStyleTableRecord
  2
ME10_DIM_13
 70
     0
  3
DN<>
 41
12.0
 42
0.0
 44
2.0
 73
     0
 74
     0
 77
     1
 78
     8
140
12.0
147
2.0
172
     1
173
     1
176
     4
177
     4
178
     1
271
     2
340
5CA
  0
DIMSTYLE
105
5FB
102
{ACAD_REACTORS
330
5FC
102
}
330
A
100
AcDbSymbolTableRecord
100
AcDbDimStyleTableRecord
  2
ME10_DIM_14
 70
     0
  3
Ø<>
 41
12.0
 42
0.0
 44
2.0
 73
     0
 74
     0
 77
     1
 78
     8
140
12.0
147
2.0
172
     1
173
     1
176
     4
177
     4
178
     1
271
     2
340
5CA
  0
DIMSTYLE
105
606
102
{ACAD_REACTORS
330
607
102
}
330
A
100
AcDbSymbolTableRecord
100
AcDbDimStyleTableRecord
  2
ME10_DIM_15
 70
     0
 41
12.0
 42
0.0
 44
2.0
 73
     0
 74
     0
 77
     1
 78
     8
140
12.0
147
2.0
172
     1
173
     1
176
     4
177
     4
178
     1
271
     2
340
5CA
  0
ENDTAB
  0
TABLE
  2
BLOCK_RECORD
  5
1
330
0
100
AcDbSymbolTable
 70
    12
  0
BLOCK_RECORD
  5
1F
330
1
100
AcDbSymbolTableRecord
100
AcDbBlockTableRecord
  2
*Model_Space
340
22
  0
BLOCK_RECORD
  5
1B
330
1
100
AcDbSymbolTableRecord
100
AcDbBlockTableRecord
  2
*Paper_Space
340
1E
  0
BLOCK_RECORD
  5
23
330
1
100
AcDbSymbolTableRecord
100
AcDbBlockTableRecord
  2
*Paper_Space0
340
26
  0
BLOCK_RECORD
  5
4D
330
1
100
AcDbSymbolTableRecord
100
AcDbBlockTableRecord
  2
Draufsicht
340
0
102
{BLKREFS
331
5C
102
}
  0
BLOCK_RECORD
  5
50
330
1
100
AcDbSymbolTableRecord
100
AcDbBlockTableRecord
  2
HL69_1
340
0
102
{BLKREFS
331
5D
102
}
  0
BLOCK_RECORD
  5
53
330
1
100
AcDbSymbolTableRecord
100
AcDbBlockTableRecord
  2
PVC_Manschette
340
0
102
{BLKREFS
331
5E
102
}
  0
BLOCK_RECORD
  5
56
330
1
100
AcDbSymbolTableRecord
100
AcDbBlockTableRecord
  2
062_1E_Laubfangkorb
340
0
102
{BLKREFS
331
5F
102
}
  0
BLOCK_RECORD
  5
59
330
1
100
AcDbSymbolTableRecord
100
AcDbBlockTableRecord
  2
Bauschutz_062_9E
340
0
102
{BLKREFS
331
60
102
}
  0
BLOCK_RECORD
  5
5C4
330
1
100
AcDbSymbolTableRecord
100
AcDbBlockTableRecord
  2
*D6
340
0
  0
BLOCK_RECORD
  5
5D0
330
1
100
AcDbSymbolTableRecord
100
AcDbBlockTableRecord
  2
*D7
340
0
  0
BLOCK_RECORD
  5
5DB
330
1
100
AcDbSymbolTableRecord
100
AcDbBlockTableRecord
  2
*D8
340
0
  0
BLOCK_RECORD
  5
5E6
330
1
100
AcDbSymbolTableRecord
100
AcDbBlockTableRecord
  2
*D9
340
0
  0
BLOCK_RECORD
  5
5F1
330
1
100
AcDbSymbolTableRecord
100
AcDbBlockTableRecord
  2
*D10
340
0
  0
BLOCK_RECORD
  5
5FD
330
1
100
AcDbSymbolTableRecord
100
AcDbBlockTableRecord
  2
*D11
340
0
  0
ENDTAB
  0
ENDSEC
  0
SECTION
  2
BLOCKS
  0
BLOCK
  5
20
330
1F
100
AcDbEntity
  8
0
100
AcDbBlockBegin
  2
*Model_Space
 70
     0
 71
     0
 10
0.0
 20
0.0
 30
0.0
  3
*Model_Space
  1

  0
ENDBLK
  5
21
330
1F
100
AcDbEntity
  8
0
100
AcDbBlockEnd
  0
BLOCK
  5
1C
330
1B
100
AcDbEntity
 67
     1
  8
0
100
AcDbBlockBegin
  2
*Paper_Space
 70
     0
 71
     0
 10
0.0
 20
0.0
 30
0.0
  3
*Paper_Space
  1

  0
ENDBLK
  5
1D
330
1B
100
AcDbEntity
 67
     1
  8
0
100
AcDbBlockEnd
  0
BLOCK
  5
24
330
23
100
AcDbEntity
  8
0
100
AcDbBlockBegin
  2
*Paper_Space0
 70
     0
 71
     0
 10
0.0
 20
0.0
 30
0.0
  3
*Paper_Space0
  1

  0
ENDBLK
  5
25
330
23
100
AcDbEntity
  8
0
100
AcDbBlockEnd
  0
BLOCK
  5
4E
330
4D
100
AcDbEntity
  8
0
100
AcDbBlockBegin
  2
Draufsicht
 70
     0
 71
     0
 10
-186.1494872556286
 20
-1046.863954334447
 30
0.0
  3
Draufsicht
  1

  0
LINE
  5
61
330
4D
100
AcDbEntity
  8
1
  6
PHANTOM
 62
     2
100
AcDbLine
 10
79.0645563234541
 20
-850.0273155937502
 30
0.0
 11
68.58564893766402
 21
-856.0773155937495
 31
0.0
  0
LINE
  5
62
330
4D
100
AcDbEntity
  8
1
  6
PHANTOM
 62
     2
100
AcDbLine
 10
76.85010263055688
 20
-858.2917692866467
 30
0.0
 11
70.8001026305576
 21
-847.812861900853
 31
0.0
  0
LINE
  5
63
330
4D
100
AcDbEntity
  8
1
  6
Continuous
 62
     7
100
AcDbLine
 10
72.02204735495275
 20
-848.9293322475423
 30
0.0
 11
74.00811533245019
 21
-852.3693028918569
 31
0.0
  0
LINE
  5
64
330
4D
100
AcDbEntity
  8
1
  6
Continuous
 62
     7
100
AcDbLine
 10
74.00811533245019
 20
-852.3693028918569
 30
0.0
 11
77.44808597676479
 21
-850.3832349143595
 31
0.0
  0
LINE
  5
65
330
4D
100
AcDbEntity
  8
1
  6
Continuous
 62
     7
100
AcDbLine
 10
77.94808597676479
 20
-851.2492603181418
 30
0.0
 11
74.50811533245019
 21
-853.2353282956428
 31
0.0
  0
LINE
  5
66
330
4D
100
AcDbEntity
  8
1
  6
Continuous
 62
     7
100
AcDbLine
 10
74.50811533245019
 20
-853.2353282956428
 30
0.0
 11
76.49418330995127
 21
-856.6752989399574
 31
0.0
  0
LINE
  5
67
330
4D
100
AcDbEntity
  8
1
  6
Continuous
 62
     7
100
AcDbLine
 10
75.62815790616537
 20
-857.1752989399574
 30
0.0
 11
73.64208992866793
 21
-853.7353282956428
 31
0.0
  0
LINE
  5
68
330
4D
100
AcDbEntity
  8
1
  6
Continuous
 62
     7
100
AcDbLine
 10
73.64208992866793
 20
-853.7353282956428
 30
0.0
 11
70.20211928434969
 21
-855.7213962731403
 31
0.0
  0
LINE
  5
69
330
4D
100
AcDbEntity
  8
1
  6
Continuous
 62
     7
100
AcDbLine
 10
69.70211928434969
 20
-854.855370869358
 30
0.0
 11
73.14208992866793
 21
-852.8693028918569
 31
0.0
  0
LINE
  5
6A
330
4D
100
AcDbEntity
  8
1
  6
Continuous
 62
     7
100
AcDbLine
 10
73.14208992866793
 20
-852.8693028918569
 30
0.0
 11
71.15602195116685
 21
-849.4293322475423
 31
0.0
  0
LINE
  5
6B
330
4D
100
AcDbEntity
  8
1
  6
PHANTOM
 62
     2
100
AcDbLine
 10
-8.24048851206294
 20
-890.9173664873415
 30
0.0
 11
-18.71939589785666
 21
-884.8673664873422
 31
0.0
  0
LINE
  5
6C
330
4D
100
AcDbEntity
  8
1
  6
PHANTOM
 62
     2
100
AcDbLine
 10
-16.50494220495943
 20
-893.1318201802387
 30
0.0
 11
-10.45494220496016
 21
-882.652912794445
 31
0.0
  0
LINE
  5
6D
330
4D
100
AcDbEntity
  8
1
  6
Continuous
 62
     7
100
AcDbLine
 10
-10.81086152556577
 20
-884.2693831411343
 30
0.0
 11
-12.79692950306685
 21
-887.7093537854489
 31
0.0
  0
LINE
  5
6E
330
4D
100
AcDbEntity
  8
1
  6
Continuous
 62
     7
100
AcDbLine
 10
-12.79692950306685
 20
-887.7093537854489
 30
0.0
 11
-9.35695885875225
 21
-889.69542176295
 31
0.0
  0
LINE
  5
6F
330
4D
100
AcDbEntity
  8
1
  6
Continuous
 62
     7
100
AcDbLine
 10
-9.85695885875225
 20
-890.5614471667323
 30
0.0
 11
-13.29692950306685
 21
-888.5753791892348
 31
0.0
  0
LINE
  5
70
330
4D
100
AcDbEntity
  8
1
  6
Continuous
 62
     7
100
AcDbLine
 10
-13.29692950306685
 20
-888.5753791892348
 30
0.0
 11
-15.28299748056793
 21
-892.0153498335494
 31
0.0
  0
LINE
  5
71
330
4D
100
AcDbEntity
  8
1
  6
Continuous
 62
     7
100
AcDbLine
 10
-16.14902288435019
 20
-891.5153498335494
 30
0.0
 11
-14.16295490685275
 21
-888.0753791892348
 31
0.0
  0
LINE
  5
72
330
4D
100
AcDbEntity
  8
1
  6
Continuous
 62
     7
100
AcDbLine
 10
-14.16295490685275
 20
-888.0753791892348
 30
0.0
 11
-17.60292555116735
 21
-886.0893112117337
 31
0.0
  0
LINE
  5
73
330
4D
100
AcDbEntity
  8
1
  6
Continuous
 62
     7
100
AcDbLine
 10
-17.10292555116735
 20
-885.2232858079478
 30
0.0
 11
-13.66295490685275
 21
-887.2093537854489
 31
0.0
  0
LINE
  5
74
330
4D
100
AcDbEntity
  8
1
  6
Continuous
 62
     7
100
AcDbLine
 10
-13.66295490685275
 20
-887.2093537854489
 30
0.0
 11
-11.67688692935167
 21
-883.7693831411343
 31
0.0
  0
LINE
  5
75
330
4D
100
AcDbEntity
  8
1
  6
PHANTOM
 62
     2
100
AcDbLine
 10
-87.3048337657126
 20
-835.7540052280419
 30
0.0
 11
-87.3048337657126
 21
-823.6540052280398
 31
0.0
  0
LINE
  5
76
330
4D
100
AcDbEntity
  8
1
  6
PHANTOM
 62
     2
100
AcDbLine
 10
-93.35483376571187
 20
-829.704005228039
 30
0.0
 11
-81.25483376571333
 21
-829.704005228039
 31
0.0
  0
LINE
  5
77
330
4D
100
AcDbEntity
  8
1
  6
Continuous
 62
     7
100
AcDbLine
 10
-82.83269781071044
 20
-830.204005228039
 30
0.0
 11
-86.8048337657126
 21
-830.204005228039
 31
0.0
  0
LINE
  5
78
330
4D
100
AcDbEntity
  8
1
  6
Continuous
 62
     7
100
AcDbLine
 10
-86.8048337657126
 20
-830.204005228039
 30
0.0
 11
-86.8048337657126
 21
-834.1761411830412
 31
0.0
  0
LINE
  5
79
330
4D
100
AcDbEntity
  8
1
  6
Continuous
 62
     7
100
AcDbLine
 10
-87.8048337657126
 20
-834.1761411830412
 30
0.0
 11
-87.8048337657126
 21
-830.204005228039
 31
0.0
  0
LINE
  5
7A
330
4D
100
AcDbEntity
  8
1
  6
Continuous
 62
     7
100
AcDbLine
 10
-87.8048337657126
 20
-830.204005228039
 30
0.0
 11
-91.77696972071112
 21
-830.204005228039
 31
0.0
  0
LINE
  5
7B
330
4D
100
AcDbEntity
  8
1
  6
Continuous
 62
     7
100
AcDbLine
 10
-91.77696972071112
 20
-829.204005228039
 30
0.0
 11
-87.8048337657126
 21
-829.204005228039
 31
0.0
  0
LINE
  5
7C
330
4D
100
AcDbEntity
  8
1
  6
Continuous
 62
     7
100
AcDbLine
 10
-87.8048337657126
 20
-829.204005228039
 30
0.0
 11
-87.8048337657126
 21
-825.2318692730405
 31
0.0
  0
LINE
  5
7D
330
4D
100
AcDbEntity
  8
1
  6
Continuous
 62
     7
100
AcDbLine
 10
-86.8048337657126
 20
-825.2318692730405
 30
0.0
 11
-86.8048337657126
 21
-829.204005228039
 31
0.0
  0
LINE
  5
7E
330
4D
100
AcDbEntity
  8
1
  6
Continuous
 62
     7
100
AcDbLine
 10
-86.8048337657126
 20
-829.204005228039
 30
0.0
 11
-82.83269781071044
 21
-829.204005228039
 31
0.0
  0
LINE
  5
7F
330
4D
100
AcDbEntity
  8
1
  6
PHANTOM
 62
     2
100
AcDbLine
 10
-79.06413418384523
 20
-739.7005930751475
 30
0.0
 11
-68.58522679805151
 21
-733.6505930751482
 31
0.0
  0
LINE
  5
80
330
4D
100
AcDbEntity
  8
1
  6
PHANTOM
 62
     2
100
AcDbLine
 10
-76.849680490948
 20
-731.436139382251
 30
0.0
 11
-70.79968049094873
 21
-741.9150467680411
 31
0.0
  0
LINE
  5
81
330
4D
100
AcDbEntity
  8
1
  6
Continuous
 62
     7
100
AcDbLine
 10
-72.02162521534024
 20
-740.7985764213554
 30
0.0
 11
-74.00769319284132
 21
-737.3586057770372
 31
0.0
  0
LINE
  5
82
330
4D
100
AcDbEntity
  8
1
  6
Continuous
 62
     7
100
AcDbLine
 10
-74.00769319284132
 20
-737.3586057770372
 30
0.0
 11
-77.44766383715591
 21
-739.3446737545382
 31
0.0
  0
LINE
  5
83
330
4D
100
AcDbEntity
  8
1
  6
Continuous
 62
     7
100
AcDbLine
 10
-77.94766383715591
 20
-738.4786483507523
 30
0.0
 11
-74.50769319284132
 21
-736.4925803732549
 31
0.0
  0
LINE
  5
84
330
4D
100
AcDbEntity
  8
1
  6
Continuous
 62
     7
100
AcDbLine
 10
-74.50769319284132
 20
-736.4925803732549
 30
0.0
 11
-76.49376117033876
 21
-733.0526097289403
 31
0.0
  0
LINE
  5
85
330
4D
100
AcDbEntity
  8
1
  6
Continuous
 62
     7
100
AcDbLine
 10
-75.6277357665565
 20
-732.5526097289403
 30
0.0
 11
-73.64166778905542
 21
-735.9925803732549
 31
0.0
  0
LINE
  5
86
330
4D
100
AcDbEntity
  8
1
  6
Continuous
 62
     7
100
AcDbLine
 10
-73.64166778905542
 20
-735.9925803732549
 30
0.0
 11
-70.20169714474082
 21
-734.0065123957538
 31
0.0
  0
LINE
  5
87
330
4D
100
AcDbEntity
  8
1
  6
Continuous
 62
     7
100
AcDbLine
 10
-69.70169714474082
 20
-734.8725377995397
 30
0.0
 11
-73.14166778905542
 21
-736.8586057770372
 31
0.0
  0
LINE
  5
88
330
4D
100
AcDbEntity
  8
1
  6
Continuous
 62
     7
100
AcDbLine
 10
-73.14166778905542
 20
-736.8586057770372
 30
0.0
 11
-71.15559981155434
 21
-740.2985764213554
 31
0.0
  0
LINE
  5
89
330
4D
100
AcDbEntity
  8
1
  6
PHANTOM
 62
     2
100
AcDbLine
 10
8.24091065167181
 20
-698.8105421815526
 30
0.0
 11
18.71981803746553
 21
-704.8605421815519
 31
0.0
  0
LINE
  5
8A
330
4D
100
AcDbEntity
  8
1
  6
PHANTOM
 62
     2
100
AcDbLine
 10
16.50536434456831
 20
-696.5960884886554
 30
0.0
 11
10.45536434456903
 21
-707.0749958744491
 31
0.0
  0
LINE
  5
8B
330
4D
100
AcDbEntity
  8
1
  6
Continuous
 62
     7
100
AcDbLine
 10
10.81128366517828
 20
-705.4585255277598
 30
0.0
 11
12.79735164267572
 21
-702.0185548834452
 31
0.0
  0
LINE
  5
8C
330
4D
100
AcDbEntity
  8
1
  6
Continuous
 62
     7
100
AcDbLine
 10
12.79735164267572
 20
-702.0185548834452
 30
0.0
 11
9.35738099836112
 21
-700.0324869059441
 31
0.0
  0
LINE
  5
8D
330
4D
100
AcDbEntity
  8
1
  6
Continuous
 62
     7
100
AcDbLine
 10
9.85738099836112
 20
-699.1664615021618
 30
0.0
 11
13.29735164267572
 21
-701.1525294796593
 31
0.0
  0
LINE
  5
8E
330
4D
100
AcDbEntity
  8
1
  6
Continuous
 62
     7
100
AcDbLine
 10
13.29735164267572
 20
-701.1525294796593
 30
0.0
 11
15.2834196201768
 21
-697.7125588353447
 31
0.0
  0
LINE
  5
8F
330
4D
100
AcDbEntity
  8
1
  6
Continuous
 62
     7
100
AcDbLine
 10
16.1494450239627
 20
-698.2125588353447
 30
0.0
 11
14.16337704646162
 21
-701.6525294796593
 31
0.0
  0
LINE
  5
90
330
4D
100
AcDbEntity
  8
1
  6
Continuous
 62
     7
100
AcDbLine
 10
14.16337704646162
 20
-701.6525294796593
 30
0.0
 11
17.60334769077622
 21
-703.6385974571604
 31
0.0
  0
LINE
  5
91
330
4D
100
AcDbEntity
  8
1
  6
Continuous
 62
     7
100
AcDbLine
 10
17.10334769077622
 20
-704.5046228609426
 30
0.0
 11
13.66337704646162
 21
-702.5185548834452
 31
0.0
  0
LINE
  5
92
330
4D
100
AcDbEntity
  8
1
  6
Continuous
 62
     7
100
AcDbLine
 10
13.66337704646162
 20
-702.5185548834452
 30
0.0
 11
11.67730906896054
 21
-705.9585255277598
 31
0.0
  0
LINE
  5
93
330
4D
100
AcDbEntity
  8
1
  6
Continuous
 62
     7
100
AcDbLine
 10
86.80525590532147
 20
-760.5239034408514
 30
0.0
 11
82.83311995032295
 21
-760.5239034408514
 31
0.0
  0
LINE
  5
94
330
4D
100
AcDbEntity
  8
1
  6
Continuous
 62
     7
100
AcDbLine
 10
86.80525590532147
 20
-764.49603939585
 30
0.0
 11
86.80525590532147
 21
-760.5239034408514
 31
0.0
  0
LINE
  5
95
330
4D
100
AcDbEntity
  8
1
  6
Continuous
 62
     7
100
AcDbLine
 10
87.80525590532147
 20
-760.5239034408514
 30
0.0
 11
87.80525590532147
 21
-764.49603939585
 31
0.0
  0
LINE
  5
96
330
4D
100
AcDbEntity
  8
1
  6
Continuous
 62
     7
100
AcDbLine
 10
91.77739186032363
 20
-760.5239034408514
 30
0.0
 11
87.80525590532147
 21
-760.5239034408514
 31
0.0
  0
LINE
  5
97
330
4D
100
AcDbEntity
  8
1
  6
Continuous
 62
     7
100
AcDbLine
 10
87.80525590532147
 20
-759.5239034408514
 30
0.0
 11
91.77739186032363
 21
-759.5239034408514
 31
0.0
  0
LINE
  5
98
330
4D
100
AcDbEntity
  8
1
  6
Continuous
 62
     7
100
AcDbLine
 10
87.80525590532147
 20
-755.5517674858529
 30
0.0
 11
87.80525590532147
 21
-759.5239034408514
 31
0.0
  0
LINE
  5
99
330
4D
100
AcDbEntity
  8
1
  6
Continuous
 62
     7
100
AcDbLine
 10
86.80525590532147
 20
-759.5239034408514
 30
0.0
 11
86.80525590532147
 21
-755.5517674858529
 31
0.0
  0
LINE
  5
9A
330
4D
100
AcDbEntity
  8
1
  6
Continuous
 62
     7
100
AcDbLine
 10
82.83311995032295
 20
-759.5239034408514
 30
0.0
 11
86.80525590532147
 21
-759.5239034408514
 31
0.0
  0
LINE
  5
9B
330
4D
100
AcDbEntity
  8
1
  6
PHANTOM
 62
     2
100
AcDbLine
 10
87.30525590532147
 20
-753.9739034408522
 30
0.0
 11
87.30525590532147
 21
-766.0739034408507
 31
0.0
  0
LINE
  5
9C
330
4D
100
AcDbEntity
  8
1
  6
PHANTOM
 62
     2
100
AcDbLine
 10
93.35525590532438
 20
-760.0239034408514
 30
0.0
 11
81.2552559053222
 21
-760.0239034408514
 31
0.0
  0
LINE
  5
9D
330
4D
100
AcDbEntity
  8
0
  6
Continuous
 62
     7
100
AcDbLine
 10
-78.43934335549034
 20
-760.6085811844168
 30
0.0
 11
-67.66040131810928
 21
-765.1444063686395
 31
0.0
  0
LINE
  5
9E
330
4D
100
AcDbEntity
  8
0
  6
Continuous
 62
     7
100
AcDbLine
 10
-84.63252332051684
 20
-782.0774552942858
 30
0.0
 11
-73.0469068836062
 21
-783.66893049793
 31
0.0
  0
LINE
  5
9F
330
4D
100
AcDbEntity
  8
0
  6
Continuous
 62
     7
100
AcDbLine
 10
-84.94552687925147
 20
-784.3560576668424
 30
0.0
 11
-73.35991044234083
 21
-785.9475328704866
 31
0.0
  0
LINE
  5
A0
330
4D
100
AcDbEntity
  8
0
  6
Continuous
 62
     7
100
AcDbLine
 10
-84.94552687925147
 20
-784.3560576668424
 30
0.0
 11
-84.63252332051684
 21
-782.0774552942858
 31
0.0
  0
LINE
  5
A1
330
4D
100
AcDbEntity
  8
0
  6
Continuous
 62
     7
100
AcDbLine
 10
-65.26207502502052
 20
-759.1400965685716
 30
0.0
 11
-64.86201470101855
 21
-759.4506564358562
 31
0.0
  0
LINE
  5
A2
330
4D
100
AcDbEntity
  8
0
  6
Continuous
 62
     7
100
AcDbLine
 10
-65.26207502502052
 20
-759.1400965685716
 30
0.0
 11
-65.74205596751904
 21
-758.7674957160089
 31
0.0
  0
LINE
  5
A3
330
4D
100
AcDbEntity
  8
0
  6
Continuous
 62
     7
100
AcDbLine
 10
-79.33142726682468
 20
-762.7285307817256
 30
0.0
 11
-68.55248522944362
 21
-767.2643559659482
 31
0.0
  0
LINE
  5
A4
330
4D
100
AcDbEntity
  8
0
  6
Continuous
 62
     7
100
AcDbLine
 10
-67.66040131810928
 20
-765.1444063686395
 30
0.0
 11
-57.20160203315368
 21
-769.5455141052735
 31
0.0
  0
LINE
  5
A5
330
4D
100
AcDbEntity
  8
0
  6
Continuous
 62
     7
100
AcDbLine
 10
-79.33142726682468
 20
-762.7285307817256
 30
0.0
 11
-78.43934335549034
 21
-760.6085811844168
 31
0.0
  0
LINE
  5
A6
330
4D
100
AcDbEntity
  8
0
  6
Continuous
 62
     7
100
AcDbLine
 10
37.44403925357642
 20
-744.7537700517241
 30
0.0
 11
34.7313060534982
 21
-748.2482876545582
 31
0.0
  0
LINE
  5
A7
330
4D
100
AcDbEntity
  8
0
  6
Continuous
 62
     7
100
AcDbLine
 10
46.21894508491118
 20
-737.2008064318179
 30
0.0
 11
39.26086501396662
 21
-746.1641402713394
 31
0.0
  0
LINE
  5
A8
330
4D
100
AcDbEntity
  8
0
  6
Continuous
 62
     7
100
AcDbLine
 10
54.05577250799638
 20
-744.4734167544411
 30
0.0
 11
54.36633245354847
 21
-744.0733563296162
 31
0.0
  0
LINE
  5
A9
330
4D
100
AcDbEntity
  8
0
  6
Continuous
 62
     7
100
AcDbLine
 10
54.73893339859956
 20
-743.5933752679775
 30
0.0
 11
54.36633245354847
 21
-744.0733563296162
 31
0.0
  0
LINE
  5
AA
330
4D
100
AcDbEntity
  8
0
  6
Continuous
 62
     7
100
AcDbLine
 10
34.7313060534982
 20
-748.2482876545582
 30
0.0
 11
33.5466721761079
 21
-749.7743219646545
 31
0.0
  0
LINE
  5
AB
330
4D
100
AcDbEntity
  8
0
  6
Continuous
 62
     7
100
AcDbLine
 10
43.28786887837146
 20
-790.5710903197687
 30
0.0
 11
44.88046617264649
 21
-790.3705075232865
 31
0.0
  0
LINE
  5
AC
330
4D
100
AcDbEntity
  8
0
  6
Continuous
 62
     7
100
AcDbLine
 10
40.7018027416309
 20
-779.5136958551848
 30
0.0
 11
42.1882189511964
 21
-778.9077532408155
 31
0.0
  0
LINE
  5
AD
330
4D
100
AcDbEntity
  8
0
  6
Continuous
 62
     7
100
AcDbLine
 10
43.00046140923973
 20
-788.289118158089
 30
0.0
 11
44.59305870351477
 21
-788.0885353616031
 31
0.0
  0
LINE
  5
AE
330
4D
100
AcDbEntity
  8
0
  6
Continuous
 62
     7
100
AcDbLine
 10
7.05729310802076
 20
-751.9402127325593
 30
0.0
 11
7.27573951552063
 21
-750.3499672272919
 31
0.0
  0
LINE
  5
AF
330
4D
100
AcDbEntity
  8
0
  6
Continuous
 62
     7
100
AcDbLine
 10
17.92631068238575
 20
-755.229310994564
 30
0.0
 11
18.54889953220504
 21
-753.7497898814836
 31
0.0
  0
LINE
  5
B0
330
4D
100
AcDbEntity
  8
0
  6
Continuous
 62
     7
100
AcDbLine
 10
25.75686843204699
 20
-759.8090744812216
 30
0.0
 11
26.74117132294145
 21
-758.541104679156
 31
0.0
  0
LINE
  5
B1
330
4D
100
AcDbEntity
  8
0
  6
Continuous
 62
     7
100
AcDbLine
 10
33.5466721761079
 20
-749.7743219646545
 30
0.0
 11
28.80068388512905
 21
-755.888059808538
 31
0.0
  0
LINE
  5
B2
330
4D
100
AcDbEntity
  8
0
  6
Continuous
 62
     7
100
AcDbLine
 10
21.48285035294634
 20
-740.8476091396187
 30
0.0
 11
20.73354863901136
 21
-742.6282509004814
 31
0.0
  0
LINE
  5
B3
330
4D
100
AcDbEntity
  8
0
  6
Continuous
 62
     7
100
AcDbLine
 10
20.73354863901136
 20
-742.6282509004814
 30
0.0
 11
17.73162776824779
 21
-749.7620203365914
 31
0.0
  0
LINE
  5
B4
330
4D
100
AcDbEntity
  8
0
  6
Continuous
 62
     7
100
AcDbLine
 10
22.85349823632009
 20
-743.5203348118157
 30
0.0
 11
19.85157736556016
 21
-750.6541042479257
 31
0.0
  0
LINE
  5
B5
330
4D
100
AcDbEntity
  8
0
  6
Continuous
 62
     7
100
AcDbLine
 10
-6.57462510655364
 20
-751.8637039950154
 30
0.0
 11
-6.77520790303947
 21
-750.271106700744
 31
0.0
  0
LINE
  5
B6
330
4D
100
AcDbEntity
  8
0
  6
Continuous
 62
     7
100
AcDbLine
 10
-4.29265294487027
 20
-751.5762965258837
 30
0.0
 11
-4.4932357413561
 21
-749.9836992316123
 31
0.0
  0
LINE
  5
B7
330
4D
100
AcDbEntity
  8
0
  6
Continuous
 62
     7
100
AcDbLine
 10
4.77869073546412
 20
-751.6272091738247
 30
0.0
 11
4.99713714296399
 21
-750.0369636685573
 31
0.0
  0
LINE
  5
B8
330
4D
100
AcDbEntity
  8
0
  6
Continuous
 62
     7
100
AcDbLine
 10
53.12447235330205
 20
-818.4665432148977
 30
0.0
 11
51.34383059243942
 21
-817.7172415009627
 31
0.0
  0
LINE
  5
B9
330
4D
100
AcDbEntity
  8
0
  6
Continuous
 62
     7
100
AcDbLine
 10
57.20202417276619
 20
-820.1823945636279
 30
0.0
 11
53.12447235330205
 21
-818.4665432148977
 31
0.0
  0
LINE
  5
BA
330
4D
100
AcDbEntity
  8
0
  6
Continuous
 62
     7
100
AcDbLine
 10
54.01655626464003
 20
-816.346593617589
 30
0.0
 11
52.23591450377376
 21
-815.597291903654
 31
0.0
  0
LINE
  5
BB
330
4D
100
AcDbEntity
  8
0
  6
Continuous
 62
     7
100
AcDbLine
 10
68.55290736905977
 20
-822.4635527029495
 30
0.0
 11
58.09410808410416
 21
-818.0624449663155
 31
0.0
  0
LINE
  5
BC
330
4D
100
AcDbEntity
  8
0
  6
Continuous
 62
     7
100
AcDbLine
 10
51.34383059243942
 20
-817.7172415009627
 30
0.0
 11
44.2100611563294
 21
-814.7153206302028
 31
0.0
  0
LINE
  5
BD
330
4D
100
AcDbEntity
  8
0
  6
Continuous
 62
     7
100
AcDbLine
 10
58.09410808410416
 20
-818.0624449663155
 30
0.0
 11
54.01655626464003
 21
-816.346593617589
 31
0.0
  0
LINE
  5
BE
330
4D
100
AcDbEntity
  8
0
  6
Continuous
 62
     7
100
AcDbLine
 10
52.23591450377376
 20
-815.597291903654
 30
0.0
 11
45.10214506766374
 21
-812.5953710328904
 31
0.0
  0
LINE
  5
BF
330
4D
100
AcDbEntity
  8
0
  6
Continuous
 62
     7
100
AcDbLine
 10
45.08984343960424
 20
-828.4104154407505
 30
0.0
 11
38.97610559571717
 21
-823.664427149768
 31
0.0
  0
LINE
  5
C0
330
4D
100
AcDbEntity
  8
0
  6
Continuous
 62
     7
100
AcDbLine
 10
46.61587774969689
 20
-829.5950493181372
 30
0.0
 11
45.08984343960424
 21
-828.4104154407505
 31
0.0
  0
LINE
  5
C1
330
4D
100
AcDbEntity
  8
0
  6
Continuous
 62
     7
100
AcDbLine
 10
50.11039535253462
 20
-832.307782518219
 30
0.0
 11
46.61587774969689
 21
-829.5950493181372
 31
0.0
  0
LINE
  5
C2
330
4D
100
AcDbEntity
  8
0
  6
Continuous
 62
     7
100
AcDbLine
 10
67.66082345772543
 20
-824.5835023002619
 30
0.0
 11
57.20202417276619
 21
-820.1823945636279
 31
0.0
  0
LINE
  5
C3
330
4D
100
AcDbEntity
  8
0
  6
Continuous
 62
     7
100
AcDbLine
 10
65.26249716463667
 20
-830.5878121003261
 30
0.0
 11
64.86243684063106
 21
-830.2772522330415
 31
0.0
  0
LINE
  5
C4
330
4D
100
AcDbEntity
  8
0
  6
Continuous
 62
     7
100
AcDbLine
 10
39.63485440969112
 20
-812.7900539470284
 30
0.0
 11
41.11437552277516
 21
-813.4126427968476
 31
0.0
  0
LINE
  5
C5
330
4D
100
AcDbEntity
  8
0
  6
Continuous
 62
     7
100
AcDbLine
 10
35.05509092303714
 20
-820.620611696686
 30
0.0
 11
36.32306072509914
 21
-821.6049145875841
 31
0.0
  0
LINE
  5
C6
330
4D
100
AcDbEntity
  8
0
  6
Continuous
 62
     7
100
AcDbLine
 10
42.92395267169945
 20
-801.9210363726634
 30
0.0
 11
44.51419817696683
 21
-802.1394827801632
 31
0.0
  0
LINE
  5
C7
330
4D
100
AcDbEntity
  8
0
  6
Continuous
 62
     7
100
AcDbLine
 10
43.23695623043409
 20
-799.6424340001067
 30
0.0
 11
44.82720173569783
 21
-799.8608804076066
 31
0.0
  0
LINE
  5
C8
330
4D
100
AcDbEntity
  8
0
  6
Continuous
 62
     7
100
AcDbLine
 10
40.52693832102909
 20
-810.670104349716
 30
0.0
 11
42.0064594341095
 21
-811.2926931995353
 31
0.0
  0
LINE
  5
C9
330
4D
100
AcDbEntity
  8
0
  6
Continuous
 62
     7
100
AcDbLine
 10
-17.47987672857903
 20
-755.0305948155656
 30
0.0
 11
-18.08581934295194
 21
-753.5441786060001
 31
0.0
  0
LINE
  5
CA
330
4D
100
AcDbEntity
  8
0
  6
Continuous
 62
     7
100
AcDbLine
 10
-38.7113342334776
 20
-745.7265236106505
 30
0.0
 11
-36.03799644693913
 21
-749.2512703774992
 31
0.0
  0
LINE
  5
CB
330
4D
100
AcDbEntity
  8
0
  6
Continuous
 62
     7
100
AcDbLine
 10
-36.03799644693913
 20
-749.2512703774992
 30
0.0
 11
-34.87056630395796
 21
-750.7905055772972
 31
0.0
  0
LINE
  5
CC
330
4D
100
AcDbEntity
  8
0
  6
Continuous
 62
     7
100
AcDbLine
 10
-36.87879210529695
 20
-744.3366353603051
 30
0.0
 11
-34.20545431875848
 21
-747.8613821271538
 31
0.0
  0
LINE
  5
CD
330
4D
100
AcDbEntity
  8
0
  6
Continuous
 62
     7
100
AcDbLine
 10
-34.20545431875848
 20
-747.8613821271538
 30
0.0
 11
-33.03802417577731
 21
-749.4006173269518
 31
0.0
  0
LINE
  5
CE
330
4D
100
AcDbEntity
  8
0
  6
Continuous
 62
     7
100
AcDbLine
 10
-27.19388925435828
 20
-760.9120632595877
 30
0.0
 11
-28.16389769881403
 21
-759.6331249429932
 31
0.0
  0
LINE
  5
CF
330
4D
100
AcDbEntity
  8
0
  6
Continuous
 62
     7
100
AcDbLine
 10
-33.64429856380207
 20
-767.2904712118216
 30
0.0
 11
-34.9122683658677
 21
-766.3061683209271
 31
0.0
  0
LINE
  5
D0
330
4D
100
AcDbEntity
  8
0
  6
Continuous
 62
     7
100
AcDbLine
 10
-52.63529127719426
 20
-727.3680420081037
 30
0.0
 11
-45.5683662390145
 21
-736.6856528634526
 31
0.0
  0
LINE
  5
D1
330
4D
100
AcDbEntity
  8
0
  6
Continuous
 62
     7
100
AcDbLine
 10
-52.63529127719426
 20
-727.3680420081037
 30
0.0
 11
-50.80274914901361
 21
-725.9781537577546
 31
0.0
  0
LINE
  5
D2
330
4D
100
AcDbEntity
  8
0
  6
Continuous
 62
     7
100
AcDbLine
 10
-15.35004740945783
 20
-754.1623626626279
 30
0.0
 11
-15.9559900238271
 21
-752.6759464530624
 31
0.0
  0
LINE
  5
D3
330
4D
100
AcDbEntity
  8
0
  6
Continuous
 62
     7
100
AcDbLine
 10
-50.80274914901361
 20
-725.9781537577546
 30
0.0
 11
-43.73582411083385
 21
-735.2957646131072
 31
0.0
  0
LINE
  5
D4
330
4D
100
AcDbEntity
  8
0
  6
Continuous
 62
     7
100
AcDbLine
 10
-43.73582411083385
 20
-735.2957646131072
 30
0.0
 11
-36.87879210529695
 21
-744.3366353603051
 31
0.0
  0
LINE
  5
D5
330
4D
100
AcDbEntity
  8
0
  6
Continuous
 62
     7
100
AcDbLine
 10
-45.5683662390145
 20
-736.6856528634526
 30
0.0
 11
-38.7113342334776
 21
-745.7265236106505
 31
0.0
  0
LINE
  5
D6
330
4D
100
AcDbEntity
  8
0
  6
Continuous
 62
     7
100
AcDbLine
 10
-34.87056630395796
 20
-750.7905055772972
 30
0.0
 11
-30.19350118292618
 21
-756.9571300295829
 31
0.0
  0
LINE
  5
D7
330
4D
100
AcDbEntity
  8
0
  6
Continuous
 62
     7
100
AcDbLine
 10
-25.36134712618127
 20
-759.5221750092423
 30
0.0
 11
-26.33135557063338
 21
-758.2432366926478
 31
0.0
  0
LINE
  5
D8
330
4D
100
AcDbEntity
  8
0
  6
Continuous
 62
     7
100
AcDbLine
 10
-57.6629368328247
 20
-748.6452203193439
 30
0.0
 11
-48.69960299330319
 21
-755.6033003902921
 31
0.0
  0
LINE
  5
D9
330
4D
100
AcDbEntity
  8
0
  6
Continuous
 62
     7
100
AcDbLine
 10
-50.39032651020148
 20
-740.8083928962587
 30
0.0
 11
-50.79038693502639
 21
-740.4978329507103
 31
0.0
  0
LINE
  5
DA
330
4D
100
AcDbEntity
  8
0
  6
Continuous
 62
     7
100
AcDbLine
 10
-51.27036799666507
 20
-740.1252320056556
 30
0.0
 11
-50.79038693502639
 21
-740.4978329507103
 31
0.0
  0
LINE
  5
DB
330
4D
100
AcDbEntity
  8
0
  6
Continuous
 62
     7
100
AcDbLine
 10
-33.03802417577731
 20
-749.4006173269518
 30
0.0
 11
-28.36095905474554
 21
-755.5672417792375
 31
0.0
  0
LINE
  5
DC
330
4D
100
AcDbEntity
  8
0
  6
Continuous
 62
     7
100
AcDbLine
 10
-8.0922115967694
 20
-721.4083711879975
 30
0.0
 11
-6.67428305900808
 21
-732.6665109301684
 31
0.0
  0
LINE
  5
DD
330
4D
100
AcDbEntity
  8
0
  6
Continuous
 62
     7
100
AcDbLine
 10
-10.37418375844914
 20
-721.6957786571256
 30
0.0
 11
-8.95625522068781
 21
-732.9539183993002
 31
0.0
  0
LINE
  5
DE
330
4D
100
AcDbEntity
  8
0
  6
Continuous
 62
     7
100
AcDbLine
 10
-8.95625522068781
 20
-732.9539183993002
 30
0.0
 11
-8.40345016807237
 21
-737.3431075345652
 31
0.0
  0
LINE
  5
DF
330
4D
100
AcDbEntity
  8
0
  6
Continuous
 62
     7
100
AcDbLine
 10
-6.12147800639264
 20
-737.0557000654335
 30
0.0
 11
-5.88007144532799
 21
-738.9724319223496
 31
0.0
  0
LINE
  5
E0
330
4D
100
AcDbEntity
  8
0
  6
Continuous
 62
     7
100
AcDbLine
 10
-6.67428305900808
 20
-732.6665109301684
 30
0.0
 11
-6.12147800639264
 21
-737.0557000654335
 31
0.0
  0
LINE
  5
E1
330
4D
100
AcDbEntity
  8
0
  6
Continuous
 62
     7
100
AcDbLine
 10
-8.40345016807237
 20
-737.3431075345652
 30
0.0
 11
-8.16204360700772
 21
-739.2598393914814
 31
0.0
  0
LINE
  5
E2
330
4D
100
AcDbEntity
  8
0
  6
Continuous
 62
     7
100
AcDbLine
 10
-9.55354277879792
 20
-709.8056209655915
 30
0.0
 11
-8.0922115967694
 21
-721.4083711879975
 31
0.0
  0
LINE
  5
E3
330
4D
100
AcDbEntity
  8
0
  6
Continuous
 62
     7
100
AcDbLine
 10
-11.83551494047765
 20
-710.0930284347232
 30
0.0
 11
-10.37418375844914
 21
-721.6957786571256
 31
0.0
  0
LINE
  5
E4
330
4D
100
AcDbEntity
  8
0
  6
Continuous
 62
     7
100
AcDbLine
 10
-11.83551494047765
 20
-710.0930284347232
 30
0.0
 11
-9.55354277879792
 21
-709.8056209655915
 31
0.0
  0
LINE
  5
E5
330
4D
100
AcDbEntity
  8
0
  6
Continuous
 62
     7
100
AcDbLine
 10
-43.6790510803728
 20
-759.500667467757
 30
0.0
 11
-37.56531323648574
 21
-764.2466557587395
 31
0.0
  0
LINE
  5
E6
330
4D
100
AcDbEntity
  8
0
  6
Continuous
 62
     7
100
AcDbLine
 10
-26.82817286849945
 20
-726.0057825952972
 30
0.0
 11
-22.54473809634487
 21
-736.5133236180627
 31
0.0
  0
LINE
  5
E7
330
4D
100
AcDbEntity
  8
0
  6
Continuous
 62
     7
100
AcDbLine
 10
-28.95800218762429
 20
-726.8740147482349
 30
0.0
 11
-24.67456741546971
 21
-737.3815557710041
 31
0.0
  0
LINE
  5
E8
330
4D
100
AcDbEntity
  8
0
  6
Continuous
 62
     7
100
AcDbLine
 10
-20.14549613746181
 20
-742.3988184714872
 30
0.0
 11
-17.22383799806971
 21
-749.5658338194844
 31
0.0
  0
LINE
  5
E9
330
4D
100
AcDbEntity
  8
0
  6
Continuous
 62
     7
100
AcDbLine
 10
-24.67456741546971
 20
-737.3815557710041
 30
0.0
 11
-23.00459299748013
 21
-741.4781104373797
 31
0.0
  0
LINE
  5
EA
330
4D
100
AcDbEntity
  8
0
  6
Continuous
 62
     7
100
AcDbLine
 10
-22.54473809634487
 20
-736.5133236180627
 30
0.0
 11
-20.87476367835529
 21
-740.6098782844383
 31
0.0
  0
LINE
  5
EB
330
4D
100
AcDbEntity
  8
0
  6
Continuous
 62
     7
100
AcDbLine
 10
-22.27532545658664
 20
-743.2670506244285
 30
0.0
 11
-19.35366731719455
 21
-750.4340659724221
 31
0.0
  0
LINE
  5
EC
330
4D
100
AcDbEntity
  8
0
  6
Continuous
 62
     7
100
AcDbLine
 10
-23.00459299748013
 20
-741.4781104373797
 30
0.0
 11
-22.27532545658664
 21
-743.2670506244285
 31
0.0
  0
LINE
  5
ED
330
4D
100
AcDbEntity
  8
0
  6
Continuous
 62
     7
100
AcDbLine
 10
-20.87476367835529
 20
-740.6098782844383
 30
0.0
 11
-20.14549613746181
 21
-742.3988184714872
 31
0.0
  0
LINE
  5
EE
330
4D
100
AcDbEntity
  8
0
  6
Continuous
 62
     7
100
AcDbLine
 10
-45.20508539046546
 20
-758.3160335903704
 30
0.0
 11
-43.6790510803728
 21
-759.500667467757
 31
0.0
  0
LINE
  5
EF
330
4D
100
AcDbEntity
  8
0
  6
Continuous
 62
     7
100
AcDbLine
 10
-48.69960299330319
 20
-755.6033003902921
 30
0.0
 11
-45.20508539046546
 21
-758.3160335903704
 31
0.0
  0
LINE
  5
F0
330
4D
100
AcDbEntity
  8
0
  6
Continuous
 62
     7
100
AcDbLine
 10
-31.24272313110828
 20
-715.1766068406068
 30
0.0
 11
-26.82817286849945
 21
-726.0057825952972
 31
0.0
  0
LINE
  5
F1
330
4D
100
AcDbEntity
  8
0
  6
Continuous
 62
     7
100
AcDbLine
 10
-33.37255245023312
 20
-716.0448389935445
 30
0.0
 11
-28.95800218762429
 21
-726.8740147482349
 31
0.0
  0
LINE
  5
F2
330
4D
100
AcDbEntity
  8
0
  6
Continuous
 62
     7
100
AcDbLine
 10
-33.37255245023312
 20
-716.0448389935445
 30
0.0
 11
-31.24272313110828
 21
-715.1766068406068
 31
0.0
  0
LINE
  5
F3
330
4D
100
AcDbEntity
  8
0
  6
Continuous
 62
     7
100
AcDbLine
 10
84.94594901886398
 20
-805.371851002059
 30
0.0
 11
73.36033258195334
 21
-803.7803757984148
 31
0.0
  0
LINE
  5
F4
330
4D
100
AcDbEntity
  8
0
  6
Continuous
 62
     7
100
AcDbLine
 10
73.16838674712949
 20
-784.4895595061935
 30
0.0
 11
61.91024700495859
 21
-785.9074880439548
 31
0.0
  0
LINE
  5
F5
330
4D
100
AcDbEntity
  8
0
  6
Continuous
 62
     7
100
AcDbLine
 10
73.45579421626121
 20
-786.7715316678732
 30
0.0
 11
62.19765447408668
 21
-788.1894602056345
 31
0.0
  0
LINE
  5
F6
330
4D
100
AcDbEntity
  8
0
  6
Continuous
 62
     7
100
AcDbLine
 10
84.77113696953188
 20
-783.028228324165
 30
0.0
 11
73.16838674712949
 21
-784.4895595061935
 31
0.0
  0
LINE
  5
F7
330
4D
100
AcDbEntity
  8
0
  6
Continuous
 62
     7
100
AcDbLine
 10
85.0585444386636
 20
-785.3102004858447
 30
0.0
 11
73.45579421626121
 21
-786.7715316678732
 31
0.0
  0
LINE
  5
F8
330
4D
100
AcDbEntity
  8
0
  6
Continuous
 62
     7
100
AcDbLine
 10
84.77113696953188
 20
-783.028228324165
 30
0.0
 11
85.0585444386636
 21
-785.3102004858447
 31
0.0
  0
LINE
  5
F9
330
4D
100
AcDbEntity
  8
0
  6
Continuous
 62
     7
100
AcDbLine
 10
73.36033258195334
 20
-803.7803757984148
 30
0.0
 11
62.11881773885057
 21
-802.2361686151708
 31
0.0
  0
LINE
  5
FA
330
4D
100
AcDbEntity
  8
0
  6
Continuous
 62
     7
100
AcDbLine
 10
35.36349793649811
 20
-751.1846921842698
 30
0.0
 11
30.61750964551925
 21
-757.2984300281569
 31
0.0
  0
LINE
  5
FB
330
4D
100
AcDbEntity
  8
0
  6
Continuous
 62
     7
100
AcDbLine
 10
62.19765447408668
 20
-788.1894602056345
 30
0.0
 11
57.80846533882163
 21
-788.74226525825
 31
0.0
  0
LINE
  5
FC
330
4D
100
AcDbEntity
  8
0
  6
Continuous
 62
     7
100
AcDbLine
 10
57.52105786968991
 20
-786.4602930965702
 30
0.0
 11
55.60432601277375
 21
-786.7016996576349
 31
0.0
  0
LINE
  5
FD
330
4D
100
AcDbEntity
  8
0
  6
Continuous
 62
     7
100
AcDbLine
 10
51.59711477983024
 20
-772.588417808056
 30
0.0
 11
44.43009943183301
 21
-775.5100759474481
 31
0.0
  0
LINE
  5
FE
330
4D
100
AcDbEntity
  8
0
  6
Continuous
 62
     7
100
AcDbLine
 10
57.80846533882163
 20
-788.74226525825
 30
0.0
 11
55.89173348190548
 21
-788.9836718193146
 31
0.0
  0
LINE
  5
FF
330
4D
100
AcDbEntity
  8
0
  6
Continuous
 62
     7
100
AcDbLine
 10
59.56840079114795
 20
-751.1279191538051
 30
0.0
 11
50.52753004395368
 21
-757.9849511593457
 31
0.0
  0
LINE
  5
100
330
4D
100
AcDbEntity
  8
0
  6
Continuous
 62
     7
100
AcDbLine
 10
33.95210214466738
 20
-767.6698540102843
 30
0.0
 11
35.23104046126196
 21
-766.6998455658286
 31
0.0
  0
LINE
  5
101
330
4D
100
AcDbEntity
  8
0
  6
Continuous
 62
     7
100
AcDbLine
 10
39.83357058868955
 20
-777.3838665360599
 30
0.0
 11
41.31998679825506
 21
-776.7779239216907
 31
0.0
  0
LINE
  5
102
330
4D
100
AcDbEntity
  8
0
  6
Continuous
 62
     7
100
AcDbLine
 10
35.34199039501277
 20
-769.5023961384613
 30
0.0
 11
36.62092871160735
 21
-768.5323876940056
 31
0.0
  0
LINE
  5
103
330
4D
100
AcDbEntity
  8
0
  6
Continuous
 62
     7
100
AcDbLine
 10
27.57369419243355
 20
-761.2194447008369
 30
0.0
 11
28.55799708333166
 21
-759.9514748987749
 31
0.0
  0
LINE
  5
104
330
4D
100
AcDbEntity
  8
0
  6
Continuous
 62
     7
100
AcDbLine
 10
52.46534693276794
 20
-774.7182471271808
 30
0.0
 11
45.29833158477072
 21
-777.6399052665729
 31
0.0
  0
LINE
  5
105
330
4D
100
AcDbEntity
  8
0
  6
Continuous
 62
     7
100
AcDbLine
 10
61.91024700495859
 20
-785.9074880439548
 30
0.0
 11
57.52105786968991
 21
-786.4602930965702
 31
0.0
  0
LINE
  5
106
330
4D
100
AcDbEntity
  8
0
  6
Continuous
 62
     7
100
AcDbLine
 10
57.4826096332547
 20
-770.1891758491729
 30
0.0
 11
53.3860549668791
 21
-771.8591502671625
 31
0.0
  0
LINE
  5
107
330
4D
100
AcDbEntity
  8
0
  6
Continuous
 62
     7
100
AcDbLine
 10
49.13764179360464
 20
-756.152409031165
 30
0.0
 11
45.61289502675959
 21
-758.8257468177035
 31
0.0
  0
LINE
  5
108
330
4D
100
AcDbEntity
  8
0
  6
Continuous
 62
     7
100
AcDbLine
 10
39.26086501396662
 20
-746.1641402713394
 30
0.0
 11
36.5481318138884
 21
-749.6586578741772
 31
0.0
  0
LINE
  5
109
330
4D
100
AcDbEntity
  8
0
  6
Continuous
 62
     7
100
AcDbLine
 10
50.52753004395368
 20
-757.9849511593457
 30
0.0
 11
47.00278327710498
 21
-760.6582889458841
 31
0.0
  0
LINE
  5
10A
330
4D
100
AcDbEntity
  8
0
  6
Continuous
 62
     7
100
AcDbLine
 10
36.5481318138884
 20
-749.6586578741772
 30
0.0
 11
35.36349793649811
 21
-751.1846921842698
 31
0.0
  0
LINE
  5
10B
330
4D
100
AcDbEntity
  8
0
  6
Continuous
 62
     7
100
AcDbLine
 10
47.00278327710498
 20
-760.6582889458841
 30
0.0
 11
45.463548077307
 21
-761.8257190888653
 31
0.0
  0
LINE
  5
10C
330
4D
100
AcDbEntity
  8
0
  6
Continuous
 62
     7
100
AcDbLine
 10
45.61289502675959
 20
-758.8257468177035
 30
0.0
 11
44.0736598269616
 21
-759.9931769606847
 31
0.0
  0
LINE
  5
10D
330
4D
100
AcDbEntity
  8
0
  6
Continuous
 62
     7
100
AcDbLine
 10
44.0736598269616
 20
-759.9931769606847
 30
0.0
 11
37.90703537467584
 21
-764.6702420817164
 31
0.0
  0
LINE
  5
10E
330
4D
100
AcDbEntity
  8
0
  6
Continuous
 62
     7
100
AcDbLine
 10
45.463548077307
 20
-761.8257190888653
 30
0.0
 11
39.29692362502124
 21
-766.5027842098971
 31
0.0
  0
LINE
  5
10F
330
4D
100
AcDbEntity
  8
0
  6
Continuous
 62
     7
100
AcDbLine
 10
53.3860549668791
 20
-771.8591502671625
 30
0.0
 11
51.59711477983024
 21
-772.588417808056
 31
0.0
  0
LINE
  5
110
330
4D
100
AcDbEntity
  8
0
  6
Continuous
 62
     7
100
AcDbLine
 10
54.25428711981681
 20
-773.9889795862873
 30
0.0
 11
52.46534693276794
 21
-774.7182471271808
 31
0.0
  0
LINE
  5
111
330
4D
100
AcDbEntity
  8
0
  6
Continuous
 62
     7
100
AcDbLine
 10
79.68755856365192
 20
-763.6210201335343
 30
0.0
 11
68.85838280896155
 21
-768.0355703961432
 31
0.0
  0
LINE
  5
112
330
4D
100
AcDbEntity
  8
0
  6
Continuous
 62
     7
100
AcDbLine
 10
68.85838280896155
 20
-768.0355703961432
 30
0.0
 11
58.3508417861924
 21
-772.3190051682977
 31
0.0
  0
LINE
  5
113
330
4D
100
AcDbEntity
  8
0
  6
Continuous
 62
     7
100
AcDbLine
 10
58.3508417861924
 20
-772.3190051682977
 30
0.0
 11
54.25428711981681
 21
-773.9889795862873
 31
0.0
  0
LINE
  5
114
330
4D
100
AcDbEntity
  8
0
  6
Continuous
 62
     7
100
AcDbLine
 10
67.99015065602384
 20
-765.9057410770183
 30
0.0
 11
57.4826096332547
 21
-770.1891758491729
 31
0.0
  0
LINE
  5
115
330
4D
100
AcDbEntity
  8
0
  6
Continuous
 62
     7
100
AcDbLine
 10
78.81932641071057
 20
-761.4911908144095
 30
0.0
 11
79.68755856365192
 21
-763.6210201335343
 31
0.0
  0
LINE
  5
116
330
4D
100
AcDbEntity
  8
0
  6
Continuous
 62
     7
100
AcDbLine
 10
78.81932641071057
 20
-761.4911908144095
 30
0.0
 11
67.99015065602384
 21
-765.9057410770183
 31
0.0
  0
LINE
  5
117
330
4D
100
AcDbEntity
  8
0
  6
Continuous
 62
     7
100
AcDbLine
 10
55.60432601277375
 20
-786.7016996576349
 30
0.0
 11
47.92534002098205
 21
-787.6688446414591
 31
0.0
  0
LINE
  5
118
330
4D
100
AcDbEntity
  8
0
  6
Continuous
 62
     7
100
AcDbLine
 10
55.89173348190548
 20
-788.9836718193146
 30
0.0
 11
48.21274749011377
 21
-789.9508168031389
 31
0.0
  0
LINE
  5
119
330
4D
100
AcDbEntity
  8
0
  6
Continuous
 62
     7
100
AcDbLine
 10
-8.16204360700772
 20
-739.2598393914814
 30
0.0
 11
-7.19489862318346
 21
-746.9388253832731
 31
0.0
  0
LINE
  5
11A
330
4D
100
AcDbEntity
  8
0
  6
Continuous
 62
     7
100
AcDbLine
 10
-5.88007144532799
 20
-738.9724319223496
 30
0.0
 11
-4.91292646150373
 21
-746.651417914145
 31
0.0
  0
LINE
  5
11B
330
4D
100
AcDbEntity
  8
0
  6
Continuous
 62
     7
100
AcDbLine
 10
6.50748241003407
 20
-739.0419567017525
 30
0.0
 11
5.45420490592392
 21
-746.7096031321271
 31
0.0
  0
LINE
  5
11C
330
4D
100
AcDbEntity
  8
0
  6
Continuous
 62
     7
100
AcDbLine
 10
8.78608478259071
 20
-739.3549602604871
 30
0.0
 11
7.73280727848055
 21
-747.0226066908617
 31
0.0
  0
LINE
  5
11D
330
4D
100
AcDbEntity
  8
0
  6
Continuous
 62
     7
100
AcDbLine
 10
15.80636108507702
 20
-754.3372270832297
 30
0.0
 11
16.42894993489267
 21
-752.8577059701456
 31
0.0
  0
LINE
  5
11E
330
4D
100
AcDbEntity
  8
0
  6
Continuous
 62
     7
100
AcDbLine
 10
67.4961233961551
 20
-742.2284519874484
 30
0.0
 11
58.17851254080256
 21
-749.2953770256281
 31
0.0
  0
LINE
  5
11F
330
4D
100
AcDbEntity
  8
0
  6
Continuous
 62
     7
100
AcDbLine
 10
68.88601164650049
 20
-744.060994115629
 30
0.0
 11
59.56840079114795
 21
-751.1279191538051
 31
0.0
  0
LINE
  5
120
330
4D
100
AcDbEntity
  8
0
  6
Continuous
 62
     7
100
AcDbLine
 10
67.4961233961551
 20
-742.2284519874484
 30
0.0
 11
68.88601164650049
 21
-744.060994115629
 31
0.0
  0
LINE
  5
121
330
4D
100
AcDbEntity
  8
0
  6
Continuous
 62
     7
100
AcDbLine
 10
58.17851254080256
 20
-749.2953770256281
 30
0.0
 11
49.13764179360464
 21
-756.152409031165
 31
0.0
  0
LINE
  5
122
330
4D
100
AcDbEntity
  8
0
  6
Continuous
 62
     7
100
AcDbLine
 10
44.40211932452462
 20
-735.790436212199
 30
0.0
 11
37.44403925357642
 21
-744.7537700517241
 31
0.0
  0
LINE
  5
123
330
4D
100
AcDbEntity
  8
0
  6
Continuous
 62
     7
100
AcDbLine
 10
9.04899065954328
 20
-737.441058842207
 30
0.0
 11
8.78608478259071
 21
-739.3549602604871
 31
0.0
  0
LINE
  5
124
330
4D
100
AcDbEntity
  8
0
  6
Continuous
 62
     7
100
AcDbLine
 10
7.37242535052815
 20
-732.7453476654046
 30
0.0
 11
6.77038828698664
 21
-737.1280552834723
 31
0.0
  0
LINE
  5
125
330
4D
100
AcDbEntity
  8
0
  6
Continuous
 62
     7
100
AcDbLine
 10
9.65102772308478
 20
-733.0583512241392
 30
0.0
 11
9.04899065954328
 21
-737.441058842207
 31
0.0
  0
LINE
  5
126
330
4D
100
AcDbEntity
  8
0
  6
Continuous
 62
     7
100
AcDbLine
 10
8.91663253377214
 20
-721.5038328223018
 30
0.0
 11
7.37242535052815
 21
-732.7453476654046
 31
0.0
  0
LINE
  5
127
330
4D
100
AcDbEntity
  8
0
  6
Continuous
 62
     7
100
AcDbLine
 10
11.19523490632878
 20
-721.8168363810364
 30
0.0
 11
9.65102772308478
 21
-733.0583512241392
 31
0.0
  0
LINE
  5
128
330
4D
100
AcDbEntity
  8
0
  6
Continuous
 62
     7
100
AcDbLine
 10
12.786710109973
 20
-710.2312199441258
 30
0.0
 11
11.19523490632878
 21
-721.8168363810364
 31
0.0
  0
LINE
  5
129
330
4D
100
AcDbEntity
  8
0
  6
Continuous
 62
     7
100
AcDbLine
 10
10.50810773741637
 20
-709.9182163853911
 30
0.0
 11
8.91663253377214
 21
-721.5038328223018
 31
0.0
  0
LINE
  5
12A
330
4D
100
AcDbEntity
  8
0
  6
Continuous
 62
     7
100
AcDbLine
 10
10.50810773741637
 20
-709.9182163853911
 30
0.0
 11
12.786710109973
 21
-710.2312199441258
 31
0.0
  0
LINE
  5
12B
330
4D
100
AcDbEntity
  8
0
  6
Continuous
 62
     7
100
AcDbLine
 10
6.77038828698664
 20
-737.1280552834723
 30
0.0
 11
6.50748241003407
 21
-739.0419567017525
 31
0.0
  0
LINE
  5
12C
330
4D
100
AcDbEntity
  8
0
  6
Continuous
 62
     7
100
AcDbLine
 10
32.13563462252955
 20
-715.5323159978179
 30
0.0
 11
27.59980943830692
 21
-726.311258035199
 31
0.0
  0
LINE
  5
12D
330
4D
100
AcDbEntity
  8
0
  6
Continuous
 62
     7
100
AcDbLine
 10
32.13563462252955
 20
-715.5323159978179
 30
0.0
 11
34.25558421984192
 21
-716.4243999091523
 31
0.0
  0
LINE
  5
12E
330
4D
100
AcDbEntity
  8
0
  6
Continuous
 62
     7
100
AcDbLine
 10
34.25558421984192
 20
-716.4243999091523
 30
0.0
 11
29.71975903561929
 21
-727.2033419465333
 31
0.0
  0
LINE
  5
12F
330
4D
100
AcDbEntity
  8
0
  6
Continuous
 62
     7
100
AcDbLine
 10
27.59980943830692
 20
-726.311258035199
 30
0.0
 11
23.19870170167292
 21
-736.7700573201546
 31
0.0
  0
LINE
  5
130
330
4D
100
AcDbEntity
  8
0
  6
Continuous
 62
     7
100
AcDbLine
 10
29.71975903561929
 20
-727.2033419465333
 30
0.0
 11
25.31865129898529
 21
-737.6621412314889
 31
0.0
  0
LINE
  5
131
330
4D
100
AcDbEntity
  8
0
  6
Continuous
 62
     7
100
AcDbLine
 10
23.60279995025508
 20
-741.7396930509531
 30
0.0
 11
22.85349823632009
 21
-743.5203348118157
 31
0.0
  0
LINE
  5
132
330
4D
100
AcDbEntity
  8
0
  6
Continuous
 62
     7
100
AcDbLine
 10
25.31865129898529
 20
-737.6621412314889
 30
0.0
 11
23.60279995025508
 21
-741.7396930509531
 31
0.0
  0
LINE
  5
133
330
4D
100
AcDbEntity
  8
0
  6
Continuous
 62
     7
100
AcDbLine
 10
23.19870170167292
 20
-736.7700573201546
 30
0.0
 11
21.48285035294634
 21
-740.8476091396187
 31
0.0
  0
LINE
  5
134
330
4D
100
AcDbEntity
  8
0
  6
Continuous
 62
     7
100
AcDbLine
 10
35.72406883568715
 20
-729.6016682396184
 30
0.0
 11
35.41350896840254
 21
-730.001728563624
 31
0.0
  0
LINE
  5
135
330
4D
100
AcDbEntity
  8
0
  6
Continuous
 62
     7
100
AcDbLine
 10
35.72406883568715
 20
-729.6016682396184
 30
0.0
 11
36.0966696882499
 21
-729.1216872971236
 31
0.0
  0
LINE
  5
136
330
4D
100
AcDbEntity
  8
0
  6
Continuous
 62
     7
100
AcDbLine
 10
65.26249716463667
 20
-830.5878121003261
 30
0.0
 11
65.74247810713518
 21
-830.9604129528925
 31
0.0
  0
LINE
  5
137
330
4D
100
AcDbEntity
  8
0
  6
Continuous
 62
     7
100
AcDbLine
 10
50.39074864981399
 20
-848.919515772639
 30
0.0
 11
50.7908090746389
 21
-849.2300757181874
 31
0.0
  0
LINE
  5
138
330
4D
100
AcDbEntity
  8
0
  6
Continuous
 62
     7
100
AcDbLine
 10
51.27079013628122
 20
-849.6026766632422
 30
0.0
 11
50.7908090746389
 21
-849.2300757181874
 31
0.0
  0
LINE
  5
139
330
4D
100
AcDbEntity
  8
0
  6
Continuous
 62
     7
100
AcDbLine
 10
-35.723646696071
 20
-860.1262404292793
 30
0.0
 11
-35.41308682878639
 21
-859.7261801052737
 31
0.0
  0
LINE
  5
13A
330
4D
100
AcDbEntity
  8
0
  6
Continuous
 62
     7
100
AcDbLine
 10
-35.723646696071
 20
-860.1262404292793
 30
0.0
 11
-36.09624754863376
 21
-860.6062213717742
 31
0.0
  0
LINE
  5
13B
330
4D
100
AcDbEntity
  8
0
  6
Continuous
 62
     7
100
AcDbLine
 10
-54.05535036838023
 20
-845.2544919144566
 30
0.0
 11
-54.36591031393232
 21
-845.6545523392815
 31
0.0
  0
LINE
  5
13C
330
4D
100
AcDbEntity
  8
0
  6
Continuous
 62
     7
100
AcDbLine
 10
-54.73851125898341
 20
-846.1345334009202
 30
0.0
 11
-54.36591031393232
 21
-845.6545523392815
 31
0.0
  0
LINE
  5
13D
330
4D
100
AcDbEntity
  8
0
  6
Continuous
 62
     7
100
AcDbLine
 10
-46.21852294529867
 20
-852.5271022370835
 30
0.0
 11
-39.26044287435047
 21
-843.5637683975583
 31
0.0
  0
LINE
  5
13E
330
4D
100
AcDbEntity
  8
0
  6
Continuous
 62
     7
100
AcDbLine
 10
-44.40169718490847
 20
-853.9374724566987
 30
0.0
 11
-37.44361711396027
 21
-844.9741386171772
 31
0.0
  0
LINE
  5
13F
330
4D
100
AcDbEntity
  8
0
  6
Continuous
 62
     7
100
AcDbLine
 10
-78.81890427109806
 20
-828.2367178544882
 30
0.0
 11
-67.9897285164077
 21
-823.8221675918794
 31
0.0
  0
LINE
  5
140
330
4D
100
AcDbEntity
  8
0
  6
Continuous
 62
     7
100
AcDbLine
 10
-79.68713642403577
 20
-826.1068885353634
 30
0.0
 11
-68.8579606693454
 21
-821.6923382727582
 31
0.0
  0
LINE
  5
141
330
4D
100
AcDbEntity
  8
0
  6
Continuous
 62
     7
100
AcDbLine
 10
-78.81890427109806
 20
-828.2367178544882
 30
0.0
 11
-79.68713642403577
 21
-826.1068885353634
 31
0.0
  0
LINE
  5
142
330
4D
100
AcDbEntity
  8
0
  6
Continuous
 62
     7
100
AcDbLine
 10
-27.59938729869441
 20
-863.4166506337024
 30
0.0
 11
-23.19827956206041
 21
-852.9578513487468
 31
0.0
  0
LINE
  5
143
330
4D
100
AcDbEntity
  8
0
  6
Continuous
 62
     7
100
AcDbLine
 10
-58.17809040118641
 20
-840.4325316432696
 30
0.0
 11
-49.13721965399213
 21
-833.5754996377327
 31
0.0
  0
LINE
  5
144
330
4D
100
AcDbEntity
  8
0
  6
Continuous
 62
     7
100
AcDbLine
 10
-59.5679786515318
 20
-838.5999895150926
 30
0.0
 11
-50.52710790433753
 21
-831.7429575095557
 31
0.0
  0
LINE
  5
145
330
4D
100
AcDbEntity
  8
0
  6
Continuous
 62
     7
100
AcDbLine
 10
-37.44361711396027
 20
-844.9741386171772
 30
0.0
 11
-34.73088391388205
 21
-841.4796210143395
 31
0.0
  0
LINE
  5
146
330
4D
100
AcDbEntity
  8
0
  6
Continuous
 62
     7
100
AcDbLine
 10
-39.26044287435047
 20
-843.5637683975583
 30
0.0
 11
-36.54770967427226
 21
-840.0692507947206
 31
0.0
  0
LINE
  5
147
330
4D
100
AcDbEntity
  8
0
  6
Continuous
 62
     7
100
AcDbLine
 10
-12.78628797035685
 20
-879.496688724772
 30
0.0
 11
-11.19481276671263
 21
-867.9110722878613
 31
0.0
  0
LINE
  5
148
330
4D
100
AcDbEntity
  8
0
  6
Continuous
 62
     7
100
AcDbLine
 10
-10.50768559780022
 20
-879.8096922835066
 30
0.0
 11
-12.78628797035685
 21
-879.496688724772
 31
0.0
  0
LINE
  5
149
330
4D
100
AcDbEntity
  8
0
  6
Continuous
 62
     7
100
AcDbLine
 10
-10.50768559780022
 20
-879.8096922835066
 30
0.0
 11
-8.916210394156
 21
-868.224075846596
 31
0.0
  0
LINE
  5
14A
330
4D
100
AcDbEntity
  8
0
  6
Continuous
 62
     7
100
AcDbLine
 10
8.40387230768852
 20
-852.3848011343325
 30
0.0
 11
8.16246574662387
 21
-850.4680692774164
 31
0.0
  0
LINE
  5
14B
330
4D
100
AcDbEntity
  8
0
  6
Continuous
 62
     7
100
AcDbLine
 10
28.95842432724044
 20
-862.8538939206628
 30
0.0
 11
24.67498955508222
 21
-852.3463528978973
 31
0.0
  0
LINE
  5
14C
330
4D
100
AcDbEntity
  8
0
  6
Continuous
 62
     7
100
AcDbLine
 10
15.35046954907034
 20
-835.5655460062735
 30
0.0
 11
15.95641216344325
 21
-837.051962215839
 31
0.0
  0
LINE
  5
14D
330
4D
100
AcDbEntity
  8
0
  6
Continuous
 62
     7
100
AcDbLine
 10
-55.82178656289011
 20
-788.3566829942247
 30
0.0
 11
-48.15414013251552
 21
-789.4099604983348
 31
0.0
  0
LINE
  5
14E
330
4D
100
AcDbEntity
  8
0
  6
Continuous
 62
     7
100
AcDbLine
 10
-55.50878300415548
 20
-786.078080621668
 30
0.0
 11
-47.84113657378089
 21
-787.1313581257782
 31
0.0
  0
LINE
  5
14F
330
4D
100
AcDbEntity
  8
0
  6
Continuous
 62
     7
100
AcDbLine
 10
6.57504724616615
 20
-837.8642046738823
 30
0.0
 11
6.77563004265198
 21
-839.4568019681574
 31
0.0
  0
LINE
  5
150
330
4D
100
AcDbEntity
  8
0
  6
Continuous
 62
     7
100
AcDbLine
 10
8.16246574662387
 20
-850.4680692774164
 30
0.0
 11
7.19532076279961
 21
-842.7890832856247
 31
0.0
  0
LINE
  5
151
330
4D
100
AcDbEntity
  8
0
  6
Continuous
 62
     7
100
AcDbLine
 10
4.29307508448642
 20
-838.1516121430141
 30
0.0
 11
4.49365788097225
 21
-839.7442094372891
 31
0.0
  0
LINE
  5
152
330
4D
100
AcDbEntity
  8
0
  6
Continuous
 62
     7
100
AcDbLine
 10
20.14591827707795
 20
-847.3290901974106
 30
0.0
 11
17.22426013768222
 21
-840.1620748494133
 31
0.0
  0
LINE
  5
153
330
4D
100
AcDbEntity
  8
0
  6
Continuous
 62
     7
100
AcDbLine
 10
20.87518581797144
 20
-849.1180303844594
 30
0.0
 11
20.14591827707795
 21
-847.3290901974106
 31
0.0
  0
LINE
  5
154
330
4D
100
AcDbEntity
  8
0
  6
Continuous
 62
     7
100
AcDbLine
 10
22.54516023595738
 20
-853.214585050835
 30
0.0
 11
20.87518581797144
 21
-849.1180303844594
 31
0.0
  0
LINE
  5
155
330
4D
100
AcDbEntity
  8
0
  6
Continuous
 62
     7
100
AcDbLine
 10
24.67498955508222
 20
-852.3463528978973
 30
0.0
 11
23.00501513709628
 21
-848.2497982315181
 31
0.0
  0
LINE
  5
156
330
4D
100
AcDbEntity
  8
0
  6
Continuous
 62
     7
100
AcDbLine
 10
22.27574759620279
 20
-846.4608580444728
 30
0.0
 11
19.35408945680706
 21
-839.2938426964756
 31
0.0
  0
LINE
  5
157
330
4D
100
AcDbEntity
  8
0
  6
Continuous
 62
     7
100
AcDbLine
 10
23.00501513709628
 20
-848.2497982315181
 30
0.0
 11
22.27574759620279
 21
-846.4608580444728
 31
0.0
  0
LINE
  5
158
330
4D
100
AcDbEntity
  8
0
  6
Continuous
 62
     7
100
AcDbLine
 10
26.8285950081156
 20
-863.7221260736042
 30
0.0
 11
22.54516023595738
 21
-853.214585050835
 31
0.0
  0
LINE
  5
159
330
4D
100
AcDbEntity
  8
0
  6
Continuous
 62
     7
100
AcDbLine
 10
-67.9897285164077
 20
-823.8221675918794
 30
0.0
 11
-57.48218749363855
 21
-819.5387328197248
 31
0.0
  0
LINE
  5
15A
330
4D
100
AcDbEntity
  8
0
  6
Continuous
 62
     7
100
AcDbLine
 10
-4.77826859584798
 20
-838.1006994950767
 30
0.0
 11
-4.99671500335148
 21
-839.6909450003404
 31
0.0
  0
LINE
  5
15B
330
4D
100
AcDbEntity
  8
0
  6
Continuous
 62
     7
100
AcDbLine
 10
6.67470519862422
 20
-857.0613977387293
 30
0.0
 11
6.12190014600878
 21
-852.6722086034642
 31
0.0
  0
LINE
  5
15C
330
4D
100
AcDbEntity
  8
0
  6
Continuous
 62
     7
100
AcDbLine
 10
10.37460589806528
 20
-868.0321300117721
 30
0.0
 11
8.95667736030396
 21
-856.7739902695976
 31
0.0
  0
LINE
  5
15D
330
4D
100
AcDbEntity
  8
0
  6
Continuous
 62
     7
100
AcDbLine
 10
8.09263373638191
 20
-868.3195374809038
 30
0.0
 11
6.67470519862422
 21
-857.0613977387293
 31
0.0
  0
LINE
  5
15E
330
4D
100
AcDbEntity
  8
0
  6
Continuous
 62
     7
100
AcDbLine
 10
11.8359370800938
 20
-879.6348802341745
 30
0.0
 11
10.37460589806528
 21
-868.0321300117721
 31
0.0
  0
LINE
  5
15F
330
4D
100
AcDbEntity
  8
0
  6
Continuous
 62
     7
100
AcDbLine
 10
11.8359370800938
 20
-879.6348802341745
 30
0.0
 11
9.55396491841043
 21
-879.9222877033062
 31
0.0
  0
LINE
  5
160
330
4D
100
AcDbEntity
  8
0
  6
Continuous
 62
     7
100
AcDbLine
 10
9.55396491841043
 20
-879.9222877033062
 30
0.0
 11
8.09263373638191
 21
-868.3195374809038
 31
0.0
  0
LINE
  5
161
330
4D
100
AcDbEntity
  8
0
  6
Continuous
 62
     7
100
AcDbLine
 10
-68.8579606693454
 20
-821.6923382727582
 30
0.0
 11
-58.35041964657989
 21
-817.4089035006
 31
0.0
  0
LINE
  5
162
330
4D
100
AcDbEntity
  8
0
  6
Continuous
 62
     7
100
AcDbLine
 10
-49.13721965399213
 20
-833.5754996377327
 30
0.0
 11
-45.61247288714344
 21
-830.9021618511943
 31
0.0
  0
LINE
  5
163
330
4D
100
AcDbEntity
  8
0
  6
Continuous
 62
     7
100
AcDbLine
 10
-50.52710790433753
 20
-831.7429575095557
 30
0.0
 11
-47.00236113748883
 21
-829.0696197230136
 31
0.0
  0
LINE
  5
164
330
4D
100
AcDbEntity
  8
0
  6
Continuous
 62
     7
100
AcDbLine
 10
-34.73088391388205
 20
-841.4796210143395
 30
0.0
 11
-33.54625003649539
 21
-839.9535867042468
 31
0.0
  0
LINE
  5
165
330
4D
100
AcDbEntity
  8
0
  6
Continuous
 62
     7
100
AcDbLine
 10
-36.54770967427226
 20
-840.0692507947206
 30
0.0
 11
-35.3630757968856
 21
-838.5432164846279
 31
0.0
  0
LINE
  5
166
330
4D
100
AcDbEntity
  8
0
  6
Continuous
 62
     7
100
AcDbLine
 10
-25.31822915936914
 20
-852.0657674374088
 30
0.0
 11
-23.60237781064257
 21
-847.9882156179447
 31
0.0
  0
LINE
  5
167
330
4D
100
AcDbEntity
  8
0
  6
Continuous
 62
     7
100
AcDbLine
 10
-23.60237781064257
 20
-847.9882156179447
 30
0.0
 11
-22.85307609670758
 21
-846.207573857082
 31
0.0
  0
LINE
  5
168
330
4D
100
AcDbEntity
  8
0
  6
Continuous
 62
     7
100
AcDbLine
 10
-21.4824282133302
 20
-848.8802995292826
 30
0.0
 11
-20.73312649939521
 21
-847.0996577684164
 31
0.0
  0
LINE
  5
169
330
4D
100
AcDbEntity
  8
0
  6
Continuous
 62
     7
100
AcDbLine
 10
-23.19827956206041
 20
-852.9578513487468
 30
0.0
 11
-21.4824282133302
 21
-848.8802995292826
 31
0.0
  0
LINE
  5
16A
330
4D
100
AcDbEntity
  8
0
  6
Continuous
 62
     7
100
AcDbLine
 10
-45.61247288714344
 20
-830.9021618511943
 30
0.0
 11
-44.07323768734545
 21
-829.7347317082131
 31
0.0
  0
LINE
  5
16B
330
4D
100
AcDbEntity
  8
0
  6
Continuous
 62
     7
100
AcDbLine
 10
-58.35041964657989
 20
-817.4089035006
 30
0.0
 11
-54.25386498020066
 21
-815.738929082614
 31
0.0
  0
LINE
  5
16C
330
4D
100
AcDbEntity
  8
0
  6
Continuous
 62
     7
100
AcDbLine
 10
-22.85307609670758
 20
-846.207573857082
 30
0.0
 11
-19.85115522594401
 21
-839.073804420972
 31
0.0
  0
LINE
  5
16D
330
4D
100
AcDbEntity
  8
0
  6
Continuous
 62
     7
100
AcDbLine
 10
-20.73312649939521
 20
-847.0996577684164
 30
0.0
 11
-17.73120562863528
 21
-839.9658883323063
 31
0.0
  0
LINE
  5
16E
330
4D
100
AcDbEntity
  8
0
  6
Continuous
 62
     7
100
AcDbLine
 10
-45.46312593769085
 20
-827.9021895800361
 30
0.0
 11
-39.29650148540509
 21
-823.2251244590043
 31
0.0
  0
LINE
  5
16F
330
4D
100
AcDbEntity
  8
0
  6
Continuous
 62
     7
100
AcDbLine
 10
-39.83314844907704
 20
-812.3440421328378
 30
0.0
 11
-41.31956465864255
 21
-812.949984747207
 31
0.0
  0
LINE
  5
170
330
4D
100
AcDbEntity
  8
0
  6
Continuous
 62
     7
100
AcDbLine
 10
-35.34156825540026
 20
-820.2255125304364
 30
0.0
 11
-36.62050657199484
 21
-821.1955209748921
 31
0.0
  0
LINE
  5
171
330
4D
100
AcDbEntity
  8
0
  6
Continuous
 62
     7
100
AcDbLine
 10
-52.46492479315543
 20
-815.0096615417206
 30
0.0
 11
-45.29790944515821
 21
-812.0880034023248
 31
0.0
  0
LINE
  5
172
330
4D
100
AcDbEntity
  8
0
  6
Continuous
 62
     7
100
AcDbLine
 10
-33.95168000505487
 20
-822.058054658617
 30
0.0
 11
-35.23061832164945
 21
-823.0280631030691
 31
0.0
  0
LINE
  5
173
330
4D
100
AcDbEntity
  8
0
  6
Continuous
 62
     7
100
AcDbLine
 10
-17.9258885427696
 20
-834.4985976743337
 30
0.0
 11
-18.54847739258889
 21
-835.9781187874178
 31
0.0
  0
LINE
  5
174
330
4D
100
AcDbEntity
  8
0
  6
Continuous
 62
     7
100
AcDbLine
 10
5.8804935849405
 20
-850.7554767465481
 30
0.0
 11
4.91334860111624
 21
-843.0764907547564
 31
0.0
  0
LINE
  5
175
330
4D
100
AcDbEntity
  8
0
  6
Continuous
 62
     7
100
AcDbLine
 10
6.12190014600878
 20
-852.6722086034642
 30
0.0
 11
5.8804935849405
 21
-850.7554767465481
 31
0.0
  0
LINE
  5
176
330
4D
100
AcDbEntity
  8
0
  6
Continuous
 62
     7
100
AcDbLine
 10
8.95667736030396
 20
-856.7739902695976
 30
0.0
 11
8.40387230768852
 21
-852.3848011343325
 31
0.0
  0
LINE
  5
177
330
4D
100
AcDbEntity
  8
0
  6
Continuous
 62
     7
100
AcDbLine
 10
-51.59669264021409
 20
-817.1394908608454
 30
0.0
 11
-44.4296772922205
 21
-814.2178327214497
 31
0.0
  0
LINE
  5
178
330
4D
100
AcDbEntity
  8
0
  6
Continuous
 62
     7
100
AcDbLine
 10
-25.75644629243084
 20
-829.9188341876761
 30
0.0
 11
-26.74074918332531
 21
-831.1868039897417
 31
0.0
  0
LINE
  5
179
330
4D
100
AcDbEntity
  8
0
  6
Continuous
 62
     7
100
AcDbLine
 10
-27.57327205282104
 20
-828.5084639680608
 30
0.0
 11
-28.55757494371551
 21
-829.7764337701228
 31
0.0
  0
LINE
  5
17A
330
4D
100
AcDbEntity
  8
0
  6
Continuous
 62
     7
100
AcDbLine
 10
-47.00236113748883
 20
-829.0696197230136
 30
0.0
 11
-45.46312593769085
 21
-827.9021895800361
 31
0.0
  0
LINE
  5
17B
330
4D
100
AcDbEntity
  8
0
  6
Continuous
 62
     7
100
AcDbLine
 10
-53.38563282726295
 20
-817.8687584017352
 30
0.0
 11
-51.59669264021409
 21
-817.1394908608454
 31
0.0
  0
LINE
  5
17C
330
4D
100
AcDbEntity
  8
0
  6
Continuous
 62
     7
100
AcDbLine
 10
-57.48218749363855
 20
-819.5387328197248
 30
0.0
 11
-53.38563282726295
 21
-817.8687584017352
 31
0.0
  0
LINE
  5
17D
330
4D
100
AcDbEntity
  8
0
  6
Continuous
 62
     7
100
AcDbLine
 10
-54.25386498020066
 20
-815.738929082614
 30
0.0
 11
-52.46492479315543
 21
-815.0096615417206
 31
0.0
  0
LINE
  5
17E
330
4D
100
AcDbEntity
  8
0
  6
Continuous
 62
     7
100
AcDbLine
 10
-35.3630757968856
 20
-838.5432164846279
 30
0.0
 11
-30.6170875059031
 21
-832.4294786407445
 31
0.0
  0
LINE
  5
17F
330
4D
100
AcDbEntity
  8
0
  6
Continuous
 62
     7
100
AcDbLine
 10
-33.54625003649539
 20
-839.9535867042468
 30
0.0
 11
-28.8002617455129
 21
-833.8398488603598
 31
0.0
  0
LINE
  5
180
330
4D
100
AcDbEntity
  8
0
  6
Continuous
 62
     7
100
AcDbLine
 10
-44.07323768734545
 20
-829.7347317082131
 30
0.0
 11
-37.90661323505969
 21
-825.0576665871813
 31
0.0
  0
LINE
  5
181
330
4D
100
AcDbEntity
  8
0
  6
Continuous
 62
     7
100
AcDbLine
 10
31.24314527072079
 20
-874.5513018282909
 30
0.0
 11
26.8285950081156
 21
-863.7221260736042
 31
0.0
  0
LINE
  5
182
330
4D
100
AcDbEntity
  8
0
  6
Continuous
 62
     7
100
AcDbLine
 10
-42.92353053208331
 20
-787.806872296238
 30
0.0
 11
-44.51377603735068
 21
-787.5884258887345
 31
0.0
  0
LINE
  5
183
330
4D
100
AcDbEntity
  8
0
  6
Continuous
 62
     7
100
AcDbLine
 10
59.07372919205614
 20
-839.2658625891636
 30
0.0
 11
50.11039535253462
 21
-832.307782518219
 31
0.0
  0
LINE
  5
184
330
4D
100
AcDbEntity
  8
0
  6
Continuous
 62
     7
100
AcDbLine
 10
57.66335897244085
 20
-841.0826883495538
 30
0.0
 11
48.7000251329157
 21
-834.1246082786092
 31
0.0
  0
LINE
  5
185
330
4D
100
AcDbEntity
  8
0
  6
Continuous
 62
     7
100
AcDbLine
 10
48.7000251329157
 20
-834.1246082786092
 30
0.0
 11
45.2055075300816
 21
-831.4118750785274
 31
0.0
  0
LINE
  5
186
330
4D
100
AcDbEntity
  8
0
  6
Continuous
 62
     7
100
AcDbLine
 10
45.2055075300816
 20
-831.4118750785274
 30
0.0
 11
43.67947321998531
 21
-830.2272412011407
 31
0.0
  0
LINE
  5
187
330
4D
100
AcDbEntity
  8
0
  6
Continuous
 62
     7
100
AcDbLine
 10
43.67947321998531
 20
-830.2272412011407
 30
0.0
 11
37.56573537610188
 21
-825.4812529101582
 31
0.0
  0
LINE
  5
188
330
4D
100
AcDbEntity
  8
0
  6
Continuous
 62
     7
100
AcDbLine
 10
27.19431111585459
 20
-828.8158450426163
 30
0.0
 11
28.16431983843017
 21
-830.0947837259046
 31
0.0
  0
LINE
  5
189
330
4D
100
AcDbEntity
  8
0
  6
Continuous
 62
     7
100
AcDbLine
 10
25.36176926579378
 20
-830.2057336596554
 30
0.0
 11
26.33177771024953
 21
-831.48467197625
 31
0.0
  0
LINE
  5
18A
330
4D
100
AcDbEntity
  8
0
  6
Continuous
 62
     7
100
AcDbLine
 10
33.64472070341822
 20
-822.4374374570762
 30
0.0
 11
34.91269050548385
 21
-823.4217403479743
 31
0.0
  0
LINE
  5
18B
330
4D
100
AcDbEntity
  8
0
  6
Continuous
 62
     7
100
AcDbLine
 10
17.48029886819518
 20
-834.6973138533322
 30
0.0
 11
18.08624148256808
 21
-836.1837300628977
 31
0.0
  0
LINE
  5
18C
330
4D
100
AcDbEntity
  8
0
  6
Continuous
 62
     7
100
AcDbLine
 10
-39.63443227007861
 20
-776.9378547218694
 30
0.0
 11
-41.11395338315901
 21
-776.3152658720537
 31
0.0
  0
LINE
  5
18D
330
4D
100
AcDbEntity
  8
0
  6
Continuous
 62
     7
100
AcDbLine
 10
-40.52651618141294
 20
-779.0578043191817
 30
0.0
 11
-42.00603729449335
 21
-778.4352154693624
 31
0.0
  0
LINE
  5
18E
330
4D
100
AcDbEntity
  8
0
  6
Continuous
 62
     7
100
AcDbLine
 10
-35.05466878342099
 20
-769.1072969722118
 30
0.0
 11
-36.32263858548663
 21
-768.1229940813173
 31
0.0
  0
LINE
  5
18F
330
4D
100
AcDbEntity
  8
0
  6
Continuous
 62
     7
100
AcDbLine
 10
33.37297458984563
 20
-873.6830696753532
 30
0.0
 11
28.95842432724044
 21
-862.8538939206628
 31
0.0
  0
LINE
  5
190
330
4D
100
AcDbEntity
  8
0
  6
Continuous
 62
     7
100
AcDbLine
 10
-57.42268442243562
 20
-785.8151747447118
 30
0.0
 11
-55.50878300415548
 21
-786.078080621668
 31
0.0
  0
LINE
  5
191
330
4D
100
AcDbEntity
  8
0
  6
Continuous
 62
     7
100
AcDbLine
 10
33.37297458984563
 20
-873.6830696753532
 30
0.0
 11
31.24314527072079
 21
-874.5513018282909
 31
0.0
  0
LINE
  5
192
330
4D
100
AcDbEntity
  8
0
  6
Continuous
 62
     7
100
AcDbLine
 10
34.87098844357047
 20
-838.9374030916006
 30
0.0
 11
30.19392332254233
 21
-832.7707786393148
 31
0.0
  0
LINE
  5
193
330
4D
100
AcDbEntity
  8
0
  6
Continuous
 62
     7
100
AcDbLine
 10
34.20587645837463
 20
-841.8665265417476
 30
0.0
 11
33.03844631539346
 21
-840.327291341946
 31
0.0
  0
LINE
  5
194
330
4D
100
AcDbEntity
  8
0
  6
Continuous
 62
     7
100
AcDbLine
 10
33.03844631539346
 20
-840.327291341946
 30
0.0
 11
28.36138119436168
 21
-834.1606668896602
 31
0.0
  0
LINE
  5
195
330
4D
100
AcDbEntity
  8
0
  6
Continuous
 62
     7
100
AcDbLine
 10
36.03841858655164
 20
-840.4766382913986
 30
0.0
 11
34.87098844357047
 21
-838.9374030916006
 31
0.0
  0
LINE
  5
196
330
4D
100
AcDbEntity
  8
0
  6
Continuous
 62
     7
100
AcDbLine
 10
36.8792142449131
 20
-845.3912733085926
 30
0.0
 11
34.20587645837463
 21
-841.8665265417476
 31
0.0
  0
LINE
  5
197
330
4D
100
AcDbEntity
  8
0
  6
Continuous
 62
     7
100
AcDbLine
 10
38.71175637309011
 20
-844.0013850582473
 30
0.0
 11
36.03841858655164
 21
-840.4766382913986
 31
0.0
  0
LINE
  5
198
330
4D
100
AcDbEntity
  8
0
  6
Continuous
 62
     7
100
AcDbLine
 10
-6.50706027041792
 20
-850.6859519671452
 30
0.0
 11
-5.45378276630777
 21
-843.0183055367706
 31
0.0
  0
LINE
  5
199
330
4D
100
AcDbEntity
  8
0
  6
Continuous
 62
     7
100
AcDbLine
 10
-8.78566264297456
 20
-850.3729484084106
 30
0.0
 11
-7.7323851388644
 21
-842.705301978036
 31
0.0
  0
LINE
  5
19A
330
4D
100
AcDbEntity
  8
0
  6
Continuous
 62
     7
100
AcDbLine
 10
-7.05687096840461
 20
-837.7876959363421
 30
0.0
 11
-7.27531737590812
 21
-839.3779414416058
 31
0.0
  0
LINE
  5
19B
330
4D
100
AcDbEntity
  8
0
  6
Continuous
 62
     7
100
AcDbLine
 10
-15.80593894546087
 20
-835.3906815856717
 30
0.0
 11
-16.42852779528016
 21
-836.8702026987521
 31
0.0
  0
LINE
  5
19C
330
4D
100
AcDbEntity
  8
0
  6
Continuous
 62
     7
100
AcDbLine
 10
-9.04856851993077
 20
-852.2868498266907
 30
0.0
 11
-8.78566264297456
 21
-850.3729484084106
 31
0.0
  0
LINE
  5
19D
330
4D
100
AcDbEntity
  8
0
  6
Continuous
 62
     7
100
AcDbLine
 10
-6.76996614737413
 20
-852.5998533854254
 30
0.0
 11
-6.50706027041792
 21
-850.6859519671452
 31
0.0
  0
LINE
  5
19E
330
4D
100
AcDbEntity
  8
0
  6
Continuous
 62
     7
100
AcDbLine
 10
-9.65060558346863
 20
-856.6695574447585
 30
0.0
 11
-9.04856851993077
 21
-852.2868498266907
 31
0.0
  0
LINE
  5
19F
330
4D
100
AcDbEntity
  8
0
  6
Continuous
 62
     7
100
AcDbLine
 10
-7.372003210912
 20
-856.9825610034932
 30
0.0
 11
-6.76996614737413
 21
-852.5998533854254
 31
0.0
  0
LINE
  5
1A0
330
4D
100
AcDbEntity
  8
0
  6
Continuous
 62
     7
100
AcDbLine
 10
-8.916210394156
 20
-868.224075846596
 30
0.0
 11
-7.372003210912
 21
-856.9825610034932
 31
0.0
  0
LINE
  5
1A1
330
4D
100
AcDbEntity
  8
0
  6
Continuous
 62
     7
100
AcDbLine
 10
-11.19481276671263
 20
-867.9110722878613
 30
0.0
 11
-9.65060558346863
 21
-856.6695574447585
 31
0.0
  0
LINE
  5
1A2
330
4D
100
AcDbEntity
  8
0
  6
Continuous
 62
     7
100
AcDbLine
 10
43.73624625044999
 20
-854.4321440557906
 30
0.0
 11
36.8792142449131
 21
-845.3912733085926
 31
0.0
  0
LINE
  5
1A3
330
4D
100
AcDbEntity
  8
0
  6
Continuous
 62
     7
100
AcDbLine
 10
-43.00003926962722
 20
-801.4387905108088
 30
0.0
 11
-44.59263656389862
 21
-801.6393733072946
 31
0.0
  0
LINE
  5
1A4
330
4D
100
AcDbEntity
  8
0
  6
Continuous
 62
     7
100
AcDbLine
 10
-57.73568798117026
 20
-788.0937771172685
 30
0.0
 11
-55.82178656289011
 21
-788.3566829942247
 31
0.0
  0
LINE
  5
1A5
330
4D
100
AcDbEntity
  8
0
  6
Continuous
 62
     7
100
AcDbLine
 10
-40.70138060201475
 20
-810.214212813713
 30
0.0
 11
-42.18779681158026
 21
-810.8201554280859
 31
0.0
  0
LINE
  5
1A6
330
4D
100
AcDbEntity
  8
0
  6
Continuous
 62
     7
100
AcDbLine
 10
-61.80539204050342
 20
-785.213137681174
 30
0.0
 11
-57.42268442243562
 21
-785.8151747447118
 31
0.0
  0
LINE
  5
1A7
330
4D
100
AcDbEntity
  8
0
  6
Continuous
 62
     7
100
AcDbLine
 10
-62.11839559923806
 20
-787.4917400537306
 30
0.0
 11
-57.73568798117026
 21
-788.0937771172685
 31
0.0
  0
LINE
  5
1A8
330
4D
100
AcDbEntity
  8
0
  6
Continuous
 62
     7
100
AcDbLine
 10
-51.34340845282691
 20
-772.010667167935
 30
0.0
 11
-44.20963901671689
 21
-775.0125880386986
 31
0.0
  0
LINE
  5
1A9
330
4D
100
AcDbEntity
  8
0
  6
Continuous
 62
     7
100
AcDbLine
 10
-52.23549236416125
 20
-774.1306167652438
 30
0.0
 11
-45.10172292805123
 21
-777.1325376360073
 31
0.0
  0
LINE
  5
1AA
330
4D
100
AcDbEntity
  8
0
  6
Continuous
 62
     7
100
AcDbLine
 10
-68.55248522944362
 20
-767.2643559659482
 30
0.0
 11
-58.09368594448802
 21
-771.6654637025822
 31
0.0
  0
LINE
  5
1AB
330
4D
100
AcDbEntity
  8
0
  6
Continuous
 62
     7
100
AcDbLine
 10
-73.35991044234083
 20
-785.9475328704866
 30
0.0
 11
-62.11839559923806
 21
-787.4917400537306
 31
0.0
  0
LINE
  5
1AC
330
4D
100
AcDbEntity
  8
0
  6
Continuous
 62
     7
100
AcDbLine
 10
-45.08942129998809
 20
-761.3174932281472
 30
0.0
 11
-38.97568345610466
 21
-766.0634815191297
 31
0.0
  0
LINE
  5
1AD
330
4D
100
AcDbEntity
  8
0
  6
Continuous
 62
     7
100
AcDbLine
 10
-54.01613412502388
 20
-773.3813150513124
 30
0.0
 11
-52.23549236416125
 21
-774.1306167652438
 31
0.0
  0
LINE
  5
1AE
330
4D
100
AcDbEntity
  8
0
  6
Continuous
 62
     7
100
AcDbLine
 10
-53.12405021368954
 20
-771.261365454
 30
0.0
 11
-51.34340845282691
 21
-772.010667167935
 31
0.0
  0
LINE
  5
1AF
330
4D
100
AcDbEntity
  8
0
  6
Continuous
 62
     7
100
AcDbLine
 10
-50.10997321291848
 20
-757.4201261506823
 30
0.0
 11
-46.61545561008074
 21
-760.1328593507606
 31
0.0
  0
LINE
  5
1B0
330
4D
100
AcDbEntity
  8
0
  6
Continuous
 62
     7
100
AcDbLine
 10
-46.61545561008074
 20
-760.1328593507606
 30
0.0
 11
-45.08942129998809
 21
-761.3174932281472
 31
0.0
  0
LINE
  5
1B1
330
4D
100
AcDbEntity
  8
0
  6
Continuous
 62
     7
100
AcDbLine
 10
-58.09368594448802
 20
-771.6654637025822
 30
0.0
 11
-54.01613412502388
 21
-773.3813150513124
 31
0.0
  0
LINE
  5
1B2
330
4D
100
AcDbEntity
  8
0
  6
Continuous
 62
     7
100
AcDbLine
 10
-57.20160203315368
 20
-769.5455141052735
 30
0.0
 11
-53.12405021368954
 21
-771.261365454
 31
0.0
  0
LINE
  5
1B3
330
4D
100
AcDbEntity
  8
0
  6
Continuous
 62
     7
100
AcDbLine
 10
-73.0469068836062
 20
-783.66893049793
 30
0.0
 11
-61.80539204050342
 21
-785.213137681174
 31
0.0
  0
LINE
  5
1B4
330
4D
100
AcDbEntity
  8
0
  6
Continuous
 62
     7
100
AcDbLine
 10
84.63294546012935
 20
-807.6504533746156
 30
0.0
 11
73.04732902321871
 21
-806.0589781709714
 31
0.0
  0
LINE
  5
1B5
330
4D
100
AcDbEntity
  8
0
  6
Continuous
 62
     7
100
AcDbLine
 10
84.94594901886398
 20
-805.371851002059
 30
0.0
 11
84.63294546012935
 21
-807.6504533746156
 31
0.0
  0
LINE
  5
1B6
330
4D
100
AcDbEntity
  8
0
  6
Continuous
 62
     7
100
AcDbLine
 10
26.74117132294145
 20
-758.541104679156
 30
0.0
 11
28.80068388512905
 21
-755.888059808538
 31
0.0
  0
LINE
  5
1B7
330
4D
100
AcDbEntity
  8
0
  6
Continuous
 62
     7
100
AcDbLine
 10
16.42894993489267
 20
-752.8577059701456
 30
0.0
 11
17.73162776824779
 21
-749.7620203365914
 31
0.0
  0
LINE
  5
1B8
330
4D
100
AcDbEntity
  8
0
  6
Continuous
 62
     7
100
AcDbLine
 10
18.54889953220504
 20
-753.7497898814836
 30
0.0
 11
19.85157736556016
 21
-750.6541042479257
 31
0.0
  0
LINE
  5
1B9
330
4D
100
AcDbEntity
  8
0
  6
Continuous
 62
     7
100
AcDbLine
 10
57.73611012078277
 20
-801.6341315516293
 30
0.0
 11
55.82220870250262
 21
-801.3712256746767
 31
0.0
  0
LINE
  5
1BA
330
4D
100
AcDbEntity
  8
0
  6
Continuous
 62
     7
100
AcDbLine
 10
57.42310656204813
 20
-803.9127339241859
 30
0.0
 11
55.50920514376799
 21
-803.6498280472297
 31
0.0
  0
LINE
  5
1BB
330
4D
100
AcDbEntity
  8
0
  6
Continuous
 62
     7
100
AcDbLine
 10
61.80581418011593
 20
-804.5147709877274
 30
0.0
 11
57.42310656204813
 21
-803.9127339241859
 31
0.0
  0
LINE
  5
1BC
330
4D
100
AcDbEntity
  8
0
  6
Continuous
 62
     7
100
AcDbLine
 10
55.82220870250262
 20
-801.3712256746767
 30
0.0
 11
48.15456227212803
 21
-800.3179481705665
 31
0.0
  0
LINE
  5
1BD
330
4D
100
AcDbEntity
  8
0
  6
Continuous
 62
     7
100
AcDbLine
 10
55.50920514376799
 20
-803.6498280472297
 30
0.0
 11
47.8415587133934
 21
-802.5965505431232
 31
0.0
  0
LINE
  5
1BE
330
4D
100
AcDbEntity
  8
0
  6
Continuous
 62
     7
100
AcDbLine
 10
62.11881773885057
 20
-802.2361686151708
 30
0.0
 11
57.73611012078277
 21
-801.6341315516293
 31
0.0
  0
LINE
  5
1BF
330
4D
100
AcDbEntity
  8
0
  6
Continuous
 62
     7
100
AcDbLine
 10
-35.23061832164945
 20
-823.0280631030691
 30
0.0
 11
-37.90661323505969
 21
-825.0576665871813
 31
0.0
  0
LINE
  5
1C0
330
4D
100
AcDbEntity
  8
0
  6
Continuous
 62
     7
100
AcDbLine
 10
-36.62050657199484
 20
-821.1955209748921
 30
0.0
 11
-39.29650148540509
 21
-823.2251244590043
 31
0.0
  0
LINE
  5
1C1
330
4D
100
AcDbEntity
  8
0
  6
Continuous
 62
     7
100
AcDbLine
 10
1.48812865560126
 20
-797.4748346707274
 30
0.0
 11
6.26253193353864
 21
-835.3828800038173
 31
0.0
  0
LINE
  5
1C2
330
4D
100
AcDbEntity
  8
0
  6
Continuous
 62
     7
100
AcDbLine
 10
-0.79384350608211
 20
-797.7622421398592
 30
0.0
 11
3.98055977185891
 21
-835.670287472949
 31
0.0
  0
LINE
  5
1C3
330
4D
100
AcDbEntity
  8
0
  6
Continuous
 62
     7
100
AcDbLine
 10
-16.42852779528016
 20
-836.8702026987521
 30
0.0
 11
-17.73120562863528
 21
-839.9658883323063
 31
0.0
  0
LINE
  5
1C4
330
4D
100
AcDbEntity
  8
0
  6
Continuous
 62
     7
100
AcDbLine
 10
-18.54847739258889
 20
-835.9781187874178
 30
0.0
 11
-19.85115522594401
 21
-839.073804420972
 31
0.0
  0
LINE
  5
1C5
330
4D
100
AcDbEntity
  8
0
  6
Continuous
 62
     7
100
AcDbLine
 10
-7.27531737590812
 20
-839.3779414416058
 30
0.0
 11
-7.7323851388644
 21
-842.705301978036
 31
0.0
  0
LINE
  5
1C6
330
4D
100
AcDbEntity
  8
0
  6
Continuous
 62
     7
100
AcDbLine
 10
5.76047948735163
 20
-802.1206276602825
 30
0.0
 11
24.71866133490062
 21
-816.8375342997642
 31
0.0
  0
LINE
  5
1C7
330
4D
100
AcDbEntity
  8
0
  6
Continuous
 62
     7
100
AcDbLine
 10
18.08624148256808
 20
-836.1837300628977
 30
0.0
 11
19.35408945680706
 21
-839.2938426964756
 31
0.0
  0
LINE
  5
1C8
330
4D
100
AcDbEntity
  8
0
  6
Continuous
 62
     7
100
AcDbLine
 10
6.77563004265198
 20
-839.4568019681574
 30
0.0
 11
7.19532076279961
 21
-842.7890832856247
 31
0.0
  0
LINE
  5
1C9
330
4D
100
AcDbEntity
  8
0
  6
Continuous
 62
     7
100
AcDbLine
 10
-4.99671500335148
 20
-839.6909450003404
 30
0.0
 11
-5.45378276630777
 21
-843.0183055367706
 31
0.0
  0
LINE
  5
1CA
330
4D
100
AcDbEntity
  8
0
  6
Continuous
 62
     7
100
AcDbLine
 10
4.49365788097225
 20
-839.7442094372891
 30
0.0
 11
4.91334860111624
 21
-843.0764907547564
 31
0.0
  0
LINE
  5
1CB
330
4D
100
AcDbEntity
  8
0
  6
Continuous
 62
     7
100
AcDbLine
 10
15.95641216344325
 20
-837.051962215839
 30
0.0
 11
17.22426013768222
 21
-840.1620748494133
 31
0.0
  0
LINE
  5
1CC
330
4D
100
AcDbEntity
  8
0
  6
Continuous
 62
     7
100
AcDbLine
 10
5.61441990917979
 20
-800.6780027611385
 30
0.0
 11
5.58375968701534
 21
-800.7174989733212
 31
0.0
  0
LINE
  5
1CD
330
4D
100
AcDbEntity
  8
0
  6
Continuous
 62
     7
100
AcDbLine
 10
26.33177771024953
 20
-831.48467197625
 30
0.0
 11
28.36138119436168
 21
-834.1606668896602
 31
0.0
  0
LINE
  5
1CE
330
4D
100
AcDbEntity
  8
0
  6
Continuous
 62
     7
100
AcDbLine
 10
28.16431983843017
 20
-830.0947837259046
 30
0.0
 11
30.19392332254233
 21
-832.7707786393148
 31
0.0
  0
LINE
  5
1CF
330
4D
100
AcDbEntity
  8
0
  6
Continuous
 62
     7
100
AcDbLine
 10
34.91269050548385
 20
-823.4217403479743
 30
0.0
 11
37.56573537610188
 21
-825.4812529101582
 31
0.0
  0
LINE
  5
1D0
330
4D
100
AcDbEntity
  8
0
  6
Continuous
 62
     7
100
AcDbLine
 10
36.32306072509914
 20
-821.6049145875841
 30
0.0
 11
38.97610559571717
 21
-823.664427149768
 31
0.0
  0
LINE
  5
1D1
330
4D
100
AcDbEntity
  8
0
  6
Continuous
 62
     7
100
AcDbLine
 10
42.0064594341095
 20
-811.2926931995353
 30
0.0
 11
45.10214506766374
 21
-812.5953710328904
 31
0.0
  0
LINE
  5
1D2
330
4D
100
AcDbEntity
  8
0
  6
Continuous
 62
     7
100
AcDbLine
 10
41.11437552277516
 20
-813.4126427968476
 30
0.0
 11
44.2100611563294
 21
-814.7153206302028
 31
0.0
  0
LINE
  5
1D3
330
4D
100
AcDbEntity
  8
0
  6
Continuous
 62
     7
100
AcDbLine
 10
26.12179002185826
 20
-816.6608144994279
 30
0.0
 11
26.15245024402634
 21
-816.6213182872489
 31
0.0
  0
LINE
  5
1D4
330
4D
100
AcDbEntity
  8
0
  6
Continuous
 62
     7
100
AcDbLine
 10
26.15245024402634
 20
-816.6213182872489
 30
0.0
 11
31.66917714253964
 21
-820.9038573711005
 31
0.0
  0
LINE
  5
1D5
330
4D
100
AcDbEntity
  8
0
  6
Continuous
 62
     7
100
AcDbLine
 10
27.56282046364163
 20
-814.8044925268587
 30
0.0
 11
33.07954736215493
 21
-819.0870316107139
 31
0.0
  0
LINE
  5
1D6
330
4D
100
AcDbEntity
  8
0
  6
Continuous
 62
     7
100
AcDbLine
 10
27.56282046364163
 20
-814.8044925268587
 30
0.0
 11
27.59348068580971
 21
-814.764996314676
 31
0.0
  0
LINE
  5
1D7
330
4D
100
AcDbEntity
  8
0
  6
Continuous
 62
     7
100
AcDbLine
 10
-61.90982486534244
 20
-803.8204206249466
 30
0.0
 11
-57.5206357300774
 21
-803.2676155723311
 31
0.0
  0
LINE
  5
1D8
330
4D
100
AcDbEntity
  8
0
  6
Continuous
 62
     7
100
AcDbLine
 10
-62.19723233447417
 20
-801.5384484632632
 30
0.0
 11
-57.80804319920549
 21
-800.9856434106478
 31
0.0
  0
LINE
  5
1D9
330
4D
100
AcDbEntity
  8
0
  6
Continuous
 62
     7
100
AcDbLine
 10
-57.80804319920549
 20
-800.9856434106478
 30
0.0
 11
-55.89131134229297
 21
-800.7442368495831
 31
0.0
  0
LINE
  5
1DA
330
4D
100
AcDbEntity
  8
0
  6
Continuous
 62
     7
100
AcDbLine
 10
-28.55757494371551
 20
-829.7764337701228
 30
0.0
 11
-30.6170875059031
 21
-832.4294786407445
 31
0.0
  0
LINE
  5
1DB
330
4D
100
AcDbEntity
  8
0
  6
Continuous
 62
     7
100
AcDbLine
 10
-26.74074918332531
 20
-831.1868039897417
 30
0.0
 11
-28.8002617455129
 21
-833.8398488603598
 31
0.0
  0
LINE
  5
1DC
330
4D
100
AcDbEntity
  8
0
  6
Continuous
 62
     7
100
AcDbLine
 10
-2.61066926647231
 20
-796.3518719202439
 30
0.0
 11
-26.0396922490761
 21
-826.5329207707473
 31
0.0
  0
LINE
  5
1DD
330
4D
100
AcDbEntity
  8
0
  6
Continuous
 62
     7
100
AcDbLine
 10
-41.31956465864255
 20
-812.949984747207
 30
0.0
 11
-44.4296772922205
 21
-814.2178327214497
 31
0.0
  0
LINE
  5
1DE
330
4D
100
AcDbEntity
  8
0
  6
Continuous
 62
     7
100
AcDbLine
 10
-42.18779681158026
 20
-810.8201554280859
 30
0.0
 11
-45.29790944515821
 21
-812.0880034023248
 31
0.0
  0
LINE
  5
1DF
330
4D
100
AcDbEntity
  8
0
  6
Continuous
 62
     7
100
AcDbLine
 10
-55.60390387316124
 20
-803.0262090112628
 30
0.0
 11
-47.9249178813659
 21
-802.0590640274422
 31
0.0
  0
LINE
  5
1E0
330
4D
100
AcDbEntity
  8
0
  6
Continuous
 62
     7
100
AcDbLine
 10
-57.5206357300774
 20
-803.2676155723311
 30
0.0
 11
-55.60390387316124
 21
-803.0262090112628
 31
0.0
  0
LINE
  5
1E1
330
4D
100
AcDbEntity
  8
0
  6
Continuous
 62
     7
100
AcDbLine
 10
-43.28744673875895
 20
-799.156818349129
 30
0.0
 11
-44.88004403303035
 21
-799.3574011456149
 31
0.0
  0
LINE
  5
1E2
330
4D
100
AcDbEntity
  8
0
  6
Continuous
 62
     7
100
AcDbLine
 10
-43.23653409081794
 20
-790.0854746687946
 30
0.0
 11
-44.82677959608532
 21
-789.8670282612911
 31
0.0
  0
LINE
  5
1E3
330
4D
100
AcDbEntity
  8
0
  6
Continuous
 62
     7
100
AcDbLine
 10
-0.79384350608211
 20
-797.7622421398592
 30
0.0
 11
-24.2228664886859
 21
-827.9432909903626
 31
0.0
  0
LINE
  5
1E4
330
4D
100
AcDbEntity
  8
0
  6
Continuous
 62
     7
100
AcDbLine
 10
7.27573951552063
 20
-750.3499672272919
 30
0.0
 11
7.73280727848055
 21
-747.0226066908617
 31
0.0
  0
LINE
  5
1E5
330
4D
100
AcDbEntity
  8
0
  6
Continuous
 62
     7
100
AcDbLine
 10
-55.89131134229297
 20
-800.7442368495831
 30
0.0
 11
-48.21232535049762
 21
-799.7770918657588
 31
0.0
  0
LINE
  5
1E6
330
4D
100
AcDbEntity
  8
0
  6
Continuous
 62
     7
100
AcDbLine
 10
-44.51377603735068
 20
-787.5884258887345
 30
0.0
 11
-47.84113657378089
 21
-787.1313581257782
 31
0.0
  0
LINE
  5
1E7
330
4D
100
AcDbEntity
  8
0
  6
Continuous
 62
     7
100
AcDbLine
 10
-44.82677959608532
 20
-789.8670282612911
 30
0.0
 11
-48.15414013251552
 21
-789.4099604983348
 31
0.0
  0
LINE
  5
1E8
330
4D
100
AcDbEntity
  8
0
  6
Continuous
 62
     7
100
AcDbLine
 10
-36.32263858548663
 20
-768.1229940813173
 30
0.0
 11
-38.97568345610466
 21
-766.0634815191297
 31
0.0
  0
LINE
  5
1E9
330
4D
100
AcDbEntity
  8
0
  6
Continuous
 62
     7
100
AcDbLine
 10
-34.9122683658677
 20
-766.3061683209271
 30
0.0
 11
-37.56531323648574
 21
-764.2466557587395
 31
0.0
  0
LINE
  5
1EA
330
4D
100
AcDbEntity
  8
0
  6
Continuous
 62
     7
100
AcDbLine
 10
-28.16389769881403
 20
-759.6331249429932
 30
0.0
 11
-30.19350118292618
 21
-756.9571300295829
 31
0.0
  0
LINE
  5
1EB
330
4D
100
AcDbEntity
  8
0
  6
Continuous
 62
     7
100
AcDbLine
 10
-26.33135557063338
 20
-758.2432366926478
 30
0.0
 11
-28.36095905474554
 21
-755.5672417792375
 31
0.0
  0
LINE
  5
1EC
330
4D
100
AcDbEntity
  8
0
  6
Continuous
 62
     7
100
AcDbLine
 10
-42.00603729449335
 20
-778.4352154693624
 30
0.0
 11
-45.10172292805123
 21
-777.1325376360073
 31
0.0
  0
LINE
  5
1ED
330
4D
100
AcDbEntity
  8
0
  6
Continuous
 62
     7
100
AcDbLine
 10
-41.11395338315901
 20
-776.3152658720537
 30
0.0
 11
-44.20963901671689
 21
-775.0125880386986
 31
0.0
  0
LINE
  5
1EE
330
4D
100
AcDbEntity
  8
0
  6
Continuous
 62
     7
100
AcDbLine
 10
-18.08581934295194
 20
-753.5441786060001
 30
0.0
 11
-19.35366731719455
 21
-750.4340659724221
 31
0.0
  0
LINE
  5
1EF
330
4D
100
AcDbEntity
  8
0
  6
Continuous
 62
     7
100
AcDbLine
 10
-15.9559900238271
 20
-752.6759464530624
 30
0.0
 11
-17.22383799806971
 21
-749.5658338194844
 31
0.0
  0
LINE
  5
1F0
330
4D
100
AcDbEntity
  8
0
  6
Continuous
 62
     7
100
AcDbLine
 10
-6.77520790303947
 20
-750.271106700744
 30
0.0
 11
-7.19489862318346
 21
-746.9388253832731
 31
0.0
  0
LINE
  5
1F1
330
4D
100
AcDbEntity
  8
0
  6
Continuous
 62
     7
100
AcDbLine
 10
-27.5623983279836
 20
-774.9234161471395
 30
0.0
 11
-33.07912559373267
 21
-770.6408767863722
 31
0.0
  0
LINE
  5
1F2
330
4D
100
AcDbEntity
  8
0
  6
Continuous
 62
     7
100
AcDbLine
 10
-26.15202810441019
 20
-773.1065903816525
 30
0.0
 11
-26.12136788224575
 21
-773.0670941694698
 31
0.0
  0
LINE
  5
1F3
330
4D
100
AcDbEntity
  8
0
  6
Continuous
 62
     7
100
AcDbLine
 10
-26.15202810441019
 20
-773.1065903816525
 30
0.0
 11
-31.66875535829217
 21
-768.8240510055948
 31
0.0
  0
LINE
  5
1F4
330
4D
100
AcDbEntity
  8
0
  6
Continuous
 62
     7
100
AcDbLine
 10
-2.61066926647231
 20
-796.3518719202439
 30
0.0
 11
-40.51871459955851
 21
-801.1262751981812
 31
0.0
  0
LINE
  5
1F5
330
4D
100
AcDbEntity
  8
0
  6
Continuous
 62
     7
100
AcDbLine
 10
-40.80612206869023
 20
-798.8443030365015
 30
0.0
 11
-2.89807673560404
 21
-794.0698997585605
 31
0.0
  0
LINE
  5
1F6
330
4D
100
AcDbEntity
  8
0
  6
Continuous
 62
     7
100
AcDbLine
 10
-44.59263656389862
 20
-801.6393733072946
 30
0.0
 11
-47.9249178813659
 21
-802.0590640274422
 31
0.0
  0
LINE
  5
1F7
330
4D
100
AcDbEntity
  8
0
  6
Continuous
 62
     7
100
AcDbLine
 10
-44.88004403303035
 20
-799.3574011456149
 30
0.0
 11
-48.21232535049762
 21
-799.7770918657588
 31
0.0
  0
LINE
  5
1F8
330
4D
100
AcDbEntity
  8
0
  6
Continuous
 62
     7
100
AcDbLine
 10
0.79426564569462
 20
-791.9656665290386
 30
0.0
 11
-3.98013761939706
 21
-754.0576211946973
 31
0.0
  0
LINE
  5
1F9
330
4D
100
AcDbEntity
  8
0
  6
Continuous
 62
     7
100
AcDbLine
 10
-1.48770651598511
 20
-792.2530739981703
 30
0.0
 11
-6.26210980668452
 21
-754.3450286670559
 31
0.0
  0
LINE
  5
1FA
330
4D
100
AcDbEntity
  8
0
  6
Continuous
 62
     7
100
AcDbLine
 10
-24.71823919528447
 20
-772.8903743691335
 30
0.0
 11
-5.76005734773912
 21
-787.6072810086189
 31
0.0
  0
LINE
  5
1FB
330
4D
100
AcDbEntity
  8
0
  6
Continuous
 62
     7
100
AcDbLine
 10
-27.59305854619356
 20
-774.9629123542254
 30
0.0
 11
-27.5623983279836
 21
-774.9234161471395
 31
0.0
  0
LINE
  5
1FC
330
4D
100
AcDbEntity
  8
0
  6
Continuous
 62
     7
100
AcDbLine
 10
-4.4932357413561
 20
-749.9836992316123
 30
0.0
 11
-4.91292646150373
 21
-746.651417914145
 31
0.0
  0
LINE
  5
1FD
330
4D
100
AcDbEntity
  8
0
  6
Continuous
 62
     7
100
AcDbLine
 10
-8.45815689830829
 20
-791.0829476806684
 30
0.0
 11
-27.41633874585727
 21
-776.366041041183
 31
0.0
  0
LINE
  5
1FE
330
4D
100
AcDbEntity
  8
0
  6
Continuous
 62
     7
100
AcDbLine
 10
4.99713714296399
 20
-750.0369636685573
 30
0.0
 11
5.45420490592392
 21
-746.7096031321271
 31
0.0
  0
LINE
  5
1FF
330
4D
100
AcDbEntity
  8
0
  6
Continuous
 62
     7
100
AcDbLine
 10
-7.02436798918256
 20
-790.8667316681494
 30
0.0
 11
-7.05502821135065
 21
-790.9062278803322
 31
0.0
  0
LINE
  5
200
330
4D
100
AcDbEntity
  8
0
  6
Continuous
 62
     7
100
AcDbLine
 10
-5.58333754740283
 20
-789.0104096955765
 30
0.0
 11
-5.61399776560916
 21
-789.0499059026624
 31
0.0
  0
LINE
  5
201
330
4D
100
AcDbEntity
  8
0
  6
Continuous
 62
     7
100
AcDbLine
 10
-2.89807673560404
 20
-794.0698997585605
 30
0.0
 11
-7.02436798918256
 21
-790.8667316681494
 31
0.0
  0
LINE
  5
202
330
4D
100
AcDbEntity
  8
0
  6
Continuous
 62
     7
100
AcDbLine
 10
-1.48770651598511
 20
-792.2530739981703
 30
0.0
 11
-5.61399776560916
 21
-789.0499059026624
 31
0.0
  0
LINE
  5
203
330
4D
100
AcDbEntity
  8
0
  6
Continuous
 62
     7
100
AcDbLine
 10
0.79426564569462
 20
-791.9656665290386
 30
0.0
 11
24.22328862829841
 21
-761.7846176785351
 31
0.0
  0
LINE
  5
204
330
4D
100
AcDbEntity
  8
0
  6
Continuous
 62
     7
100
AcDbLine
 10
2.89849887521655
 20
-795.6580089103372
 30
0.0
 11
40.80654420830638
 21
-790.8836056323998
 31
0.0
  0
LINE
  5
205
330
4D
100
AcDbEntity
  8
0
  6
Continuous
 62
     7
100
AcDbLine
 10
2.61109140608482
 20
-793.3760367486575
 30
0.0
 11
40.51913673917466
 21
-788.6016334707165
 31
0.0
  0
LINE
  5
206
330
4D
100
AcDbEntity
  8
0
  6
Continuous
 62
     7
100
AcDbLine
 10
28.55799708333166
 20
-759.9514748987749
 30
0.0
 11
30.61750964551925
 21
-757.2984300281569
 31
0.0
  0
LINE
  5
207
330
4D
100
AcDbEntity
  8
0
  6
Continuous
 62
     7
100
AcDbLine
 10
35.23104046126196
 20
-766.6998455658286
 30
0.0
 11
37.90703537467584
 21
-764.6702420817164
 31
0.0
  0
LINE
  5
208
330
4D
100
AcDbEntity
  8
0
  6
Continuous
 62
     7
100
AcDbLine
 10
41.31998679825506
 20
-776.7779239216907
 30
0.0
 11
44.43009943183301
 21
-775.5100759474481
 31
0.0
  0
LINE
  5
209
330
4D
100
AcDbEntity
  8
0
  6
Continuous
 62
     7
100
AcDbLine
 10
44.82720173569783
 20
-799.8608804076066
 30
0.0
 11
48.15456227212803
 21
-800.3179481705665
 31
0.0
  0
LINE
  5
20A
330
4D
100
AcDbEntity
  8
0
  6
Continuous
 62
     7
100
AcDbLine
 10
44.88046617264649
 20
-790.3705075232865
 30
0.0
 11
48.21274749011377
 21
-789.9508168031389
 31
0.0
  0
LINE
  5
20B
330
4D
100
AcDbEntity
  8
0
  6
Continuous
 62
     7
100
AcDbLine
 10
44.59305870351477
 20
-788.0885353616031
 30
0.0
 11
47.92534002098205
 21
-787.6688446414591
 31
0.0
  0
LINE
  5
20C
330
4D
100
AcDbEntity
  8
0
  6
Continuous
 62
     7
100
AcDbLine
 10
44.51419817696683
 20
-802.1394827801632
 30
0.0
 11
47.8415587133934
 21
-802.5965505431232
 31
0.0
  0
LINE
  5
20D
330
4D
100
AcDbEntity
  8
0
  6
Continuous
 62
     7
100
AcDbLine
 10
42.1882189511964
 20
-778.9077532408155
 30
0.0
 11
45.29833158477072
 21
-777.6399052665729
 31
0.0
  0
LINE
  5
20E
330
4D
100
AcDbEntity
  8
0
  6
Continuous
 62
     7
100
AcDbLine
 10
36.62092871160735
 20
-768.5323876940056
 30
0.0
 11
39.29692362502124
 21
-766.5027842098971
 31
0.0
  0
LINE
  5
20F
330
4D
100
AcDbEntity
  8
0
  6
Continuous
 62
     7
100
AcDbLine
 10
2.61109140608482
 20
-793.3760367486575
 30
0.0
 11
26.04011438868861
 21
-763.1949878981541
 31
0.0
  0
LINE
  5
210
330
4D
100
AcDbEntity
  8
0
  6
Continuous
 62
     7
100
AcDbLine
 10
2.89849887521655
 20
-795.6580089103372
 30
0.0
 11
7.02479012879871
 21
-798.8611770007483
 31
0.0
  0
LINE
  5
211
330
4D
100
AcDbEntity
  8
0
  6
Continuous
 62
     7
100
AcDbLine
 10
1.48812865560126
 20
-797.4748346707274
 30
0.0
 11
5.61441990917979
 21
-800.6780027611385
 31
0.0
  0
LINE
  5
212
330
4D
100
AcDbEntity
  8
0
  6
Continuous
 62
     7
100
AcDbLine
 10
27.41676088547342
 20
-813.3618676277147
 30
0.0
 11
8.45857903792444
 21
-798.6449609882293
 31
0.0
  0
LINE
  5
213
330
4D
100
AcDbEntity
  8
0
  6
Continuous
 62
     7
100
AcDbLine
 10
7.05545035096316
 20
-798.8216807885656
 30
0.0
 11
7.02479012879871
 21
-798.8611770007483
 31
0.0
  0
LINE
  5
214
330
4D
100
AcDbEntity
  8
0
  6
Continuous
 62
     7
100
AcDbLine
 10
-85.05812229904745
 20
-804.417708183053
 30
0.0
 11
-73.45537207664506
 21
-802.9563770010245
 31
0.0
  0
LINE
  5
215
330
4D
100
AcDbEntity
  8
0
  6
Continuous
 62
     7
100
AcDbLine
 10
-73.45537207664506
 20
-802.9563770010245
 30
0.0
 11
-62.19723233447417
 21
-801.5384484632632
 31
0.0
  0
LINE
  5
216
330
4D
100
AcDbEntity
  8
0
  6
Continuous
 62
     7
100
AcDbLine
 10
-84.77071482991573
 20
-806.6996803447328
 30
0.0
 11
-73.16796460751334
 21
-805.2383491627043
 31
0.0
  0
LINE
  5
217
330
4D
100
AcDbEntity
  8
0
  6
Continuous
 62
     7
100
AcDbLine
 10
-84.77071482991573
 20
-806.6996803447328
 30
0.0
 11
-85.05812229904745
 21
-804.417708183053
 31
0.0
  0
LINE
  5
218
330
4D
100
AcDbEntity
  8
0
  6
Continuous
 62
     7
100
AcDbLine
 10
-73.16796460751334
 20
-805.2383491627043
 30
0.0
 11
-61.90982486534244
 21
-803.8204206249466
 31
0.0
  0
LINE
  5
219
330
4D
100
AcDbEntity
  8
0
  6
Continuous
 62
     7
100
AcDbLine
 10
-29.71933689600314
 20
-862.5245667223644
 30
0.0
 11
-25.31822915936914
 21
-852.0657674374088
 31
0.0
  0
LINE
  5
21A
330
4D
100
AcDbEntity
  8
0
  6
Continuous
 62
     7
100
AcDbLine
 10
73.04732902321871
 20
-806.0589781709714
 30
0.0
 11
61.80581418011593
 21
-804.5147709877274
 31
0.0
  0
LINE
  5
21B
330
4D
100
AcDbEntity
  8
0
  6
Continuous
 62
     7
100
AcDbLine
 10
-67.49570125653895
 20
-847.4994566814494
 30
0.0
 11
-68.88558950688434
 21
-845.6669145532724
 31
0.0
  0
LINE
  5
21C
330
4D
100
AcDbEntity
  8
0
  6
Continuous
 62
     7
100
AcDbLine
 10
-68.88558950688434
 20
-845.6669145532724
 30
0.0
 11
-59.5679786515318
 21
-838.5999895150926
 31
0.0
  0
LINE
  5
21D
330
4D
100
AcDbEntity
  8
0
  6
Continuous
 62
     7
100
AcDbLine
 10
-67.49570125653895
 20
-847.4994566814494
 30
0.0
 11
-58.17809040118641
 21
-840.4325316432696
 31
0.0
  0
LINE
  5
21E
330
4D
100
AcDbEntity
  8
0
  6
Continuous
 62
     7
100
AcDbLine
 10
-32.13521248291704
 20
-874.1955926710834
 30
0.0
 11
-27.59938729869441
 21
-863.4166506337024
 31
0.0
  0
LINE
  5
21F
330
4D
100
AcDbEntity
  8
0
  6
Continuous
 62
     7
100
AcDbLine
 10
-32.13521248291704
 20
-874.1955926710834
 30
0.0
 11
-34.25516208022577
 21
-873.3035087597455
 31
0.0
  0
LINE
  5
220
330
4D
100
AcDbEntity
  8
0
  6
Continuous
 62
     7
100
AcDbLine
 10
-34.25516208022577
 20
-873.3035087597455
 30
0.0
 11
-29.71933689600314
 21
-862.5245667223644
 31
0.0
  0
LINE
  5
221
330
4D
100
AcDbEntity
  8
0
  6
Continuous
 62
     7
100
AcDbLine
 10
79.33184940644082
 20
-826.9993778871722
 30
0.0
 11
68.55290736905977
 21
-822.4635527029495
 31
0.0
  0
LINE
  5
222
330
4D
100
AcDbEntity
  8
0
  6
Continuous
 62
     7
100
AcDbLine
 10
52.6357134168104
 20
-862.3598666607977
 30
0.0
 11
50.80317128862976
 21
-863.7497549111431
 31
0.0
  0
LINE
  5
223
330
4D
100
AcDbEntity
  8
0
  6
Continuous
 62
     7
100
AcDbLine
 10
52.6357134168104
 20
-862.3598666607977
 30
0.0
 11
45.56878837862701
 21
-853.0422558054452
 31
0.0
  0
LINE
  5
224
330
4D
100
AcDbEntity
  8
0
  6
Continuous
 62
     7
100
AcDbLine
 10
50.80317128862976
 20
-863.7497549111431
 30
0.0
 11
43.73624625044999
 21
-854.4321440557906
 31
0.0
  0
LINE
  5
225
330
4D
100
AcDbEntity
  8
0
  6
Continuous
 62
     7
100
AcDbLine
 10
45.56878837862701
 20
-853.0422558054452
 30
0.0
 11
38.71175637309011
 21
-844.0013850582473
 31
0.0
  0
LINE
  5
226
330
4D
100
AcDbEntity
  8
0
  6
Continuous
 62
     7
100
AcDbLine
 10
78.43976549510285
 20
-829.1193274844845
 30
0.0
 11
67.66082345772543
 21
-824.5835023002619
 31
0.0
  0
LINE
  5
227
330
4D
100
AcDbEntity
  8
0
  6
Continuous
 62
     7
100
AcDbLine
 10
79.33184940644082
 20
-826.9993778871722
 30
0.0
 11
78.43976549510285
 21
-829.1193274844845
 31
0.0
  0
LINE
  5
228
330
4D
100
AcDbEntity
  8
0
  6
Continuous
 62
     7
100
AcDbLine
 10
51.57318549882643
 20
-726.5527356611528
 30
0.0
 11
44.40211932452462
 21
-735.790436212199
 31
0.0
  0
LINE
  5
229
330
4D
100
AcDbEntity
  8
0
  6
Continuous
 62
     7
100
AcDbLine
 10
51.57318549882643
 20
-726.5527356611528
 30
0.0
 11
53.39001125921664
 21
-727.9631058807718
 31
0.0
  0
LINE
  5
22A
330
4D
100
AcDbEntity
  8
0
  6
Continuous
 62
     7
100
AcDbLine
 10
-68.31100760348977
 20
-743.2909799054287
 30
0.0
 11
-66.90063738387084
 21
-741.4741541450385
 31
0.0
  0
LINE
  5
22B
330
4D
100
AcDbEntity
  8
0
  6
Continuous
 62
     7
100
AcDbLine
 10
-68.31100760348977
 20
-743.2909799054287
 30
0.0
 11
-59.07330705244362
 21
-750.4620460797341
 31
0.0
  0
LINE
  5
22C
330
4D
100
AcDbEntity
  8
0
  6
Continuous
 62
     7
100
AcDbLine
 10
-59.07330705244362
 20
-750.4620460797341
 30
0.0
 11
-50.10997321291848
 21
-757.4201261506823
 31
0.0
  0
LINE
  5
22D
330
4D
100
AcDbEntity
  8
0
  6
Continuous
 62
     7
100
AcDbLine
 10
68.31142974310228
 20
-846.436928763469
 30
0.0
 11
59.07372919205614
 21
-839.2658625891636
 31
0.0
  0
LINE
  5
22E
330
4D
100
AcDbEntity
  8
0
  6
Continuous
 62
     7
100
AcDbLine
 10
66.90105952348699
 20
-848.2537545238592
 30
0.0
 11
57.66335897244085
 21
-841.0826883495538
 31
0.0
  0
LINE
  5
22F
330
4D
100
AcDbEntity
  8
0
  6
Continuous
 62
     7
100
AcDbLine
 10
-66.90063738387084
 20
-741.4741541450385
 30
0.0
 11
-57.6629368328247
 21
-748.6452203193439
 31
0.0
  0
LINE
  5
230
330
4D
100
AcDbEntity
  8
0
  6
Continuous
 62
     7
100
AcDbLine
 10
68.31142974310228
 20
-846.436928763469
 30
0.0
 11
66.90105952348699
 21
-848.2537545238592
 31
0.0
  0
LINE
  5
231
330
4D
100
AcDbEntity
  8
0
  6
Continuous
 62
     7
100
AcDbLine
 10
-51.57276335921029
 20
-863.1751730077449
 30
0.0
 11
-44.40169718490847
 21
-853.9374724566987
 31
0.0
  0
LINE
  5
232
330
4D
100
AcDbEntity
  8
0
  6
Continuous
 62
     7
100
AcDbLine
 10
-53.38958911960049
 20
-861.7648027881296
 30
0.0
 11
-46.21852294529867
 21
-852.5271022370835
 31
0.0
  0
LINE
  5
233
330
4D
100
AcDbEntity
  8
0
  6
Continuous
 62
     7
100
AcDbLine
 10
53.39001125921664
 20
-727.9631058807718
 30
0.0
 11
46.21894508491118
 21
-737.2008064318179
 31
0.0
  0
LINE
  5
234
330
4D
100
AcDbEntity
  8
0
  6
Continuous
 62
     7
100
AcDbLine
 10
-51.57276335921029
 20
-863.1751730077449
 30
0.0
 11
-53.38958911960049
 21
-861.7648027881296
 31
0.0
  0
ARC
  5
235
330
4D
100
AcDbEntity
  8
1
  6
Continuous
 62
     7
100
AcDbCircle
 10
73.82510263055906
 20
-853.0523155937517
 30
0.0
 40
4.499999999997949
100
AcDbArc
 50
-66.37937020844888
 51
-53.6206297915424
  0
ARC
  5
236
330
4D
100
AcDbEntity
  8
1
  6
Continuous
 62
     7
100
AcDbCircle
 10
73.82510263055906
 20
-853.0523155937517
 30
0.0
 40
4.500000000001283
100
AcDbArc
 50
-156.3793702084674
 51
-143.6206297916072
  0
ARC
  5
237
330
4D
100
AcDbEntity
  8
1
  6
Continuous
 62
     7
100
AcDbCircle
 10
73.82510263055906
 20
-853.0523155937517
 30
0.0
 40
4.500000000001283
100
AcDbArc
 50
113.6206297915326
 51
126.3793702084301
  0
ARC
  5
238
330
4D
100
AcDbEntity
  8
1
  6
Continuous
 62
     7
100
AcDbCircle
 10
73.82510263055906
 20
-853.0523155937517
 30
0.0
 40
4.499999999999407
100
AcDbArc
 50
23.62062979159357
 51
36.37937020845761
  0
ARC
  5
239
330
4D
100
AcDbEntity
  8
1
  6
Continuous
 62
     7
100
AcDbCircle
 10
-13.47994220495798
 20
-887.89236648734
 30
0.0
 40
4.500000000001689
100
AcDbArc
 50
-126.3793702084301
 51
-113.620629791575
  0
ARC
  5
23A
330
4D
100
AcDbEntity
  8
1
  6
Continuous
 62
     7
100
AcDbCircle
 10
-13.47994220495798
 20
-887.89236648734
 30
0.0
 40
4.50000000000169
100
AcDbArc
 50
143.6206297915699
 51
156.3793702084674
  0
ARC
  5
23B
330
4D
100
AcDbEntity
  8
1
  6
Continuous
 62
     7
100
AcDbCircle
 10
-13.47994220495798
 20
-887.89236648734
 30
0.0
 40
4.49999999999876
100
AcDbArc
 50
53.62062979154238
 51
66.37937020844889
  0
ARC
  5
23C
330
4D
100
AcDbEntity
  8
1
  6
Continuous
 62
     7
100
AcDbCircle
 10
-13.47994220495798
 20
-887.89236648734
 30
0.0
 40
4.499999999998761
100
AcDbArc
 50
-36.37937020845759
 51
-23.62062979159356
  0
ARC
  5
23D
330
4D
100
AcDbEntity
  8
1
  6
Continuous
 62
     7
100
AcDbCircle
 10
-87.3048337657126
 20
-829.704005228039
 30
0.0
 40
4.499999999998948
100
AcDbArc
 50
173.6206297915557
 51
-173.6206297915557
  0
ARC
  5
23E
330
4D
100
AcDbEntity
  8
1
  6
Continuous
 62
     7
100
AcDbCircle
 10
-87.3048337657126
 20
-829.704005228039
 30
0.0
 40
4.499999999998948
100
AcDbArc
 50
83.62062979155571
 51
96.3793702084443
  0
ARC
  5
23F
330
4D
100
AcDbEntity
  8
1
  6
Continuous
 62
     7
100
AcDbCircle
 10
-87.3048337657126
 20
-829.704005228039
 30
0.0
 40
4.500000000002563
100
AcDbArc
 50
-6.37937020843915
 51
6.37937020843915
  0
ARC
  5
240
330
4D
100
AcDbEntity
  8
1
  6
Continuous
 62
     7
100
AcDbCircle
 10
-87.3048337657126
 20
-829.704005228039
 30
0.0
 40
4.500000000002563
100
AcDbArc
 50
-96.37937020843916
 51
-83.62062979156084
  0
ARC
  5
241
330
4D
100
AcDbEntity
  8
1
  6
Continuous
 62
     7
100
AcDbCircle
 10
-73.82468049094655
 20
-736.675593075146
 30
0.0
 40
4.499999999999407
100
AcDbArc
 50
113.6206297915936
 51
126.3793702084576
  0
ARC
  5
242
330
4D
100
AcDbEntity
  8
1
  6
Continuous
 62
     7
100
AcDbCircle
 10
-73.82468049094655
 20
-736.675593075146
 30
0.0
 40
4.499999999997949
100
AcDbArc
 50
23.62062979155112
 51
36.37937020845761
  0
ARC
  5
243
330
4D
100
AcDbEntity
  8
1
  6
Continuous
 62
     7
100
AcDbCircle
 10
-73.82468049094655
 20
-736.675593075146
 30
0.0
 40
4.500000000001283
100
AcDbArc
 50
-66.37937020846744
 51
-53.62062979156987
  0
ARC
  5
244
330
4D
100
AcDbEntity
  8
1
  6
Continuous
 62
     7
100
AcDbCircle
 10
-73.82468049094655
 20
-736.675593075146
 30
0.0
 40
4.500000000001283
100
AcDbArc
 50
-156.3793702084674
 51
-143.6206297915699
  0
ARC
  5
245
330
4D
100
AcDbEntity
  8
1
  6
Continuous
 62
     7
100
AcDbCircle
 10
13.48036434457049
 20
-701.835542181554
 30
0.0
 40
4.500000000001688
100
AcDbArc
 50
53.62062979156987
 51
66.37937020846745
  0
ARC
  5
246
330
4D
100
AcDbEntity
  8
1
  6
Continuous
 62
     7
100
AcDbCircle
 10
13.48036434457049
 20
-701.835542181554
 30
0.0
 40
4.499999999996604
100
AcDbArc
 50
-36.37937020842029
 51
-23.62062979155111
  0
ARC
  5
247
330
4D
100
AcDbEntity
  8
1
  6
Continuous
 62
     7
100
AcDbCircle
 10
13.48036434457049
 20
-701.835542181554
 30
0.0
 40
4.49999999999876
100
AcDbArc
 50
-126.3793702084576
 51
-113.6206297915936
  0
ARC
  5
248
330
4D
100
AcDbEntity
  8
1
  6
Continuous
 62
     7
100
AcDbCircle
 10
13.48036434457049
 20
-701.835542181554
 30
0.0
 40
4.500000000001688
100
AcDbArc
 50
143.6206297915699
 51
156.379370208425
  0
ARC
  5
249
330
4D
100
AcDbEntity
  8
1
  6
Continuous
 62
     7
100
AcDbCircle
 10
87.30525590532147
 20
-760.0239034408514
 30
0.0
 40
4.499999999998948
100
AcDbArc
 50
83.62062979155571
 51
96.3793702084443
  0
ARC
  5
24A
330
4D
100
AcDbEntity
  8
1
  6
Continuous
 62
     7
100
AcDbCircle
 10
87.30525590532147
 20
-760.0239034408514
 30
0.0
 40
4.499999999998948
100
AcDbArc
 50
173.6206297915557
 51
-173.6206297915557
  0
ARC
  5
24B
330
4D
100
AcDbEntity
  8
1
  6
Continuous
 62
     7
100
AcDbCircle
 10
87.30525590532147
 20
-760.0239034408514
 30
0.0
 40
4.499999999998948
100
AcDbArc
 50
-96.3793702084443
 51
-83.62062979155571
  0
ARC
  5
24C
330
4D
100
AcDbEntity
  8
1
  6
Continuous
 62
     7
100
AcDbCircle
 10
87.30525590532147
 20
-760.0239034408514
 30
0.0
 40
4.500000000002563
100
AcDbArc
 50
-6.37937020843915
 51
6.37937020843915
  0
ARC
  5
24D
330
4D
100
AcDbEntity
  8
0
  6
Continuous
 62
     7
100
AcDbCircle
 10
0.00021106980807
 20
-794.8639543344507
 30
0.0
 40
70.50000000000105
100
AcDbArc
 50
143.1130859681924
 51
156.2437790509309
  0
ARC
  5
24E
330
4D
100
AcDbEntity
  8
0
  6
Continuous
 62
     7
100
AcDbCircle
 10
0.00021106980807
 20
-794.8639543344507
 30
0.0
 40
73.9000000000018
100
AcDbArc
 50
143.0700807650843
 51
151.3664650696025
  0
ARC
  5
24F
330
4D
100
AcDbEntity
  8
0
  6
Continuous
 62
     7
100
AcDbCircle
 10
0.00021106980807
 20
-794.8639543344507
 30
0.0
 40
73.9000000000019
100
AcDbArc
 50
151.3664650696025
 51
156.2867842540391
  0
ARC
  5
250
330
4D
100
AcDbEntity
  8
0
  6
Continuous
 62
     7
100
AcDbCircle
 10
0.00021106980807
 20
-794.8639543344507
 30
0.0
 40
73.90000000000055
100
AcDbArc
 50
158.0700807650826
 51
171.2867842540396
  0
ARC
  5
251
330
4D
100
AcDbEntity
  8
0
  6
Continuous
 62
     7
100
AcDbCircle
 10
0.00021106980807
 20
-794.8639543344507
 30
0.0
 40
70.49999999999979
100
AcDbArc
 50
158.1130859681896
 51
171.2437790509339
  0
ARC
  5
252
330
4D
100
AcDbEntity
  8
0
  6
Continuous
 62
     7
100
AcDbCircle
 10
0.00021106980807
 20
-794.8639543344507
 30
0.0
 40
73.9000000000007
100
AcDbArc
 50
42.99031006067008
 51
51.28678425404065
  0
ARC
  5
253
330
4D
100
AcDbEntity
  8
0
  6
Continuous
 62
     7
100
AcDbCircle
 10
0.00021106980807
 20
-794.8639543344507
 30
0.0
 40
45.1046379249474
100
AcDbArc
 50
8.6394194571629
 51
20.71744556196385
  0
ARC
  5
254
330
4D
100
AcDbEntity
  8
0
  6
Continuous
 62
     7
100
AcDbCircle
 10
0.00021106980807
 20
-794.8639543344507
 30
0.0
 40
45.10463792494983
100
AcDbArc
 50
68.63941945716371
 51
80.71744556196464
  0
ARC
  5
255
330
4D
100
AcDbEntity
  8
0
  6
Continuous
 62
     7
100
AcDbCircle
 10
0.00021106980807
 20
-794.8639543344507
 30
0.0
 40
45.1046379249496
100
AcDbArc
 50
53.63941945716279
 51
65.71744556196235
  0
ARC
  5
256
330
4D
100
AcDbEntity
  8
0
  6
Continuous
 62
     7
100
AcDbCircle
 10
0.00021106980807
 20
-794.8639543344507
 30
0.0
 40
45.1046379249474
100
AcDbArc
 50
98.6394194571629
 51
110.7174455619639
  0
ARC
  5
257
330
4D
100
AcDbEntity
  8
0
  6
Continuous
 62
     7
100
AcDbCircle
 10
0.00021106980807
 20
-794.8639543344507
 30
0.0
 40
45.10463792494824
100
AcDbArc
 50
83.63941945716283
 51
95.71744556196211
  0
ARC
  5
258
330
4D
100
AcDbEntity
  8
0
  6
Continuous
 62
     7
100
AcDbCircle
 10
0.00021106980807
 20
-794.8639543344507
 30
0.0
 40
70.50000000000045
100
AcDbArc
 50
-21.8869140318038
 51
-8.75622094906608
  0
ARC
  5
259
330
4D
100
AcDbEntity
  8
0
  6
Continuous
 62
     7
100
AcDbCircle
 10
0.00021106980807
 20
-794.8639543344507
 30
0.0
 40
73.8999999999992
100
AcDbArc
 50
-21.92991923491481
 51
-8.7132157459608
  0
ARC
  5
25A
330
4D
100
AcDbEntity
  8
0
  6
Continuous
 62
     7
100
AcDbCircle
 10
0.00021106980807
 20
-794.8639543344507
 30
0.0
 40
70.49999999999888
100
AcDbArc
 50
-36.88691403180528
 51
-23.7562209490664
  0
ARC
  5
25B
330
4D
100
AcDbEntity
  8
0
  6
Continuous
 62
     7
100
AcDbCircle
 10
0.00021106980807
 20
-794.8639543344507
 30
0.0
 40
73.89999999999696
100
AcDbArc
 50
-28.63353493039634
 51
-23.7132157459609
  0
ARC
  5
25C
330
4D
100
AcDbEntity
  8
0
  6
Continuous
 62
     7
100
AcDbCircle
 10
0.00021106980807
 20
-794.8639543344507
 30
0.0
 40
45.10463792494667
100
AcDbArc
 50
-36.36058054283995
 51
-24.28255443803765
  0
ARC
  5
25D
330
4D
100
AcDbEntity
  8
0
  6
Continuous
 62
     7
100
AcDbCircle
 10
0.00021106980807
 20
-794.8639543344507
 30
0.0
 40
45.10463792494462
100
AcDbArc
 50
-6.36058054283768
 51
5.7174455619621
  0
ARC
  5
25E
330
4D
100
AcDbEntity
  8
0
  6
Continuous
 62
     7
100
AcDbCircle
 10
0.00021106980807
 20
-794.8639543344507
 30
0.0
 40
45.10463792494645
100
AcDbArc
 50
-21.36058054283797
 51
-9.28255443803536
  0
ARC
  5
25F
330
4D
100
AcDbEntity
  8
0
  6
Continuous
 62
     7
100
AcDbCircle
 10
0.00021106980807
 20
-794.8639543344507
 30
0.0
 40
45.10463792494888
100
AcDbArc
 50
113.6394194571613
 51
125.7174455619614
  0
ARC
  5
260
330
4D
100
AcDbEntity
  8
0
  6
Continuous
 62
     7
100
AcDbCircle
 10
0.00021106980807
 20
-794.8639543344507
 30
0.0
 40
45.10463792494917
100
AcDbArc
 50
128.6394194571606
 51
140.7174455619635
  0
ARC
  5
261
330
4D
100
AcDbEntity
  8
0
  6
Continuous
 62
     7
100
AcDbCircle
 10
0.00021106980807
 20
-794.8639543344507
 30
0.0
 40
73.90000000000337
100
AcDbArc
 50
132.9903100606682
 51
141.2867842540385
  0
ARC
  5
262
330
4D
100
AcDbEntity
  8
0
  6
Continuous
 62
     7
100
AcDbCircle
 10
0.00021106980807
 20
-794.8639543344507
 30
0.0
 40
70.50000000000266
100
AcDbArc
 50
128.1130859681925
 51
141.2437790509311
  0
ARC
  5
263
330
4D
100
AcDbEntity
  8
0
  6
Continuous
 62
     7
100
AcDbCircle
 10
0.00021106980807
 20
-794.8639543344507
 30
0.0
 40
73.90000000000319
100
AcDbArc
 50
98.0700807650839
 51
111.2867842540399
  0
ARC
  5
264
330
4D
100
AcDbEntity
  8
0
  6
Continuous
 62
     7
100
AcDbCircle
 10
0.00021106980807
 20
-794.8639543344507
 30
0.0
 40
70.50000000000124
100
AcDbArc
 50
98.1130859681924
 51
111.2437790509304
  0
ARC
  5
265
330
4D
100
AcDbEntity
  8
0
  6
Continuous
 62
     7
100
AcDbCircle
 10
0.00021106980807
 20
-794.8639543344507
 30
0.0
 40
73.90000000000326
100
AcDbArc
 50
128.0700807650833
 51
132.9903100606682
  0
ARC
  5
266
330
4D
100
AcDbEntity
  8
0
  6
Continuous
 62
     7
100
AcDbCircle
 10
0.00021106980807
 20
-794.8639543344507
 30
0.0
 40
73.90000000000137
100
AcDbArc
 50
113.0700807650847
 51
126.2867842540375
  0
ARC
  5
267
330
4D
100
AcDbEntity
  8
0
  6
Continuous
 62
     7
100
AcDbCircle
 10
0.00021106980807
 20
-794.8639543344507
 30
0.0
 40
70.50000000000225
100
AcDbArc
 50
113.1130859681931
 51
126.2437790509314
  0
ARC
  5
268
330
4D
100
AcDbEntity
  8
0
  6
Continuous
 62
     7
100
AcDbCircle
 10
0.00021106980807
 20
-794.8639543344507
 30
0.0
 40
73.90000000000136
100
AcDbArc
 50
23.07008076508469
 51
36.28678425404142
  0
ARC
  5
269
330
4D
100
AcDbEntity
  8
0
  6
Continuous
 62
     7
100
AcDbCircle
 10
0.00021106980807
 20
-794.8639543344507
 30
0.0
 40
70.50000000000081
100
AcDbArc
 50
23.11308596819041
 51
36.24377905093552
  0
ARC
  5
26A
330
4D
100
AcDbEntity
  8
0
  6
Continuous
 62
     7
100
AcDbCircle
 10
0.00021106980807
 20
-794.8639543344507
 30
0.0
 40
73.90000000000039
100
AcDbArc
 50
38.070080765085
 51
42.99031006067008
  0
ARC
  5
26B
330
4D
100
AcDbEntity
  8
0
  6
Continuous
 62
     7
100
AcDbCircle
 10
0.00021106980807
 20
-794.8639543344507
 30
0.0
 40
45.10463792494634
100
AcDbArc
 50
38.63941945716351
 51
50.71744556196351
  0
ARC
  5
26C
330
4D
100
AcDbEntity
  8
0
  6
Continuous
 62
     7
100
AcDbCircle
 10
0.00021106980807
 20
-794.8639543344507
 30
0.0
 40
45.10463792494555
100
AcDbArc
 50
23.63941945716316
 51
35.71744556196788
  0
ARC
  5
26D
330
4D
100
AcDbEntity
  8
0
  6
Continuous
 62
     7
100
AcDbCircle
 10
0.00021106980807
 20
-794.8639543344507
 30
0.0
 40
73.8999999999996
100
AcDbArc
 50
8.07008076508429
 51
21.28678425403994
  0
ARC
  5
26E
330
4D
100
AcDbEntity
  8
0
  6
Continuous
 62
     7
100
AcDbCircle
 10
0.00021106980807
 20
-794.8639543344507
 30
0.0
 40
70.50000000000072
100
AcDbArc
 50
8.11308596818947
 51
21.24377905093311
  0
ARC
  5
26F
330
4D
100
AcDbEntity
  8
0
  6
Continuous
 62
     7
100
AcDbCircle
 10
0.00021106980807
 20
-794.8639543344507
 30
0.0
 40
70.49999999999844
100
AcDbArc
 50
-6.88691403180551
 51
6.2437790509332
  0
ARC
  5
270
330
4D
100
AcDbEntity
  8
0
  6
Continuous
 62
     7
100
AcDbCircle
 10
0.00021106980807
 20
-794.8639543344507
 30
0.0
 40
70.50000000000266
100
AcDbArc
 50
38.11308596819251
 51
51.24377905093296
  0
ARC
  5
271
330
4D
100
AcDbEntity
  8
0
  6
Continuous
 62
     7
100
AcDbCircle
 10
0.00021106980807
 20
-794.8639543344507
 30
0.0
 40
73.9000000000018
100
AcDbArc
 50
53.07008076508433
 51
61.36646506960254
  0
ARC
  5
272
330
4D
100
AcDbEntity
  8
0
  6
Continuous
 62
     7
100
AcDbCircle
 10
0.00021106980807
 20
-794.8639543344507
 30
0.0
 40
70.50000000000107
100
AcDbArc
 50
53.11308596819235
 51
66.24377905093209
  0
ARC
  5
273
330
4D
100
AcDbEntity
  8
0
  6
Continuous
 62
     7
100
AcDbCircle
 10
0.00021106980807
 20
-794.8639543344507
 30
0.0
 40
70.50000000000247
100
AcDbArc
 50
83.11308596819191
 51
96.2437790509332
  0
ARC
  5
274
330
4D
100
AcDbEntity
  8
0
  6
Continuous
 62
     7
100
AcDbCircle
 10
0.00021106980807
 20
-794.8639543344507
 30
0.0
 40
73.8999999999992
100
AcDbArc
 50
68.0700807650852
 51
81.28678425403963
  0
ARC
  5
275
330
4D
100
AcDbEntity
  8
0
  6
Continuous
 62
     7
100
AcDbCircle
 10
0.00021106980807
 20
-794.8639543344507
 30
0.0
 40
70.50000000000182
100
AcDbArc
 50
68.11308596819346
 51
81.24377905093147
  0
ARC
  5
276
330
4D
100
AcDbEntity
  8
0
  6
Continuous
 62
     7
100
AcDbCircle
 10
0.00021106980807
 20
-794.8639543344507
 30
0.0
 40
73.9000000000019
100
AcDbArc
 50
61.36646506960254
 51
66.2867842540391
  0
ARC
  5
277
330
4D
100
AcDbEntity
  8
0
  6
Continuous
 62
     7
100
AcDbCircle
 10
0.00021106980807
 20
-794.8639543344507
 30
0.0
 40
73.90000000000198
100
AcDbArc
 50
83.07008076508481
 51
96.2867842540403
  0
ARC
  5
278
330
4D
100
AcDbEntity
  8
0
  6
Continuous
 62
     7
100
AcDbCircle
 10
0.00021106980807
 20
-794.8639543344507
 30
0.0
 40
73.89999999999823
100
AcDbArc
 50
-47.00968993933198
 51
-38.71321574595935
  0
ARC
  5
279
330
4D
100
AcDbEntity
  8
0
  6
Continuous
 62
     7
100
AcDbCircle
 10
0.00021106980807
 20
-794.8639543344507
 30
0.0
 40
73.89999999999888
100
AcDbArc
 50
-126.9299192349174
 51
-118.6335349303988
  0
ARC
  5
27A
330
4D
100
AcDbEntity
  8
0
  6
Continuous
 62
     7
100
AcDbCircle
 10
0.00021106980807
 20
-794.8639543344507
 30
0.0
 40
73.89999999999871
100
AcDbArc
 50
-118.6335349303988
 51
-113.713215745962
  0
ARC
  5
27B
330
4D
100
AcDbEntity
  8
0
  6
Continuous
 62
     7
100
AcDbCircle
 10
0.00021106980807
 20
-794.8639543344507
 30
0.0
 40
70.49999999999815
100
AcDbArc
 50
-126.8869140318094
 51
-113.7562209490691
  0
ARC
  5
27C
330
4D
100
AcDbEntity
  8
0
  6
Continuous
 62
     7
100
AcDbCircle
 10
0.00021106980807
 20
-794.8639543344507
 30
0.0
 40
70.49999999999756
100
AcDbArc
 50
-141.886914031808
 51
-128.7562209490689
  0
ARC
  5
27D
330
4D
100
AcDbEntity
  8
0
  6
Continuous
 62
     7
100
AcDbCircle
 10
0.00021106980807
 20
-794.8639543344507
 30
0.0
 40
73.89999999999823
100
AcDbArc
 50
-137.009689939332
 51
-128.7132157459615
  0
ARC
  5
27E
330
4D
100
AcDbEntity
  8
0
  6
Continuous
 62
     7
100
AcDbCircle
 10
0.00021106980807
 20
-794.8639543344507
 30
0.0
 40
70.50000000000081
100
AcDbArc
 50
-156.8869140318096
 51
-143.7562209490669
  0
ARC
  5
27F
330
4D
100
AcDbEntity
  8
0
  6
Continuous
 62
     7
100
AcDbCircle
 10
0.00021106980807
 20
-794.8639543344507
 30
0.0
 40
70.49999999999844
100
AcDbArc
 50
-111.8869140318077
 51
-98.756220949069
  0
ARC
  5
280
330
4D
100
AcDbEntity
  8
0
  6
Continuous
 62
     7
100
AcDbCircle
 10
0.00021106980807
 20
-794.8639543344507
 30
0.0
 40
73.89999999999814
100
AcDbArc
 50
-141.9299192349172
 51
-137.009689939332
  0
ARC
  5
281
330
4D
100
AcDbEntity
  8
0
  6
Continuous
 62
     7
100
AcDbCircle
 10
0.00021106980807
 20
-794.8639543344507
 30
0.0
 40
45.10463792494686
100
AcDbArc
 50
-81.36058054284167
 51
-69.28255443803616
  0
ARC
  5
282
330
4D
100
AcDbEntity
  8
0
  6
Continuous
 62
     7
100
AcDbCircle
 10
0.00021106980807
 20
-794.8639543344507
 30
0.0
 40
45.10463792494743
100
AcDbArc
 50
-156.3605805428429
 51
-144.2825544380386
  0
ARC
  5
283
330
4D
100
AcDbEntity
  8
0
  6
Continuous
 62
     7
100
AcDbCircle
 10
0.00021106980807
 20
-794.8639543344507
 30
0.0
 40
45.10463792494502
100
AcDbArc
 50
-96.36058054284229
 51
-84.2825544380379
  0
ARC
  5
284
330
4D
100
AcDbEntity
  8
0
  6
Continuous
 62
     7
100
AcDbCircle
 10
0.00021106980807
 20
-794.8639543344507
 30
0.0
 40
70.49999999999712
100
AcDbArc
 50
-81.88691403181012
 51
-68.75622094906964
  0
ARC
  5
285
330
4D
100
AcDbEntity
  8
0
  6
Continuous
 62
     7
100
AcDbCircle
 10
0.00021106980807
 20
-794.8639543344507
 30
0.0
 40
45.10463792494667
100
AcDbArc
 50
-126.36058054284
 51
-114.2825544380376
  0
ARC
  5
286
330
4D
100
AcDbEntity
  8
0
  6
Continuous
 62
     7
100
AcDbCircle
 10
0.00021106980807
 20
-794.8639543344507
 30
0.0
 40
45.10463792494691
100
AcDbArc
 50
-141.360580542843
 51
-129.2825544380394
  0
ARC
  5
287
330
4D
100
AcDbEntity
  8
0
  6
Continuous
 62
     7
100
AcDbCircle
 10
0.00021106980807
 20
-794.8639543344507
 30
0.0
 40
73.89999999999671
100
AcDbArc
 50
-36.9299192349151
 51
-28.63353493039634
  0
ARC
  5
288
330
4D
100
AcDbEntity
  8
0
  6
Continuous
 62
     7
100
AcDbCircle
 10
0.00021106980807
 20
-794.8639543344507
 30
0.0
 40
73.89999999999816
100
AcDbArc
 50
-51.92991923491721
 51
-47.00968993933198
  0
ARC
  5
289
330
4D
100
AcDbEntity
  8
0
  6
Continuous
 62
     7
100
AcDbCircle
 10
0.00021106980807
 20
-794.8639543344507
 30
0.0
 40
70.49999999999756
100
AcDbArc
 50
-51.88691403180798
 51
-38.75622094906658
  0
ARC
  5
28A
330
4D
100
AcDbEntity
  8
0
  6
Continuous
 62
     7
100
AcDbCircle
 10
0.00021106980807
 20
-794.8639543344507
 30
0.0
 40
45.10463792494633
100
AcDbArc
 50
-51.36058054283649
 51
-39.28255443803649
  0
ARC
  5
28B
330
4D
100
AcDbEntity
  8
0
  6
Continuous
 62
     7
100
AcDbCircle
 10
0.00021106980807
 20
-794.8639543344507
 30
0.0
 40
45.10463792494555
100
AcDbArc
 50
-66.36058054283684
 51
-54.28255443803587
  0
ARC
  5
28C
330
4D
100
AcDbEntity
  8
0
  6
Continuous
 62
     7
100
AcDbCircle
 10
0.00021106980807
 20
-794.8639543344507
 30
0.0
 40
45.1046379249496
100
AcDbArc
 50
143.6394194571628
 51
155.7174455619624
  0
ARC
  5
28D
330
4D
100
AcDbEntity
  8
0
  6
Continuous
 62
     7
100
AcDbCircle
 10
0.00021106980807
 20
-794.8639543344507
 30
0.0
 40
45.10463792494777
100
AcDbArc
 50
158.6394194571577
 51
170.7174455619601
  0
ARC
  5
28E
330
4D
100
AcDbEntity
  8
0
  6
Continuous
 62
     7
100
AcDbCircle
 10
0.00021106980807
 20
-794.8639543344507
 30
0.0
 40
73.8999999999996
100
AcDbArc
 50
-81.92991923491572
 51
-68.71321574596007
  0
ARC
  5
28F
330
4D
100
AcDbEntity
  8
0
  6
Continuous
 62
     7
100
AcDbCircle
 10
0.00021106980807
 20
-794.8639543344507
 30
0.0
 40
45.10463792494777
100
AcDbArc
 50
-111.3605805428423
 51
-99.28255443804066
  0
ARC
  5
290
330
4D
100
AcDbEntity
  8
0
  6
Continuous
 62
     7
100
AcDbCircle
 10
0.00021106980807
 20
-794.8639543344507
 30
0.0
 40
70.49999999999844
100
AcDbArc
 50
-96.88691403180552
 51
-83.75622094906649
  0
ARC
  5
291
330
4D
100
AcDbEntity
  8
0
  6
Continuous
 62
     7
100
AcDbCircle
 10
0.00021106980807
 20
-794.8639543344507
 30
0.0
 40
73.89999999999802
100
AcDbArc
 50
-66.92991923491421
 51
-53.71321574596086
  0
ARC
  5
292
330
4D
100
AcDbEntity
  8
0
  6
Continuous
 62
     7
100
AcDbCircle
 10
0.00021106980807
 20
-794.8639543344507
 30
0.0
 40
70.49999999999747
100
AcDbArc
 50
-66.88691403180843
 51
-53.75622094906687
  0
ARC
  5
293
330
4D
100
AcDbEntity
  8
0
  6
Continuous
 62
     7
100
AcDbCircle
 10
0.00021106980807
 20
-794.8639543344507
 30
0.0
 40
45.10463792494686
100
AcDbArc
 50
-171.3605805428417
 51
-159.2825544380362
  0
ARC
  5
294
330
4D
100
AcDbEntity
  8
0
  6
Continuous
 62
     7
100
AcDbCircle
 10
0.00021106980807
 20
-794.8639543344507
 30
0.0
 40
70.49999999999844
100
AcDbArc
 50
173.1130859681945
 51
-173.7562209490698
  0
ARC
  5
295
330
4D
100
AcDbEntity
  8
0
  6
Continuous
 62
     7
100
AcDbCircle
 10
0.00021106980807
 20
-794.8639543344507
 30
0.0
 40
58.13148319780721
100
AcDbArc
 50
53.31197394583185
 51
66.04489107329518
  0
ARC
  5
296
330
4D
100
AcDbEntity
  8
0
  6
Continuous
 62
     7
100
AcDbCircle
 10
0.00021106980807
 20
-794.8639543344507
 30
0.0
 40
56.19999999999872
100
AcDbArc
 50
53.35093687884109
 51
66.00592814028717
  0
ARC
  5
297
330
4D
100
AcDbEntity
  8
0
  6
Continuous
 62
     7
100
AcDbCircle
 10
0.00021106980807
 20
-794.8639543344507
 30
0.0
 40
56.20000000000257
100
AcDbArc
 50
83.35093687883969
 51
96.00592814028596
  0
ARC
  5
298
330
4D
100
AcDbEntity
  8
0
  6
Continuous
 62
     7
100
AcDbCircle
 10
0.00021106980807
 20
-794.8639543344507
 30
0.0
 40
58.13148319780569
100
AcDbArc
 50
83.3119739458328
 51
96.04489107329404
  0
ARC
  5
299
330
4D
100
AcDbEntity
  8
0
  6
Continuous
 62
     7
100
AcDbCircle
 10
0.00021106980807
 20
-794.8639543344507
 30
0.0
 40
56.20000000000116
100
AcDbArc
 50
68.3509368788411
 51
81.00592814028353
  0
ARC
  5
29A
330
4D
100
AcDbEntity
  8
0
  6
Continuous
 62
     7
100
AcDbCircle
 10
0.00021106980807
 20
-794.8639543344507
 30
0.0
 40
58.13148319780496
100
AcDbArc
 50
68.31197394583053
 51
81.04489107329529
  0
ARC
  5
29B
330
4D
100
AcDbEntity
  8
0
  6
Continuous
 62
     7
100
AcDbCircle
 10
0.00021106980807
 20
-794.8639543344507
 30
0.0
 40
43.50000000000117
100
AcDbArc
 50
53.69332501522609
 51
65.66354000389929
  0
ARC
  5
29C
330
4D
100
AcDbEntity
  8
0
  6
Continuous
 62
     7
100
AcDbCircle
 10
0.00021106980807
 20
-794.8639543344507
 30
0.0
 40
56.20000000000039
100
AcDbArc
 50
23.35093687884036
 51
36.00592814028388
  0
ARC
  5
29D
330
4D
100
AcDbEntity
  8
0
  6
Continuous
 62
     7
100
AcDbCircle
 10
0.00021106980807
 20
-794.8639543344507
 30
0.0
 40
58.13148319780561
100
AcDbArc
 50
23.31197394583103
 51
36.04489107329388
  0
ARC
  5
29E
330
4D
100
AcDbEntity
  8
0
  6
Continuous
 62
     7
100
AcDbCircle
 10
0.00021106980807
 20
-794.8639543344507
 30
0.0
 40
56.19999999999779
100
AcDbArc
 50
-21.64906312116027
 51
-8.99407185971338
  0
ARC
  5
29F
330
4D
100
AcDbEntity
  8
0
  6
Continuous
 62
     7
100
AcDbCircle
 10
0.00021106980807
 20
-794.8639543344507
 30
0.0
 40
58.13148319780497
100
AcDbArc
 50
-21.68802605416948
 51
-8.95510892670527
  0
ARC
  5
2A0
330
4D
100
AcDbEntity
  8
0
  6
Continuous
 62
     7
100
AcDbCircle
 10
0.00021106980807
 20
-794.8639543344507
 30
0.0
 40
56.19999999999659
100
AcDbArc
 50
-51.64906312115968
 51
-38.99407185971617
  0
ARC
  5
2A1
330
4D
100
AcDbEntity
  8
0
  6
Continuous
 62
     7
100
AcDbCircle
 10
0.00021106980807
 20
-794.8639543344507
 30
0.0
 40
56.19999999999873
100
AcDbArc
 50
-36.64906312115892
 51
-23.99407185971435
  0
ARC
  5
2A2
330
4D
100
AcDbEntity
  8
0
  6
Continuous
 62
     7
100
AcDbCircle
 10
0.00021106980807
 20
-794.8639543344507
 30
0.0
 40
56.20000000000039
100
AcDbArc
 50
-66.64906312115964
 51
-53.99407185971394
  0
ARC
  5
2A3
330
4D
100
AcDbEntity
  8
0
  6
Continuous
 62
     7
100
AcDbCircle
 10
0.00021106980807
 20
-794.8639543344507
 30
0.0
 40
58.13148319780227
100
AcDbArc
 50
-66.68802605416755
 51
-53.95510892670612
  0
ARC
  5
2A4
330
4D
100
AcDbEntity
  8
0
  6
Continuous
 62
     7
100
AcDbCircle
 10
0.00021106980807
 20
-794.8639543344507
 30
0.0
 40
58.13148319780211
100
AcDbArc
 50
-36.68802605416742
 51
-23.95510892670628
  0
ARC
  5
2A5
330
4D
100
AcDbEntity
  8
0
  6
Continuous
 62
     7
100
AcDbCircle
 10
0.00021106980807
 20
-794.8639543344507
 30
0.0
 40
58.13148319780154
100
AcDbArc
 50
-51.6880260541684
 51
-38.95510892670373
  0
ARC
  5
2A6
330
4D
100
AcDbEntity
  8
0
  6
Continuous
 62
     7
100
AcDbCircle
 10
0.00021106980807
 20
-794.8639543344507
 30
0.0
 40
58.13148319780728
100
AcDbArc
 50
-171.6880260541701
 51
-158.9551089267059
  0
ARC
  5
2A7
330
4D
100
AcDbEntity
  8
0
  6
Continuous
 62
     7
100
AcDbCircle
 10
0.00021106980807
 20
-794.8639543344507
 30
0.0
 40
56.20000000000076
100
AcDbArc
 50
-171.6490631211632
 51
-158.9940718597167
  0
ARC
  5
2A8
330
4D
100
AcDbEntity
  8
0
  6
Continuous
 62
     7
100
AcDbCircle
 10
0.00021106980807
 20
-794.8639543344507
 30
0.0
 40
40.99999999999965
100
AcDbArc
 50
-126.2142799496886
 51
-84.42885503119138
  0
ARC
  5
2A9
330
4D
100
AcDbEntity
  8
0
  6
Continuous
 62
     7
100
AcDbCircle
 10
0.00021106980807
 20
-794.8639543344507
 30
0.0
 40
43.50000000000054
100
AcDbArc
 50
-111.3066749847746
 51
-99.33645999610346
  0
ARC
  5
2AA
330
4D
100
AcDbEntity
  8
0
  6
Continuous
 62
     7
100
AcDbCircle
 10
0.00021106980807
 20
-794.8639543344507
 30
0.0
 40
56.19999999999895
100
AcDbArc
 50
-96.64906312116075
 51
-83.99407185971734
  0
ARC
  5
2AB
330
4D
100
AcDbEntity
  8
0
  6
Continuous
 62
     7
100
AcDbCircle
 10
0.00021106980807
 20
-794.8639543344507
 30
0.0
 40
58.1314831978025
100
AcDbArc
 50
-96.68802605417117
 51
-83.95510892670559
  0
ARC
  5
2AC
330
4D
100
AcDbEntity
  8
0
  6
Continuous
 62
     7
100
AcDbCircle
 10
0.00021106980807
 20
-794.8639543344507
 30
0.0
 40
43.499999999997
100
AcDbArc
 50
-81.30667498477618
 51
-69.33645999610373
  0
ARC
  5
2AD
330
4D
100
AcDbEntity
  8
0
  6
Continuous
 62
     7
100
AcDbCircle
 10
0.00021106980807
 20
-794.8639543344507
 30
0.0
 40
43.50000000000006
100
AcDbArc
 50
-96.30667498477433
 51
-84.3364599961034
  0
ARC
  5
2AE
330
4D
100
AcDbEntity
  8
0
  6
Continuous
 62
     7
100
AcDbCircle
 10
0.00021106980807
 20
-794.8639543344507
 30
0.0
 40
56.19999999999769
100
AcDbArc
 50
-81.64906312115893
 51
-68.99407185971533
  0
ARC
  5
2AF
330
4D
100
AcDbEntity
  8
0
  6
Continuous
 62
     7
100
AcDbCircle
 10
0.00021106980807
 20
-794.8639543344507
 30
0.0
 40
58.13148319780368
100
AcDbArc
 50
-81.68802605416957
 51
-68.95510892670596
  0
ARC
  5
2B0
330
4D
100
AcDbEntity
  8
0
  6
Continuous
 62
     7
100
AcDbCircle
 10
6.37368393066231
 20
-801.3307034166319
 30
0.0
 40
0.9999999999985943
100
AcDbArc
 50
142.1784325095841
 51
-127.8215674902881
  0
ARC
  5
2B1
330
4D
100
AcDbEntity
  8
0
  6
Continuous
 62
     7
100
AcDbCircle
 10
0.00021050937744
 20
-794.8639546538325
 30
0.0
 40
40.99999976996521
100
AcDbArc
 50
-81.21427910752679
 51
-39.42885420707079
  0
ARC
  5
2B2
330
4D
100
AcDbEntity
  8
0
  6
Continuous
 62
     7
100
AcDbCircle
 10
25.3318657782113
 20
-816.0476100561173
 30
0.0
 40
0.9999999999985943
100
AcDbArc
 50
-127.8215674904159
 51
-37.82156749041606
  0
ARC
  5
2B3
330
4D
100
AcDbEntity
  8
0
  6
Continuous
 62
     7
100
AcDbCircle
 10
0.00021106980807
 20
-794.8639543344507
 30
0.0
 40
43.49999999999756
100
AcDbArc
 50
-66.30667498477344
 51
-54.33645999610297
  0
ARC
  5
2B4
330
4D
100
AcDbEntity
  8
0
  6
Continuous
 62
     7
100
AcDbCircle
 10
0.00021106980807
 20
-794.8639543344507
 30
0.0
 40
56.19999999999895
100
AcDbArc
 50
-6.64906312116075
 51
6.00592814028635
  0
ARC
  5
2B5
330
4D
100
AcDbEntity
  8
0
  6
Continuous
 62
     7
100
AcDbCircle
 10
0.00021106980807
 20
-794.8639543344507
 30
0.0
 40
58.13148319780207
100
AcDbArc
 50
-6.68802605416762
 51
6.04489107329442
  0
ARC
  5
2B6
330
4D
100
AcDbEntity
  8
0
  6
Continuous
 62
     7
100
AcDbCircle
 10
0.00021263852636
 20
-794.8639527832383
 30
0.0
 40
43.49999976996588
100
AcDbArc
 50
-51.30667785873824
 51
-39.33646288609098
  0
ARC
  5
2B7
330
4D
100
AcDbEntity
  8
0
  6
Continuous
 62
     7
100
AcDbCircle
 10
0.00021106980807
 20
-794.8639543344507
 30
0.0
 40
43.49999999999901
100
AcDbArc
 50
-36.30667498477005
 51
-24.33645999610269
  0
ARC
  5
2B8
330
4D
100
AcDbEntity
  8
0
  6
Continuous
 62
     7
100
AcDbCircle
 10
26.80355644215911
 20
-814.1517918713616
 30
0.0
 40
1.000000000003696
100
AcDbArc
 50
-37.82156749045289
 51
52.17843250941974
  0
ARC
  5
2B9
330
4D
100
AcDbEntity
  8
0
  6
Continuous
 62
     7
100
AcDbCircle
 10
0.00021106980807
 20
-794.8639543344507
 30
0.0
 40
43.49999999999823
100
AcDbArc
 50
-126.3066749847768
 51
-114.3364599961027
  0
ARC
  5
2BA
330
4D
100
AcDbEntity
  8
0
  6
Continuous
 62
     7
100
AcDbCircle
 10
0.00021106980807
 20
-794.8639543344507
 30
0.0
 40
43.5000000000021
100
AcDbArc
 50
-141.3066749847757
 51
-129.3364599961042
  0
ARC
  5
2BB
330
4D
100
AcDbEntity
  8
0
  6
Continuous
 62
     7
100
AcDbCircle
 10
0.00021106980807
 20
-794.8639543344507
 30
0.0
 40
45.10463792494865
100
AcDbArc
 50
173.6394194571583
 51
-174.2825544380379
  0
ARC
  5
2BC
330
4D
100
AcDbEntity
  8
0
  6
Continuous
 62
     7
100
AcDbCircle
 10
0.00021106980807
 20
-794.8639543344507
 30
0.0
 40
40.99999999999962
100
AcDbArc
 50
-171.2142799496868
 51
-129.4288550311935
  0
ARC
  5
2BD
330
4D
100
AcDbEntity
  8
0
  6
Continuous
 62
     7
100
AcDbCircle
 10
0.00021106980807
 20
-794.8639543344507
 30
0.0
 40
43.50000000000089
100
AcDbArc
 50
-156.3066749847754
 51
-144.3364599961058
  0
ARC
  5
2BE
330
4D
100
AcDbEntity
  8
0
  6
Continuous
 62
     7
100
AcDbCircle
 10
0.00021106980807
 20
-794.8639543344507
 30
0.0
 40
41.00000000000043
100
AcDbArc
 50
53.78572005031851
 51
95.57114495077181
  0
ARC
  5
2BF
330
4D
100
AcDbEntity
  8
0
  6
Continuous
 62
     7
100
AcDbCircle
 10
0.00021106980807
 20
-794.8639543344507
 30
0.0
 40
41.00000000000113
100
AcDbArc
 50
143.7857200683534
 51
-174.4288550311914
  0
ARC
  5
2C0
330
4D
100
AcDbEntity
  8
0
  6
Continuous
 62
     7
100
AcDbCircle
 10
0.00021106980807
 20
-794.8639543344507
 30
0.0
 40
43.50000000000053
100
AcDbArc
 50
158.6933250152254
 51
170.6635400038966
  0
ARC
  5
2C1
330
4D
100
AcDbEntity
  8
0
  6
Continuous
 62
     7
100
AcDbCircle
 10
0.00021106980807
 20
-794.8639543344507
 30
0.0
 40
43.50000000000116
100
AcDbArc
 50
143.6933250152261
 51
155.6635400038949
  0
ARC
  5
2C2
330
4D
100
AcDbEntity
  8
0
  6
Continuous
 62
     7
100
AcDbCircle
 10
0.00021106980807
 20
-794.8639543344507
 30
0.0
 40
43.5000000000021
100
AcDbArc
 50
128.6933250152243
 51
140.6635400038958
  0
ARC
  5
2C3
330
4D
100
AcDbEntity
  8
0
  6
Continuous
 62
     7
100
AcDbCircle
 10
0.00021106980807
 20
-794.8639543344507
 30
0.0
 40
56.20000000000129
100
AcDbArc
 50
98.35093687884054
 51
111.0059281402834
  0
ARC
  5
2C4
330
4D
100
AcDbEntity
  8
0
  6
Continuous
 62
     7
100
AcDbCircle
 10
0.00021106980807
 20
-794.8639543344507
 30
0.0
 40
58.13148319780728
100
AcDbArc
 50
98.31197394582992
 51
111.0448910732928
  0
ARC
  5
2C5
330
4D
100
AcDbEntity
  8
0
  6
Continuous
 62
     7
100
AcDbCircle
 10
0.00021106980807
 20
-794.8639543344507
 30
0.0
 40
56.20000000000257
100
AcDbArc
 50
173.3509368788397
 51
-173.9940718597177
  0
ARC
  5
2C6
330
4D
100
AcDbEntity
  8
0
  6
Continuous
 62
     7
100
AcDbCircle
 10
0.00021106980807
 20
-794.8639543344507
 30
0.0
 40
58.13148319780611
100
AcDbArc
 50
173.3119739458293
 51
-173.9551089267092
  0
ARC
  5
2C7
330
4D
100
AcDbEntity
  8
0
  6
Continuous
 62
     7
100
AcDbCircle
 10
0.00021106980807
 20
-794.8639543344507
 30
0.0
 40
41.00000000000024
100
AcDbArc
 50
98.78572006835925
 51
140.5711449507682
  0
ARC
  5
2C8
330
4D
100
AcDbEntity
  8
0
  6
Continuous
 62
     7
100
AcDbCircle
 10
-25.33144363859879
 20
-773.6802986127805
 30
0.0
 40
1.000000000000827
100
AcDbArc
 50
52.17843250941925
 51
142.1784325095839
  0
ARC
  5
2C9
330
4D
100
AcDbEntity
  8
0
  6
Continuous
 62
     7
100
AcDbCircle
 10
0.00021106980807
 20
-794.8639543344507
 30
0.0
 40
43.50000000000089
100
AcDbArc
 50
113.6933250152246
 51
125.6635400038981
  0
ARC
  5
2CA
330
4D
100
AcDbEntity
  8
0
  6
Continuous
 62
     7
100
AcDbCircle
 10
0.00021106980807
 20
-794.8639543344507
 30
0.0
 40
43.50000000000115
100
AcDbArc
 50
98.69332501522783
 51
110.6635400039008
  0
ARC
  5
2CB
330
4D
100
AcDbEntity
  8
0
  6
Continuous
 62
     7
100
AcDbCircle
 10
0.00021106980807
 20
-794.8639543344507
 30
0.0
 40
43.5000000000006
100
AcDbArc
 50
-171.3066749847769
 51
-159.3364599961037
  0
ARC
  5
2CC
330
4D
100
AcDbEntity
  8
0
  6
Continuous
 62
     7
100
AcDbCircle
 10
0.00021106980807
 20
-794.8639543344507
 30
0.0
 40
43.50000000000006
100
AcDbArc
 50
173.6933250152257
 51
-174.3364599961039
  0
ARC
  5
2CD
330
4D
100
AcDbEntity
  8
0
  6
Continuous
 62
     7
100
AcDbCircle
 10
-26.8031343025466
 20
-775.5761167975361
 30
0.0
 40
0.9999999999985915
100
AcDbArc
 50
142.1784325095839
 51
-127.8215674904156
  0
ARC
  5
2CE
330
4D
100
AcDbEntity
  8
0
  6
Continuous
 62
     7
100
AcDbCircle
 10
-6.3732617910498
 20
-788.3972052522658
 30
0.0
 40
0.9999999999985943
100
AcDbArc
 50
-37.82156749041594
 51
52.17843250958407
  0
ARC
  5
2CF
330
4D
100
AcDbEntity
  8
0
  6
Continuous
 62
     7
100
AcDbCircle
 10
-7.84495245499761
 20
-790.2930234370215
 30
0.0
 40
0.9999999999985943
100
AcDbArc
 50
-127.8215674904159
 51
-37.82156749041597
  0
ARC
  5
2D0
330
4D
100
AcDbEntity
  8
0
  6
Continuous
 62
     7
100
AcDbCircle
 10
0.00021106980807
 20
-794.8639543344507
 30
0.0
 40
43.50000000000054
100
AcDbArc
 50
68.69332501522541
 51
80.66354000389656
  0
ARC
  5
2D1
330
4D
100
AcDbEntity
  8
0
  6
Continuous
 62
     7
100
AcDbCircle
 10
0.00021106980807
 20
-794.8639543344507
 30
0.0
 40
43.50000000000006
100
AcDbArc
 50
83.69332501522567
 51
95.66354000389613
  0
ARC
  5
2D2
330
4D
100
AcDbEntity
  8
0
  6
Continuous
 62
     7
100
AcDbCircle
 10
0.00021106980807
 20
-794.8639543344507
 30
0.0
 40
41.00000000000018
100
AcDbArc
 50
8.78572005031826
 51
50.57114496881042
  0
ARC
  5
2D3
330
4D
100
AcDbEntity
  8
0
  6
Continuous
 62
     7
100
AcDbCircle
 10
0.00021106980807
 20
-794.8639543344507
 30
0.0
 40
43.49999999999926
100
AcDbArc
 50
38.69332501522732
 51
50.66354000390258
  0
ARC
  5
2D4
330
4D
100
AcDbEntity
  8
0
  6
Continuous
 62
     7
100
AcDbCircle
 10
0.00021106980807
 20
-794.8639543344507
 30
0.0
 40
43.49999999999901
100
AcDbArc
 50
23.69332501523094
 51
35.66354000390093
  0
ARC
  5
2D5
330
4D
100
AcDbEntity
  8
0
  6
Continuous
 62
     7
100
AcDbCircle
 10
0.00021106980807
 20
-794.8639543344507
 30
0.0
 40
43.49999999999756
100
AcDbArc
 50
8.69332501522855
 51
20.66354000390076
  0
ARC
  5
2D6
330
4D
100
AcDbEntity
  8
0
  6
Continuous
 62
     7
100
AcDbCircle
 10
0.00021106980807
 20
-794.8639543344507
 30
0.0
 40
43.50000000000006
100
AcDbArc
 50
-6.30667498477433
 51
5.66354000390137
  0
ARC
  5
2D7
330
4D
100
AcDbEntity
  8
0
  6
Continuous
 62
     7
100
AcDbCircle
 10
0.00021106980807
 20
-794.8639543344507
 30
0.0
 40
43.49999999999922
100
AcDbArc
 50
-21.30667498477012
 51
-9.33645999610345
  0
ARC
  5
2D8
330
4D
100
AcDbEntity
  8
0
  6
Continuous
 62
     7
100
AcDbCircle
 10
0.00021106980807
 20
-794.8639543344507
 30
0.0
 40
56.19999999999769
100
AcDbArc
 50
8.35093687884108
 51
21.00592814028468
  0
ARC
  5
2D9
330
4D
100
AcDbEntity
  8
0
  6
Continuous
 62
     7
100
AcDbCircle
 10
0.00021106980807
 20
-794.8639543344507
 30
0.0
 40
58.13148319780368
100
AcDbArc
 50
8.31197394583043
 51
21.04489107329405
  0
ARC
  5
2DA
330
4D
100
AcDbEntity
  8
0
  6
Continuous
 62
     7
100
AcDbCircle
 10
0.00021124025102
 20
-794.8639537123272
 30
0.0
 40
40.99999976996594
100
AcDbArc
 50
-36.21428077380514
 51
5.57114412664738
  0
ARC
  5
2DB
330
4D
100
AcDbEntity
  8
0
  6
Continuous
 62
     7
100
AcDbCircle
 10
7.84537459461012
 20
-799.4348852318799
 30
0.0
 40
1.000000000003699
100
AcDbArc
 50
52.17843250954724
 51
142.1784325094194
  0
ARC
  5
2DC
330
4D
100
AcDbEntity
  8
0
  6
Continuous
 62
     7
100
AcDbCircle
 10
0.00021106980807
 20
-794.8639543344507
 30
0.0
 40
58.13148319780428
100
AcDbArc
 50
143.3119739458297
 51
156.0448910732919
  0
ARC
  5
2DD
330
4D
100
AcDbEntity
  8
0
  6
Continuous
 62
     7
100
AcDbCircle
 10
0.00021106980807
 20
-794.8639543344507
 30
0.0
 40
73.90000000000198
100
AcDbArc
 50
173.0700807650848
 51
-173.7132157459625
  0
ARC
  5
2DE
330
4D
100
AcDbEntity
  8
0
  6
Continuous
 62
     7
100
AcDbCircle
 10
0.00021106980807
 20
-794.8639543344507
 30
0.0
 40
56.20000000000251
100
AcDbArc
 50
158.3509368788376
 51
171.0059281402835
  0
ARC
  5
2DF
330
4D
100
AcDbEntity
  8
0
  6
Continuous
 62
     7
100
AcDbCircle
 10
0.00021106980807
 20
-794.8639543344507
 30
0.0
 40
58.13148319780497
100
AcDbArc
 50
158.3119739458305
 51
171.0448910732918
  0
ARC
  5
2E0
330
4D
100
AcDbEntity
  8
0
  6
Continuous
 62
     7
100
AcDbCircle
 10
0.00021106980807
 20
-794.8639543344507
 30
0.0
 40
56.20000000000091
100
AcDbArc
 50
143.3509368788381
 51
156.0059281402838
  0
ARC
  5
2E1
330
4D
100
AcDbEntity
  8
0
  6
Continuous
 62
     7
100
AcDbCircle
 10
0.00021106980807
 20
-794.8639543344507
 30
0.0
 40
58.13148319780417
100
AcDbArc
 50
-156.6880260541723
 51
-143.955108926709
  0
ARC
  5
2E2
330
4D
100
AcDbEntity
  8
0
  6
Continuous
 62
     7
100
AcDbCircle
 10
0.00021106980807
 20
-794.8639543344507
 30
0.0
 40
56.19999999999778
100
AcDbArc
 50
-111.6490631211603
 51
-98.99407185971705
  0
ARC
  5
2E3
330
4D
100
AcDbEntity
  8
0
  6
Continuous
 62
     7
100
AcDbCircle
 10
0.00021106980807
 20
-794.8639543344507
 30
0.0
 40
58.13148319780497
100
AcDbArc
 50
-111.6880260541695
 51
-98.95510892670882
  0
ARC
  5
2E4
330
4D
100
AcDbEntity
  8
0
  6
Continuous
 62
     7
100
AcDbCircle
 10
0.00021106980807
 20
-794.8639543344507
 30
0.0
 40
58.1314831978044
100
AcDbArc
 50
-141.6880260541706
 51
-128.9551089267088
  0
ARC
  5
2E5
330
4D
100
AcDbEntity
  8
0
  6
Continuous
 62
     7
100
AcDbCircle
 10
0.00021106980807
 20
-794.8639543344507
 30
0.0
 40
58.13148319780429
100
AcDbArc
 50
-126.6880260541703
 51
-113.9551089267096
  0
ARC
  5
2E6
330
4D
100
AcDbEntity
  8
0
  6
Continuous
 62
     7
100
AcDbCircle
 10
0.00021106980807
 20
-794.8639543344507
 30
0.0
 40
56.20000000000039
100
AcDbArc
 50
-156.6490631211597
 51
-143.9940718597161
  0
ARC
  5
2E7
330
4D
100
AcDbEntity
  8
0
  6
Continuous
 62
     7
100
AcDbCircle
 10
0.00021106980807
 20
-794.8639543344507
 30
0.0
 40
56.20000000000039
100
AcDbArc
 50
113.3509368788404
 51
126.0059281402839
  0
ARC
  5
2E8
330
4D
100
AcDbEntity
  8
0
  6
Continuous
 62
     7
100
AcDbCircle
 10
0.00021106980807
 20
-794.8639543344507
 30
0.0
 40
58.13148319780561
100
AcDbArc
 50
113.311973945831
 51
126.0448910732939
  0
ARC
  5
2E9
330
4D
100
AcDbEntity
  8
0
  6
Continuous
 62
     7
100
AcDbCircle
 10
0.00021106980807
 20
-794.8639543344507
 30
0.0
 40
56.20000000000169
100
AcDbArc
 50
128.3509368788409
 51
141.0059281402833
  0
ARC
  5
2EA
330
4D
100
AcDbEntity
  8
0
  6
Continuous
 62
     7
100
AcDbCircle
 10
0.00021106980807
 20
-794.8639543344507
 30
0.0
 40
58.13148319780665
100
AcDbArc
 50
38.31197394583219
 51
51.04489107329349
  0
ARC
  5
2EB
330
4D
100
AcDbEntity
  8
0
  6
Continuous
 62
     7
100
AcDbCircle
 10
0.00021106980807
 20
-794.8639543344507
 30
0.0
 40
56.19999999999943
100
AcDbArc
 50
-141.649063121162
 51
-128.994071859719
  0
ARC
  5
2EC
330
4D
100
AcDbEntity
  8
0
  6
Continuous
 62
     7
100
AcDbCircle
 10
0.00021106980807
 20
-794.8639543344507
 30
0.0
 40
56.2000000000009
100
AcDbArc
 50
-126.6490631211619
 51
-113.9940718597177
  0
ARC
  5
2ED
330
4D
100
AcDbEntity
  8
0
  6
Continuous
 62
     7
100
AcDbCircle
 10
0.00021106980807
 20
-794.8639543344507
 30
0.0
 40
56.20000000000169
100
AcDbArc
 50
38.35093687884093
 51
51.00592814028617
  0
ARC
  5
2EE
330
4D
100
AcDbEntity
  8
0
  6
Continuous
 62
     7
100
AcDbCircle
 10
0.00021106980807
 20
-794.8639543344507
 30
0.0
 40
58.13148319780665
100
AcDbArc
 50
128.3119739458322
 51
141.0448910732935
  0
ARC
  5
2EF
330
4D
100
AcDbEntity
  8
0
  6
Continuous
 62
     7
100
AcDbCircle
 10
0.00021106980807
 20
-794.8639543344507
 30
0.0
 40
70.50000000000072
100
AcDbArc
 50
-171.8869140318105
 51
-158.7562209490696
  0
ARC
  5
2F0
330
4D
100
AcDbEntity
  8
0
  6
Continuous
 62
     7
100
AcDbCircle
 10
0.00021106980807
 20
-794.8639543344507
 30
0.0
 40
73.89999999999836
100
AcDbArc
 50
-96.92991923491554
 51
-83.71321574596251
  0
ARC
  5
2F1
330
4D
100
AcDbEntity
  8
0
  6
Continuous
 62
     7
100
AcDbCircle
 10
0.00021106980807
 20
-794.8639543344507
 30
0.0
 40
73.89999999999836
100
AcDbArc
 50
-6.92991923491554
 51
6.2867842540403
  0
ARC
  5
2F2
330
4D
100
AcDbEntity
  8
0
  6
Continuous
 62
     7
100
AcDbCircle
 10
0.00021106980807
 20
-794.8639543344507
 30
0.0
 40
73.89999999999908
100
AcDbArc
 50
-171.9299192349185
 51
-158.7132157459601
  0
ARC
  5
2F3
330
4D
100
AcDbEntity
  8
0
  6
Continuous
 62
     7
100
AcDbCircle
 10
0.00021106980807
 20
-794.8639543344507
 30
0.0
 40
73.89999999999993
100
AcDbArc
 50
-156.9299192349179
 51
-143.7132157459609
  0
ARC
  5
2F4
330
4D
100
AcDbEntity
  8
0
  6
Continuous
 62
     7
100
AcDbCircle
 10
0.00021106980807
 20
-794.8639543344507
 30
0.0
 40
73.90000000000055
100
AcDbArc
 50
-111.9299192349174
 51
-98.7132157459608
  0
ARC
  5
2F5
330
4D
100
AcDbEntity
  8
0
  6
Continuous
 62
     7
100
AcDbCircle
 10
0.00021106980444
 20
-794.863954334447
 30
0.0
 40
74.99999999999848
100
AcDbArc
 50
143.0570022246421
 51
156.2998627944833
  0
ARC
  5
2F6
330
4D
100
AcDbEntity
  8
0
  6
Continuous
 62
     7
100
AcDbCircle
 10
0.00021106980444
 20
-794.863954334447
 30
0.0
 40
75.00000000000095
100
AcDbArc
 50
158.0570022246412
 51
171.2998627944881
  0
ARC
  5
2F7
330
4D
100
AcDbEntity
  8
0
  6
Continuous
 62
     7
100
AcDbCircle
 10
0.00021106980444
 20
-794.863954334447
 30
0.0
 40
78.99999999999754
100
AcDbArc
 50
143.0125144556235
 51
156.344350563503
  0
ARC
  5
2F8
330
4D
100
AcDbEntity
  8
0
  6
Continuous
 62
     7
100
AcDbCircle
 10
0.00021106980444
 20
-794.863954334447
 30
0.0
 40
78.99999999999997
100
AcDbArc
 50
38.01251445562217
 51
51.34435056349909
  0
ARC
  5
2F9
330
4D
100
AcDbEntity
  8
0
  6
Continuous
 62
     7
100
AcDbCircle
 10
0.00021106980444
 20
-794.863954334447
 30
0.0
 40
74.9999999999994
100
AcDbArc
 50
38.05700222463655
 51
51.29986279448326
  0
ARC
  5
2FA
330
4D
100
AcDbEntity
  8
0
  6
Continuous
 62
     7
100
AcDbCircle
 10
0.00021106980444
 20
-794.863954334447
 30
0.0
 40
75.00000000000021
100
AcDbArc
 50
23.05700222463587
 51
36.29986279448384
  0
ARC
  5
2FB
330
4D
100
AcDbEntity
  8
0
  6
Continuous
 62
     7
100
AcDbCircle
 10
0.00021106980444
 20
-794.863954334447
 30
0.0
 40
75.00000000000232
100
AcDbArc
 50
-21.94299777536139
 51
-8.70013720551744
  0
ARC
  5
2FC
330
4D
100
AcDbEntity
  8
0
  6
Continuous
 62
     7
100
AcDbCircle
 10
0.00021106980444
 20
-794.863954334447
 30
0.0
 40
75.00000000000006
100
AcDbArc
 50
133.126210423383
 51
141.2998627944854
  0
ARC
  5
2FD
330
4D
100
AcDbEntity
  8
0
  6
Continuous
 62
     7
100
AcDbCircle
 10
0.00021106980444
 20
-794.8639543344507
 30
0.0
 40
75.00000000000102
100
AcDbArc
 50
128.0570022246426
 51
133.1262104233812
  0
ARC
  5
2FE
330
4D
100
AcDbEntity
  8
0
  6
Continuous
 62
     7
100
AcDbCircle
 10
0.00021106980444
 20
-794.863954334447
 30
0.0
 40
74.99999999999852
100
AcDbArc
 50
98.05700222463949
 51
111.299862794484
  0
ARC
  5
2FF
330
4D
100
AcDbEntity
  8
0
  6
Continuous
 62
     7
100
AcDbCircle
 10
0.00021106980444
 20
-794.863954334447
 30
0.0
 40
74.99999999999972
100
AcDbArc
 50
113.0570022246421
 51
126.2998627944839
  0
ARC
  5
300
330
4D
100
AcDbEntity
  8
0
  6
Continuous
 62
     7
100
AcDbCircle
 10
0.00021106980444
 20
-794.863954334447
 30
0.0
 40
78.99999999999852
100
AcDbArc
 50
98.01251445562225
 51
111.3443505635026
  0
ARC
  5
301
330
4D
100
AcDbEntity
  8
0
  6
Continuous
 62
     7
100
AcDbCircle
 10
0.00021106980444
 20
-794.863954334447
 30
0.0
 40
78.99999999999622
100
AcDbArc
 50
113.0125144556249
 51
126.3443505634999
  0
ARC
  5
302
330
4D
100
AcDbEntity
  8
0
  6
Continuous
 62
     7
100
AcDbCircle
 10
0.00021106980444
 20
-794.863954334447
 30
0.0
 40
78.99999999999935
100
AcDbArc
 50
128.0125144556259
 51
141.3443505635028
  0
ARC
  5
303
330
4D
100
AcDbEntity
  8
0
  6
Continuous
 62
     7
100
AcDbCircle
 10
0.00021106980444
 20
-794.863954334447
 30
0.0
 40
78.99999999999899
100
AcDbArc
 50
83.01251445562244
 51
96.34435056350169
  0
ARC
  5
304
330
4D
100
AcDbEntity
  8
0
  6
Continuous
 62
     7
100
AcDbCircle
 10
0.00021106980444
 20
-794.863954334447
 30
0.0
 40
74.9999999999995
100
AcDbArc
 50
-6.94299777536149
 51
6.29986279448198
  0
ARC
  5
305
330
4D
100
AcDbEntity
  8
0
  6
Continuous
 62
     7
100
AcDbCircle
 10
0.00021106980444
 20
-794.863954334447
 30
0.0
 40
79.00000000000149
100
AcDbArc
 50
23.01251445562044
 51
36.3443505634999
  0
ARC
  5
306
330
4D
100
AcDbEntity
  8
0
  6
Continuous
 62
     7
100
AcDbCircle
 10
0.00021106980444
 20
-794.863954334447
 30
0.0
 40
75.0000000000016
100
AcDbArc
 50
8.05700222463636
 51
21.29986279448294
  0
ARC
  5
307
330
4D
100
AcDbEntity
  8
0
  6
Continuous
 62
     7
100
AcDbCircle
 10
0.00021106980444
 20
-794.863954334447
 30
0.0
 40
79.00000000000162
100
AcDbArc
 50
8.01251445561927
 51
21.3443505634992
  0
ARC
  5
308
330
4D
100
AcDbEntity
  8
0
  6
Continuous
 62
     7
100
AcDbCircle
 10
0.00021106980444
 20
-794.863954334447
 30
0.0
 40
78.99999999999899
100
AcDbArc
 50
-6.98748554437756
 51
6.34435056349908
  0
ARC
  5
309
330
4D
100
AcDbEntity
  8
0
  6
Continuous
 62
     7
100
AcDbCircle
 10
0.00021106980444
 20
-794.863954334447
 30
0.0
 40
78.99999999999933
100
AcDbArc
 50
68.01251445562312
 51
81.34435056349814
  0
ARC
  5
30A
330
4D
100
AcDbEntity
  8
0
  6
Continuous
 62
     7
100
AcDbCircle
 10
0.00021106980444
 20
-794.863954334447
 30
0.0
 40
74.99999999999893
100
AcDbArc
 50
68.05700222463757
 51
81.29986279448255
  0
ARC
  5
30B
330
4D
100
AcDbEntity
  8
0
  6
Continuous
 62
     7
100
AcDbCircle
 10
0.00021106980444
 20
-794.863954334447
 30
0.0
 40
78.99999999999973
100
AcDbArc
 50
53.01251445562143
 51
66.34435056349957
  0
ARC
  5
30C
330
4D
100
AcDbEntity
  8
0
  6
Continuous
 62
     7
100
AcDbCircle
 10
0.00021106980444
 20
-794.863954334447
 30
0.0
 40
74.99999999999777
100
AcDbArc
 50
53.05700222463822
 51
66.2998627944833
  0
ARC
  5
30D
330
4D
100
AcDbEntity
  8
0
  6
Continuous
 62
     7
100
AcDbCircle
 10
0.00021106980444
 20
-794.863954334447
 30
0.0
 40
74.9999999999995
100
AcDbArc
 50
83.05700222463851
 51
96.29986279448475
  0
ARC
  5
30E
330
4D
100
AcDbEntity
  8
0
  6
Continuous
 62
     7
100
AcDbCircle
 10
0.00021106980444
 20
-794.8639543344507
 30
0.0
 40
74.99999999999878
100
AcDbArc
 50
-51.94299777535955
 51
-46.87378957661696
  0
ARC
  5
30F
330
4D
100
AcDbEntity
  8
0
  6
Continuous
 62
     7
100
AcDbCircle
 10
0.00021106980444
 20
-794.863954334447
 30
0.0
 40
75.00000000000286
100
AcDbArc
 50
-36.94299777536234
 51
-28.76943394102487
  0
ARC
  5
310
330
4D
100
AcDbEntity
  8
0
  6
Continuous
 62
     7
100
AcDbCircle
 10
0.00021106980444
 20
-794.8639543344507
 30
0.0
 40
75.00000000000074
100
AcDbArc
 50
-28.76943394102243
 51
-23.70013720551415
  0
ARC
  5
311
330
4D
100
AcDbEntity
  8
0
  6
Continuous
 62
     7
100
AcDbCircle
 10
0.00021106980444
 20
-794.863954334447
 30
0.0
 40
75.00000000000271
100
AcDbArc
 50
-46.87378957661885
 51
-38.70013720551674
  0
ARC
  5
312
330
4D
100
AcDbEntity
  8
0
  6
Continuous
 62
     7
100
AcDbCircle
 10
0.00021106980444
 20
-794.863954334447
 30
0.0
 40
79.0000000000022
100
AcDbArc
 50
-141.9874855443757
 51
-128.6556494364993
  0
ARC
  5
313
330
4D
100
AcDbEntity
  8
0
  6
Continuous
 62
     7
100
AcDbCircle
 10
0.00021106980444
 20
-794.863954334447
 30
0.0
 40
79.00000000000263
100
AcDbArc
 50
-126.987485544377
 51
-113.6556494364994
  0
ARC
  5
314
330
4D
100
AcDbEntity
  8
0
  6
Continuous
 62
     7
100
AcDbCircle
 10
0.00021106980444
 20
-794.863954334447
 30
0.0
 40
78.99999999999903
100
AcDbArc
 50
-171.9874855443751
 51
-158.6556494364984
  0
ARC
  5
315
330
4D
100
AcDbEntity
  8
0
  6
Continuous
 62
     7
100
AcDbCircle
 10
0.00021106980444
 20
-794.863954334447
 30
0.0
 40
78.99999999999957
100
AcDbArc
 50
-156.9874855443761
 51
-143.655649436498
  0
ARC
  5
316
330
4D
100
AcDbEntity
  8
0
  6
Continuous
 62
     7
100
AcDbCircle
 10
0.00021106980444
 20
-794.863954334447
 30
0.0
 40
75.00000000000067
100
AcDbArc
 50
-126.9429977753601
 51
-113.7001372055156
  0
ARC
  5
317
330
4D
100
AcDbEntity
  8
0
  6
Continuous
 62
     7
100
AcDbCircle
 10
0.00021106980444
 20
-794.863954334447
 30
0.0
 40
75.00000000000102
100
AcDbArc
 50
-141.9429977753574
 51
-128.700137205515
  0
ARC
  5
318
330
4D
100
AcDbEntity
  8
0
  6
Continuous
 62
     7
100
AcDbCircle
 10
0.00021106980444
 20
-794.863954334447
 30
0.0
 40
75.00000000000165
100
AcDbArc
 50
-156.9429977753616
 51
-143.7001372055139
  0
ARC
  5
319
330
4D
100
AcDbEntity
  8
0
  6
Continuous
 62
     7
100
AcDbCircle
 10
0.00021106980444
 20
-794.863954334447
 30
0.0
 40
75.00000000000095
100
AcDbArc
 50
-111.9429977753588
 51
-98.70013720551704
  0
ARC
  5
31A
330
4D
100
AcDbEntity
  8
0
  6
Continuous
 62
     7
100
AcDbCircle
 10
0.00021106980444
 20
-794.863954334447
 30
0.0
 40
79.0000000000027
100
AcDbArc
 50
-111.9874855443759
 51
-98.65564943649888
  0
ARC
  5
31B
330
4D
100
AcDbEntity
  8
0
  6
Continuous
 62
     7
100
AcDbCircle
 10
0.00021106980444
 20
-794.863954334447
 30
0.0
 40
74.99999999999903
100
AcDbArc
 50
-171.9429977753578
 51
-158.7001372055171
  0
ARC
  5
31C
330
4D
100
AcDbEntity
  8
0
  6
Continuous
 62
     7
100
AcDbCircle
 10
0.00021106980444
 20
-794.863954334447
 30
0.0
 40
79.00000000000149
100
AcDbArc
 50
-66.98748554437957
 51
-53.65564943650167
  0
ARC
  5
31D
330
4D
100
AcDbEntity
  8
0
  6
Continuous
 62
     7
100
AcDbCircle
 10
0.00021106980444
 20
-794.863954334447
 30
0.0
 40
79.00000000000213
100
AcDbArc
 50
-81.98748554437812
 51
-68.65564943649835
  0
ARC
  5
31E
330
4D
100
AcDbEntity
  8
0
  6
Continuous
 62
     7
100
AcDbCircle
 10
0.00021106980444
 20
-794.863954334447
 30
0.0
 40
75.00000000000165
100
AcDbArc
 50
-66.94299777536158
 51
-53.70013720551781
  0
ARC
  5
31F
330
4D
100
AcDbEntity
  8
0
  6
Continuous
 62
     7
100
AcDbCircle
 10
0.00021106980444
 20
-794.863954334447
 30
0.0
 40
75.00000000000267
100
AcDbArc
 50
-96.9429977753584
 51
-83.70013720551556
  0
ARC
  5
320
330
4D
100
AcDbEntity
  8
0
  6
Continuous
 62
     7
100
AcDbCircle
 10
0.00021106980444
 20
-794.863954334447
 30
0.0
 40
75.00000000000212
100
AcDbArc
 50
-81.9429977753609
 51
-68.70013720551705
  0
ARC
  5
321
330
4D
100
AcDbEntity
  8
0
  6
Continuous
 62
     7
100
AcDbCircle
 10
0.00021106980444
 20
-794.863954334447
 30
0.0
 40
79.0000000000026
100
AcDbArc
 50
-96.98748554437724
 51
-83.65564943649859
  0
ARC
  5
322
330
4D
100
AcDbEntity
  8
0
  6
Continuous
 62
     7
100
AcDbCircle
 10
0.00021106980444
 20
-794.863954334447
 30
0.0
 40
78.99999999999933
100
AcDbArc
 50
-21.98748554437689
 51
-8.65564943649925
  0
ARC
  5
323
330
4D
100
AcDbEntity
  8
0
  6
Continuous
 62
     7
100
AcDbCircle
 10
0.00021106980444
 20
-794.863954334447
 30
0.0
 40
78.99999999999973
100
AcDbArc
 50
-36.98748554437857
 51
-23.65564943649937
  0
ARC
  5
324
330
4D
100
AcDbEntity
  8
0
  6
Continuous
 62
     7
100
AcDbCircle
 10
0.00021106980444
 20
-794.863954334447
 30
0.0
 40
79.00000000000283
100
AcDbArc
 50
-51.98748554437945
 51
-38.65564943649927
  0
ARC
  5
325
330
4D
100
AcDbEntity
  8
0
  6
Continuous
 62
     7
100
AcDbCircle
 10
0.00021106980444
 20
-794.863954334447
 30
0.0
 40
78.99999999999933
100
AcDbArc
 50
158.0125144556231
 51
171.344350563506
  0
ARC
  5
326
330
4D
100
AcDbEntity
  8
0
  6
Continuous
 62
     7
100
AcDbCircle
 10
0.00021106980444
 20
-794.863954334447
 30
0.0
 40
74.99999999999862
100
AcDbArc
 50
173.057002224644
 51
-173.7001372055153
  0
ARC
  5
327
330
4D
100
AcDbEntity
  8
0
  6
Continuous
 62
     7
100
AcDbCircle
 10
0.00021106980444
 20
-794.863954334447
 30
0.0
 40
78.99999999999855
100
AcDbArc
 50
173.0125144556251
 51
-173.6556494364957
  0
ARC
  5
328
330
4D
100
AcDbEntity
  8
0
  6
Continuous
 62
     7
100
AcDbCircle
 10
0.00021106980444
 20
-794.863954334447
 30
0.0
 40
70.50000000000107
100
AcDbArc
 50
143.1130859681924
 51
156.2437790509309
  0
ARC
  5
329
330
4D
100
AcDbEntity
  8
0
  6
Continuous
 62
     7
100
AcDbCircle
 10
0.00021106980444
 20
-794.863954334447
 30
0.0
 40
70.49999999999979
100
AcDbArc
 50
158.1130859681896
 51
171.2437790509339
  0
ARC
  5
32A
330
4D
100
AcDbEntity
  8
0
  6
Continuous
 62
     7
100
AcDbCircle
 10
0.00021106980444
 20
-794.863954334447
 30
0.0
 40
52.00000000000149
100
AcDbArc
 50
68.44565402226283
 51
80.91121099685917
  0
ARC
  5
32B
330
4D
100
AcDbEntity
  8
0
  6
Continuous
 62
     7
100
AcDbCircle
 10
0.00021106980444
 20
-794.863954334447
 30
0.0
 40
70.50000000000045
100
AcDbArc
 50
-21.8869140318038
 51
-8.75622094906608
  0
ARC
  5
32C
330
4D
100
AcDbEntity
  8
0
  6
Continuous
 62
     7
100
AcDbCircle
 10
0.00021106980444
 20
-794.863954334447
 30
0.0
 40
64.49999999999775
100
AcDbArc
 50
-21.79996070122021
 51
-8.84317427964996
  0
ARC
  5
32D
330
4D
100
AcDbEntity
  8
0
  6
Continuous
 62
     7
100
AcDbCircle
 10
0.00021106980444
 20
-794.863954334447
 30
0.0
 40
70.49999999999888
100
AcDbArc
 50
-36.88691403180528
 51
-23.7562209490664
  0
ARC
  5
32E
330
4D
100
AcDbEntity
  8
0
  6
Continuous
 62
     7
100
AcDbCircle
 10
0.00021106980444
 20
-794.863954334447
 30
0.0
 40
51.9999999999979
100
AcDbArc
 50
-36.55434597773833
 51
-24.08878900313619
  0
ARC
  5
32F
330
4D
100
AcDbEntity
  8
0
  6
Continuous
 62
     7
100
AcDbCircle
 10
0.00021106980444
 20
-794.863954334447
 30
0.0
 40
64.5000000000006
100
AcDbArc
 50
-36.79996070122234
 51
-23.84317427965112
  0
ARC
  5
330
330
4D
100
AcDbEntity
  8
0
  6
Continuous
 62
     7
100
AcDbCircle
 10
0.00021106980444
 20
-794.863954334447
 30
0.0
 40
52.00000000000015
100
AcDbArc
 50
-21.55434597773343
 51
-9.08878900313292
  0
ARC
  5
331
330
4D
100
AcDbEntity
  8
0
  6
Continuous
 62
     7
100
AcDbCircle
 10
0.00021106980444
 20
-794.863954334447
 30
0.0
 40
64.49999999999956
100
AcDbArc
 50
128.2000392987784
 51
141.156825720347
  0
ARC
  5
332
330
4D
100
AcDbEntity
  8
0
  6
Continuous
 62
     7
100
AcDbCircle
 10
0.00021106980444
 20
-794.863954334447
 30
0.0
 40
70.50000000000266
100
AcDbArc
 50
128.1130859681925
 51
141.2437790509311
  0
ARC
  5
333
330
4D
100
AcDbEntity
  8
0
  6
Continuous
 62
     7
100
AcDbCircle
 10
0.00021106980444
 20
-794.863954334447
 30
0.0
 40
51.99999999999955
100
AcDbArc
 50
128.4456540222627
 51
140.91121099686
  0
ARC
  5
334
330
4D
100
AcDbEntity
  8
0
  6
Continuous
 62
     7
100
AcDbCircle
 10
0.00021106980444
 20
-794.863954334447
 30
0.0
 40
64.50000000000217
100
AcDbArc
 50
113.2000392987781
 51
126.1568257203459
  0
ARC
  5
335
330
4D
100
AcDbEntity
  8
0
  6
Continuous
 62
     7
100
AcDbCircle
 10
0.00021106980444
 20
-794.863954334447
 30
0.0
 40
51.99999999999989
100
AcDbArc
 50
98.44565402226067
 51
110.9112109968599
  0
ARC
  5
336
330
4D
100
AcDbEntity
  8
0
  6
Continuous
 62
     7
100
AcDbCircle
 10
0.00021106980444
 20
-794.863954334447
 30
0.0
 40
52.00000000000205
100
AcDbArc
 50
113.4456540222643
 51
125.9112109968595
  0
ARC
  5
337
330
4D
100
AcDbEntity
  8
0
  6
Continuous
 62
     7
100
AcDbCircle
 10
0.00021106980444
 20
-794.863954334447
 30
0.0
 40
70.50000000000124
100
AcDbArc
 50
98.1130859681924
 51
111.2437790509304
  0
ARC
  5
338
330
4D
100
AcDbEntity
  8
0
  6
Continuous
 62
     7
100
AcDbCircle
 10
0.00021106980444
 20
-794.863954334447
 30
0.0
 40
64.50000000000088
100
AcDbArc
 50
98.20003929877724
 51
111.1568257203458
  0
ARC
  5
339
330
4D
100
AcDbEntity
  8
0
  6
Continuous
 62
     7
100
AcDbCircle
 10
0.00021106980444
 20
-794.863954334447
 30
0.0
 40
70.50000000000225
100
AcDbArc
 50
113.1130859681931
 51
126.2437790509314
  0
ARC
  5
33A
330
4D
100
AcDbEntity
  8
0
  6
Continuous
 62
     7
100
AcDbCircle
 10
0.00021106980444
 20
-794.863954334447
 30
0.0
 40
52.00000000000061
100
AcDbArc
 50
23.44565402226057
 51
35.91121099686509
  0
ARC
  5
33B
330
4D
100
AcDbEntity
  8
0
  6
Continuous
 62
     7
100
AcDbCircle
 10
0.00021106980444
 20
-794.863954334447
 30
0.0
 40
51.99999999999954
100
AcDbArc
 50
38.44565402226273
 51
50.91121099686316
  0
ARC
  5
33C
330
4D
100
AcDbEntity
  8
0
  6
Continuous
 62
     7
100
AcDbCircle
 10
0.00021106980444
 20
-794.863954334447
 30
0.0
 40
51.99999999999989
100
AcDbArc
 50
8.44565402226067
 51
20.91121099686502
  0
ARC
  5
33D
330
4D
100
AcDbEntity
  8
0
  6
Continuous
 62
     7
100
AcDbCircle
 10
0.00021106980444
 20
-794.863954334447
 30
0.0
 40
70.50000000000081
100
AcDbArc
 50
23.11308596819041
 51
36.24377905093552
  0
ARC
  5
33E
330
4D
100
AcDbEntity
  8
0
  6
Continuous
 62
     7
100
AcDbCircle
 10
0.00021106980444
 20
-794.863954334447
 30
0.0
 40
64.50000000000036
100
AcDbArc
 50
8.20003929877404
 51
21.15682572034878
  0
ARC
  5
33F
330
4D
100
AcDbEntity
  8
0
  6
Continuous
 62
     7
100
AcDbCircle
 10
0.00021106980444
 20
-794.863954334447
 30
0.0
 40
70.50000000000072
100
AcDbArc
 50
8.11308596818947
 51
21.24377905093311
  0
ARC
  5
340
330
4D
100
AcDbEntity
  8
0
  6
Continuous
 62
     7
100
AcDbCircle
 10
0.00021106980444
 20
-794.863954334447
 30
0.0
 40
70.49999999999844
100
AcDbArc
 50
-6.88691403180551
 51
6.2437790509332
  0
ARC
  5
341
330
4D
100
AcDbEntity
  8
0
  6
Continuous
 62
     7
100
AcDbCircle
 10
0.00021106980444
 20
-794.863954334447
 30
0.0
 40
52.00000000000082
100
AcDbArc
 50
53.44565402226406
 51
65.91121099686178
  0
ARC
  5
342
330
4D
100
AcDbEntity
  8
0
  6
Continuous
 62
     7
100
AcDbCircle
 10
0.00021106980444
 20
-794.863954334447
 30
0.0
 40
70.50000000000266
100
AcDbArc
 50
38.11308596819251
 51
51.24377905093297
  0
ARC
  5
343
330
4D
100
AcDbEntity
  8
0
  6
Continuous
 62
     7
100
AcDbCircle
 10
0.00021106980444
 20
-794.863954334447
 30
0.0
 40
70.50000000000107
100
AcDbArc
 50
53.11308596819234
 51
66.24377905093209
  0
ARC
  5
344
330
4D
100
AcDbEntity
  8
0
  6
Continuous
 62
     7
100
AcDbCircle
 10
0.00021106980444
 20
-794.863954334447
 30
0.0
 40
70.50000000000247
100
AcDbArc
 50
83.11308596819191
 51
96.2437790509332
  0
ARC
  5
345
330
4D
100
AcDbEntity
  8
0
  6
Continuous
 62
     7
100
AcDbCircle
 10
0.00021106980444
 20
-794.863954334447
 30
0.0
 40
70.50000000000182
100
AcDbArc
 50
68.11308596819346
 51
81.24377905093145
  0
ARC
  5
346
330
4D
100
AcDbEntity
  8
0
  6
Continuous
 62
     7
100
AcDbCircle
 10
0.00021106980444
 20
-794.863954334447
 30
0.0
 40
64.50000000000249
100
AcDbArc
 50
68.200039298778
 51
81.15682572034366
  0
ARC
  5
347
330
4D
100
AcDbEntity
  8
0
  6
Continuous
 62
     7
100
AcDbCircle
 10
0.00021106980444
 20
-794.863954334447
 30
0.0
 40
64.5000000000006
100
AcDbArc
 50
53.20003929877766
 51
66.15682572034592
  0
ARC
  5
348
330
4D
100
AcDbEntity
  8
0
  6
Continuous
 62
     7
100
AcDbCircle
 10
0.00021106980444
 20
-794.863954334447
 30
0.0
 40
70.49999999999815
100
AcDbArc
 50
-126.8869140318094
 51
-113.7562209490691
  0
ARC
  5
349
330
4D
100
AcDbEntity
  8
0
  6
Continuous
 62
     7
100
AcDbCircle
 10
0.00021106980444
 20
-794.863954334447
 30
0.0
 40
70.49999999999756
100
AcDbArc
 50
-141.886914031808
 51
-128.7562209490689
  0
ARC
  5
34A
330
4D
100
AcDbEntity
  8
0
  6
Continuous
 62
     7
100
AcDbCircle
 10
0.00021106980444
 20
-794.863954334447
 30
0.0
 40
64.4999999999973
100
AcDbArc
 50
-141.7999607012242
 51
-128.843174279653
  0
ARC
  5
34B
330
4D
100
AcDbEntity
  8
0
  6
Continuous
 62
     7
100
AcDbCircle
 10
0.00021106980444
 20
-794.863954334447
 30
0.0
 40
70.50000000000081
100
AcDbArc
 50
-156.8869140318096
 51
-143.7562209490669
  0
ARC
  5
34C
330
4D
100
AcDbEntity
  8
0
  6
Continuous
 62
     7
100
AcDbCircle
 10
0.00021106980444
 20
-794.863954334447
 30
0.0
 40
64.49999999999767
100
AcDbArc
 50
-126.7999607012243
 51
-113.8431742796554
  0
ARC
  5
34D
330
4D
100
AcDbEntity
  8
0
  6
Continuous
 62
     7
100
AcDbCircle
 10
0.00021106980444
 20
-794.863954334447
 30
0.0
 40
70.49999999999844
100
AcDbArc
 50
-111.8869140318077
 51
-98.756220949069
  0
ARC
  5
34E
330
4D
100
AcDbEntity
  8
0
  6
Continuous
 62
     7
100
AcDbCircle
 10
0.00021106980444
 20
-794.863954334447
 30
0.0
 40
51.99999999999989
100
AcDbArc
 50
-81.55434597773933
 51
-69.08878900313873
  0
ARC
  5
34F
330
4D
100
AcDbEntity
  8
0
  6
Continuous
 62
     7
100
AcDbCircle
 10
0.00021106980444
 20
-794.863954334447
 30
0.0
 40
52.00000000000159
100
AcDbArc
 50
173.445654022263
 51
-174.0887890031375
  0
ARC
  5
350
330
4D
100
AcDbEntity
  8
0
  6
Continuous
 62
     7
100
AcDbCircle
 10
0.00021106980444
 20
-794.863954334447
 30
0.0
 40
64.4999999999991
100
AcDbArc
 50
-111.7999607012232
 51
-98.84317427965365
  0
ARC
  5
351
330
4D
100
AcDbEntity
  8
0
  6
Continuous
 62
     7
100
AcDbCircle
 10
0.00021106980444
 20
-794.863954334447
 30
0.0
 40
64.50000000000075
100
AcDbArc
 50
-156.7999607012249
 51
-143.8431742796522
  0
ARC
  5
352
330
4D
100
AcDbEntity
  8
0
  6
Continuous
 62
     7
100
AcDbCircle
 10
0.00021106980444
 20
-794.863954334447
 30
0.0
 40
51.9999999999979
100
AcDbArc
 50
-126.5543459777383
 51
-114.0887890031399
  0
ARC
  5
353
330
4D
100
AcDbEntity
  8
0
  6
Continuous
 62
     7
100
AcDbCircle
 10
0.00021106980444
 20
-794.863954334447
 30
0.0
 40
51.99999999999955
100
AcDbArc
 50
-141.5543459777373
 51
-129.0887890031394
  0
ARC
  5
354
330
4D
100
AcDbEntity
  8
0
  6
Continuous
 62
     7
100
AcDbCircle
 10
0.00021106980444
 20
-794.863954334447
 30
0.0
 40
64.49999999999676
100
AcDbArc
 50
-81.79996070122552
 51
-68.84317427965422
  0
ARC
  5
355
330
4D
100
AcDbEntity
  8
0
  6
Continuous
 62
     7
100
AcDbCircle
 10
0.00021106980444
 20
-794.863954334447
 30
0.0
 40
51.99999999999916
100
AcDbArc
 50
-156.5543459777431
 51
-144.0887890031382
  0
ARC
  5
356
330
4D
100
AcDbEntity
  8
0
  6
Continuous
 62
     7
100
AcDbCircle
 10
0.00021106980444
 20
-794.863954334447
 30
0.0
 40
51.9999999999981
100
AcDbArc
 50
-111.5543459777386
 51
-99.0887890031375
  0
ARC
  5
357
330
4D
100
AcDbEntity
  8
0
  6
Continuous
 62
     7
100
AcDbCircle
 10
0.00021106980444
 20
-794.863954334447
 30
0.0
 40
70.49999999999712
100
AcDbArc
 50
-81.88691403181012
 51
-68.75622094906964
  0
ARC
  5
358
330
4D
100
AcDbEntity
  8
0
  6
Continuous
 62
     7
100
AcDbCircle
 10
0.00021106980444
 20
-794.863954334447
 30
0.0
 40
64.49999999999956
100
AcDbArc
 50
-51.79996070122163
 51
-38.843174279653
  0
ARC
  5
359
330
4D
100
AcDbEntity
  8
0
  6
Continuous
 62
     7
100
AcDbCircle
 10
0.00021106980444
 20
-794.863954334447
 30
0.0
 40
70.49999999999756
100
AcDbArc
 50
-51.88691403180798
 51
-38.75622094906658
  0
ARC
  5
35A
330
4D
100
AcDbEntity
  8
0
  6
Continuous
 62
     7
100
AcDbCircle
 10
0.00021106980444
 20
-794.863954334447
 30
0.0
 40
51.99999999999944
100
AcDbArc
 50
158.4456540222577
 51
170.9112109968631
  0
ARC
  5
35B
330
4D
100
AcDbEntity
  8
0
  6
Continuous
 62
     7
100
AcDbCircle
 10
0.00021106980444
 20
-794.863954334447
 30
0.0
 40
52.00000000000299
100
AcDbArc
 50
143.4456540222609
 51
155.9112109968601
  0
ARC
  5
35C
330
4D
100
AcDbEntity
  8
0
  6
Continuous
 62
     7
100
AcDbCircle
 10
0.00021106980444
 20
-794.863954334447
 30
0.0
 40
64.49999999999777
100
AcDbArc
 50
-96.79996070122051
 51
-83.84317427965084
  0
ARC
  5
35D
330
4D
100
AcDbEntity
  8
0
  6
Continuous
 62
     7
100
AcDbCircle
 10
0.00021106980444
 20
-794.863954334447
 30
0.0
 40
51.99999999999955
100
AcDbArc
 50
-51.55434597773728
 51
-39.08878900313685
  0
ARC
  5
35E
330
4D
100
AcDbEntity
  8
0
  6
Continuous
 62
     7
100
AcDbCircle
 10
0.00021106980444
 20
-794.863954334447
 30
0.0
 40
51.99999999999727
100
AcDbArc
 50
-66.55434597773784
 51
-54.08878900313816
  0
ARC
  5
35F
330
4D
100
AcDbEntity
  8
0
  6
Continuous
 62
     7
100
AcDbCircle
 10
0.00021106980444
 20
-794.863954334447
 30
0.0
 40
64.4999999999974
100
AcDbArc
 50
-66.79996070122361
 51
-53.84317427965224
  0
ARC
  5
360
330
4D
100
AcDbEntity
  8
0
  6
Continuous
 62
     7
100
AcDbCircle
 10
0.00021106980444
 20
-794.863954334447
 30
0.0
 40
51.99999999999798
100
AcDbArc
 50
-96.55434597773748
 51
-84.0887890031371
  0
ARC
  5
361
330
4D
100
AcDbEntity
  8
0
  6
Continuous
 62
     7
100
AcDbCircle
 10
0.00021106980444
 20
-794.863954334447
 30
0.0
 40
70.49999999999844
100
AcDbArc
 50
-96.88691403180552
 51
-83.75622094906649
  0
ARC
  5
362
330
4D
100
AcDbEntity
  8
0
  6
Continuous
 62
     7
100
AcDbCircle
 10
0.00021106980444
 20
-794.863954334447
 30
0.0
 40
70.49999999999747
100
AcDbArc
 50
-66.88691403180843
 51
-53.75622094906687
  0
ARC
  5
363
330
4D
100
AcDbEntity
  8
0
  6
Continuous
 62
     7
100
AcDbCircle
 10
0.00021106980444
 20
-794.863954334447
 30
0.0
 40
64.50000000000138
100
AcDbArc
 50
-6.79996070122013
 51
6.1568257203456
  0
ARC
  5
364
330
4D
100
AcDbEntity
  8
0
  6
Continuous
 62
     7
100
AcDbCircle
 10
0.00021106980444
 20
-794.863954334447
 30
0.0
 40
64.50000000000075
100
AcDbArc
 50
23.20003929877513
 51
36.15682572035036
  0
ARC
  5
365
330
4D
100
AcDbEntity
  8
0
  6
Continuous
 62
     7
100
AcDbCircle
 10
0.00021106980444
 20
-794.863954334447
 30
0.0
 40
64.50000000000242
100
AcDbArc
 50
38.20003929877638
 51
51.15682572034903
  0
ARC
  5
366
330
4D
100
AcDbEntity
  8
0
  6
Continuous
 62
     7
100
AcDbCircle
 10
0.00021106980444
 20
-794.863954334447
 30
0.0
 40
64.5000000000018
100
AcDbArc
 50
83.20003929877666
 51
96.15682572034882
  0
ARC
  5
367
330
4D
100
AcDbEntity
  8
0
  6
Continuous
 62
     7
100
AcDbCircle
 10
0.00021106980444
 20
-794.863954334447
 30
0.0
 40
52.00000000000159
100
AcDbArc
 50
83.44565402226299
 51
95.91121099686251
  0
ARC
  5
368
330
4D
100
AcDbEntity
  8
0
  6
Continuous
 62
     7
100
AcDbCircle
 10
0.00021106980444
 20
-794.863954334447
 30
0.0
 40
64.5000000000018
100
AcDbArc
 50
173.2000392987767
 51
-173.8431742796544
  0
ARC
  5
369
330
4D
100
AcDbEntity
  8
0
  6
Continuous
 62
     7
100
AcDbCircle
 10
0.00021106980444
 20
-794.863954334447
 30
0.0
 40
64.50000000000045
100
AcDbArc
 50
158.2000392987738
 51
171.15682572035
  0
ARC
  5
36A
330
4D
100
AcDbEntity
  8
0
  6
Continuous
 62
     7
100
AcDbCircle
 10
0.00021106980444
 20
-794.863954334447
 30
0.0
 40
64.50000000000058
100
AcDbArc
 50
143.2000392987777
 51
156.1568257203459
  0
ARC
  5
36B
330
4D
100
AcDbEntity
  8
0
  6
Continuous
 62
     7
100
AcDbCircle
 10
0.00021106980444
 20
-794.863954334447
 30
0.0
 40
70.49999999999844
100
AcDbArc
 50
173.1130859681945
 51
-173.7562209490698
  0
ARC
  5
36C
330
4D
100
AcDbEntity
  8
0
  6
Continuous
 62
     7
100
AcDbCircle
 10
0.00021106980444
 20
-794.863954334447
 30
0.0
 40
51.99999999999989
100
AcDbArc
 50
-171.5543459777394
 51
-159.0887890031425
  0
ARC
  5
36D
330
4D
100
AcDbEntity
  8
0
  6
Continuous
 62
     7
100
AcDbCircle
 10
0.00021106980444
 20
-794.863954334447
 30
0.0
 40
52.00000000000158
100
AcDbArc
 50
-6.55434597773702
 51
5.9112109968625
  0
ARC
  5
36E
330
4D
100
AcDbEntity
  8
0
  6
Continuous
 62
     7
100
AcDbCircle
 10
0.00021106980444
 20
-794.863954334447
 30
0.0
 40
70.50000000000072
100
AcDbArc
 50
-171.8869140318105
 51
-158.7562209490696
  0
ARC
  5
36F
330
4D
100
AcDbEntity
  8
0
  6
Continuous
 62
     7
100
AcDbCircle
 10
0.00021106980444
 20
-794.863954334447
 30
0.0
 40
64.50000000000036
100
AcDbArc
 50
-171.799960701226
 51
-158.8431742796572
  0
CIRCLE
  5
370
330
4D
100
AcDbEntity
  8
1
  6
Continuous
 62
     7
100
AcDbCircle
 10
0.00021106980444
 20
-794.863954334447
 30
0.0
 40
177.0
  0
CIRCLE
  5
371
330
4D
100
AcDbEntity
  8
0
  6
Continuous
 62
     7
100
AcDbCircle
 10
73.82510263056633
 20
-853.0523155937444
 30
0.0
 40
6.899999999997339
  0
CIRCLE
  5
372
330
4D
100
AcDbEntity
  8
1
  6
Continuous
 62
     7
100
AcDbCircle
 10
73.82510263055906
 20
-853.0523155937517
 30
0.0
 40
5.499999999999073
  0
CIRCLE
  5
373
330
4D
100
AcDbEntity
  8
0
  6
Continuous
 62
     7
100
AcDbCircle
 10
-13.47994220495434
 20
-887.8923664873437
 30
0.0
 40
6.899999999995374
  0
CIRCLE
  5
374
330
4D
100
AcDbEntity
  8
1
  6
Continuous
 62
     7
100
AcDbCircle
 10
-13.47994220495798
 20
-887.89236648734
 30
0.0
 40
5.500000000002223
  0
CIRCLE
  5
375
330
4D
100
AcDbEntity
  8
0
  6
Continuous
 62
     7
100
AcDbCircle
 10
-87.3048337657126
 20
-829.7040052280463
 30
0.0
 40
6.899999999996075
  0
CIRCLE
  5
376
330
4D
100
AcDbEntity
  8
1
  6
Continuous
 62
     7
100
AcDbCircle
 10
-87.3048337657126
 20
-829.704005228039
 30
0.0
 40
5.5
  0
CIRCLE
  5
377
330
4D
100
AcDbEntity
  8
0
  6
Continuous
 62
     7
100
AcDbCircle
 10
-73.82468049095382
 20
-736.6755930751497
 30
0.0
 40
6.899999999995087
  0
CIRCLE
  5
378
330
4D
100
AcDbEntity
  8
1
  6
Continuous
 62
     7
100
AcDbCircle
 10
-73.82468049094655
 20
-736.675593075146
 30
0.0
 40
5.499999999999073
  0
CIRCLE
  5
379
330
4D
100
AcDbEntity
  8
0
  6
Continuous
 62
     7
100
AcDbCircle
 10
13.48036434456321
 20
-701.8355421815468
 30
0.0
 40
6.899999999995896
  0
CIRCLE
  5
37A
330
4D
100
AcDbEntity
  8
1
  6
Continuous
 62
     7
100
AcDbCircle
 10
13.48036434457049
 20
-701.835542181554
 30
0.0
 40
5.500000000002224
  0
CIRCLE
  5
37B
330
4D
100
AcDbEntity
  8
1
  6
Continuous
 62
     7
100
AcDbCircle
 10
87.30525590532147
 20
-760.0239034408514
 30
0.0
 40
5.5
  0
CIRCLE
  5
37C
330
4D
100
AcDbEntity
  8
0
  6
Continuous
 62
     7
100
AcDbCircle
 10
87.30525590532147
 20
-760.0239034408442
 30
0.0
 40
6.899999999996075
  0
ENDBLK
  5
4F
330
4D
100
AcDbEntity
  8
0
100
AcDbBlockEnd
  0
BLOCK
  5
51
330
50
100
AcDbEntity
  8
0
100
AcDbBlockBegin
  2
HL69_1
 70
     0
 71
     0
 10
-0.0002659301955
 20
-219.0046869999999
 30
0.0
  3
HL69_1
  1

  0
POINT
  5
37D
330
50
100
AcDbEntity
  8
LC-006-003-----0
 62
     7
100
AcDbPoint
 10
48.97587506980449
 20
-152.6210850598732
 30
0.0
  0
POINT
  5
37E
330
50
100
AcDbEntity
  8
LC-006-003-----0
 62
     7
100
AcDbPoint
 10
80.2498680698045
 20
-47.62229300000002
 30
0.0
  0
POINT
  5
37F
330
50
100
AcDbEntity
  8
LC-006-003-----0
 62
     7
100
AcDbPoint
 10
43.79409606980448
 20
-462.621085
 30
0.0
  0
POINT
  5
380
330
50
100
AcDbEntity
  8
LC-006-003-----0
 62
     7
100
AcDbPoint
 10
41.99986706980462
 20
-462.621085
 30
0.0
  0
POINT
  5
381
330
50
100
AcDbEntity
  8
LC-006-003-----0
 62
     7
100
AcDbPoint
 10
48.97587506980449
 20
-226.620938
 30
0.0
  0
POINT
  5
382
330
50
100
AcDbEntity
  8
LC-006-003-----0
 62
     7
100
AcDbPoint
 10
41.99986706980462
 20
-462.621085
 30
0.0
  0
POINT
  5
383
330
50
100
AcDbEntity
  8
LC-006-003-----0
 62
     7
100
AcDbPoint
 10
-45.00013293019549
 20
-458.121085
 30
0.0
  0
POINT
  5
384
330
50
100
AcDbEntity
  8
LC-006-003-----0
 62
     7
100
AcDbPoint
 10
44.99986706980462
 20
-458.121085
 30
0.0
  0
POINT
  5
385
330
50
100
AcDbEntity
  8
LC-006-003-----0
 62
     7
100
AcDbPoint
 10
-53.49804793019553
 20
-449.064149
 30
0.0
  0
POINT
  5
386
330
50
100
AcDbEntity
  8
LC-006-003-----0
 62
     7
100
AcDbPoint
 10
53.49986706980462
 20
-449.111909
 30
0.0
  0
POINT
  5
387
330
50
100
AcDbEntity
  8
LC-006-003-----0
 62
     7
100
AcDbPoint
 10
-73.50013393019549
 20
-47.62229300000002
 30
0.0
  0
POINT
  5
388
330
50
100
AcDbEntity
  8
LC-006-003-----0
 62
     7
100
AcDbPoint
 10
73.49986606980451
 20
-47.62229300000002
 30
0.0
  0
LINE
  5
389
330
50
100
AcDbEntity
  8
LC-002-002-----0
  6
Continuous
 62
     7
100
AcDbLine
 10
-46.00013293019549
 20
-226.1020780598734
 30
0.0
 11
-46.00013293019549
 21
-217.4412720598733
 31
0.0
  0
LINE
  5
38A
330
50
100
AcDbEntity
  8
LC-002-002-----0
  6
Continuous
 62
     7
100
AcDbLine
 10
-46.00013293019549
 20
-226.1020780598734
 30
0.0
 11
-46.00013293019549
 21
-217.4412720598733
 31
0.0
  0
LINE
  5
38B
330
50
100
AcDbEntity
  8
LC-002-002-----0
  6
Continuous
 62
     7
100
AcDbLine
 10
45.99986706980462
 20
-226.1020780598734
 30
0.0
 11
45.99986706980462
 21
-217.4412720598733
 31
0.0
  0
LINE
  5
38C
330
50
100
AcDbEntity
  8
LC-002-002-----0
  6
Continuous
 62
     7
100
AcDbLine
 10
45.99986706980462
 20
-226.1020780598734
 30
0.0
 11
45.99986706980462
 21
-217.4412720598733
 31
0.0
  0
LINE
  5
38D
330
50
100
AcDbEntity
  8
LC-002-002-----0
  6
Continuous
 62
     7
100
AcDbLine
 10
-45.00016633818864
 20
-152.6210850598732
 30
0.0
 11
44.99990106980454
 21
-152.6210850598732
 31
0.0
  0
LINE
  5
38E
330
50
100
AcDbEntity
  8
LC-002-002-----0
  6
Continuous
 62
     7
100
AcDbLine
 10
-46.00013293019549
 20
-154.8056360598732
 30
0.0
 11
45.99986706980462
 21
-154.8056360598732
 31
0.0
  0
LINE
  5
38F
330
50
100
AcDbEntity
  8
LC-002-002-----0
  6
Continuous
 62
     7
100
AcDbLine
 10
-46.00013293019549
 20
-167.1358020598733
 30
0.0
 11
45.99986706980462
 21
-167.1358020598733
 31
0.0
  0
LINE
  5
390
330
50
100
AcDbEntity
  8
LC-002-002-----0
  6
Continuous
 62
     7
100
AcDbLine
 10
-46.00013293019549
 20
-179.4659680598732
 30
0.0
 11
45.99986706980462
 21
-179.4659680598732
 31
0.0
  0
LINE
  5
391
330
50
100
AcDbEntity
  8
LC-002-002-----0
  6
Continuous
 62
     7
100
AcDbLine
 10
-46.00013293019549
 20
-191.7961330598732
 30
0.0
 11
45.99986706980462
 21
-191.7961330598732
 31
0.0
  0
LINE
  5
392
330
50
100
AcDbEntity
  8
LC-002-002-----0
  6
Continuous
 62
     7
100
AcDbLine
 10
-46.00013293019549
 20
-204.1262990598733
 30
0.0
 11
45.99986706980462
 21
-204.1262990598733
 31
0.0
  0
LINE
  5
393
330
50
100
AcDbEntity
  8
LC-002-002-----0
  6
Continuous
 62
     7
100
AcDbLine
 10
-46.00013293019549
 20
-216.4564650598732
 30
0.0
 11
45.99986706980462
 21
-216.4564650598732
 31
0.0
  0
LINE
  5
394
330
50
100
AcDbEntity
  8
LC-002-002-----0
  6
Continuous
 62
     7
100
AcDbLine
 10
-46.50013293019549
 20
-201.9417470598732
 30
0.0
 11
46.49986706980462
 21
-201.9417470598732
 31
0.0
  0
LINE
  5
395
330
50
100
AcDbEntity
  8
LC-002-002-----0
  6
Continuous
 62
     7
100
AcDbLine
 10
53.04703506980445
 20
-153.7087390598732
 30
0.0
 11
46.82621906980444
 21
-154.8056360598732
 31
0.0
  0
LINE
  5
396
330
50
100
AcDbEntity
  8
LC-002-002-----0
  6
Continuous
 62
     7
100
AcDbLine
 10
-53.04730093019555
 20
-153.7087390598732
 30
0.0
 11
-46.82648493019553
 21
-154.8056360598732
 31
0.0
  0
LINE
  5
397
330
50
100
AcDbEntity
  8
LC-002-002-----0
  6
Continuous
 62
     7
100
AcDbLine
 10
52.99986706980462
 20
-201.9417470598732
 30
0.0
 11
46.49986706980462
 21
-201.9417470598732
 31
0.0
  0
LINE
  5
398
330
50
100
AcDbEntity
  8
LC-002-002-----0
  6
Continuous
 62
     7
100
AcDbLine
 10
-53.00013293019549
 20
-201.9417470598732
 30
0.0
 11
-46.50013293019549
 21
-201.9417470598732
 31
0.0
  0
LINE
  5
399
330
50
100
AcDbEntity
  8
LC-002-002-----0
  6
Continuous
 62
     7
100
AcDbLine
 10
-49.75013293019549
 20
-214.2719130598733
 30
0.0
 11
52.99986706980462
 21
-214.2719130598733
 31
0.0
  0
LINE
  5
39A
330
50
100
AcDbEntity
  8
LC-002-002-----0
  6
Continuous
 62
     7
100
AcDbLine
 10
45.99986706980462
 20
-213.7719130598733
 30
0.0
 11
45.99986706980462
 21
-205.1111070598732
 31
0.0
  0
LINE
  5
39B
330
50
100
AcDbEntity
  8
LC-002-002-----0
  6
Continuous
 62
     7
100
AcDbLine
 10
-46.50013293019549
 20
-214.2719130598733
 30
0.0
 11
-53.00013293019549
 21
-214.2719130598733
 31
0.0
  0
LINE
  5
39C
330
50
100
AcDbEntity
  8
LC-002-002-----0
  6
Continuous
 62
     7
100
AcDbLine
 10
-46.00013293019549
 20
-213.7719130598733
 30
0.0
 11
-46.00013293019549
 21
-205.1111070598732
 31
0.0
  0
LINE
  5
39D
330
50
100
AcDbEntity
  8
LC-002-002-----0
  6
Continuous
 62
     7
100
AcDbLine
 10
45.99986706980462
 20
-164.4512500598732
 30
0.0
 11
45.99986706980462
 21
-155.7904440598732
 31
0.0
  0
LINE
  5
39E
330
50
100
AcDbEntity
  8
LC-002-002-----0
  6
Continuous
 62
     7
100
AcDbLine
 10
45.99986706980462
 20
-176.7814160598732
 30
0.0
 11
45.99986706980462
 21
-168.1206100598732
 31
0.0
  0
LINE
  5
39F
330
50
100
AcDbEntity
  8
LC-002-002-----0
  6
Continuous
 62
     7
100
AcDbLine
 10
45.99986706980462
 20
-189.1115820598731
 30
0.0
 11
45.99986706980462
 21
-180.4507750598732
 31
0.0
  0
LINE
  5
3A0
330
50
100
AcDbEntity
  8
LC-002-002-----0
  6
Continuous
 62
     7
100
AcDbLine
 10
45.99986706980462
 20
-201.4417470598732
 30
0.0
 11
45.99986706980462
 21
-192.7809410598732
 31
0.0
  0
LINE
  5
3A1
330
50
100
AcDbEntity
  8
LC-002-002-----0
  6
Continuous
 62
     7
100
AcDbLine
 10
53.04703506980445
 20
-215.3595670598732
 30
0.0
 11
46.82621906980444
 21
-216.4564650598732
 31
0.0
  0
LINE
  5
3A2
330
50
100
AcDbEntity
  8
LC-002-002-----0
  6
Continuous
 62
     7
100
AcDbLine
 10
53.04703506980445
 20
-203.0294010598734
 30
0.0
 11
46.82621906980444
 21
-204.1262990598733
 31
0.0
  0
LINE
  5
3A3
330
50
100
AcDbEntity
  8
LC-002-002-----0
  6
Continuous
 62
     7
100
AcDbLine
 10
53.04703506980445
 20
-190.6992360598732
 30
0.0
 11
46.82621906980444
 21
-191.7961330598732
 31
0.0
  0
LINE
  5
3A4
330
50
100
AcDbEntity
  8
LC-002-002-----0
  6
Continuous
 62
     7
100
AcDbLine
 10
52.95187806980448
 20
-152.6210850598732
 30
0.0
 11
44.9998720698045
 21
-152.6210850598732
 31
0.0
  0
LINE
  5
3A5
330
50
100
AcDbEntity
  8
LC-002-002-----0
  6
Continuous
 62
     7
100
AcDbLine
 10
-46.00013293019549
 20
-164.4512500598732
 30
0.0
 11
-46.00013293019549
 21
-155.7904440598732
 31
0.0
  0
LINE
  5
3A6
330
50
100
AcDbEntity
  8
LC-002-002-----0
  6
Continuous
 62
     7
100
AcDbLine
 10
-46.00013293019549
 20
-176.7814160598732
 30
0.0
 11
-46.00013293019549
 21
-168.1206100598732
 31
0.0
  0
LINE
  5
3A7
330
50
100
AcDbEntity
  8
LC-002-002-----0
  6
Continuous
 62
     7
100
AcDbLine
 10
-46.00013293019549
 20
-189.1115820598731
 30
0.0
 11
-46.00013293019549
 21
-180.4507750598732
 31
0.0
  0
LINE
  5
3A8
330
50
100
AcDbEntity
  8
LC-002-002-----0
  6
Continuous
 62
     7
100
AcDbLine
 10
-46.00013293019549
 20
-201.4417470598732
 30
0.0
 11
-46.00013293019549
 21
-192.7809410598732
 31
0.0
  0
LINE
  5
3A9
330
50
100
AcDbEntity
  8
LC-002-002-----0
  6
Continuous
 62
     7
100
AcDbLine
 10
-53.04730093019555
 20
-215.3595670598732
 30
0.0
 11
-46.82648493019553
 21
-216.4564650598732
 31
0.0
  0
LINE
  5
3AA
330
50
100
AcDbEntity
  8
LC-002-002-----0
  6
Continuous
 62
     7
100
AcDbLine
 10
-53.04730093019555
 20
-203.0294010598734
 30
0.0
 11
-46.82648493019553
 21
-204.1262990598733
 31
0.0
  0
LINE
  5
3AB
330
50
100
AcDbEntity
  8
LC-002-002-----0
  6
Continuous
 62
     7
100
AcDbLine
 10
-53.04730093019555
 20
-190.6992360598732
 30
0.0
 11
-46.82648493019553
 21
-191.7961330598732
 31
0.0
  0
LINE
  5
3AC
330
50
100
AcDbEntity
  8
LC-002-002-----0
  6
Continuous
 62
     7
100
AcDbLine
 10
52.99986706980462
 20
-164.9512500598732
 30
0.0
 11
-46.50013293019549
 21
-164.9512500598732
 31
0.0
  0
LINE
  5
3AD
330
50
100
AcDbEntity
  8
LC-002-002-----0
  6
Continuous
 62
     7
100
AcDbLine
 10
52.99986706980462
 20
-177.2814160598732
 30
0.0
 11
46.49986706980462
 21
-177.2814160598732
 31
0.0
  0
LINE
  5
3AE
330
50
100
AcDbEntity
  8
LC-002-002-----0
  6
Continuous
 62
     7
100
AcDbLine
 10
52.99986706980462
 20
-189.6115820598731
 30
0.0
 11
-49.75013293019549
 21
-189.6115820598731
 31
0.0
  0
LINE
  5
3AF
330
50
100
AcDbEntity
  8
LC-002-002-----0
  6
Continuous
 62
     7
100
AcDbLine
 10
-52.95214293019558
 20
-152.6210850598732
 30
0.0
 11
-45.00016633818864
 21
-152.6210850598732
 31
0.0
  0
LINE
  5
3B0
330
50
100
AcDbEntity
  8
LC-002-002-----0
  6
Continuous
 62
     7
100
AcDbLine
 10
-53.00013293019549
 20
-164.9512500598732
 30
0.0
 11
-46.50013293019549
 21
-164.9512500598732
 31
0.0
  0
LINE
  5
3B1
330
50
100
AcDbEntity
  8
LC-002-002-----0
  6
Continuous
 62
     7
100
AcDbLine
 10
-53.00013293019549
 20
-177.2814160598732
 30
0.0
 11
46.49986706980462
 21
-177.2814160598732
 31
0.0
  0
LINE
  5
3B2
330
50
100
AcDbEntity
  8
LC-002-002-----0
  6
Continuous
 62
     7
100
AcDbLine
 10
-53.00013293019549
 20
-189.6115820598731
 30
0.0
 11
-46.50013293019549
 21
-189.6115820598731
 31
0.0
  0
LINE
  5
3B3
330
50
100
AcDbEntity
  8
LC-002-002-----0
  6
Continuous
 62
     7
100
AcDbLine
 10
53.04703506980445
 20
-178.3690700598732
 30
0.0
 11
46.82621906980444
 21
-179.4659680598732
 31
0.0
  0
LINE
  5
3B4
330
50
100
AcDbEntity
  8
LC-002-002-----0
  6
Continuous
 62
     7
100
AcDbLine
 10
53.04703506980445
 20
-166.0389040598732
 30
0.0
 11
46.82621906980444
 21
-167.1358020598733
 31
0.0
  0
LINE
  5
3B5
330
50
100
AcDbEntity
  8
LC-002-002-----0
  6
Continuous
 62
     7
100
AcDbLine
 10
-53.04730093019555
 20
-178.3690700598732
 30
0.0
 11
-46.82648493019553
 21
-179.4659680598732
 31
0.0
  0
LINE
  5
3B6
330
50
100
AcDbEntity
  8
LC-002-002-----0
  6
Continuous
 62
     7
100
AcDbLine
 10
-53.04730093019555
 20
-166.0389040598732
 30
0.0
 11
-46.82648493019553
 21
-167.1358020598733
 31
0.0
  0
LINE
  5
3B7
330
50
100
AcDbEntity
  8
LC-002-002-----0
  6
Continuous
 62
     7
100
AcDbLine
 10
-129.6359384009579
 20
-6.08147872037235
 30
0.0
 11
-152.7429989301955
 21
-6.08151039365077
 31
0.0
  0
LINE
  5
3B8
330
50
100
AcDbEntity
  8
LC-002-002-----0
  6
Continuous
 62
     7
100
AcDbLine
 10
129.6315334687952
 20
-6.08112333761771
 30
0.0
 11
-129.6359384009579
 21
-6.08147872037235
 31
0.0
  0
LINE
  5
3B9
330
50
100
AcDbEntity
  8
LC-002-002-----0
  6
Continuous
 62
     7
100
AcDbLine
 10
-63.00013893019548
 20
-65.80881800000004
 30
0.0
 11
62.99987106980461
 21
-65.80881800000004
 31
0.0
  0
LINE
  5
3BA
330
50
100
AcDbEntity
  8
LC-002-002-----0
  6
Continuous
 62
     2
100
AcDbLine
 10
80.2498680698045
 20
-47.62229300000002
 30
0.0
 11
77.7498680698045
 21
-47.62229300000002
 31
0.0
  0
LINE
  5
3BB
330
50
100
AcDbEntity
  8
LC-002-002-----0
  6
Continuous
 62
     7
100
AcDbLine
 10
-62.50013193019549
 20
-47.62229300000002
 30
0.0
 11
-0.00020093019555
 21
-47.62229300000002
 31
0.0
  0
LINE
  5
3BC
330
50
100
AcDbEntity
  8
LC-002-002-----0
  6
Continuous
 62
     7
100
AcDbLine
 10
0.00021106980444
 20
-462.621085
 30
0.0
 11
41.99986706980462
 21
-462.621085
 31
0.0
  0
LINE
  5
3BD
330
50
100
AcDbEntity
  8
LC-002-002-----0
  6
Continuous
 62
     7
100
AcDbLine
 10
-80.7501319301955
 20
-33.17108500000003
 30
0.0
 11
-80.7501319301955
 21
-44.62229300000002
 31
0.0
  0
LINE
  5
3BE
330
50
100
AcDbEntity
  8
LC-002-002-----0
  6
Continuous
 62
     7
100
AcDbLine
 10
-77.7501319301955
 20
-47.62229300000002
 30
0.0
 11
-62.50013193019549
 21
-47.62229300000002
 31
0.0
  0
LINE
  5
3BF
330
50
100
AcDbEntity
  8
LC-002-002-----0
  6
Continuous
 62
     7
100
AcDbLine
 10
-81.49169893019553
 20
-32.42951800000004
 30
0.0
 11
-80.7501319301955
 21
-33.17108500000003
 31
0.0
  0
LINE
  5
3C0
330
50
100
AcDbEntity
  8
LC-002-002-----0
  6
Continuous
 62
     7
100
AcDbLine
 10
81.49143606980442
 20
-32.42951800000004
 30
0.0
 11
80.7498680698045
 21
-33.17108500000003
 31
0.0
  0
LINE
  5
3C1
330
50
100
AcDbEntity
  8
LC-002-002-----0
  6
Continuous
 62
     7
100
AcDbLine
 10
80.7498680698045
 20
-33.17108500000003
 30
0.0
 11
80.7498680698045
 21
-44.62229300000002
 31
0.0
  0
LINE
  5
3C2
330
50
100
AcDbEntity
  8
LC-002-002-----0
  6
Continuous
 62
     7
100
AcDbLine
 10
-129.6359384009579
 20
-6.08147872037235
 30
0.0
 11
-123.1133689301955
 21
-8.45546800000001
 31
0.0
  0
LINE
  5
3C3
330
50
100
AcDbEntity
  8
LC-002-002-----0
  6
DASHDOT
 62
     2
100
AcDbLine
 10
-0.00008393019561
 20
-101.622639
 30
0.0
 11
0.00021106980444
 21
-462.621085
 31
0.0
  0
LINE
  5
3C4
330
50
100
AcDbEntity
  8
LC-002-002-----0
  6
Continuous
 62
     7
100
AcDbLine
 10
129.6315334687952
 20
-6.08112333761771
 30
0.0
 11
123.1060470698044
 21
-8.45546800000001
 31
0.0
  0
LINE
  5
3C5
330
50
100
AcDbEntity
  8
LC-002-002-----0
  6
Continuous
 62
     7
100
AcDbLine
 10
43.79409606980448
 20
-462.621085
 30
0.0
 11
44.99986706980462
 21
-458.121085
 31
0.0
  0
LINE
  5
3C6
330
50
100
AcDbEntity
  8
LC-002-002-----0
  6
Continuous
 62
     7
100
AcDbLine
 10
-43.79436093019558
 20
-462.621085
 30
0.0
 11
-45.00013293019549
 21
-458.121085
 31
0.0
  0
LINE
  5
3C7
330
50
100
AcDbEntity
  8
LC-002-002-----0
  6
Continuous
 62
     7
100
AcDbLine
 10
0.00021106980444
 20
-462.621085
 30
0.0
 11
-42.00013293019549
 21
-462.621085
 31
0.0
  0
LINE
  5
3C8
330
50
100
AcDbEntity
  8
LC-002-002-----0
  6
Continuous
 62
     7
100
AcDbLine
 10
-42.00013293019549
 20
-462.621085
 30
0.0
 11
-43.79436093019558
 21
-462.621085
 31
0.0
  0
LINE
  5
3C9
330
50
100
AcDbEntity
  8
LC-002-002-----0
  6
Continuous
 62
     7
100
AcDbLine
 10
41.99986706980462
 20
-462.621085
 30
0.0
 11
43.79409606980448
 21
-462.621085
 31
0.0
  0
LINE
  5
3CA
330
50
100
AcDbEntity
  8
LC-002-002-----0
  6
Continuous
 62
     7
100
AcDbLine
 10
124.7335230698045
 20
-9.262457
 30
0.0
 11
124.4396770698045
 21
-8.45512700000002
 31
0.0
  0
LINE
  5
3CB
330
50
100
AcDbEntity
  8
LC-002-002-----0
  6
Continuous
 62
     7
100
AcDbLine
 10
124.7335230698045
 20
-9.262457
 30
0.0
 11
105.0431450698045
 21
-16.42922900000004
 31
0.0
  0
LINE
  5
3CC
330
50
100
AcDbEntity
  8
LC-002-002-----0
  6
Continuous
 62
     7
100
AcDbLine
 10
102.0032580698046
 20
-16.42923800000001
 30
0.0
 11
105.0431450698045
 21
-16.42922900000004
 31
0.0
  0
LINE
  5
3CD
330
50
100
AcDbEntity
  8
LC-002-002-----0
  6
Continuous
 62
     7
100
AcDbLine
 10
101.5032980698045
 20
-30.92923900000002
 30
0.0
 11
101.5032600698046
 21
-16.92923900000001
 31
0.0
  0
LINE
  5
3CE
330
50
100
AcDbEntity
  8
LC-002-002-----0
  6
Continuous
 62
     7
100
AcDbLine
 10
-101.5037459301955
 20
-30.92951800000004
 30
0.0
 11
-101.5037459301955
 21
-16.92951800000004
 31
0.0
  0
LINE
  5
3CF
330
50
100
AcDbEntity
  8
LC-002-002-----0
  6
Continuous
 62
     7
100
AcDbLine
 10
-124.7340309301956
 20
-9.26279900000004
 30
0.0
 11
-105.0436329301955
 21
-16.42951800000004
 31
0.0
  0
LINE
  5
3D0
330
50
100
AcDbEntity
  8
LC-002-002-----0
  6
Continuous
 62
     7
100
AcDbLine
 10
-102.0037459301955
 20
-16.42951800000004
 30
0.0
 11
-105.0436329301955
 21
-16.42951800000004
 31
0.0
  0
LINE
  5
3D1
330
50
100
AcDbEntity
  8
LC-002-002-----0
  6
Continuous
 62
     7
100
AcDbLine
 10
-124.7340309301956
 20
-9.26279900000004
 30
0.0
 11
-124.4401859301955
 21
-8.45546800000001
 31
0.0
  0
LINE
  5
3D2
330
50
100
AcDbEntity
  8
LC-002-002-----0
  6
Continuous
 62
     7
100
AcDbLine
 10
100.0033020698045
 20
-32.42924300000001
 30
0.0
 11
97.50330206980448
 21
-32.42925000000005
 31
0.0
  0
LINE
  5
3D3
330
50
100
AcDbEntity
  8
LC-002-002-----0
  6
DASHDOT
 62
     2
100
AcDbLine
 10
-0.00035993019549
 20
68.54282499999997
 30
0.0
 11
-0.00014193019547
 21
-101.622639
 31
0.0
  0
LINE
  5
3D4
330
50
100
AcDbEntity
  8
LC-002-002-----0
  6
Continuous
 62
     7
100
AcDbLine
 10
-53.04730093019555
 20
-240.038757
 30
0.0
 11
-46.82648493019553
 21
-241.1356550000001
 31
0.0
  0
LINE
  5
3D5
330
50
100
AcDbEntity
  8
LC-002-002-----0
  6
Continuous
 62
     7
100
AcDbLine
 10
-53.04730093019555
 20
-252.368923
 30
0.0
 11
-46.82648493019553
 21
-253.465821
 31
0.0
  0
LINE
  5
3D6
330
50
100
AcDbEntity
  8
LC-002-002-----0
  6
Continuous
 62
     7
100
AcDbLine
 10
53.04703506980445
 20
-240.038757
 30
0.0
 11
46.82621906980444
 21
-241.1356550000001
 31
0.0
  0
LINE
  5
3D7
330
50
100
AcDbEntity
  8
LC-002-002-----0
  6
Continuous
 62
     7
100
AcDbLine
 10
53.04703506980445
 20
-252.368923
 30
0.0
 11
46.82621906980444
 21
-253.465821
 31
0.0
  0
LINE
  5
3D8
330
50
100
AcDbEntity
  8
LC-002-002-----0
  6
Continuous
 62
     7
100
AcDbLine
 10
-53.00013293019549
 20
-263.611435
 30
0.0
 11
-46.50013293019549
 21
-263.611435
 31
0.0
  0
LINE
  5
3D9
330
50
100
AcDbEntity
  8
LC-002-002-----0
  6
Continuous
 62
     7
100
AcDbLine
 10
-53.00013293019549
 20
-251.281269
 30
0.0
 11
46.49986706980462
 21
-251.281269
 31
0.0
  0
LINE
  5
3DA
330
50
100
AcDbEntity
  8
LC-002-002-----0
  6
Continuous
 62
     7
100
AcDbLine
 10
-53.00013293019549
 20
-238.951103
 30
0.0
 11
-46.50013293019549
 21
-238.951103
 31
0.0
  0
LINE
  5
3DB
330
50
100
AcDbEntity
  8
LC-002-002-----0
  6
Continuous
 62
     7
100
AcDbLine
 10
-52.95214293019558
 20
-226.620938
 30
0.0
 11
44.99990106980454
 21
-226.620938
 31
0.0
  0
LINE
  5
3DC
330
50
100
AcDbEntity
  8
LC-002-002-----0
  6
Continuous
 62
     7
100
AcDbLine
 10
52.99986706980462
 20
-263.611435
 30
0.0
 11
-49.75013293019549
 21
-263.611435
 31
0.0
  0
LINE
  5
3DD
330
50
100
AcDbEntity
  8
LC-002-002-----0
  6
Continuous
 62
     7
100
AcDbLine
 10
52.99986706980462
 20
-251.281269
 30
0.0
 11
46.49986706980462
 21
-251.281269
 31
0.0
  0
LINE
  5
3DE
330
50
100
AcDbEntity
  8
LC-002-002-----0
  6
Continuous
 62
     7
100
AcDbLine
 10
52.99986706980462
 20
-238.951103
 30
0.0
 11
-46.50013293019549
 21
-238.951103
 31
0.0
  0
LINE
  5
3DF
330
50
100
AcDbEntity
  8
LC-002-002-----0
  6
Continuous
 62
     7
100
AcDbLine
 10
-53.04730093019555
 20
-264.6990890000001
 30
0.0
 11
-46.82648493019553
 21
-265.795986
 31
0.0
  0
LINE
  5
3E0
330
50
100
AcDbEntity
  8
LC-002-002-----0
  6
Continuous
 62
     7
100
AcDbLine
 10
-53.04730093019555
 20
-277.0292540000002
 30
0.0
 11
-46.82648493019553
 21
-278.1261520000001
 31
0.0
  0
LINE
  5
3E1
330
50
100
AcDbEntity
  8
LC-002-002-----0
  6
Continuous
 62
     7
100
AcDbLine
 10
-53.04730093019555
 20
-289.35942
 30
0.0
 11
-46.82648493019553
 21
-290.456318
 31
0.0
  0
LINE
  5
3E2
330
50
100
AcDbEntity
  8
LC-002-002-----0
  6
Continuous
 62
     7
100
AcDbLine
 10
-46.00013293019549
 20
-275.4416
 30
0.0
 11
-46.00013293019549
 21
-266.780794
 31
0.0
  0
LINE
  5
3E3
330
50
100
AcDbEntity
  8
LC-002-002-----0
  6
Continuous
 62
     7
100
AcDbLine
 10
-46.00013293019549
 20
-263.111435
 30
0.0
 11
-46.00013293019549
 21
-254.450628
 31
0.0
  0
LINE
  5
3E4
330
50
100
AcDbEntity
  8
LC-002-002-----0
  6
Continuous
 62
     7
100
AcDbLine
 10
-46.00013293019549
 20
-250.781269
 30
0.0
 11
-46.00013293019549
 21
-242.120463
 31
0.0
  0
LINE
  5
3E5
330
50
100
AcDbEntity
  8
LC-002-002-----0
  6
Continuous
 62
     7
100
AcDbLine
 10
-46.00013293019549
 20
-238.451103
 30
0.0
 11
-46.00013293019549
 21
-229.790297
 31
0.0
  0
LINE
  5
3E6
330
50
100
AcDbEntity
  8
LC-002-002-----0
  6
Continuous
 62
     7
100
AcDbLine
 10
52.95187806980448
 20
-226.620938
 30
0.0
 11
44.9998720698045
 21
-226.620938
 31
0.0
  0
LINE
  5
3E7
330
50
100
AcDbEntity
  8
LC-002-002-----0
  6
Continuous
 62
     7
100
AcDbLine
 10
53.04703506980445
 20
-264.6990890000001
 30
0.0
 11
46.82621906980444
 21
-265.795986
 31
0.0
  0
LINE
  5
3E8
330
50
100
AcDbEntity
  8
LC-002-002-----0
  6
Continuous
 62
     7
100
AcDbLine
 10
53.04703506980445
 20
-277.0292540000002
 30
0.0
 11
46.82621906980444
 21
-278.1261520000001
 31
0.0
  0
LINE
  5
3E9
330
50
100
AcDbEntity
  8
LC-002-002-----0
  6
Continuous
 62
     7
100
AcDbLine
 10
53.04703506980445
 20
-289.35942
 30
0.0
 11
46.82621906980444
 21
-290.456318
 31
0.0
  0
LINE
  5
3EA
330
50
100
AcDbEntity
  8
LC-002-002-----0
  6
Continuous
 62
     7
100
AcDbLine
 10
45.99986706980462
 20
-275.4416
 30
0.0
 11
45.99986706980462
 21
-266.780794
 31
0.0
  0
LINE
  5
3EB
330
50
100
AcDbEntity
  8
LC-002-002-----0
  6
Continuous
 62
     7
100
AcDbLine
 10
45.99986706980462
 20
-263.111435
 30
0.0
 11
45.99986706980462
 21
-254.450628
 31
0.0
  0
LINE
  5
3EC
330
50
100
AcDbEntity
  8
LC-002-002-----0
  6
Continuous
 62
     7
100
AcDbLine
 10
45.99986706980462
 20
-250.781269
 30
0.0
 11
45.99986706980462
 21
-242.120463
 31
0.0
  0
LINE
  5
3ED
330
50
100
AcDbEntity
  8
LC-002-002-----0
  6
Continuous
 62
     7
100
AcDbLine
 10
45.99986706980462
 20
-238.451103
 30
0.0
 11
45.99986706980462
 21
-229.790297
 31
0.0
  0
LINE
  5
3EE
330
50
100
AcDbEntity
  8
LC-002-002-----0
  6
Continuous
 62
     7
100
AcDbLine
 10
-46.00013293019549
 20
-451.733279
 30
0.0
 11
-46.00013293019549
 21
-452.121085
 31
0.0
  0
LINE
  5
3EF
330
50
100
AcDbEntity
  8
LC-002-002-----0
  6
Continuous
 62
     7
100
AcDbLine
 10
-46.00013293019549
 20
-448.0639190000001
 30
0.0
 11
-46.00013293019549
 21
-439.403113
 31
0.0
  0
LINE
  5
3F0
330
50
100
AcDbEntity
  8
LC-002-002-----0
  6
Continuous
 62
     7
100
AcDbLine
 10
-46.00013293019549
 20
-287.7717660000001
 30
0.0
 11
-46.00013293019549
 21
-279.11096
 31
0.0
  0
LINE
  5
3F1
330
50
100
AcDbEntity
  8
LC-002-002-----0
  6
Continuous
 62
     7
100
AcDbLine
 10
-46.50013293019549
 20
-448.5639190000001
 30
0.0
 11
-53.00013293019549
 21
-448.5639190000001
 31
0.0
  0
LINE
  5
3F2
330
50
100
AcDbEntity
  8
LC-002-002-----0
  6
Continuous
 62
     7
100
AcDbLine
 10
-46.00013293019549
 20
-300.1019310000002
 30
0.0
 11
-46.00013293019549
 21
-291.4411250000001
 31
0.0
  0
LINE
  5
3F3
330
50
100
AcDbEntity
  8
LC-002-002-----0
  6
Continuous
 62
     7
100
AcDbLine
 10
-46.00013293019549
 20
-312.432097
 30
0.0
 11
-46.00013293019549
 21
-303.771291
 31
0.0
  0
LINE
  5
3F4
330
50
100
AcDbEntity
  8
LC-002-002-----0
  6
Continuous
 62
     7
100
AcDbLine
 10
-46.00013293019549
 20
-324.762263
 30
0.0
 11
-46.00013293019549
 21
-316.101457
 31
0.0
  0
LINE
  5
3F5
330
50
100
AcDbEntity
  8
LC-002-002-----0
  6
Continuous
 62
     7
100
AcDbLine
 10
-46.50013293019549
 20
-436.233754
 30
0.0
 11
-53.00013293019549
 21
-436.233754
 31
0.0
  0
LINE
  5
3F6
330
50
100
AcDbEntity
  8
LC-002-002-----0
  6
Continuous
 62
     7
100
AcDbLine
 10
-53.04730093019555
 20
-301.689586
 30
0.0
 11
-46.82648493019553
 21
-302.786483
 31
0.0
  0
LINE
  5
3F7
330
50
100
AcDbEntity
  8
LC-002-002-----0
  6
Continuous
 62
     7
100
AcDbLine
 10
-46.50013293019549
 20
-423.903588
 30
0.0
 11
-53.00013293019549
 21
-423.903588
 31
0.0
  0
LINE
  5
3F8
330
50
100
AcDbEntity
  8
LC-002-002-----0
  6
Continuous
 62
     7
100
AcDbLine
 10
-53.04730093019555
 20
-314.019751
 30
0.0
 11
-46.82648493019553
 21
-315.1166490000001
 31
0.0
  0
LINE
  5
3F9
330
50
100
AcDbEntity
  8
LC-002-002-----0
  6
Continuous
 62
     7
100
AcDbLine
 10
-46.50013293019549
 20
-411.5734220000001
 30
0.0
 11
-53.00013293019549
 21
-411.5734220000001
 31
0.0
  0
LINE
  5
3FA
330
50
100
AcDbEntity
  8
LC-002-002-----0
  6
Continuous
 62
     7
100
AcDbLine
 10
-53.04730093019555
 20
-326.349917
 30
0.0
 11
-46.82648493019553
 21
-327.446815
 31
0.0
  0
LINE
  5
3FB
330
50
100
AcDbEntity
  8
LC-002-002-----0
  6
Continuous
 62
     7
100
AcDbLine
 10
-46.50013293019549
 20
-399.243257
 30
0.0
 11
-53.00013293019549
 21
-399.243257
 31
0.0
  0
LINE
  5
3FC
330
50
100
AcDbEntity
  8
LC-002-002-----0
  6
Continuous
 62
     7
100
AcDbLine
 10
-53.04730093019555
 20
-338.680083
 30
0.0
 11
-46.82648493019553
 21
-339.77698
 31
0.0
  0
LINE
  5
3FD
330
50
100
AcDbEntity
  8
LC-002-002-----0
  6
Continuous
 62
     7
100
AcDbLine
 10
-53.04730093019555
 20
-351.0102480000001
 30
0.0
 11
-46.82648493019553
 21
-352.1071460000001
 31
0.0
  0
LINE
  5
3FE
330
50
100
AcDbEntity
  8
LC-002-002-----0
  6
Continuous
 62
     7
100
AcDbLine
 10
46.49986706980462
 20
-386.913091
 30
0.0
 11
-53.00013293019549
 21
-386.913091
 31
0.0
  0
LINE
  5
3FF
330
50
100
AcDbEntity
  8
LC-002-002-----0
  6
Continuous
 62
     7
100
AcDbLine
 10
-53.04730093019555
 20
-363.340414
 30
0.0
 11
-46.82648493019553
 21
-364.437312
 31
0.0
  0
LINE
  5
400
330
50
100
AcDbEntity
  8
LC-002-002-----0
  6
Continuous
 62
     7
100
AcDbLine
 10
-46.50013293019549
 20
-374.5829250000001
 30
0.0
 11
-53.00013293019549
 21
-374.5829250000001
 31
0.0
  0
LINE
  5
401
330
50
100
AcDbEntity
  8
LC-002-002-----0
  6
Continuous
 62
     7
100
AcDbLine
 10
-46.00013293019549
 20
-337.092428
 30
0.0
 11
-46.00013293019549
 21
-328.4316220000001
 31
0.0
  0
LINE
  5
402
330
50
100
AcDbEntity
  8
LC-002-002-----0
  6
Continuous
 62
     7
100
AcDbLine
 10
-46.00013293019549
 20
-349.422594
 30
0.0
 11
-46.00013293019549
 21
-340.761788
 31
0.0
  0
LINE
  5
403
330
50
100
AcDbEntity
  8
LC-002-002-----0
  6
Continuous
 62
     7
100
AcDbLine
 10
-53.04730093019555
 20
-375.67058
 30
0.0
 11
-46.82648493019553
 21
-376.767477
 31
0.0
  0
LINE
  5
404
330
50
100
AcDbEntity
  8
LC-002-002-----0
  6
Continuous
 62
     7
100
AcDbLine
 10
46.49986706980462
 20
-362.25276
 30
0.0
 11
-53.00013293019549
 21
-362.25276
 31
0.0
  0
LINE
  5
405
330
50
100
AcDbEntity
  8
LC-002-002-----0
  6
Continuous
 62
     7
100
AcDbLine
 10
-53.04730093019555
 20
-388.0007450000001
 30
0.0
 11
-46.82648493019553
 21
-389.0976430000001
 31
0.0
  0
LINE
  5
406
330
50
100
AcDbEntity
  8
LC-002-002-----0
  6
Continuous
 62
     7
100
AcDbLine
 10
-46.50013293019549
 20
-349.922594
 30
0.0
 11
-53.00013293019549
 21
-349.922594
 31
0.0
  0
LINE
  5
407
330
50
100
AcDbEntity
  8
LC-002-002-----0
  6
Continuous
 62
     7
100
AcDbLine
 10
-46.00013293019549
 20
-374.0829250000001
 30
0.0
 11
-46.00013293019549
 21
-365.4221190000001
 31
0.0
  0
LINE
  5
408
330
50
100
AcDbEntity
  8
LC-002-002-----0
  6
Continuous
 62
     7
100
AcDbLine
 10
-46.00013293019549
 20
-398.743257
 30
0.0
 11
-46.00013293019549
 21
-390.082451
 31
0.0
  0
LINE
  5
409
330
50
100
AcDbEntity
  8
LC-002-002-----0
  6
Continuous
 62
     7
100
AcDbLine
 10
-46.00013293019549
 20
-411.0734220000001
 30
0.0
 11
-46.00013293019549
 21
-402.4126160000001
 31
0.0
  0
LINE
  5
40A
330
50
100
AcDbEntity
  8
LC-002-002-----0
  6
Continuous
 62
     7
100
AcDbLine
 10
-46.00013293019549
 20
-423.403588
 30
0.0
 11
-46.00013293019549
 21
-414.742782
 31
0.0
  0
LINE
  5
40B
330
50
100
AcDbEntity
  8
LC-002-002-----0
  6
Continuous
 62
     7
100
AcDbLine
 10
-46.00013293019549
 20
-435.733754
 30
0.0
 11
-46.00013293019549
 21
-427.072948
 31
0.0
  0
LINE
  5
40C
330
50
100
AcDbEntity
  8
LC-002-002-----0
  6
Continuous
 62
     7
100
AcDbLine
 10
-53.04730093019555
 20
-400.330911
 30
0.0
 11
-46.82648493019553
 21
-401.427809
 31
0.0
  0
LINE
  5
40D
330
50
100
AcDbEntity
  8
LC-002-002-----0
  6
Continuous
 62
     7
100
AcDbLine
 10
-53.04730093019555
 20
-412.661077
 30
0.0
 11
-46.82648493019553
 21
-413.757974
 31
0.0
  0
LINE
  5
40E
330
50
100
AcDbEntity
  8
LC-002-002-----0
  6
Continuous
 62
     7
100
AcDbLine
 10
-46.00013293019549
 20
-386.413091
 30
0.0
 11
-46.00013293019549
 21
-377.752285
 31
0.0
  0
LINE
  5
40F
330
50
100
AcDbEntity
  8
LC-002-002-----0
  6
Continuous
 62
     7
100
AcDbLine
 10
-53.04730093019555
 20
-424.9912420000001
 30
0.0
 11
-46.82648493019553
 21
-426.0881400000001
 31
0.0
  0
LINE
  5
410
330
50
100
AcDbEntity
  8
LC-002-002-----0
  6
Continuous
 62
     7
100
AcDbLine
 10
-46.00013293019549
 20
-361.75276
 30
0.0
 11
-46.00013293019549
 21
-353.091954
 31
0.0
  0
LINE
  5
411
330
50
100
AcDbEntity
  8
LC-002-002-----0
  6
Continuous
 62
     7
100
AcDbLine
 10
-53.04730093019555
 20
-437.321408
 30
0.0
 11
-46.82648493019553
 21
-438.418306
 31
0.0
  0
LINE
  5
412
330
50
100
AcDbEntity
  8
LC-002-002-----0
  6
Continuous
 62
     7
100
AcDbLine
 10
-53.04730093019555
 20
-449.651574
 30
0.0
 11
-46.82648493019553
 21
-450.748471
 31
0.0
  0
LINE
  5
413
330
50
100
AcDbEntity
  8
LC-002-002-----0
  6
Continuous
 62
     7
100
AcDbLine
 10
-45.50013293019549
 20
-452.621085
 30
0.0
 11
-45.00013293019549
 21
-452.621085
 31
0.0
  0
LINE
  5
414
330
50
100
AcDbEntity
  8
LC-002-002-----0
  6
Continuous
 62
     7
100
AcDbLine
 10
-46.00013293019549
 20
-452.121085
 30
0.0
 11
-45.50013293019549
 21
-452.621085
 31
0.0
  0
LINE
  5
415
330
50
100
AcDbEntity
  8
LC-002-002-----0
  6
Continuous
 62
     7
100
AcDbLine
 10
46.49986706980462
 20
-337.592428
 30
0.0
 11
-53.00013293019549
 21
-337.592428
 31
0.0
  0
LINE
  5
416
330
50
100
AcDbEntity
  8
LC-002-002-----0
  6
Continuous
 62
     7
100
AcDbLine
 10
-46.50013293019549
 20
-325.262263
 30
0.0
 11
-53.00013293019549
 21
-325.262263
 31
0.0
  0
LINE
  5
417
330
50
100
AcDbEntity
  8
LC-002-002-----0
  6
Continuous
 62
     7
100
AcDbLine
 10
-46.50013293019549
 20
-312.932097
 30
0.0
 11
-53.00013293019549
 21
-312.932097
 31
0.0
  0
LINE
  5
418
330
50
100
AcDbEntity
  8
LC-002-002-----0
  6
Continuous
 62
     7
100
AcDbLine
 10
46.49986706980462
 20
-300.6019310000002
 30
0.0
 11
-53.00013293019549
 21
-300.6019310000002
 31
0.0
  0
LINE
  5
419
330
50
100
AcDbEntity
  8
LC-002-002-----0
  6
Continuous
 62
     7
100
AcDbLine
 10
-46.50013293019549
 20
-288.2717660000001
 30
0.0
 11
-53.00013293019549
 21
-288.2717660000001
 31
0.0
  0
LINE
  5
41A
330
50
100
AcDbEntity
  8
LC-002-002-----0
  6
Continuous
 62
     7
100
AcDbLine
 10
45.99986706980462
 20
-451.733279
 30
0.0
 11
45.99986706980462
 21
-452.121085
 31
0.0
  0
LINE
  5
41B
330
50
100
AcDbEntity
  8
LC-002-002-----0
  6
Continuous
 62
     7
100
AcDbLine
 10
45.99986706980462
 20
-448.0639190000001
 30
0.0
 11
45.99986706980462
 21
-439.403113
 31
0.0
  0
LINE
  5
41C
330
50
100
AcDbEntity
  8
LC-002-002-----0
  6
Continuous
 62
     7
100
AcDbLine
 10
45.99986706980462
 20
-287.7717660000001
 30
0.0
 11
45.99986706980462
 21
-279.11096
 31
0.0
  0
LINE
  5
41D
330
50
100
AcDbEntity
  8
LC-002-002-----0
  6
Continuous
 62
     7
100
AcDbLine
 10
46.49986706980462
 20
-448.5639190000001
 30
0.0
 11
52.99986706980462
 21
-448.5639190000001
 31
0.0
  0
LINE
  5
41E
330
50
100
AcDbEntity
  8
LC-002-002-----0
  6
Continuous
 62
     7
100
AcDbLine
 10
45.99986706980462
 20
-300.1019310000002
 30
0.0
 11
45.99986706980462
 21
-291.4411250000001
 31
0.0
  0
LINE
  5
41F
330
50
100
AcDbEntity
  8
LC-002-002-----0
  6
Continuous
 62
     7
100
AcDbLine
 10
45.99986706980462
 20
-312.432097
 30
0.0
 11
45.99986706980462
 21
-303.771291
 31
0.0
  0
LINE
  5
420
330
50
100
AcDbEntity
  8
LC-002-002-----0
  6
Continuous
 62
     7
100
AcDbLine
 10
45.99986706980462
 20
-324.762263
 30
0.0
 11
45.99986706980462
 21
-316.101457
 31
0.0
  0
LINE
  5
421
330
50
100
AcDbEntity
  8
LC-002-002-----0
  6
Continuous
 62
     7
100
AcDbLine
 10
46.49986706980462
 20
-436.233754
 30
0.0
 11
52.99986706980462
 21
-436.233754
 31
0.0
  0
LINE
  5
422
330
50
100
AcDbEntity
  8
LC-002-002-----0
  6
Continuous
 62
     7
100
AcDbLine
 10
53.04703506980445
 20
-301.689586
 30
0.0
 11
46.82621906980444
 21
-302.786483
 31
0.0
  0
LINE
  5
423
330
50
100
AcDbEntity
  8
LC-002-002-----0
  6
Continuous
 62
     7
100
AcDbLine
 10
46.49986706980462
 20
-423.903588
 30
0.0
 11
52.99986706980462
 21
-423.903588
 31
0.0
  0
LINE
  5
424
330
50
100
AcDbEntity
  8
LC-002-002-----0
  6
Continuous
 62
     7
100
AcDbLine
 10
53.04703506980445
 20
-314.019751
 30
0.0
 11
46.82621906980444
 21
-315.1166490000001
 31
0.0
  0
LINE
  5
425
330
50
100
AcDbEntity
  8
LC-002-002-----0
  6
Continuous
 62
     7
100
AcDbLine
 10
46.49986706980462
 20
-411.5734220000001
 30
0.0
 11
52.99986706980462
 21
-411.5734220000001
 31
0.0
  0
LINE
  5
426
330
50
100
AcDbEntity
  8
LC-002-002-----0
  6
Continuous
 62
     7
100
AcDbLine
 10
53.04703506980445
 20
-326.349917
 30
0.0
 11
46.82621906980444
 21
-327.446815
 31
0.0
  0
LINE
  5
427
330
50
100
AcDbEntity
  8
LC-002-002-----0
  6
Continuous
 62
     7
100
AcDbLine
 10
46.49986706980462
 20
-399.243257
 30
0.0
 11
52.99986706980462
 21
-399.243257
 31
0.0
  0
LINE
  5
428
330
50
100
AcDbEntity
  8
LC-002-002-----0
  6
Continuous
 62
     7
100
AcDbLine
 10
53.04703506980445
 20
-338.680083
 30
0.0
 11
46.82621906980444
 21
-339.77698
 31
0.0
  0
LINE
  5
429
330
50
100
AcDbEntity
  8
LC-002-002-----0
  6
Continuous
 62
     7
100
AcDbLine
 10
53.04703506980445
 20
-351.0102480000001
 30
0.0
 11
46.82621906980444
 21
-352.1071460000001
 31
0.0
  0
LINE
  5
42A
330
50
100
AcDbEntity
  8
LC-002-002-----0
  6
Continuous
 62
     7
100
AcDbLine
 10
46.49986706980462
 20
-386.913091
 30
0.0
 11
52.99986706980462
 21
-386.913091
 31
0.0
  0
LINE
  5
42B
330
50
100
AcDbEntity
  8
LC-002-002-----0
  6
Continuous
 62
     7
100
AcDbLine
 10
53.04703506980445
 20
-363.340414
 30
0.0
 11
46.82621906980444
 21
-364.437312
 31
0.0
  0
LINE
  5
42C
330
50
100
AcDbEntity
  8
LC-002-002-----0
  6
Continuous
 62
     7
100
AcDbLine
 10
-46.50013293019549
 20
-374.5829250000001
 30
0.0
 11
52.99986706980462
 21
-374.5829250000001
 31
0.0
  0
LINE
  5
42D
330
50
100
AcDbEntity
  8
LC-002-002-----0
  6
Continuous
 62
     7
100
AcDbLine
 10
45.99986706980462
 20
-337.092428
 30
0.0
 11
45.99986706980462
 21
-328.4316220000001
 31
0.0
  0
LINE
  5
42E
330
50
100
AcDbEntity
  8
LC-002-002-----0
  6
Continuous
 62
     7
100
AcDbLine
 10
45.99986706980462
 20
-349.422594
 30
0.0
 11
45.99986706980462
 21
-340.761788
 31
0.0
  0
LINE
  5
42F
330
50
100
AcDbEntity
  8
LC-002-002-----0
  6
Continuous
 62
     7
100
AcDbLine
 10
53.04703506980445
 20
-375.67058
 30
0.0
 11
46.82621906980444
 21
-376.767477
 31
0.0
  0
LINE
  5
430
330
50
100
AcDbEntity
  8
LC-002-002-----0
  6
Continuous
 62
     7
100
AcDbLine
 10
46.49986706980462
 20
-362.25276
 30
0.0
 11
52.99986706980462
 21
-362.25276
 31
0.0
  0
LINE
  5
431
330
50
100
AcDbEntity
  8
LC-002-002-----0
  6
Continuous
 62
     7
100
AcDbLine
 10
53.04703506980445
 20
-388.0007450000001
 30
0.0
 11
46.82621906980444
 21
-389.0976430000001
 31
0.0
  0
LINE
  5
432
330
50
100
AcDbEntity
  8
LC-002-002-----0
  6
Continuous
 62
     7
100
AcDbLine
 10
-46.50013293019549
 20
-349.922594
 30
0.0
 11
52.99986706980462
 21
-349.922594
 31
0.0
  0
LINE
  5
433
330
50
100
AcDbEntity
  8
LC-002-002-----0
  6
Continuous
 62
     7
100
AcDbLine
 10
45.99986706980462
 20
-374.0829250000001
 30
0.0
 11
45.99986706980462
 21
-365.4221190000001
 31
0.0
  0
LINE
  5
434
330
50
100
AcDbEntity
  8
LC-002-002-----0
  6
Continuous
 62
     7
100
AcDbLine
 10
45.99986706980462
 20
-398.743257
 30
0.0
 11
45.99986706980462
 21
-390.082451
 31
0.0
  0
LINE
  5
435
330
50
100
AcDbEntity
  8
LC-002-002-----0
  6
Continuous
 62
     7
100
AcDbLine
 10
45.99986706980462
 20
-411.0734220000001
 30
0.0
 11
45.99986706980462
 21
-402.4126160000001
 31
0.0
  0
LINE
  5
436
330
50
100
AcDbEntity
  8
LC-002-002-----0
  6
Continuous
 62
     7
100
AcDbLine
 10
45.99986706980462
 20
-423.403588
 30
0.0
 11
45.99986706980462
 21
-414.742782
 31
0.0
  0
LINE
  5
437
330
50
100
AcDbEntity
  8
LC-002-002-----0
  6
Continuous
 62
     7
100
AcDbLine
 10
45.99986706980462
 20
-435.733754
 30
0.0
 11
45.99986706980462
 21
-427.072948
 31
0.0
  0
LINE
  5
438
330
50
100
AcDbEntity
  8
LC-002-002-----0
  6
Continuous
 62
     7
100
AcDbLine
 10
53.04703506980445
 20
-400.330911
 30
0.0
 11
46.82621906980444
 21
-401.427809
 31
0.0
  0
LINE
  5
439
330
50
100
AcDbEntity
  8
LC-002-002-----0
  6
Continuous
 62
     7
100
AcDbLine
 10
53.04703506980445
 20
-412.661077
 30
0.0
 11
46.82621906980444
 21
-413.757974
 31
0.0
  0
LINE
  5
43A
330
50
100
AcDbEntity
  8
LC-002-002-----0
  6
Continuous
 62
     7
100
AcDbLine
 10
45.99986706980462
 20
-386.413091
 30
0.0
 11
45.99986706980462
 21
-377.752285
 31
0.0
  0
LINE
  5
43B
330
50
100
AcDbEntity
  8
LC-002-002-----0
  6
Continuous
 62
     7
100
AcDbLine
 10
53.04703506980445
 20
-424.9912420000001
 30
0.0
 11
46.82621906980444
 21
-426.0881400000001
 31
0.0
  0
LINE
  5
43C
330
50
100
AcDbEntity
  8
LC-002-002-----0
  6
Continuous
 62
     7
100
AcDbLine
 10
45.99986706980462
 20
-361.75276
 30
0.0
 11
45.99986706980462
 21
-353.091954
 31
0.0
  0
LINE
  5
43D
330
50
100
AcDbEntity
  8
LC-002-002-----0
  6
Continuous
 62
     7
100
AcDbLine
 10
53.04703506980445
 20
-437.321408
 30
0.0
 11
46.82621906980444
 21
-438.418306
 31
0.0
  0
LINE
  5
43E
330
50
100
AcDbEntity
  8
LC-002-002-----0
  6
Continuous
 62
     7
100
AcDbLine
 10
53.04703506980445
 20
-449.651574
 30
0.0
 11
46.82621906980444
 21
-450.748471
 31
0.0
  0
LINE
  5
43F
330
50
100
AcDbEntity
  8
LC-002-002-----0
  6
Continuous
 62
     7
100
AcDbLine
 10
45.49986706980462
 20
-452.621085
 30
0.0
 11
44.99986706980462
 21
-452.621085
 31
0.0
  0
LINE
  5
440
330
50
100
AcDbEntity
  8
LC-002-002-----0
  6
Continuous
 62
     7
100
AcDbLine
 10
45.99986706980462
 20
-452.121085
 30
0.0
 11
45.49986706980462
 21
-452.621085
 31
0.0
  0
LINE
  5
441
330
50
100
AcDbEntity
  8
LC-002-002-----0
  6
Continuous
 62
     7
100
AcDbLine
 10
46.49986706980462
 20
-337.592428
 30
0.0
 11
52.99986706980462
 21
-337.592428
 31
0.0
  0
LINE
  5
442
330
50
100
AcDbEntity
  8
LC-002-002-----0
  6
Continuous
 62
     7
100
AcDbLine
 10
-46.50013293019549
 20
-325.262263
 30
0.0
 11
52.99986706980462
 21
-325.262263
 31
0.0
  0
LINE
  5
443
330
50
100
AcDbEntity
  8
LC-002-002-----0
  6
Continuous
 62
     7
100
AcDbLine
 10
-46.50013293019549
 20
-312.932097
 30
0.0
 11
52.99986706980462
 21
-312.932097
 31
0.0
  0
LINE
  5
444
330
50
100
AcDbEntity
  8
LC-002-002-----0
  6
Continuous
 62
     7
100
AcDbLine
 10
46.49986706980462
 20
-300.6019310000002
 30
0.0
 11
52.99986706980462
 21
-300.6019310000002
 31
0.0
  0
LINE
  5
445
330
50
100
AcDbEntity
  8
LC-002-002-----0
  6
Continuous
 62
     7
100
AcDbLine
 10
-49.75013293019549
 20
-288.2717660000001
 30
0.0
 11
52.99986706980462
 21
-288.2717660000001
 31
0.0
  0
LINE
  5
446
330
50
100
AcDbEntity
  8
LC-002-002-----0
  6
Continuous
 62
     7
100
AcDbLine
 10
-53.00013293019549
 20
-275.9416
 30
0.0
 11
-46.50013293019549
 21
-275.9416
 31
0.0
  0
LINE
  5
447
330
50
100
AcDbEntity
  8
LC-002-002-----0
  6
Continuous
 62
     7
100
AcDbLine
 10
52.99986706980462
 20
-275.9416
 30
0.0
 11
46.49986706980462
 21
-275.9416
 31
0.0
  0
LINE
  5
448
330
50
100
AcDbEntity
  8
LC-002-002-----0
  6
Continuous
 62
     7
100
AcDbLine
 10
-53.04730093019555
 20
-227.708592
 30
0.0
 11
-46.82648493019553
 21
-228.805489
 31
0.0
  0
LINE
  5
449
330
50
100
AcDbEntity
  8
LC-002-002-----0
  6
Continuous
 62
     7
100
AcDbLine
 10
53.04703506980445
 20
-227.708592
 30
0.0
 11
46.82621906980444
 21
-228.805489
 31
0.0
  0
LINE
  5
44A
330
50
100
AcDbEntity
  8
LC-002-002-----0
  6
Continuous
 62
     7
100
AcDbLine
 10
177.0000705031566
 20
-5.08561447936282
 30
0.0
 11
177.0000718324421
 21
-6.08106739365081
 31
0.0
  0
LINE
  5
44B
330
50
100
AcDbEntity
  8
LC-002-002-----0
  6
Continuous
 62
     7
100
AcDbLine
 10
141.2633640698045
 20
-6.08110739365077
 30
0.0
 11
177.0000718324421
 21
-6.08106739365081
 31
0.0
  0
LINE
  5
44C
330
50
100
AcDbEntity
  8
LC-002-002-----0
  6
Continuous
 62
     7
100
AcDbLine
 10
140.9766690698045
 20
-3.08565439365077
 30
0.0
 11
175.0000677467299
 21
-3.08561715007944
 31
0.0
  0
LINE
  5
44D
330
50
100
AcDbEntity
  8
LC-002-002-----0
  6
Continuous
 62
     7
100
AcDbLine
 10
140.9766690698045
 20
-3.08565439365077
 30
0.0
 11
103.4113870698045
 21
-3.08565439365077
 31
0.0
  0
LINE
  5
44E
330
50
100
AcDbEntity
  8
LC-002-002-----0
  6
Continuous
 62
     7
100
AcDbLine
 10
-177.0007338693916
 20
-5.08608406436538
 30
0.0
 11
-177.0007325401097
 21
-6.08153439365077
 31
0.0
  0
LINE
  5
44F
330
50
100
AcDbEntity
  8
LC-002-002-----0
  6
Continuous
 62
     7
100
AcDbLine
 10
-98.33388693019549
 20
-32.42951800000004
 30
0.0
 11
-89.67363393019548
 21
-32.42951800000004
 31
0.0
  0
LINE
  5
450
330
50
100
AcDbEntity
  8
LC-002-002-----0
  6
Continuous
 62
     7
100
AcDbLine
 10
-97.50374593019546
 20
-32.42951800000004
 30
0.0
 11
-100.0037459301955
 21
-32.42951800000004
 31
0.0
  0
LINE
  5
451
330
50
100
AcDbEntity
  8
LC-002-002-----0
  6
Continuous
 62
     7
100
AcDbLine
 10
-90.50374593019546
 20
-32.42951800000004
 30
0.0
 11
-86.95314093019556
 21
-32.42951800000004
 31
0.0
  0
LINE
  5
452
330
50
100
AcDbEntity
  8
LC-002-002-----0
  6
Continuous
 62
     7
100
AcDbLine
 10
90.50330206980448
 20
-32.42926899999999
 30
0.0
 11
86.95269706980457
 21
-32.42927900000002
 31
0.0
  0
LINE
  5
453
330
50
100
AcDbEntity
  8
LC-002-002-----0
  6
Continuous
 62
     7
100
AcDbLine
 10
98.3334440698045
 20
-32.42924800000004
 30
0.0
 11
89.6731900698046
 21
-32.42927200000005
 31
0.0
  0
LINE
  5
454
330
50
100
AcDbEntity
  8
LC-002-002-----0
  6
Continuous
 62
     7
100
AcDbLine
 10
-175.0007338693933
 20
-3.08608139365077
 30
0.0
 11
-152.7430069301955
 21
-3.08608139365077
 31
0.0
  0
LINE
  5
455
330
50
100
AcDbEntity
  8
LC-002-002-----0
  6
Continuous
 62
     7
100
AcDbLine
 10
-152.7430069301955
 20
-3.08608139365077
 30
0.0
 11
103.4113870698045
 21
-3.08608139365077
 31
0.0
  0
LINE
  5
456
330
50
100
AcDbEntity
  8
LC-002-002-----0
  6
Continuous
 62
     7
100
AcDbLine
 10
141.2633640698045
 20
-6.08110739365077
 30
0.0
 11
129.6315334687952
 21
-6.08112333761771
 31
0.0
  0
LINE
  5
457
330
50
100
AcDbEntity
  8
LC-002-002-----0
  6
Continuous
 62
     7
100
AcDbLine
 10
-152.7429989301955
 20
-6.08151039365077
 30
0.0
 11
-177.0007325401097
 21
-6.08153439365077
 31
0.0
  0
LINE
  5
458
330
50
100
AcDbEntity
  8
LC-002-002-----0
  6
Continuous
 62
     7
100
AcDbLine
 10
-45.00013293019549
 20
-452.621085
 30
0.0
 11
-45.00013293019549
 21
-458.121085
 31
0.0
  0
LINE
  5
459
330
50
100
AcDbEntity
  8
LC-002-002-----0
  6
Continuous
 62
     7
100
AcDbLine
 10
-45.00013293019549
 20
-458.121085
 30
0.0
 11
44.99986706980462
 21
-458.121085
 31
0.0
  0
LINE
  5
45A
330
50
100
AcDbEntity
  8
LC-002-002-----0
  6
Continuous
 62
     7
100
AcDbLine
 10
44.99986706980462
 20
-452.621085
 30
0.0
 11
-45.00013293019549
 21
-452.621085
 31
0.0
  0
LINE
  5
45B
330
50
100
AcDbEntity
  8
LC-002-002-----0
  6
Continuous
 62
     7
100
AcDbLine
 10
-46.00013293019549
 20
-452.121085
 30
0.0
 11
45.99986706980462
 21
-452.121085
 31
0.0
  0
LINE
  5
45C
330
50
100
AcDbEntity
  8
LC-002-002-----0
  6
Continuous
 62
     7
100
AcDbLine
 10
-46.50013293019549
 20
-448.5639190000001
 30
0.0
 11
46.49986706980462
 21
-448.5639190000001
 31
0.0
  0
LINE
  5
45D
330
50
100
AcDbEntity
  8
LC-002-002-----0
  6
Continuous
 62
     7
100
AcDbLine
 10
46.49986706980462
 20
-436.233754
 30
0.0
 11
-46.50013293019549
 21
-436.233754
 31
0.0
  0
LINE
  5
45E
330
50
100
AcDbEntity
  8
LC-002-002-----0
  6
Continuous
 62
     7
100
AcDbLine
 10
-46.50013293019549
 20
-423.903588
 30
0.0
 11
46.49986706980462
 21
-423.903588
 31
0.0
  0
LINE
  5
45F
330
50
100
AcDbEntity
  8
LC-002-002-----0
  6
Continuous
 62
     7
100
AcDbLine
 10
46.49986706980462
 20
-411.5734220000001
 30
0.0
 11
-46.50013293019549
 21
-411.5734220000001
 31
0.0
  0
LINE
  5
460
330
50
100
AcDbEntity
  8
LC-002-002-----0
  6
Continuous
 62
     7
100
AcDbLine
 10
-46.50013293019549
 20
-399.243257
 30
0.0
 11
46.49986706980462
 21
-399.243257
 31
0.0
  0
LINE
  5
461
330
50
100
AcDbEntity
  8
LC-002-002-----0
  6
Continuous
 62
     7
100
AcDbLine
 10
-46.50013293019549
 20
-275.9416
 30
0.0
 11
46.49986706980462
 21
-275.9416
 31
0.0
  0
LINE
  5
462
330
50
100
AcDbEntity
  8
LC-002-002-----0
  6
Continuous
 62
     7
100
AcDbLine
 10
-45.00016593019552
 20
-101.622639
 30
0.0
 11
-45.00016633818864
 21
-152.6210850598732
 31
0.0
  0
LINE
  5
463
330
50
100
AcDbEntity
  8
LC-002-002-----0
  6
Continuous
 62
     7
100
AcDbLine
 10
44.99990206980442
 20
-101.622639
 30
0.0
 11
44.99990166181135
 21
-152.6210850598732
 31
0.0
  0
LINE
  5
464
330
50
100
AcDbEntity
  8
LC-002-002-----0
  6
Continuous
 62
     7
100
AcDbLine
 10
-45.00016593019552
 20
-101.622639
 30
0.0
 11
44.99990206980442
 21
-101.622639
 31
0.0
  0
LINE
  5
465
330
50
100
AcDbEntity
  8
LC-002-002-----0
  6
Continuous
 62
     7
100
AcDbLine
 10
-0.00020093019555
 20
-47.62229300000002
 30
0.0
 11
77.7498680698045
 21
-47.62229300000002
 31
0.0
  0
LINE
  5
466
330
50
100
AcDbEntity
  8
LC-002-002-----0
  6
Continuous
 62
     7
100
AcDbLine
 10
-124.4401859301955
 20
-8.45546800000001
 30
0.0
 11
124.4396770698045
 21
-8.45546800000001
 31
0.0
  0
LINE
  5
467
330
50
100
AcDbEntity
  8
LC-002-002-----0
  6
Continuous
 62
     7
100
AcDbLine
 10
-124.7340309301956
 20
-9.26279900000004
 30
0.0
 11
124.7335230698045
 21
-9.26279900000004
 31
0.0
  0
LINE
  5
468
330
50
100
AcDbEntity
  8
LC-002-002-----0
  6
Continuous
 62
     7
100
AcDbLine
 10
-102.0037459301955
 20
-16.42951800000004
 30
0.0
 11
102.0032600698046
 21
-16.42951800000004
 31
0.0
  0
LINE
  5
469
330
50
100
AcDbEntity
  8
LC-002-002-----0
  6
Continuous
 62
     7
100
AcDbLine
 10
-86.95314093019556
 20
-32.42951800000004
 30
0.0
 11
86.95269706980457
 21
-32.42951800000004
 31
0.0
  0
LINE
  5
46A
330
50
100
AcDbEntity
  8
LC-002-002-----0
  6
Continuous
 62
     7
100
AcDbLine
 10
45.00052706980455
 20
-452.620962
 30
0.0
 11
45.00054206980462
 21
-458.120962
 31
0.0
  0
LINE
  5
46B
330
50
100
AcDbEntity
  8
LC-002-002-----0
  6
Continuous
 62
     7
100
AcDbLine
 10
-46.00013293019549
 20
-438.418306
 30
0.0
 11
45.99986706980462
 21
-438.418306
 31
0.0
  0
LINE
  5
46C
330
50
100
AcDbEntity
  8
LC-002-002-----0
  6
Continuous
 62
     7
100
AcDbLine
 10
-46.00013293019549
 20
-426.0881400000001
 30
0.0
 11
45.99986706980462
 21
-426.0881400000001
 31
0.0
  0
LINE
  5
46D
330
50
100
AcDbEntity
  8
LC-002-002-----0
  6
Continuous
 62
     7
100
AcDbLine
 10
-46.00013293019549
 20
-413.757974
 30
0.0
 11
45.99986706980462
 21
-413.757974
 31
0.0
  0
LINE
  5
46E
330
50
100
AcDbEntity
  8
LC-002-002-----0
  6
Continuous
 62
     7
100
AcDbLine
 10
-46.00013293019549
 20
-401.427809
 30
0.0
 11
45.99986706980462
 21
-401.427809
 31
0.0
  0
LINE
  5
46F
330
50
100
AcDbEntity
  8
LC-002-002-----0
  6
Continuous
 62
     7
100
AcDbLine
 10
-46.00013293019549
 20
-389.0976430000001
 30
0.0
 11
45.99986706980462
 21
-389.0976430000001
 31
0.0
  0
LINE
  5
470
330
50
100
AcDbEntity
  8
LC-002-002-----0
  6
Continuous
 62
     7
100
AcDbLine
 10
-46.00013293019549
 20
-376.767477
 30
0.0
 11
45.99986706980462
 21
-376.767477
 31
0.0
  0
LINE
  5
471
330
50
100
AcDbEntity
  8
LC-002-002-----0
  6
Continuous
 62
     7
100
AcDbLine
 10
-46.00013293019549
 20
-364.437312
 30
0.0
 11
45.99986706980462
 21
-364.437312
 31
0.0
  0
LINE
  5
472
330
50
100
AcDbEntity
  8
LC-002-002-----0
  6
Continuous
 62
     7
100
AcDbLine
 10
-46.00013293019549
 20
-352.1071460000001
 30
0.0
 11
45.99986706980462
 21
-352.1071460000001
 31
0.0
  0
LINE
  5
473
330
50
100
AcDbEntity
  8
LC-002-002-----0
  6
Continuous
 62
     7
100
AcDbLine
 10
-46.00013293019549
 20
-339.77698
 30
0.0
 11
45.99986706980462
 21
-339.77698
 31
0.0
  0
LINE
  5
474
330
50
100
AcDbEntity
  8
LC-002-002-----0
  6
Continuous
 62
     7
100
AcDbLine
 10
-46.00013293019549
 20
-327.446815
 30
0.0
 11
45.99986706980462
 21
-327.446815
 31
0.0
  0
LINE
  5
475
330
50
100
AcDbEntity
  8
LC-002-002-----0
  6
Continuous
 62
     7
100
AcDbLine
 10
-46.00013293019549
 20
-315.1166490000001
 30
0.0
 11
45.99986706980462
 21
-315.1166490000001
 31
0.0
  0
LINE
  5
476
330
50
100
AcDbEntity
  8
LC-002-002-----0
  6
Continuous
 62
     7
100
AcDbLine
 10
-46.00013293019549
 20
-302.786483
 30
0.0
 11
45.99986706980462
 21
-302.786483
 31
0.0
  0
LINE
  5
477
330
50
100
AcDbEntity
  8
LC-002-002-----0
  6
Continuous
 62
     7
100
AcDbLine
 10
-46.00013293019549
 20
-290.456318
 30
0.0
 11
45.99986706980462
 21
-290.456318
 31
0.0
  0
LINE
  5
478
330
50
100
AcDbEntity
  8
LC-002-002-----0
  6
Continuous
 62
     7
100
AcDbLine
 10
-46.00013293019549
 20
-278.1261520000001
 30
0.0
 11
45.99986706980462
 21
-278.1261520000001
 31
0.0
  0
LINE
  5
479
330
50
100
AcDbEntity
  8
LC-002-002-----0
  6
Continuous
 62
     7
100
AcDbLine
 10
-46.00013293019549
 20
-265.795986
 30
0.0
 11
45.99986706980462
 21
-265.795986
 31
0.0
  0
LINE
  5
47A
330
50
100
AcDbEntity
  8
LC-002-002-----0
  6
Continuous
 62
     7
100
AcDbLine
 10
-46.00013293019549
 20
-253.465821
 30
0.0
 11
45.99986706980462
 21
-253.465821
 31
0.0
  0
LINE
  5
47B
330
50
100
AcDbEntity
  8
LC-002-002-----0
  6
Continuous
 62
     7
100
AcDbLine
 10
-46.00013293019549
 20
-241.1356550000001
 30
0.0
 11
45.99986706980462
 21
-241.1356550000001
 31
0.0
  0
LINE
  5
47C
330
50
100
AcDbEntity
  8
LC-002-002-----0
  6
Continuous
 62
     7
100
AcDbLine
 10
-46.00013293019549
 20
-228.805489
 30
0.0
 11
45.99986706980462
 21
-228.805489
 31
0.0
  0
LINE
  5
47D
330
50
100
AcDbEntity
  8
LC-002-002-----0
  6
Continuous
 62
     7
100
AcDbLine
 10
62.99987106980461
 20
-65.80881800000004
 30
0.0
 11
73.49986606980451
 21
-47.62229300000002
 31
0.0
  0
LINE
  5
47E
330
50
100
AcDbEntity
  8
LC-002-002-----0
  6
Continuous
 62
     7
100
AcDbLine
 10
62.99987106980461
 20
-98.622639
 30
0.0
 11
62.99987106980461
 21
-65.80881800000004
 31
0.0
  0
LINE
  5
47F
330
50
100
AcDbEntity
  8
LC-002-002-----0
  6
Continuous
 62
     7
100
AcDbLine
 10
44.99987106980461
 20
-101.622639
 30
0.0
 11
59.99987106980461
 21
-101.622639
 31
0.0
  0
LINE
  5
480
330
50
100
AcDbEntity
  8
LC-002-002-----0
  6
Continuous
 62
     7
100
AcDbLine
 10
-45.00013893019548
 20
-101.622639
 30
0.0
 11
-60.00013893019548
 21
-101.622639
 31
0.0
  0
LINE
  5
481
330
50
100
AcDbEntity
  8
LC-002-002-----0
  6
Continuous
 62
     7
100
AcDbLine
 10
-63.00013893019548
 20
-98.622639
 30
0.0
 11
-63.00013893019548
 21
-65.80881800000004
 31
0.0
  0
LINE
  5
482
330
50
100
AcDbEntity
  8
LC-002-002-----0
  6
Continuous
 62
     7
100
AcDbLine
 10
-63.00013893019548
 20
-65.80881800000004
 30
0.0
 11
-73.50013393019549
 21
-47.62229300000002
 31
0.0
  0
LWPOLYLINE
  5
483
330
50
100
AcDbEntity
  8
LC-006-005-----0
  6
Continuous
 62
     3
100
AcDbPolyline
 90
        2
 70
     0
 43
1.0
 10
1.62399534657231
 20
-470.2853230000001
 10
-0.20619565342759
 20
-468.4551320000002
  0
LWPOLYLINE
  5
484
330
50
100
AcDbEntity
  8
LC-006-005-----0
  6
Continuous
 62
     3
100
AcDbPolyline
 90
        2
 70
     0
 43
1.0
 10
1.55818534657237
 20
-470.7851990000002
 10
-0.77188065342762
 20
-468.4551320000002
  0
LWPOLYLINE
  5
485
330
50
100
AcDbEntity
  8
LC-005-002-----0
  6
Continuous
 62
     7
100
AcDbPolyline
 90
        2
 70
     0
 43
1.0
 10
-1.86506065342769
 20
-468.4551320000002
 10
1.86494534657231
 20
-468.4551320000002
  0
LWPOLYLINE
  5
486
330
50
100
AcDbEntity
  8
LC-006-005-----0
  6
Continuous
 62
     3
100
AcDbPolyline
 90
        2
 70
     0
 43
1.0
 10
1.82142534657237
 20
-468.7856970000001
 10
1.49086034657239
 20
-468.4551320000002
  0
LWPOLYLINE
  5
487
330
50
100
AcDbEntity
  8
LC-006-005-----0
  6
Continuous
 62
     3
100
AcDbPolyline
 90
        2
 70
     0
 43
1.0
 10
1.75561534657231
 20
-469.285572
 10
0.92517534657236
 20
-468.4551320000002
  0
LWPOLYLINE
  5
488
330
50
100
AcDbEntity
  8
LC-006-005-----0
  6
Continuous
 62
     3
100
AcDbPolyline
 90
        2
 70
     0
 43
1.0
 10
1.68980534657237
 20
-469.785448
 10
0.35948934657233
 20
-468.4551320000002
  0
LINE
  5
489
330
50
100
AcDbEntity
  8
LC-005-002-----0
  6
Continuous
 62
     7
100
AcDbLine
 10
-55.00003865342762
 20
-482.6209820000001
 30
0.0
 11
-55.00001265342758
 21
-501.5522660000002
 31
0.0
  0
LINE
  5
48A
330
50
100
AcDbEntity
  8
LC-005-002-----0
  6
Continuous
 62
     7
100
AcDbLine
 10
-55.00003865342762
 20
-482.6209820000001
 30
0.0
 11
-2.29999665342757
 21
-482.6209820000001
 31
0.0
  0
LINE
  5
48B
330
50
100
AcDbEntity
  8
LC-005-002-----0
  6
Continuous
 62
     7
100
AcDbLine
 10
54.99996134657249
 20
-482.621085
 30
0.0
 11
54.99998734657243
 21
-501.552369
 31
0.0
  0
LINE
  5
48C
330
50
100
AcDbEntity
  8
LC-005-002-----0
  6
Continuous
 62
     7
100
AcDbLine
 10
2.79496034657245
 20
-482.621085
 30
0.0
 11
54.99996134657249
 21
-482.621085
 31
0.0
  0
LINE
  5
48D
330
50
100
AcDbEntity
  8
LC-005-002-----0
  6
Continuous
 62
     7
100
AcDbLine
 10
-55.00001265342758
 20
-501.5522660000002
 30
0.0
 11
-38.39061865342762
 21
-505.4743140000002
 31
0.0
  0
LINE
  5
48E
330
50
100
AcDbEntity
  8
LC-005-002-----0
  6
Continuous
 62
     7
100
AcDbLine
 10
-38.39061865342762
 20
-505.4743140000002
 30
0.0
 11
-25.6875946534276
 21
-496.5522660000002
 31
0.0
  0
LINE
  5
48F
330
50
100
AcDbEntity
  8
LC-005-002-----0
  6
Continuous
 62
     7
100
AcDbLine
 10
-25.6875946534276
 20
-496.5522660000002
 30
0.0
 11
-6.89063365342759
 21
-504.3805300000001
 31
0.0
  0
LINE
  5
490
330
50
100
AcDbEntity
  8
LC-005-002-----0
  6
Continuous
 62
     7
100
AcDbLine
 10
-6.89063365342759
 20
-504.3805300000001
 30
0.0
 11
7.99995734657239
 21
-496.770816
 31
0.0
  0
LINE
  5
491
330
50
100
AcDbEntity
  8
LC-005-002-----0
  6
Continuous
 62
     7
100
AcDbLine
 10
7.99995734657239
 20
-496.770816
 30
0.0
 11
18.98417934657232
 21
-503.286747
 31
0.0
  0
LINE
  5
492
330
50
100
AcDbEntity
  8
LC-005-002-----0
  6
Continuous
 62
     7
100
AcDbLine
 10
18.98417934657232
 20
-503.286747
 30
0.0
 11
36.06233734657235
 21
-497.8646
 31
0.0
  0
LINE
  5
493
330
50
100
AcDbEntity
  8
LC-005-002-----0
  6
Continuous
 62
     7
100
AcDbLine
 10
36.06233734657235
 20
-497.8646
 30
0.0
 11
49.23412534657223
 21
-506.5522660000002
 31
0.0
  0
LWPOLYLINE
  5
494
330
50
100
AcDbEntity
  8
LC-005-002-----0
  6
Continuous
 62
     7
100
AcDbPolyline
 90
        2
 70
     0
 43
1.0
 10
-0.00003865342762
 20
-482.621085
 10
1.86494534657231
 20
-468.4551270000001
  0
LWPOLYLINE
  5
495
330
50
100
AcDbEntity
  8
LC-005-002-----0
  6
Continuous
 62
     7
100
AcDbPolyline
 90
        2
 70
     0
 43
1.0
 10
-0.00003865342762
 20
-482.621085
 10
-1.86506065342769
 20
-468.4551320000002
  0
LWPOLYLINE
  5
496
330
50
100
AcDbEntity
  8
LC-006-005-----0
  6
Continuous
 62
     3
100
AcDbPolyline
 90
        2
 70
     0
 43
1.0
 10
1.49237634657243
 20
-471.285074
 10
-1.33756665342764
 20
-468.4551320000002
  0
LWPOLYLINE
  5
497
330
50
100
AcDbEntity
  8
LC-006-005-----0
  6
Continuous
 62
     3
100
AcDbPolyline
 90
        2
 70
     0
 43
1.0
 10
1.42656634657237
 20
-471.78495
 10
-1.85927065342764
 20
-468.499113
  0
LWPOLYLINE
  5
498
330
50
100
AcDbEntity
  8
LC-006-005-----0
  6
Continuous
 62
     3
100
AcDbPolyline
 90
        2
 70
     0
 43
1.0
 10
1.36075634657243
 20
-472.2848250000001
 10
-1.77350365342761
 20
-469.1505660000001
  0
LWPOLYLINE
  5
499
330
50
100
AcDbEntity
  8
LC-006-005-----0
  6
Continuous
 62
     3
100
AcDbPolyline
 90
        2
 70
     0
 43
1.0
 10
1.29494634657237
 20
-472.7847010000002
 10
-1.68773565342769
 20
-469.802019
  0
LWPOLYLINE
  5
49A
330
50
100
AcDbEntity
  8
LC-006-005-----0
  6
Continuous
 62
     3
100
AcDbPolyline
 90
        2
 70
     0
 43
1.0
 10
1.22913634657243
 20
-473.2845770000001
 10
-1.60196865342766
 20
-470.4534710000002
  0
LWPOLYLINE
  5
49B
330
50
100
AcDbEntity
  8
LC-006-005-----0
  6
Continuous
 62
     3
100
AcDbPolyline
 90
        2
 70
     0
 43
1.0
 10
1.16332634657238
 20
-473.784452
 10
-1.51620165342763
 20
-471.104924
  0
LWPOLYLINE
  5
49C
330
50
100
AcDbEntity
  8
LC-006-005-----0
  6
Continuous
 62
     3
100
AcDbPolyline
 90
        2
 70
     0
 43
1.0
 10
1.09751634657232
 20
-474.2843280000001
 10
-1.4304346534276
 20
-471.7563760000002
  0
LWPOLYLINE
  5
49D
330
50
100
AcDbEntity
  8
LC-006-005-----0
  6
Continuous
 62
     3
100
AcDbPolyline
 90
        2
 70
     0
 43
1.0
 10
1.03170734657237
 20
-474.7842030000002
 10
-1.34466765342768
 20
-472.407829
  0
LWPOLYLINE
  5
49E
330
50
100
AcDbEntity
  8
LC-006-005-----0
  6
Continuous
 62
     3
100
AcDbPolyline
 90
        2
 70
     0
 43
1.0
 10
0.96589734657232
 20
-475.2840790000001
 10
-1.25890065342765
 20
-473.0592820000001
  0
LWPOLYLINE
  5
49F
330
50
100
AcDbEntity
  8
LC-006-005-----0
  6
Continuous
 62
     3
100
AcDbPolyline
 90
        2
 70
     0
 43
1.0
 10
0.90008734657238
 20
-475.783954
 10
-1.17313265342761
 20
-473.710734
  0
LWPOLYLINE
  5
4A0
330
50
100
AcDbEntity
  8
LC-006-005-----0
  6
Continuous
 62
     3
100
AcDbPolyline
 90
        2
 70
     0
 43
1.0
 10
0.83427734657243
 20
-476.28383
 10
-1.0873656534277
 20
-474.3621870000001
  0
LWPOLYLINE
  5
4A1
330
50
100
AcDbEntity
  8
LC-006-005-----0
  6
Continuous
 62
     3
100
AcDbPolyline
 90
        2
 70
     0
 43
1.0
 10
0.76846734657238
 20
-476.7837060000002
 10
-1.00159865342766
 20
-475.013639
  0
LWPOLYLINE
  5
4A2
330
50
100
AcDbEntity
  8
LC-006-005-----0
  6
Continuous
 62
     3
100
AcDbPolyline
 90
        2
 70
     0
 43
1.0
 10
0.70265734657232
 20
-477.2835810000001
 10
-0.91583165342763
 20
-475.6650920000001
  0
LWPOLYLINE
  5
4A3
330
50
100
AcDbEntity
  8
LC-006-005-----0
  6
Continuous
 62
     3
100
AcDbPolyline
 90
        2
 70
     0
 43
1.0
 10
0.63684734657238
 20
-477.783457
 10
-0.8300646534276
 20
-476.3165450000001
  0
LWPOLYLINE
  5
4A4
330
50
100
AcDbEntity
  8
LC-006-005-----0
  6
Continuous
 62
     3
100
AcDbPolyline
 90
        2
 70
     0
 43
1.0
 10
0.57103734657244
 20
-478.283332
 10
-0.74429665342768
 20
-476.967997
  0
LWPOLYLINE
  5
4A5
330
50
100
AcDbEntity
  8
LC-006-005-----0
  6
Continuous
 62
     3
100
AcDbPolyline
 90
        2
 70
     0
 43
1.0
 10
0.50522834657238
 20
-478.7832080000001
 10
-0.65852965342765
 20
-477.6194500000001
  0
LWPOLYLINE
  5
4A6
330
50
100
AcDbEntity
  8
LC-006-005-----0
  6
Continuous
 62
     3
100
AcDbPolyline
 90
        2
 70
     0
 43
1.0
 10
0.43941834657244
 20
-479.2830830000002
 10
-0.57276265342762
 20
-478.270902
  0
LWPOLYLINE
  5
4A7
330
50
100
AcDbEntity
  8
LC-006-005-----0
  6
Continuous
 62
     3
100
AcDbPolyline
 90
        2
 70
     0
 43
1.0
 10
0.37360834657238
 20
-479.782959
 10
-0.48699565342758
 20
-478.9223550000002
  0
LWPOLYLINE
  5
4A8
330
50
100
AcDbEntity
  8
LC-006-005-----0
  6
Continuous
 62
     3
100
AcDbPolyline
 90
        2
 70
     0
 43
1.0
 10
0.30779834657233
 20
-480.282834
 10
-0.40122865342767
 20
-479.573808
  0
LWPOLYLINE
  5
4A9
330
50
100
AcDbEntity
  8
LC-006-005-----0
  6
Continuous
 62
     3
100
AcDbPolyline
 90
        2
 70
     0
 43
1.0
 10
0.24198834657238
 20
-480.7827100000001
 10
-0.31546165342763
 20
-480.2252600000002
  0
LWPOLYLINE
  5
4AA
330
50
100
AcDbEntity
  8
LC-006-005-----0
  6
Continuous
 62
     3
100
AcDbPolyline
 90
        2
 70
     0
 43
1.0
 10
0.17617834657233
 20
-481.2825860000002
 10
-0.2296936534276
 20
-480.876713
  0
LWPOLYLINE
  5
4AB
330
50
100
AcDbEntity
  8
LC-006-005-----0
  6
Continuous
 62
     3
100
AcDbPolyline
 90
        2
 70
     0
 43
1.0
 10
0.11036834657239
 20
-481.782461
 10
-0.14392665342757
 20
-481.5281660000001
  0
LWPOLYLINE
  5
4AC
330
50
100
AcDbEntity
  8
LC-006-005-----0
  6
Continuous
 62
     3
100
AcDbPolyline
 90
        2
 70
     0
 43
1.0
 10
0.04455934657233
 20
-482.282337
 10
-0.05815965342765
 20
-482.179618
  0
LINE
  5
4AD
330
50
100
AcDbEntity
  8
LC-005-002-----0
  6
Continuous
 62
     7
100
AcDbLine
 10
49.23412534657223
 20
-506.5522660000002
 30
0.0
 11
54.99998734657243
 21
-501.5522660000002
 31
0.0
  0
ARC
  5
4AE
330
50
100
AcDbEntity
  8
LC-001-002-RND-0
  6
Continuous
 62
     7
100
AcDbCircle
 10
-46.50013293019549
 20
-226.1020780598734
 30
0.0
 40
0.5
100
AcDbArc
 50
-90.0
 51
0.0
  0
ARC
  5
4AF
330
50
100
AcDbEntity
  8
LC-001-002-RND-0
  6
Continuous
 62
     7
100
AcDbCircle
 10
46.49986706980462
 20
-226.1020780598734
 30
0.0
 40
0.5
100
AcDbArc
 50
180.0
 51
-90.0
  0
ARC
  5
4B0
330
50
100
AcDbEntity
  8
LC-001-002-RND-0
  6
Continuous
 62
     7
100
AcDbCircle
 10
46.49986706980462
 20
-213.7719130598733
 30
0.0
 40
0.5
100
AcDbArc
 50
180.0
 51
-90.0
  0
ARC
  5
4B1
330
50
100
AcDbEntity
  8
LC-001-002-RND-0
  6
Continuous
 62
     7
100
AcDbCircle
 10
46.99986706980462
 20
-217.4412720598733
 30
0.0
 40
0.9999999999999301
100
AcDbArc
 50
100.0000000000063
 51
180.0
  0
ARC
  5
4B2
330
50
100
AcDbEntity
  8
LC-001-002-RND-0
  6
Continuous
 62
     7
100
AcDbCircle
 10
46.99986706980462
 20
-205.1111070598732
 30
0.0
 40
0.999999999999818
100
AcDbArc
 50
100.0000000000074
 51
180.0
  0
ARC
  5
4B3
330
50
100
AcDbEntity
  8
LC-001-002-RND-0
  6
Continuous
 62
     7
100
AcDbCircle
 10
46.99986706980462
 20
-192.7809410598732
 30
0.0
 40
0.9999999999995941
100
AcDbArc
 50
100.0000000000097
 51
180.0
  0
ARC
  5
4B4
330
50
100
AcDbEntity
  8
LC-001-002-RND-0
  6
Continuous
 62
     7
100
AcDbCircle
 10
46.99986706980462
 20
-180.4507750598732
 30
0.0
 40
0.999999999999818
100
AcDbArc
 50
100.0000000000074
 51
180.0
  0
ARC
  5
4B5
330
50
100
AcDbEntity
  8
LC-001-002-RND-0
  6
Continuous
 62
     7
100
AcDbCircle
 10
46.99986706980462
 20
-168.1206100598732
 30
0.0
 40
0.999999999999818
100
AcDbArc
 50
100.0000000000074
 51
180.0
  0
ARC
  5
4B6
330
50
100
AcDbEntity
  8
LC-001-002-RND-0
  6
Continuous
 62
     7
100
AcDbCircle
 10
-46.50013293019549
 20
-213.7719130598733
 30
0.0
 40
0.5
100
AcDbArc
 50
-90.0
 51
0.0
  0
ARC
  5
4B7
330
50
100
AcDbEntity
  8
LC-001-002-RND-0
  6
Continuous
 62
     7
100
AcDbCircle
 10
46.49986706980462
 20
-164.4512500598732
 30
0.0
 40
0.5
100
AcDbArc
 50
180.0
 51
-90.0
  0
ARC
  5
4B8
330
50
100
AcDbEntity
  8
LC-001-002-RND-0
  6
Continuous
 62
     7
100
AcDbCircle
 10
-47.00013293019549
 20
-217.4412720598733
 30
0.0
 40
1.0
100
AcDbArc
 50
0.0
 51
79.99999999999413
  0
ARC
  5
4B9
330
50
100
AcDbEntity
  8
LC-001-002-RND-0
  6
Continuous
 62
     7
100
AcDbCircle
 10
-47.00013293019549
 20
-205.1111070598732
 30
0.0
 40
1.0
100
AcDbArc
 50
0.0
 51
79.999999999993
  0
ARC
  5
4BA
330
50
100
AcDbEntity
  8
LC-001-002-RND-0
  6
Continuous
 62
     7
100
AcDbCircle
 10
-47.00013293019549
 20
-192.7809410598732
 30
0.0
 40
1.0
100
AcDbArc
 50
0.0
 51
79.99999999999073
  0
ARC
  5
4BB
330
50
100
AcDbEntity
  8
LC-001-002-RND-0
  6
Continuous
 62
     7
100
AcDbCircle
 10
-47.00013293019549
 20
-180.4507750598732
 30
0.0
 40
1.0
100
AcDbArc
 50
0.0
 51
79.999999999993
  0
ARC
  5
4BC
330
50
100
AcDbEntity
  8
LC-001-002-RND-0
  6
Continuous
 62
     7
100
AcDbCircle
 10
-47.00013293019549
 20
-168.1206100598732
 30
0.0
 40
1.0
100
AcDbArc
 50
0.0
 51
79.999999999993
  0
ARC
  5
4BD
330
50
100
AcDbEntity
  8
LC-001-002-RND-0
  6
Continuous
 62
     7
100
AcDbCircle
 10
46.49986706980462
 20
-176.7814160598732
 30
0.0
 40
0.5
100
AcDbArc
 50
180.0
 51
-90.0
  0
ARC
  5
4BE
330
50
100
AcDbEntity
  8
LC-001-002-RND-0
  6
Continuous
 62
     7
100
AcDbCircle
 10
46.49986706980462
 20
-189.1115820598731
 30
0.0
 40
0.5
100
AcDbArc
 50
180.0
 51
-90.0
  0
ARC
  5
4BF
330
50
100
AcDbEntity
  8
LC-001-002-RND-0
  6
Continuous
 62
     7
100
AcDbCircle
 10
46.49986706980462
 20
-201.4417470598732
 30
0.0
 40
0.5
100
AcDbArc
 50
180.0
 51
-90.0
  0
ARC
  5
4C0
330
50
100
AcDbEntity
  8
LC-002-002-----0
  6
Continuous
 62
     7
100
AcDbCircle
 10
52.95187806980448
 20
-214.8199020598732
 30
0.0
 40
0.547990000000014
100
AcDbArc
 50
-79.99999999996818
 51
90.0
  0
ARC
  5
4C1
330
50
100
AcDbEntity
  8
LC-002-002-----0
  6
Continuous
 62
     7
100
AcDbCircle
 10
52.95187806980448
 20
-202.4897370598732
 30
0.0
 40
0.547989999999902
100
AcDbArc
 50
-79.99999999996612
 51
90.0
  0
ARC
  5
4C2
330
50
100
AcDbEntity
  8
LC-002-002-----0
  6
Continuous
 62
     7
100
AcDbCircle
 10
52.95187806980448
 20
-153.1690740598732
 30
0.0
 40
0.547989999999902
100
AcDbArc
 50
-79.99999999996612
 51
90.0
  0
ARC
  5
4C3
330
50
100
AcDbEntity
  8
LC-002-002-----0
  6
Continuous
 62
     7
100
AcDbCircle
 10
52.95187806980448
 20
-190.1595710598733
 30
0.0
 40
0.5479899999998181
100
AcDbArc
 50
-79.99999999996457
 51
90.0
  0
ARC
  5
4C4
330
50
100
AcDbEntity
  8
LC-002-002-----0
  6
Continuous
 62
     7
100
AcDbCircle
 10
52.95187806980448
 20
-177.8294050598732
 30
0.0
 40
0.5479899999998741
100
AcDbArc
 50
-79.9999999999656
 51
90.0
  0
ARC
  5
4C5
330
50
100
AcDbEntity
  8
LC-001-002-RND-0
  6
Continuous
 62
     7
100
AcDbCircle
 10
-46.50013293019549
 20
-164.4512500598732
 30
0.0
 40
0.5
100
AcDbArc
 50
-90.0
 51
0.0
  0
ARC
  5
4C6
330
50
100
AcDbEntity
  8
LC-001-002-RND-0
  6
Continuous
 62
     7
100
AcDbCircle
 10
-46.50013293019549
 20
-176.7814160598732
 30
0.0
 40
0.5
100
AcDbArc
 50
-90.0
 51
0.0
  0
ARC
  5
4C7
330
50
100
AcDbEntity
  8
LC-001-002-RND-0
  6
Continuous
 62
     7
100
AcDbCircle
 10
-46.50013293019549
 20
-189.1115820598731
 30
0.0
 40
0.5
100
AcDbArc
 50
-90.0
 51
0.0
  0
ARC
  5
4C8
330
50
100
AcDbEntity
  8
LC-001-002-RND-0
  6
Continuous
 62
     7
100
AcDbCircle
 10
-46.50013293019549
 20
-201.4417470598732
 30
0.0
 40
0.5
100
AcDbArc
 50
-90.0
 51
0.0
  0
ARC
  5
4C9
330
50
100
AcDbEntity
  8
LC-002-002-----0
  6
Continuous
 62
     7
100
AcDbCircle
 10
-52.95214293019558
 20
-214.8199020598732
 30
0.0
 40
0.5479899999999986
100
AcDbArc
 50
90.0
 51
-100.0000000000318
  0
ARC
  5
4CA
330
50
100
AcDbEntity
  8
LC-002-002-----0
  6
Continuous
 62
     7
100
AcDbCircle
 10
-52.95214293019558
 20
-202.4897370598732
 30
0.0
 40
0.5479899999999986
100
AcDbArc
 50
90.0
 51
-100.0000000000339
  0
ARC
  5
4CB
330
50
100
AcDbEntity
  8
LC-002-002-----0
  6
Continuous
 62
     7
100
AcDbCircle
 10
-52.95214293019558
 20
-153.1690740598732
 30
0.0
 40
0.5479899999999986
100
AcDbArc
 50
90.0
 51
-100.0000000000339
  0
ARC
  5
4CC
330
50
100
AcDbEntity
  8
LC-002-002-----0
  6
Continuous
 62
     7
100
AcDbCircle
 10
-52.95214293019558
 20
-190.1595710598733
 30
0.0
 40
0.5479900000000839
100
AcDbArc
 50
90.0
 51
-100.0000000000354
  0
ARC
  5
4CD
330
50
100
AcDbEntity
  8
LC-002-002-----0
  6
Continuous
 62
     7
100
AcDbCircle
 10
-52.95214293019558
 20
-177.8294050598732
 30
0.0
 40
0.5479899999999986
100
AcDbArc
 50
90.0
 51
-100.0000000000344
  0
ARC
  5
4CE
330
50
100
AcDbEntity
  8
LC-001-002-RND-0
  6
Continuous
 62
     7
100
AcDbCircle
 10
46.99986706980462
 20
-155.7904440598732
 30
0.0
 40
0.999999999999818
100
AcDbArc
 50
100.0000000000074
 51
180.0
  0
ARC
  5
4CF
330
50
100
AcDbEntity
  8
LC-002-002-----0
  6
Continuous
 62
     7
100
AcDbCircle
 10
52.95187806980448
 20
-165.4992400598732
 30
0.0
 40
0.547989999999902
100
AcDbArc
 50
-79.99999999996612
 51
90.0
  0
ARC
  5
4D0
330
50
100
AcDbEntity
  8
LC-001-002-RND-0
  6
Continuous
 62
     7
100
AcDbCircle
 10
-47.00013293019549
 20
-155.7904440598732
 30
0.0
 40
1.0
100
AcDbArc
 50
0.0
 51
79.999999999993
  0
ARC
  5
4D1
330
50
100
AcDbEntity
  8
LC-002-002-----0
  6
Continuous
 62
     7
100
AcDbCircle
 10
-52.95214293019558
 20
-165.4992400598732
 30
0.0
 40
0.5479899999999986
100
AcDbArc
 50
90.0
 51
-100.0000000000339
  0
ARC
  5
4D2
330
50
100
AcDbEntity
  8
LC-001-002-RND-0
  6
Continuous
 62
     7
100
AcDbCircle
 10
-77.7501319301955
 20
-44.62229300000002
 30
0.0
 40
3.0
100
AcDbArc
 50
180.0
 51
-90.0
  0
ARC
  5
4D3
330
50
100
AcDbEntity
  8
LC-001-002-RND-0
  6
Continuous
 62
     7
100
AcDbCircle
 10
77.7498680698045
 20
-44.62229300000002
 30
0.0
 40
3.0
100
AcDbArc
 50
-90.0
 51
0.0
  0
ARC
  5
4D4
330
50
100
AcDbEntity
  8
LC-001-002-RND-0
  6
Continuous
 62
     7
100
AcDbCircle
 10
102.0032600698046
 20
-16.92923800000001
 30
0.0
 40
0.499999999999884
100
AcDbArc
 50
90.00015699995815
 51
-179.9998430000528
  0
ARC
  5
4D5
330
50
100
AcDbEntity
  8
LC-001-002-RND-0
  6
Continuous
 62
     7
100
AcDbCircle
 10
100.0032980698045
 20
-30.92924300000001
 30
0.0
 40
1.499999999999652
100
AcDbArc
 50
-89.9998430000109
 51
0.00015699998367
  0
ARC
  5
4D6
330
50
100
AcDbEntity
  8
LC-001-002-RND-0
  6
Continuous
 62
     7
100
AcDbCircle
 10
-100.0037459301955
 20
-30.92951800000004
 30
0.0
 40
1.5
100
AcDbArc
 50
180.0
 51
-90.0
  0
ARC
  5
4D7
330
50
100
AcDbEntity
  8
LC-001-002-RND-0
  6
Continuous
 62
     7
100
AcDbCircle
 10
-102.0037459301955
 20
-16.92951800000004
 30
0.0
 40
0.5
100
AcDbArc
 50
0.0
 51
90.0
  0
ARC
  5
4D8
330
50
100
AcDbEntity
  8
LC-002-002-----0
  6
Continuous
 62
     7
100
AcDbCircle
 10
-52.95214293019558
 20
-239.499093
 30
0.0
 40
0.5479899999999986
100
AcDbArc
 50
90.0
 51
-100.0000000000339
  0
ARC
  5
4D9
330
50
100
AcDbEntity
  8
LC-001-002-RND-0
  6
Continuous
 62
     7
100
AcDbCircle
 10
-47.00013293019549
 20
-229.790297
 30
0.0
 40
1.0
100
AcDbArc
 50
0.0
 51
79.999999999993
  0
ARC
  5
4DA
330
50
100
AcDbEntity
  8
LC-002-002-----0
  6
Continuous
 62
     7
100
AcDbCircle
 10
52.95187806980448
 20
-239.499093
 30
0.0
 40
0.547989999999902
100
AcDbArc
 50
-79.99999999996612
 51
90.0
  0
ARC
  5
4DB
330
50
100
AcDbEntity
  8
LC-001-002-RND-0
  6
Continuous
 62
     7
100
AcDbCircle
 10
46.99986706980462
 20
-229.790297
 30
0.0
 40
0.999999999999818
100
AcDbArc
 50
100.0000000000074
 51
180.0
  0
ARC
  5
4DC
330
50
100
AcDbEntity
  8
LC-002-002-----0
  6
Continuous
 62
     7
100
AcDbCircle
 10
-52.95214293019558
 20
-251.829258
 30
0.0
 40
0.5479899999999986
100
AcDbArc
 50
90.0
 51
-100.0000000000344
  0
ARC
  5
4DD
330
50
100
AcDbEntity
  8
LC-002-002-----0
  6
Continuous
 62
     7
100
AcDbCircle
 10
-52.95214293019558
 20
-264.1594240000001
 30
0.0
 40
0.5479900000001408
100
AcDbArc
 50
90.0
 51
-100.000000000036
  0
ARC
  5
4DE
330
50
100
AcDbEntity
  8
LC-002-002-----0
  6
Continuous
 62
     7
100
AcDbCircle
 10
-52.95214293019558
 20
-227.168927
 30
0.0
 40
0.5479899999999986
100
AcDbArc
 50
90.0
 51
-100.0000000000339
  0
ARC
  5
4DF
330
50
100
AcDbEntity
  8
LC-002-002-----0
  6
Continuous
 62
     7
100
AcDbCircle
 10
-52.95214293019558
 20
-276.48959
 30
0.0
 40
0.5479900000000271
100
AcDbArc
 50
90.0
 51
-100.0000000000339
  0
ARC
  5
4E0
330
50
100
AcDbEntity
  8
LC-002-002-----0
  6
Continuous
 62
     7
100
AcDbCircle
 10
-52.95214293019558
 20
-288.819755
 30
0.0
 40
0.5479899999999134
100
AcDbArc
 50
90.0
 51
-100.0000000000318
  0
ARC
  5
4E1
330
50
100
AcDbEntity
  8
LC-001-002-RND-0
  6
Continuous
 62
     7
100
AcDbCircle
 10
-46.50013293019549
 20
-275.4416
 30
0.0
 40
0.5
100
AcDbArc
 50
-90.0
 51
0.0
  0
ARC
  5
4E2
330
50
100
AcDbEntity
  8
LC-001-002-RND-0
  6
Continuous
 62
     7
100
AcDbCircle
 10
-46.50013293019549
 20
-263.111435
 30
0.0
 40
0.5
100
AcDbArc
 50
-90.0
 51
0.0
  0
ARC
  5
4E3
330
50
100
AcDbEntity
  8
LC-001-002-RND-0
  6
Continuous
 62
     7
100
AcDbCircle
 10
-46.50013293019549
 20
-250.781269
 30
0.0
 40
0.5
100
AcDbArc
 50
-90.0
 51
0.0
  0
ARC
  5
4E4
330
50
100
AcDbEntity
  8
LC-001-002-RND-0
  6
Continuous
 62
     7
100
AcDbCircle
 10
-46.50013293019549
 20
-238.451103
 30
0.0
 40
0.5
100
AcDbArc
 50
-90.0
 51
0.0
  0
ARC
  5
4E5
330
50
100
AcDbEntity
  8
LC-002-002-----0
  6
Continuous
 62
     7
100
AcDbCircle
 10
52.95187806980448
 20
-251.829258
 30
0.0
 40
0.5479899999998741
100
AcDbArc
 50
-79.9999999999656
 51
90.0
  0
ARC
  5
4E6
330
50
100
AcDbEntity
  8
LC-002-002-----0
  6
Continuous
 62
     7
100
AcDbCircle
 10
52.95187806980448
 20
-264.1594240000001
 30
0.0
 40
0.54798999999979
100
AcDbArc
 50
-79.99999999996406
 51
90.0
  0
ARC
  5
4E7
330
50
100
AcDbEntity
  8
LC-002-002-----0
  6
Continuous
 62
     7
100
AcDbCircle
 10
52.95187806980448
 20
-227.168927
 30
0.0
 40
0.547989999999902
100
AcDbArc
 50
-79.99999999996612
 51
90.0
  0
ARC
  5
4E8
330
50
100
AcDbEntity
  8
LC-002-002-----0
  6
Continuous
 62
     7
100
AcDbCircle
 10
52.95187806980448
 20
-276.48959
 30
0.0
 40
0.547989999999902
100
AcDbArc
 50
-79.99999999996612
 51
90.0
  0
ARC
  5
4E9
330
50
100
AcDbEntity
  8
LC-002-002-----0
  6
Continuous
 62
     7
100
AcDbCircle
 10
52.95187806980448
 20
-288.819755
 30
0.0
 40
0.547990000000014
100
AcDbArc
 50
-79.99999999996818
 51
90.0
  0
ARC
  5
4EA
330
50
100
AcDbEntity
  8
LC-001-002-RND-0
  6
Continuous
 62
     7
100
AcDbCircle
 10
46.49986706980462
 20
-275.4416
 30
0.0
 40
0.5
100
AcDbArc
 50
180.0
 51
-90.0
  0
ARC
  5
4EB
330
50
100
AcDbEntity
  8
LC-001-002-RND-0
  6
Continuous
 62
     7
100
AcDbCircle
 10
46.49986706980462
 20
-263.111435
 30
0.0
 40
0.5
100
AcDbArc
 50
180.0
 51
-90.0
  0
ARC
  5
4EC
330
50
100
AcDbEntity
  8
LC-001-002-RND-0
  6
Continuous
 62
     7
100
AcDbCircle
 10
46.49986706980462
 20
-250.781269
 30
0.0
 40
0.5
100
AcDbArc
 50
180.0
 51
-90.0
  0
ARC
  5
4ED
330
50
100
AcDbEntity
  8
LC-002-002-----0
  6
Continuous
 62
     7
100
AcDbCircle
 10
-52.95214293019558
 20
-301.1499210000001
 30
0.0
 40
0.5479899999999134
100
AcDbArc
 50
90.0
 51
-100.000000000036
  0
ARC
  5
4EE
330
50
100
AcDbEntity
  8
LC-002-002-----0
  6
Continuous
 62
     7
100
AcDbCircle
 10
-52.95214293019558
 20
-313.480087
 30
0.0
 40
0.5479900000000271
100
AcDbArc
 50
90.0
 51
-100.0000000000349
  0
ARC
  5
4EF
330
50
100
AcDbEntity
  8
LC-002-002-----0
  6
Continuous
 62
     7
100
AcDbCircle
 10
-52.95214293019558
 20
-325.810252
 30
0.0
 40
0.5479899999999702
100
AcDbArc
 50
90.0
 51
-100.0000000000318
  0
ARC
  5
4F0
330
50
100
AcDbEntity
  8
LC-002-002-----0
  6
Continuous
 62
     7
100
AcDbCircle
 10
-52.95214293019558
 20
-338.1404180000001
 30
0.0
 40
0.5479900000001408
100
AcDbArc
 50
90.0
 51
-100.0000000000308
  0
ARC
  5
4F1
330
50
100
AcDbEntity
  8
LC-002-002-----0
  6
Continuous
 62
     7
100
AcDbCircle
 10
-52.95214293019558
 20
-350.470584
 30
0.0
 40
0.5479899999999702
100
AcDbArc
 50
90.0
 51
-100.0000000000298
  0
ARC
  5
4F2
330
50
100
AcDbEntity
  8
LC-002-002-----0
  6
Continuous
 62
     7
100
AcDbCircle
 10
-52.95214293019558
 20
-362.800749
 30
0.0
 40
0.5479899999999702
100
AcDbArc
 50
90.0
 51
-100.0000000000308
  0
ARC
  5
4F3
330
50
100
AcDbEntity
  8
LC-002-002-----0
  6
Continuous
 62
     7
100
AcDbCircle
 10
-52.95214293019558
 20
-375.1309150000001
 30
0.0
 40
0.5479899999999702
100
AcDbArc
 50
90.0
 51
-100.0000000000298
  0
ARC
  5
4F4
330
50
100
AcDbEntity
  8
LC-002-002-----0
  6
Continuous
 62
     7
100
AcDbCircle
 10
-52.95214293019558
 20
-387.461081
 30
0.0
 40
0.5479899999999702
100
AcDbArc
 50
90.0
 51
-100.0000000000298
  0
ARC
  5
4F5
330
50
100
AcDbEntity
  8
LC-002-002-----0
  6
Continuous
 62
     7
100
AcDbCircle
 10
-52.95214293019558
 20
-399.791246
 30
0.0
 40
0.5479900000000271
100
AcDbArc
 50
90.0
 51
-100.0000000000308
  0
ARC
  5
4F6
330
50
100
AcDbEntity
  8
LC-002-002-----0
  6
Continuous
 62
     7
100
AcDbCircle
 10
-52.95214293019558
 20
-412.121412
 30
0.0
 40
0.5479899999999134
100
AcDbArc
 50
90.0
 51
-100.0000000000287
  0
ARC
  5
4F7
330
50
100
AcDbEntity
  8
LC-002-002-----0
  6
Continuous
 62
     7
100
AcDbCircle
 10
-52.95214293019558
 20
-424.451578
 30
0.0
 40
0.5479899999999702
100
AcDbArc
 50
90.0
 51
-100.0000000000298
  0
ARC
  5
4F8
330
50
100
AcDbEntity
  8
LC-002-002-----0
  6
Continuous
 62
     7
100
AcDbCircle
 10
-52.95214293019558
 20
-436.781743
 30
0.0
 40
0.5479900000000271
100
AcDbArc
 50
90.0
 51
-100.0000000000308
  0
ARC
  5
4F9
330
50
100
AcDbEntity
  8
LC-002-002-----0
  6
Continuous
 62
     7
100
AcDbCircle
 10
-52.95214293019558
 20
-449.111909
 30
0.0
 40
0.5479899999999134
100
AcDbArc
 50
90.0
 51
-100.0000000000287
  0
ARC
  5
4FA
330
50
100
AcDbEntity
  8
LC-001-002-RND-0
  6
Continuous
 62
     7
100
AcDbCircle
 10
-47.00013293019549
 20
-242.120463
 30
0.0
 40
1.0
100
AcDbArc
 50
0.0
 51
79.999999999993
  0
ARC
  5
4FB
330
50
100
AcDbEntity
  8
LC-001-002-RND-0
  6
Continuous
 62
     7
100
AcDbCircle
 10
-47.00013293019549
 20
-254.450628
 30
0.0
 40
1.0
100
AcDbArc
 50
0.0
 51
79.999999999993
  0
ARC
  5
4FC
330
50
100
AcDbEntity
  8
LC-001-002-RND-0
  6
Continuous
 62
     7
100
AcDbCircle
 10
-47.00013293019549
 20
-266.780794
 30
0.0
 40
1.0
100
AcDbArc
 50
0.0
 51
79.99999999999102
  0
ARC
  5
4FD
330
50
100
AcDbEntity
  8
LC-001-002-RND-0
  6
Continuous
 62
     7
100
AcDbCircle
 10
-47.00013293019549
 20
-279.11096
 30
0.0
 40
1.0
100
AcDbArc
 50
0.0
 51
79.99999999999272
  0
ARC
  5
4FE
330
50
100
AcDbEntity
  8
LC-001-002-RND-0
  6
Continuous
 62
     7
100
AcDbCircle
 10
-47.00013293019549
 20
-291.4411250000001
 30
0.0
 40
1.0
100
AcDbArc
 50
0.0
 51
79.99999999999385
  0
ARC
  5
4FF
330
50
100
AcDbEntity
  8
LC-001-002-RND-0
  6
Continuous
 62
     7
100
AcDbCircle
 10
-47.00013293019549
 20
-303.771291
 30
0.0
 40
1.0
100
AcDbArc
 50
0.0
 51
79.99999999999102
  0
ARC
  5
500
330
50
100
AcDbEntity
  8
LC-001-002-RND-0
  6
Continuous
 62
     7
100
AcDbCircle
 10
-47.00013293019549
 20
-316.101457
 30
0.0
 40
1.0
100
AcDbArc
 50
0.0
 51
79.99999999999272
  0
ARC
  5
501
330
50
100
AcDbEntity
  8
LC-001-002-RND-0
  6
Continuous
 62
     7
100
AcDbCircle
 10
-47.00013293019549
 20
-328.4316220000001
 30
0.0
 40
1.0
100
AcDbArc
 50
0.0
 51
79.99999999999385
  0
ARC
  5
502
330
50
100
AcDbEntity
  8
LC-001-002-RND-0
  6
Continuous
 62
     7
100
AcDbCircle
 10
-47.00013293019549
 20
-340.761788
 30
0.0
 40
1.0
100
AcDbArc
 50
0.0
 51
79.99999999999498
  0
ARC
  5
503
330
50
100
AcDbEntity
  8
LC-001-002-RND-0
  6
Continuous
 62
     7
100
AcDbCircle
 10
-47.00013293019549
 20
-353.091954
 30
0.0
 40
1.0
100
AcDbArc
 50
0.0
 51
79.99999999999498
  0
ARC
  5
504
330
50
100
AcDbEntity
  8
LC-001-002-RND-0
  6
Continuous
 62
     7
100
AcDbCircle
 10
-47.00013293019549
 20
-365.4221190000001
 30
0.0
 40
1.0
100
AcDbArc
 50
0.0
 51
79.99999999999498
  0
ARC
  5
505
330
50
100
AcDbEntity
  8
LC-001-002-RND-0
  6
Continuous
 62
     7
100
AcDbCircle
 10
-47.00013293019549
 20
-377.752285
 30
0.0
 40
1.0
100
AcDbArc
 50
0.0
 51
79.99999999999442
  0
ARC
  5
506
330
50
100
AcDbEntity
  8
LC-001-002-RND-0
  6
Continuous
 62
     7
100
AcDbCircle
 10
-47.00013293019549
 20
-390.082451
 30
0.0
 40
1.0
100
AcDbArc
 50
0.0
 51
79.99999999999498
  0
ARC
  5
507
330
50
100
AcDbEntity
  8
LC-001-002-RND-0
  6
Continuous
 62
     7
100
AcDbCircle
 10
-47.00013293019549
 20
-402.4126160000001
 30
0.0
 40
1.0
100
AcDbArc
 50
0.0
 51
79.99999999999498
  0
ARC
  5
508
330
50
100
AcDbEntity
  8
LC-001-002-RND-0
  6
Continuous
 62
     7
100
AcDbCircle
 10
-47.00013293019549
 20
-414.742782
 30
0.0
 40
1.0
100
AcDbArc
 50
0.0
 51
79.99999999999442
  0
ARC
  5
509
330
50
100
AcDbEntity
  8
LC-001-002-RND-0
  6
Continuous
 62
     7
100
AcDbCircle
 10
-47.00013293019549
 20
-427.072948
 30
0.0
 40
1.0
100
AcDbArc
 50
0.0
 51
79.99999999999498
  0
ARC
  5
50A
330
50
100
AcDbEntity
  8
LC-001-002-RND-0
  6
Continuous
 62
     7
100
AcDbCircle
 10
46.49986706980462
 20
-238.451103
 30
0.0
 40
0.5
100
AcDbArc
 50
180.0
 51
-90.0
  0
ARC
  5
50B
330
50
100
AcDbEntity
  8
LC-001-002-RND-0
  6
Continuous
 62
     7
100
AcDbCircle
 10
-46.50013293019549
 20
-435.733754
 30
0.0
 40
0.5
100
AcDbArc
 50
-90.0
 51
0.0
  0
ARC
  5
50C
330
50
100
AcDbEntity
  8
LC-001-002-RND-0
  6
Continuous
 62
     7
100
AcDbCircle
 10
-46.50013293019549
 20
-448.0639190000001
 30
0.0
 40
0.5
100
AcDbArc
 50
-90.0
 51
0.0
  0
ARC
  5
50D
330
50
100
AcDbEntity
  8
LC-001-002-RND-0
  6
Continuous
 62
     7
100
AcDbCircle
 10
-46.50013293019549
 20
-423.403588
 30
0.0
 40
0.5
100
AcDbArc
 50
-90.0
 51
0.0
  0
ARC
  5
50E
330
50
100
AcDbEntity
  8
LC-001-002-RND-0
  6
Continuous
 62
     7
100
AcDbCircle
 10
-46.50013293019549
 20
-411.0734220000001
 30
0.0
 40
0.5
100
AcDbArc
 50
-90.0
 51
0.0
  0
ARC
  5
50F
330
50
100
AcDbEntity
  8
LC-001-002-RND-0
  6
Continuous
 62
     7
100
AcDbCircle
 10
-46.50013293019549
 20
-398.743257
 30
0.0
 40
0.5
100
AcDbArc
 50
-90.0
 51
0.0
  0
ARC
  5
510
330
50
100
AcDbEntity
  8
LC-001-002-RND-0
  6
Continuous
 62
     7
100
AcDbCircle
 10
-46.50013293019549
 20
-386.413091
 30
0.0
 40
0.5
100
AcDbArc
 50
-90.0
 51
0.0
  0
ARC
  5
511
330
50
100
AcDbEntity
  8
LC-001-002-RND-0
  6
Continuous
 62
     7
100
AcDbCircle
 10
-46.50013293019549
 20
-374.0829250000001
 30
0.0
 40
0.5
100
AcDbArc
 50
-90.0
 51
0.0
  0
ARC
  5
512
330
50
100
AcDbEntity
  8
LC-001-002-RND-0
  6
Continuous
 62
     7
100
AcDbCircle
 10
-46.50013293019549
 20
-361.75276
 30
0.0
 40
0.5
100
AcDbArc
 50
-90.0
 51
0.0
  0
ARC
  5
513
330
50
100
AcDbEntity
  8
LC-001-002-RND-0
  6
Continuous
 62
     7
100
AcDbCircle
 10
-46.50013293019549
 20
-349.422594
 30
0.0
 40
0.5
100
AcDbArc
 50
-90.0
 51
0.0
  0
ARC
  5
514
330
50
100
AcDbEntity
  8
LC-001-002-RND-0
  6
Continuous
 62
     7
100
AcDbCircle
 10
-46.50013293019549
 20
-337.092428
 30
0.0
 40
0.5
100
AcDbArc
 50
-90.0
 51
0.0
  0
ARC
  5
515
330
50
100
AcDbEntity
  8
LC-001-002-RND-0
  6
Continuous
 62
     7
100
AcDbCircle
 10
-46.50013293019549
 20
-324.762263
 30
0.0
 40
0.5
100
AcDbArc
 50
-90.0
 51
0.0
  0
ARC
  5
516
330
50
100
AcDbEntity
  8
LC-001-002-RND-0
  6
Continuous
 62
     7
100
AcDbCircle
 10
-46.50013293019549
 20
-312.432097
 30
0.0
 40
0.5
100
AcDbArc
 50
-90.0
 51
0.0
  0
ARC
  5
517
330
50
100
AcDbEntity
  8
LC-001-002-RND-0
  6
Continuous
 62
     7
100
AcDbCircle
 10
-46.50013293019549
 20
-300.1019310000002
 30
0.0
 40
0.5
100
AcDbArc
 50
-90.0
 51
0.0
  0
ARC
  5
518
330
50
100
AcDbEntity
  8
LC-001-002-RND-0
  6
Continuous
 62
     7
100
AcDbCircle
 10
-46.50013293019549
 20
-287.7717660000001
 30
0.0
 40
0.5
100
AcDbArc
 50
-90.0
 51
0.0
  0
ARC
  5
519
330
50
100
AcDbEntity
  8
LC-002-002-----0
  6
Continuous
 62
     7
100
AcDbCircle
 10
52.95187806980448
 20
-301.1499210000001
 30
0.0
 40
0.54798999999979
100
AcDbArc
 50
-79.99999999996406
 51
90.0
  0
ARC
  5
51A
330
50
100
AcDbEntity
  8
LC-002-002-----0
  6
Continuous
 62
     7
100
AcDbCircle
 10
52.95187806980448
 20
-313.480087
 30
0.0
 40
0.5479899999998461
100
AcDbArc
 50
-79.99999999996508
 51
90.0
  0
ARC
  5
51B
330
50
100
AcDbEntity
  8
LC-002-002-----0
  6
Continuous
 62
     7
100
AcDbCircle
 10
52.95187806980448
 20
-325.810252
 30
0.0
 40
0.547990000000014
100
AcDbArc
 50
-79.99999999996818
 51
90.0
  0
ARC
  5
51C
330
50
100
AcDbEntity
  8
LC-002-002-----0
  6
Continuous
 62
     7
100
AcDbCircle
 10
52.95187806980448
 20
-338.1404180000001
 30
0.0
 40
0.54799000000007
100
AcDbArc
 50
-79.9999999999692
 51
90.0
  0
ARC
  5
51D
330
50
100
AcDbEntity
  8
LC-002-002-----0
  6
Continuous
 62
     7
100
AcDbCircle
 10
52.95187806980448
 20
-350.470584
 30
0.0
 40
0.547990000000126
100
AcDbArc
 50
-79.99999999997024
 51
90.0
  0
ARC
  5
51E
330
50
100
AcDbEntity
  8
LC-002-002-----0
  6
Continuous
 62
     7
100
AcDbCircle
 10
52.95187806980448
 20
-362.800749
 30
0.0
 40
0.54799000000007
100
AcDbArc
 50
-79.9999999999692
 51
90.0
  0
ARC
  5
51F
330
50
100
AcDbEntity
  8
LC-002-002-----0
  6
Continuous
 62
     7
100
AcDbCircle
 10
52.95187806980448
 20
-375.1309150000001
 30
0.0
 40
0.547990000000126
100
AcDbArc
 50
-79.99999999997024
 51
90.0
  0
ARC
  5
520
330
50
100
AcDbEntity
  8
LC-002-002-----0
  6
Continuous
 62
     7
100
AcDbCircle
 10
52.95187806980448
 20
-387.461081
 30
0.0
 40
0.547990000000126
100
AcDbArc
 50
-79.99999999997024
 51
90.0
  0
ARC
  5
521
330
50
100
AcDbEntity
  8
LC-002-002-----0
  6
Continuous
 62
     7
100
AcDbCircle
 10
52.95187806980448
 20
-399.791246
 30
0.0
 40
0.54799000000007
100
AcDbArc
 50
-79.9999999999692
 51
90.0
  0
ARC
  5
522
330
50
100
AcDbEntity
  8
LC-002-002-----0
  6
Continuous
 62
     7
100
AcDbCircle
 10
52.95187806980448
 20
-412.121412
 30
0.0
 40
0.5479900000001819
100
AcDbArc
 50
-79.99999999997127
 51
90.0
  0
ARC
  5
523
330
50
100
AcDbEntity
  8
LC-002-002-----0
  6
Continuous
 62
     7
100
AcDbCircle
 10
52.95187806980448
 20
-424.451578
 30
0.0
 40
0.547990000000126
100
AcDbArc
 50
-79.99999999997024
 51
90.0
  0
ARC
  5
524
330
50
100
AcDbEntity
  8
LC-002-002-----0
  6
Continuous
 62
     7
100
AcDbCircle
 10
52.95187806980448
 20
-436.781743
 30
0.0
 40
0.54799000000007
100
AcDbArc
 50
-79.9999999999692
 51
90.0
  0
ARC
  5
525
330
50
100
AcDbEntity
  8
LC-002-002-----0
  6
Continuous
 62
     7
100
AcDbCircle
 10
52.95187806980448
 20
-449.111909
 30
0.0
 40
0.5479900000001819
100
AcDbArc
 50
-79.99999999997127
 51
90.0
  0
ARC
  5
526
330
50
100
AcDbEntity
  8
LC-001-002-RND-0
  6
Continuous
 62
     7
100
AcDbCircle
 10
46.99986706980462
 20
-242.120463
 30
0.0
 40
0.999999999999818
100
AcDbArc
 50
100.0000000000074
 51
180.0
  0
ARC
  5
527
330
50
100
AcDbEntity
  8
LC-001-002-RND-0
  6
Continuous
 62
     7
100
AcDbCircle
 10
46.99986706980462
 20
-254.450628
 30
0.0
 40
0.999999999999818
100
AcDbArc
 50
100.0000000000074
 51
180.0
  0
ARC
  5
528
330
50
100
AcDbEntity
  8
LC-001-002-RND-0
  6
Continuous
 62
     7
100
AcDbCircle
 10
46.99986706980462
 20
-266.780794
 30
0.0
 40
0.9999999999996222
100
AcDbArc
 50
100.0000000000094
 51
180.0
  0
ARC
  5
529
330
50
100
AcDbEntity
  8
LC-001-002-RND-0
  6
Continuous
 62
     7
100
AcDbCircle
 10
46.99986706980462
 20
-279.11096
 30
0.0
 40
0.9999999999997901
100
AcDbArc
 50
100.0000000000077
 51
180.0
  0
ARC
  5
52A
330
50
100
AcDbEntity
  8
LC-001-002-RND-0
  6
Continuous
 62
     7
100
AcDbCircle
 10
46.99986706980462
 20
-291.4411250000001
 30
0.0
 40
0.9999999999999021
100
AcDbArc
 50
100.0000000000066
 51
180.0
  0
ARC
  5
52B
330
50
100
AcDbEntity
  8
LC-001-002-RND-0
  6
Continuous
 62
     7
100
AcDbCircle
 10
46.99986706980462
 20
-303.771291
 30
0.0
 40
0.9999999999996222
100
AcDbArc
 50
100.0000000000094
 51
180.0
  0
ARC
  5
52C
330
50
100
AcDbEntity
  8
LC-001-002-RND-0
  6
Continuous
 62
     7
100
AcDbCircle
 10
46.99986706980462
 20
-316.101457
 30
0.0
 40
0.9999999999997901
100
AcDbArc
 50
100.0000000000077
 51
180.0
  0
ARC
  5
52D
330
50
100
AcDbEntity
  8
LC-001-002-RND-0
  6
Continuous
 62
     7
100
AcDbCircle
 10
46.99986706980462
 20
-328.4316220000001
 30
0.0
 40
0.9999999999999021
100
AcDbArc
 50
100.0000000000066
 51
180.0
  0
ARC
  5
52E
330
50
100
AcDbEntity
  8
LC-001-002-RND-0
  6
Continuous
 62
     7
100
AcDbCircle
 10
46.99986706980462
 20
-340.761788
 30
0.0
 40
1.000000000000014
100
AcDbArc
 50
100.0000000000054
 51
180.0
  0
ARC
  5
52F
330
50
100
AcDbEntity
  8
LC-001-002-RND-0
  6
Continuous
 62
     7
100
AcDbCircle
 10
46.99986706980462
 20
-353.091954
 30
0.0
 40
1.000000000000014
100
AcDbArc
 50
100.0000000000054
 51
180.0
  0
ARC
  5
530
330
50
100
AcDbEntity
  8
LC-001-002-RND-0
  6
Continuous
 62
     7
100
AcDbCircle
 10
46.99986706980462
 20
-365.4221190000001
 30
0.0
 40
1.000000000000014
100
AcDbArc
 50
100.0000000000054
 51
180.0
  0
ARC
  5
531
330
50
100
AcDbEntity
  8
LC-001-002-RND-0
  6
Continuous
 62
     7
100
AcDbCircle
 10
46.99986706980462
 20
-377.752285
 30
0.0
 40
0.999999999999958
100
AcDbArc
 50
100.000000000006
 51
180.0
  0
ARC
  5
532
330
50
100
AcDbEntity
  8
LC-001-002-RND-0
  6
Continuous
 62
     7
100
AcDbCircle
 10
46.99986706980462
 20
-390.082451
 30
0.0
 40
1.000000000000014
100
AcDbArc
 50
100.0000000000054
 51
180.0
  0
ARC
  5
533
330
50
100
AcDbEntity
  8
LC-001-002-RND-0
  6
Continuous
 62
     7
100
AcDbCircle
 10
46.99986706980462
 20
-402.4126160000001
 30
0.0
 40
1.000000000000014
100
AcDbArc
 50
100.0000000000054
 51
180.0
  0
ARC
  5
534
330
50
100
AcDbEntity
  8
LC-001-002-RND-0
  6
Continuous
 62
     7
100
AcDbCircle
 10
-47.00013293019549
 20
-439.403113
 30
0.0
 40
1.0
100
AcDbArc
 50
0.0
 51
79.99999999999385
  0
ARC
  5
535
330
50
100
AcDbEntity
  8
LC-001-002-RND-0
  6
Continuous
 62
     7
100
AcDbCircle
 10
46.99986706980462
 20
-414.742782
 30
0.0
 40
0.999999999999958
100
AcDbArc
 50
100.000000000006
 51
180.0
  0
ARC
  5
536
330
50
100
AcDbEntity
  8
LC-001-002-RND-0
  6
Continuous
 62
     7
100
AcDbCircle
 10
46.99986706980462
 20
-427.072948
 30
0.0
 40
1.000000000000014
100
AcDbArc
 50
100.0000000000054
 51
180.0
  0
ARC
  5
537
330
50
100
AcDbEntity
  8
LC-001-002-RND-0
  6
Continuous
 62
     7
100
AcDbCircle
 10
46.49986706980462
 20
-435.733754
 30
0.0
 40
0.5
100
AcDbArc
 50
180.0
 51
-90.0
  0
ARC
  5
538
330
50
100
AcDbEntity
  8
LC-001-002-RND-0
  6
Continuous
 62
     7
100
AcDbCircle
 10
46.49986706980462
 20
-448.0639190000001
 30
0.0
 40
0.5
100
AcDbArc
 50
180.0
 51
-90.0
  0
ARC
  5
539
330
50
100
AcDbEntity
  8
LC-001-002-RND-0
  6
Continuous
 62
     7
100
AcDbCircle
 10
46.49986706980462
 20
-423.403588
 30
0.0
 40
0.5
100
AcDbArc
 50
180.0
 51
-90.0
  0
ARC
  5
53A
330
50
100
AcDbEntity
  8
LC-001-002-RND-0
  6
Continuous
 62
     7
100
AcDbCircle
 10
46.49986706980462
 20
-411.0734220000001
 30
0.0
 40
0.5
100
AcDbArc
 50
180.0
 51
-90.0
  0
ARC
  5
53B
330
50
100
AcDbEntity
  8
LC-001-002-RND-0
  6
Continuous
 62
     7
100
AcDbCircle
 10
46.49986706980462
 20
-398.743257
 30
0.0
 40
0.5
100
AcDbArc
 50
180.0
 51
-90.0
  0
ARC
  5
53C
330
50
100
AcDbEntity
  8
LC-001-002-RND-0
  6
Continuous
 62
     7
100
AcDbCircle
 10
46.49986706980462
 20
-386.413091
 30
0.0
 40
0.5
100
AcDbArc
 50
180.0
 51
-90.0
  0
ARC
  5
53D
330
50
100
AcDbEntity
  8
LC-001-002-RND-0
  6
Continuous
 62
     7
100
AcDbCircle
 10
46.49986706980462
 20
-374.0829250000001
 30
0.0
 40
0.5
100
AcDbArc
 50
180.0
 51
-90.0
  0
ARC
  5
53E
330
50
100
AcDbEntity
  8
LC-001-002-RND-0
  6
Continuous
 62
     7
100
AcDbCircle
 10
46.49986706980462
 20
-361.75276
 30
0.0
 40
0.5
100
AcDbArc
 50
180.0
 51
-90.0
  0
ARC
  5
53F
330
50
100
AcDbEntity
  8
LC-001-002-RND-0
  6
Continuous
 62
     7
100
AcDbCircle
 10
46.49986706980462
 20
-349.422594
 30
0.0
 40
0.5
100
AcDbArc
 50
180.0
 51
-90.0
  0
ARC
  5
540
330
50
100
AcDbEntity
  8
LC-001-002-RND-0
  6
Continuous
 62
     7
100
AcDbCircle
 10
46.49986706980462
 20
-337.092428
 30
0.0
 40
0.5
100
AcDbArc
 50
180.0
 51
-90.0
  0
ARC
  5
541
330
50
100
AcDbEntity
  8
LC-001-002-RND-0
  6
Continuous
 62
     7
100
AcDbCircle
 10
46.49986706980462
 20
-324.762263
 30
0.0
 40
0.5
100
AcDbArc
 50
180.0
 51
-90.0
  0
ARC
  5
542
330
50
100
AcDbEntity
  8
LC-001-002-RND-0
  6
Continuous
 62
     7
100
AcDbCircle
 10
46.49986706980462
 20
-312.432097
 30
0.0
 40
0.5
100
AcDbArc
 50
180.0
 51
-90.0
  0
ARC
  5
543
330
50
100
AcDbEntity
  8
LC-001-002-RND-0
  6
Continuous
 62
     7
100
AcDbCircle
 10
46.49986706980462
 20
-300.1019310000002
 30
0.0
 40
0.5
100
AcDbArc
 50
180.0
 51
-90.0
  0
ARC
  5
544
330
50
100
AcDbEntity
  8
LC-001-002-RND-0
  6
Continuous
 62
     7
100
AcDbCircle
 10
46.49986706980462
 20
-287.7717660000001
 30
0.0
 40
0.5
100
AcDbArc
 50
180.0
 51
-90.0
  0
ARC
  5
545
330
50
100
AcDbEntity
  8
LC-001-002-RND-0
  6
Continuous
 62
     7
100
AcDbCircle
 10
46.99986706980462
 20
-439.403113
 30
0.0
 40
0.9999999999999021
100
AcDbArc
 50
100.0000000000066
 51
180.0
  0
ARC
  5
546
330
50
100
AcDbEntity
  8
LC-001-002-RND-0
  6
Continuous
 62
     7
100
AcDbCircle
 10
-47.00013293019549
 20
-451.733279
 30
0.0
 40
1.0
100
AcDbArc
 50
0.0
 51
79.99999999999498
  0
ARC
  5
547
330
50
100
AcDbEntity
  8
LC-001-002-RND-0
  6
Continuous
 62
     7
100
AcDbCircle
 10
46.99986706980462
 20
-451.733279
 30
0.0
 40
1.000000000000014
100
AcDbArc
 50
100.0000000000054
 51
180.0
  0
ARC
  5
548
330
50
100
AcDbEntity
  8
LC-001-002-RND-0
  6
Continuous
 62
     7
100
AcDbCircle
 10
59.99987106980461
 20
-98.622639
 30
0.0
 40
3.0
100
AcDbArc
 50
-90.0
 51
0.0
  0
ARC
  5
549
330
50
100
AcDbEntity
  8
LC-001-002-RND-0
  6
Continuous
 62
     7
100
AcDbCircle
 10
-60.00013893019548
 20
-98.622639
 30
0.0
 40
3.0
100
AcDbArc
 50
180.0
 51
-90.0
  0
ARC
  5
54A
330
50
100
AcDbEntity
  8
1
  6
Continuous
 62
     7
100
AcDbCircle
 10
175.0000705031584
 20
-5.08561715007755
 30
0.0
 40
1.999999999999964
100
AcDbArc
 50
0.00007651034101
 51
90.0000789658598
  0
ARC
  5
54B
330
50
100
AcDbEntity
  8
1
  6
Continuous
 62
     7
100
AcDbCircle
 10
-175.0007338693933
 20
-5.08608139365077
 30
0.0
 40
2.0
100
AcDbArc
 50
90.0
 51
-179.9999234896623
  0
ENDBLK
  5
52
330
50
100
AcDbEntity
  8
0
100
AcDbBlockEnd
  0
BLOCK
  5
54
330
53
100
AcDbEntity
  8
0
100
AcDbBlockBegin
  2
PVC_Manschette
 70
     0
 71
     0
 10
-177.0007347365104
 20
-26.0
 30
0.0
  3
PVC_Manschette
  1

  0
LINE
  5
54C
330
53
100
AcDbEntity
  8
1
  6
Continuous
 62
     7
100
AcDbLine
 10
-0.00033173651036
 20
2.0
 30
0.0
 11
-175.0007347365104
 21
2.0
 31
0.0
  0
LINE
  5
54D
330
53
100
AcDbEntity
  8
1
  6
Continuous
 62
     7
100
AcDbLine
 10
-177.0007347365104
 20
-0.5
 30
0.0
 11
-177.0007347365104
 21
0.0
 31
0.0
  0
LINE
  5
54E
330
53
100
AcDbEntity
  8
1
  6
Continuous
 62
     7
100
AcDbLine
 10
-177.0007347365104
 20
-0.5
 30
0.0
 11
-130.0007347365104
 21
-0.5
 31
0.0
  0
LINE
  5
54F
330
53
100
AcDbEntity
  8
1
  6
Continuous
 62
     7
100
AcDbLine
 10
-130.0007347365104
 20
-0.5
 30
0.0
 11
-126.5754227365104
 21
-2.0
 31
0.0
  0
LINE
  5
550
330
53
100
AcDbEntity
  8
1
  6
Continuous
 62
     7
100
AcDbLine
 10
-126.5754227365104
 20
-2.0
 30
0.0
 11
-0.00033173651036
 21
-2.0
 31
0.0
  0
LINE
  5
551
330
53
100
AcDbEntity
  8
1
  6
Continuous
 62
     7
100
AcDbLine
 10
-130.0007347365104
 20
-0.5
 30
0.0
 11
-0.00033173651036
 21
-0.5
 31
0.0
  0
LINE
  5
552
330
53
100
AcDbEntity
  8
1
  6
Continuous
 62
     7
100
AcDbLine
 10
-0.00033173651036
 20
-0.5
 30
0.0
 11
130.0000712634896
 21
-0.5
 31
0.0
  0
LINE
  5
553
330
53
100
AcDbEntity
  8
1
  6
Continuous
 62
     7
100
AcDbLine
 10
-0.00033173651036
 20
-2.0
 30
0.0
 11
126.5747592634897
 21
-2.0
 31
0.0
  0
LINE
  5
554
330
53
100
AcDbEntity
  8
1
  6
Continuous
 62
     7
100
AcDbLine
 10
126.5747592634897
 20
-2.0
 30
0.0
 11
130.0000712634896
 21
-0.5
 31
0.0
  0
LINE
  5
555
330
53
100
AcDbEntity
  8
1
  6
Continuous
 62
     7
100
AcDbLine
 10
130.0000712634896
 20
-0.5
 30
0.0
 11
177.0000712634896
 21
-0.5
 31
0.0
  0
LINE
  5
556
330
53
100
AcDbEntity
  8
1
  6
Continuous
 62
     7
100
AcDbLine
 10
177.0000712634896
 20
0.0
 30
0.0
 11
177.0000712634896
 21
-0.5
 31
0.0
  0
LINE
  5
557
330
53
100
AcDbEntity
  8
1
  6
Continuous
 62
     7
100
AcDbLine
 10
175.0000712634896
 20
2.0
 30
0.0
 11
-0.00033173651036
 21
2.0
 31
0.0
  0
ARC
  5
558
330
53
100
AcDbEntity
  8
1
  6
Continuous
 62
     7
100
AcDbCircle
 10
-175.0007347365104
 20
0.0
 30
0.0
 40
2.0
100
AcDbArc
 50
90.0
 51
180.0
  0
ARC
  5
559
330
53
100
AcDbEntity
  8
1
  6
Continuous
 62
     7
100
AcDbCircle
 10
175.0000712634896
 20
0.0
 30
0.0
 40
2.0
100
AcDbArc
 50
0.0
 51
90.0
  0
ENDBLK
  5
55
330
53
100
AcDbEntity
  8
0
100
AcDbBlockEnd
  0
BLOCK
  5
57
330
56
100
AcDbEntity
  8
0
100
AcDbBlockBegin
  2
062_1E_Laubfangkorb
 70
     0
 71
     0
 10
-867.5839218886072
 20
654.5262580000001
 30
0.0
  3
062_1E_Laubfangkorb
  1

  0
LINE
  5
55A
330
56
100
AcDbEntity
  8
LC-002-002-----0
  6
Continuous
 62
     7
100
AcDbLine
 10
52.20112626348964
 20
39.30014300000022
 30
0.0
 11
43.59427926348963
 21
60.20012500000013
 31
0.0
  0
LINE
  5
55B
330
56
100
AcDbEntity
  8
LC-002-002-----0
  6
Continuous
 62
     7
100
AcDbLine
 10
51.60584226348965
 20
39.30014100000022
 30
0.0
 11
42.99899526348963
 21
60.20012400000024
 31
0.0
  0
LINE
  5
55C
330
56
100
AcDbEntity
  8
LC-002-002-----0
  6
Continuous
 62
     7
100
AcDbLine
 10
51.60584226348965
 20
39.30014100000022
 30
0.0
 11
42.99899526348963
 21
60.20012400000024
 31
0.0
  0
LINE
  5
55D
330
56
100
AcDbEntity
  8
LC-002-002-----0
  6
Continuous
 62
     7
100
AcDbLine
 10
47.11027126348972
 20
39.30012900000003
 30
0.0
 11
39.39357626348965
 21
60.20011900000014
 31
0.0
  0
LINE
  5
55E
330
56
100
AcDbEntity
  8
LC-002-002-----0
  6
Continuous
 62
     7
100
AcDbLine
 10
45.96027126348963
 20
39.30012599999992
 30
0.0
 11
38.24357626348956
 21
60.20011700000015
 31
0.0
  0
LINE
  5
55F
330
56
100
AcDbEntity
  8
LC-002-002-----0
  6
Continuous
 62
     7
100
AcDbLine
 10
38.80884926348972
 20
39.30010599999997
 30
0.0
 11
32.50818226348974
 21
60.20010900000017
 31
0.0
  0
LINE
  5
560
330
56
100
AcDbEntity
  8
LC-002-002-----0
  6
Continuous
 62
     7
100
AcDbLine
 10
37.16182426348951
 20
39.30010199999998
 30
0.0
 11
30.85015826348968
 21
60.20010699999995
 31
0.0
  0
LINE
  5
561
330
56
100
AcDbEntity
  8
LC-002-002-----0
  6
Continuous
 62
     7
100
AcDbLine
 10
27.86258826348967
 20
39.30007600000005
 30
0.0
 11
23.40732526348961
 21
60.20009699999997
 31
0.0
  0
LINE
  5
562
330
56
100
AcDbEntity
  8
LC-002-002-----0
  6
Continuous
 62
     7
100
AcDbLine
 10
25.87073026348958
 20
39.30007099999995
 30
0.0
 11
21.41546626348963
 21
60.20009400000009
 31
0.0
  0
LINE
  5
563
330
56
100
AcDbEntity
  8
LC-002-002-----0
  6
Continuous
 62
     7
100
AcDbLine
 10
15.01745626348964
 20
39.30004100000002
 30
0.0
 11
12.71121326348964
 21
60.20008200000012
 31
0.0
  0
LINE
  5
564
330
56
100
AcDbEntity
  8
LC-002-002-----0
  6
Continuous
 62
     7
100
AcDbLine
 10
12.79582726348963
 20
39.30003500000004
 30
0.0
 11
10.48958426348963
 21
60.20007900000002
 31
0.0
  0
LINE
  5
565
330
56
100
AcDbEntity
  8
LC-002-002-----0
  6
Continuous
 62
     7
100
AcDbLine
 10
-12.79754273651042
 20
39.30000000000001
 30
0.0
 11
-10.4913577365104
 21
60.20004999999998
 31
0.0
  0
LINE
  5
566
330
56
100
AcDbEntity
  8
LC-002-002-----0
  6
Continuous
 62
     7
100
AcDbLine
 10
-15.01917173651032
 20
39.30000000000001
 30
0.0
 11
-12.7129867365104
 21
60.2000470000001
 31
0.0
  0
LINE
  5
567
330
56
100
AcDbEntity
  8
LC-002-002-----0
  6
Continuous
 62
     7
100
AcDbLine
 10
-25.87244573651037
 20
39.30000000000001
 30
0.0
 11
-21.4172397365104
 21
60.20003500000013
 31
0.0
  0
LINE
  5
568
330
56
100
AcDbEntity
  8
LC-002-002-----0
  6
Continuous
 62
     7
100
AcDbLine
 10
-27.86430373651047
 20
39.30000000000001
 30
0.0
 11
-23.40909773651038
 21
60.20003300000013
 31
0.0
  0
LINE
  5
569
330
56
100
AcDbEntity
  8
LC-002-002-----0
  6
Continuous
 62
     7
100
AcDbLine
 10
-37.1635397365103
 20
39.30000000000001
 30
0.0
 11
-30.85193173651032
 21
60.20002300000016
 31
0.0
  0
LINE
  5
56A
330
56
100
AcDbEntity
  8
LC-002-002-----0
  6
Continuous
 62
     7
100
AcDbLine
 10
-38.8105647365104
 20
39.30000000000001
 30
0.0
 11
-32.50995473651039
 21
60.20002000000005
 31
0.0
  0
LINE
  5
56B
330
56
100
AcDbEntity
  8
LC-002-002-----0
  6
Continuous
 62
     7
100
AcDbLine
 10
-45.96198673651043
 20
39.30000000000001
 30
0.0
 11
-38.24534873651032
 21
60.20001200000007
 31
0.0
  0
LINE
  5
56C
330
56
100
AcDbEntity
  8
LC-002-002-----0
  6
Continuous
 62
     7
100
AcDbLine
 10
-47.1119867365104
 20
39.30000000000001
 30
0.0
 11
-39.39534873651041
 21
60.20001100000019
 31
0.0
  0
LINE
  5
56D
330
56
100
AcDbEntity
  8
LC-002-002-----0
  6
Continuous
 62
     7
100
AcDbLine
 10
-52.20284173651044
 20
39.30000000000001
 30
0.0
 11
-43.59605273651039
 21
60.20000499999998
 31
0.0
  0
LINE
  5
56E
330
56
100
AcDbEntity
  8
LC-002-002-----0
  6
Continuous
 62
     7
100
AcDbLine
 10
-51.60755773651044
 20
39.30000000000001
 30
0.0
 11
-43.0007687365104
 21
60.20000600000009
 31
0.0
  0
LINE
  5
56F
330
56
100
AcDbEntity
  8
LC-002-002-----0
  6
Continuous
 62
     7
100
AcDbLine
 10
-57.89345573651031
 20
34.6376820000001
 30
0.0
 11
57.89175226348971
 21
34.6376820000001
 31
0.0
  0
LINE
  5
570
330
56
100
AcDbEntity
  8
LC-002-002-----0
  6
Continuous
 62
     7
100
AcDbLine
 10
-56.19651073651039
 20
39.30000000000001
 30
0.0
 11
56.1947952634896
 21
39.30000000000001
 31
0.0
  0
LINE
  5
571
330
56
100
AcDbEntity
  8
LC-002-002-----0
  6
Continuous
 62
     7
100
AcDbLine
 10
-48.58953373651036
 20
60.19999800000011
 30
0.0
 11
48.5877602634896
 21
60.20013200000022
 31
0.0
  0
LINE
  5
572
330
56
100
AcDbEntity
  8
LC-002-002-----0
  6
Continuous
 62
     7
100
AcDbLine
 10
-57.89345573651031
 20
34.6376820000001
 30
0.0
 11
-56.19651073651039
 21
34.9368990000001
 31
0.0
  0
LINE
  5
573
330
56
100
AcDbEntity
  8
LC-002-002-----0
  6
Continuous
 62
     7
100
AcDbLine
 10
-56.19651073651039
 20
39.30000000000001
 30
0.0
 11
-56.19651073651039
 21
34.9368990000001
 31
0.0
  0
LINE
  5
574
330
56
100
AcDbEntity
  8
LC-002-002-----0
  6
Continuous
 62
     7
100
AcDbLine
 10
-1.15054373651037
 20
60.20006300000006
 30
0.0
 11
-1.15054373651037
 21
39.30000000000001
 31
0.0
  0
LINE
  5
575
330
56
100
AcDbEntity
  8
LC-002-002-----0
  6
Continuous
 62
     7
100
AcDbLine
 10
1.14945626348958
 20
60.20006600000016
 30
0.0
 11
1.14945626348958
 21
39.30000000000001
 31
0.0
  0
LINE
  5
576
330
56
100
AcDbEntity
  8
LC-002-002-----0
  6
Continuous
 62
     7
100
AcDbLine
 10
57.99123726348967
 20
34.62029900000022
 30
0.0
 11
56.19480726348957
 21
34.93705299999994
 31
0.0
  0
LINE
  5
577
330
56
100
AcDbEntity
  8
LC-002-002-----0
  6
Continuous
 62
     7
100
AcDbLine
 10
56.1947952634896
 20
39.30015400000008
 30
0.0
 11
56.19480726348957
 21
34.93705299999994
 31
0.0
  0
LINE
  5
578
330
56
100
AcDbEntity
  8
LC-002-002-----0
  6
Continuous
 62
     7
100
AcDbLine
 10
-44.84063973651041
 20
70.50000000000006
 30
0.0
 11
-42.48777473651035
 21
70.91487300000023
 31
0.0
  0
LINE
  5
579
330
56
100
AcDbEntity
  8
LC-002-002-----0
  6
Continuous
 62
     7
100
AcDbLine
 10
-42.48777473651035
 20
70.91487300000023
 30
0.0
 11
-41.00090673651039
 21
75.00000900000015
 31
0.0
  0
LINE
  5
57A
330
56
100
AcDbEntity
  8
LC-002-002-----0
  6
Continuous
 62
     7
100
AcDbLine
 10
44.83883826348961
 20
70.50012299999997
 30
0.0
 11
42.48597226348966
 21
70.91499000000005
 31
0.0
  0
LINE
  5
57B
330
56
100
AcDbEntity
  8
LC-002-002-----0
  6
Continuous
 62
     7
100
AcDbLine
 10
42.48597226348966
 20
70.91499000000005
 30
0.0
 11
40.99909326348961
 21
75.00012099999998
 31
0.0
  0
LINE
  5
57C
330
56
100
AcDbEntity
  8
LC-002-002-----0
  6
Continuous
 62
     7
100
AcDbLine
 10
-48.44951273651031
 20
74.99999800000006
 30
0.0
 11
48.44769826348966
 21
75.00013100000001
 31
0.0
  0
LINE
  5
57D
330
56
100
AcDbEntity
  8
LC-002-002-----0
  6
Continuous
 62
     7
100
AcDbLine
 10
3.30444726348969
 20
60.20006900000004
 30
0.0
 11
3.30440626348968
 21
75.00006900000022
 31
0.0
  0
LINE
  5
57E
330
56
100
AcDbEntity
  8
LC-002-002-----0
  6
Continuous
 62
     7
100
AcDbLine
 10
-3.30622073651034
 20
60.20005999999995
 30
0.0
 11
-3.30622073651034
 21
75.00006000000013
 31
0.0
  0
LINE
  5
57F
330
56
100
AcDbEntity
  8
LC-002-002-----0
  6
Continuous
 62
     7
100
AcDbLine
 10
69.77105681396824
 20
2.0
 30
0.0
 11
43.20095726348973
 21
75.00012399999997
 31
0.0
  0
LINE
  5
580
330
56
100
AcDbEntity
  8
LC-002-002-----0
  6
Continuous
 62
     7
100
AcDbLine
 10
85.52090304197259
 20
2.0
 30
0.0
 11
62.54309426348959
 21
65.13047200000011
 31
0.0
  0
LINE
  5
581
330
56
100
AcDbEntity
  8
LC-002-002-----0
  6
Continuous
 62
     7
100
AcDbLine
 10
-85.52243176760089
 20
2.0
 30
0.0
 11
-62.54488073651032
 21
65.13030099999997
 31
0.0
  0
LINE
  5
582
330
56
100
AcDbEntity
  8
LC-002-002-----0
  6
Continuous
 62
     7
100
AcDbLine
 10
-69.77260026141232
 20
2.0
 30
0.0
 11
-43.20277073651039
 21
75.00000600000004
 31
0.0
  0
LINE
  5
583
330
56
100
AcDbEntity
  8
LC-002-002-----0
  6
Continuous
 62
     7
100
AcDbLine
 10
-65.65013173651039
 20
5.20019100000007
 30
0.0
 11
-59.70220773651045
 21
5.20020399999999
 31
0.0
  0
LINE
  5
584
330
56
100
AcDbEntity
  8
LC-002-002-----0
  6
Continuous
 62
     7
100
AcDbLine
 10
-58.55220673651036
 20
5.20020599999998
 30
0.0
 11
-49.09042873651038
 21
5.20022699999998
 31
0.0
  0
LINE
  5
585
330
56
100
AcDbEntity
  8
LC-002-002-----0
  6
Continuous
 62
     7
100
AcDbLine
 10
-33.14139773651039
 20
5.20026100000001
 30
0.0
 11
-18.78185473651047
 21
5.20029199999999
 31
0.0
  0
LINE
  5
586
330
56
100
AcDbEntity
  8
LC-002-002-----0
  6
Continuous
 62
     7
100
AcDbLine
 10
-16.56022473651046
 20
5.20029700000009
 30
0.0
 11
-1.15054373651037
 21
5.20033100000001
 31
0.0
  0
LINE
  5
587
330
56
100
AcDbEntity
  8
LC-002-002-----0
  6
Continuous
 62
     7
100
AcDbLine
 10
-18.78185473651047
 20
5.20029199999999
 30
0.0
 11
-33.14139773651039
 21
5.20026100000001
 31
0.0
  0
LINE
  5
588
330
56
100
AcDbEntity
  8
LC-002-002-----0
  6
Continuous
 62
     7
100
AcDbLine
 10
-47.46134573651034
 20
5.20022999999992
 30
0.0
 11
-35.13325673651036
 21
5.20025700000002
 31
0.0
  0
LINE
  5
589
330
56
100
AcDbEntity
  8
LC-002-002-----0
  6
Continuous
 62
     7
100
AcDbLine
 10
-1.15054373651037
 20
5.20033100000001
 30
0.0
 11
-16.56022473651046
 21
5.20029700000009
 31
0.0
  0
LINE
  5
58A
330
56
100
AcDbEntity
  8
LC-002-002-----0
  6
Continuous
 62
     7
100
AcDbLine
 10
-59.70220773651045
 20
5.20020399999999
 30
0.0
 11
-65.65013173651039
 21
5.20019100000007
 31
0.0
  0
LINE
  5
58B
330
56
100
AcDbEntity
  8
LC-002-002-----0
  6
Continuous
 62
     7
100
AcDbLine
 10
58.55055026348964
 20
5.20046000000002
 30
0.0
 11
49.08878326348963
 21
5.20043900000002
 31
0.0
  0
LINE
  5
58C
330
56
100
AcDbEntity
  8
LC-002-002-----0
  6
Continuous
 62
     7
100
AcDbLine
 10
47.45970126348948
 20
5.20043600000008
 30
0.0
 11
35.1316232634897
 21
5.20040899999998
 31
0.0
  0
LINE
  5
58D
330
56
100
AcDbEntity
  8
LC-002-002-----0
  6
Continuous
 62
     7
100
AcDbLine
 10
33.13976426348972
 20
5.2004050000001
 30
0.0
 11
18.78022926348967
 21
5.20037400000001
 31
0.0
  0
LINE
  5
58E
330
56
100
AcDbEntity
  8
LC-002-002-----0
  6
Continuous
 62
     7
100
AcDbLine
 10
16.55859926348967
 20
5.20036899999991
 30
0.0
 11
1.14945626348958
 21
5.20033600000011
 31
0.0
  0
LINE
  5
58F
330
56
100
AcDbEntity
  8
LC-002-002-----0
  6
Continuous
 62
     7
100
AcDbLine
 10
56.84559226348961
 20
9.81818900000007
 30
0.0
 11
47.69668226348949
 21
9.81818900000007
 31
0.0
  0
LINE
  5
590
330
56
100
AcDbEntity
  8
LC-002-002-----0
  6
Continuous
 62
     7
100
AcDbLine
 10
46.06516926348968
 20
9.81818900000007
 30
0.0
 11
34.1472502634897
 21
9.81818900000007
 31
0.0
  0
LINE
  5
591
330
56
100
AcDbEntity
  8
LC-002-002-----0
  6
Continuous
 62
     7
100
AcDbLine
 10
32.15539026348961
 20
9.81818900000007
 30
0.0
 11
18.27067026348959
 21
9.81818900000007
 31
0.0
  0
LINE
  5
592
330
56
100
AcDbEntity
  8
LC-002-002-----0
  6
Continuous
 62
     7
100
AcDbLine
 10
16.04904026348959
 20
9.81818900000007
 30
0.0
 11
1.14945626348958
 21
9.81818900000007
 31
0.0
  0
LINE
  5
593
330
56
100
AcDbEntity
  8
LC-002-002-----0
  6
Continuous
 62
     7
100
AcDbLine
 10
-1.15054373651037
 20
9.81818900000007
 30
0.0
 11
-16.05066973651037
 21
9.81818900000007
 31
0.0
  0
LINE
  5
594
330
56
100
AcDbEntity
  8
LC-002-002-----0
  6
Continuous
 62
     7
100
AcDbLine
 10
-18.27229973651038
 20
9.81818900000007
 30
0.0
 11
-32.15700673651031
 21
9.81818900000007
 31
0.0
  0
LINE
  5
595
330
56
100
AcDbEntity
  8
LC-002-002-----0
  6
Continuous
 62
     7
100
AcDbLine
 10
-34.1488647365104
 20
9.81818900000007
 30
0.0
 11
-46.06676673651032
 21
9.81818900000007
 31
0.0
  0
LINE
  5
596
330
56
100
AcDbEntity
  8
LC-002-002-----0
  6
Continuous
 62
     7
100
AcDbLine
 10
-47.69827773651036
 20
9.81818900000007
 30
0.0
 11
-56.84716973651041
 21
9.81818900000007
 31
0.0
  0
LINE
  5
597
330
56
100
AcDbEntity
  8
LC-002-002-----0
  6
Continuous
 62
     7
100
AcDbLine
 10
-49.09042873651038
 20
5.20022699999998
 30
0.0
 11
-58.55220673651036
 21
5.20020599999998
 31
0.0
  0
LINE
  5
598
330
56
100
AcDbEntity
  8
LC-002-002-----0
  6
Continuous
 62
     7
100
AcDbLine
 10
-68.60782873651033
 20
5.20018499999992
 30
0.0
 11
-66.24541573651038
 21
5.20019000000002
 31
0.0
  0
LINE
  5
599
330
56
100
AcDbEntity
  8
LC-002-002-----0
  6
Continuous
 62
     7
100
AcDbLine
 10
67.56174189117883
 20
2.0
 30
0.0
 11
54.12111826348973
 21
34.63782999999995
 31
0.0
  0
LINE
  5
59A
330
56
100
AcDbEntity
  8
LC-002-002-----0
  6
Continuous
 62
     7
100
AcDbLine
 10
66.96645842163252
 20
2.0
 30
0.0
 11
53.52583426348974
 21
34.63782900000007
 31
0.0
  0
LINE
  5
59B
330
56
100
AcDbEntity
  8
LC-002-002-----0
  6
Continuous
 62
     7
100
AcDbLine
 10
60.8822256053968
 20
2.0
 30
0.0
 11
48.83169026348969
 21
34.63781600000021
 31
0.0
  0
LINE
  5
59C
330
56
100
AcDbEntity
  8
LC-002-002-----0
  6
Continuous
 62
     7
100
AcDbLine
 10
59.73222449773687
 20
2.0
 30
0.0
 11
47.6816902634896
 21
34.63781300000011
 31
0.0
  0
LINE
  5
59D
330
56
100
AcDbEntity
  8
LC-002-002-----0
  6
Continuous
 62
     7
100
AcDbLine
 10
50.05361060949088
 20
2.0
 30
0.0
 11
40.21438426348959
 21
34.63779200000005
 31
0.0
  0
LINE
  5
59E
330
56
100
AcDbEntity
  8
LC-002-002-----0
  6
Continuous
 62
     7
100
AcDbLine
 10
48.42621175159161
 20
2.0
 30
0.0
 11
38.56981226348967
 21
34.63778800000006
 31
0.0
  0
LINE
  5
59F
330
56
100
AcDbEntity
  8
LC-002-002-----0
  6
Continuous
 62
     7
100
AcDbLine
 10
33.82199574767878
 20
2.0
 30
0.0
 11
26.8645962634896
 21
34.63775600000014
 31
0.0
  0
LINE
  5
5A0
330
56
100
AcDbEntity
  8
LC-002-002-----0
  6
Continuous
 62
     7
100
AcDbLine
 10
35.81385487126818
 20
2.0
 30
0.0
 11
28.85645526348958
 21
34.63776100000024
 31
0.0
  0
LINE
  5
5A1
330
56
100
AcDbEntity
  8
LC-002-002-----0
  6
Continuous
 62
     7
100
AcDbLine
 10
19.1333784509759
 20
2.0
 30
0.0
 11
15.5319252634896
 21
34.6377250000001
 31
0.0
  0
LINE
  5
5A2
330
56
100
AcDbEntity
  8
LC-002-002-----0
  6
Continuous
 62
     7
100
AcDbLine
 10
16.91174784663713
 20
2.0
 30
0.0
 11
13.31029626348959
 21
34.63771900000012
 31
0.0
  0
LINE
  5
5A3
330
56
100
AcDbEntity
  8
LC-002-002-----0
  6
Continuous
 62
     7
100
AcDbLine
 10
-67.56327976821319
 20
2.0
 30
0.0
 11
-54.12282173651033
 21
34.6376820000001
 31
0.0
  0
LINE
  5
5A4
330
56
100
AcDbEntity
  8
LC-002-002-----0
  6
Continuous
 62
     7
100
AcDbLine
 10
-66.9679957682132
 20
2.0
 30
0.0
 11
-53.52753773651034
 21
34.6376820000001
 31
0.0
  0
LINE
  5
5A5
330
56
100
AcDbEntity
  8
LC-002-002-----0
  6
Continuous
 62
     7
100
AcDbLine
 10
-50.05518311097478
 20
2.0
 30
0.0
 11
-40.21608673651031
 21
34.6376820000001
 31
0.0
  0
LINE
  5
5A6
330
56
100
AcDbEntity
  8
LC-002-002-----0
  6
Continuous
 62
     7
100
AcDbLine
 10
-48.42778478882451
 20
2.0
 30
0.0
 11
-38.57151573651038
 21
34.6376820000001
 31
0.0
  0
LINE
  5
5A7
330
56
100
AcDbEntity
  8
LC-002-002-----0
  6
Continuous
 62
     7
100
AcDbLine
 10
-60.88377691175276
 20
2.0
 30
0.0
 11
-48.83339273651041
 21
34.6376820000001
 31
0.0
  0
LINE
  5
5A8
330
56
100
AcDbEntity
  8
LC-002-002-----0
  6
Continuous
 62
     7
100
AcDbLine
 10
-16.91335668245176
 20
2.0
 30
0.0
 11
-13.31199973651042
 21
34.6376820000001
 31
0.0
  0
LINE
  5
5A9
330
56
100
AcDbEntity
  8
LC-002-002-----0
  6
Continuous
 62
     7
100
AcDbLine
 10
-19.13498568245166
 20
2.0
 30
0.0
 11
-15.53362873651031
 21
34.6376820000001
 31
0.0
  0
LINE
  5
5AA
330
56
100
AcDbEntity
  8
LC-002-002-----0
  6
Continuous
 62
     7
100
AcDbLine
 10
-35.81544791422061
 20
2.0
 30
0.0
 11
-28.85815773651041
 21
34.6376820000001
 31
0.0
  0
LINE
  5
5AB
330
56
100
AcDbEntity
  8
LC-002-002-----0
  6
Continuous
 62
     7
100
AcDbLine
 10
-33.82358897196116
 20
2.0
 30
0.0
 11
-26.86629973651043
 21
34.6376820000001
 31
0.0
  0
LINE
  5
5AC
330
56
100
AcDbEntity
  8
LC-002-002-----0
  6
Continuous
 62
     7
100
AcDbLine
 10
-59.73377696949319
 20
2.0
 30
0.0
 11
-47.68339373651043
 21
34.6376820000001
 31
0.0
  0
LINE
  5
5AD
330
56
100
AcDbEntity
  8
LC-002-002-----0
  6
Continuous
 62
     7
100
AcDbLine
 10
1.14945626348958
 20
34.6376820000001
 30
0.0
 11
1.14945626348958
 21
2.0
 31
0.0
  0
LINE
  5
5AE
330
56
100
AcDbEntity
  8
LC-002-002-----0
  6
Continuous
 62
     7
100
AcDbLine
 10
-1.15054373651037
 20
34.6376820000001
 30
0.0
 11
-1.15054373651037
 21
2.0
 31
0.0
  0
LINE
  5
5AF
330
56
100
AcDbEntity
  8
LC-002-002-----0
  6
Continuous
 62
     7
100
AcDbLine
 10
-35.13325673651036
 20
5.20025700000002
 30
0.0
 11
-47.46134573651034
 21
5.20022999999992
 31
0.0
  0
LINE
  5
5B0
330
56
100
AcDbEntity
  8
LC-007-006-MLN-0
  6
CENTER
 62
     2
100
AcDbLine
 10
-0.00033173651036
 20
82.13547699999998
 30
0.0
 11
-0.00033173651036
 21
-33.53364099999999
 31
0.0
  0
ARC
  5
5B1
330
56
100
AcDbEntity
  8
LC-003-002-RND-0
  6
Continuous
 62
     7
100
AcDbCircle
 10
-48.44949173651037
 20
59.99999800000006
 30
0.0
 40
15.00000000000016
100
AcDbArc
 50
90.00007900000145
 51
160.0000000000008
  0
ARC
  5
5B2
330
56
100
AcDbEntity
  8
LC-003-002-RND-0
  6
Continuous
 62
     7
100
AcDbCircle
 10
48.44771926348949
 20
60.00013100000007
 30
0.0
 40
14.99999999999966
100
AcDbArc
 50
20.00015699999888
 51
90.00007900000101
  0
ENDBLK
  5
58
330
56
100
AcDbEntity
  8
0
100
AcDbBlockEnd
  0
BLOCK
  5
5A
330
59
100
AcDbEntity
  8
0
100
AcDbBlockBegin
  2
Bauschutz_062_9E
 70
     0
 71
     0
 10
-646.5968313215162
 20
-327.5875917137564
 30
0.0
  3
Bauschutz_062_9E
  1

  0
LINE
  5
5B3
330
59
100
AcDbEntity
  8
1
  6
PHANTOM
 62
     2
100
AcDbLine
 10
-0.00003532151823
 20
124.1130738729735
 30
0.0
 11
-0.00003532151823
 21
147.40667136087
 31
0.0
  0
LINE
  5
5B4
330
59
100
AcDbEntity
  8
1
  6
Continuous
 62
     7
100
AcDbLine
 10
66.24996467848177
 20
145.4704082862445
 30
0.0
 11
-0.00003532151823
 21
145.4704082862445
 31
0.0
  0
LINE
  5
5B5
330
59
100
AcDbEntity
  8
1
  6
Continuous
 62
     7
100
AcDbLine
 10
-66.25003532151823
 20
145.4704082862445
 30
0.0
 11
-0.00003532151823
 21
145.4704082862445
 31
0.0
  0
LINE
  5
5B6
330
59
100
AcDbEntity
  8
LC-006-002-----0
  6
Continuous
 62
     7
100
AcDbLine
 10
-68.00003532151823
 20
143.4704082862445
 30
0.0
 11
-66.25003532151823
 21
145.4704082862445
 31
0.0
  0
LINE
  5
5B7
330
59
100
AcDbEntity
  8
LC-006-002-----0
  6
Continuous
 62
     7
100
AcDbLine
 10
67.99996467848177
 20
143.4704082862445
 30
0.0
 11
66.24996467848177
 21
145.4704082862445
 31
0.0
  0
LINE
  5
5B8
330
59
100
AcDbEntity
  8
LC-006-002-----0
  6
Continuous
 62
     7
100
AcDbLine
 10
-78.75003532151823
 20
126.9704082862445
 30
0.0
 11
-78.75003532151823
 21
141.4704082862445
 31
0.0
  0
LINE
  5
5B9
330
59
100
AcDbEntity
  8
LC-006-002-----0
  6
Continuous
 62
     7
100
AcDbLine
 10
-78.75003532151823
 20
126.9704082862445
 30
0.0
 11
-0.00003532151823
 21
126.9704082862445
 31
0.0
  0
LINE
  5
5BA
330
59
100
AcDbEntity
  8
LC-006-002-----0
  6
Continuous
 62
     7
100
AcDbLine
 10
-111.5000353215182
 20
141.4704082862445
 30
0.0
 11
-78.75003532151823
 21
141.4704082862445
 31
0.0
  0
LINE
  5
5BB
330
59
100
AcDbEntity
  8
LC-006-002-----0
  6
Continuous
 62
     7
100
AcDbLine
 10
-111.5000353215182
 20
143.4704082862445
 30
0.0
 11
-68.00003532151823
 21
143.4704082862445
 31
0.0
  0
LINE
  5
5BC
330
59
100
AcDbEntity
  8
LC-006-002-----0
  6
Continuous
 62
     7
100
AcDbLine
 10
-111.5000353215182
 20
143.4704082862445
 30
0.0
 11
-111.5000353215182
 21
141.4704082862445
 31
0.0
  0
LINE
  5
5BD
330
59
100
AcDbEntity
  8
LC-006-002-----0
  6
Continuous
 62
     7
100
AcDbLine
 10
78.74996467848177
 20
126.9704082862445
 30
0.0
 11
78.74996467848177
 21
141.4704082862445
 31
0.0
  0
LINE
  5
5BE
330
59
100
AcDbEntity
  8
LC-006-002-----0
  6
Continuous
 62
     7
100
AcDbLine
 10
78.74996467848177
 20
126.9704082862445
 30
0.0
 11
-0.00003532151823
 21
126.9704082862445
 31
0.0
  0
LINE
  5
5BF
330
59
100
AcDbEntity
  8
LC-006-002-----0
  6
Continuous
 62
     7
100
AcDbLine
 10
111.4999646784818
 20
141.4704082862445
 30
0.0
 11
78.74996467848177
 21
141.4704082862445
 31
0.0
  0
LINE
  5
5C0
330
59
100
AcDbEntity
  8
LC-006-002-----0
  6
Continuous
 62
     7
100
AcDbLine
 10
111.4999646784818
 20
143.4704082862445
 30
0.0
 11
67.99996467848177
 21
143.4704082862445
 31
0.0
  0
LINE
  5
5C1
330
59
100
AcDbEntity
  8
LC-006-002-----0
  6
Continuous
 62
     7
100
AcDbLine
 10
111.4999646784818
 20
143.4704082862445
 30
0.0
 11
111.4999646784818
 21
141.4704082862445
 31
0.0
  0
LINE
  5
5C2
330
59
100
AcDbEntity
  8
1
  6
Continuous
 62
     7
100
AcDbLine
 10
-78.75003532151823
 20
141.4704082862445
 30
0.0
 11
78.74996467848177
 21
141.4704082862445
 31
0.0
  0
LINE
  5
5C3
330
59
100
AcDbEntity
  8
1
  6
Continuous
 62
     7
100
AcDbLine
 10
67.99996467848177
 20
143.4704082862445
 30
0.0
 11
-68.00003532151823
 21
143.4704082862445
 31
0.0
  0
ENDBLK
  5
5B
330
59
100
AcDbEntity
  8
0
100
AcDbBlockEnd
  0
BLOCK
  5
5CC
330
5C4
100
AcDbEntity
  8
0
100
AcDbBlockBegin
  2
*D6
 70
     1
 71
     0
 10
0.0
 20
0.0
 30
0.0
  3
*D6
  1

  0
LINE
  5
5C5
330
5C4
100
AcDbEntity
  8
1
  6
Continuous
 62
     4
100
AcDbLine
 10
84.2388367560112
 20
-462.621085
 30
0.0
 11
84.2388367560112
 21
-152.6210850598732
 31
0.0
  0
LINE
  5
5C6
330
5C4
100
AcDbEntity
  8
1
  6
Continuous
 62
     4
100
AcDbLine
 10
52.95187806980448
 20
-152.6210850598732
 30
0.0
 11
86.2388367560112
 21
-152.6210850598732
 31
0.0
  0
LINE
  5
5C7
330
5C4
100
AcDbEntity
  8
1
  6
Continuous
 62
     4
100
AcDbLine
 10
41.99986706980462
 20
-462.621085
 30
0.0
 11
86.2388367560112
 21
-462.621085
 31
0.0
  0
SOLID
  5
5C8
330
5C4
100
AcDbEntity
  8
1
 62
     4
100
AcDbTrace
 10
82.65900678496244
 20
-450.621085
 30
0.0
 11
85.81866672705995
 21
-450.621085
 31
0.0
 12
84.2388367560112
 22
-462.621085
 32
0.0
 13
84.2388367560112
 23
-462.621085
 33
0.0
  0
SOLID
  5
5C9
330
5C4
100
AcDbEntity
  8
1
 62
     4
100
AcDbTrace
 10
85.81866672705995
 20
-164.6210850598732
 30
0.0
 11
82.65900678496244
 21
-164.6210850598732
 31
0.0
 12
84.2388367560112
 22
-152.6210850598732
 32
0.0
 13
84.2388367560112
 23
-152.6210850598732
 33
0.0
  0
MTEXT
  5
5CB
330
5C4
100
AcDbEntity
  8
1
 62
     1
100
AcDbMText
 10
82.2388367560112
 20
-322.382323061456
 30
0.0
 40
12.0
 41
0.0
 71
     7
 72
     1
  1
310
  7
CONVERTER_11
 11
0.0
 21
1.0
 31
0.0
 73
     1
 44
0.60024009603842
  0
ENDBLK
  5
5CD
330
5C4
100
AcDbEntity
  8
0
100
AcDbBlockEnd
  0
BLOCK
  5
5D7
330
5D0
100
AcDbEntity
  8
0
100
AcDbBlockBegin
  2
*D7
 70
     1
 71
     0
 10
0.0
 20
0.0
 30
0.0
  3
*D7
  1

  0
LINE
  5
5D1
330
5D0
100
AcDbEntity
  8
1
  6
Continuous
 62
     4
100
AcDbLine
 10
185.0000712634897
 20
1.999999919999
 30
0.0
 11
185.0000675464709
 21
-462.6210861296631
 31
0.0
  0
LINE
  5
5D2
330
5D0
100
AcDbEntity
  8
1
  6
Continuous
 62
     4
100
AcDbLine
 10
43.79409606980448
 20
-462.621085
 30
0.0
 11
187.0000675464709
 21
-462.6210861456633
 31
0.0
  0
LINE
  5
5D3
330
5D0
100
AcDbEntity
  8
1
  6
Continuous
 62
     4
100
AcDbLine
 10
175.0000712634896
 20
2.0
 30
0.0
 11
187.0000712634897
 21
1.99999990399871
 31
0.0
  0
SOLID
  5
5D4
330
5D0
100
AcDbEntity
  8
1
 62
     4
100
AcDbTrace
 10
186.5799011385371
 20
-10.00000009263982
 30
0.0
 11
183.4202411964396
 21
-10.00000006736218
 31
0.0
 12
185.0000712634897
 22
1.999999919999
 32
0.0
 13
185.0000712634897
 23
1.999999919999
 33
0.0
  0
SOLID
  5
5D5
330
5D0
100
AcDbEntity
  8
1
 62
     4
100
AcDbTrace
 10
183.4202376714235
 20
-450.6210861170243
 30
0.0
 11
186.579897613521
 21
-450.6210861423019
 31
0.0
 12
185.0000675464709
 22
-462.6210861296631
 32
0.0
 13
185.0000675464709
 23
-462.6210861296631
 33
0.0
  0
MTEXT
  5
5D6
330
5D0
100
AcDbEntity
  8
1
 62
     1
100
AcDbMText
 10
183.0000692856811
 20
-245.2227366926567
 30
0.0
 40
12.0
 41
0.0
 71
     7
 72
     1
  1
465
  7
CONVERTER_11
 11
8.000107748652860E-9
 21
1.0
 31
0.0
 73
     1
 44
0.60024009603842
  0
ENDBLK
  5
5D8
330
5D0
100
AcDbEntity
  8
0
100
AcDbBlockEnd
  0
BLOCK
  5
5E2
330
5DB
100
AcDbEntity
  8
0
100
AcDbBlockBegin
  2
*D8
 70
     1
 71
     0
 10
0.0
 20
0.0
 30
0.0
  3
*D8
  1

  0
LINE
  5
5DC
330
5DB
100
AcDbEntity
  8
1
  6
Continuous
 62
     4
100
AcDbLine
 10
-177.0008565885047
 20
90.70545179079961
 30
0.0
 11
176.9999477840642
 21
90.70590530336052
 31
0.0
  0
LINE
  5
5DD
330
5DB
100
AcDbEntity
  8
1
  6
Continuous
 62
     4
100
AcDbLine
 10
-177.0007338693916
 20
-5.08608406436537
 30
0.0
 11
-177.0008591507167
 21
92.70545179079795
 31
0.0
  0
LINE
  5
5DE
330
5DB
100
AcDbEntity
  8
1
  6
Continuous
 62
     4
100
AcDbLine
 10
177.0000705031567
 20
-5.08561447936287
 30
0.0
 11
176.9999452218522
 21
92.70590530335889
 31
0.0
  0
SOLID
  5
5DF
330
5DB
100
AcDbEntity
  8
1
 62
     4
100
AcDbTrace
 10
-165.0008586124443
 20
92.28529713511935
 30
0.0
 11
-165.0008545645849
 21
89.12563719302443
 31
0.0
 12
-177.0008565885047
 22
90.70545179079961
 32
0.0
 13
-177.0008565885047
 23
90.70545179079961
 33
0.0
  0
SOLID
  5
5E0
330
5DB
100
AcDbEntity
  8
1
 62
     4
100
AcDbTrace
 10
164.9999498080037
 20
89.1260599590408
 30
0.0
 11
164.9999457601443
 21
92.2857199011357
 31
0.0
 12
176.9999477840642
 22
90.70590530336052
 32
0.0
 13
176.9999477840642
 23
90.70590530336052
 33
0.0
  0
MTEXT
  5
5E1
330
5DB
100
AcDbEntity
  8
1
 62
     1
100
AcDbMText
 10
-22.38447773439278
 20
92.70562737727491
 30
0.0
 40
12.0
 41
0.0
 71
     7
 72
     1
  1
\C1;\U+00d8\C1;354
  7
CONVERTER_11
 11
0.9999999999970619
 21
2.424068405545306E-6
 31
0.0
 73
     1
 44
0.60024009603842
  0
ENDBLK
  5
5E3
330
5DB
100
AcDbEntity
  8
0
100
AcDbBlockEnd
  0
BLOCK
  5
5ED
330
5E6
100
AcDbEntity
  8
0
100
AcDbBlockBegin
  2
*D9
 70
     1
 71
     0
 10
0.0
 20
0.0
 30
0.0
  3
*D9
  1

  0
LINE
  5
5E7
330
5E6
100
AcDbEntity
  8
1
  6
Continuous
 62
     4
100
AcDbLine
 10
-54.99997107421356
 20
-531.7089242473206
 30
0.0
 11
55.00002892543532
 21
-531.7087725821891
 31
0.0
  0
LINE
  5
5E8
330
5E6
100
AcDbEntity
  8
1
  6
Continuous
 62
     4
100
AcDbLine
 10
-55.00001265342757
 20
-501.5522660000001
 30
0.0
 11
-54.99996831666572
 21
-533.7089242473187
 31
0.0
  0
LINE
  5
5E9
330
5E6
100
AcDbEntity
  8
1
  6
Continuous
 62
     4
100
AcDbLine
 10
54.99998734657245
 20
-501.552369
 30
0.0
 11
55.00003168298316
 21
-533.7087725821872
 31
0.0
  0
SOLID
  5
5EA
330
5E6
100
AcDbEntity
  8
1
 62
     4
100
AcDbTrace
 10
-42.99997325245339
 20
-530.1290777309858
 30
0.0
 11
-42.99996889599655
 21
-533.2887376730804
 31
0.0
 12
-54.99997107421356
 22
-531.7089242473206
 32
0.0
 13
-54.99997107421356
 23
-531.7089242473206
 33
0.0
  0
SOLID
  5
5EB
330
5E6
100
AcDbEntity
  8
1
 62
     4
100
AcDbTrace
 10
43.00003110367514
 20
-533.2886190985239
 30
0.0
 11
43.0000267472183
 21
-530.1289591564293
 31
0.0
 12
55.00002892543532
 22
-531.7087725821891
 32
0.0
 13
55.00002892543532
 23
-531.7087725821891
 33
0.0
  0
MTEXT
  5
5EC
330
5E6
100
AcDbEntity
  8
1
 62
     1
100
AcDbMText
 10
-16.91061496970697
 20
-529.7088923021032
 30
0.0
 40
12.0
 41
0.0
 71
     7
 72
     1
  1
\C1;DN\C1;110
  7
CONVERTER_11
 11
0.9999999999970619
 21
2.424068405545306E-6
 31
0.0
 73
     1
 44
0.60024009603842
  0
ENDBLK
  5
5EE
330
5E6
100
AcDbEntity
  8
0
100
AcDbBlockEnd
  0
BLOCK
  5
5F9
330
5F1
100
AcDbEntity
  8
0
100
AcDbBlockBegin
  2
*D10
 70
     1
 71
     0
 10
0.0
 20
0.0
 30
0.0
  3
*D10
  1

  0
LINE
  5
5F2
330
5F1
100
AcDbEntity
  8
1
  6
Continuous
 62
     4
100
AcDbLine
 10
73.4999064098233
 20
-79.11072426271515
 30
0.0
 11
-73.50009358993546
 21
-79.11091258529983
 31
0.0
  0
LINE
  5
5F3
330
5F1
100
AcDbEntity
  8
1
  6
Continuous
 62
     4
100
AcDbLine
 10
-73.50009358993546
 20
-79.11091258529983
 30
0.0
 11
-126.9264994374222
 21
-79.11098103018989
 31
0.0
  0
LINE
  5
5F4
330
5F1
100
AcDbEntity
  8
1
  6
Continuous
 62
     4
100
AcDbLine
 10
73.49986606980451
 20
-47.62229300000003
 30
0.0
 11
73.49990897203531
 21
-81.11072426271352
 31
0.0
  0
LINE
  5
5F5
330
5F1
100
AcDbEntity
  8
1
  6
Continuous
 62
     4
100
AcDbLine
 10
-73.50013393019552
 20
-47.62229300000003
 30
0.0
 11
-73.50009102772343
 21
-81.1109125852982
 31
0.0
  0
SOLID
  5
5F6
330
5F1
100
AcDbEntity
  8
1
 62
     4
100
AcDbTrace
 10
61.49990843376283
 20
-80.69056960703487
 30
0.0
 11
61.49990438590345
 21
-77.53090966493997
 31
0.0
 12
73.4999064098233
 22
-79.11072426271515
 32
0.0
 13
73.4999064098233
 23
-79.11072426271515
 33
0.0
  0
SOLID
  5
5F7
330
5F1
100
AcDbEntity
  8
1
 62
     4
100
AcDbTrace
 10
-61.500095613875
 20
-77.5310672409801
 30
0.0
 11
-61.50009156601561
 21
-80.69072718307501
 31
0.0
 12
-73.50009358993546
 22
-79.11091258529983
 32
0.0
 13
-73.50009358993546
 23
-79.11091258529983
 33
0.0
  0
MTEXT
  5
5F8
330
5F1
100
AcDbEntity
  8
1
 62
     1
100
AcDbMText
 10
-132.2065019995882
 20
-77.1110102879311
 30
0.0
 40
12.0
 41
0.0
 71
     7
 72
     1
  1
\C1;\U+00d8\C1;147
  7
CONVERTER_11
 11
0.9999999999970619
 21
2.424068405545306E-6
 31
0.0
 73
     1
 44
0.60024009603842
  0
ENDBLK
  5
5FA
330
5F1
100
AcDbEntity
  8
0
100
AcDbBlockEnd
  0
BLOCK
  5
604
330
5FD
100
AcDbEntity
  8
0
100
AcDbBlockBegin
  2
*D11
 70
     1
 71
     0
 10
0.0
 20
0.0
 30
0.0
  3
*D11
  1

  0
LINE
  5
5FE
330
5FD
100
AcDbEntity
  8
1
  6
Continuous
 62
     4
100
AcDbLine
 10
132.1366223551603
 20
-462.6210857067497
 30
0.0
 11
132.1366256751954
 21
-47.6222934150997
 31
0.0
  0
LINE
  5
5FF
330
5FD
100
AcDbEntity
  8
1
  6
Continuous
 62
     4
100
AcDbLine
 10
80.24986806980452
 20
-47.62229300000001
 30
0.0
 11
134.1366256751954
 21
-47.62229343109991
 31
0.0
  0
LINE
  5
600
330
5FD
100
AcDbEntity
  8
1
  6
Continuous
 62
     4
100
AcDbLine
 10
43.7940960698045
 20
-462.621085
 30
0.0
 11
134.1366223551603
 21
-462.62108572275
 31
0.0
  0
SOLID
  5
601
330
5FD
100
AcDbEntity
  8
1
 62
     4
100
AcDbTrace
 10
130.5567924801129
 20
-450.6210856941109
 30
0.0
 11
133.7164524222104
 21
-450.6210857193885
 31
0.0
 12
132.1366223551603
 22
-462.6210857067497
 32
0.0
 13
132.1366223551603
 23
-462.6210857067497
 33
0.0
  0
SOLID
  5
602
330
5FD
100
AcDbEntity
  8
1
 62
     4
100
AcDbTrace
 10
133.7164555502428
 20
-59.62229342773853
 30
0.0
 11
130.5567956081453
 21
-59.62229340246088
 31
0.0
 12
132.1366256751954
 22
-47.6222934150997
 32
0.0
 13
132.1366256751954
 23
-47.6222934150997
 33
0.0
  0
MTEXT
  5
603
330
5FD
100
AcDbEntity
  8
1
 62
     1
100
AcDbMText
 10
130.1366239930298
 20
-257.8901491409807
 30
0.0
 40
12.0
 41
0.0
 71
     7
 72
     1
  1
415
  7
CONVERTER_11
 11
8.000107970697464E-9
 21
1.0
 31
0.0
 73
     1
 44
0.60024009603842
  0
ENDBLK
  5
605
330
5FD
100
AcDbEntity
  8
0
100
AcDbBlockEnd
  0
ENDSEC
  0
SECTION
  2
ENTITIES
  0
INSERT
  5
5C
330
1F
100
AcDbEntity
  8
0
100
AcDbBlockReference
  2
Draufsicht
 10
-186.1494872556286
 20
-1046.863954334447
 30
0.0
  0
INSERT
  5
5D
330
1F
100
AcDbEntity
  8
0
100
AcDbBlockReference
  2
HL69_1
 10
-0.0002659301955
 20
-219.0046869999999
 30
0.0
  0
INSERT
  5
5E
330
1F
100
AcDbEntity
  8
1
100
AcDbBlockReference
  2
PVC_Manschette
 10
-177.0007347365104
 20
-26.0
 30
0.0
  0
INSERT
  5
5F
330
1F
100
AcDbEntity
  8
1
100
AcDbBlockReference
  2
062_1E_Laubfangkorb
 10
-867.5839218886072
 20
654.5262580000001
 30
0.0
  0
INSERT
  5
60
330
1F
100
AcDbEntity
  8
0
100
AcDbBlockReference
  2
Bauschutz_062_9E
 10
-646.5968313215162
 20
-327.5875917137564
 30
0.0
  0
DIMENSION
  5
5CF
330
1F
100
AcDbEntity
  8
1
100
AcDbDimension
  2
*D6
 10
84.2388367560112
 20
-462.621085
 30
0.0
 11
76.2388367560112
 21
-309.782323061456
 31
0.0
 70
    32
  1
<>
 71
     5
 42
-1.0
 53
90.0
  3
ME10_DIM_10
100
AcDbAlignedDimension
 13
52.95187806980448
 23
-152.6210850598732
 33
0.0
 14
41.99986706980462
 24
-462.621085
 34
0.0
 50
90.0
100
AcDbRotatedDimension
  0
DIMENSION
  5
5DA
330
1F
100
AcDbEntity
  8
1
100
AcDbDimension
  2
*D7
 10
185.0000712634897
 20
1.999999919999
 30
0.0
 11
177.0000694008827
 21
-230.8227366446561
 31
0.0
 70
    32
  1
<>
 71
     5
 42
-1.0
 53
89.99999954162759
  3
ME10_DIM_11
100
AcDbAlignedDimension
 13
43.79409606980448
 23
-462.621085
 33
0.0
 14
175.0000712634896
 24
2.0
 34
0.0
 50
89.99999954162759
100
AcDbRotatedDimension
  0
DIMENSION
  5
5E5
330
1F
100
AcDbEntity
  8
1
100
AcDbDimension
  2
*D8
 10
-177.0008565885047
 20
90.70545179079961
 30
0.0
 11
4.49551457890738
 21
98.70568430689953
 31
0.0
 70
    32
  1
<>
 71
     5
 42
-1.0
 53
0.00013888888889
  3
ME10_DIM_12
100
AcDbAlignedDimension
 13
177.0000705031566
 23
-5.08561447936282
 33
0.0
 14
-177.0007338693916
 24
-5.08608406436538
 34
0.0
 50
0.00007340196795
100
AcDbRotatedDimension
  0
DIMENSION
  5
5F0
330
1F
100
AcDbEntity
  8
1
100
AcDbDimension
  2
*D9
 10
-54.99997107421356
 20
-531.7089242473206
 30
0.0
 11
0.36937675759395
 21
-523.7088479055001
 31
0.0
 70
    32
  1
<>
 71
     5
 42
-1.0
 53
0.00013888888889
  3
ME10_DIM_13
100
AcDbAlignedDimension
 13
54.99998734657243
 23
-501.552369
 33
0.0
 14
-55.00001265342758
 24
-501.5522660000002
 34
0.0
 50
0.00007899792669
100
AcDbRotatedDimension
  0
DIMENSION
  5
5FC
330
1F
100
AcDbEntity
  8
1
100
AcDbDimension
  2
*D10
 10
73.4999064098233
 20
-79.11072426271515
 30
0.0
 11
-107.1265096862866
 21
-71.1109556642973
 31
0.0
 70
    32
  1
<>
 71
     5
 42
-1.0
 53
0.00013888888889
  3
ME10_DIM_14
100
AcDbAlignedDimension
 13
-73.50013393019549
 23
-47.62229300000002
 33
0.0
 14
73.49986606980451
 24
-47.62229300000002
 34
0.0
 50
0.00007340196795
100
AcDbRotatedDimension
  0
DIMENSION
  5
607
330
1F
100
AcDbEntity
  8
1
100
AcDbDimension
  2
*D11
 10
132.1366223551603
 20
-462.6210857067497
 30
0.0
 11
124.1366240938312
 21
-245.2901490929801
 31
0.0
 70
    32
  1
<>
 71
     5
 42
-1.0
 53
89.99999954162759
  3
ME10_DIM_15
100
AcDbAlignedDimension
 13
80.2498680698045
 23
-47.62229300000002
 33
0.0
 14
43.79409606980448
 24
-462.621085
 34
0.0
 50
89.99999954162759
100
AcDbRotatedDimension
  0
ENDSEC
  0
SECTION
  2
OBJECTS
  0
DICTIONARY
  5
C
330
0
100
AcDbDictionary
281
     1
  3
ACAD_GROUP
350
D
  3
ACAD_LAYOUT
350
1A
  3
ACAD_MLINESTYLE
350
17
  3
ACAD_PLOTSETTINGS
350
19
  3
ACAD_PLOTSTYLENAME
350
E
  3
ACAD_TABLESTYLE
350
608
  3
ACAD_VISUALSTYLE
350
2A
  0
DICTIONARY
  5
D
102
{ACAD_REACTORS
330
C
102
}
330
C
100
AcDbDictionary
281
     1
  0
DICTIONARY
  5
1A
102
{ACAD_REACTORS
330
C
102
}
330
C
100
AcDbDictionary
281
     1
  3
Layout1
350
1E
  3
Layout2
350
26
  3
Model
350
22
  0
DICTIONARY
  5
17
102
{ACAD_REACTORS
330
C
102
}
330
C
100
AcDbDictionary
281
     1
  3
Standard
350
18
  0
DICTIONARY
  5
19
102
{ACAD_REACTORS
330
C
102
}
330
C
100
AcDbDictionary
281
     1
  0
ACDBDICTIONARYWDFLT
  5
E
102
{ACAD_REACTORS
330
C
102
}
330
C
100
AcDbDictionary
281
     1
  3
Normal
350
F
100
AcDbDictionaryWithDefault
340
F
  0
DICTIONARY
  5
608
102
{ACAD_REACTORS
330
C
102
}
330
C
100
AcDbDictionary
281
     1
  0
DICTIONARY
  5
2A
102
{ACAD_REACTORS
330
C
102
}
330
C
100
AcDbDictionary
281
     1
  3
2dWireframe
350
2F
  3
3D Hidden
350
31
  3
3dWireframe
350
30
  3
Basic
350
32
  3
Brighten
350
36
  3
ColorChange
350
3A
  3
Conceptual
350
34
  3
Dim
350
35
  3
Facepattern
350
39
  3
Flat
350
2B
  3
FlatWithEdges
350
2C
  3
Gouraud
350
2D
  3
GouraudWithEdges
350
2E
  3
Linepattern
350
38
  3
Realistic
350
33
  3
Thicken
350
37
  0
LAYOUT
  5
1E
102
{ACAD_REACTORS
330
1A
102
}
330
1A
100
AcDbPlotSettings
  1

  2
none_device
  4

  6

 40
0.0
 41
0.0
 42
0.0
 43
0.0
 44
0.0
 45
0.0
 46
0.0
 47
0.0
 48
0.0
 49
0.0
140
0.0
141
0.0
142
1.0
143
1.0
 70
   688
 72
     0
 73
     0
 74
     5
  7

 75
    16
147
1.0
148
0.0
149
0.0
100
AcDbLayout
  1
Layout1
 70
     1
 71
     1
 10
0.0
 20
0.0
 11
12.0
 21
9.0
 12
0.0
 22
0.0
 32
0.0
 14
1.00000000000000E+20
 24
1.00000000000000E+20
 34
1.00000000000000E+20
 15
-1.00000000000000E+20
 25
-1.00000000000000E+20
 35
-1.00000000000000E+20
146
0.0
 13
0.0
 23
0.0
 33
0.0
 16
1.0
 26
0.0
 36
0.0
 17
0.0
 27
1.0
 37
0.0
 76
     0
330
1B
  0
LAYOUT
  5
26
102
{ACAD_REACTORS
330
1A
102
}
330
1A
100
AcDbPlotSettings
  1

  2
none_device
  4

  6

 40
0.0
 41
0.0
 42
0.0
 43
0.0
 44
0.0
 45
0.0
 46
0.0
 47
0.0
 48
0.0
 49
0.0
140
0.0
141
0.0
142
1.0
143
1.0
 70
   688
 72
     0
 73
     0
 74
     5
  7

 75
    16
147
1.0
148
0.0
149
0.0
100
AcDbLayout
  1
Layout2
 70
     1
 71
     2
 10
0.0
 20
0.0
 11
0.0
 21
0.0
 12
0.0
 22
0.0
 32
0.0
 14
0.0
 24
0.0
 34
0.0
 15
0.0
 25
0.0
 35
0.0
146
0.0
 13
0.0
 23
0.0
 33
0.0
 16
1.0
 26
0.0
 36
0.0
 17
0.0
 27
1.0
 37
0.0
 76
     0
330
23
  0
LAYOUT
  5
22
102
{ACAD_REACTORS
330
1A
102
}
330
1A
100
AcDbPlotSettings
  1

  2
none_device
  4

  6

 40
0.0
 41
0.0
 42
0.0
 43
0.0
 44
0.0
 45
0.0
 46
0.0
 47
0.0
 48
0.0
 49
0.0
140
0.0
141
0.0
142
1.0
143
1.0
 70
  1712
 72
     0
 73
     0
 74
     0
  7

 75
     0
147
1.0
148
0.0
149
0.0
100
AcDbLayout
  1
Model
 70
     1
 71
     0
 10
0.0
 20
0.0
 11
12.0
 21
9.0
 12
0.0
 22
0.0
 32
0.0
 14
-177.0008591507167
 24
-971.863954334447
 34
0.0
 15
187.0000712634897
 25
147.40667136087
 35
0.0
146
0.0
 13
0.0
 23
0.0
 33
0.0
 16
1.0
 26
0.0
 36
0.0
 17
0.0
 27
1.0
 37
0.0
 76
     0
330
1F
331
29
  0
MLINESTYLE
  5
18
102
{ACAD_REACTORS
330
17
102
}
330
17
100
AcDbMlineStyle
  2
Standard
 70
     0
  3

 62
   256
 51
90.0
 52
90.0
 71
     2
 49
0.5
 62
   256
  6
BYLAYER
 49
-0.5
 62
   256
  6
BYLAYER
  0
ACDBPLACEHOLDER
  5
F
102
{ACAD_REACTORS
330
E
102
}
330
E
  0
VISUALSTYLE
  5
2F
102
{ACAD_REACTORS
330
2A
102
}
330
2A
100
AcDbVisualStyle
  2
2dWireframe
 70
     4
 71
     0
 72
     2
 73
     0
 90
        0
 40
-0.6
 41
-30.0
 62
     5
 63
     7
 74
     1
 91
        4
 64
     7
 65
   257
 75
     1
175
     1
 42
1.0
 92
        0
 66
   257
 43
1.0
 76
     1
 77
     6
 78
     2
 67
     7
 79
     5
170
     0
171
     0
290
     0
174
     0
 93
        1
 44
0.0
173
     0
291
     0
 45
0.0
1001
ACAD
1000
AcDbSavedByObjectVersion
1070
     0
  0
VISUALSTYLE
  5
31
102
{ACAD_REACTORS
330
2A
102
}
330
2A
100
AcDbVisualStyle
  2
3D Hidden
 70
     6
 71
     1
 72
     2
 73
     2
 90
        0
 40
-0.6
 41
-30.0
 62
     5
 63
     7
 74
     2
 91
        2
 64
     7
 65
   257
 75
     2
175
     1
 42
40.0
 92
        0
 66
   257
 43
1.0
 76
     1
 77
     6
 78
     2
 67
     7
 79
     3
170
     0
171
     0
290
     0
174
     0
 93
        1
 44
0.0
173
     0
291
     0
 45
0.0
1001
ACAD
1000
AcDbSavedByObjectVersion
1070
     0
  0
VISUALSTYLE
  5
30
102
{ACAD_REACTORS
330
2A
102
}
330
2A
100
AcDbVisualStyle
  2
3dWireframe
 70
     5
 71
     0
 72
     2
 73
     0
 90
        0
 40
-0.6
 41
-30.0
 62
     5
 63
     7
 74
     1
 91
        4
 64
     7
 65
   257
 75
     1
175
     1
 42
1.0
 92
        0
 66
   257
 43
1.0
 76
     1
 77
     6
 78
     2
 67
     7
 79
     5
170
     0
171
     0
290
     0
174
     0
 93
        1
 44
0.0
173
     0
291
     0
 45
0.0
1001
ACAD
1000
AcDbSavedByObjectVersion
1070
     0
  0
VISUALSTYLE
  5
32
102
{ACAD_REACTORS
330
2A
102
}
330
2A
100
AcDbVisualStyle
  2
Basic
 70
     7
 71
     1
 72
     0
 73
     1
 90
        0
 40
-0.6
 41
-30.0
 62
     5
 63
     7
 74
     0
 91
        4
 64
     7
 65
   257
 75
     1
175
     1
 42
1.0
 92
        8
 66
     7
 43
1.0
 76
     1
 77
     6
 78
     2
 67
     7
 79
     5
170
     0
171
     0
290
     0
174
     0
 93
        1
 44
0.0
173
     0
291
     1
 45
0.0
1001
ACAD
1000
AcDbSavedByObjectVersion
1070
     0
  0
VISUALSTYLE
  5
36
102
{ACAD_REACTORS
330
2A
102
}
330
2A
100
AcDbVisualStyle
  2
Brighten
 70
    12
 71
     2
 72
     2
 73
     0
 90
        0
 40
-0.6
 41
-30.0
 62
     5
 63
     7
 74
     1
 91
        4
 64
     7
 65
   257
 75
     1
175
     1
 42
1.0
 92
        8
 66
     7
 43
1.0
 76
     1
 77
     6
 78
     2
 67
     7
 79
     5
170
     0
171
     0
290
     0
174
     0
 93
        1
 44
50.0
173
     0
291
     1
 45
0.0
1001
ACAD
1000
AcDbSavedByObjectVersion
1070
     0
  0
VISUALSTYLE
  5
3A
102
{ACAD_REACTORS
330
2A
102
}
330
2A
100
AcDbVisualStyle
  2
ColorChange
 70
    16
 71
     2
 72
     2
 73
     3
 90
        0
 40
-0.6
 41
-30.0
 62
     5
 63
     8
 74
     1
 91
        4
 64
     7
 65
   257
 75
     1
175
     1
 42
1.0
 92
        8
 66
     8
 43
1.0
 76
     1
 77
     6
 78
     2
 67
     7
 79
     5
170
     0
171
     0
290
     0
174
     0
 93
        1
 44
0.0
173
     0
291
     1
 45
0.0
1001
ACAD
1000
AcDbSavedByObjectVersion
1070
     0
  0
VISUALSTYLE
  5
34
102
{ACAD_REACTORS
330
2A
102
}
330
2A
100
AcDbVisualStyle
  2
Conceptual
 70
     9
 71
     3
 72
     2
 73
     0
 90
        0
 40
-0.6
 41
-30.0
 62
     5
 63
     7
 74
     2
 91
        2
 64
     7
 65
   257
 75
     1
175
     1
 42
40.0
 92
        8
 66
     7
 43
1.0
 76
     1
 77
     6
 78
     2
 67
     7
 79
     3
170
     0
171
     0
290
     0
174
     0
 93
        1
 44
0.0
173
     0
291
     0
 45
0.0
1001
ACAD
1000
AcDbSavedByObjectVersion
1070
     0
  0
VISUALSTYLE
  5
35
102
{ACAD_REACTORS
330
2A
102
}
330
2A
100
AcDbVisualStyle
  2
Dim
 70
    11
 71
     2
 72
     2
 73
     0
 90
        0
 40
-0.6
 41
-30.0
 62
     5
 63
     7
 74
     1
 91
        4
 64
     7
 65
   257
 75
     1
175
     1
 42
1.0
 92
        8
 66
     7
 43
1.0
 76
     1
 77
     6
 78
     2
 67
     7
 79
     5
170
     0
171
     0
290
     0
174
     0
 93
        1
 44
-50.0
173
     0
291
     1
 45
0.0
1001
ACAD
1000
AcDbSavedByObjectVersion
1070
     0
  0
VISUALSTYLE
  5
39
102
{ACAD_REACTORS
330
2A
102
}
330
2A
100
AcDbVisualStyle
  2
Facepattern
 70
    15
 71
     2
 72
     2
 73
     0
 90
        0
 40
-0.6
 41
-30.0
 62
     5
 63
     7
 74
     1
 91
        4
 64
     7
 65
   257
 75
     1
175
     1
 42
1.0
 92
        8
 66
     7
 43
1.0
 76
     1
 77
     6
 78
     2
 67
     7
 79
     5
170
     0
171
     0
290
     0
174
     0
 93
        1
 44
0.0
173
     0
291
     1
 45
0.0
1001
ACAD
1000
AcDbSavedByObjectVersion
1070
     0
  0
VISUALSTYLE
  5
2B
102
{ACAD_REACTORS
330
2A
102
}
330
2A
100
AcDbVisualStyle
  2
Flat
 70
     0
 71
     2
 72
     1
 73
     1
 90
        2
 40
-0.6
 41
30.0
 62
     5
 63
     7
 74
     0
 91
        4
 64
     7
 65
   257
 75
     1
175
     1
 42
1.0
 92
        8
 66
     7
 43
1.0
 76
     1
 77
     6
 78
     2
 67
     7
 79
     5
170
     0
171
     0
290
     0
174
     0
 93
       13
 44
0.0
173
     0
291
     1
 45
0.0
1001
ACAD
1000
AcDbSavedByObjectVersion
1070
     0
  0
VISUALSTYLE
  5
2C
102
{ACAD_REACTORS
330
2A
102
}
330
2A
100
AcDbVisualStyle
  2
FlatWithEdges
 70
     1
 71
     2
 72
     1
 73
     1
 90
        2
 40
-0.6
 41
30.0
 62
     5
 63
     7
 74
     1
 91
        4
 64
     7
 65
   257
 75
     1
175
     1
 42
1.0
 92
        0
 66
   257
 43
1.0
 76
     1
 77
     6
 78
     2
 67
     7
 79
     5
170
     0
171
     0
290
     0
174
     0
 93
       13
 44
0.0
173
     0
291
     1
 45
0.0
1001
ACAD
1000
AcDbSavedByObjectVersion
1070
     0
  0
VISUALSTYLE
  5
2D
102
{ACAD_REACTORS
330
2A
102
}
330
2A
100
AcDbVisualStyle
  2
Gouraud
 70
     2
 71
     2
 72
     2
 73
     1
 90
        2
 40
-0.6
 41
30.0
 62
     5
 63
     7
 74
     0
 91
        4
 64
     7
 65
   257
 75
     1
175
     1
 42
1.0
 92
        0
 66
     7
 43
1.0
 76
     1
 77
     6
 78
     2
 67
     7
 79
     5
170
     0
171
     0
290
     0
174
     0
 93
       13
 44
0.0
173
     0
291
     1
 45
0.0
1001
ACAD
1000
AcDbSavedByObjectVersion
1070
     0
  0
VISUALSTYLE
  5
2E
102
{ACAD_REACTORS
330
2A
102
}
330
2A
100
AcDbVisualStyle
  2
GouraudWithEdges
 70
     3
 71
     2
 72
     2
 73
     1
 90
        2
 40
-0.6
 41
30.0
 62
     5
 63
     7
 74
     1
 91
        4
 64
     7
 65
   257
 75
     1
175
     1
 42
1.0
 92
        0
 66
   257
 43
1.0
 76
     1
 77
     6
 78
     2
 67
     7
 79
     5
170
     0
171
     0
290
     0
174
     0
 93
       13
 44
0.0
173
     0
291
     1
 45
0.0
1001
ACAD
1000
AcDbSavedByObjectVersion
1070
     0
  0
VISUALSTYLE
  5
38
102
{ACAD_REACTORS
330
2A
102
}
330
2A
100
AcDbVisualStyle
  2
Linepattern
 70
    14
 71
     2
 72
     2
 73
     0
 90
        0
 40
-0.6
 41
-30.0
 62
     5
 63
     7
 74
     1
 91
        4
 64
     7
 65
   257
 75
     7
175
     7
 42
1.0
 92
        8
 66
     7
 43
1.0
 76
     1
 77
     6
 78
     2
 67
     7
 79
     5
170
     0
171
     0
290
     0
174
     0
 93
        1
 44
0.0
173
     0
291
     1
 45
0.0
1001
ACAD
1000
AcDbSavedByObjectVersion
1070
     0
  0
VISUALSTYLE
  5
33
102
{ACAD_REACTORS
330
2A
102
}
330
2A
100
AcDbVisualStyle
  2
Realistic
 70
     8
 71
     2
 72
     2
 73
     0
 90
        0
 40
-0.6
 41
-30.0
 62
     5
 63
     7
 74
     1
 91
        0
 64
     7
 65
   257
 75
     1
175
     1
 42
1.0
 92
        8
 66
     8
 43
1.0
 76
     1
 77
     6
 78
     2
 67
     7
 79
     5
170
     0
171
     0
290
     0
174
     0
 93
       13
 44
0.0
173
     0
291
     0
 45
0.0
1001
ACAD
1000
AcDbSavedByObjectVersion
1070
     0
  0
VISUALSTYLE
  5
37
102
{ACAD_REACTORS
330
2A
102
}
330
2A
100
AcDbVisualStyle
  2
Thicken
 70
    13
 71
     2
 72
     2
 73
     0
 90
        0
 40
-0.6
 41
-30.0
 62
     5
 63
     7
 74
     1
 91
        4
 64
     7
 65
   257
 75
     1
175
     1
 42
1.0
 92
       12
 66
     7
 43
1.0
 76
     1
 77
     6
 78
     2
 67
     7
 79
     5
170
     0
171
     0
290
     0
174
     0
 93
        1
 44
0.0
173
     0
291
     1
 45
0.0
1001
ACAD
1000
AcDbSavedByObjectVersion
1070
     0
  0
ENDSEC
  0
EOF
