  0
SECTION
  2
HEADER
  9
$ACADVER
  1
AC1015
  9
$ACADMAINTVER
 70
     6
  9
$DWGCODEPAGE
  3
ANSI_1252
  9
$INSBASE
 10
0.0
 20
0.0
 30
0.0
  9
$EXTMIN
 10
48.1030783980643
 20
-507.4841554109953
 30
0.0
  9
$EXTMAX
 10
412.1040088122707
 20
568.080753975988
 30
0.0
  9
$LIMMIN
 10
0.0
 20
0.0
  9
$LIMMAX
 10
12.0
 20
9.0
  9
$ORTHOMODE
 70
     0
  9
$REGENMODE
 70
     1
  9
$FILLMODE
 70
     1
  9
$QTEXTMODE
 70
     0
  9
$MIRRTEXT
 70
     1
  9
$LTSCALE
 40
1.0
  9
$ATTMODE
 70
     1
  9
$TEXTSIZE
 40
0.2
  9
$TRACEWID
 40
0.05
  9
$TEXTSTYLE
  7
Standard
  9
$CLAYER
  8
0
  9
$CELTYPE
  6
ByLayer
  9
$CECOLOR
 62
   256
  9
$CELTSCALE
 40
1.0
  9
$DISPSILH
 70
     0
  9
$DIMSCALE
 40
1.0
  9
$DIMASZ
 40
0.18
  9
$DIMEXO
 40
0.0625
  9
$DIMDLI
 40
0.38
  9
$DIMRND
 40
0.0
  9
$DIMDLE
 40
0.0
  9
$DIMEXE
 40
0.18
  9
$DIMTP
 40
0.0
  9
$DIMTM
 40
0.0
  9
$DIMTXT
 40
0.18
  9
$DIMCEN
 40
0.09
  9
$DIMTSZ
 40
0.0
  9
$DIMTOL
 70
     0
  9
$DIMLIM
 70
     0
  9
$DIMTIH
 70
     1
  9
$DIMTOH
 70
     1
  9
$DIMSE1
 70
     0
  9
$DIMSE2
 70
     0
  9
$DIMTAD
 70
     0
  9
$DIMZIN
 70
     0
  9
$DIMBLK
  1

  9
$DIMASO
 70
     1
  9
$DIMSHO
 70
     1
  9
$DIMPOST
  1

  9
$DIMAPOST
  1

  9
$DIMALT
 70
     0
  9
$DIMALTD
 70
     2
  9
$DIMALTF
 40
25.4
  9
$DIMLFAC
 40
1.0
  9
$DIMTOFL
 70
     0
  9
$DIMTVP
 40
0.0
  9
$DIMTIX
 70
     0
  9
$DIMSOXD
 70
     0
  9
$DIMSAH
 70
     0
  9
$DIMBLK1
  1

  9
$DIMBLK2
  1

  9
$DIMSTYLE
  2
Standard
  9
$DIMCLRD
 70
     0
  9
$DIMCLRE
 70
     0
  9
$DIMCLRT
 70
     0
  9
$DIMTFAC
 40
1.0
  9
$DIMGAP
 40
0.09
  9
$DIMJUST
 70
     0
  9
$DIMSD1
 70
     0
  9
$DIMSD2
 70
     0
  9
$DIMTOLJ
 70
     1
  9
$DIMTZIN
 70
     0
  9
$DIMALTZ
 70
     0
  9
$DIMALTTZ
 70
     0
  9
$DIMUPT
 70
     0
  9
$DIMDEC
 70
     4
  9
$DIMTDEC
 70
     4
  9
$DIMALTU
 70
     2
  9
$DIMALTTD
 70
     2
  9
$DIMTXSTY
  7
Standard
  9
$DIMAUNIT
 70
     0
  9
$DIMADEC
 70
     0
  9
$DIMALTRND
 40
0.0
  9
$DIMAZIN
 70
     0
  9
$DIMDSEP
 70
    46
  9
$DIMATFIT
 70
     3
  9
$DIMFRAC
 70
     0
  9
$DIMLDRBLK
  1

  9
$DIMLUNIT
 70
     2
  9
$DIMLWD
 70
    -2
  9
$DIMLWE
 70
    -2
  9
$DIMTMOVE
 70
     0
  9
$LUNITS
 70
     2
  9
$LUPREC
 70
     4
  9
$SKETCHINC
 40
0.1
  9
$FILLETRAD
 40
0.5
  9
$AUNITS
 70
     0
  9
$AUPREC
 70
     0
  9
$MENU
  1
.
  9
$ELEVATION
 40
0.0
  9
$PELEVATION
 40
0.0
  9
$THICKNESS
 40
0.0
  9
$LIMCHECK
 70
     0
  9
$CHAMFERA
 40
0.5
  9
$CHAMFERB
 40
0.5
  9
$CHAMFERC
 40
1.0
  9
$CHAMFERD
 40
0.0
  9
$SKPOLY
 70
     0
  9
$TDCREATE
 40
2454725.589124514
  9
$TDUCREATE
 40
2454725.505791181
  9
$TDUPDATE
 40
2454725.589124525
  9
$TDUUPDATE
 40
2454725.505791192
  9
$TDINDWG
 40
0.0000000116
  9
$TDUSRTIMER
 40
0.0000000116
  9
$USRTIMER
 70
     1
  9
$ANGBASE
 50
0.0
  9
$ANGDIR
 70
     0
  9
$PDMODE
 70
     0
  9
$PDSIZE
 40
0.0
  9
$PLINEWID
 40
0.0
  9
$SPLFRAME
 70
     0
  9
$SPLINETYPE
 70
     6
  9
$SPLINESEGS
 70
     8
  9
$HANDSEED
  5
55E
  9
$SURFTAB1
 70
     6
  9
$SURFTAB2
 70
     6
  9
$SURFTYPE
 70
     6
  9
$SURFU
 70
     6
  9
$SURFV
 70
     6
  9
$UCSBASE
  2

  9
$UCSNAME
  2

  9
$UCSORG
 10
0.0
 20
0.0
 30
0.0
  9
$UCSXDIR
 10
1.0
 20
0.0
 30
0.0
  9
$UCSYDIR
 10
0.0
 20
1.0
 30
0.0
  9
$UCSORTHOREF
  2

  9
$UCSORTHOVIEW
 70
     0
  9
$UCSORGTOP
 10
0.0
 20
0.0
 30
0.0
  9
$UCSORGBOTTOM
 10
0.0
 20
0.0
 30
0.0
  9
$UCSORGLEFT
 10
0.0
 20
0.0
 30
0.0
  9
$UCSORGRIGHT
 10
0.0
 20
0.0
 30
0.0
  9
$UCSORGFRONT
 10
0.0
 20
0.0
 30
0.0
  9
$UCSORGBACK
 10
0.0
 20
0.0
 30
0.0
  9
$PUCSBASE
  2

  9
$PUCSNAME
  2

  9
$PUCSORG
 10
0.0
 20
0.0
 30
0.0
  9
$PUCSXDIR
 10
1.0
 20
0.0
 30
0.0
  9
$PUCSYDIR
 10
0.0
 20
1.0
 30
0.0
  9
$PUCSORTHOREF
  2

  9
$PUCSORTHOVIEW
 70
     0
  9
$PUCSORGTOP
 10
0.0
 20
0.0
 30
0.0
  9
$PUCSORGBOTTOM
 10
0.0
 20
0.0
 30
0.0
  9
$PUCSORGLEFT
 10
0.0
 20
0.0
 30
0.0
  9
$PUCSORGRIGHT
 10
0.0
 20
0.0
 30
0.0
  9
$PUCSORGFRONT
 10
0.0
 20
0.0
 30
0.0
  9
$PUCSORGBACK
 10
0.0
 20
0.0
 30
0.0
  9
$USERI1
 70
     0
  9
$USERI2
 70
     0
  9
$USERI3
 70
     0
  9
$USERI4
 70
     0
  9
$USERI5
 70
     0
  9
$USERR1
 40
15.5
  9
$USERR2
 40
0.0
  9
$USERR3
 40
0.0
  9
$USERR4
 40
0.0
  9
$USERR5
 40
0.0
  9
$WORLDVIEW
 70
     1
  9
$SHADEDGE
 70
     3
  9
$SHADEDIF
 70
    70
  9
$TILEMODE
 70
     1
  9
$MAXACTVP
 70
    64
  9
$PINSBASE
 10
0.0
 20
0.0
 30
0.0
  9
$PLIMCHECK
 70
     0
  9
$PEXTMIN
 10
1.00000000000000E+20
 20
1.00000000000000E+20
 30
1.00000000000000E+20
  9
$PEXTMAX
 10
-1.00000000000000E+20
 20
-1.00000000000000E+20
 30
-1.00000000000000E+20
  9
$PLIMMIN
 10
0.0
 20
0.0
  9
$PLIMMAX
 10
12.0
 20
9.0
  9
$UNITMODE
 70
     0
  9
$VISRETAIN
 70
     1
  9
$PLINEGEN
 70
     0
  9
$PSLTSCALE
 70
     1
  9
$TREEDEPTH
 70
  3020
  9
$CMLSTYLE
  2
Standard
  9
$CMLJUST
 70
     0
  9
$CMLSCALE
 40
1.0
  9
$PROXYGRAPHICS
 70
     1
  9
$MEASUREMENT
 70
     1
  9
$CELWEIGHT
370
    -1
  9
$ENDCAPS
280
     0
  9
$JOINSTYLE
280
     0
  9
$LWDISPLAY
290
     0
  9
$INSUNITS
 70
     1
  9
$HYPERLINKBASE
  1

  9
$STYLESHEET
  1

  9
$XEDIT
290
     1
  9
$CEPSNTYPE
380
     0
  9
$PSTYLEMODE
290
     1
  9
$FINGERPRINTGUID
  2
{560B2229-1097-406A-93E0-89DEA1EEB015}
  9
$VERSIONGUID
  2
{FAEB1C32-E019-11D5-929B-00C0DF256EC4}
  9
$EXTNAMES
290
     1
  9
$PSVPSCALE
 40
0.0
  9
$OLESTARTUP
290
     0
  0
ENDSEC
  0
SECTION
  2
CLASSES
  0
CLASS
  1
ACDBDICTIONARYWDFLT
  2
AcDbDictionaryWithDefault
  3
ObjectDBX Classes
 90
        0
280
     0
281
     0
  0
CLASS
  1
VISUALSTYLE
  2
AcDbVisualStyle
  3
ObjectDBX Classes
 90
     4095
280
     0
281
     0
  0
CLASS
  1

  2
exOdDbPolyline
  3

 90
        0
280
     0
281
     1
  0
CLASS
  1

  2
exOdDbCircle
  3

 90
        0
280
     0
281
     1
  0
CLASS
  1
ACDBPLACEHOLDER
  2
AcDbPlaceHolder
  3
ObjectDBX Classes
 90
        0
280
     0
281
     0
  0
CLASS
  1
LAYOUT
  2
AcDbLayout
  3
ObjectDBX Classes
 90
        0
280
     0
281
     0
  0
ENDSEC
  0
SECTION
  2
TABLES
  0
TABLE
  2
VPORT
  5
8
330
0
100
AcDbSymbolTable
 70
     1
  0
VPORT
  5
29
330
8
100
AcDbSymbolTableRecord
100
AcDbViewportTableRecord
  2
*Active
 70
     0
 10
0.0
 20
0.0
 11
1.0
 21
1.0
 12
230.1035436051675
 22
30.29829928249637
 13
0.0
 23
0.0
 14
0.5
 24
0.5
 15
0.5
 25
0.5
 16
0.0
 26
0.0
 36
1.0
 17
0.0
 27
0.0
 37
0.0
 40
1183.121400325682
 41
1.60267857142857
 42
50.0
 43
0.0
 44
0.0
 50
0.0
 51
0.0
 71
     0
 72
   100
 73
     1
 74
     3
 75
     0
 76
     0
 77
     0
 78
     0
281
     0
 65
     1
110
0.0
120
0.0
130
0.0
111
1.0
121
0.0
131
0.0
112
0.0
122
1.0
132
0.0
 79
     0
146
0.0
  0
ENDTAB
  0
TABLE
  2
LTYPE
  5
5
330
0
100
AcDbSymbolTable
 70
    10
  0
LTYPE
  5
14
330
5
100
AcDbSymbolTableRecord
100
AcDbLinetypeTableRecord
  2
ByBlock
 70
     0
  3

 72
    65
 73
     0
 40
0.0
  0
LTYPE
  5
15
330
5
100
AcDbSymbolTableRecord
100
AcDbLinetypeTableRecord
  2
ByLayer
 70
     0
  3

 72
    65
 73
     0
 40
0.0
  0
LTYPE
  5
16
330
5
100
AcDbSymbolTableRecord
100
AcDbLinetypeTableRecord
  2
Continuous
 70
     0
  3
Solid line
 72
    65
 73
     0
 40
0.0
  0
LTYPE
  5
3B
330
5
100
AcDbSymbolTableRecord
100
AcDbLinetypeTableRecord
  2
DASHED
 70
     0
  3
Dashed
 72
    65
 73
     2
 40
15.0
 49
7.0
 74
     0
 49
-8.0
 74
     0
  0
LTYPE
  5
3C
330
5
100
AcDbSymbolTableRecord
100
AcDbLinetypeTableRecord
  2
DOTTED
 70
     0
  3
Dotted
 72
    65
 73
     2
 40
1.0
 49
0.0
 74
     0
 49
-1.0
 74
     0
  0
LTYPE
  5
3D
330
5
100
AcDbSymbolTableRecord
100
AcDbLinetypeTableRecord
  2
DOT_CENTER
 70
     0
  3
Dot_Center
 72
    65
 73
     4
 40
14.0
 49
12.0
 74
     0
 49
-1.0
 74
     0
 49
0.0
 74
     0
 49
-1.0
 74
     0
  0
LTYPE
  5
3E
330
5
100
AcDbSymbolTableRecord
100
AcDbLinetypeTableRecord
  2
LONG_DASHED
 70
     0
  3
Long_Dashed
 72
    65
 73
     2
 40
15.0
 49
10.0
 74
     0
 49
-5.0
 74
     0
  0
LTYPE
  5
3F
330
5
100
AcDbSymbolTableRecord
100
AcDbLinetypeTableRecord
  2
DASH_CENTER
 70
     0
  3
Dash_Center
 72
    65
 73
     4
 40
14.0
 49
11.0
 74
     0
 49
-1.0
 74
     0
 49
1.0
 74
     0
 49
-1.0
 74
     0
  0
LTYPE
  5
40
330
5
100
AcDbSymbolTableRecord
100
AcDbLinetypeTableRecord
  2
PHANTOM
 70
     0
  3
Phantom
 72
    65
 73
     6
 40
13.0
 49
10.0
 74
     0
 49
-1.0
 74
     0
 49
0.0
 74
     0
 49
-1.0
 74
     0
 49
0.0
 74
     0
 49
-1.0
 74
     0
  0
LTYPE
  5
41
330
5
100
AcDbSymbolTableRecord
100
AcDbLinetypeTableRecord
  2
CENTER_DASH_DASH
 70
     0
  3
Center_Dash_Dash
 72
    65
 73
     6
 40
14.0
 49
9.0
 74
     0
 49
-1.0
 74
     0
 49
1.0
 74
     0
 49
-1.0
 74
     0
 49
1.0
 74
     0
 49
-1.0
 74
     0
  0
LTYPE
  5
42
330
5
100
AcDbSymbolTableRecord
100
AcDbLinetypeTableRecord
  2
CENTER
 70
     0
  3
CENTER
 72
    65
 73
     4
 40
16.0
 49
10.0
 74
     0
 49
-3.0
 74
     0
 49
0.0
 74
     0
 49
-3.0
 74
     0
  0
LTYPE
  5
43
330
5
100
AcDbSymbolTableRecord
100
AcDbLinetypeTableRecord
  2
DASHDOT
 70
     0
  3
DASHDOT
 72
    65
 73
     4
 40
16.0
 49
10.0
 74
     0
 49
-3.0
 74
     0
 49
0.0
 74
     0
 49
-3.0
 74
     0
  0
ENDTAB
  0
TABLE
  2
LAYER
  5
2
330
0
100
AcDbSymbolTable
 70
    13
  0
LAYER
  5
10
330
2
100
AcDbSymbolTableRecord
100
AcDbLayerTableRecord
  2
0
 70
     0
 62
     7
  6
Continuous
370
    -3
390
F
  0
LAYER
  5
44
330
2
100
AcDbSymbolTableRecord
100
AcDbLayerTableRecord
  2
1
 70
     0
 62
     7
  6
Continuous
370
    -3
390
F
  0
LAYER
  5
45
330
2
100
AcDbSymbolTableRecord
100
AcDbLayerTableRecord
  2
LC-001-002-----0
 70
     0
 62
     7
  6
Continuous
370
    -3
390
F
  0
LAYER
  5
46
330
2
100
AcDbSymbolTableRecord
100
AcDbLayerTableRecord
  2
LC-001-002-RND-0
 70
     0
 62
     7
  6
Continuous
370
    -3
390
F
  0
LAYER
  5
47
330
2
100
AcDbSymbolTableRecord
100
AcDbLayerTableRecord
  2
LC-002-002-----0
 70
     0
 62
     7
  6
Continuous
370
    -3
390
F
  0
LAYER
  5
48
330
2
100
AcDbSymbolTableRecord
100
AcDbLayerTableRecord
  2
LC-002-002-RND-0
 70
     0
 62
     7
  6
Continuous
370
    -3
390
F
  0
LAYER
  5
49
330
2
100
AcDbSymbolTableRecord
100
AcDbLayerTableRecord
  2
LC-003-002-RND-0
 70
     0
 62
     7
  6
Continuous
370
    -3
390
F
  0
LAYER
  5
4A
330
2
100
AcDbSymbolTableRecord
100
AcDbLayerTableRecord
  2
LC-005-002-----0
 70
     0
 62
     7
  6
Continuous
370
    -3
390
F
  0
LAYER
  5
4B
330
2
100
AcDbSymbolTableRecord
100
AcDbLayerTableRecord
  2
LC-005-003-----0
 70
     0
 62
     7
  6
Continuous
370
    -3
390
F
  0
LAYER
  5
4C
330
2
100
AcDbSymbolTableRecord
100
AcDbLayerTableRecord
  2
LC-006-002-----0
 70
     0
 62
     7
  6
Continuous
370
    -3
390
F
  0
LAYER
  5
4D
330
2
100
AcDbSymbolTableRecord
100
AcDbLayerTableRecord
  2
LC-006-003-----0
 70
     0
 62
     7
  6
Continuous
370
    -3
390
F
  0
LAYER
  5
4E
330
2
100
AcDbSymbolTableRecord
100
AcDbLayerTableRecord
  2
LC-006-005-----0
 70
     0
 62
     7
  6
Continuous
370
    -3
390
F
  0
LAYER
  5
4F
330
2
100
AcDbSymbolTableRecord
100
AcDbLayerTableRecord
  2
LC-007-006-MLN-0
 70
     0
 62
     7
  6
Continuous
370
    -3
390
F
  0
ENDTAB
  0
TABLE
  2
STYLE
  5
3
330
0
100
AcDbSymbolTable
 70
     2
  0
STYLE
  5
11
330
3
100
AcDbSymbolTableRecord
100
AcDbTextStyleTableRecord
  2
Standard
 70
     0
 40
0.0
 41
1.0
 50
0.0
 71
     0
 42
0.2
  3
txt
  4

  0
STYLE
  5
51F
330
3
100
AcDbSymbolTableRecord
100
AcDbTextStyleTableRecord
  2
CONVERTER_11
 70
     0
 40
0.0
 41
0.9
 50
0.0
 71
     0
 42
0.2
  3
txt.shx
  4

  0
ENDTAB
  0
TABLE
  2
VIEW
  5
6
330
0
100
AcDbSymbolTable
 70
     0
  0
ENDTAB
  0
TABLE
  2
UCS
  5
7
330
0
100
AcDbSymbolTable
 70
     0
  0
ENDTAB
  0
TABLE
  2
APPID
  5
9
330
0
100
AcDbSymbolTable
 70
     1
  0
APPID
  5
12
330
9
100
AcDbSymbolTableRecord
100
AcDbRegAppTableRecord
  2
ACAD
 70
     0
  0
ENDTAB
  0
TABLE
  2
DIMSTYLE
  5
A
330
0
100
AcDbSymbolTable
 70
     7
100
AcDbDimStyleTable
  0
DIMSTYLE
105
27
330
A
100
AcDbSymbolTableRecord
100
AcDbDimStyleTableRecord
  2
Standard
 70
     0
340
11
  0
DIMSTYLE
105
523
102
{ACAD_REACTORS
330
524
102
}
330
A
100
AcDbSymbolTableRecord
100
AcDbDimStyleTableRecord
  2
ME10_DIM_10
 70
     0
  3
Ø<>
 41
12.0
 42
0.0
 44
2.0
 73
     0
 74
     0
 77
     1
 78
     8
140
12.0
147
2.0
172
     1
173
     1
176
     4
177
     4
178
     1
271
     2
340
51F
  0
DIMSTYLE
105
52F
102
{ACAD_REACTORS
330
530
102
}
330
A
100
AcDbSymbolTableRecord
100
AcDbDimStyleTableRecord
  2
ME10_DIM_11
 70
     0
  3
Ø<>
 41
12.0
 42
0.0
 44
2.0
 73
     0
 74
     0
 77
     1
 78
     8
140
12.0
147
2.0
172
     1
173
     1
176
     4
177
     4
178
     1
271
     2
279
     1
340
51F
  0
DIMSTYLE
105
53A
102
{ACAD_REACTORS
330
53B
102
}
330
A
100
AcDbSymbolTableRecord
100
AcDbDimStyleTableRecord
  2
ME10_DIM_12
 70
     0
  3
DN<>
 41
12.0
 42
0.0
 44
2.0
 73
     0
 74
     0
 77
     1
 78
     8
140
12.0
147
2.0
172
     1
173
     1
176
     4
177
     4
178
     1
271
     2
340
51F
  0
DIMSTYLE
105
545
102
{ACAD_REACTORS
330
546
102
}
330
A
100
AcDbSymbolTableRecord
100
AcDbDimStyleTableRecord
  2
ME10_DIM_13
 70
     0
 41
12.0
 42
0.0
 44
2.0
 73
     0
 74
     0
 77
     1
 78
     8
140
12.0
147
2.0
172
     1
173
     1
176
     4
177
     4
178
     1
271
     1
340
51F
  0
DIMSTYLE
105
550
102
{ACAD_REACTORS
330
551
102
}
330
A
100
AcDbSymbolTableRecord
100
AcDbDimStyleTableRecord
  2
ME10_DIM_14
 70
     0
 41
12.0
 42
0.0
 44
2.0
 73
     0
 74
     0
 77
     1
 78
     8
140
12.0
147
2.0
172
     1
173
     1
176
     4
177
     4
178
     1
271
     0
340
51F
  0
DIMSTYLE
105
55B
102
{ACAD_REACTORS
330
55C
102
}
330
A
100
AcDbSymbolTableRecord
100
AcDbDimStyleTableRecord
  2
ME10_DIM_15
 70
     0
 41
12.0
 42
0.0
 44
2.0
 73
     0
 74
     0
 77
     1
 78
     8
140
12.0
147
2.0
172
     1
173
     1
176
     4
177
     4
178
     1
271
     2
340
51F
  0
ENDTAB
  0
TABLE
  2
BLOCK_RECORD
  5
1
330
0
100
AcDbSymbolTable
 70
    12
  0
BLOCK_RECORD
  5
1F
330
1
100
AcDbSymbolTableRecord
100
AcDbBlockTableRecord
  2
*Model_Space
340
22
  0
BLOCK_RECORD
  5
1B
330
1
100
AcDbSymbolTableRecord
100
AcDbBlockTableRecord
  2
*Paper_Space
340
1E
  0
BLOCK_RECORD
  5
23
330
1
100
AcDbSymbolTableRecord
100
AcDbBlockTableRecord
  2
*Paper_Space0
340
26
  0
BLOCK_RECORD
  5
50
330
1
100
AcDbSymbolTableRecord
100
AcDbBlockTableRecord
  2
HL69_1
340
0
102
{BLKREFS
331
5F
102
}
  0
BLOCK_RECORD
  5
53
330
1
100
AcDbSymbolTableRecord
100
AcDbBlockTableRecord
  2
PVC_Manschette
340
0
102
{BLKREFS
331
60
102
}
  0
BLOCK_RECORD
  5
56
330
1
100
AcDbSymbolTableRecord
100
AcDbBlockTableRecord
  2
062_1E_Laubfangkorb
340
0
102
{BLKREFS
331
61
102
}
  0
BLOCK_RECORD
  5
59
330
1
100
AcDbSymbolTableRecord
100
AcDbBlockTableRecord
  2
Bauschutz_062_9E
340
0
102
{BLKREFS
331
62
102
}
  0
BLOCK_RECORD
  5
5C
330
1
100
AcDbSymbolTableRecord
100
AcDbBlockTableRecord
  2
Draufsicht
340
0
102
{BLKREFS
331
63
102
}
  0
BLOCK_RECORD
  5
519
330
1
100
AcDbSymbolTableRecord
100
AcDbBlockTableRecord
  2
*D6
340
0
  0
BLOCK_RECORD
  5
525
330
1
100
AcDbSymbolTableRecord
100
AcDbBlockTableRecord
  2
*D7
340
0
  0
BLOCK_RECORD
  5
531
330
1
100
AcDbSymbolTableRecord
100
AcDbBlockTableRecord
  2
*D8
340
0
  0
BLOCK_RECORD
  5
53C
330
1
100
AcDbSymbolTableRecord
100
AcDbBlockTableRecord
  2
*D9
340
0
  0
BLOCK_RECORD
  5
547
330
1
100
AcDbSymbolTableRecord
100
AcDbBlockTableRecord
  2
*D10
340
0
  0
BLOCK_RECORD
  5
552
330
1
100
AcDbSymbolTableRecord
100
AcDbBlockTableRecord
  2
*D11
340
0
  0
ENDTAB
  0
ENDSEC
  0
SECTION
  2
BLOCKS
  0
BLOCK
  5
20
330
1F
100
AcDbEntity
  8
0
100
AcDbBlockBegin
  2
*Model_Space
 70
     0
 71
     0
 10
0.0
 20
0.0
 30
0.0
  3
*Model_Space
  1

  0
ENDBLK
  5
21
330
1F
100
AcDbEntity
  8
0
100
AcDbBlockEnd
  0
BLOCK
  5
1C
330
1B
100
AcDbEntity
 67
     1
  8
0
100
AcDbBlockBegin
  2
*Paper_Space
 70
     0
 71
     0
 10
0.0
 20
0.0
 30
0.0
  3
*Paper_Space
  1

  0
ENDBLK
  5
1D
330
1B
100
AcDbEntity
 67
     1
  8
0
100
AcDbBlockEnd
  0
BLOCK
  5
24
330
23
100
AcDbEntity
  8
0
100
AcDbBlockBegin
  2
*Paper_Space0
 70
     0
 71
     0
 10
0.0
 20
0.0
 30
0.0
  3
*Paper_Space0
  1

  0
ENDBLK
  5
25
330
23
100
AcDbEntity
  8
0
100
AcDbBlockEnd
  0
BLOCK
  5
51
330
50
100
AcDbEntity
  8
0
100
AcDbBlockBegin
  2
HL69_1
 70
     0
 71
     0
 10
225.1036716185855
 20
194.0560180000001
 30
0.0
  3
HL69_1
  1

  0
POINT
  5
64
330
50
100
AcDbEntity
  8
LC-005-003-----0
 62
     7
100
AcDbPoint
 10
286.6032551059948
 20
-35.9782540000009
 30
0.0
  0
POINT
  5
65
330
50
100
AcDbEntity
  8
LC-005-003-----0
 62
     7
100
AcDbPoint
 10
163.6039401059938
 20
-36.00442200000123
 30
0.0
  0
POINT
  5
66
330
50
100
AcDbEntity
  8
LC-005-003-----0
 62
     7
100
AcDbPoint
 10
270.1039401059938
 20
-45.06158799999992
 30
0.0
  0
POINT
  5
67
330
50
100
AcDbEntity
  8
LC-005-003-----0
 62
     7
100
AcDbPoint
 10
180.1039401059938
 20
-45.06158799999992
 30
0.0
  0
POINT
  5
68
330
50
100
AcDbEntity
  8
LC-005-003-----0
 62
     7
100
AcDbPoint
 10
226.0010541059933
 20
-49.56158799999992
 30
0.0
  0
POINT
  5
69
330
50
100
AcDbEntity
  8
LC-005-003-----0
 62
     7
100
AcDbPoint
 10
226.0010541059933
 20
-49.56158799999992
 30
0.0
  0
POINT
  5
6A
330
50
100
AcDbEntity
  8
LC-006-003-----0
 62
     7
100
AcDbPoint
 10
298.6038036185855
 20
365.438412
 30
0.0
  0
POINT
  5
6B
330
50
100
AcDbEntity
  8
LC-006-003-----0
 62
     7
100
AcDbPoint
 10
151.6038036185855
 20
365.438412
 30
0.0
  0
POINT
  5
6C
330
50
100
AcDbEntity
  8
LC-006-003-----0
 62
     7
100
AcDbPoint
 10
305.3538056185855
 20
365.438412
 30
0.0
  0
LINE
  5
6D
330
50
100
AcDbEntity
  8
LC-001-002-----0
  6
Continuous
 62
     7
100
AcDbLine
 10
179.1039401059938
 20
236.2592239999983
 30
0.0
 11
179.1039401059938
 21
256.9398339999977
 31
0.0
  0
LINE
  5
6E
330
50
100
AcDbEntity
  8
LC-001-002-----0
  6
Continuous
 62
     7
100
AcDbLine
 10
271.1039401059938
 20
236.2592239999983
 30
0.0
 11
271.1039401059938
 21
256.9398339999977
 31
0.0
  0
LINE
  5
6F
330
50
100
AcDbEntity
  8
LC-001-002-----0
  6
Continuous
 62
     7
100
AcDbLine
 10
164.0516761059921
 20
259.4222949999973
 30
0.0
 11
178.208469105994
 21
257.9343559999986
 31
0.0
  0
LINE
  5
70
330
50
100
AcDbEntity
  8
LC-001-002-----0
  6
Continuous
 62
     7
100
AcDbLine
 10
179.1039401059938
 20
257.9343559999986
 30
0.0
 11
271.1039401059938
 21
257.9343559999986
 31
0.0
  0
LINE
  5
71
330
50
100
AcDbEntity
  8
LC-001-002-----0
  6
Continuous
 62
     7
100
AcDbLine
 10
286.1039401059938
 20
260.4195559999978
 30
0.0
 11
164.1039401059938
 21
260.4195559999978
 31
0.0
  0
LINE
  5
72
330
50
100
AcDbEntity
  8
LC-001-002-----0
  6
Continuous
 62
     7
100
AcDbLine
 10
286.156204105992
 20
259.4222949999973
 30
0.0
 11
271.999412105994
 21
257.9343559999986
 31
0.0
  0
LINE
  5
73
330
50
100
AcDbEntity
  8
LC-001-002-----0
  6
Continuous
 62
     7
100
AcDbLine
 10
179.1039401059938
 20
211.5988919999988
 30
0.0
 11
179.1039401059938
 21
232.2795019999982
 31
0.0
  0
LINE
  5
74
330
50
100
AcDbEntity
  8
LC-001-002-----0
  6
Continuous
 62
     7
100
AcDbLine
 10
271.1039401059938
 20
211.5988919999988
 30
0.0
 11
271.1039401059938
 21
232.2795019999982
 31
0.0
  0
LINE
  5
75
330
50
100
AcDbEntity
  8
LC-001-002-----0
  6
Continuous
 62
     7
100
AcDbLine
 10
286.156204105992
 20
234.7619629999978
 30
0.0
 11
271.999412105994
 21
233.2740239999991
 31
0.0
  0
LINE
  5
76
330
50
100
AcDbEntity
  8
LC-001-002-----0
  6
Continuous
 62
     7
100
AcDbLine
 10
286.1039401059938
 20
235.7592239999983
 30
0.0
 11
164.1039401059938
 21
235.7592239999983
 31
0.0
  0
LINE
  5
77
330
50
100
AcDbEntity
  8
LC-001-002-----0
  6
Continuous
 62
     7
100
AcDbLine
 10
179.1039401059938
 20
233.2740239999991
 30
0.0
 11
271.1039401059938
 21
233.2740239999991
 31
0.0
  0
LINE
  5
78
330
50
100
AcDbEntity
  8
LC-001-002-----0
  6
Continuous
 62
     7
100
AcDbLine
 10
164.0516761059921
 20
234.7619629999978
 30
0.0
 11
178.208469105994
 21
233.2740239999991
 31
0.0
  0
LINE
  5
79
330
50
100
AcDbEntity
  8
LC-001-002-----0
  6
Continuous
 62
     7
100
AcDbLine
 10
179.1039401059938
 20
186.9385599999993
 30
0.0
 11
179.1039401059938
 21
207.6191699999987
 31
0.0
  0
LINE
  5
7A
330
50
100
AcDbEntity
  8
LC-001-002-----0
  6
Continuous
 62
     7
100
AcDbLine
 10
271.1039401059938
 20
186.9385599999993
 30
0.0
 11
271.1039401059938
 21
207.6191699999987
 31
0.0
  0
LINE
  5
7B
330
50
100
AcDbEntity
  8
LC-001-002-----0
  6
Continuous
 62
     7
100
AcDbLine
 10
164.0516761059921
 20
210.1016309999983
 30
0.0
 11
178.208469105994
 21
208.6136919999996
 31
0.0
  0
LINE
  5
7C
330
50
100
AcDbEntity
  8
LC-001-002-----0
  6
Continuous
 62
     7
100
AcDbLine
 10
179.1039401059938
 20
208.6136919999996
 30
0.0
 11
271.1039401059938
 21
208.6136919999996
 31
0.0
  0
LINE
  5
7D
330
50
100
AcDbEntity
  8
LC-001-002-----0
  6
Continuous
 62
     7
100
AcDbLine
 10
286.1039401059938
 20
211.0988919999988
 30
0.0
 11
164.1039401059938
 21
211.0988919999988
 31
0.0
  0
LINE
  5
7E
330
50
100
AcDbEntity
  8
LC-001-002-----0
  6
Continuous
 62
     7
100
AcDbLine
 10
286.156204105992
 20
210.1016309999983
 30
0.0
 11
271.999412105994
 21
208.6136919999996
 31
0.0
  0
LINE
  5
7F
330
50
100
AcDbEntity
  8
1
  6
Continuous
 62
     7
100
AcDbLine
 10
123.6001916185855
 20
382.131187
 30
0.0
 11
326.6072356193428
 21
382.131187
 31
0.0
  0
LINE
  5
80
330
50
100
AcDbEntity
  8
1
  6
Continuous
 62
     7
100
AcDbLine
 10
305.8538056185855
 20
368.438412
 30
0.0
 11
144.3538056185855
 21
368.438412
 31
0.0
  0
LINE
  5
81
330
50
100
AcDbEntity
  8
1
  6
Continuous
 62
     7
100
AcDbLine
 10
162.1037986185855
 20
314.438066
 30
0.0
 11
288.1038086185856
 21
314.438066
 31
0.0
  0
LINE
  5
82
330
50
100
AcDbEntity
  8
1
  6
PHANTOM
 62
     2
100
AcDbLine
 10
225.1038217178107
 20
311.4368580000015
 30
0.0
 11
225.1038217178107
 21
-54.97490027202564
 31
0.0
  0
LINE
  5
83
330
50
100
AcDbEntity
  8
LC-002-002-----0
  6
DASHDOT
 62
     2
100
AcDbLine
 10
225.1035776185855
 20
481.6035299999999
 30
0.0
 11
225.1037956185855
 21
311.438066
 31
0.0
  0
LINE
  5
84
330
50
100
AcDbEntity
  8
1
  6
PHANTOM
 62
     2
100
AcDbLine
 10
225.103914994391
 20
-69.56139916325269
 30
0.0
 11
225.1039479637234
 21
-93.56723930759597
 31
0.0
  0
LINE
  5
85
330
50
100
AcDbEntity
  8
LC-001-002-----0
  6
Continuous
 62
     7
100
AcDbLine
 10
179.1039401059938
 20
-13.32929100000126
 30
0.0
 11
271.1039401059938
 21
-13.32929100000126
 31
0.0
  0
LINE
  5
86
330
50
100
AcDbEntity
  8
LC-001-002-----0
  6
Continuous
 62
     7
100
AcDbLine
 10
179.1039401059938
 20
11.33104000000151
 30
0.0
 11
271.1039401059938
 21
11.33104000000151
 31
0.0
  0
LINE
  5
87
330
50
100
AcDbEntity
  8
LC-001-002-----0
  6
Continuous
 62
     7
100
AcDbLine
 10
164.1039401059938
 20
112.4575660000015
 30
0.0
 11
271.6039401059938
 21
112.4575660000015
 31
0.0
  0
LINE
  5
88
330
50
100
AcDbEntity
  8
LC-001-002-----0
  6
Continuous
 62
     7
100
AcDbLine
 10
179.1039401059938
 20
35.99137200000098
 30
0.0
 11
271.1039401059938
 21
35.99137200000098
 31
0.0
  0
LINE
  5
89
330
50
100
AcDbEntity
  8
LC-001-002-----0
  6
Continuous
 62
     7
100
AcDbLine
 10
179.1039401059938
 20
60.65170300000011
 30
0.0
 11
271.1039401059938
 21
60.65170300000011
 31
0.0
  0
LINE
  5
8A
330
50
100
AcDbEntity
  8
LC-001-002-----0
  6
Continuous
 62
     7
100
AcDbLine
 10
179.1039401059938
 20
85.31203399999924
 30
0.0
 11
271.1039401059938
 21
85.31203399999924
 31
0.0
  0
LINE
  5
8B
330
50
100
AcDbEntity
  8
LC-001-002-----0
  6
Continuous
 62
     7
100
AcDbLine
 10
179.1039401059938
 20
109.9723659999987
 30
0.0
 11
271.1039401059938
 21
109.9723659999987
 31
0.0
  0
LINE
  5
8C
330
50
100
AcDbEntity
  8
LC-001-002-----0
  6
Continuous
 62
     7
100
AcDbLine
 10
179.1039401059938
 20
134.6326970000015
 30
0.0
 11
271.1039401059938
 21
134.6326970000015
 31
0.0
  0
LINE
  5
8D
330
50
100
AcDbEntity
  8
LC-001-002-----0
  6
Continuous
 62
     7
100
AcDbLine
 10
179.1039401059938
 20
159.2930280000006
 30
0.0
 11
271.1039401059938
 21
159.2930280000006
 31
0.0
  0
LINE
  5
8E
330
50
100
AcDbEntity
  8
LC-001-002-----0
  6
Continuous
 62
     7
100
AcDbLine
 10
179.1039401059938
 20
183.9533600000001
 30
0.0
 11
271.1039401059938
 21
183.9533600000001
 31
0.0
  0
LINE
  5
8F
330
50
100
AcDbEntity
  8
LC-001-002-----0
  6
Continuous
 62
     7
100
AcDbLine
 10
179.1039401059938
 20
-38.98414400000127
 30
0.0
 11
271.1039401059938
 21
-38.98414400000127
 31
0.0
  0
LINE
  5
90
330
50
100
AcDbEntity
  8
LC-001-002-----0
  6
Continuous
 62
     7
100
AcDbLine
 10
270.1039401059938
 20
-39.56158799999992
 30
0.0
 11
180.1039401059938
 21
-39.56158799999992
 31
0.0
  0
LINE
  5
91
330
50
100
AcDbEntity
  8
LC-001-002-----0
  6
Continuous
 62
     7
100
AcDbLine
 10
178.6039401059938
 20
-35.50442200000123
 30
0.0
 11
271.6039401059938
 21
-35.50442200000123
 31
0.0
  0
LINE
  5
92
330
50
100
AcDbEntity
  8
LC-001-002-----0
  6
Continuous
 62
     7
100
AcDbLine
 10
180.1039401059938
 20
-45.06158799999992
 30
0.0
 11
270.1039401059938
 21
-45.06158799999992
 31
0.0
  0
LINE
  5
93
330
50
100
AcDbEntity
  8
LC-001-002-----0
  6
Continuous
 62
     7
100
AcDbLine
 10
270.1039401059938
 20
-39.56158799999992
 30
0.0
 11
270.1039401059938
 21
-45.06158799999992
 31
0.0
  0
LINE
  5
94
330
50
100
AcDbEntity
  8
LC-001-002-----0
  6
Continuous
 62
     7
100
AcDbLine
 10
180.1039401059938
 20
-39.56158799999992
 30
0.0
 11
180.1039401059938
 21
-45.06158799999992
 31
0.0
  0
LINE
  5
95
330
50
100
AcDbEntity
  8
LC-001-002-----0
  6
Continuous
 62
     7
100
AcDbLine
 10
225.1039401059938
 20
-49.56158799999992
 30
0.0
 11
183.1039401059938
 21
-49.56158799999992
 31
0.0
  0
LINE
  5
96
330
50
100
AcDbEntity
  8
LC-001-002-----0
  6
Continuous
 62
     7
100
AcDbLine
 10
164.1039401059938
 20
137.1178970000007
 30
0.0
 11
271.6039401059938
 21
137.1178970000007
 31
0.0
  0
LINE
  5
97
330
50
100
AcDbEntity
  8
LC-001-002-----0
  6
Continuous
 62
     7
100
AcDbLine
 10
164.0516761059921
 20
185.4412989999988
 30
0.0
 11
178.208469105994
 21
183.9533600000001
 31
0.0
  0
LINE
  5
98
330
50
100
AcDbEntity
  8
LC-001-002-----0
  6
Continuous
 62
     7
100
AcDbLine
 10
178.6039401059938
 20
112.4575660000015
 30
0.0
 11
164.1039401059938
 21
112.4575660000015
 31
0.0
  0
LINE
  5
99
330
50
100
AcDbEntity
  8
LC-001-002-----0
  6
Continuous
 62
     7
100
AcDbLine
 10
271.6039401059938
 20
87.79723399999841
 30
0.0
 11
164.1039401059938
 21
87.79723399999841
 31
0.0
  0
LINE
  5
9A
330
50
100
AcDbEntity
  8
LC-001-002-----0
  6
Continuous
 62
     7
100
AcDbLine
 10
179.1039401059938
 20
-39.06158799999992
 30
0.0
 11
179.6039401059938
 21
-39.56158799999992
 31
0.0
  0
LINE
  5
9B
330
50
100
AcDbEntity
  8
LC-001-002-----0
  6
Continuous
 62
     7
100
AcDbLine
 10
179.6039401059938
 20
-39.56158799999992
 30
0.0
 11
180.1039401059938
 21
-39.56158799999992
 31
0.0
  0
LINE
  5
9C
330
50
100
AcDbEntity
  8
LC-001-002-----0
  6
Continuous
 62
     7
100
AcDbLine
 10
179.1039401059938
 20
-10.34409099999846
 30
0.0
 11
179.1039401059938
 21
10.33651900000098
 31
0.0
  0
LINE
  5
9D
330
50
100
AcDbEntity
  8
LC-001-002-----0
  6
Continuous
 62
     7
100
AcDbLine
 10
270.6039401059938
 20
-39.56158799999992
 30
0.0
 11
270.1039401059938
 21
-39.56158799999992
 31
0.0
  0
LINE
  5
9E
330
50
100
AcDbEntity
  8
LC-001-002-----0
  6
Continuous
 62
     7
100
AcDbLine
 10
179.1039401059938
 20
14.31624000000068
 30
0.0
 11
179.1039401059938
 21
34.99685000000011
 31
0.0
  0
LINE
  5
9F
330
50
100
AcDbEntity
  8
LC-001-002-----0
  6
Continuous
 62
     7
100
AcDbLine
 10
179.1039401059938
 20
38.97657200000015
 30
0.0
 11
179.1039401059938
 21
59.65718099999924
 31
0.0
  0
LINE
  5
A0
330
50
100
AcDbEntity
  8
LC-001-002-----0
  6
Continuous
 62
     7
100
AcDbLine
 10
286.1039401059938
 20
186.4385599999993
 30
0.0
 11
164.1039401059938
 21
186.4385599999993
 31
0.0
  0
LINE
  5
A1
330
50
100
AcDbEntity
  8
LC-001-002-----0
  6
Continuous
 62
     7
100
AcDbLine
 10
178.6039401059938
 20
63.13690299999928
 30
0.0
 11
164.1039401059938
 21
63.13690299999928
 31
0.0
  0
LINE
  5
A2
330
50
100
AcDbEntity
  8
LC-001-002-----0
  6
Continuous
 62
     7
100
AcDbLine
 10
286.1039401059938
 20
137.1178970000007
 30
0.0
 11
271.6039401059938
 21
137.1178970000007
 31
0.0
  0
LINE
  5
A3
330
50
100
AcDbEntity
  8
LC-001-002-----0
  6
Continuous
 62
     7
100
AcDbLine
 10
286.156204105992
 20
185.4412989999988
 30
0.0
 11
271.999412105994
 21
183.9533600000001
 31
0.0
  0
LINE
  5
A4
330
50
100
AcDbEntity
  8
LC-001-002-----0
  6
Continuous
 62
     7
100
AcDbLine
 10
179.1039401059938
 20
63.63690299999928
 30
0.0
 11
179.1039401059938
 21
84.31751299999871
 31
0.0
  0
LINE
  5
A5
330
50
100
AcDbEntity
  8
LC-001-002-----0
  6
Continuous
 62
     7
100
AcDbLine
 10
271.6039401059938
 20
38.47657200000015
 30
0.0
 11
164.1039401059938
 21
38.47657200000015
 31
0.0
  0
LINE
  5
A6
330
50
100
AcDbEntity
  8
LC-001-002-----0
  6
Continuous
 62
     7
100
AcDbLine
 10
178.6039401059938
 20
13.81624000000068
 30
0.0
 11
164.1039401059938
 21
13.81624000000068
 31
0.0
  0
LINE
  5
A7
330
50
100
AcDbEntity
  8
LC-001-002-----0
  6
Continuous
 62
     7
100
AcDbLine
 10
178.6039401059938
 20
112.4575660000015
 30
0.0
 11
286.1039401059938
 21
112.4575660000015
 31
0.0
  0
LINE
  5
A8
330
50
100
AcDbEntity
  8
LC-001-002-----0
  6
Continuous
 62
     7
100
AcDbLine
 10
271.6039401059938
 20
87.79723399999841
 30
0.0
 11
286.1039401059938
 21
87.79723399999841
 31
0.0
  0
LINE
  5
A9
330
50
100
AcDbEntity
  8
LC-001-002-----0
  6
Continuous
 62
     7
100
AcDbLine
 10
271.1039401059938
 20
-39.06158799999992
 30
0.0
 11
270.6039401059938
 21
-39.56158799999992
 31
0.0
  0
LINE
  5
AA
330
50
100
AcDbEntity
  8
LC-001-002-----0
  6
Continuous
 62
     7
100
AcDbLine
 10
271.1039401059938
 20
-10.34409099999846
 30
0.0
 11
271.1039401059938
 21
10.33651900000098
 31
0.0
  0
LINE
  5
AB
330
50
100
AcDbEntity
  8
LC-001-002-----0
  6
Continuous
 62
     7
100
AcDbLine
 10
271.6039401059938
 20
-10.84409099999846
 30
0.0
 11
164.1039401059938
 21
-10.84409099999846
 31
0.0
  0
LINE
  5
AC
330
50
100
AcDbEntity
  8
LC-001-002-----0
  6
Continuous
 62
     7
100
AcDbLine
 10
271.1039401059938
 20
14.31624000000068
 30
0.0
 11
271.1039401059938
 21
34.99685000000011
 31
0.0
  0
LINE
  5
AD
330
50
100
AcDbEntity
  8
LC-001-002-----0
  6
Continuous
 62
     7
100
AcDbLine
 10
271.1039401059938
 20
38.97657200000015
 30
0.0
 11
271.1039401059938
 21
59.65718099999924
 31
0.0
  0
LINE
  5
AE
330
50
100
AcDbEntity
  8
LC-001-002-----0
  6
Continuous
 62
     7
100
AcDbLine
 10
178.6039401059938
 20
63.13690299999928
 30
0.0
 11
286.1039401059938
 21
63.13690299999928
 31
0.0
  0
LINE
  5
AF
330
50
100
AcDbEntity
  8
LC-001-002-----0
  6
Continuous
 62
     7
100
AcDbLine
 10
271.1039401059938
 20
63.63690299999928
 30
0.0
 11
271.1039401059938
 21
84.31751299999871
 31
0.0
  0
LINE
  5
B0
330
50
100
AcDbEntity
  8
LC-001-002-----0
  6
Continuous
 62
     7
100
AcDbLine
 10
179.1039401059938
 20
88.29723399999841
 30
0.0
 11
179.1039401059938
 21
108.9778440000015
 31
0.0
  0
LINE
  5
B1
330
50
100
AcDbEntity
  8
LC-001-002-----0
  6
Continuous
 62
     7
100
AcDbLine
 10
271.6039401059938
 20
38.47657200000015
 30
0.0
 11
286.1039401059938
 21
38.47657200000015
 31
0.0
  0
LINE
  5
B2
330
50
100
AcDbEntity
  8
LC-001-002-----0
  6
Continuous
 62
     7
100
AcDbLine
 10
179.1039401059938
 20
112.9575660000015
 30
0.0
 11
179.1039401059938
 21
133.6381750000006
 31
0.0
  0
LINE
  5
B3
330
50
100
AcDbEntity
  8
LC-001-002-----0
  6
Continuous
 62
     7
100
AcDbLine
 10
178.6039401059938
 20
-35.50442200000123
 30
0.0
 11
164.1039401059938
 21
-35.50442200000123
 31
0.0
  0
LINE
  5
B4
330
50
100
AcDbEntity
  8
LC-001-002-----0
  6
Continuous
 62
     7
100
AcDbLine
 10
178.6039401059938
 20
13.81624000000068
 30
0.0
 11
286.1039401059938
 21
13.81624000000068
 31
0.0
  0
LINE
  5
B5
330
50
100
AcDbEntity
  8
LC-001-002-----0
  6
Continuous
 62
     7
100
AcDbLine
 10
179.1039401059938
 20
-35.00442200000123
 30
0.0
 11
179.1039401059938
 21
-14.3238129999985
 31
0.0
  0
LINE
  5
B6
330
50
100
AcDbEntity
  8
LC-001-002-----0
  6
Continuous
 62
     7
100
AcDbLine
 10
271.6039401059938
 20
-10.84409099999846
 30
0.0
 11
286.1039401059938
 21
-10.84409099999846
 31
0.0
  0
LINE
  5
B7
330
50
100
AcDbEntity
  8
LC-001-002-----0
  6
Continuous
 62
     7
100
AcDbLine
 10
271.1039401059938
 20
88.29723399999841
 30
0.0
 11
271.1039401059938
 21
108.9778440000015
 31
0.0
  0
LINE
  5
B8
330
50
100
AcDbEntity
  8
LC-001-002-----0
  6
Continuous
 62
     7
100
AcDbLine
 10
271.1039401059938
 20
112.9575660000015
 30
0.0
 11
271.1039401059938
 21
133.6381750000006
 31
0.0
  0
LINE
  5
B9
330
50
100
AcDbEntity
  8
LC-001-002-----0
  6
Continuous
 62
     7
100
AcDbLine
 10
271.6039401059938
 20
-35.50442200000123
 30
0.0
 11
286.1039401059938
 21
-35.50442200000123
 31
0.0
  0
LINE
  5
BA
330
50
100
AcDbEntity
  8
LC-001-002-----0
  6
Continuous
 62
     7
100
AcDbLine
 10
271.1039401059938
 20
-35.00442200000123
 30
0.0
 11
271.1039401059938
 21
-14.3238129999985
 31
0.0
  0
LINE
  5
BB
330
50
100
AcDbEntity
  8
LC-001-002-----0
  6
Continuous
 62
     7
100
AcDbLine
 10
271.1039401059938
 20
162.2782279999998
 30
0.0
 11
271.1039401059938
 21
182.9588379999992
 31
0.0
  0
LINE
  5
BC
330
50
100
AcDbEntity
  8
LC-001-002-----0
  6
Continuous
 62
     7
100
AcDbLine
 10
271.1039401059938
 20
137.6178970000007
 30
0.0
 11
271.1039401059938
 21
158.2985070000001
 31
0.0
  0
LINE
  5
BD
330
50
100
AcDbEntity
  8
LC-001-002-----0
  6
Continuous
 62
     7
100
AcDbLine
 10
286.156204105992
 20
-36.50168300000166
 30
0.0
 11
271.999412105994
 21
-37.9896220000004
 31
0.0
  0
LINE
  5
BE
330
50
100
AcDbEntity
  8
LC-001-002-----0
  6
Continuous
 62
     7
100
AcDbLine
 10
286.156204105992
 20
-11.84135199999889
 30
0.0
 11
271.999412105994
 21
-13.32929100000126
 31
0.0
  0
LINE
  5
BF
330
50
100
AcDbEntity
  8
LC-001-002-----0
  6
Continuous
 62
     7
100
AcDbLine
 10
286.156204105992
 20
12.81897900000024
 30
0.0
 11
271.999412105994
 21
11.33104000000151
 31
0.0
  0
LINE
  5
C0
330
50
100
AcDbEntity
  8
LC-001-002-----0
  6
Continuous
 62
     7
100
AcDbLine
 10
286.156204105992
 20
37.47931099999971
 30
0.0
 11
271.999412105994
 21
35.99137200000098
 31
0.0
  0
LINE
  5
C1
330
50
100
AcDbEntity
  8
LC-001-002-----0
  6
Continuous
 62
     7
100
AcDbLine
 10
286.156204105992
 20
62.13964199999884
 30
0.0
 11
271.999412105994
 21
60.65170300000011
 31
0.0
  0
LINE
  5
C2
330
50
100
AcDbEntity
  8
LC-001-002-----0
  6
Continuous
 62
     7
100
AcDbLine
 10
286.1039401059938
 20
161.7782279999998
 30
0.0
 11
178.6039401059938
 21
161.7782279999998
 31
0.0
  0
LINE
  5
C3
330
50
100
AcDbEntity
  8
LC-001-002-----0
  6
Continuous
 62
     7
100
AcDbLine
 10
286.156204105992
 20
86.79997300000161
 30
0.0
 11
271.999412105994
 21
85.31203399999924
 31
0.0
  0
LINE
  5
C4
330
50
100
AcDbEntity
  8
LC-001-002-----0
  6
Continuous
 62
     7
100
AcDbLine
 10
286.156204105992
 20
111.4603050000011
 30
0.0
 11
271.999412105994
 21
109.9723659999987
 31
0.0
  0
LINE
  5
C5
330
50
100
AcDbEntity
  8
LC-001-002-----0
  6
Continuous
 62
     7
100
AcDbLine
 10
179.1039401059938
 20
162.2782279999998
 30
0.0
 11
179.1039401059938
 21
182.9588379999992
 31
0.0
  0
LINE
  5
C6
330
50
100
AcDbEntity
  8
LC-001-002-----0
  6
Continuous
 62
     7
100
AcDbLine
 10
179.1039401059938
 20
137.6178970000007
 30
0.0
 11
179.1039401059938
 21
158.2985070000001
 31
0.0
  0
LINE
  5
C7
330
50
100
AcDbEntity
  8
LC-001-002-----0
  6
Continuous
 62
     7
100
AcDbLine
 10
164.0516761059921
 20
-36.50168300000166
 30
0.0
 11
178.208469105994
 21
-37.9896220000004
 31
0.0
  0
LINE
  5
C8
330
50
100
AcDbEntity
  8
LC-001-002-----0
  6
Continuous
 62
     7
100
AcDbLine
 10
164.0516761059921
 20
-11.84135199999889
 30
0.0
 11
178.208469105994
 21
-13.32929100000126
 31
0.0
  0
LINE
  5
C9
330
50
100
AcDbEntity
  8
LC-001-002-----0
  6
Continuous
 62
     7
100
AcDbLine
 10
164.0516761059921
 20
12.81897900000024
 30
0.0
 11
178.208469105994
 21
11.33104000000151
 31
0.0
  0
LINE
  5
CA
330
50
100
AcDbEntity
  8
LC-001-002-----0
  6
Continuous
 62
     7
100
AcDbLine
 10
164.0516761059921
 20
37.47931099999971
 30
0.0
 11
178.208469105994
 21
35.99137200000098
 31
0.0
  0
LINE
  5
CB
330
50
100
AcDbEntity
  8
LC-001-002-----0
  6
Continuous
 62
     7
100
AcDbLine
 10
286.156204105992
 20
160.7809669999994
 30
0.0
 11
271.999412105994
 21
159.2930280000006
 31
0.0
  0
LINE
  5
CC
330
50
100
AcDbEntity
  8
LC-001-002-----0
  6
Continuous
 62
     7
100
AcDbLine
 10
164.0516761059921
 20
62.13964199999884
 30
0.0
 11
178.208469105994
 21
60.65170300000011
 31
0.0
  0
LINE
  5
CD
330
50
100
AcDbEntity
  8
LC-001-002-----0
  6
Continuous
 62
     7
100
AcDbLine
 10
164.1039401059938
 20
161.7782279999998
 30
0.0
 11
178.6039401059938
 21
161.7782279999998
 31
0.0
  0
LINE
  5
CE
330
50
100
AcDbEntity
  8
LC-001-002-----0
  6
Continuous
 62
     7
100
AcDbLine
 10
164.0516761059921
 20
86.79997300000161
 30
0.0
 11
178.208469105994
 21
85.31203399999924
 31
0.0
  0
LINE
  5
CF
330
50
100
AcDbEntity
  8
LC-001-002-----0
  6
Continuous
 62
     7
100
AcDbLine
 10
164.0516761059921
 20
111.4603050000011
 30
0.0
 11
178.208469105994
 21
109.9723659999987
 31
0.0
  0
LINE
  5
D0
330
50
100
AcDbEntity
  8
LC-001-002-----0
  6
Continuous
 62
     7
100
AcDbLine
 10
164.0516761059921
 20
160.7809669999994
 30
0.0
 11
178.208469105994
 21
159.2930280000006
 31
0.0
  0
LINE
  5
D1
330
50
100
AcDbEntity
  8
LC-001-002-----0
  6
Continuous
 62
     7
100
AcDbLine
 10
286.156204105992
 20
136.1206360000002
 30
0.0
 11
271.999412105994
 21
134.6326970000015
 31
0.0
  0
LINE
  5
D2
330
50
100
AcDbEntity
  8
LC-001-002-----0
  6
Continuous
 62
     7
100
AcDbLine
 10
164.0516761059921
 20
136.1206360000002
 30
0.0
 11
178.208469105994
 21
134.6326970000015
 31
0.0
  0
LINE
  5
D3
330
50
100
AcDbEntity
  8
LC-001-002-----0
  6
Continuous
 62
     7
100
AcDbLine
 10
179.1039401059938
 20
-38.98414400000127
 30
0.0
 11
179.1039401059938
 21
-39.06158799999992
 31
0.0
  0
LINE
  5
D4
330
50
100
AcDbEntity
  8
LC-001-002-----0
  6
Continuous
 62
     7
100
AcDbLine
 10
271.1039401059938
 20
-38.98414400000127
 30
0.0
 11
271.1039401059938
 21
-39.06158799999992
 31
0.0
  0
LINE
  5
D5
330
50
100
AcDbEntity
  8
LC-001-002-----0
  6
Continuous
 62
     7
100
AcDbLine
 10
267.1039401059938
 20
-49.56158799999992
 30
0.0
 11
268.898169105993
 21
-49.56158799999992
 31
0.0
  0
LINE
  5
D6
330
50
100
AcDbEntity
  8
LC-001-002-----0
  6
Continuous
 62
     7
100
AcDbLine
 10
183.1039401059938
 20
-49.56158799999992
 30
0.0
 11
181.3097111059947
 21
-49.56158799999992
 31
0.0
  0
LINE
  5
D7
330
50
100
AcDbEntity
  8
LC-001-002-----0
  6
Continuous
 62
     7
100
AcDbLine
 10
268.898169105993
 20
-49.56158799999992
 30
0.0
 11
225.1039401059938
 21
-49.56158799999992
 31
0.0
  0
LINE
  5
D8
330
50
100
AcDbEntity
  8
LC-001-002-----0
  6
Continuous
 62
     7
100
AcDbLine
 10
181.3097111059947
 20
-49.56158799999992
 30
0.0
 11
180.1039401059938
 21
-45.06158799999992
 31
0.0
  0
LINE
  5
D9
330
50
100
AcDbEntity
  8
LC-001-002-----0
  6
Continuous
 62
     7
100
AcDbLine
 10
268.898169105993
 20
-49.56158799999992
 30
0.0
 11
270.1039401059938
 21
-45.06158799999992
 31
0.0
  0
LINE
  5
DA
330
50
100
AcDbEntity
  8
LC-001-002-----0
  6
Continuous
 62
     7
100
AcDbLine
 10
225.1039401059938
 20
-49.56158799999992
 30
0.0
 11
267.1039401059938
 21
-49.56158799999992
 31
0.0
  0
LINE
  5
DB
330
50
100
AcDbEntity
  8
LC-005-002-----0
  6
Continuous
 62
     7
100
AcDbLine
 10
281.8380789945772
 20
-93.49276899999984
 30
0.0
 11
287.6039409945774
 21
-88.49276899999984
 31
0.0
  0
LWPOLYLINE
  5
DC
330
50
100
AcDbEntity
  8
LC-006-005-----0
  6
Continuous
 62
     3
100
AcDbPolyline
 90
        2
 70
     0
 43
1.0
 10
225.14851299458
 20
-69.22284000000161
 10
225.0457939945777
 20
-69.12012099999936
  0
LWPOLYLINE
  5
DD
330
50
100
AcDbEntity
  8
LC-006-005-----0
  6
Continuous
 62
     3
100
AcDbPolyline
 90
        2
 70
     0
 43
1.0
 10
225.2143219945797
 20
-68.72296399999993
 10
224.9600269945772
 20
-68.46866900000111
  0
LWPOLYLINE
  5
DE
330
50
100
AcDbEntity
  8
LC-006-005-----0
  6
Continuous
 62
     3
100
AcDbPolyline
 90
        2
 70
     0
 43
1.0
 10
225.2801319945797
 20
-68.2230889999986
 10
224.8742599945804
 20
-67.8172159999989
  0
LWPOLYLINE
  5
DF
330
50
100
AcDbEntity
  8
LC-006-005-----0
  6
Continuous
 62
     3
100
AcDbPolyline
 90
        2
 70
     0
 43
1.0
 10
225.3459419945798
 20
-67.72321300000056
 10
224.7884919945795
 20
-67.16576300000031
  0
LWPOLYLINE
  5
E0
330
50
100
AcDbEntity
  8
LC-006-005-----0
  6
Continuous
 62
     3
100
AcDbPolyline
 90
        2
 70
     0
 43
1.0
 10
225.4117519945798
 20
-67.22333699999888
 10
224.7027249945791
 20
-66.51431099999843
  0
LWPOLYLINE
  5
E1
330
50
100
AcDbEntity
  8
LC-006-005-----0
  6
Continuous
 62
     3
100
AcDbPolyline
 90
        2
 70
     0
 43
1.0
 10
225.4775619945799
 20
-66.72346200000118
 10
224.6169579945786
 20
-65.86285799999985
  0
LWPOLYLINE
  5
E2
330
50
100
AcDbEntity
  8
LC-006-005-----0
  6
Continuous
 62
     3
100
AcDbPolyline
 90
        2
 70
     0
 43
1.0
 10
225.54337199458
 20
-66.2235859999995
 10
224.5311909945781
 20
-65.21140500000126
  0
LWPOLYLINE
  5
E3
330
50
100
AcDbEntity
  8
LC-006-005-----0
  6
Continuous
 62
     3
100
AcDbPolyline
 90
        2
 70
     0
 43
1.0
 10
225.60918199458
 20
-65.72371099999816
 10
224.4454239945776
 20
-64.55995299999938
  0
LWPOLYLINE
  5
E4
330
50
100
AcDbEntity
  8
LC-006-005-----0
  6
Continuous
 62
     3
100
AcDbPolyline
 90
        2
 70
     0
 43
1.0
 10
225.6749909945797
 20
-65.22383500000012
 10
224.3596569945771
 20
-63.9085000000008
  0
LWPOLYLINE
  5
E5
330
50
100
AcDbEntity
  8
LC-006-005-----0
  6
Continuous
 62
     3
100
AcDbPolyline
 90
        2
 70
     0
 43
1.0
 10
225.7408009945798
 20
-64.72395999999878
 10
224.2738889945799
 20
-63.25704799999892
  0
LWPOLYLINE
  5
E6
330
50
100
AcDbEntity
  8
LC-006-005-----0
  6
Continuous
 62
     3
100
AcDbPolyline
 90
        2
 70
     0
 43
1.0
 10
225.8066109945798
 20
-64.22408400000074
 10
224.1881219945794
 20
-62.60559500000034
  0
LWPOLYLINE
  5
E7
330
50
100
AcDbEntity
  8
LC-006-005-----0
  6
Continuous
 62
     3
100
AcDbPolyline
 90
        2
 70
     0
 43
1.0
 10
225.8724209945799
 20
-63.72420899999941
 10
224.102354994579
 20
-61.95414200000175
  0
LWPOLYLINE
  5
E8
330
50
100
AcDbEntity
  8
LC-006-005-----0
  6
Continuous
 62
     3
100
AcDbPolyline
 90
        2
 70
     0
 43
1.0
 10
225.93823099458
 20
-63.22433300000137
 10
224.0165879945785
 20
-61.30268999999987
  0
LWPOLYLINE
  5
E9
330
50
100
AcDbEntity
  8
LC-006-005-----0
  6
Continuous
 62
     3
100
AcDbPolyline
 90
        2
 70
     0
 43
1.0
 10
226.00404099458
 20
-62.72445699999969
 10
223.930820994578
 20
-60.65123700000129
  0
LWPOLYLINE
  5
EA
330
50
100
AcDbEntity
  8
LC-006-005-----0
  6
Continuous
 62
     3
100
AcDbPolyline
 90
        2
 70
     0
 43
1.0
 10
226.0698509945801
 20
-62.22458199999835
 10
223.8450529945772
 20
-59.99978499999941
  0
LWPOLYLINE
  5
EB
330
50
100
AcDbEntity
  8
LC-006-005-----0
  6
Continuous
 62
     3
100
AcDbPolyline
 90
        2
 70
     0
 43
1.0
 10
226.1356609945801
 20
-61.72470600000031
 10
223.7592859945803
 20
-59.34833200000082
  0
LWPOLYLINE
  5
EC
330
50
100
AcDbEntity
  8
LC-006-005-----0
  6
Continuous
 62
     3
100
AcDbPolyline
 90
        2
 70
     0
 43
1.0
 10
226.2014699945798
 20
-61.22483099999897
 10
223.6735189945798
 20
-58.6968789999986
  0
LWPOLYLINE
  5
ED
330
50
100
AcDbEntity
  8
LC-006-005-----0
  6
Continuous
 62
     3
100
AcDbPolyline
 90
        2
 70
     0
 43
1.0
 10
226.2672799945799
 20
-60.72495500000093
 10
223.5877519945793
 20
-58.04542700000036
  0
LWPOLYLINE
  5
EE
330
50
100
AcDbEntity
  8
LC-006-005-----0
  6
Continuous
 62
     3
100
AcDbPolyline
 90
        2
 70
     0
 43
1.0
 10
226.33308999458
 20
-60.22507999999959
 10
223.5019849945788
 20
-57.39397400000178
  0
LWPOLYLINE
  5
EF
330
50
100
AcDbEntity
  8
LC-006-005-----0
  6
Continuous
 62
     3
100
AcDbPolyline
 90
        2
 70
     0
 43
1.0
 10
226.39889999458
 20
-59.72520400000155
 10
223.4162179945784
 20
-56.74252199999989
  0
LWPOLYLINE
  5
F0
330
50
100
AcDbEntity
  8
LC-006-005-----0
  6
Continuous
 62
     3
100
AcDbPolyline
 90
        2
 70
     0
 43
1.0
 10
226.4647099945801
 20
-59.22532799999988
 10
223.3304499945775
 20
-56.09106900000131
  0
LWPOLYLINE
  5
F1
330
50
100
AcDbEntity
  8
LC-006-005-----0
  6
Continuous
 62
     3
100
AcDbPolyline
 90
        2
 70
     0
 43
1.0
 10
226.5305199945801
 20
-58.72545299999854
 10
223.244682994577
 20
-55.43961599999909
  0
LWPOLYLINE
  5
F2
330
50
100
AcDbEntity
  8
LC-006-005-----0
  6
Continuous
 62
     3
100
AcDbPolyline
 90
        2
 70
     0
 43
1.0
 10
226.5963299945802
 20
-58.2255770000005
 10
223.7663869945795
 20
-55.3956350000002
  0
LWPOLYLINE
  5
F3
330
50
100
AcDbEntity
  8
LC-005-002-----0
  6
Continuous
 62
     7
100
AcDbPolyline
 90
        2
 70
     0
 43
1.0
 10
225.1039149945796
 20
-69.56158799999992
 10
223.2388929945778
 20
-55.3956350000002
  0
LWPOLYLINE
  5
F4
330
50
100
AcDbEntity
  8
LC-005-002-----0
  6
Continuous
 62
     7
100
AcDbPolyline
 90
        2
 70
     0
 43
1.0
 10
225.1039149945796
 20
-69.56158799999992
 10
226.9688989945794
 20
-55.39562999999851
  0
LINE
  5
F5
330
50
100
AcDbEntity
  8
LC-005-002-----0
  6
Continuous
 62
     7
100
AcDbLine
 10
268.6662909945776
 20
-84.80510299999821
 30
0.0
 11
281.8380789945772
 21
-93.49276899999984
 31
0.0
  0
LINE
  5
F6
330
50
100
AcDbEntity
  8
LC-005-002-----0
  6
Continuous
 62
     7
100
AcDbLine
 10
244.0881329945773
 20
-90.22724999999934
 30
0.0
 11
268.6662909945776
 21
-84.80510299999821
 31
0.0
  0
LINE
  5
F7
330
50
100
AcDbEntity
  8
LC-005-002-----0
  6
Continuous
 62
     7
100
AcDbLine
 10
233.1039109945782
 20
-83.71131900000125
 30
0.0
 11
244.0881329945773
 21
-90.22724999999934
 31
0.0
  0
LINE
  5
F8
330
50
100
AcDbEntity
  8
LC-005-002-----0
  6
Continuous
 62
     7
100
AcDbLine
 10
218.2133199945788
 20
-91.3210329999996
 30
0.0
 11
233.1039109945782
 21
-83.71131900000125
 31
0.0
  0
LINE
  5
F9
330
50
100
AcDbEntity
  8
LC-005-002-----0
  6
Continuous
 62
     7
100
AcDbLine
 10
199.4163589945788
 20
-83.49276899999984
 30
0.0
 11
218.2133199945788
 21
-91.3210329999996
 31
0.0
  0
LINE
  5
FA
330
50
100
AcDbEntity
  8
LC-005-002-----0
  6
Continuous
 62
     7
100
AcDbLine
 10
186.7133349945802
 20
-92.4148170000002
 30
0.0
 11
199.4163589945788
 21
-83.49276899999984
 31
0.0
  0
LINE
  5
FB
330
50
100
AcDbEntity
  8
LC-005-002-----0
  6
Continuous
 62
     7
100
AcDbLine
 10
162.6039409945774
 20
-88.49276899999984
 30
0.0
 11
186.7133349945802
 21
-92.4148170000002
 31
0.0
  0
LINE
  5
FC
330
50
100
AcDbEntity
  8
LC-005-002-----0
  6
Continuous
 62
     7
100
AcDbLine
 10
227.8989139945775
 20
-69.56158799999992
 30
0.0
 11
287.6039149945796
 21
-69.56158799999992
 31
0.0
  0
LINE
  5
FD
330
50
100
AcDbEntity
  8
LC-005-002-----0
  6
Continuous
 62
     7
100
AcDbLine
 10
287.6039149945796
 20
-69.56158799999992
 30
0.0
 11
287.6039409945774
 21
-88.49287199999833
 31
0.0
  0
LINE
  5
FE
330
50
100
AcDbEntity
  8
LC-005-002-----0
  6
Continuous
 62
     7
100
AcDbLine
 10
162.6039149945796
 20
-69.56148500000143
 30
0.0
 11
222.80395699458
 21
-69.56148500000143
 31
0.0
  0
LINE
  5
FF
330
50
100
AcDbEntity
  8
LC-005-002-----0
  6
Continuous
 62
     7
100
AcDbLine
 10
162.6039149945796
 20
-69.56148500000143
 30
0.0
 11
162.6039409945774
 21
-88.49276899999984
 31
0.0
  0
LWPOLYLINE
  5
100
330
50
100
AcDbEntity
  8
LC-006-005-----0
  6
Continuous
 62
     3
100
AcDbPolyline
 90
        2
 70
     0
 43
1.0
 10
226.79375899458
 20
-56.72595099999978
 10
225.4634429945804
 20
-55.3956350000002
  0
LWPOLYLINE
  5
101
330
50
100
AcDbEntity
  8
LC-006-005-----0
  6
Continuous
 62
     3
100
AcDbPolyline
 90
        2
 70
     0
 43
1.0
 10
226.8595689945801
 20
-56.22607500000174
 10
226.0291289945785
 20
-55.3956350000002
  0
LWPOLYLINE
  5
102
330
50
100
AcDbEntity
  8
LC-006-005-----0
  6
Continuous
 62
     3
100
AcDbPolyline
 90
        2
 70
     0
 43
1.0
 10
226.9253789945801
 20
-55.7262000000004
 10
226.5948139945799
 20
-55.3956350000002
  0
LWPOLYLINE
  5
103
330
50
100
AcDbEntity
  8
LC-006-005-----0
  6
Continuous
 62
     3
100
AcDbPolyline
 90
        2
 70
     0
 43
1.0
 10
226.6621389945799
 20
-57.72570199999916
 10
224.3320729945776
 20
-55.3956350000002
  0
LWPOLYLINE
  5
104
330
50
100
AcDbEntity
  8
LC-006-005-----0
  6
Continuous
 62
     3
100
AcDbPolyline
 90
        2
 70
     0
 43
1.0
 10
226.72794899458
 20
-57.22582600000112
 10
224.897757994579
 20
-55.3956350000002
  0
LINE
  5
105
330
50
100
AcDbEntity
  8
LC-002-002-----0
  6
Continuous
 62
     7
100
AcDbLine
 10
270.1038557178113
 20
311.4368580000015
 30
0.0
 11
270.1038547178109
 21
186.4385589999989
 31
0.0
  0
LINE
  5
106
330
50
100
AcDbEntity
  8
LC-002-002-----0
  6
Continuous
 62
     7
100
AcDbLine
 10
180.1037877178101
 20
311.4368580000015
 30
0.0
 11
180.1037867178097
 21
186.4385589999989
 31
0.0
  0
LINE
  5
107
330
50
100
AcDbEntity
  8
LC-002-002-----0
  6
Continuous
 62
     7
100
AcDbLine
 10
162.1037986185855
 20
347.251887
 30
0.0
 11
151.6038036185855
 21
365.438412
 31
0.0
  0
LINE
  5
108
330
50
100
AcDbEntity
  8
LC-002-002-----0
  6
Continuous
 62
     7
100
AcDbLine
 10
162.1037986185855
 20
314.438066
 30
0.0
 11
162.1037986185855
 21
347.251887
 31
0.0
  0
LINE
  5
109
330
50
100
AcDbEntity
  8
LC-002-002-----0
  6
Continuous
 62
     7
100
AcDbLine
 10
180.1037986185855
 20
311.438066
 30
0.0
 11
165.1037986185855
 21
311.438066
 31
0.0
  0
LINE
  5
10A
330
50
100
AcDbEntity
  8
LC-002-002-----0
  6
Continuous
 62
     7
100
AcDbLine
 10
270.1038086185856
 20
311.438066
 30
0.0
 11
285.1038086185856
 21
311.438066
 31
0.0
  0
LINE
  5
10B
330
50
100
AcDbEntity
  8
LC-002-002-----0
  6
Continuous
 62
     7
100
AcDbLine
 10
288.1038086185856
 20
314.438066
 30
0.0
 11
288.1038086185856
 21
347.251887
 31
0.0
  0
LINE
  5
10C
330
50
100
AcDbEntity
  8
LC-002-002-----0
  6
Continuous
 62
     7
100
AcDbLine
 10
288.1038086185856
 20
347.251887
 30
0.0
 11
298.6038036185855
 21
365.438412
 31
0.0
  0
LINE
  5
10D
330
50
100
AcDbEntity
  8
LC-002-002-----0
  6
Continuous
 62
     7
100
AcDbLine
 10
138.1507966185855
 20
380.631187
 30
0.0
 11
312.0566346185856
 21
380.631187
 31
0.0
  0
LINE
  5
10E
330
50
100
AcDbEntity
  8
LC-002-002-----0
  6
Continuous
 62
     7
100
AcDbLine
 10
123.1001916185855
 20
396.631187
 30
0.0
 11
327.1071976185856
 21
396.631187
 31
0.0
  0
LINE
  5
10F
330
50
100
AcDbEntity
  8
LC-002-002-----0
  6
Continuous
 62
     7
100
AcDbLine
 10
100.3699066185855
 20
403.797906
 30
0.0
 11
349.8374606185855
 21
403.797906
 31
0.0
  0
LINE
  5
110
330
50
100
AcDbEntity
  8
LC-002-002-----0
  6
Continuous
 62
     7
100
AcDbLine
 10
100.6637516185855
 20
404.605237
 30
0.0
 11
349.5436146185855
 21
404.605237
 31
0.0
  0
LINE
  5
111
330
50
100
AcDbEntity
  8
LC-002-002-----0
  6
Continuous
 62
     7
100
AcDbLine
 10
225.1037366185855
 20
365.438412
 30
0.0
 11
302.8538056185855
 21
365.438412
 31
0.0
  0
LINE
  5
112
330
50
100
AcDbEntity
  8
LC-002-002-----0
  6
Continuous
 62
     7
100
AcDbLine
 10
180.1037716185855
 20
311.438066
 30
0.0
 11
270.1038396185854
 21
311.438066
 31
0.0
  0
LINE
  5
113
330
50
100
AcDbEntity
  8
LC-002-002-----0
  6
Continuous
 62
     7
100
AcDbLine
 10
72.36093861858546
 20
406.9791946063492
 30
0.0
 11
48.10320500867124
 21
406.9791706063492
 31
0.0
  0
LINE
  5
114
330
50
100
AcDbEntity
  8
LC-002-002-----0
  6
Continuous
 62
     7
100
AcDbLine
 10
366.3673016185855
 20
406.9795976063492
 30
0.0
 11
354.7354710175762
 21
406.9795816623823
 31
0.0
  0
LINE
  5
115
330
50
100
AcDbEntity
  8
LC-002-002-----0
  6
Continuous
 62
     7
100
AcDbLine
 10
72.36093061858548
 20
409.9746236063492
 30
0.0
 11
328.5153246185855
 21
409.9746236063492
 31
0.0
  0
LINE
  5
116
330
50
100
AcDbEntity
  8
LC-002-002-----0
  6
Continuous
 62
     7
100
AcDbLine
 10
50.10320367938766
 20
409.9746236063492
 30
0.0
 11
72.36093061858548
 21
409.9746236063492
 31
0.0
  0
LINE
  5
117
330
50
100
AcDbEntity
  8
LC-002-002-----0
  6
Continuous
 62
     7
100
AcDbLine
 10
323.4373816185855
 20
380.631457
 30
0.0
 11
314.7771276185856
 21
380.631433
 31
0.0
  0
LINE
  5
118
330
50
100
AcDbEntity
  8
LC-002-002-----0
  6
Continuous
 62
     7
100
AcDbLine
 10
315.6072396185855
 20
380.631436
 30
0.0
 11
312.0566346185856
 21
380.631426
 31
0.0
  0
LINE
  5
119
330
50
100
AcDbEntity
  8
LC-002-002-----0
  6
Continuous
 62
     7
100
AcDbLine
 10
134.6001916185855
 20
380.631187
 30
0.0
 11
138.1507966185855
 21
380.631187
 31
0.0
  0
LINE
  5
11A
330
50
100
AcDbEntity
  8
LC-002-002-----0
  6
Continuous
 62
     7
100
AcDbLine
 10
127.6001916185855
 20
380.631187
 30
0.0
 11
125.1001916185855
 21
380.631187
 31
0.0
  0
LINE
  5
11B
330
50
100
AcDbEntity
  8
LC-002-002-----0
  6
Continuous
 62
     7
100
AcDbLine
 10
126.7700506185855
 20
380.631187
 30
0.0
 11
135.4303036185855
 21
380.631187
 31
0.0
  0
LINE
  5
11C
330
50
100
AcDbEntity
  8
LC-002-002-----0
  6
Continuous
 62
     7
100
AcDbLine
 10
48.10320367938937
 20
407.9746209356346
 30
0.0
 11
48.10320500867124
 21
406.9791706063492
 31
0.0
  0
LINE
  5
11D
330
50
100
AcDbEntity
  8
LC-002-002-----0
  6
Continuous
 62
     7
100
AcDbLine
 10
366.0806066185855
 20
409.9750506063492
 30
0.0
 11
328.5153246185855
 21
409.9750506063492
 31
0.0
  0
LINE
  5
11E
330
50
100
AcDbEntity
  8
LC-002-002-----0
  6
Continuous
 62
     7
100
AcDbLine
 10
366.0806066185855
 20
409.9750506063492
 30
0.0
 11
400.1040052955109
 21
409.9750878499206
 31
0.0
  0
LINE
  5
11F
330
50
100
AcDbEntity
  8
LC-002-002-----0
  6
Continuous
 62
     7
100
AcDbLine
 10
366.3673016185855
 20
406.9795976063492
 30
0.0
 11
402.1040093812231
 21
406.9796376063492
 31
0.0
  0
LINE
  5
120
330
50
100
AcDbEntity
  8
LC-002-002-----0
  6
Continuous
 62
     7
100
AcDbLine
 10
402.1040080519376
 20
407.9750905206371
 30
0.0
 11
402.1040093812231
 21
406.9796376063492
 31
0.0
  0
LINE
  5
121
330
50
100
AcDbEntity
  8
LC-002-002-----0
  6
Continuous
 62
     7
100
AcDbLine
 10
325.1072396185855
 20
380.631462
 30
0.0
 11
322.6072396185855
 21
380.6314549999999
 31
0.0
  0
LINE
  5
122
330
50
100
AcDbEntity
  8
LC-002-002-----0
  6
Continuous
 62
     7
100
AcDbLine
 10
100.3699066185855
 20
403.797906
 30
0.0
 11
100.6637516185855
 21
404.605237
 31
0.0
  0
LINE
  5
123
330
50
100
AcDbEntity
  8
LC-002-002-----0
  6
Continuous
 62
     7
100
AcDbLine
 10
123.1001916185855
 20
396.631187
 30
0.0
 11
120.0603046185855
 21
396.631187
 31
0.0
  0
LINE
  5
124
330
50
100
AcDbEntity
  8
LC-002-002-----0
  6
Continuous
 62
     7
100
AcDbLine
 10
100.3699066185855
 20
403.797906
 30
0.0
 11
120.0603046185855
 21
396.631187
 31
0.0
  0
LINE
  5
125
330
50
100
AcDbEntity
  8
LC-002-002-----0
  6
Continuous
 62
     7
100
AcDbLine
 10
123.6001916185855
 20
382.131187
 30
0.0
 11
123.6001916185855
 21
396.131187
 31
0.0
  0
LINE
  5
126
330
50
100
AcDbEntity
  8
LC-002-002-----0
  6
Continuous
 62
     7
100
AcDbLine
 10
326.6072356185855
 20
382.131466
 30
0.0
 11
326.6071976185856
 21
396.131466
 31
0.0
  0
LINE
  5
127
330
50
100
AcDbEntity
  8
LC-002-002-----0
  6
Continuous
 62
     7
100
AcDbLine
 10
327.1071956185856
 20
396.631467
 30
0.0
 11
330.1470826185855
 21
396.631476
 31
0.0
  0
LINE
  5
128
330
50
100
AcDbEntity
  8
LC-002-002-----0
  6
Continuous
 62
     7
100
AcDbLine
 10
349.8374606185855
 20
403.798248
 30
0.0
 11
330.1470826185855
 21
396.631476
 31
0.0
  0
LINE
  5
129
330
50
100
AcDbEntity
  8
LC-002-002-----0
  6
Continuous
 62
     7
100
AcDbLine
 10
349.8374606185855
 20
403.798248
 30
0.0
 11
349.5436146185855
 21
404.605578
 31
0.0
  0
LINE
  5
12A
330
50
100
AcDbEntity
  8
LC-002-002-----0
  6
Continuous
 62
     7
100
AcDbLine
 10
354.7354710175762
 20
406.9795816623823
 30
0.0
 11
348.2099846185854
 21
404.605237
 31
0.0
  0
LINE
  5
12B
330
50
100
AcDbEntity
  8
LC-002-002-----0
  6
Continuous
 62
     7
100
AcDbLine
 10
95.4679991478231
 20
406.9792262796277
 30
0.0
 11
101.9905686185855
 21
404.605237
 31
0.0
  0
LINE
  5
12C
330
50
100
AcDbEntity
  8
LC-002-002-----0
  6
Continuous
 62
     7
100
AcDbLine
 10
305.8538056185855
 20
379.88962
 30
0.0
 11
305.8538056185855
 21
368.438412
 31
0.0
  0
LINE
  5
12D
330
50
100
AcDbEntity
  8
LC-002-002-----0
  6
Continuous
 62
     7
100
AcDbLine
 10
306.5953736185854
 20
380.631187
 30
0.0
 11
305.8538056185855
 21
379.88962
 31
0.0
  0
LINE
  5
12E
330
50
100
AcDbEntity
  8
LC-002-002-----0
  6
Continuous
 62
     7
100
AcDbLine
 10
143.6122386185855
 20
380.631187
 30
0.0
 11
144.3538056185855
 21
379.88962
 31
0.0
  0
LINE
  5
12F
330
50
100
AcDbEntity
  8
LC-002-002-----0
  6
Continuous
 62
     7
100
AcDbLine
 10
147.3538056185855
 20
365.438412
 30
0.0
 11
162.6038056185855
 21
365.438412
 31
0.0
  0
LINE
  5
130
330
50
100
AcDbEntity
  8
LC-002-002-----0
  6
Continuous
 62
     7
100
AcDbLine
 10
144.3538056185855
 20
379.88962
 30
0.0
 11
144.3538056185855
 21
368.438412
 31
0.0
  0
LINE
  5
131
330
50
100
AcDbEntity
  8
LC-002-002-----0
  6
Continuous
 62
     7
100
AcDbLine
 10
162.6038056185855
 20
365.438412
 30
0.0
 11
225.1037366185855
 21
365.438412
 31
0.0
  0
LINE
  5
132
330
50
100
AcDbEntity
  8
LC-002-002-----0
  6
Continuous
 62
     2
100
AcDbLine
 10
305.3538056185855
 20
365.438412
 30
0.0
 11
302.8538056185855
 21
365.438412
 31
0.0
  0
LINE
  5
133
330
50
100
AcDbEntity
  8
LC-002-002-----0
  6
Continuous
 62
     7
100
AcDbLine
 10
162.1037986185855
 20
347.251887
 30
0.0
 11
288.1038086185856
 21
347.251887
 31
0.0
  0
LINE
  5
134
330
50
100
AcDbEntity
  8
LC-002-002-----0
  6
Continuous
 62
     7
100
AcDbLine
 10
354.7354710175762
 20
406.9795816623823
 30
0.0
 11
95.4679991478231
 21
406.9792262796277
 31
0.0
  0
LINE
  5
135
330
50
100
AcDbEntity
  8
LC-002-002-----0
  6
Continuous
 62
     7
100
AcDbLine
 10
95.4679991478231
 20
406.9792262796277
 30
0.0
 11
72.36093861858546
 21
406.9791946063492
 31
0.0
  0
ARC
  5
136
330
50
100
AcDbEntity
  8
LC-002-002-RND-0
  6
Continuous
 62
     7
100
AcDbCircle
 10
178.1039401059938
 20
256.9398339999977
 30
0.0
 40
1.0
100
AcDbArc
 50
0.0
 51
84.00000000001731
  0
ARC
  5
137
330
50
100
AcDbEntity
  8
LC-002-002-RND-0
  6
Continuous
 62
     7
100
AcDbCircle
 10
164.1039401059938
 20
259.9195559999978
 30
0.0
 40
0.5
100
AcDbArc
 50
90.0
 51
-96.00000000019432
  0
ARC
  5
138
330
50
100
AcDbEntity
  8
LC-002-002-RND-0
  6
Continuous
 62
     7
100
AcDbCircle
 10
272.1039401059938
 20
256.9398339999977
 30
0.0
 40
1.000000000000703
100
AcDbArc
 50
95.9999999999746
 51
180.0
  0
ARC
  5
139
330
50
100
AcDbEntity
  8
LC-002-002-RND-0
  6
Continuous
 62
     7
100
AcDbCircle
 10
286.1039401059938
 20
259.9195559999978
 30
0.0
 40
0.4999999999983329
100
AcDbArc
 50
-84.00000000020086
 51
90.0
  0
ARC
  5
13A
330
50
100
AcDbEntity
  8
LC-002-002-RND-0
  6
Continuous
 62
     7
100
AcDbCircle
 10
286.1039401059938
 20
235.2592239999983
 30
0.0
 40
0.4999999999983895
100
AcDbArc
 50
-84.00000000020154
 51
90.0
  0
ARC
  5
13B
330
50
100
AcDbEntity
  8
LC-002-002-RND-0
  6
Continuous
 62
     7
100
AcDbCircle
 10
272.1039401059938
 20
232.2795019999982
 30
0.0
 40
1.000000000000703
100
AcDbArc
 50
95.9999999999746
 51
180.0
  0
ARC
  5
13C
330
50
100
AcDbEntity
  8
LC-002-002-RND-0
  6
Continuous
 62
     7
100
AcDbCircle
 10
164.1039401059938
 20
235.2592239999983
 30
0.0
 40
0.5
100
AcDbArc
 50
90.0
 51
-96.00000000019362
  0
ARC
  5
13D
330
50
100
AcDbEntity
  8
LC-002-002-RND-0
  6
Continuous
 62
     7
100
AcDbCircle
 10
178.1039401059938
 20
232.2795019999982
 30
0.0
 40
1.0
100
AcDbArc
 50
0.0
 51
84.00000000001731
  0
ARC
  5
13E
330
50
100
AcDbEntity
  8
LC-002-002-RND-0
  6
Continuous
 62
     7
100
AcDbCircle
 10
178.1039401059938
 20
207.6191699999987
 30
0.0
 40
1.0
100
AcDbArc
 50
0.0
 51
84.00000000001731
  0
ARC
  5
13F
330
50
100
AcDbEntity
  8
LC-002-002-RND-0
  6
Continuous
 62
     7
100
AcDbCircle
 10
164.1039401059938
 20
210.5988919999988
 30
0.0
 40
0.5
100
AcDbArc
 50
90.0
 51
-96.00000000019362
  0
ARC
  5
140
330
50
100
AcDbEntity
  8
LC-002-002-RND-0
  6
Continuous
 62
     7
100
AcDbCircle
 10
272.1039401059938
 20
207.6191699999987
 30
0.0
 40
1.000000000000703
100
AcDbArc
 50
95.9999999999746
 51
180.0
  0
ARC
  5
141
330
50
100
AcDbEntity
  8
LC-002-002-RND-0
  6
Continuous
 62
     7
100
AcDbCircle
 10
286.1039401059938
 20
210.5988919999988
 30
0.0
 40
0.4999999999983895
100
AcDbArc
 50
-84.00000000020154
 51
90.0
  0
ARC
  5
142
330
50
100
AcDbEntity
  8
LC-002-002-RND-0
  6
Continuous
 62
     7
100
AcDbCircle
 10
178.6039401059938
 20
112.9575660000015
 30
0.0
 40
0.5
100
AcDbArc
 50
-90.0
 51
0.0
  0
ARC
  5
143
330
50
100
AcDbEntity
  8
LC-002-002-RND-0
  6
Continuous
 62
     7
100
AcDbCircle
 10
178.6039401059938
 20
88.29723399999841
 30
0.0
 40
0.5
100
AcDbArc
 50
-90.0
 51
0.0
  0
ARC
  5
144
330
50
100
AcDbEntity
  8
LC-002-002-RND-0
  6
Continuous
 62
     7
100
AcDbCircle
 10
178.6039401059938
 20
63.63690299999928
 30
0.0
 40
0.5
100
AcDbArc
 50
-90.0
 51
0.0
  0
ARC
  5
145
330
50
100
AcDbEntity
  8
LC-002-002-RND-0
  6
Continuous
 62
     7
100
AcDbCircle
 10
178.6039401059938
 20
38.97657200000015
 30
0.0
 40
0.5
100
AcDbArc
 50
-90.0
 51
0.0
  0
ARC
  5
146
330
50
100
AcDbEntity
  8
LC-002-002-RND-0
  6
Continuous
 62
     7
100
AcDbCircle
 10
178.6039401059938
 20
14.31624000000068
 30
0.0
 40
0.5
100
AcDbArc
 50
-90.0
 51
0.0
  0
ARC
  5
147
330
50
100
AcDbEntity
  8
LC-002-002-RND-0
  6
Continuous
 62
     7
100
AcDbCircle
 10
178.6039401059938
 20
-10.34409099999846
 30
0.0
 40
0.5
100
AcDbArc
 50
-90.0
 51
0.0
  0
ARC
  5
148
330
50
100
AcDbEntity
  8
LC-002-002-RND-0
  6
Continuous
 62
     7
100
AcDbCircle
 10
178.6039401059938
 20
-35.00442200000123
 30
0.0
 40
0.5
100
AcDbArc
 50
-90.0
 51
0.0
  0
ARC
  5
149
330
50
100
AcDbEntity
  8
LC-002-002-RND-0
  6
Continuous
 62
     7
100
AcDbCircle
 10
271.6039401059938
 20
112.9575660000015
 30
0.0
 40
0.5
100
AcDbArc
 50
180.0
 51
-90.0
  0
ARC
  5
14A
330
50
100
AcDbEntity
  8
LC-002-002-RND-0
  6
Continuous
 62
     7
100
AcDbCircle
 10
271.6039401059938
 20
88.29723399999841
 30
0.0
 40
0.5
100
AcDbArc
 50
180.0
 51
-90.0
  0
ARC
  5
14B
330
50
100
AcDbEntity
  8
LC-002-002-RND-0
  6
Continuous
 62
     7
100
AcDbCircle
 10
271.6039401059938
 20
63.63690299999928
 30
0.0
 40
0.5
100
AcDbArc
 50
180.0
 51
-90.0
  0
ARC
  5
14C
330
50
100
AcDbEntity
  8
LC-002-002-RND-0
  6
Continuous
 62
     7
100
AcDbCircle
 10
271.6039401059938
 20
38.97657200000015
 30
0.0
 40
0.5
100
AcDbArc
 50
180.0
 51
-90.0
  0
ARC
  5
14D
330
50
100
AcDbEntity
  8
LC-002-002-RND-0
  6
Continuous
 62
     7
100
AcDbCircle
 10
271.6039401059938
 20
14.31624000000068
 30
0.0
 40
0.5
100
AcDbArc
 50
180.0
 51
-90.0
  0
ARC
  5
14E
330
50
100
AcDbEntity
  8
LC-002-002-RND-0
  6
Continuous
 62
     7
100
AcDbCircle
 10
271.6039401059938
 20
-10.34409099999846
 30
0.0
 40
0.5
100
AcDbArc
 50
180.0
 51
-90.0
  0
ARC
  5
14F
330
50
100
AcDbEntity
  8
LC-002-002-RND-0
  6
Continuous
 62
     7
100
AcDbCircle
 10
271.6039401059938
 20
-35.00442200000123
 30
0.0
 40
0.5
100
AcDbArc
 50
180.0
 51
-90.0
  0
ARC
  5
150
330
50
100
AcDbEntity
  8
LC-002-002-RND-0
  6
Continuous
 62
     7
100
AcDbCircle
 10
271.6039401059938
 20
162.2782279999998
 30
0.0
 40
0.5
100
AcDbArc
 50
180.0
 51
-90.0
  0
ARC
  5
151
330
50
100
AcDbEntity
  8
LC-002-002-RND-0
  6
Continuous
 62
     7
100
AcDbCircle
 10
271.6039401059938
 20
137.6178970000007
 30
0.0
 40
0.5
100
AcDbArc
 50
180.0
 51
-90.0
  0
ARC
  5
152
330
50
100
AcDbEntity
  8
LC-002-002-RND-0
  6
Continuous
 62
     7
100
AcDbCircle
 10
286.1039401059938
 20
-36.00442200000123
 30
0.0
 40
0.4999999999983329
100
AcDbArc
 50
-84.00000000020086
 51
90.0
  0
ARC
  5
153
330
50
100
AcDbEntity
  8
LC-002-002-RND-0
  6
Continuous
 62
     7
100
AcDbCircle
 10
272.1039401059938
 20
-38.98414400000127
 30
0.0
 40
1.000000000000653
100
AcDbArc
 50
95.99999999997489
 51
180.0
  0
ARC
  5
154
330
50
100
AcDbEntity
  8
LC-002-002-RND-0
  6
Continuous
 62
     7
100
AcDbCircle
 10
286.1039401059938
 20
-11.34409099999846
 30
0.0
 40
0.500000000001951
100
AcDbArc
 50
-84.00000000024444
 51
90.0
  0
ARC
  5
155
330
50
100
AcDbEntity
  8
LC-002-002-RND-0
  6
Continuous
 62
     7
100
AcDbCircle
 10
272.1039401059938
 20
-14.3238129999985
 30
0.0
 40
0.9999999999970353
100
AcDbArc
 50
95.99999999999669
 51
180.0
  0
ARC
  5
156
330
50
100
AcDbEntity
  8
LC-002-002-RND-0
  6
Continuous
 62
     7
100
AcDbCircle
 10
286.1039401059938
 20
13.31624000000068
 30
0.0
 40
0.5000000000019528
100
AcDbArc
 50
-84.00000000024446
 51
90.0
  0
ARC
  5
157
330
50
100
AcDbEntity
  8
LC-002-002-RND-0
  6
Continuous
 62
     7
100
AcDbCircle
 10
272.1039401059938
 20
10.33651900000098
 30
0.0
 40
1.000000000000645
100
AcDbArc
 50
95.99999999997496
 51
180.0
  0
ARC
  5
158
330
50
100
AcDbEntity
  8
LC-002-002-RND-0
  6
Continuous
 62
     7
100
AcDbCircle
 10
286.1039401059938
 20
37.97657200000015
 30
0.0
 40
0.4999999999983258
100
AcDbArc
 50
-84.00000000020077
 51
90.0
  0
ARC
  5
159
330
50
100
AcDbEntity
  8
LC-002-002-RND-0
  6
Continuous
 62
     7
100
AcDbCircle
 10
272.1039401059938
 20
34.99685000000011
 30
0.0
 40
1.000000000000646
100
AcDbArc
 50
95.99999999997495
 51
180.0
  0
ARC
  5
15A
330
50
100
AcDbEntity
  8
LC-002-002-RND-0
  6
Continuous
 62
     7
100
AcDbCircle
 10
272.1039401059938
 20
59.65718099999924
 30
0.0
 40
1.000000000000646
100
AcDbArc
 50
95.99999999997495
 51
180.0
  0
ARC
  5
15B
330
50
100
AcDbEntity
  8
LC-002-002-RND-0
  6
Continuous
 62
     7
100
AcDbCircle
 10
286.1039401059938
 20
62.63690299999928
 30
0.0
 40
0.4999999999983329
100
AcDbArc
 50
-84.00000000020086
 51
90.0
  0
ARC
  5
15C
330
50
100
AcDbEntity
  8
LC-002-002-RND-0
  6
Continuous
 62
     7
100
AcDbCircle
 10
286.1039401059938
 20
87.29723399999841
 30
0.0
 40
0.4999999999983329
100
AcDbArc
 50
-84.00000000020086
 51
90.0
  0
ARC
  5
15D
330
50
100
AcDbEntity
  8
LC-002-002-RND-0
  6
Continuous
 62
     7
100
AcDbCircle
 10
272.1039401059938
 20
84.31751299999871
 30
0.0
 40
1.000000000000646
100
AcDbArc
 50
95.99999999997495
 51
180.0
  0
ARC
  5
15E
330
50
100
AcDbEntity
  8
LC-002-002-RND-0
  6
Continuous
 62
     7
100
AcDbCircle
 10
286.1039401059938
 20
111.9575660000015
 30
0.0
 40
0.500000000001951
100
AcDbArc
 50
-84.00000000024444
 51
90.0
  0
ARC
  5
15F
330
50
100
AcDbEntity
  8
LC-002-002-RND-0
  6
Continuous
 62
     7
100
AcDbCircle
 10
272.1039401059938
 20
108.9778440000015
 30
0.0
 40
0.999999999997014
100
AcDbArc
 50
95.99999999999682
 51
180.0
  0
ARC
  5
160
330
50
100
AcDbEntity
  8
LC-002-002-RND-0
  6
Continuous
 62
     7
100
AcDbCircle
 10
178.6039401059938
 20
162.2782279999998
 30
0.0
 40
0.5
100
AcDbArc
 50
-90.0
 51
0.0
  0
ARC
  5
161
330
50
100
AcDbEntity
  8
LC-002-002-RND-0
  6
Continuous
 62
     7
100
AcDbCircle
 10
286.1039401059938
 20
161.2782279999998
 30
0.0
 40
0.4999999999983895
100
AcDbArc
 50
-84.00000000020154
 51
90.0
  0
ARC
  5
162
330
50
100
AcDbEntity
  8
LC-002-002-RND-0
  6
Continuous
 62
     7
100
AcDbCircle
 10
178.6039401059938
 20
137.6178970000007
 30
0.0
 40
0.5
100
AcDbArc
 50
-90.0
 51
0.0
  0
ARC
  5
163
330
50
100
AcDbEntity
  8
LC-002-002-RND-0
  6
Continuous
 62
     7
100
AcDbCircle
 10
286.1039401059938
 20
136.6178970000007
 30
0.0
 40
0.500000000001951
100
AcDbArc
 50
-84.00000000024444
 51
90.0
  0
ARC
  5
164
330
50
100
AcDbEntity
  8
LC-002-002-RND-0
  6
Continuous
 62
     7
100
AcDbCircle
 10
164.1039401059938
 20
-36.00442200000123
 30
0.0
 40
0.5
100
AcDbArc
 50
90.0
 51
-96.00000000019432
  0
ARC
  5
165
330
50
100
AcDbEntity
  8
LC-002-002-RND-0
  6
Continuous
 62
     7
100
AcDbCircle
 10
178.1039401059938
 20
-38.98414400000127
 30
0.0
 40
1.0
100
AcDbArc
 50
0.0
 51
84.00000000001701
  0
ARC
  5
166
330
50
100
AcDbEntity
  8
LC-002-002-RND-0
  6
Continuous
 62
     7
100
AcDbCircle
 10
272.1039401059938
 20
158.2985070000001
 30
0.0
 40
1.000000000000703
100
AcDbArc
 50
95.9999999999746
 51
180.0
  0
ARC
  5
167
330
50
100
AcDbEntity
  8
LC-002-002-RND-0
  6
Continuous
 62
     7
100
AcDbCircle
 10
164.1039401059938
 20
-11.34409099999846
 30
0.0
 40
0.5
100
AcDbArc
 50
90.0
 51
-96.00000000015073
  0
ARC
  5
168
330
50
100
AcDbEntity
  8
LC-002-002-RND-0
  6
Continuous
 62
     7
100
AcDbCircle
 10
178.1039401059938
 20
-14.3238129999985
 30
0.0
 40
1.0
100
AcDbArc
 50
0.0
 51
83.99999999999523
  0
ARC
  5
169
330
50
100
AcDbEntity
  8
LC-002-002-RND-0
  6
Continuous
 62
     7
100
AcDbCircle
 10
164.1039401059938
 20
13.31624000000068
 30
0.0
 40
0.5
100
AcDbArc
 50
90.0
 51
-96.00000000015072
  0
ARC
  5
16A
330
50
100
AcDbEntity
  8
LC-002-002-RND-0
  6
Continuous
 62
     7
100
AcDbCircle
 10
178.1039401059938
 20
10.33651900000098
 30
0.0
 40
1.0
100
AcDbArc
 50
0.0
 51
84.00000000001695
  0
ARC
  5
16B
330
50
100
AcDbEntity
  8
LC-002-002-RND-0
  6
Continuous
 62
     7
100
AcDbCircle
 10
164.1039401059938
 20
37.97657200000015
 30
0.0
 40
0.5
100
AcDbArc
 50
90.0
 51
-96.0000000001944
  0
ARC
  5
16C
330
50
100
AcDbEntity
  8
LC-002-002-RND-0
  6
Continuous
 62
     7
100
AcDbCircle
 10
178.1039401059938
 20
34.99685000000011
 30
0.0
 40
1.0
100
AcDbArc
 50
0.0
 51
84.00000000001697
  0
ARC
  5
16D
330
50
100
AcDbEntity
  8
LC-002-002-RND-0
  6
Continuous
 62
     7
100
AcDbCircle
 10
178.1039401059938
 20
59.65718099999924
 30
0.0
 40
1.0
100
AcDbArc
 50
0.0
 51
84.00000000001697
  0
ARC
  5
16E
330
50
100
AcDbEntity
  8
LC-002-002-RND-0
  6
Continuous
 62
     7
100
AcDbCircle
 10
164.1039401059938
 20
62.63690299999928
 30
0.0
 40
0.5
100
AcDbArc
 50
90.0
 51
-96.00000000019432
  0
ARC
  5
16F
330
50
100
AcDbEntity
  8
LC-002-002-RND-0
  6
Continuous
 62
     7
100
AcDbCircle
 10
164.1039401059938
 20
87.29723399999841
 30
0.0
 40
0.5
100
AcDbArc
 50
90.0
 51
-96.00000000019432
  0
ARC
  5
170
330
50
100
AcDbEntity
  8
LC-002-002-RND-0
  6
Continuous
 62
     7
100
AcDbCircle
 10
178.1039401059938
 20
84.31751299999871
 30
0.0
 40
1.0
100
AcDbArc
 50
0.0
 51
84.00000000001697
  0
ARC
  5
171
330
50
100
AcDbEntity
  8
LC-002-002-RND-0
  6
Continuous
 62
     7
100
AcDbCircle
 10
164.1039401059938
 20
111.9575660000015
 30
0.0
 40
0.5
100
AcDbArc
 50
90.0
 51
-96.00000000015073
  0
ARC
  5
172
330
50
100
AcDbEntity
  8
LC-002-002-RND-0
  6
Continuous
 62
     7
100
AcDbCircle
 10
178.1039401059938
 20
108.9778440000015
 30
0.0
 40
1.0
100
AcDbArc
 50
0.0
 51
83.9999999999951
  0
ARC
  5
173
330
50
100
AcDbEntity
  8
LC-002-002-RND-0
  6
Continuous
 62
     7
100
AcDbCircle
 10
272.1039401059938
 20
133.6381750000006
 30
0.0
 40
1.000000000000703
100
AcDbArc
 50
95.9999999999746
 51
180.0
  0
ARC
  5
174
330
50
100
AcDbEntity
  8
LC-002-002-RND-0
  6
Continuous
 62
     7
100
AcDbCircle
 10
286.1039401059938
 20
185.9385599999993
 30
0.0
 40
0.4999999999983895
100
AcDbArc
 50
-84.00000000020154
 51
90.0
  0
ARC
  5
175
330
50
100
AcDbEntity
  8
LC-002-002-RND-0
  6
Continuous
 62
     7
100
AcDbCircle
 10
164.1039401059938
 20
161.2782279999998
 30
0.0
 40
0.5
100
AcDbArc
 50
90.0
 51
-96.00000000019362
  0
ARC
  5
176
330
50
100
AcDbEntity
  8
LC-002-002-RND-0
  6
Continuous
 62
     7
100
AcDbCircle
 10
178.1039401059938
 20
158.2985070000001
 30
0.0
 40
1.0
100
AcDbArc
 50
0.0
 51
84.00000000001731
  0
ARC
  5
177
330
50
100
AcDbEntity
  8
LC-002-002-RND-0
  6
Continuous
 62
     7
100
AcDbCircle
 10
178.1039401059938
 20
133.6381750000006
 30
0.0
 40
1.0
100
AcDbArc
 50
0.0
 51
84.00000000001731
  0
ARC
  5
178
330
50
100
AcDbEntity
  8
LC-002-002-RND-0
  6
Continuous
 62
     7
100
AcDbCircle
 10
164.1039401059938
 20
185.9385599999993
 30
0.0
 40
0.5
100
AcDbArc
 50
90.0
 51
-96.00000000019362
  0
ARC
  5
179
330
50
100
AcDbEntity
  8
LC-002-002-RND-0
  6
Continuous
 62
     7
100
AcDbCircle
 10
272.1039401059938
 20
182.9588379999992
 30
0.0
 40
1.000000000000703
100
AcDbArc
 50
95.9999999999746
 51
180.0
  0
ARC
  5
17A
330
50
100
AcDbEntity
  8
LC-002-002-RND-0
  6
Continuous
 62
     7
100
AcDbCircle
 10
178.1039401059938
 20
182.9588379999992
 30
0.0
 40
1.0
100
AcDbArc
 50
0.0
 51
84.00000000001731
  0
ARC
  5
17B
330
50
100
AcDbEntity
  8
LC-001-002-RND-0
  6
Continuous
 62
     7
100
AcDbCircle
 10
165.1037986185855
 20
314.438066
 30
0.0
 40
3.0
100
AcDbArc
 50
180.0
 51
-90.0
  0
ARC
  5
17C
330
50
100
AcDbEntity
  8
LC-001-002-RND-0
  6
Continuous
 62
     7
100
AcDbCircle
 10
285.1038086185856
 20
314.438066
 30
0.0
 40
3.0
100
AcDbArc
 50
-90.0
 51
0.0
  0
ARC
  5
17D
330
50
100
AcDbEntity
  8
LC-001-002-RND-0
  6
Continuous
 62
     7
100
AcDbCircle
 10
123.1001916185855
 20
396.131187
 30
0.0
 40
0.5
100
AcDbArc
 50
0.0
 51
90.0
  0
ARC
  5
17E
330
50
100
AcDbEntity
  8
LC-001-002-RND-0
  6
Continuous
 62
     7
100
AcDbCircle
 10
125.1001916185855
 20
382.131187
 30
0.0
 40
1.5
100
AcDbArc
 50
180.0
 51
-90.0
  0
ARC
  5
17F
330
50
100
AcDbEntity
  8
LC-001-002-RND-0
  6
Continuous
 62
     7
100
AcDbCircle
 10
325.1072356185855
 20
382.131462
 30
0.0
 40
1.499999999999606
100
AcDbArc
 50
-89.99984300000982
 51
0.00015699998584
  0
ARC
  5
180
330
50
100
AcDbEntity
  8
LC-001-002-RND-0
  6
Continuous
 62
     7
100
AcDbCircle
 10
327.1071976185856
 20
396.131467
 30
0.0
 40
0.4999999999998876
100
AcDbArc
 50
90.00015699995978
 51
-179.9998430000532
  0
ARC
  5
181
330
50
100
AcDbEntity
  8
LC-001-002-RND-0
  6
Continuous
 62
     7
100
AcDbCircle
 10
302.8538056185855
 20
368.438412
 30
0.0
 40
3.0
100
AcDbArc
 50
-90.0
 51
0.0
  0
ARC
  5
182
330
50
100
AcDbEntity
  8
LC-001-002-RND-0
  6
Continuous
 62
     7
100
AcDbCircle
 10
147.3538056185855
 20
368.438412
 30
0.0
 40
3.0
100
AcDbArc
 50
180.0
 51
-90.0
  0
ARC
  5
183
330
50
100
AcDbEntity
  8
1
  6
Continuous
 62
     7
100
AcDbCircle
 10
50.10320367938766
 20
407.9746236063492
 30
0.0
 40
2.0
100
AcDbArc
 50
90.0
 51
-179.9999234896628
  0
ARC
  5
184
330
50
100
AcDbEntity
  8
1
  6
Continuous
 62
     7
100
AcDbCircle
 10
400.1040080519395
 20
407.9750878499224
 30
0.0
 40
1.999999999999907
100
AcDbArc
 50
0.0000765103405
 51
90.00007896586307
  0
ENDBLK
  5
52
330
50
100
AcDbEntity
  8
0
100
AcDbBlockEnd
  0
BLOCK
  5
54
330
53
100
AcDbEntity
  8
0
100
AcDbBlockBegin
  2
PVC_Manschette
 70
     0
 71
     0
 10
48.10320281227064
 20
387.060705
 30
0.0
  3
PVC_Manschette
  1

  0
LINE
  5
185
330
53
100
AcDbEntity
  8
1
  6
Continuous
 62
     7
100
AcDbLine
 10
400.1040088122707
 20
415.060705
 30
0.0
 11
225.1036058122706
 21
415.060705
 31
0.0
  0
LINE
  5
186
330
53
100
AcDbEntity
  8
1
  6
Continuous
 62
     7
100
AcDbLine
 10
402.1040088122707
 20
413.060705
 30
0.0
 11
402.1040088122707
 21
412.560705
 31
0.0
  0
LINE
  5
187
330
53
100
AcDbEntity
  8
1
  6
Continuous
 62
     7
100
AcDbLine
 10
355.1040088122707
 20
412.560705
 30
0.0
 11
402.1040088122707
 21
412.560705
 31
0.0
  0
LINE
  5
188
330
53
100
AcDbEntity
  8
1
  6
Continuous
 62
     7
100
AcDbLine
 10
351.6786968122707
 20
411.060705
 30
0.0
 11
355.1040088122707
 21
412.560705
 31
0.0
  0
LINE
  5
189
330
53
100
AcDbEntity
  8
1
  6
Continuous
 62
     7
100
AcDbLine
 10
225.1036058122706
 20
411.060705
 30
0.0
 11
351.6786968122707
 21
411.060705
 31
0.0
  0
LINE
  5
18A
330
53
100
AcDbEntity
  8
1
  6
Continuous
 62
     7
100
AcDbLine
 10
225.1036058122706
 20
412.560705
 30
0.0
 11
355.1040088122707
 21
412.560705
 31
0.0
  0
LINE
  5
18B
330
53
100
AcDbEntity
  8
1
  6
Continuous
 62
     7
100
AcDbLine
 10
95.10320281227064
 20
412.560705
 30
0.0
 11
225.1036058122706
 21
412.560705
 31
0.0
  0
LINE
  5
18C
330
53
100
AcDbEntity
  8
1
  6
Continuous
 62
     7
100
AcDbLine
 10
98.5285148122706
 20
411.060705
 30
0.0
 11
225.1036058122706
 21
411.060705
 31
0.0
  0
LINE
  5
18D
330
53
100
AcDbEntity
  8
1
  6
Continuous
 62
     7
100
AcDbLine
 10
95.10320281227064
 20
412.560705
 30
0.0
 11
98.5285148122706
 21
411.060705
 31
0.0
  0
LINE
  5
18E
330
53
100
AcDbEntity
  8
1
  6
Continuous
 62
     7
100
AcDbLine
 10
48.10320281227064
 20
412.560705
 30
0.0
 11
95.10320281227064
 21
412.560705
 31
0.0
  0
LINE
  5
18F
330
53
100
AcDbEntity
  8
1
  6
Continuous
 62
     7
100
AcDbLine
 10
48.10320281227064
 20
412.560705
 30
0.0
 11
48.10320281227064
 21
413.060705
 31
0.0
  0
LINE
  5
190
330
53
100
AcDbEntity
  8
1
  6
Continuous
 62
     7
100
AcDbLine
 10
225.1036058122706
 20
415.060705
 30
0.0
 11
50.10320281227064
 21
415.060705
 31
0.0
  0
ARC
  5
191
330
53
100
AcDbEntity
  8
1
  6
Continuous
 62
     7
100
AcDbCircle
 10
400.1040088122707
 20
413.060705
 30
0.0
 40
2.0
100
AcDbArc
 50
0.0
 51
90.0
  0
ARC
  5
192
330
53
100
AcDbEntity
  8
1
  6
Continuous
 62
     7
100
AcDbCircle
 10
50.10320281227064
 20
413.060705
 30
0.0
 40
2.0
100
AcDbArc
 50
90.0
 51
180.0
  0
ENDBLK
  5
55
330
53
100
AcDbEntity
  8
0
100
AcDbBlockEnd
  0
BLOCK
  5
57
330
56
100
AcDbEntity
  8
0
100
AcDbBlockBegin
  2
062_1E_Laubfangkorb
 70
     0
 71
     0
 10
-642.4799843398262
 20
1067.586963
 30
0.0
  3
062_1E_Laubfangkorb
  1

  0
LINE
  5
193
330
56
100
AcDbEntity
  8
LC-007-006-MLN-0
  6
CENTER
 62
     2
100
AcDbLine
 10
225.1036058122706
 20
495.196182
 30
0.0
 11
225.1036058122706
 21
379.527064
 31
0.0
  0
LINE
  5
194
330
56
100
AcDbEntity
  8
LC-002-002-----0
  6
Continuous
 62
     7
100
AcDbLine
 10
189.9706808122706
 20
418.260962
 30
0.0
 11
177.6425918122707
 21
418.2609349999999
 31
0.0
  0
LINE
  5
195
330
56
100
AcDbEntity
  8
LC-002-002-----0
  6
Continuous
 62
     7
100
AcDbLine
 10
223.9533938122706
 20
447.6983870000001
 30
0.0
 11
223.9533938122706
 21
415.060705
 31
0.0
  0
LINE
  5
196
330
56
100
AcDbEntity
  8
LC-002-002-----0
  6
Continuous
 62
     7
100
AcDbLine
 10
226.2533938122706
 20
447.6983870000001
 30
0.0
 11
226.2533938122706
 21
415.060705
 31
0.0
  0
LINE
  5
197
330
56
100
AcDbEntity
  8
LC-002-002-----0
  6
Continuous
 62
     7
100
AcDbLine
 10
165.3701605792878
 20
415.060705
 30
0.0
 11
177.4205438122706
 21
447.6983870000001
 31
0.0
  0
LINE
  5
198
330
56
100
AcDbEntity
  8
LC-002-002-----0
  6
Continuous
 62
     7
100
AcDbLine
 10
191.2803485768199
 20
415.060705
 30
0.0
 11
198.2376378122706
 21
447.6983870000001
 31
0.0
  0
LINE
  5
199
330
56
100
AcDbEntity
  8
LC-002-002-----0
  6
Continuous
 62
     7
100
AcDbLine
 10
189.2884896345604
 20
415.060705
 30
0.0
 11
196.2457798122706
 21
447.6983870000001
 31
0.0
  0
LINE
  5
19A
330
56
100
AcDbEntity
  8
LC-002-002-----0
  6
Continuous
 62
     7
100
AcDbLine
 10
205.9689518663294
 20
415.060705
 30
0.0
 11
209.5703088122707
 21
447.6983870000001
 31
0.0
  0
LINE
  5
19B
330
56
100
AcDbEntity
  8
LC-002-002-----0
  6
Continuous
 62
     7
100
AcDbLine
 10
208.1905808663292
 20
415.060705
 30
0.0
 11
211.7919378122706
 21
447.6983870000001
 31
0.0
  0
LINE
  5
19C
330
56
100
AcDbEntity
  8
LC-002-002-----0
  6
Continuous
 62
     7
100
AcDbLine
 10
164.2201606370282
 20
415.060705
 30
0.0
 11
176.2705448122706
 21
447.6983870000001
 31
0.0
  0
LINE
  5
19D
330
56
100
AcDbEntity
  8
LC-002-002-----0
  6
Continuous
 62
     7
100
AcDbLine
 10
176.6761527599565
 20
415.060705
 30
0.0
 11
186.5324218122706
 21
447.6983870000001
 31
0.0
  0
LINE
  5
19E
330
56
100
AcDbEntity
  8
LC-002-002-----0
  6
Continuous
 62
     7
100
AcDbLine
 10
175.0487544378062
 20
415.060705
 30
0.0
 11
184.8878508122707
 21
447.6983870000001
 31
0.0
  0
LINE
  5
19F
330
56
100
AcDbEntity
  8
LC-002-002-----0
  6
Continuous
 62
     7
100
AcDbLine
 10
158.1359417805678
 20
415.060705
 30
0.0
 11
171.5763998122707
 21
447.6983870000001
 31
0.0
  0
LINE
  5
1A0
330
56
100
AcDbEntity
  8
LC-002-002-----0
  6
Continuous
 62
     7
100
AcDbLine
 10
157.5406577805678
 20
415.060705
 30
0.0
 11
170.9811158122707
 21
447.6983870000001
 31
0.0
  0
LINE
  5
1A1
330
56
100
AcDbEntity
  8
LC-002-002-----0
  6
Continuous
 62
     7
100
AcDbLine
 10
242.0156853954181
 20
415.060705
 30
0.0
 11
238.4142338122706
 21
447.6984240000001
 31
0.0
  0
LINE
  5
1A2
330
56
100
AcDbEntity
  8
LC-002-002-----0
  6
Continuous
 62
     7
100
AcDbLine
 10
244.2373159997569
 20
415.060705
 30
0.0
 11
240.6358628122706
 21
447.6984300000001
 31
0.0
  0
LINE
  5
1A3
330
56
100
AcDbEntity
  8
LC-002-002-----0
  6
Continuous
 62
     7
100
AcDbLine
 10
260.9177924200492
 20
415.060705
 30
0.0
 11
253.9603928122706
 21
447.6984660000002
 31
0.0
  0
LINE
  5
1A4
330
56
100
AcDbEntity
  8
LC-002-002-----0
  6
Continuous
 62
     7
100
AcDbLine
 10
258.9259332964598
 20
415.060705
 30
0.0
 11
251.9685338122706
 21
447.6984610000001
 31
0.0
  0
LINE
  5
1A5
330
56
100
AcDbEntity
  8
LC-002-002-----0
  6
Continuous
 62
     7
100
AcDbLine
 10
273.5301493003726
 20
415.060705
 30
0.0
 11
263.6737498122707
 21
447.698493
 31
0.0
  0
LINE
  5
1A6
330
56
100
AcDbEntity
  8
LC-002-002-----0
  6
Continuous
 62
     7
100
AcDbLine
 10
275.1575481582719
 20
415.060705
 30
0.0
 11
265.3183218122706
 21
447.698497
 31
0.0
  0
LINE
  5
1A7
330
56
100
AcDbEntity
  8
LC-002-002-----0
  6
Continuous
 62
     7
100
AcDbLine
 10
284.8361620465179
 20
415.060705
 30
0.0
 11
272.7856278122706
 21
447.6985180000001
 31
0.0
  0
LINE
  5
1A8
330
56
100
AcDbEntity
  8
LC-002-002-----0
  6
Continuous
 62
     7
100
AcDbLine
 10
285.9861631541778
 20
415.060705
 30
0.0
 11
273.9356278122707
 21
447.6985210000002
 31
0.0
  0
LINE
  5
1A9
330
56
100
AcDbEntity
  8
LC-002-002-----0
  6
Continuous
 62
     7
100
AcDbLine
 10
292.0703959704135
 20
415.060705
 30
0.0
 11
278.6297718122708
 21
447.6985340000001
 31
0.0
  0
LINE
  5
1AA
330
56
100
AcDbEntity
  8
LC-002-002-----0
  6
Continuous
 62
     7
100
AcDbLine
 10
292.6656794399598
 20
415.060705
 30
0.0
 11
279.2250558122707
 21
447.6985349999999
 31
0.0
  0
LINE
  5
1AB
330
56
100
AcDbEntity
  8
LC-002-002-----0
  6
Continuous
 62
     7
100
AcDbLine
 10
156.4961088122707
 20
418.2608899999999
 30
0.0
 11
158.8585218122706
 21
418.260895
 31
0.0
  0
LINE
  5
1AC
330
56
100
AcDbEntity
  8
LC-002-002-----0
  6
Continuous
 62
     7
100
AcDbLine
 10
176.0135088122706
 20
418.260932
 30
0.0
 11
166.5517308122707
 21
418.260911
 31
0.0
  0
LINE
  5
1AD
330
56
100
AcDbEntity
  8
LC-002-002-----0
  6
Continuous
 62
     7
100
AcDbLine
 10
177.4056598122706
 20
422.8788940000001
 30
0.0
 11
168.2567678122706
 21
422.8788940000001
 31
0.0
  0
LINE
  5
1AE
330
56
100
AcDbEntity
  8
LC-002-002-----0
  6
Continuous
 62
     7
100
AcDbLine
 10
190.9550728122706
 20
422.8788940000001
 30
0.0
 11
179.0371708122707
 21
422.8788940000001
 31
0.0
  0
LINE
  5
1AF
330
56
100
AcDbEntity
  8
LC-002-002-----0
  6
Continuous
 62
     7
100
AcDbLine
 10
206.8316378122706
 20
422.8788940000001
 30
0.0
 11
192.9469308122707
 21
422.8788940000001
 31
0.0
  0
LINE
  5
1B0
330
56
100
AcDbEntity
  8
LC-002-002-----0
  6
Continuous
 62
     7
100
AcDbLine
 10
223.9533938122706
 20
422.8788940000001
 30
0.0
 11
209.0532678122706
 21
422.8788940000001
 31
0.0
  0
LINE
  5
1B1
330
56
100
AcDbEntity
  8
LC-002-002-----0
  6
Continuous
 62
     7
100
AcDbLine
 10
241.1529778122706
 20
422.8788940000001
 30
0.0
 11
226.2533938122706
 21
422.8788940000001
 31
0.0
  0
LINE
  5
1B2
330
56
100
AcDbEntity
  8
LC-002-002-----0
  6
Continuous
 62
     7
100
AcDbLine
 10
257.2593278122706
 20
422.8788940000001
 30
0.0
 11
243.3746078122706
 21
422.8788940000001
 31
0.0
  0
LINE
  5
1B3
330
56
100
AcDbEntity
  8
LC-002-002-----0
  6
Continuous
 62
     7
100
AcDbLine
 10
271.1691068122707
 20
422.8788940000001
 30
0.0
 11
259.2511878122707
 21
422.8788940000001
 31
0.0
  0
LINE
  5
1B4
330
56
100
AcDbEntity
  8
LC-002-002-----0
  6
Continuous
 62
     7
100
AcDbLine
 10
281.9495298122706
 20
422.8788940000001
 30
0.0
 11
272.8006198122705
 21
422.8788940000001
 31
0.0
  0
LINE
  5
1B5
330
56
100
AcDbEntity
  8
LC-002-002-----0
  6
Continuous
 62
     7
100
AcDbLine
 10
241.6625368122707
 20
418.2610739999999
 30
0.0
 11
226.2533938122706
 21
418.2610410000001
 31
0.0
  0
LINE
  5
1B6
330
56
100
AcDbEntity
  8
LC-002-002-----0
  6
Continuous
 62
     7
100
AcDbLine
 10
258.2437018122707
 20
418.2611100000001
 30
0.0
 11
243.8841668122707
 21
418.261079
 31
0.0
  0
LINE
  5
1B7
330
56
100
AcDbEntity
  8
LC-002-002-----0
  6
Continuous
 62
     7
100
AcDbLine
 10
272.5636388122705
 20
418.2611410000001
 30
0.0
 11
260.2355608122707
 21
418.261114
 31
0.0
  0
LINE
  5
1B8
330
56
100
AcDbEntity
  8
LC-002-002-----0
  6
Continuous
 62
     7
100
AcDbLine
 10
283.6544878122707
 20
418.261165
 30
0.0
 11
274.1927208122706
 21
418.261144
 31
0.0
  0
LINE
  5
1B9
330
56
100
AcDbEntity
  8
LC-002-002-----0
  6
Continuous
 62
     7
100
AcDbLine
 10
165.4017298122706
 20
418.260909
 30
0.0
 11
159.4538058122706
 21
418.2608960000001
 31
0.0
  0
LINE
  5
1BA
330
56
100
AcDbEntity
  8
LC-002-002-----0
  6
Continuous
 62
     7
100
AcDbLine
 10
223.9533938122706
 20
418.261036
 30
0.0
 11
208.5437128122705
 21
418.2610020000001
 31
0.0
  0
LINE
  5
1BB
330
56
100
AcDbEntity
  8
LC-002-002-----0
  6
Continuous
 62
     7
100
AcDbLine
 10
177.6425918122707
 20
418.2609349999999
 30
0.0
 11
189.9706808122706
 21
418.260962
 31
0.0
  0
LINE
  5
1BC
330
56
100
AcDbEntity
  8
LC-002-002-----0
  6
Continuous
 62
     7
100
AcDbLine
 10
206.3220828122705
 20
418.260997
 30
0.0
 11
191.9625398122706
 21
418.260966
 31
0.0
  0
LINE
  5
1BD
330
56
100
AcDbEntity
  8
LC-002-002-----0
  6
Continuous
 62
     7
100
AcDbLine
 10
208.5437128122705
 20
418.2610020000001
 30
0.0
 11
223.9533938122706
 21
418.261036
 31
0.0
  0
LINE
  5
1BE
330
56
100
AcDbEntity
  8
LC-002-002-----0
  6
Continuous
 62
     7
100
AcDbLine
 10
191.9625398122706
 20
418.260966
 30
0.0
 11
206.3220828122705
 21
418.260997
 31
0.0
  0
LINE
  5
1BF
330
56
100
AcDbEntity
  8
LC-002-002-----0
  6
Continuous
 62
     7
100
AcDbLine
 10
166.5517308122707
 20
418.260911
 30
0.0
 11
176.0135088122706
 21
418.260932
 31
0.0
  0
LINE
  5
1C0
330
56
100
AcDbEntity
  8
LC-002-002-----0
  6
Continuous
 62
     7
100
AcDbLine
 10
159.4538058122706
 20
418.2608960000001
 30
0.0
 11
165.4017298122706
 21
418.260909
 31
0.0
  0
LINE
  5
1C1
330
56
100
AcDbEntity
  8
LC-002-002-----0
  6
Continuous
 62
     7
100
AcDbLine
 10
155.3313372873687
 20
415.060705
 30
0.0
 11
181.9011668122706
 21
488.060711
 31
0.0
  0
LINE
  5
1C2
330
56
100
AcDbEntity
  8
LC-002-002-----0
  6
Continuous
 62
     7
100
AcDbLine
 10
139.5815057811801
 20
415.060705
 30
0.0
 11
162.5590568122707
 21
478.191006
 31
0.0
  0
LINE
  5
1C3
330
56
100
AcDbEntity
  8
LC-002-002-----0
  6
Continuous
 62
     7
100
AcDbLine
 10
310.6248405907536
 20
415.060705
 30
0.0
 11
287.6470318122706
 21
478.1911770000001
 31
0.0
  0
LINE
  5
1C4
330
56
100
AcDbEntity
  8
LC-002-002-----0
  6
Continuous
 62
     7
100
AcDbLine
 10
294.8749943627493
 20
415.060705
 30
0.0
 11
268.3048948122707
 21
488.060829
 31
0.0
  0
LINE
  5
1C5
330
56
100
AcDbEntity
  8
LC-002-002-----0
  6
Continuous
 62
     7
100
AcDbLine
 10
221.7977168122707
 20
473.2607649999999
 30
0.0
 11
221.7977168122707
 21
488.0607650000001
 31
0.0
  0
LINE
  5
1C6
330
56
100
AcDbEntity
  8
LC-002-002-----0
  6
Continuous
 62
     7
100
AcDbLine
 10
228.4083848122707
 20
473.260774
 30
0.0
 11
228.4083438122707
 21
488.0607740000002
 31
0.0
  0
LINE
  5
1C7
330
56
100
AcDbEntity
  8
LC-002-002-----0
  6
Continuous
 62
     7
100
AcDbLine
 10
176.6544248122707
 20
488.0607030000001
 30
0.0
 11
273.5516358122707
 21
488.060836
 31
0.0
  0
LINE
  5
1C8
330
56
100
AcDbEntity
  8
LC-002-002-----0
  6
Continuous
 62
     7
100
AcDbLine
 10
267.5899098122707
 20
483.975695
 30
0.0
 11
266.1030308122706
 21
488.060826
 31
0.0
  0
LINE
  5
1C9
330
56
100
AcDbEntity
  8
LC-002-002-----0
  6
Continuous
 62
     7
100
AcDbLine
 10
269.9427758122706
 20
483.560828
 30
0.0
 11
267.5899098122707
 21
483.975695
 31
0.0
  0
LINE
  5
1CA
330
56
100
AcDbEntity
  8
LC-002-002-----0
  6
Continuous
 62
     7
100
AcDbLine
 10
182.6161628122707
 20
483.9755780000002
 30
0.0
 11
184.1030308122706
 21
488.0607140000001
 31
0.0
  0
LINE
  5
1CB
330
56
100
AcDbEntity
  8
LC-002-002-----0
  6
Continuous
 62
     7
100
AcDbLine
 10
180.2632978122706
 20
483.560705
 30
0.0
 11
182.6161628122707
 21
483.9755780000002
 31
0.0
  0
LINE
  5
1CC
330
56
100
AcDbEntity
  8
LC-002-002-----0
  6
Continuous
 62
     7
100
AcDbLine
 10
281.2987328122706
 20
452.3608590000001
 30
0.0
 11
281.2987448122706
 21
447.9977579999999
 31
0.0
  0
LINE
  5
1CD
330
56
100
AcDbEntity
  8
LC-002-002-----0
  6
Continuous
 62
     7
100
AcDbLine
 10
283.0951748122707
 20
447.6810040000002
 30
0.0
 11
281.2987448122706
 21
447.9977579999999
 31
0.0
  0
LINE
  5
1CE
330
56
100
AcDbEntity
  8
LC-002-002-----0
  6
Continuous
 62
     7
100
AcDbLine
 10
226.2533938122706
 20
473.2607710000002
 30
0.0
 11
226.2533938122706
 21
452.360705
 31
0.0
  0
LINE
  5
1CF
330
56
100
AcDbEntity
  8
LC-002-002-----0
  6
Continuous
 62
     7
100
AcDbLine
 10
223.9533938122706
 20
473.260768
 30
0.0
 11
223.9533938122706
 21
452.360705
 31
0.0
  0
LINE
  5
1D0
330
56
100
AcDbEntity
  8
LC-002-002-----0
  6
Continuous
 62
     7
100
AcDbLine
 10
168.9074268122706
 20
452.360705
 30
0.0
 11
168.9074268122706
 21
447.9976040000001
 31
0.0
  0
LINE
  5
1D1
330
56
100
AcDbEntity
  8
LC-002-002-----0
  6
Continuous
 62
     7
100
AcDbLine
 10
167.2104818122707
 20
447.6983870000001
 30
0.0
 11
168.9074268122706
 21
447.9976040000001
 31
0.0
  0
LINE
  5
1D2
330
56
100
AcDbEntity
  8
LC-002-002-----0
  6
Continuous
 62
     7
100
AcDbLine
 10
176.5144038122706
 20
473.2607030000001
 30
0.0
 11
273.6916978122706
 21
473.2608370000002
 31
0.0
  0
LINE
  5
1D3
330
56
100
AcDbEntity
  8
LC-002-002-----0
  6
Continuous
 62
     7
100
AcDbLine
 10
168.9074268122706
 20
452.360705
 30
0.0
 11
281.2987328122706
 21
452.360705
 31
0.0
  0
LINE
  5
1D4
330
56
100
AcDbEntity
  8
LC-002-002-----0
  6
Continuous
 62
     7
100
AcDbLine
 10
167.2104818122707
 20
447.6983870000001
 30
0.0
 11
282.9956898122707
 21
447.6983870000001
 31
0.0
  0
LINE
  5
1D5
330
56
100
AcDbEntity
  8
LC-002-002-----0
  6
Continuous
 62
     7
100
AcDbLine
 10
173.4963798122706
 20
452.360705
 30
0.0
 11
182.1031688122706
 21
473.2607110000001
 31
0.0
  0
LINE
  5
1D6
330
56
100
AcDbEntity
  8
LC-002-002-----0
  6
Continuous
 62
     7
100
AcDbLine
 10
172.9010958122706
 20
452.360705
 30
0.0
 11
181.5078848122706
 21
473.26071
 31
0.0
  0
LINE
  5
1D7
330
56
100
AcDbEntity
  8
LC-002-002-----0
  6
Continuous
 62
     7
100
AcDbLine
 10
177.9919508122706
 20
452.360705
 30
0.0
 11
185.7085888122706
 21
473.2607160000002
 31
0.0
  0
LINE
  5
1D8
330
56
100
AcDbEntity
  8
LC-002-002-----0
  6
Continuous
 62
     7
100
AcDbLine
 10
179.1419508122706
 20
452.360705
 30
0.0
 11
186.8585888122707
 21
473.2607170000001
 31
0.0
  0
LINE
  5
1D9
330
56
100
AcDbEntity
  8
LC-002-002-----0
  6
Continuous
 62
     7
100
AcDbLine
 10
186.2933728122706
 20
452.360705
 30
0.0
 11
192.5939828122706
 21
473.260725
 31
0.0
  0
LINE
  5
1DA
330
56
100
AcDbEntity
  8
LC-002-002-----0
  6
Continuous
 62
     7
100
AcDbLine
 10
187.9403978122707
 20
452.360705
 30
0.0
 11
194.2520058122707
 21
473.2607280000001
 31
0.0
  0
LINE
  5
1DB
330
56
100
AcDbEntity
  8
LC-002-002-----0
  6
Continuous
 62
     7
100
AcDbLine
 10
197.2396338122705
 20
452.360705
 30
0.0
 11
201.6948398122706
 21
473.2607380000001
 31
0.0
  0
LINE
  5
1DC
330
56
100
AcDbEntity
  8
LC-002-002-----0
  6
Continuous
 62
     7
100
AcDbLine
 10
199.2314918122706
 20
452.360705
 30
0.0
 11
203.6866978122706
 21
473.2607400000001
 31
0.0
  0
LINE
  5
1DD
330
56
100
AcDbEntity
  8
LC-002-002-----0
  6
Continuous
 62
     7
100
AcDbLine
 10
210.0847658122707
 20
452.360705
 30
0.0
 11
212.3909508122706
 21
473.2607520000001
 31
0.0
  0
LINE
  5
1DE
330
56
100
AcDbEntity
  8
LC-002-002-----0
  6
Continuous
 62
     7
100
AcDbLine
 10
212.3063948122706
 20
452.360705
 30
0.0
 11
214.6125798122706
 21
473.260755
 31
0.0
  0
LINE
  5
1DF
330
56
100
AcDbEntity
  8
LC-002-002-----0
  6
Continuous
 62
     7
100
AcDbLine
 10
237.8997648122706
 20
452.36074
 30
0.0
 11
235.5935218122706
 21
473.260784
 31
0.0
  0
LINE
  5
1E0
330
56
100
AcDbEntity
  8
LC-002-002-----0
  6
Continuous
 62
     7
100
AcDbLine
 10
240.1213938122706
 20
452.360746
 30
0.0
 11
237.8151508122706
 21
473.2607870000001
 31
0.0
  0
LINE
  5
1E1
330
56
100
AcDbEntity
  8
LC-002-002-----0
  6
Continuous
 62
     7
100
AcDbLine
 10
250.9746678122706
 20
452.3607759999999
 30
0.0
 11
246.5194038122706
 21
473.2607990000001
 31
0.0
  0
LINE
  5
1E2
330
56
100
AcDbEntity
  8
LC-002-002-----0
  6
Continuous
 62
     7
100
AcDbLine
 10
252.9665258122707
 20
452.360781
 30
0.0
 11
248.5112628122706
 21
473.260802
 31
0.0
  0
LINE
  5
1E3
330
56
100
AcDbEntity
  8
LC-002-002-----0
  6
Continuous
 62
     7
100
AcDbLine
 10
262.2657618122705
 20
452.360807
 30
0.0
 11
255.9540958122707
 21
473.2608119999999
 31
0.0
  0
LINE
  5
1E4
330
56
100
AcDbEntity
  8
LC-002-002-----0
  6
Continuous
 62
     7
100
AcDbLine
 10
263.9127868122707
 20
452.360811
 30
0.0
 11
257.6121198122708
 21
473.2608140000002
 31
0.0
  0
LINE
  5
1E5
330
56
100
AcDbEntity
  8
LC-002-002-----0
  6
Continuous
 62
     7
100
AcDbLine
 10
271.0642088122706
 20
452.3608309999999
 30
0.0
 11
263.3475138122706
 21
473.2608220000001
 31
0.0
  0
LINE
  5
1E6
330
56
100
AcDbEntity
  8
LC-002-002-----0
  6
Continuous
 62
     7
100
AcDbLine
 10
272.2142088122707
 20
452.360834
 30
0.0
 11
264.4975138122707
 21
473.2608240000001
 31
0.0
  0
LINE
  5
1E7
330
56
100
AcDbEntity
  8
LC-002-002-----0
  6
Continuous
 62
     7
100
AcDbLine
 10
276.7097798122707
 20
452.3608460000002
 30
0.0
 11
268.1029328122706
 21
473.2608290000002
 31
0.0
  0
LINE
  5
1E8
330
56
100
AcDbEntity
  8
LC-002-002-----0
  6
Continuous
 62
     7
100
AcDbLine
 10
276.7097798122707
 20
452.3608460000002
 30
0.0
 11
268.1029328122706
 21
473.2608290000002
 31
0.0
  0
LINE
  5
1E9
330
56
100
AcDbEntity
  8
LC-002-002-----0
  6
Continuous
 62
     7
100
AcDbLine
 10
277.3050638122707
 20
452.3608480000002
 30
0.0
 11
268.6982168122706
 21
473.2608300000001
 31
0.0
  0
ARC
  5
1EA
330
56
100
AcDbEntity
  8
LC-003-002-RND-0
  6
Continuous
 62
     7
100
AcDbCircle
 10
273.5516568122705
 20
473.0608360000001
 30
0.0
 40
14.99999999999964
100
AcDbArc
 50
20.00015699999869
 51
90.00007900000101
  0
ARC
  5
1EB
330
56
100
AcDbEntity
  8
LC-003-002-RND-0
  6
Continuous
 62
     7
100
AcDbCircle
 10
176.6544458122706
 20
473.0607030000001
 30
0.0
 40
15.00000000000016
100
AcDbArc
 50
90.00007900000145
 51
160.0000000000011
  0
ENDBLK
  5
58
330
56
100
AcDbEntity
  8
0
100
AcDbBlockEnd
  0
BLOCK
  5
5A
330
59
100
AcDbEntity
  8
0
100
AcDbBlockBegin
  2
Bauschutz_062_9E
 70
     0
 71
     0
 10
-421.4929742821878
 20
93.08649090136169
 30
0.0
  3
Bauschutz_062_9E
  1

  0
LINE
  5
1EC
330
59
100
AcDbEntity
  8
1
  6
PHANTOM
 62
     2
100
AcDbLine
 10
225.1038217178102
 20
544.7871564880916
 30
0.0
 11
225.1038217178102
 21
568.080753975988
 31
0.0
  0
LINE
  5
1ED
330
59
100
AcDbEntity
  8
1
  6
Continuous
 62
     7
100
AcDbLine
 10
291.3538217178102
 20
566.1444909013626
 30
0.0
 11
225.1038217178102
 21
566.1444909013626
 31
0.0
  0
LINE
  5
1EE
330
59
100
AcDbEntity
  8
1
  6
Continuous
 62
     7
100
AcDbLine
 10
158.8538217178102
 20
566.1444909013626
 30
0.0
 11
225.1038217178102
 21
566.1444909013626
 31
0.0
  0
LINE
  5
1EF
330
59
100
AcDbEntity
  8
LC-006-002-----0
  6
Continuous
 62
     7
100
AcDbLine
 10
157.1038217178102
 20
564.1444909013626
 30
0.0
 11
158.8538217178102
 21
566.1444909013626
 31
0.0
  0
LINE
  5
1F0
330
59
100
AcDbEntity
  8
LC-006-002-----0
  6
Continuous
 62
     7
100
AcDbLine
 10
293.1038217178102
 20
564.1444909013626
 30
0.0
 11
291.3538217178102
 21
566.1444909013626
 31
0.0
  0
LINE
  5
1F1
330
59
100
AcDbEntity
  8
LC-006-002-----0
  6
Continuous
 62
     7
100
AcDbLine
 10
146.3538217178102
 20
547.6444909013626
 30
0.0
 11
146.3538217178102
 21
562.1444909013626
 31
0.0
  0
LINE
  5
1F2
330
59
100
AcDbEntity
  8
LC-006-002-----0
  6
Continuous
 62
     7
100
AcDbLine
 10
146.3538217178102
 20
547.6444909013626
 30
0.0
 11
225.1038217178102
 21
547.6444909013626
 31
0.0
  0
LINE
  5
1F3
330
59
100
AcDbEntity
  8
LC-006-002-----0
  6
Continuous
 62
     7
100
AcDbLine
 10
113.6038217178102
 20
562.1444909013626
 30
0.0
 11
146.3538217178102
 21
562.1444909013626
 31
0.0
  0
LINE
  5
1F4
330
59
100
AcDbEntity
  8
LC-006-002-----0
  6
Continuous
 62
     7
100
AcDbLine
 10
113.6038217178102
 20
564.1444909013626
 30
0.0
 11
157.1038217178102
 21
564.1444909013626
 31
0.0
  0
LINE
  5
1F5
330
59
100
AcDbEntity
  8
LC-006-002-----0
  6
Continuous
 62
     7
100
AcDbLine
 10
113.6038217178102
 20
564.1444909013626
 30
0.0
 11
113.6038217178102
 21
562.1444909013626
 31
0.0
  0
LINE
  5
1F6
330
59
100
AcDbEntity
  8
LC-006-002-----0
  6
Continuous
 62
     7
100
AcDbLine
 10
303.8538217178102
 20
547.6444909013626
 30
0.0
 11
303.8538217178102
 21
562.1444909013626
 31
0.0
  0
LINE
  5
1F7
330
59
100
AcDbEntity
  8
LC-006-002-----0
  6
Continuous
 62
     7
100
AcDbLine
 10
303.8538217178102
 20
547.6444909013626
 30
0.0
 11
225.1038217178102
 21
547.6444909013626
 31
0.0
  0
LINE
  5
1F8
330
59
100
AcDbEntity
  8
LC-006-002-----0
  6
Continuous
 62
     7
100
AcDbLine
 10
336.6038217178102
 20
562.1444909013626
 30
0.0
 11
303.8538217178102
 21
562.1444909013626
 31
0.0
  0
LINE
  5
1F9
330
59
100
AcDbEntity
  8
LC-006-002-----0
  6
Continuous
 62
     7
100
AcDbLine
 10
336.6038217178102
 20
564.1444909013626
 30
0.0
 11
293.1038217178102
 21
564.1444909013626
 31
0.0
  0
LINE
  5
1FA
330
59
100
AcDbEntity
  8
LC-006-002-----0
  6
Continuous
 62
     7
100
AcDbLine
 10
336.6038217178102
 20
564.1444909013626
 30
0.0
 11
336.6038217178102
 21
562.1444909013626
 31
0.0
  0
LINE
  5
1FB
330
59
100
AcDbEntity
  8
1
  6
Continuous
 62
     7
100
AcDbLine
 10
146.3538217178102
 20
562.1444909013626
 30
0.0
 11
303.8538217178102
 21
562.1444909013626
 31
0.0
  0
LINE
  5
1FC
330
59
100
AcDbEntity
  8
1
  6
Continuous
 62
     7
100
AcDbLine
 10
293.1038217178102
 20
564.1444909013626
 30
0.0
 11
157.1038217178102
 21
564.1444909013626
 31
0.0
  0
ENDBLK
  5
5B
330
59
100
AcDbEntity
  8
0
100
AcDbBlockEnd
  0
BLOCK
  5
5D
330
5C
100
AcDbEntity
  8
0
100
AcDbBlockBegin
  2
Draufsicht
 70
     0
 71
     0
 10
38.95423123163531
 20
-582.4841554109953
 30
0.0
  3
Draufsicht
  1

  0
LINE
  5
1FD
330
5C
100
AcDbEntity
  8
0
  6
Continuous
 62
     7
100
AcDbLine
 10
173.5309551280534
 20
-398.7953740842931
 30
0.0
 11
171.7141293676632
 21
-397.3850038646779
 31
0.0
  0
LINE
  5
1FE
330
5C
100
AcDbEntity
  8
0
  6
Continuous
 62
     7
100
AcDbLine
 10
278.4937297464803
 20
-263.58330695732
 30
0.0
 11
271.3226635721749
 21
-272.8210075083662
 31
0.0
  0
LINE
  5
1FF
330
5C
100
AcDbEntity
  8
0
  6
Continuous
 62
     7
100
AcDbLine
 10
171.7141293676632
 20
-397.3850038646779
 30
0.0
 11
178.885195541965
 21
-388.1473033136317
 31
0.0
  0
LINE
  5
200
330
5C
100
AcDbEntity
  8
0
  6
Continuous
 62
     7
100
AcDbLine
 10
173.5309551280534
 20
-398.7953740842931
 30
0.0
 11
180.7020213023552
 21
-389.557673533247
 31
0.0
  0
LINE
  5
201
330
5C
100
AcDbEntity
  8
0
  6
Continuous
 62
     7
100
AcDbLine
 10
293.415148230366
 20
-382.0571298400173
 30
0.0
 11
292.0047780107507
 21
-383.8739556004075
 31
0.0
  0
LINE
  5
202
330
5C
100
AcDbEntity
  8
0
  6
Continuous
 62
     7
100
AcDbLine
 10
158.2030811033929
 20
-277.0943552215867
 30
0.0
 11
167.440781654439
 21
-284.2654213958922
 31
0.0
  0
LINE
  5
203
330
5C
100
AcDbEntity
  8
0
  6
Continuous
 62
     7
100
AcDbLine
 10
292.0047780107507
 20
-383.8739556004075
 30
0.0
 11
282.7670774597045
 21
-376.7028894261021
 31
0.0
  0
LINE
  5
204
330
5C
100
AcDbEntity
  8
0
  6
Continuous
 62
     7
100
AcDbLine
 10
293.415148230366
 20
-382.0571298400173
 30
0.0
 11
284.1774476793198
 21
-374.8860636657118
 31
0.0
  0
LINE
  5
205
330
5C
100
AcDbEntity
  8
0
  6
Continuous
 62
     7
100
AcDbLine
 10
166.0304114348201
 20
-286.0822471562824
 30
0.0
 11
174.9937452743452
 21
-293.0403272272306
 31
0.0
  0
LINE
  5
206
330
5C
100
AcDbEntity
  8
0
  6
Continuous
 62
     7
100
AcDbLine
 10
156.7927108837739
 20
-278.9111809819769
 30
0.0
 11
166.0304114348201
 21
-286.0822471562824
 31
0.0
  0
LINE
  5
207
330
5C
100
AcDbEntity
  8
0
  6
Continuous
 62
     7
100
AcDbLine
 10
156.7927108837739
 20
-278.9111809819769
 30
0.0
 11
158.2030811033929
 21
-277.0943552215867
 31
0.0
  0
LINE
  5
208
330
5C
100
AcDbEntity
  8
0
  6
Continuous
 62
     7
100
AcDbLine
 10
276.6769039860901
 20
-262.1729367377011
 30
0.0
 11
278.4937297464803
 21
-263.58330695732
 31
0.0
  0
LINE
  5
209
330
5C
100
AcDbEntity
  8
0
  6
Continuous
 62
     7
100
AcDbLine
 10
276.6769039860901
 20
-262.1729367377011
 30
0.0
 11
269.5058378117883
 21
-271.4106372887472
 31
0.0
  0
LINE
  5
20A
330
5C
100
AcDbEntity
  8
0
  6
Continuous
 62
     7
100
AcDbLine
 10
304.4355678937045
 20
-362.6195789637204
 30
0.0
 11
303.5434839823665
 21
-364.7395285610328
 31
0.0
  0
LINE
  5
20B
330
5C
100
AcDbEntity
  8
0
  6
Continuous
 62
     7
100
AcDbLine
 10
303.5434839823665
 20
-364.7395285610328
 30
0.0
 11
292.7645419449891
 21
-360.2037033768102
 31
0.0
  0
LINE
  5
20C
330
5C
100
AcDbEntity
  8
0
  6
Continuous
 62
     7
100
AcDbLine
 10
270.6725068658907
 20
-388.6624568819934
 30
0.0
 11
263.8154748603538
 21
-379.6215861347955
 31
0.0
  0
LINE
  5
20D
330
5C
100
AcDbEntity
  8
0
  6
Continuous
 62
     7
100
AcDbLine
 10
275.9068897758934
 20
-399.3699559876914
 30
0.0
 11
268.8399647377137
 21
-390.0523451323388
 31
0.0
  0
LINE
  5
20E
330
5C
100
AcDbEntity
  8
0
  6
Continuous
 62
     7
100
AcDbLine
 10
277.7394319040741
 20
-397.980067737346
 30
0.0
 11
270.6725068658907
 21
-388.6624568819934
 31
0.0
  0
LINE
  5
20F
330
5C
100
AcDbEntity
  8
0
  6
Continuous
 62
     7
100
AcDbLine
 10
277.7394319040741
 20
-397.980067737346
 30
0.0
 11
275.9068897758934
 21
-399.3699559876914
 31
0.0
  0
LINE
  5
210
330
5C
100
AcDbEntity
  8
0
  6
Continuous
 62
     7
100
AcDbLine
 10
304.4355678937045
 20
-362.6195789637204
 30
0.0
 11
293.6566258563234
 21
-358.0837537794978
 31
0.0
  0
LINE
  5
211
330
5C
100
AcDbEntity
  8
0
  6
Continuous
 62
     7
100
AcDbLine
 10
190.8485564070379
 20
-408.9237098362937
 30
0.0
 11
195.3843815912606
 21
-398.1447677989127
 31
0.0
  0
LINE
  5
212
330
5C
100
AcDbEntity
  8
0
  6
Continuous
 62
     7
100
AcDbLine
 10
192.9685060043467
 20
-409.8157937476317
 30
0.0
 11
190.8485564070379
 21
-408.9237098362937
 31
0.0
  0
LINE
  5
213
330
5C
100
AcDbEntity
  8
0
  6
Continuous
 62
     7
100
AcDbLine
 10
192.9685060043467
 20
-409.8157937476317
 30
0.0
 11
197.5043311885693
 21
-399.0368517102506
 31
0.0
  0
LINE
  5
214
330
5C
100
AcDbEntity
  8
0
  6
Continuous
 62
     7
100
AcDbLine
 10
157.6080172307248
 20
-383.1196577579976
 30
0.0
 11
166.9256280860773
 21
-376.0527327198179
 31
0.0
  0
LINE
  5
215
330
5C
100
AcDbEntity
  8
0
  6
Continuous
 62
     7
100
AcDbLine
 10
156.2181289803794
 20
-381.2871156298206
 30
0.0
 11
165.5357398357319
 21
-374.2201905916409
 31
0.0
  0
LINE
  5
216
330
5C
100
AcDbEntity
  8
0
  6
Continuous
 62
     7
100
AcDbLine
 10
157.6080172307248
 20
-383.1196577579976
 30
0.0
 11
156.2181289803794
 21
-381.2871156298206
 31
0.0
  0
LINE
  5
217
330
5C
100
AcDbEntity
  8
0
  6
Continuous
 62
     7
100
AcDbLine
 10
298.1510475104824
 20
-341.6791792475196
 30
0.0
 11
286.9095326673796
 21
-340.1349720642756
 31
0.0
  0
LINE
  5
218
330
5C
100
AcDbEntity
  8
0
  6
Continuous
 62
     7
100
AcDbLine
 10
195.3843815912606
 20
-398.1447677989127
 30
0.0
 11
199.7854893278946
 21
-387.6859685139571
 31
0.0
  0
LINE
  5
219
330
5C
100
AcDbEntity
  8
0
  6
Continuous
 62
     7
100
AcDbLine
 10
151.9357538797504
 20
-340.8585502392525
 30
0.0
 11
163.1938936219213
 21
-339.4406217014948
 31
0.0
  0
LINE
  5
21A
330
5C
100
AcDbEntity
  8
0
  6
Continuous
 62
     7
100
AcDbLine
 10
140.333003657348
 20
-342.319881421281
 30
0.0
 11
140.0455961882163
 21
-340.0379092596013
 31
0.0
  0
LINE
  5
21B
330
5C
100
AcDbEntity
  8
0
  6
Continuous
 62
     7
100
AcDbLine
 10
140.333003657348
 20
-342.319881421281
 30
0.0
 11
151.9357538797504
 21
-340.8585502392525
 31
0.0
  0
LINE
  5
21C
330
5C
100
AcDbEntity
  8
0
  6
Continuous
 62
     7
100
AcDbLine
 10
151.6483464106186
 20
-338.5765780775728
 30
0.0
 11
162.9064861527895
 21
-337.1586495398115
 31
0.0
  0
LINE
  5
21D
330
5C
100
AcDbEntity
  8
0
  6
Continuous
 62
     7
100
AcDbLine
 10
140.0455961882163
 20
-340.0379092596013
 30
0.0
 11
151.6483464106186
 21
-338.5765780775728
 31
0.0
  0
LINE
  5
21E
330
5C
100
AcDbEntity
  8
0
  6
Continuous
 62
     7
100
AcDbLine
 10
232.1591688382269
 20
-334.4418818651138
 30
0.0
 11
232.1285086160624
 21
-334.4813780772965
 31
0.0
  0
LINE
  5
21F
330
5C
100
AcDbEntity
  8
0
  6
Continuous
 62
     7
100
AcDbLine
 10
252.5204793727371
 20
-348.9820687042629
 30
0.0
 11
233.5622975251881
 21
-334.2651620647775
 31
0.0
  0
LINE
  5
220
330
5C
100
AcDbEntity
  8
0
  6
Continuous
 62
     7
100
AcDbLine
 10
226.591847142865
 20
-333.0950357472757
 30
0.0
 11
230.7181383964435
 21
-336.2982038376867
 31
0.0
  0
LINE
  5
221
330
5C
100
AcDbEntity
  8
0
  6
Continuous
 62
     7
100
AcDbLine
 10
228.0022173624803
 20
-331.2782099868855
 30
0.0
 11
232.1285086160624
 21
-334.4813780772965
 31
0.0
  0
LINE
  5
222
330
5C
100
AcDbEntity
  8
0
  6
Continuous
 62
     7
100
AcDbLine
 10
227.7148098933485
 20
-328.9962378252058
 30
0.0
 11
251.1438328759523
 21
-298.8151889747023
 31
0.0
  0
LINE
  5
223
330
5C
100
AcDbEntity
  8
0
  6
Continuous
 62
     7
100
AcDbLine
 10
261.724647198871
 20
-304.1525887705539
 30
0.0
 11
264.4006421122849
 21
-302.1229852864453
 31
0.0
  0
LINE
  5
224
330
5C
100
AcDbEntity
  8
0
  6
Continuous
 62
     7
100
AcDbLine
 10
267.2919374384601
 20
-314.5279543173638
 30
0.0
 11
270.4020500720344
 21
-313.2601063431212
 31
0.0
  0
LINE
  5
225
330
5C
100
AcDbEntity
  8
0
  6
Continuous
 62
     7
100
AcDbLine
 10
269.6179166642305
 20
-337.7596838567115
 30
0.0
 11
272.9452772006571
 21
-338.2167516196714
 31
0.0
  0
LINE
  5
226
330
5C
100
AcDbEntity
  8
0
  6
Continuous
 62
     7
100
AcDbLine
 10
269.6967771907785
 20
-323.7087364381514
 30
0.0
 11
273.0290585082457
 21
-323.2890457180074
 31
0.0
  0
LINE
  5
227
330
5C
100
AcDbEntity
  8
0
  6
Continuous
 62
     7
100
AcDbLine
 10
269.9841846599102
 20
-325.9907085998348
 30
0.0
 11
273.3164659773775
 21
-325.5710178796871
 31
0.0
  0
LINE
  5
228
330
5C
100
AcDbEntity
  8
0
  6
Continuous
 62
     7
100
AcDbLine
 10
269.9309202229615
 20
-335.4810814841549
 30
0.0
 11
273.2582807593917
 21
-335.9381492471148
 31
0.0
  0
LINE
  5
229
330
5C
100
AcDbEntity
  8
0
  6
Continuous
 62
     7
100
AcDbLine
 10
266.4237052855187
 20
-312.3981249982389
 30
0.0
 11
269.5338179190967
 21
-311.1302770239963
 31
0.0
  0
LINE
  5
22A
330
5C
100
AcDbEntity
  8
0
  6
Continuous
 62
     7
100
AcDbLine
 10
260.3347589485256
 20
-302.3200466423768
 30
0.0
 11
263.0107538619395
 21
-300.2904431582647
 31
0.0
  0
LINE
  5
22B
330
5C
100
AcDbEntity
  8
0
  6
Continuous
 62
     7
100
AcDbLine
 10
253.6617155705954
 20
-295.5716759753232
 30
0.0
 11
255.721228132783
 21
-292.9186311047051
 31
0.0
  0
LINE
  5
22C
330
5C
100
AcDbEntity
  8
0
  6
Continuous
 62
     7
100
AcDbLine
 10
227.7148098933485
 20
-328.9962378252058
 30
0.0
 11
265.6228552264383
 21
-324.2218345472647
 31
0.0
  0
LINE
  5
22D
330
5C
100
AcDbEntity
  8
0
  6
Continuous
 62
     7
100
AcDbLine
 10
228.0022173624803
 20
-331.2782099868855
 30
0.0
 11
265.9102626955701
 21
-326.5038067089481
 31
0.0
  0
LINE
  5
22E
330
5C
100
AcDbEntity
  8
0
  6
Continuous
 62
     7
100
AcDbLine
 10
225.8979841329583
 20
-327.5858676055868
 30
0.0
 11
249.3270071155621
 21
-297.4048187550834
 31
0.0
  0
LINE
  5
22F
330
5C
100
AcDbEntity
  8
0
  6
Continuous
 62
     7
100
AcDbLine
 10
223.6160119712786
 20
-327.8732750747186
 30
0.0
 11
219.4897207216546
 21
-324.6701069792107
 31
0.0
  0
LINE
  5
230
330
5C
100
AcDbEntity
  8
0
  6
Continuous
 62
     7
100
AcDbLine
 10
222.2056417516597
 20
-329.6901008351088
 30
0.0
 11
218.0793504980811
 21
-326.4869327446977
 31
0.0
  0
LINE
  5
231
330
5C
100
AcDbEntity
  8
0
  6
Continuous
 62
     7
100
AcDbLine
 10
219.5203809398609
 20
-324.6306107721248
 30
0.0
 11
219.4897207216546
 21
-324.6701069792107
 31
0.0
  0
LINE
  5
232
330
5C
100
AcDbEntity
  8
0
  6
Continuous
 62
     7
100
AcDbLine
 10
218.0793504980811
 20
-326.4869327446977
 30
0.0
 11
218.0486902759131
 21
-326.5264289568804
 31
0.0
  0
LINE
  5
233
330
5C
100
AcDbEntity
  8
0
  6
Continuous
 62
     7
100
AcDbLine
 10
230.1008556302277
 20
-285.6571647451056
 30
0.0
 11
230.5579233931876
 21
-282.3298042086753
 31
0.0
  0
LINE
  5
234
330
5C
100
AcDbEntity
  8
0
  6
Continuous
 62
     7
100
AcDbLine
 10
216.6455615889554
 20
-326.7031487572167
 30
0.0
 11
197.6873797414064
 21
-311.9862421177313
 31
0.0
  0
LINE
  5
235
330
5C
100
AcDbEntity
  8
0
  6
Continuous
 62
     7
100
AcDbLine
 10
220.6104827459076
 20
-285.6039003081605
 30
0.0
 11
220.19079202576
 21
-282.2716189906932
 31
0.0
  0
LINE
  5
236
330
5C
100
AcDbEntity
  8
0
  6
Continuous
 62
     7
100
AcDbLine
 10
197.5106599410701
 20
-310.5831134307737
 30
0.0
 11
197.5413201592801
 21
-310.5436172236878
 31
0.0
  0
LINE
  5
237
330
5C
100
AcDbEntity
  8
0
  6
Continuous
 62
     7
100
AcDbLine
 10
200.3854792919792
 20
-308.5105754456818
 30
0.0
 11
219.3436611395246
 21
-323.2274820851671
 31
0.0
  0
LINE
  5
238
330
5C
100
AcDbEntity
  8
0
  6
Continuous
 62
     7
100
AcDbLine
 10
223.6160119712786
 20
-327.8732750747186
 30
0.0
 11
218.8416086805792
 21
-289.9652297436041
 31
0.0
  0
LINE
  5
239
330
5C
100
AcDbEntity
  8
0
  6
Continuous
 62
     7
100
AcDbLine
 10
225.8979841329583
 20
-327.5858676055868
 30
0.0
 11
221.1235808678667
 21
-289.6778222712455
 31
0.0
  0
LINE
  5
23A
330
5C
100
AcDbEntity
  8
0
  6
Continuous
 62
     7
100
AcDbLine
 10
180.2236744542334
 20
-334.9776022221631
 30
0.0
 11
176.8913931367661
 21
-335.3972929423071
 31
0.0
  0
LINE
  5
23B
330
5C
100
AcDbEntity
  8
0
  6
Continuous
 62
     7
100
AcDbLine
 10
180.5110819233651
 20
-337.2595743838429
 30
0.0
 11
177.1788006058978
 21
-337.6792651039905
 31
0.0
  0
LINE
  5
23C
330
5C
100
AcDbEntity
  8
0
  6
Continuous
 62
     7
100
AcDbLine
 10
184.2975964185735
 20
-334.4645041130498
 30
0.0
 11
222.2056417516597
 21
-329.6901008351088
 31
0.0
  0
LINE
  5
23D
330
5C
100
AcDbEntity
  8
0
  6
Continuous
 62
     7
100
AcDbLine
 10
222.4930492207914
 20
-331.9720729967921
 30
0.0
 11
184.5850038877052
 21
-336.7464762747295
 31
0.0
  0
LINE
  5
23E
330
5C
100
AcDbEntity
  8
0
  6
Continuous
 62
     7
100
AcDbLine
 10
198.9516903828535
 20
-308.7267914582008
 30
0.0
 11
193.4349631289715
 21
-304.4442520821431
 31
0.0
  0
LINE
  5
23F
330
5C
100
AcDbEntity
  8
0
  6
Continuous
 62
     7
100
AcDbLine
 10
198.9516903828535
 20
-308.7267914582008
 30
0.0
 11
198.982350605018
 21
-308.687295246018
 31
0.0
  0
LINE
  5
240
330
5C
100
AcDbEntity
  8
0
  6
Continuous
 62
     7
100
AcDbLine
 10
197.5413201592801
 20
-310.5436172236878
 30
0.0
 11
192.024592893531
 21
-306.2610778629205
 31
0.0
  0
LINE
  5
241
330
5C
100
AcDbEntity
  8
0
  6
Continuous
 62
     7
100
AcDbLine
 10
218.3285105842242
 20
-285.8913077772922
 30
0.0
 11
217.9088198640802
 21
-282.5590264598213
 31
0.0
  0
LINE
  5
242
330
5C
100
AcDbEntity
  8
0
  6
Continuous
 62
     7
100
AcDbLine
 10
209.1477284634366
 20
-288.2961475296106
 30
0.0
 11
207.879880489194
 21
-285.1860348960327
 31
0.0
  0
LINE
  5
243
330
5C
100
AcDbEntity
  8
0
  6
Continuous
 62
     7
100
AcDbLine
 10
207.0178991443118
 20
-289.1643796825483
 30
0.0
 11
205.7500511700692
 21
-286.0542670489704
 31
0.0
  0
LINE
  5
244
330
5C
100
AcDbEntity
  8
0
  6
Continuous
 62
     7
100
AcDbLine
 10
183.9897651041047
 20
-311.935466948602
 30
0.0
 11
180.8940794705468
 21
-310.6327891152469
 31
0.0
  0
LINE
  5
245
330
5C
100
AcDbEntity
  8
0
  6
Continuous
 62
     7
100
AcDbLine
 10
183.0976811927704
 20
-314.0554165459107
 30
0.0
 11
180.0019955592125
 21
-312.7527387125556
 31
0.0
  0
LINE
  5
246
330
5C
100
AcDbEntity
  8
0
  6
Continuous
 62
     7
100
AcDbLine
 10
198.7723629166303
 20
-293.863437769196
 30
0.0
 11
196.7427594325182
 21
-291.1874428557858
 31
0.0
  0
LINE
  5
247
330
5C
100
AcDbEntity
  8
0
  6
Continuous
 62
     7
100
AcDbLine
 10
196.9398207884497
 20
-295.2533260195414
 30
0.0
 11
194.9102173043375
 21
-292.5773311061312
 31
0.0
  0
LINE
  5
248
330
5C
100
AcDbEntity
  8
0
  6
Continuous
 62
     7
100
AcDbLine
 10
190.191450121396
 20
-301.9263693974754
 30
0.0
 11
187.538405250778
 21
-299.8668568352878
 31
0.0
  0
LINE
  5
249
330
5C
100
AcDbEntity
  8
0
  6
Continuous
 62
     7
100
AcDbLine
 10
188.7810799017771
 20
-303.7431951578656
 30
0.0
 11
186.128035031159
 21
-301.683682595678
 31
0.0
  0
LINE
  5
24A
330
5C
100
AcDbEntity
  8
0
  6
Continuous
 62
     7
100
AcDbLine
 10
180.2769388911784
 20
-325.4872293378394
 30
0.0
 11
176.9495783547482
 21
-325.0301615748831
 31
0.0
  0
LINE
  5
24B
330
5C
100
AcDbEntity
  8
0
  6
Continuous
 62
     7
100
AcDbLine
 10
180.589942449913
 20
-323.2086269652828
 30
0.0
 11
177.2625819134828
 21
-322.7515592023265
 31
0.0
  0
LINE
  5
24C
330
5C
100
AcDbEntity
  8
0
  6
Continuous
 62
     7
100
AcDbLine
 10
169.2124071449707
 20
-336.3644379261314
 30
0.0
 11
176.8913931367661
 21
-335.3972929423071
 31
0.0
  0
LINE
  5
24D
330
5C
100
AcDbEntity
  8
0
  6
Continuous
 62
     7
100
AcDbLine
 10
232.3794580027843
 20
-285.9701683038402
 30
0.0
 11
232.8365257657443
 21
-282.64280776741
 31
0.0
  0
LINE
  5
24E
330
5C
100
AcDbEntity
  8
0
  6
Continuous
 62
     7
100
AcDbLine
 10
224.3098749811816
 20
-333.3824432164074
 30
0.0
 11
200.8808519985778
 21
-363.5634920669108
 31
0.0
  0
LINE
  5
24F
330
5C
100
AcDbEntity
  8
0
  6
Continuous
 62
     7
100
AcDbLine
 10
181.8671843964458
 20
-325.7056757453429
 30
0.0
 11
180.2769388911784
 21
-325.4872293378394
 31
0.0
  0
LINE
  5
250
330
5C
100
AcDbEntity
  8
0
  6
Continuous
 62
     7
100
AcDbLine
 10
181.8162717485048
 20
-334.7770194256773
 30
0.0
 11
180.2236744542334
 21
-334.9776022221631
 31
0.0
  0
LINE
  5
251
330
5C
100
AcDbEntity
  8
0
  6
Continuous
 62
     7
100
AcDbLine
 10
167.5830827571863
 20
-338.8878166488794
 30
0.0
 11
169.4998146141025
 21
-338.6464100878111
 31
0.0
  0
LINE
  5
252
330
5C
100
AcDbEntity
  8
0
  6
Continuous
 62
     7
100
AcDbLine
 10
169.4998146141025
 20
-338.6464100878111
 30
0.0
 11
177.1788006058978
 21
-337.6792651039905
 31
0.0
  0
LINE
  5
253
330
5C
100
AcDbEntity
  8
0
  6
Continuous
 62
     7
100
AcDbLine
 10
182.9159216756835
 20
-346.4403565046341
 30
0.0
 11
179.8058090421055
 21
-347.7082044788731
 31
0.0
  0
LINE
  5
254
330
5C
100
AcDbEntity
  8
0
  6
Continuous
 62
     7
100
AcDbLine
 10
183.7841538286212
 20
-348.5701858237553
 30
0.0
 11
180.6740411950432
 21
-349.8380337979979
 31
0.0
  0
LINE
  5
255
330
5C
100
AcDbEntity
  8
0
  6
Continuous
 62
     7
100
AcDbLine
 10
222.4930492207914
 20
-331.9720729967921
 30
0.0
 11
199.0640262381876
 21
-362.1531218472956
 31
0.0
  0
LINE
  5
256
330
5C
100
AcDbEntity
  8
0
  6
Continuous
 62
     7
100
AcDbLine
 10
198.3629693039384
 20
-366.80700506629
 30
0.0
 11
196.3034567417508
 21
-369.460049936908
 31
0.0
  0
LINE
  5
257
330
5C
100
AcDbEntity
  8
0
  6
Continuous
 62
     7
100
AcDbLine
 10
196.5461435435482
 20
-365.3966348466711
 30
0.0
 11
194.4866309813606
 21
-368.0496797172928
 31
0.0
  0
LINE
  5
258
330
5C
100
AcDbEntity
  8
0
  6
Continuous
 62
     7
100
AcDbLine
 10
167.2956752880582
 20
-336.605844487196
 30
0.0
 11
169.2124071449707
 21
-336.3644379261314
 31
0.0
  0
LINE
  5
259
330
5C
100
AcDbEntity
  8
0
  6
Continuous
 62
     7
100
AcDbLine
 10
162.9064861527895
 20
-337.1586495398115
 30
0.0
 11
167.2956752880582
 21
-336.605844487196
 31
0.0
  0
LINE
  5
25A
330
5C
100
AcDbEntity
  8
0
  6
Continuous
 62
     7
100
AcDbLine
 10
163.1938936219213
 20
-339.4406217014948
 30
0.0
 11
167.5830827571863
 21
-338.8878166488794
 31
0.0
  0
LINE
  5
25B
330
5C
100
AcDbEntity
  8
0
  6
Continuous
 62
     7
100
AcDbLine
 10
252.6665389509053
 20
-350.4246936034069
 30
0.0
 11
252.6971991730734
 21
-350.3851973912242
 31
0.0
  0
LINE
  5
25C
330
5C
100
AcDbEntity
  8
0
  6
Continuous
 62
     7
100
AcDbLine
 10
252.6665389509053
 20
-350.4246936034069
 30
0.0
 11
258.1832658494186
 21
-354.7072326872622
 31
0.0
  0
LINE
  5
25D
330
5C
100
AcDbEntity
  8
0
  6
Continuous
 62
     7
100
AcDbLine
 10
251.2561687312901
 20
-352.2415193637971
 30
0.0
 11
256.7728956298033
 21
-356.5240584476487
 31
0.0
  0
LINE
  5
25E
330
5C
100
AcDbEntity
  8
0
  6
Continuous
 62
     7
100
AcDbLine
 10
251.225508509122
 20
-352.2810155759762
 30
0.0
 11
251.2561687312901
 21
-352.2415193637971
 31
0.0
  0
LINE
  5
25F
330
5C
100
AcDbEntity
  8
0
  6
Continuous
 62
     7
100
AcDbLine
 10
266.2180940100388
 20
-349.0328438733959
 30
0.0
 11
269.3137796435931
 21
-350.335521706751
 31
0.0
  0
LINE
  5
260
330
5C
100
AcDbEntity
  8
0
  6
Continuous
 62
     7
100
AcDbLine
 10
267.1101779213732
 20
-346.9128942760835
 30
0.0
 11
270.2058635549274
 21
-348.2155721094387
 31
0.0
  0
LINE
  5
261
330
5C
100
AcDbEntity
  8
0
  6
Continuous
 62
     7
100
AcDbLine
 10
261.4267792123628
 20
-357.2251156641323
 30
0.0
 11
264.0798240829809
 21
-359.2846282263163
 31
0.0
  0
LINE
  5
262
330
5C
100
AcDbEntity
  8
0
  6
Continuous
 62
     7
100
AcDbLine
 10
260.0164089927475
 20
-359.0419414245225
 30
0.0
 11
262.6694538633656
 21
-361.1014539867065
 31
0.0
  0
LINE
  5
263
330
5C
100
AcDbEntity
  8
0
  6
Continuous
 62
     7
100
AcDbLine
 10
253.2680383256939
 20
-365.7149848024528
 30
0.0
 11
255.297641809806
 21
-368.3909797158631
 31
0.0
  0
LINE
  5
264
330
5C
100
AcDbEntity
  8
0
  6
Continuous
 62
     7
100
AcDbLine
 10
251.4354961975132
 20
-367.1048730527982
 30
0.0
 11
253.4650996816254
 21
-369.7808679662085
 31
0.0
  0
LINE
  5
265
330
5C
100
AcDbEntity
  8
0
  6
Continuous
 62
     7
100
AcDbLine
 10
230.7181383964435
 20
-336.2982038376867
 30
0.0
 11
230.6874781742791
 21
-336.3377000498695
 31
0.0
  0
LINE
  5
266
330
5C
100
AcDbEntity
  8
0
  6
Continuous
 62
     7
100
AcDbLine
 10
241.060130650707
 20
-372.6721632923873
 30
0.0
 11
242.3279786249459
 21
-375.7822759259616
 31
0.0
  0
LINE
  5
267
330
5C
100
AcDbEntity
  8
0
  6
Continuous
 62
     7
100
AcDbLine
 10
229.597376368236
 20
-375.3644105138374
 30
0.0
 11
230.01706708838
 21
-378.6966918313046
 31
0.0
  0
LINE
  5
268
330
5C
100
AcDbEntity
  8
0
  6
Continuous
 62
     7
100
AcDbLine
 10
220.1070034839122
 20
-375.3111460768887
 30
0.0
 11
219.6499357209559
 21
-378.6385066133189
 31
0.0
  0
LINE
  5
269
330
5C
100
AcDbEntity
  8
0
  6
Continuous
 62
     7
100
AcDbLine
 10
231.8793485299157
 20
-375.0770030447056
 30
0.0
 11
232.2990392500633
 21
-378.4092843621729
 31
0.0
  0
LINE
  5
26A
330
5C
100
AcDbEntity
  8
0
  6
Continuous
 62
     7
100
AcDbLine
 10
243.1899599698318
 20
-371.8039311394459
 30
0.0
 11
244.4578079440708
 21
-374.9140437730239
 31
0.0
  0
LINE
  5
26B
330
5C
100
AcDbEntity
  8
0
  6
Continuous
 62
     7
100
AcDbLine
 10
230.8641979746153
 20
-337.7408287368307
 30
0.0
 11
249.8223798221643
 21
-352.4577353763125
 31
0.0
  0
LINE
  5
26C
330
5C
100
AcDbEntity
  8
0
  6
Continuous
 62
     7
100
AcDbLine
 10
217.8284011113556
 20
-374.9981425181541
 30
0.0
 11
217.3713333483993
 21
-378.3255030545843
 31
0.0
  0
LINE
  5
26D
330
5C
100
AcDbEntity
  8
0
  6
Continuous
 62
     7
100
AcDbLine
 10
206.5552410946748
 20
-371.598319863966
 30
0.0
 11
205.2525632613197
 21
-374.6940054975203
 31
0.0
  0
LINE
  5
26E
330
5C
100
AcDbEntity
  8
0
  6
Continuous
 62
     7
100
AcDbLine
 10
208.6751906919835
 20
-372.4904037753004
 30
0.0
 11
207.3725128586284
 21
-375.5860894088546
 31
0.0
  0
LINE
  5
26F
330
5C
100
AcDbEntity
  8
0
  6
Continuous
 62
     7
100
AcDbLine
 10
224.3098749811816
 20
-333.3824432164074
 30
0.0
 11
229.0842782591226
 21
-371.2904885494972
 31
0.0
  0
LINE
  5
270
330
5C
100
AcDbEntity
  8
0
  6
Continuous
 62
     7
100
AcDbLine
 10
226.591847142865
 20
-333.0950357472757
 30
0.0
 11
231.3662504208023
 21
-371.0030810803655
 31
0.0
  0
LINE
  5
271
330
5C
100
AcDbEntity
  8
0
  6
Continuous
 62
     7
100
AcDbLine
 10
188.4832119152689
 20
-356.8157220514404
 30
0.0
 11
185.8072170018586
 21
-358.8453255355526
 31
0.0
  0
LINE
  5
272
330
5C
100
AcDbEntity
  8
0
  6
Continuous
 62
     7
100
AcDbLine
 10
189.8731001656143
 20
-358.6482641796174
 30
0.0
 11
187.197105252204
 21
-360.6778676637296
 31
0.0
  0
LINE
  5
273
330
5C
100
AcDbEntity
  8
0
  6
Continuous
 62
     7
100
AcDbLine
 10
287.2225362261142
 20
-337.856369691719
 30
0.0
 11
282.8398286080465
 21
-337.2543326281775
 31
0.0
  0
LINE
  5
274
330
5C
100
AcDbEntity
  8
0
  6
Continuous
 62
     7
100
AcDbLine
 10
280.6129236310317
 20
-339.2700291237779
 30
0.0
 11
272.9452772006571
 21
-338.2167516196714
 31
0.0
  0
LINE
  5
275
330
5C
100
AcDbEntity
  8
0
  6
Continuous
 62
     7
100
AcDbLine
 10
280.9259271897663
 20
-336.9914267512249
 30
0.0
 11
273.2582807593917
 21
-335.9381492471148
 31
0.0
  0
LINE
  5
276
330
5C
100
AcDbEntity
  8
0
  6
Continuous
 62
     7
100
AcDbLine
 10
286.9095326673796
 20
-340.1349720642756
 30
0.0
 11
282.5268250493118
 21
-339.5329350007341
 31
0.0
  0
LINE
  5
277
330
5C
100
AcDbEntity
  8
0
  6
Continuous
 62
     7
100
AcDbLine
 10
282.5268250493118
 20
-339.5329350007341
 30
0.0
 11
280.6129236310317
 21
-339.2700291237779
 31
0.0
  0
LINE
  5
278
330
5C
100
AcDbEntity
  8
0
  6
Continuous
 62
     7
100
AcDbLine
 10
282.8398286080465
 20
-337.2543326281775
 30
0.0
 11
280.9259271897663
 21
-336.9914267512249
 31
0.0
  0
LINE
  5
279
330
5C
100
AcDbEntity
  8
0
  6
Continuous
 62
     7
100
AcDbLine
 10
243.6526180194688
 20
-289.3699909580319
 30
0.0
 11
244.9552958528239
 21
-286.274305324474
 31
0.0
  0
LINE
  5
27A
330
5C
100
AcDbEntity
  8
0
  6
Continuous
 62
     7
100
AcDbLine
 10
241.5326684221564
 20
-288.4779070466939
 30
0.0
 11
242.8353462555115
 21
-285.3822214131396
 31
0.0
  0
LINE
  5
27B
330
5C
100
AcDbEntity
  8
0
  6
Continuous
 62
     7
100
AcDbLine
 10
251.8448898102052
 20
-294.1613057557042
 30
0.0
 11
253.9044023723928
 21
-291.5082608850862
 31
0.0
  0
LINE
  5
27C
330
5C
100
AcDbEntity
  8
0
  6
Continuous
 62
     7
100
AcDbLine
 10
310.0496675061277
 20
-340.9920520786072
 30
0.0
 11
309.736663947393
 21
-343.2706544511639
 31
0.0
  0
LINE
  5
27D
330
5C
100
AcDbEntity
  8
0
  6
Continuous
 62
     7
100
AcDbLine
 10
309.736663947393
 20
-343.2706544511639
 30
0.0
 11
298.1510475104824
 21
-341.6791792475196
 31
0.0
  0
LINE
  5
27E
330
5C
100
AcDbEntity
  8
0
  6
Continuous
 62
     7
100
AcDbLine
 10
152.0568116036575
 20
-319.2891315744782
 30
0.0
 11
163.2983264467603
 21
-320.8333387577222
 31
0.0
  0
LINE
  5
27F
330
5C
100
AcDbEntity
  8
0
  6
Continuous
 62
     7
100
AcDbLine
 10
167.90211645411
 20
-305.1657151818217
 30
0.0
 11
171.9796682735742
 21
-306.8815665305483
 31
0.0
  0
LINE
  5
280
330
5C
100
AcDbEntity
  8
0
  6
Continuous
 62
     7
100
AcDbLine
 10
167.0100325427757
 20
-307.2856647791305
 30
0.0
 11
171.0875843622398
 21
-309.0015161278607
 31
0.0
  0
LINE
  5
281
330
5C
100
AcDbEntity
  8
0
  6
Continuous
 62
     7
100
AcDbLine
 10
178.488262877183
 20
-295.7530604273088
 30
0.0
 11
180.0142971872756
 21
-296.9376943046955
 31
0.0
  0
LINE
  5
282
330
5C
100
AcDbEntity
  8
0
  6
Continuous
 62
     7
100
AcDbLine
 10
174.9937452743452
 20
-293.0403272272306
 30
0.0
 11
178.488262877183
 21
-295.7530604273088
 31
0.0
  0
LINE
  5
283
330
5C
100
AcDbEntity
  8
0
  6
Continuous
 62
     7
100
AcDbLine
 10
171.9796682735742
 20
-306.8815665305483
 30
0.0
 11
173.7603100344368
 21
-307.6308682444833
 31
0.0
  0
LINE
  5
284
330
5C
100
AcDbEntity
  8
0
  6
Continuous
 62
     7
100
AcDbLine
 10
171.0875843622398
 20
-309.0015161278607
 30
0.0
 11
172.8682261231025
 21
-309.750817841792
 31
0.0
  0
LINE
  5
285
330
5C
100
AcDbEntity
  8
0
  6
Continuous
 62
     7
100
AcDbLine
 10
180.0142971872756
 20
-296.9376943046955
 30
0.0
 11
186.128035031159
 21
-301.683682595678
 31
0.0
  0
LINE
  5
286
330
5C
100
AcDbEntity
  8
0
  6
Continuous
 62
     7
100
AcDbLine
 10
151.7438080449229
 20
-321.5677339470349
 30
0.0
 11
162.9853228880257
 21
-323.1119411302789
 31
0.0
  0
LINE
  5
287
330
5C
100
AcDbEntity
  8
0
  6
Continuous
 62
     7
100
AcDbLine
 10
156.5512332578201
 20
-302.8845570424965
 30
0.0
 11
167.0100325427757
 21
-307.2856647791305
 31
0.0
  0
LINE
  5
288
330
5C
100
AcDbEntity
  8
0
  6
Continuous
 62
     7
100
AcDbLine
 10
172.8682261231025
 20
-309.750817841792
 30
0.0
 11
180.0019955592125
 21
-312.7527387125556
 31
0.0
  0
LINE
  5
289
330
5C
100
AcDbEntity
  8
0
  6
Continuous
 62
     7
100
AcDbLine
 10
173.7603100344368
 20
-307.6308682444833
 30
0.0
 11
180.8940794705468
 21
-310.6327891152469
 31
0.0
  0
LINE
  5
28A
330
5C
100
AcDbEntity
  8
0
  6
Continuous
 62
     7
100
AcDbLine
 10
162.9853228880257
 20
-323.1119411302789
 30
0.0
 11
167.3680305060935
 21
-323.7139781938167
 31
0.0
  0
LINE
  5
28B
330
5C
100
AcDbEntity
  8
0
  6
Continuous
 62
     7
100
AcDbLine
 10
163.2983264467603
 20
-320.8333387577222
 30
0.0
 11
167.6810340648281
 21
-321.4353758212601
 31
0.0
  0
LINE
  5
28C
330
5C
100
AcDbEntity
  8
0
  6
Continuous
 62
     7
100
AcDbLine
 10
184.402337885249
 20
-345.8344138902612
 30
0.0
 11
182.9159216756835
 21
-346.4403565046341
 31
0.0
  0
LINE
  5
28D
330
5C
100
AcDbEntity
  8
0
  6
Continuous
 62
     7
100
AcDbLine
 10
167.3680305060935
 20
-323.7139781938167
 30
0.0
 11
169.2819319243736
 21
-323.9768840707729
 31
0.0
  0
LINE
  5
28E
330
5C
100
AcDbEntity
  8
0
  6
Continuous
 62
     7
100
AcDbLine
 10
182.1036792176365
 20
-337.058991587357
 30
0.0
 11
180.5110819233651
 21
-337.2595743838429
 31
0.0
  0
LINE
  5
28F
330
5C
100
AcDbEntity
  8
0
  6
Continuous
 62
     7
100
AcDbLine
 10
268.8399647377137
 20
-390.0523451323388
 30
0.0
 11
261.9829327321768
 21
-381.0114743851409
 31
0.0
  0
LINE
  5
290
330
5C
100
AcDbEntity
  8
0
  6
Continuous
 62
     7
100
AcDbLine
 10
213.9089057205511
 20
-403.5312733644096
 30
0.0
 11
215.4531129037951
 21
-392.2897585213068
 31
0.0
  0
LINE
  5
291
330
5C
100
AcDbEntity
  8
0
  6
Continuous
 62
     7
100
AcDbLine
 10
216.1875080931077
 20
-403.8442769231442
 30
0.0
 11
217.7317152763517
 21
-392.6027620800414
 31
0.0
  0
LINE
  5
292
330
5C
100
AcDbEntity
  8
0
  6
Continuous
 62
     7
100
AcDbLine
 10
217.7317152763517
 20
-392.6027620800414
 30
0.0
 11
218.3337523398896
 21
-388.2200544619736
 31
0.0
  0
LINE
  5
293
330
5C
100
AcDbEntity
  8
0
  6
Continuous
 62
     7
100
AcDbLine
 10
215.4531129037951
 20
-392.2897585213068
 30
0.0
 11
216.0551499673329
 21
-387.907050903239
 31
0.0
  0
LINE
  5
294
330
5C
100
AcDbEntity
  8
0
  6
Continuous
 62
     7
100
AcDbLine
 10
218.3337523398896
 20
-388.2200544619736
 30
0.0
 11
218.5966582168458
 21
-386.3061530436935
 31
0.0
  0
LINE
  5
295
330
5C
100
AcDbEntity
  8
0
  6
Continuous
 62
     7
100
AcDbLine
 10
216.0551499673329
 20
-387.907050903239
 30
0.0
 11
216.3180558442892
 21
-385.9931494849589
 31
0.0
  0
LINE
  5
296
330
5C
100
AcDbEntity
  8
0
  6
Continuous
 62
     7
100
AcDbLine
 10
209.2977795418028
 20
-371.01088266222
 30
0.0
 11
208.6751906919835
 21
-372.4904037753004
 31
0.0
  0
LINE
  5
297
330
5C
100
AcDbEntity
  8
0
  6
Continuous
 62
     7
100
AcDbLine
 10
218.0468475188591
 20
-373.4078970128903
 30
0.0
 11
217.8284011113556
 21
-374.9981425181541
 31
0.0
  0
LINE
  5
298
330
5C
100
AcDbEntity
  8
0
  6
Continuous
 62
     7
100
AcDbLine
 10
216.3180558442892
 20
-385.9931494849589
 30
0.0
 11
217.3713333483993
 21
-378.3255030545843
 31
0.0
  0
LINE
  5
299
330
5C
100
AcDbEntity
  8
0
  6
Continuous
 62
     7
100
AcDbLine
 10
218.5966582168458
 20
-386.3061530436935
 30
0.0
 11
219.6499357209559
 21
-378.6385066133189
 31
0.0
  0
LINE
  5
29A
330
5C
100
AcDbEntity
  8
0
  6
Continuous
 62
     7
100
AcDbLine
 10
263.8154748603538
 20
-379.6215861347955
 30
0.0
 11
261.1421370738153
 21
-376.0968393679468
 31
0.0
  0
LINE
  5
29B
330
5C
100
AcDbEntity
  8
0
  6
Continuous
 62
     7
100
AcDbLine
 10
261.9829327321768
 20
-381.0114743851409
 30
0.0
 11
259.3095949456383
 21
-377.4867276182958
 31
0.0
  0
LINE
  5
29C
330
5C
100
AcDbEntity
  8
0
  6
Continuous
 62
     7
100
AcDbLine
 10
261.1421370738153
 20
-376.0968393679468
 30
0.0
 11
259.9747069308342
 21
-374.5576041681488
 31
0.0
  0
LINE
  5
29D
330
5C
100
AcDbEntity
  8
0
  6
Continuous
 62
     7
100
AcDbLine
 10
258.1421648026571
 20
-375.9474924184942
 30
0.0
 11
253.4650996816254
 21
-369.7808679662085
 31
0.0
  0
LINE
  5
29E
330
5C
100
AcDbEntity
  8
0
  6
Continuous
 62
     7
100
AcDbLine
 10
259.3095949456383
 20
-377.4867276182958
 30
0.0
 11
258.1421648026571
 21
-375.9474924184942
 31
0.0
  0
LINE
  5
29F
330
5C
100
AcDbEntity
  8
0
  6
Continuous
 62
     7
100
AcDbLine
 10
259.9747069308342
 20
-374.5576041681488
 30
0.0
 11
255.297641809806
 21
-368.3909797158631
 31
0.0
  0
LINE
  5
2A0
330
5C
100
AcDbEntity
  8
0
  6
Continuous
 62
     7
100
AcDbLine
 10
258.4766930771093
 20
-409.3032707519014
 30
0.0
 11
256.3468637579845
 21
-410.1715029048391
 31
0.0
  0
LINE
  5
2A1
330
5C
100
AcDbEntity
  8
0
  6
Continuous
 62
     7
100
AcDbLine
 10
167.6810340648281
 20
-321.4353758212601
 30
0.0
 11
169.5949354831082
 21
-321.6982816982163
 31
0.0
  0
LINE
  5
2A2
330
5C
100
AcDbEntity
  8
0
  6
Continuous
 62
     7
100
AcDbLine
 10
258.4766930771093
 20
-409.3032707519014
 30
0.0
 11
254.0621428145041
 21
-398.4740949972111
 31
0.0
  0
LINE
  5
2A3
330
5C
100
AcDbEntity
  8
0
  6
Continuous
 62
     7
100
AcDbLine
 10
190.0490497038427
 20
-304.72749804876
 30
0.0
 11
188.7810799017771
 21
-303.7431951578656
 31
0.0
  0
LINE
  5
2A4
330
5C
100
AcDbEntity
  8
0
  6
Continuous
 62
     7
100
AcDbLine
 10
184.5772023058508
 20
-314.67800539573
 30
0.0
 11
183.0976811927704
 21
-314.0554165459107
 31
0.0
  0
LINE
  5
2A5
330
5C
100
AcDbEntity
  8
0
  6
Continuous
 62
     7
100
AcDbLine
 10
185.4692862171851
 20
-312.5580557984176
 30
0.0
 11
183.9897651041047
 21
-311.935466948602
 31
0.0
  0
LINE
  5
2A6
330
5C
100
AcDbEntity
  8
0
  6
Continuous
 62
     7
100
AcDbLine
 10
242.5840173554589
 20
-370.3175149298804
 30
0.0
 11
243.1899599698318
 21
-371.8039311394459
 31
0.0
  0
LINE
  5
2A7
330
5C
100
AcDbEntity
  8
0
  6
Continuous
 62
     7
100
AcDbLine
 10
258.7484391906819
 20
-358.0576385336244
 30
0.0
 11
260.0164089927475
 21
-359.0419414245225
 31
0.0
  0
LINE
  5
2A8
330
5C
100
AcDbEntity
  8
0
  6
Continuous
 62
     7
100
AcDbLine
 10
250.4654877530575
 20
-365.8259347362036
 30
0.0
 11
251.4354961975132
 21
-367.1048730527982
 31
0.0
  0
LINE
  5
2A9
330
5C
100
AcDbEntity
  8
0
  6
Continuous
 62
     7
100
AcDbLine
 10
252.2980296031183
 20
-364.4360461191645
 30
0.0
 11
253.2680383256939
 21
-365.7149848024528
 31
0.0
  0
LINE
  5
2AA
330
5C
100
AcDbEntity
  8
0
  6
Continuous
 62
     7
100
AcDbLine
 10
268.783191707249
 20
-365.847442277689
 30
0.0
 11
262.6694538633656
 21
-361.1014539867065
 31
0.0
  0
LINE
  5
2AB
330
5C
100
AcDbEntity
  8
0
  6
Continuous
 62
     7
100
AcDbLine
 10
270.3092260173453
 20
-367.0320761550756
 30
0.0
 11
268.783191707249
 21
-365.847442277689
 31
0.0
  0
LINE
  5
2AC
330
5C
100
AcDbEntity
  8
0
  6
Continuous
 62
     7
100
AcDbLine
 10
273.8037436201794
 20
-369.7448093551575
 30
0.0
 11
270.3092260173453
 21
-367.0320761550756
 31
0.0
  0
LINE
  5
2AD
330
5C
100
AcDbEntity
  8
0
  6
Continuous
 62
     7
100
AcDbLine
 10
282.7670774597045
 20
-376.7028894261021
 30
0.0
 11
273.8037436201794
 21
-369.7448093551575
 31
0.0
  0
LINE
  5
2AE
330
5C
100
AcDbEntity
  8
0
  6
Continuous
 62
     7
100
AcDbLine
 10
284.1774476793198
 20
-374.8860636657118
 30
0.0
 11
275.2141138397983
 21
-367.9279835947673
 31
0.0
  0
LINE
  5
2AF
330
5C
100
AcDbEntity
  8
0
  6
Continuous
 62
     7
100
AcDbLine
 10
182.1801879551804
 20
-323.4270733727863
 30
0.0
 11
180.589942449913
 21
-323.2086269652828
 31
0.0
  0
LINE
  5
2B0
330
5C
100
AcDbEntity
  8
0
  6
Continuous
 62
     7
100
AcDbLine
 10
256.3468637579845
 20
-410.1715029048391
 30
0.0
 11
251.9323134953793
 21
-399.3423271501524
 31
0.0
  0
LINE
  5
2B1
330
5C
100
AcDbEntity
  8
0
  6
Continuous
 62
     7
100
AcDbLine
 10
181.0304807999183
 20
-365.3549327847613
 30
0.0
 11
187.197105252204
 21
-360.6778676637296
 31
0.0
  0
LINE
  5
2B2
330
5C
100
AcDbEntity
  8
0
  6
Continuous
 62
     7
100
AcDbLine
 10
191.5574684507683
 20
-375.5737877807951
 30
0.0
 11
196.3034567417508
 21
-369.460049936908
 31
0.0
  0
LINE
  5
2B3
330
5C
100
AcDbEntity
  8
0
  6
Continuous
 62
     7
100
AcDbLine
 10
189.7406426903781
 20
-374.1634175611762
 30
0.0
 11
194.4866309813606
 21
-368.0496797172928
 31
0.0
  0
LINE
  5
2B4
330
5C
100
AcDbEntity
  8
0
  6
Continuous
 62
     7
100
AcDbLine
 10
170.8498535070631
 20
-351.3591301591623
 30
0.0
 11
172.6387936941083
 21
-350.6298626182688
 31
0.0
  0
LINE
  5
2B5
330
5C
100
AcDbEntity
  8
0
  6
Continuous
 62
     7
100
AcDbLine
 10
167.6215309936252
 20
-355.1589338962731
 30
0.0
 11
171.7180856600008
 21
-353.4889594782835
 31
0.0
  0
LINE
  5
2B6
330
5C
100
AcDbEntity
  8
0
  6
Continuous
 62
     7
100
AcDbLine
 10
171.7180856600008
 20
-353.4889594782835
 30
0.0
 11
173.5070258470496
 21
-352.7596919373937
 31
0.0
  0
LINE
  5
2B7
330
5C
100
AcDbEntity
  8
0
  6
Continuous
 62
     7
100
AcDbLine
 10
178.1013573497749
 20
-364.6898207995619
 30
0.0
 11
179.6405925495729
 21
-363.5223906565843
 31
0.0
  0
LINE
  5
2B8
330
5C
100
AcDbEntity
  8
0
  6
Continuous
 62
     7
100
AcDbLine
 10
197.5304464344427
 20
-364.1286650446091
 30
0.0
 11
196.5461435435482
 21
-365.3966348466711
 31
0.0
  0
LINE
  5
2B9
330
5C
100
AcDbEntity
  8
0
  6
Continuous
 62
     7
100
AcDbLine
 10
199.3472721948329
 20
-365.5390352642244
 30
0.0
 11
198.3629693039384
 21
-366.80700506629
 31
0.0
  0
LINE
  5
2BA
330
5C
100
AcDbEntity
  8
0
  6
Continuous
 62
     7
100
AcDbLine
 10
173.5070258470496
 20
-352.7596919373937
 30
0.0
 11
180.6740411950432
 21
-349.8380337979979
 31
0.0
  0
LINE
  5
2BB
330
5C
100
AcDbEntity
  8
0
  6
Continuous
 62
     7
100
AcDbLine
 10
234.0603958475677
 20
-392.3941913461458
 30
0.0
 11
233.5075907949522
 21
-388.0050022108808
 31
0.0
  0
LINE
  5
2BC
330
5C
100
AcDbEntity
  8
0
  6
Continuous
 62
     7
100
AcDbLine
 10
231.2256186332725
 20
-388.2924096800125
 30
0.0
 11
230.9842120722042
 21
-386.3756778230963
 31
0.0
  0
LINE
  5
2BD
330
5C
100
AcDbEntity
  8
0
  6
Continuous
 62
     7
100
AcDbLine
 10
230.9842120722042
 20
-386.3756778230963
 30
0.0
 11
230.01706708838
 21
-378.6966918313046
 31
0.0
  0
LINE
  5
2BE
330
5C
100
AcDbEntity
  8
0
  6
Continuous
 62
     7
100
AcDbLine
 10
207.1778299444941
 20
-370.118798750882
 30
0.0
 11
206.5552410946748
 21
-371.598319863966
 31
0.0
  0
LINE
  5
2BF
330
5C
100
AcDbEntity
  8
0
  6
Continuous
 62
     7
100
AcDbLine
 10
191.1520384822088
 20
-357.6782557351653
 30
0.0
 11
189.8731001656143
 21
-358.6482641796174
 31
0.0
  0
LINE
  5
2C0
330
5C
100
AcDbEntity
  8
0
  6
Continuous
 62
     7
100
AcDbLine
 10
172.6387936941083
 20
-350.6298626182688
 30
0.0
 11
179.8058090421055
 21
-347.7082044788731
 31
0.0
  0
LINE
  5
2C1
330
5C
100
AcDbEntity
  8
0
  6
Continuous
 62
     7
100
AcDbLine
 10
189.7621502318634
 20
-355.8457136069847
 30
0.0
 11
188.4832119152689
 21
-356.8157220514404
 31
0.0
  0
LINE
  5
2C2
330
5C
100
AcDbEntity
  8
0
  6
Continuous
 62
     7
100
AcDbLine
 10
185.2705700381867
 20
-347.964243209386
 30
0.0
 11
183.7841538286212
 21
-348.5701858237553
 31
0.0
  0
LINE
  5
2C3
330
5C
100
AcDbEntity
  8
0
  6
Continuous
 62
     7
100
AcDbLine
 10
179.6405925495729
 20
-363.5223906565843
 30
0.0
 11
185.8072170018586
 21
-358.8453255355526
 31
0.0
  0
LINE
  5
2C4
330
5C
100
AcDbEntity
  8
0
  6
Continuous
 62
     7
100
AcDbLine
 10
204.3705919878685
 20
-382.7198588449646
 30
0.0
 11
207.3725128586284
 21
-375.5860894088546
 31
0.0
  0
LINE
  5
2C5
330
5C
100
AcDbEntity
  8
0
  6
Continuous
 62
     7
100
AcDbLine
 10
202.2506423905561
 20
-381.8277749336303
 30
0.0
 11
205.2525632613197
 21
-374.6940054975203
 31
0.0
  0
LINE
  5
2C6
330
5C
100
AcDbEntity
  8
0
  6
Continuous
 62
     7
100
AcDbLine
 10
166.7532988406838
 20
-353.0291045771483
 30
0.0
 11
170.8498535070631
 21
-351.3591301591623
 31
0.0
  0
LINE
  5
2C7
330
5C
100
AcDbEntity
  8
0
  6
Continuous
 62
     7
100
AcDbLine
 10
179.4912456001203
 20
-366.5223629277425
 30
0.0
 11
181.0304807999183
 21
-365.3549327847613
 31
0.0
  0
LINE
  5
2C8
330
5C
100
AcDbEntity
  8
0
  6
Continuous
 62
     7
100
AcDbLine
 10
201.9054389252033
 20
-388.578052425295
 30
0.0
 11
203.6212902739335
 21
-384.5005006058309
 31
0.0
  0
LINE
  5
2C9
330
5C
100
AcDbEntity
  8
0
  6
Continuous
 62
     7
100
AcDbLine
 10
203.6212902739335
 20
-384.5005006058309
 30
0.0
 11
204.3705919878685
 21
-382.7198588449646
 31
0.0
  0
LINE
  5
2CA
330
5C
100
AcDbEntity
  8
0
  6
Continuous
 62
     7
100
AcDbLine
 10
201.5013406766211
 20
-383.6084166944929
 30
0.0
 11
202.2506423905561
 21
-381.8277749336303
 31
0.0
  0
LINE
  5
2CB
330
5C
100
AcDbEntity
  8
0
  6
Continuous
 62
     7
100
AcDbLine
 10
199.7854893278946
 20
-387.6859685139571
 30
0.0
 11
201.5013406766211
 21
-383.6084166944929
 31
0.0
  0
LINE
  5
2CC
330
5C
100
AcDbEntity
  8
0
  6
Continuous
 62
     7
100
AcDbLine
 10
188.5560088129915
 20
-375.6894518712688
 30
0.0
 11
189.7406426903781
 21
-374.1634175611762
 31
0.0
  0
LINE
  5
2CD
330
5C
100
AcDbEntity
  8
0
  6
Continuous
 62
     7
100
AcDbLine
 10
190.3728345733817
 20
-377.0998220908878
 30
0.0
 11
191.5574684507683
 21
-375.5737877807951
 31
0.0
  0
LINE
  5
2CE
330
5C
100
AcDbEntity
  8
0
  6
Continuous
 62
     7
100
AcDbLine
 10
174.5766105829262
 20
-367.363158586104
 30
0.0
 11
178.1013573497749
 21
-364.6898207995619
 31
0.0
  0
LINE
  5
2CF
330
5C
100
AcDbEntity
  8
0
  6
Continuous
 62
     7
100
AcDbLine
 10
175.9664988332716
 20
-369.195700714281
 30
0.0
 11
179.4912456001203
 21
-366.5223629277425
 31
0.0
  0
LINE
  5
2D0
330
5C
100
AcDbEntity
  8
0
  6
Continuous
 62
     7
100
AcDbLine
 10
156.2457578179183
 20
-357.3125393493065
 30
0.0
 11
166.7532988406838
 21
-353.0291045771483
 31
0.0
  0
LINE
  5
2D1
330
5C
100
AcDbEntity
  8
0
  6
Continuous
 62
     7
100
AcDbLine
 10
234.6576834056741
 20
-415.5424887798545
 30
0.0
 11
233.1963522236456
 21
-403.9397385574521
 31
0.0
  0
LINE
  5
2D2
330
5C
100
AcDbEntity
  8
0
  6
Continuous
 62
     7
100
AcDbLine
 10
236.9396555673575
 20
-415.2550813107227
 30
0.0
 11
234.6576834056741
 21
-415.5424887798545
 31
0.0
  0
LINE
  5
2D3
330
5C
100
AcDbEntity
  8
0
  6
Continuous
 62
     7
100
AcDbLine
 10
236.9396555673575
 20
-415.2550813107227
 30
0.0
 11
235.478324385329
 21
-403.6523310883204
 31
0.0
  0
LINE
  5
2D4
330
5C
100
AcDbEntity
  8
0
  6
Continuous
 62
     7
100
AcDbLine
 10
233.1963522236456
 20
-403.9397385574521
 30
0.0
 11
231.7784236858879
 21
-392.6815988152775
 31
0.0
  0
LINE
  5
2D5
330
5C
100
AcDbEntity
  8
0
  6
Continuous
 62
     7
100
AcDbLine
 10
235.478324385329
 20
-403.6523310883204
 30
0.0
 11
234.0603958475677
 21
-392.3941913461458
 31
0.0
  0
LINE
  5
2D6
330
5C
100
AcDbEntity
  8
0
  6
Continuous
 62
     7
100
AcDbLine
 10
231.7784236858879
 20
-392.6815988152775
 30
0.0
 11
231.2256186332725
 21
-388.2924096800125
 31
0.0
  0
LINE
  5
2D7
330
5C
100
AcDbEntity
  8
0
  6
Continuous
 62
     7
100
AcDbLine
 10
220.3254498914157
 20
-373.720900571625
 30
0.0
 11
220.1070034839122
 21
-375.3111460768887
 31
0.0
  0
LINE
  5
2D8
330
5C
100
AcDbEntity
  8
0
  6
Continuous
 62
     7
100
AcDbLine
 10
157.113989970856
 20
-359.4423686684277
 30
0.0
 11
167.6215309936252
 21
-355.1589338962731
 31
0.0
  0
LINE
  5
2D9
330
5C
100
AcDbEntity
  8
0
  6
Continuous
 62
     7
100
AcDbLine
 10
251.9323134953793
 20
-399.3423271501524
 30
0.0
 11
247.6488787232211
 21
-388.8347861273833
 31
0.0
  0
LINE
  5
2DA
330
5C
100
AcDbEntity
  8
0
  6
Continuous
 62
     7
100
AcDbLine
 10
248.10873362436
 20
-383.8699993080663
 30
0.0
 11
247.3794660834665
 21
-382.0810591210211
 31
0.0
  0
LINE
  5
2DB
330
5C
100
AcDbEntity
  8
0
  6
Continuous
 62
     7
100
AcDbLine
 10
247.3794660834665
 20
-382.0810591210211
 30
0.0
 11
244.4578079440708
 21
-374.9140437730239
 31
0.0
  0
LINE
  5
2DC
330
5C
100
AcDbEntity
  8
0
  6
Continuous
 62
     7
100
AcDbLine
 10
249.7787080423459
 20
-387.9665539744456
 30
0.0
 11
248.10873362436
 21
-383.8699993080663
 31
0.0
  0
LINE
  5
2DD
330
5C
100
AcDbEntity
  8
0
  6
Continuous
 62
     7
100
AcDbLine
 10
247.6488787232211
 20
-388.8347861273833
 30
0.0
 11
245.9789043052352
 21
-384.7382314610077
 31
0.0
  0
LINE
  5
2DE
330
5C
100
AcDbEntity
  8
0
  6
Continuous
 62
     7
100
AcDbLine
 10
245.9789043052352
 20
-384.7382314610077
 30
0.0
 11
245.2496367643417
 21
-382.9492912739588
 31
0.0
  0
LINE
  5
2DF
330
5C
100
AcDbEntity
  8
0
  6
Continuous
 62
     7
100
AcDbLine
 10
245.2496367643417
 20
-382.9492912739588
 30
0.0
 11
242.3279786249459
 21
-375.7822759259616
 31
0.0
  0
LINE
  5
2E0
330
5C
100
AcDbEntity
  8
0
  6
Continuous
 62
     7
100
AcDbLine
 10
229.3967935717501
 20
-373.7718132195623
 30
0.0
 11
229.597376368236
 21
-375.3644105138374
 31
0.0
  0
LINE
  5
2E1
330
5C
100
AcDbEntity
  8
0
  6
Continuous
 62
     7
100
AcDbLine
 10
233.2661842338876
 20
-386.0882703539646
 30
0.0
 11
232.2990392500633
 21
-378.4092843621729
 31
0.0
  0
LINE
  5
2E2
330
5C
100
AcDbEntity
  8
0
  6
Continuous
 62
     7
100
AcDbLine
 10
231.6787657334299
 20
-373.4844057504306
 30
0.0
 11
231.8793485299157
 21
-375.0770030447056
 31
0.0
  0
LINE
  5
2E3
330
5C
100
AcDbEntity
  8
0
  6
Continuous
 62
     7
100
AcDbLine
 10
169.5949354831082
 20
-321.6982816982163
 30
0.0
 11
177.2625819134828
 21
-322.7515592023265
 31
0.0
  0
LINE
  5
2E4
330
5C
100
AcDbEntity
  8
0
  6
Continuous
 62
     7
100
AcDbLine
 10
169.2819319243736
 20
-323.9768840707729
 30
0.0
 11
176.9495783547482
 21
-325.0301615748831
 31
0.0
  0
LINE
  5
2E5
330
5C
100
AcDbEntity
  8
0
  6
Continuous
 62
     7
100
AcDbLine
 10
240.4541880363341
 20
-371.1857470828218
 30
0.0
 11
241.060130650707
 21
-372.6721632923873
 31
0.0
  0
LINE
  5
2E6
330
5C
100
AcDbEntity
  8
0
  6
Continuous
 62
     7
100
AcDbLine
 10
254.0621428145041
 20
-398.4740949972111
 30
0.0
 11
249.7787080423459
 21
-387.9665539744456
 31
0.0
  0
LINE
  5
2E7
330
5C
100
AcDbEntity
  8
0
  6
Continuous
 62
     7
100
AcDbLine
 10
233.5075907949522
 20
-388.0050022108808
 30
0.0
 11
233.2661842338876
 21
-386.0882703539646
 31
0.0
  0
LINE
  5
2E8
330
5C
100
AcDbEntity
  8
0
  6
Continuous
 62
     7
100
AcDbLine
 10
214.5960328894635
 20
-415.4298933600549
 30
0.0
 11
216.1875080931077
 21
-403.8442769231442
 31
0.0
  0
LINE
  5
2E9
330
5C
100
AcDbEntity
  8
0
  6
Continuous
 62
     7
100
AcDbLine
 10
214.5960328894635
 20
-415.4298933600549
 30
0.0
 11
212.3174305169069
 21
-415.1168898013202
 31
0.0
  0
LINE
  5
2EA
330
5C
100
AcDbEntity
  8
0
  6
Continuous
 62
     7
100
AcDbLine
 10
212.3174305169069
 20
-415.1168898013202
 30
0.0
 11
213.9089057205511
 21
-403.5312733644096
 31
0.0
  0
LINE
  5
2EB
330
5C
100
AcDbEntity
  8
0
  6
Continuous
 62
     7
100
AcDbLine
 10
185.8432756129132
 20
-379.1839694741066
 30
0.0
 11
188.5560088129915
 21
-375.6894518712688
 31
0.0
  0
LINE
  5
2EC
330
5C
100
AcDbEntity
  8
0
  6
Continuous
 62
     7
100
AcDbLine
 10
187.6601013733034
 20
-380.5943396937255
 30
0.0
 11
190.3728345733817
 21
-377.0998220908878
 31
0.0
  0
LINE
  5
2ED
330
5C
100
AcDbEntity
  8
0
  6
Continuous
 62
     7
100
AcDbLine
 10
165.5357398357319
 20
-374.2201905916409
 30
0.0
 11
174.5766105829262
 21
-367.363158586104
 31
0.0
  0
LINE
  5
2EE
330
5C
100
AcDbEntity
  8
0
  6
Continuous
 62
     7
100
AcDbLine
 10
166.9256280860773
 20
-376.0527327198179
 30
0.0
 11
175.9664988332716
 21
-369.195700714281
 31
0.0
  0
LINE
  5
2EF
330
5C
100
AcDbEntity
  8
0
  6
Continuous
 62
     7
100
AcDbLine
 10
197.5043311885693
 20
-399.0368517102506
 30
0.0
 11
201.9054389252033
 21
-388.578052425295
 31
0.0
  0
LINE
  5
2F0
330
5C
100
AcDbEntity
  8
0
  6
Continuous
 62
     7
100
AcDbLine
 10
146.2848142161656
 20
-363.8569189310365
 30
0.0
 11
145.4165820632279
 21
-361.7270896119117
 31
0.0
  0
LINE
  5
2F1
330
5C
100
AcDbEntity
  8
0
  6
Continuous
 62
     7
100
AcDbLine
 10
145.4165820632279
 20
-361.7270896119117
 30
0.0
 11
156.2457578179183
 21
-357.3125393493065
 31
0.0
  0
LINE
  5
2F2
330
5C
100
AcDbEntity
  8
0
  6
Continuous
 62
     7
100
AcDbLine
 10
146.2848142161656
 20
-363.8569189310365
 30
0.0
 11
157.113989970856
 21
-359.4423686684277
 31
0.0
  0
LINE
  5
2F3
330
5C
100
AcDbEntity
  8
0
  6
Continuous
 62
     7
100
AcDbLine
 10
180.7020213023552
 20
-389.557673533247
 30
0.0
 11
187.6601013733034
 21
-380.5943396937255
 31
0.0
  0
LINE
  5
2F4
330
5C
100
AcDbEntity
  8
0
  6
Continuous
 62
     7
100
AcDbLine
 10
178.885195541965
 20
-388.1473033136317
 30
0.0
 11
185.8432756129132
 21
-379.1839694741066
 31
0.0
  0
LINE
  5
2F5
330
5C
100
AcDbEntity
  8
0
  6
Continuous
 62
     7
100
AcDbLine
 10
170.3652072282803
 20
-381.7547344774685
 30
0.0
 11
170.7378081733314
 21
-381.2747534158298
 31
0.0
  0
LINE
  5
2F6
330
5C
100
AcDbEntity
  8
0
  6
Continuous
 62
     7
100
AcDbLine
 10
171.0483681188835
 20
-380.8746929910049
 30
0.0
 11
170.7378081733314
 21
-381.2747534158298
 31
0.0
  0
LINE
  5
2F7
330
5C
100
AcDbEntity
  8
0
  6
Continuous
 62
     7
100
AcDbLine
 10
189.3800717911927
 20
-395.7464415058275
 30
0.0
 11
189.00747093863
 21
-396.2264224483224
 31
0.0
  0
LINE
  5
2F8
330
5C
100
AcDbEntity
  8
0
  6
Continuous
 62
     7
100
AcDbLine
 10
189.3800717911927
 20
-395.7464415058275
 30
0.0
 11
189.6906316584773
 21
-395.3463811818219
 31
0.0
  0
LINE
  5
2F9
330
5C
100
AcDbEntity
  8
0
  6
Continuous
 62
     7
100
AcDbLine
 10
276.3745086235449
 20
-385.2228777397904
 30
0.0
 11
275.8945275619026
 21
-384.8502767947357
 31
0.0
  0
LINE
  5
2FA
330
5C
100
AcDbEntity
  8
0
  6
Continuous
 62
     7
100
AcDbLine
 10
275.4944671370777
 20
-384.5397168491872
 30
0.0
 11
275.8945275619026
 21
-384.8502767947357
 31
0.0
  0
LINE
  5
2FB
330
5C
100
AcDbEntity
  8
0
  6
Continuous
 62
     7
100
AcDbLine
 10
290.3662156519004
 20
-366.2080131768744
 30
0.0
 11
290.8461965943989
 21
-366.5806140294408
 31
0.0
  0
LINE
  5
2FC
330
5C
100
AcDbEntity
  8
0
  6
Continuous
 62
     7
100
AcDbLine
 10
260.8277873229508
 20
-265.2218693161667
 30
0.0
 11
261.2003881755136
 21
-264.7418883736718
 31
0.0
  0
LINE
  5
2FD
330
5C
100
AcDbEntity
  8
0
  6
Continuous
 62
     7
100
AcDbLine
 10
260.8277873229508
 20
-265.2218693161667
 30
0.0
 11
260.5172274556662
 21
-265.6219296401723
 31
0.0
  0
LINE
  5
2FE
330
5C
100
AcDbEntity
  8
0
  6
Continuous
 62
     7
100
AcDbLine
 10
248.3024201889366
 20
-272.3902583967029
 30
0.0
 11
246.5865688402101
 21
-276.467810216167
 31
0.0
  0
LINE
  5
2FF
330
5C
100
AcDbEntity
  8
0
  6
Continuous
 62
     7
100
AcDbLine
 10
250.422369786249
 20
-273.2823423080372
 30
0.0
 11
248.7065184375188
 21
-277.3598941275013
 31
0.0
  0
LINE
  5
300
330
5C
100
AcDbEntity
  8
0
  6
Continuous
 62
     7
100
AcDbLine
 10
248.7065184375188
 20
-277.3598941275013
 30
0.0
 11
247.9572167235838
 21
-279.140535888364
 31
0.0
  0
LINE
  5
301
330
5C
100
AcDbEntity
  8
0
  6
Continuous
 62
     7
100
AcDbLine
 10
254.823477522883
 20
-262.8235430230816
 30
0.0
 11
250.422369786249
 21
-273.2823423080372
 31
0.0
  0
LINE
  5
302
330
5C
100
AcDbEntity
  8
0
  6
Continuous
 62
     7
100
AcDbLine
 10
252.7035279255706
 20
-261.9314591117472
 30
0.0
 11
248.3024201889366
 21
-272.3902583967029
 31
0.0
  0
LINE
  5
303
330
5C
100
AcDbEntity
  8
0
  6
Continuous
 62
     7
100
AcDbLine
 10
259.3593027071056
 20
-252.0446009857005
 30
0.0
 11
254.823477522883
 21
-262.8235430230816
 31
0.0
  0
LINE
  5
304
330
5C
100
AcDbEntity
  8
0
  6
Continuous
 62
     7
100
AcDbLine
 10
257.2393531097932
 20
-251.1525170743662
 30
0.0
 11
259.3593027071056
 21
-252.0446009857005
 31
0.0
  0
LINE
  5
305
330
5C
100
AcDbEntity
  8
0
  6
Continuous
 62
     7
100
AcDbLine
 10
257.2393531097932
 20
-251.1525170743662
 30
0.0
 11
252.7035279255706
 21
-261.9314591117472
 31
0.0
  0
LINE
  5
306
330
5C
100
AcDbEntity
  8
0
  6
Continuous
 62
     7
100
AcDbLine
 10
231.8741067742504
 20
-272.7482563600206
 30
0.0
 11
231.6112008972978
 21
-274.6621577783008
 31
0.0
  0
LINE
  5
307
330
5C
100
AcDbEntity
  8
0
  6
Continuous
 62
     7
100
AcDbLine
 10
235.6118262246801
 20
-245.5384174619394
 30
0.0
 11
237.8904285972367
 21
-245.851421020674
 31
0.0
  0
LINE
  5
308
330
5C
100
AcDbEntity
  8
0
  6
Continuous
 62
     7
100
AcDbLine
 10
235.6118262246801
 20
-245.5384174619394
 30
0.0
 11
234.0203510210359
 21
-257.12403389885
 31
0.0
  0
LINE
  5
309
330
5C
100
AcDbEntity
  8
0
  6
Continuous
 62
     7
100
AcDbLine
 10
237.8904285972367
 20
-245.851421020674
 30
0.0
 11
236.2989533935925
 21
-257.4370374575847
 31
0.0
  0
LINE
  5
30A
330
5C
100
AcDbEntity
  8
0
  6
Continuous
 62
     7
100
AcDbLine
 10
236.2989533935925
 20
-257.4370374575847
 30
0.0
 11
234.7547462103485
 21
-268.6785523006874
 31
0.0
  0
LINE
  5
30B
330
5C
100
AcDbEntity
  8
0
  6
Continuous
 62
     7
100
AcDbLine
 10
234.0203510210359
 20
-257.12403389885
 30
0.0
 11
232.4761438377919
 21
-268.3655487419528
 31
0.0
  0
LINE
  5
30C
330
5C
100
AcDbEntity
  8
0
  6
Continuous
 62
     7
100
AcDbLine
 10
234.7547462103485
 20
-268.6785523006874
 30
0.0
 11
234.152709146807
 21
-273.0612599187552
 31
0.0
  0
LINE
  5
30D
330
5C
100
AcDbEntity
  8
0
  6
Continuous
 62
     7
100
AcDbLine
 10
232.4761438377919
 20
-268.3655487419528
 30
0.0
 11
231.8741067742504
 21
-272.7482563600206
 31
0.0
  0
LINE
  5
30E
330
5C
100
AcDbEntity
  8
0
  6
Continuous
 62
     7
100
AcDbLine
 10
234.152709146807
 20
-273.0612599187552
 30
0.0
 11
233.8898032698544
 21
-274.9751613370354
 31
0.0
  0
LINE
  5
30F
330
5C
100
AcDbEntity
  8
0
  6
Continuous
 62
     7
100
AcDbLine
 10
269.5058378117883
 20
-271.4106372887472
 30
0.0
 11
262.5477577408401
 21
-280.3739711282724
 31
0.0
  0
LINE
  5
310
330
5C
100
AcDbEntity
  8
0
  6
Continuous
 62
     7
100
AcDbLine
 10
283.2822310280662
 20
-284.9155781021764
 30
0.0
 11
274.2413602808683
 21
-291.7726101077133
 31
0.0
  0
LINE
  5
311
330
5C
100
AcDbEntity
  8
0
  6
Continuous
 62
     7
100
AcDbLine
 10
292.5998418834188
 20
-277.8486530639966
 30
0.0
 11
293.9897301337642
 21
-279.6811951921773
 31
0.0
  0
LINE
  5
312
330
5C
100
AcDbEntity
  8
0
  6
Continuous
 62
     7
100
AcDbLine
 10
293.9897301337642
 20
-279.6811951921773
 30
0.0
 11
284.6721192784116
 21
-286.7481202303534
 31
0.0
  0
LINE
  5
313
330
5C
100
AcDbEntity
  8
0
  6
Continuous
 62
     7
100
AcDbLine
 10
292.5998418834188
 20
-277.8486530639966
 30
0.0
 11
283.2822310280662
 21
-284.9155781021764
 31
0.0
  0
LINE
  5
314
330
5C
100
AcDbEntity
  8
0
  6
Continuous
 62
     7
100
AcDbLine
 10
240.9100795723407
 20
-289.9574281597779
 30
0.0
 11
241.5326684221564
 21
-288.4779070466939
 31
0.0
  0
LINE
  5
315
330
5C
100
AcDbEntity
  8
0
  6
Continuous
 62
     7
100
AcDbLine
 10
233.8898032698544
 20
-274.9751613370354
 30
0.0
 11
232.8365257657443
 21
-282.64280776741
 31
0.0
  0
LINE
  5
316
330
5C
100
AcDbEntity
  8
0
  6
Continuous
 62
     7
100
AcDbLine
 10
231.6112008972978
 20
-274.6621577783008
 30
0.0
 11
230.5579233931876
 21
-282.3298042086753
 31
0.0
  0
LINE
  5
317
330
5C
100
AcDbEntity
  8
0
  6
Continuous
 62
     7
100
AcDbLine
 10
219.2236470419357
 20
-274.5926329988979
 30
0.0
 11
220.19079202576
 21
-282.2716189906932
 31
0.0
  0
LINE
  5
318
330
5C
100
AcDbEntity
  8
0
  6
Continuous
 62
     7
100
AcDbLine
 10
216.941674880256
 20
-274.8800404680296
 30
0.0
 11
217.9088198640802
 21
-282.5590264598213
 31
0.0
  0
LINE
  5
319
330
5C
100
AcDbEntity
  8
0
  6
Continuous
 62
     7
100
AcDbLine
 10
280.9954519691692
 20
-324.6038728958629
 30
0.0
 11
273.3164659773775
 21
-325.5710178796871
 31
0.0
  0
LINE
  5
31A
330
5C
100
AcDbEntity
  8
0
  6
Continuous
 62
     7
100
AcDbLine
 10
280.7080445000374
 20
-322.3219007341832
 30
0.0
 11
273.0290585082457
 21
-323.2890457180074
 31
0.0
  0
LINE
  5
31B
330
5C
100
AcDbEntity
  8
0
  6
Continuous
 62
     7
100
AcDbLine
 10
303.9230448979743
 20
-297.1113918909578
 30
0.0
 11
293.0938691432875
 21
-301.5259421535666
 31
0.0
  0
LINE
  5
31C
330
5C
100
AcDbEntity
  8
0
  6
Continuous
 62
     7
100
AcDbLine
 10
303.9230448979743
 20
-297.1113918909578
 30
0.0
 11
304.7912770509156
 21
-299.2412212100826
 31
0.0
  0
LINE
  5
31D
330
5C
100
AcDbEntity
  8
0
  6
Continuous
 62
     7
100
AcDbLine
 10
293.0938691432875
 20
-301.5259421535666
 30
0.0
 11
282.5863281205184
 21
-305.8093769257212
 31
0.0
  0
LINE
  5
31E
330
5C
100
AcDbEntity
  8
0
  6
Continuous
 62
     7
100
AcDbLine
 10
283.4545602734561
 20
-307.939206244846
 30
0.0
 11
279.3580056070805
 21
-309.6091806628356
 31
0.0
  0
LINE
  5
31F
330
5C
100
AcDbEntity
  8
0
  6
Continuous
 62
     7
100
AcDbLine
 10
293.9621012962252
 20
-303.6557714726914
 30
0.0
 11
283.4545602734561
 21
-307.939206244846
 31
0.0
  0
LINE
  5
320
330
5C
100
AcDbEntity
  8
0
  6
Continuous
 62
     7
100
AcDbLine
 10
304.7912770509156
 20
-299.2412212100826
 30
0.0
 11
293.9621012962252
 21
-303.6557714726914
 31
0.0
  0
LINE
  5
321
330
5C
100
AcDbEntity
  8
0
  6
Continuous
 62
     7
100
AcDbLine
 10
279.3580056070805
 20
-309.6091806628356
 30
0.0
 11
277.5690654200316
 21
-310.3384482037291
 31
0.0
  0
LINE
  5
322
330
5C
100
AcDbEntity
  8
0
  6
Continuous
 62
     7
100
AcDbLine
 10
278.4897734541428
 20
-307.4793513437107
 30
0.0
 11
276.7008332670939
 21
-308.2086188846042
 31
0.0
  0
LINE
  5
323
330
5C
100
AcDbEntity
  8
0
  6
Continuous
 62
     7
100
AcDbLine
 10
270.5672665645707
 20
-297.4459201654136
 30
0.0
 11
264.4006421122849
 21
-302.1229852864453
 31
0.0
  0
LINE
  5
324
330
5C
100
AcDbEntity
  8
0
  6
Continuous
 62
     7
100
AcDbLine
 10
269.1773783142253
 20
-295.6133780372329
 30
0.0
 11
263.0107538619395
 21
-300.2904431582647
 31
0.0
  0
LINE
  5
325
330
5C
100
AcDbEntity
  8
0
  6
Continuous
 62
     7
100
AcDbLine
 10
270.7166135140233
 20
-294.4459478942517
 30
0.0
 11
269.1773783142253
 21
-295.6133780372329
 31
0.0
  0
LINE
  5
326
330
5C
100
AcDbEntity
  8
0
  6
Continuous
 62
     7
100
AcDbLine
 10
272.1065017643687
 20
-296.2784900224324
 30
0.0
 11
270.5672665645707
 21
-297.4459201654136
 31
0.0
  0
LINE
  5
327
330
5C
100
AcDbEntity
  8
0
  6
Continuous
 62
     7
100
AcDbLine
 10
261.6518503011521
 20
-285.2788589507254
 30
0.0
 11
260.4672164237618
 21
-286.8048932608181
 31
0.0
  0
LINE
  5
328
330
5C
100
AcDbEntity
  8
0
  6
Continuous
 62
     7
100
AcDbLine
 10
275.6312485312174
 20
-293.6051522358939
 30
0.0
 11
272.1065017643687
 21
-296.2784900224324
 31
0.0
  0
LINE
  5
329
330
5C
100
AcDbEntity
  8
0
  6
Continuous
 62
     7
100
AcDbLine
 10
264.3645835012303
 20
-281.7843413478877
 30
0.0
 11
261.6518503011521
 21
-285.2788589507254
 31
0.0
  0
LINE
  5
32A
330
5C
100
AcDbEntity
  8
0
  6
Continuous
 62
     7
100
AcDbLine
 10
274.2413602808683
 20
-291.7726101077133
 30
0.0
 11
270.7166135140233
 21
-294.4459478942517
 31
0.0
  0
LINE
  5
32B
330
5C
100
AcDbEntity
  8
0
  6
Continuous
 62
     7
100
AcDbLine
 10
282.5863281205184
 20
-305.8093769257212
 30
0.0
 11
278.4897734541428
 21
-307.4793513437107
 31
0.0
  0
LINE
  5
32C
330
5C
100
AcDbEntity
  8
0
  6
Continuous
 62
     7
100
AcDbLine
 10
287.0139654922223
 20
-321.5276891205031
 30
0.0
 11
282.6247763569536
 21
-322.0804941731185
 31
0.0
  0
LINE
  5
32D
330
5C
100
AcDbEntity
  8
0
  6
Continuous
 62
     7
100
AcDbLine
 10
277.5690654200316
 20
-310.3384482037291
 30
0.0
 11
270.4020500720344
 21
-313.2601063431212
 31
0.0
  0
LINE
  5
32E
330
5C
100
AcDbEntity
  8
0
  6
Continuous
 62
     7
100
AcDbLine
 10
252.6774126796973
 20
-296.8396457773852
 30
0.0
 11
253.6617155705954
 21
-295.5716759753232
 31
0.0
  0
LINE
  5
32F
330
5C
100
AcDbEntity
  8
0
  6
Continuous
 62
     7
100
AcDbLine
 10
260.4457088822765
 20
-305.1225972150096
 30
0.0
 11
261.724647198871
 21
-304.1525887705539
 31
0.0
  0
LINE
  5
330
330
5C
100
AcDbEntity
  8
0
  6
Continuous
 62
     7
100
AcDbLine
 10
264.9372890759532
 20
-313.0040676126082
 30
0.0
 11
266.4237052855187
 21
-312.3981249982389
 31
0.0
  0
LINE
  5
331
330
5C
100
AcDbEntity
  8
0
  6
Continuous
 62
     7
100
AcDbLine
 10
259.0558206319311
 20
-303.2900550868326
 30
0.0
 11
260.3347589485256
 21
-302.3200466423768
 31
0.0
  0
LINE
  5
332
330
5C
100
AcDbEntity
  8
0
  6
Continuous
 62
     7
100
AcDbLine
 10
284.6721192784116
 20
-286.7481202303534
 30
0.0
 11
275.6312485312174
 21
-293.6051522358939
 31
0.0
  0
LINE
  5
333
330
5C
100
AcDbEntity
  8
0
  6
Continuous
 62
     7
100
AcDbLine
 10
282.9121838260853
 20
-324.3624663347982
 30
0.0
 11
280.9954519691692
 21
-324.6038728958629
 31
0.0
  0
LINE
  5
334
330
5C
100
AcDbEntity
  8
0
  6
Continuous
 62
     7
100
AcDbLine
 10
276.7008332670939
 20
-308.2086188846042
 30
0.0
 11
269.5338179190967
 21
-311.1302770239963
 31
0.0
  0
LINE
  5
335
330
5C
100
AcDbEntity
  8
0
  6
Continuous
 62
     7
100
AcDbLine
 10
282.6247763569536
 20
-322.0804941731185
 30
0.0
 11
280.7080445000374
 21
-322.3219007341832
 31
0.0
  0
LINE
  5
336
330
5C
100
AcDbEntity
  8
0
  6
Continuous
 62
     7
100
AcDbLine
 10
287.3013729613504
 20
-323.8096612821828
 30
0.0
 11
282.9121838260853
 21
-324.3624663347982
 31
0.0
  0
LINE
  5
337
330
5C
100
AcDbEntity
  8
0
  6
Continuous
 62
     7
100
AcDbLine
 10
260.4672164237618
 20
-286.8048932608181
 30
0.0
 11
255.721228132783
 21
-292.9186311047051
 31
0.0
  0
LINE
  5
338
330
5C
100
AcDbEntity
  8
0
  6
Continuous
 62
     7
100
AcDbLine
 10
298.464051069217
 20
-339.400576874963
 30
0.0
 11
287.2225362261142
 21
-337.856369691719
 31
0.0
  0
LINE
  5
339
330
5C
100
AcDbEntity
  8
0
  6
Continuous
 62
     7
100
AcDbLine
 10
309.8748554567956
 20
-318.6484294007132
 30
0.0
 11
310.1622629259273
 21
-320.9304015623929
 31
0.0
  0
LINE
  5
33A
330
5C
100
AcDbEntity
  8
0
  6
Continuous
 62
     7
100
AcDbLine
 10
310.1622629259273
 20
-320.9304015623929
 30
0.0
 11
298.5595127035249
 21
-322.3917327444215
 31
0.0
  0
LINE
  5
33B
330
5C
100
AcDbEntity
  8
0
  6
Continuous
 62
     7
100
AcDbLine
 10
309.8748554567956
 20
-318.6484294007132
 30
0.0
 11
298.2721052343932
 21
-320.1097605827417
 31
0.0
  0
LINE
  5
33C
330
5C
100
AcDbEntity
  8
0
  6
Continuous
 62
     7
100
AcDbLine
 10
298.5595127035249
 20
-322.3917327444215
 30
0.0
 11
287.3013729613504
 21
-323.8096612821828
 31
0.0
  0
LINE
  5
33D
330
5C
100
AcDbEntity
  8
0
  6
Continuous
 62
     7
100
AcDbLine
 10
298.2721052343932
 20
-320.1097605827417
 30
0.0
 11
287.0139654922223
 21
-321.5276891205031
 31
0.0
  0
LINE
  5
33E
330
5C
100
AcDbEntity
  8
0
  6
Continuous
 62
     7
100
AcDbLine
 10
310.0496675061277
 20
-340.9920520786072
 30
0.0
 11
298.464051069217
 21
-339.400576874963
 31
0.0
  0
LINE
  5
33F
330
5C
100
AcDbEntity
  8
0
  6
Continuous
 62
     7
100
AcDbLine
 10
191.7311660370306
 20
-251.6650400700928
 30
0.0
 11
193.8609953561554
 21
-250.7968079171551
 31
0.0
  0
LINE
  5
340
330
5C
100
AcDbEntity
  8
0
  6
Continuous
 62
     7
100
AcDbLine
 10
191.7311660370306
 20
-251.6650400700928
 30
0.0
 11
196.1457162996394
 21
-262.4942158247832
 31
0.0
  0
LINE
  5
341
330
5C
100
AcDbEntity
  8
0
  6
Continuous
 62
     7
100
AcDbLine
 10
193.8609953561554
 20
-250.7968079171551
 30
0.0
 11
198.2755456187643
 21
-261.6259836718455
 31
0.0
  0
LINE
  5
342
330
5C
100
AcDbEntity
  8
0
  6
Continuous
 62
     7
100
AcDbLine
 10
176.4041154939605
 20
-291.2235014668404
 30
0.0
 11
179.8986330967983
 21
-293.9362346669186
 31
0.0
  0
LINE
  5
343
330
5C
100
AcDbEntity
  8
0
  6
Continuous
 62
     7
100
AcDbLine
 10
179.8986330967983
 20
-293.9362346669186
 30
0.0
 11
181.4246674068909
 21
-295.1208685443053
 31
0.0
  0
LINE
  5
344
330
5C
100
AcDbEntity
  8
0
  6
Continuous
 62
     7
100
AcDbLine
 10
204.2289548089084
 20
-276.2300793609866
 30
0.0
 11
204.9582223498019
 21
-278.0190195480354
 31
0.0
  0
LINE
  5
345
330
5C
100
AcDbEntity
  8
0
  6
Continuous
 62
     7
100
AcDbLine
 10
202.0991254897836
 20
-277.0983115139279
 30
0.0
 11
202.8283930306771
 21
-278.8872517009768
 31
0.0
  0
LINE
  5
346
330
5C
100
AcDbEntity
  8
0
  6
Continuous
 62
     7
100
AcDbLine
 10
202.8283930306771
 20
-278.8872517009768
 30
0.0
 11
205.7500511700692
 21
-286.0542670489704
 31
0.0
  0
LINE
  5
347
330
5C
100
AcDbEntity
  8
0
  6
Continuous
 62
     7
100
AcDbLine
 10
202.5589803909188
 20
-272.133524694611
 30
0.0
 11
204.2289548089084
 21
-276.2300793609866
 31
0.0
  0
LINE
  5
348
330
5C
100
AcDbEntity
  8
0
  6
Continuous
 62
     7
100
AcDbLine
 10
200.429151071794
 20
-273.0017568475523
 30
0.0
 11
202.0991254897836
 21
-277.0983115139279
 31
0.0
  0
LINE
  5
349
330
5C
100
AcDbEntity
  8
0
  6
Continuous
 62
     7
100
AcDbLine
 10
204.9582223498019
 20
-278.0190195480354
 30
0.0
 11
207.879880489194
 21
-285.1860348960327
 31
0.0
  0
LINE
  5
34A
330
5C
100
AcDbEntity
  8
0
  6
Continuous
 62
     7
100
AcDbLine
 10
196.1457162996394
 20
-262.4942158247832
 30
0.0
 11
200.429151071794
 21
-273.0017568475523
 31
0.0
  0
LINE
  5
34B
330
5C
100
AcDbEntity
  8
0
  6
Continuous
 62
     7
100
AcDbLine
 10
198.2755456187643
 20
-261.6259836718455
 30
0.0
 11
202.5589803909188
 21
-272.133524694611
 31
0.0
  0
LINE
  5
34C
330
5C
100
AcDbEntity
  8
0
  6
Continuous
 62
     7
100
AcDbLine
 10
181.4246674068909
 20
-295.1208685443053
 30
0.0
 11
187.538405250778
 21
-299.8668568352878
 31
0.0
  0
LINE
  5
34D
330
5C
100
AcDbEntity
  8
0
  6
Continuous
 62
     7
100
AcDbLine
 10
213.2682035467861
 20
-245.7132295112715
 30
0.0
 11
215.5501757084658
 21
-245.4258220421398
 31
0.0
  0
LINE
  5
34E
330
5C
100
AcDbEntity
  8
0
  6
Continuous
 62
     7
100
AcDbLine
 10
213.2682035467861
 20
-245.7132295112715
 30
0.0
 11
214.7295347288146
 21
-257.3159797336739
 31
0.0
  0
LINE
  5
34F
330
5C
100
AcDbEntity
  8
0
  6
Continuous
 62
     7
100
AcDbLine
 10
215.5501757084658
 20
-245.4258220421398
 30
0.0
 11
217.0115068904943
 21
-257.0285722645458
 31
0.0
  0
LINE
  5
350
330
5C
100
AcDbEntity
  8
0
  6
Continuous
 62
     7
100
AcDbLine
 10
216.7002683191913
 20
-272.9633086111135
 30
0.0
 11
216.941674880256
 21
-274.8800404680296
 31
0.0
  0
LINE
  5
351
330
5C
100
AcDbEntity
  8
0
  6
Continuous
 62
     7
100
AcDbLine
 10
218.4294354282556
 20
-268.2867120067167
 30
0.0
 11
218.9822404808711
 21
-272.6759011419817
 31
0.0
  0
LINE
  5
352
330
5C
100
AcDbEntity
  8
0
  6
Continuous
 62
     7
100
AcDbLine
 10
218.9822404808711
 20
-272.6759011419817
 30
0.0
 11
219.2236470419357
 21
-274.5926329988979
 31
0.0
  0
LINE
  5
353
330
5C
100
AcDbEntity
  8
0
  6
Continuous
 62
     7
100
AcDbLine
 10
216.1474632665759
 20
-268.5741194758484
 30
0.0
 11
216.7002683191913
 21
-272.9633086111135
 31
0.0
  0
LINE
  5
354
330
5C
100
AcDbEntity
  8
0
  6
Continuous
 62
     7
100
AcDbLine
 10
214.7295347288146
 20
-257.3159797336739
 30
0.0
 11
216.1474632665759
 21
-268.5741194758484
 31
0.0
  0
LINE
  5
355
330
5C
100
AcDbEntity
  8
0
  6
Continuous
 62
     7
100
AcDbLine
 10
217.0115068904943
 20
-257.0285722645458
 30
0.0
 11
218.4294354282556
 21
-268.2867120067167
 31
0.0
  0
LINE
  5
356
330
5C
100
AcDbEntity
  8
0
  6
Continuous
 62
     7
100
AcDbLine
 10
192.0656943114864
 20
-285.0208184035
 30
0.0
 11
196.7427594325182
 21
-291.1874428557858
 31
0.0
  0
LINE
  5
357
330
5C
100
AcDbEntity
  8
0
  6
Continuous
 62
     7
100
AcDbLine
 10
173.8333504905986
 20
-275.7454330822038
 30
0.0
 11
174.3133315522373
 21
-276.1180340272586
 31
0.0
  0
LINE
  5
358
330
5C
100
AcDbEntity
  8
0
  6
Continuous
 62
     7
100
AcDbLine
 10
174.7133919770622
 20
-276.428593972807
 30
0.0
 11
174.3133315522373
 21
-276.1180340272586
 31
0.0
  0
LINE
  5
359
330
5C
100
AcDbEntity
  8
0
  6
Continuous
 62
     7
100
AcDbLine
 10
167.440781654439
 20
-284.2654213958922
 30
0.0
 11
176.4041154939605
 21
-291.2235014668404
 31
0.0
  0
LINE
  5
35A
330
5C
100
AcDbEntity
  8
0
  6
Continuous
 62
     7
100
AcDbLine
 10
199.7423713610824
 20
-295.1423760857906
 30
0.0
 11
198.7723629166303
 21
-293.863437769196
 31
0.0
  0
LINE
  5
35B
330
5C
100
AcDbEntity
  8
0
  6
Continuous
 62
     7
100
AcDbLine
 10
190.2331521833058
 20
-286.4107066538454
 30
0.0
 11
194.9102173043375
 21
-292.5773311061312
 31
0.0
  0
LINE
  5
35C
330
5C
100
AcDbEntity
  8
0
  6
Continuous
 62
     7
100
AcDbLine
 10
179.5353522482492
 20
-272.3058539400008
 30
0.0
 11
186.3923842537861
 21
-281.3467246871987
 31
0.0
  0
LINE
  5
35D
330
5C
100
AcDbEntity
  8
0
  6
Continuous
 62
     7
100
AcDbLine
 10
181.3678943764299
 20
-270.9159656896554
 30
0.0
 11
188.2249263819668
 21
-279.9568364368533
 31
0.0
  0
LINE
  5
35E
330
5C
100
AcDbEntity
  8
0
  6
Continuous
 62
     7
100
AcDbLine
 10
174.3009693382501
 20
-261.5983548343029
 30
0.0
 11
181.3678943764299
 21
-270.9159656896554
 31
0.0
  0
LINE
  5
35F
330
5C
100
AcDbEntity
  8
0
  6
Continuous
 62
     7
100
AcDbLine
 10
209.7536710778059
 20
-289.7825637391761
 30
0.0
 11
209.1477284634366
 21
-288.2961475296106
 31
0.0
  0
LINE
  5
360
330
5C
100
AcDbEntity
  8
0
  6
Continuous
 62
     7
100
AcDbLine
 10
172.4684272100695
 20
-262.9882430846519
 30
0.0
 11
174.3009693382501
 21
-261.5983548343029
 31
0.0
  0
LINE
  5
361
330
5C
100
AcDbEntity
  8
0
  6
Continuous
 62
     7
100
AcDbLine
 10
172.4684272100695
 20
-262.9882430846519
 30
0.0
 11
179.5353522482492
 21
-272.3058539400008
 31
0.0
  0
LINE
  5
362
330
5C
100
AcDbEntity
  8
0
  6
Continuous
 62
     7
100
AcDbLine
 10
191.4594199234616
 20
-302.9106722883698
 30
0.0
 11
190.191450121396
 21
-301.9263693974754
 31
0.0
  0
LINE
  5
363
330
5C
100
AcDbEntity
  8
0
  6
Continuous
 62
     7
100
AcDbLine
 10
197.9098292329054
 20
-296.532264336136
 30
0.0
 11
196.9398207884497
 21
-295.2533260195414
 31
0.0
  0
LINE
  5
364
330
5C
100
AcDbEntity
  8
0
  6
Continuous
 62
     7
100
AcDbLine
 10
190.8982641685052
 20
-283.481583203702
 30
0.0
 11
192.0656943114864
 21
-285.0208184035
 31
0.0
  0
LINE
  5
365
330
5C
100
AcDbEntity
  8
0
  6
Continuous
 62
     7
100
AcDbLine
 10
188.2249263819668
 20
-279.9568364368533
 30
0.0
 11
190.8982641685052
 21
-283.481583203702
 31
0.0
  0
LINE
  5
366
330
5C
100
AcDbEntity
  8
0
  6
Continuous
 62
     7
100
AcDbLine
 10
189.0657220403246
 20
-284.8714714540474
 30
0.0
 11
190.2331521833058
 21
-286.4107066538454
 31
0.0
  0
LINE
  5
367
330
5C
100
AcDbEntity
  8
0
  6
Continuous
 62
     7
100
AcDbLine
 10
186.3923842537861
 20
-281.3467246871987
 30
0.0
 11
189.0657220403246
 21
-284.8714714540474
 31
0.0
  0
LINE
  5
368
330
5C
100
AcDbEntity
  8
0
  6
Continuous
 62
     7
100
AcDbLine
 10
207.6238417586847
 20
-290.6507958921138
 30
0.0
 11
207.0178991443118
 21
-289.1643796825483
 31
0.0
  0
LINE
  5
369
330
5C
100
AcDbEntity
  8
0
  6
Continuous
 62
     7
100
AcDbLine
 10
265.6306568082928
 20
-346.2903054262642
 30
0.0
 11
267.1101779213732
 21
-346.9128942760835
 31
0.0
  0
LINE
  5
36A
330
5C
100
AcDbEntity
  8
0
  6
Continuous
 62
     7
100
AcDbLine
 10
268.3406747176978
 20
-335.262635076655
 30
0.0
 11
269.9309202229615
 21
-335.4810814841549
 31
0.0
  0
LINE
  5
36B
330
5C
100
AcDbEntity
  8
0
  6
Continuous
 62
     7
100
AcDbLine
 10
268.0276711589631
 20
-337.5412374492116
 30
0.0
 11
269.6179166642305
 21
-337.7596838567115
 31
0.0
  0
LINE
  5
36C
330
5C
100
AcDbEntity
  8
0
  6
Continuous
 62
     7
100
AcDbLine
 10
260.1588094103008
 20
-356.2408127732342
 30
0.0
 11
261.4267792123628
 21
-357.2251156641323
 31
0.0
  0
LINE
  5
36D
330
5C
100
AcDbEntity
  8
0
  6
Continuous
 62
     7
100
AcDbLine
 10
264.7385728969548
 20
-348.4102550235766
 30
0.0
 11
266.2180940100388
 21
-349.0328438733959
 31
0.0
  0
LINE
  5
36E
330
5C
100
AcDbEntity
  8
0
  6
Continuous
 62
     7
100
AcDbLine
 10
290.3662156519004
 20
-366.2080131768744
 30
0.0
 11
289.9661553278947
 21
-365.8974533095898
 31
0.0
  0
LINE
  5
36F
330
5C
100
AcDbEntity
  8
0
  6
Continuous
 62
     7
100
AcDbLine
 10
292.7645419449891
 20
-360.2037033768102
 30
0.0
 11
282.3057426600299
 21
-355.8025956401762
 31
0.0
  0
LINE
  5
370
330
5C
100
AcDbEntity
  8
0
  6
Continuous
 62
     7
100
AcDbLine
 10
275.2141138397983
 20
-367.9279835947673
 30
0.0
 11
271.7195962369606
 21
-365.2152503946854
 31
0.0
  0
LINE
  5
371
330
5C
100
AcDbEntity
  8
0
  6
Continuous
 62
     7
100
AcDbLine
 10
271.7195962369606
 20
-365.2152503946854
 30
0.0
 11
270.1935619268679
 21
-364.0306165172988
 31
0.0
  0
LINE
  5
372
330
5C
100
AcDbEntity
  8
0
  6
Continuous
 62
     7
100
AcDbLine
 10
270.1935619268679
 20
-364.0306165172988
 30
0.0
 11
264.0798240829809
 21
-359.2846282263163
 31
0.0
  0
LINE
  5
373
330
5C
100
AcDbEntity
  8
0
  6
Continuous
 62
     7
100
AcDbLine
 10
277.3396329910374
 20
-351.2174929802022
 30
0.0
 11
270.2058635549274
 21
-348.2155721094387
 31
0.0
  0
LINE
  5
374
330
5C
100
AcDbEntity
  8
0
  6
Continuous
 62
     7
100
AcDbLine
 10
283.1978265713678
 20
-353.6826460428638
 30
0.0
 11
279.1202747519037
 21
-351.9667946941372
 31
0.0
  0
LINE
  5
375
330
5C
100
AcDbEntity
  8
0
  6
Continuous
 62
     7
100
AcDbLine
 10
276.4475490797031
 20
-353.337442577511
 30
0.0
 11
269.3137796435931
 21
-350.335521706751
 31
0.0
  0
LINE
  5
376
330
5C
100
AcDbEntity
  8
0
  6
Continuous
 62
     7
100
AcDbLine
 10
293.6566258563234
 20
-358.0837537794978
 30
0.0
 11
283.1978265713678
 21
-353.6826460428638
 31
0.0
  0
LINE
  5
377
330
5C
100
AcDbEntity
  8
0
  6
Continuous
 62
     7
100
AcDbLine
 10
279.1202747519037
 20
-351.9667946941372
 30
0.0
 11
277.3396329910374
 21
-351.2174929802022
 31
0.0
  0
LINE
  5
378
330
5C
100
AcDbEntity
  8
0
  6
Continuous
 62
     7
100
AcDbLine
 10
282.3057426600299
 20
-355.8025956401762
 30
0.0
 11
278.2281908405657
 21
-354.0867442914459
 31
0.0
  0
LINE
  5
379
330
5C
100
AcDbEntity
  8
0
  6
Continuous
 62
     7
100
AcDbLine
 10
278.2281908405657
 20
-354.0867442914459
 30
0.0
 11
276.4475490797031
 21
-353.337442577511
 31
0.0
  0
LINE
  5
37A
330
5C
100
AcDbEntity
  8
0
  6
Continuous
 62
     7
100
AcDbLine
 10
229.8824092227278
 20
-287.2474102503729
 30
0.0
 11
230.1008556302277
 21
-285.6571647451056
 31
0.0
  0
LINE
  5
37B
330
5C
100
AcDbEntity
  8
0
  6
Continuous
 62
     7
100
AcDbLine
 10
220.8110655423934
 20
-287.1964976024319
 30
0.0
 11
220.6104827459076
 21
-285.6039003081605
 31
0.0
  0
LINE
  5
37C
330
5C
100
AcDbEntity
  8
0
  6
Continuous
 62
     7
100
AcDbLine
 10
218.5290933807101
 20
-287.4839050715636
 30
0.0
 11
218.3285105842242
 21
-285.8913077772922
 31
0.0
  0
LINE
  5
37D
330
5C
100
AcDbEntity
  8
0
  6
Continuous
 62
     7
100
AcDbLine
 10
247.9572167235838
 20
-279.140535888364
 30
0.0
 11
244.9552958528239
 21
-286.274305324474
 31
0.0
  0
LINE
  5
37E
330
5C
100
AcDbEntity
  8
0
  6
Continuous
 62
     7
100
AcDbLine
 10
245.8372671262751
 20
-278.2484519770296
 30
0.0
 11
242.8353462555115
 21
-285.3822214131396
 31
0.0
  0
LINE
  5
37F
330
5C
100
AcDbEntity
  8
0
  6
Continuous
 62
     7
100
AcDbLine
 10
246.5865688402101
 20
-276.467810216167
 30
0.0
 11
245.8372671262751
 21
-278.2484519770296
 31
0.0
  0
LINE
  5
380
330
5C
100
AcDbEntity
  8
0
  6
Continuous
 62
     7
100
AcDbLine
 10
258.6503906633716
 20
-285.3945230412028
 30
0.0
 11
253.9044023723928
 21
-291.5082608850862
 31
0.0
  0
LINE
  5
381
330
5C
100
AcDbEntity
  8
0
  6
Continuous
 62
     7
100
AcDbLine
 10
250.8605869193107
 20
-295.4292755577699
 30
0.0
 11
251.8448898102052
 21
-294.1613057557042
 31
0.0
  0
LINE
  5
382
330
5C
100
AcDbEntity
  8
0
  6
Continuous
 62
     7
100
AcDbLine
 10
243.0300291696495
 20
-290.8495120711123
 30
0.0
 11
243.6526180194688
 21
-289.3699909580319
 31
0.0
  0
LINE
  5
383
330
5C
100
AcDbEntity
  8
0
  6
Continuous
 62
     7
100
AcDbLine
 10
232.1610115952845
 20
-287.5604138091076
 30
0.0
 11
232.3794580027843
 21
-285.9701683038402
 31
0.0
  0
LINE
  5
384
330
5C
100
AcDbEntity
  8
0
  6
Continuous
 62
     7
100
AcDbLine
 10
268.1041798965034
 20
-323.9093192346372
 30
0.0
 11
269.6967771907785
 21
-323.7087364381514
 31
0.0
  0
LINE
  5
385
330
5C
100
AcDbEntity
  8
0
  6
Continuous
 62
     7
100
AcDbLine
 10
265.8055212288946
 20
-315.133896931733
 30
0.0
 11
267.2919374384601
 21
-314.5279543173638
 31
0.0
  0
LINE
  5
386
330
5C
100
AcDbEntity
  8
0
  6
Continuous
 62
     7
100
AcDbLine
 10
268.3915873656351
 20
-326.191291396317
 30
0.0
 11
269.9841846599102
 21
-325.9907085998348
 31
0.0
  0
LINE
  5
387
330
5C
100
AcDbEntity
  8
0
  6
Continuous
 62
     7
100
AcDbLine
 10
259.8350245407619
 20
-283.8684887311065
 30
0.0
 11
258.6503906633716
 21
-285.3945230412028
 31
0.0
  0
LINE
  5
388
330
5C
100
AcDbEntity
  8
0
  6
Continuous
 62
     7
100
AcDbLine
 10
279.8426518858632
 20
-279.2135763445258
 30
0.0
 11
279.4700509408121
 21
-279.6935574061645
 31
0.0
  0
LINE
  5
389
330
5C
100
AcDbEntity
  8
0
  6
Continuous
 62
     7
100
AcDbLine
 10
279.1594909952601
 20
-280.0936178309894
 30
0.0
 11
279.4700509408121
 21
-279.6935574061645
 31
0.0
  0
LINE
  5
38A
330
5C
100
AcDbEntity
  8
0
  6
Continuous
 62
     7
100
AcDbLine
 10
271.3226635721749
 20
-272.8210075083662
 30
0.0
 11
264.3645835012303
 21
-281.7843413478877
 31
0.0
  0
LINE
  5
38B
330
5C
100
AcDbEntity
  8
0
  6
Continuous
 62
     7
100
AcDbLine
 10
262.5477577408401
 20
-280.3739711282724
 30
0.0
 11
259.8350245407619
 21
-283.8684887311065
 31
0.0
  0
LINE
  5
38C
330
5C
100
AcDbEntity
  8
0
  6
Continuous
 62
     7
100
AcDbLine
 10
145.772291220439
 20
-298.3487318582738
 30
0.0
 11
146.6643751317734
 21
-296.2287822609651
 31
0.0
  0
LINE
  5
38D
330
5C
100
AcDbEntity
  8
0
  6
Continuous
 62
     7
100
AcDbLine
 10
157.4433171691544
 20
-300.7646074451877
 30
0.0
 11
167.90211645411
 21
-305.1657151818217
 31
0.0
  0
LINE
  5
38E
330
5C
100
AcDbEntity
  8
0
  6
Continuous
 62
     7
100
AcDbLine
 10
145.772291220439
 20
-298.3487318582738
 30
0.0
 11
156.5512332578201
 21
-302.8845570424965
 31
0.0
  0
LINE
  5
38F
330
5C
100
AcDbEntity
  8
0
  6
Continuous
 62
     7
100
AcDbLine
 10
159.8416434622432
 20
-294.7602976451199
 30
0.0
 11
159.3616625197447
 21
-294.3876967925571
 31
0.0
  0
LINE
  5
390
330
5C
100
AcDbEntity
  8
0
  6
Continuous
 62
     7
100
AcDbLine
 10
159.8416434622432
 20
-294.7602976451199
 30
0.0
 11
160.2417037862452
 21
-295.0708575124045
 31
0.0
  0
LINE
  5
391
330
5C
100
AcDbEntity
  8
0
  6
Continuous
 62
     7
100
AcDbLine
 10
140.1581916080122
 20
-319.9762587433906
 30
0.0
 11
140.4711951667469
 21
-317.697656370834
 31
0.0
  0
LINE
  5
392
330
5C
100
AcDbEntity
  8
0
  6
Continuous
 62
     7
100
AcDbLine
 10
140.1581916080122
 20
-319.9762587433906
 30
0.0
 11
151.7438080449229
 21
-321.5677339470349
 31
0.0
  0
LINE
  5
393
330
5C
100
AcDbEntity
  8
0
  6
Continuous
 62
     7
100
AcDbLine
 10
140.4711951667469
 20
-317.697656370834
 30
0.0
 11
152.0568116036575
 21
-319.2891315744782
 31
0.0
  0
LINE
  5
394
330
5C
100
AcDbEntity
  8
0
  6
Continuous
 62
     7
100
AcDbLine
 10
146.6643751317734
 20
-296.2287822609651
 30
0.0
 11
157.4433171691544
 21
-300.7646074451877
 31
0.0
  0
LINE
  5
395
330
5C
100
AcDbEntity
  8
1
  6
PHANTOM
 62
     2
100
AcDbLine
 10
318.4589743925881
 20
-295.6441045173997
 30
0.0
 11
306.3589743925859
 21
-295.6441045173997
 31
0.0
  0
LINE
  5
396
330
5C
100
AcDbEntity
  8
1
  6
PHANTOM
 62
     2
100
AcDbLine
 10
312.4089743925852
 20
-289.5941045174004
 30
0.0
 11
312.4089743925852
 21
-301.694104517399
 31
0.0
  0
LINE
  5
397
330
5C
100
AcDbEntity
  8
1
  6
Continuous
 62
     7
100
AcDbLine
 10
307.9368384375866
 20
-295.1441045173997
 30
0.0
 11
311.9089743925852
 21
-295.1441045173997
 31
0.0
  0
LINE
  5
398
330
5C
100
AcDbEntity
  8
1
  6
Continuous
 62
     7
100
AcDbLine
 10
311.9089743925852
 20
-295.1441045173997
 30
0.0
 11
311.9089743925852
 21
-291.1719685624012
 31
0.0
  0
LINE
  5
399
330
5C
100
AcDbEntity
  8
1
  6
Continuous
 62
     7
100
AcDbLine
 10
312.9089743925852
 20
-291.1719685624012
 30
0.0
 11
312.9089743925852
 21
-295.1441045173997
 31
0.0
  0
LINE
  5
39A
330
5C
100
AcDbEntity
  8
1
  6
Continuous
 62
     7
100
AcDbLine
 10
312.9089743925852
 20
-295.1441045173997
 30
0.0
 11
316.8811103475873
 21
-295.1441045173997
 31
0.0
  0
LINE
  5
39B
330
5C
100
AcDbEntity
  8
1
  6
Continuous
 62
     7
100
AcDbLine
 10
316.8811103475873
 20
-296.1441045173997
 30
0.0
 11
312.9089743925852
 21
-296.1441045173997
 31
0.0
  0
LINE
  5
39C
330
5C
100
AcDbEntity
  8
1
  6
Continuous
 62
     7
100
AcDbLine
 10
312.9089743925852
 20
-296.1441045173997
 30
0.0
 11
312.9089743925852
 21
-300.1162404723982
 31
0.0
  0
LINE
  5
39D
330
5C
100
AcDbEntity
  8
1
  6
Continuous
 62
     7
100
AcDbLine
 10
311.9089743925852
 20
-300.1162404723982
 30
0.0
 11
311.9089743925852
 21
-296.1441045173997
 31
0.0
  0
LINE
  5
39E
330
5C
100
AcDbEntity
  8
1
  6
Continuous
 62
     7
100
AcDbLine
 10
311.9089743925852
 20
-296.1441045173997
 30
0.0
 11
307.9368384375866
 21
-296.1441045173997
 31
0.0
  0
LINE
  5
39F
330
5C
100
AcDbEntity
  8
1
  6
Continuous
 62
     7
100
AcDbLine
 10
238.7670955337253
 20
-238.1387559599934
 30
0.0
 11
236.7810275562243
 21
-241.578726604308
 31
0.0
  0
LINE
  5
3A0
330
5C
100
AcDbEntity
  8
1
  6
Continuous
 62
     7
100
AcDbLine
 10
242.2070661780399
 20
-240.1248239374909
 30
0.0
 11
238.7670955337253
 21
-238.1387559599934
 31
0.0
  0
LINE
  5
3A1
330
5C
100
AcDbEntity
  8
1
  6
Continuous
 62
     7
100
AcDbLine
 10
239.2670955337253
 20
-237.2727305562075
 30
0.0
 11
242.7070661780399
 21
-239.2587985337086
 31
0.0
  0
LINE
  5
3A2
330
5C
100
AcDbEntity
  8
1
  6
Continuous
 62
     7
100
AcDbLine
 10
241.2531635112264
 20
-233.8327599118929
 30
0.0
 11
239.2670955337253
 21
-237.2727305562075
 31
0.0
  0
LINE
  5
3A3
330
5C
100
AcDbEntity
  8
1
  6
Continuous
 62
     7
100
AcDbLine
 10
238.4010701299394
 20
-236.7727305562075
 30
0.0
 11
240.3871381074405
 21
-233.3327599118929
 31
0.0
  0
LINE
  5
3A4
330
5C
100
AcDbEntity
  8
1
  6
Continuous
 62
     7
100
AcDbLine
 10
234.9610994856248
 20
-234.7866625787101
 30
0.0
 11
238.4010701299394
 21
-236.7727305562075
 31
0.0
  0
LINE
  5
3A5
330
5C
100
AcDbEntity
  8
1
  6
Continuous
 62
     7
100
AcDbLine
 10
237.9010701299394
 20
-237.6387559599934
 30
0.0
 11
234.4610994856248
 21
-235.6526879824924
 31
0.0
  0
LINE
  5
3A6
330
5C
100
AcDbEntity
  8
1
  6
Continuous
 62
     7
100
AcDbLine
 10
235.915002152442
 20
-241.078726604308
 30
0.0
 11
237.9010701299394
 21
-237.6387559599934
 31
0.0
  0
LINE
  5
3A7
330
5C
100
AcDbEntity
  8
1
  6
PHANTOM
 62
     2
100
AcDbLine
 10
241.609082831832
 20
-232.2162895652036
 30
0.0
 11
235.5590828318327
 21
-242.6951969509973
 31
0.0
  0
LINE
  5
3A8
330
5C
100
AcDbEntity
  8
1
  6
PHANTOM
 62
     2
100
AcDbLine
 10
233.3446291389355
 20
-234.4307432581009
 30
0.0
 11
243.8235365247292
 21
-240.4807432581001
 31
0.0
  0
LINE
  5
3A9
330
5C
100
AcDbEntity
  8
1
  6
Continuous
 62
     7
100
AcDbLine
 10
151.9620506982083
 20
-272.4788068535854
 30
0.0
 11
153.9481186757094
 21
-275.9187774979037
 31
0.0
  0
LINE
  5
3AA
330
5C
100
AcDbEntity
  8
1
  6
Continuous
 62
     7
100
AcDbLine
 10
155.4020213425229
 20
-270.492738876088
 30
0.0
 11
151.9620506982083
 21
-272.4788068535854
 31
0.0
  0
LINE
  5
3AB
330
5C
100
AcDbEntity
  8
1
  6
Continuous
 62
     7
100
AcDbLine
 10
151.4620506982083
 20
-271.6127814498032
 30
0.0
 11
154.9020213425229
 21
-269.6267134723021
 31
0.0
  0
LINE
  5
3AC
330
5C
100
AcDbEntity
  8
1
  6
Continuous
 62
     7
100
AcDbLine
 10
149.4759827207072
 20
-268.1728108054886
 30
0.0
 11
151.4620506982083
 21
-271.6127814498032
 31
0.0
  0
LINE
  5
3AD
330
5C
100
AcDbEntity
  8
1
  6
Continuous
 62
     7
100
AcDbLine
 10
150.5960252944224
 20
-272.1127814498032
 30
0.0
 11
148.609957316925
 21
-268.6728108054886
 31
0.0
  0
LINE
  5
3AE
330
5C
100
AcDbEntity
  8
1
  6
Continuous
 62
     7
100
AcDbLine
 10
147.1560546501078
 20
-274.0988494273006
 30
0.0
 11
150.5960252944224
 21
-272.1127814498032
 31
0.0
  0
LINE
  5
3AF
330
5C
100
AcDbEntity
  8
1
  6
Continuous
 62
     7
100
AcDbLine
 10
151.0960252944224
 20
-272.9788068535854
 30
0.0
 11
147.6560546501078
 21
-274.9648748310865
 31
0.0
  0
LINE
  5
3B0
330
5C
100
AcDbEntity
  8
1
  6
Continuous
 62
     7
100
AcDbLine
 10
153.0820932719235
 20
-276.4187774979037
 30
0.0
 11
151.0960252944224
 21
-272.9788068535854
 31
0.0
  0
LINE
  5
3B1
330
5C
100
AcDbEntity
  8
1
  6
PHANTOM
 62
     2
100
AcDbLine
 10
148.2540379963157
 20
-267.0563404587992
 30
0.0
 11
154.304037996315
 21
-277.5352478445893
 31
0.0
  0
LINE
  5
3B2
330
5C
100
AcDbEntity
  8
1
  6
PHANTOM
 62
     2
100
AcDbLine
 10
146.0395843034185
 20
-275.3207941516957
 30
0.0
 11
156.5184916892122
 21
-269.2707941516965
 31
0.0
  0
LINE
  5
3B3
330
5C
100
AcDbEntity
  8
1
  6
Continuous
 62
     7
100
AcDbLine
 10
138.2988847215511
 20
-364.8242063045873
 30
0.0
 11
142.2710206765533
 21
-364.8242063045873
 31
0.0
  0
LINE
  5
3B4
330
5C
100
AcDbEntity
  8
1
  6
Continuous
 62
     7
100
AcDbLine
 10
138.2988847215511
 20
-360.8520703495888
 30
0.0
 11
138.2988847215511
 21
-364.8242063045873
 31
0.0
  0
LINE
  5
3B5
330
5C
100
AcDbEntity
  8
1
  6
Continuous
 62
     7
100
AcDbLine
 10
137.2988847215511
 20
-364.8242063045873
 30
0.0
 11
137.2988847215511
 21
-360.8520703495888
 31
0.0
  0
LINE
  5
3B6
330
5C
100
AcDbEntity
  8
1
  6
Continuous
 62
     7
100
AcDbLine
 10
133.3267487665526
 20
-364.8242063045873
 30
0.0
 11
137.2988847215511
 21
-364.8242063045873
 31
0.0
  0
LINE
  5
3B7
330
5C
100
AcDbEntity
  8
1
  6
Continuous
 62
     7
100
AcDbLine
 10
137.2988847215511
 20
-365.8242063045873
 30
0.0
 11
133.3267487665526
 21
-365.8242063045873
 31
0.0
  0
LINE
  5
3B8
330
5C
100
AcDbEntity
  8
1
  6
Continuous
 62
     7
100
AcDbLine
 10
137.2988847215511
 20
-369.7963422595894
 30
0.0
 11
137.2988847215511
 21
-365.8242063045873
 31
0.0
  0
LINE
  5
3B9
330
5C
100
AcDbEntity
  8
1
  6
Continuous
 62
     7
100
AcDbLine
 10
138.2988847215511
 20
-365.8242063045873
 30
0.0
 11
138.2988847215511
 21
-369.7963422595894
 31
0.0
  0
LINE
  5
3BA
330
5C
100
AcDbEntity
  8
1
  6
Continuous
 62
     7
100
AcDbLine
 10
142.2710206765533
 20
-365.8242063045873
 30
0.0
 11
138.2988847215511
 21
-365.8242063045873
 31
0.0
  0
LINE
  5
3BB
330
5C
100
AcDbEntity
  8
1
  6
PHANTOM
 62
     2
100
AcDbLine
 10
131.7488847215518
 20
-365.3242063045873
 30
0.0
 11
143.8488847215504
 21
-365.3242063045873
 31
0.0
  0
LINE
  5
3BC
330
5C
100
AcDbEntity
  8
1
  6
PHANTOM
 62
     2
100
AcDbLine
 10
137.7988847215511
 20
-371.3742063045902
 30
0.0
 11
137.7988847215511
 21
-359.274206304588
 31
0.0
  0
LINE
  5
3BD
330
5C
100
AcDbEntity
  8
1
  6
Continuous
 62
     7
100
AcDbLine
 10
211.440763580411
 20
-422.8295548619972
 30
0.0
 11
213.426831557912
 21
-419.3895842176826
 31
0.0
  0
LINE
  5
3BE
330
5C
100
AcDbEntity
  8
1
  6
Continuous
 62
     7
100
AcDbLine
 10
208.0007929360964
 20
-420.8434868844961
 30
0.0
 11
211.440763580411
 21
-422.8295548619972
 31
0.0
  0
LINE
  5
3BF
330
5C
100
AcDbEntity
  8
1
  6
Continuous
 62
     7
100
AcDbLine
 10
210.940763580411
 20
-423.6955802657831
 30
0.0
 11
207.5007929360964
 21
-421.709512288282
 31
0.0
  0
LINE
  5
3C0
330
5C
100
AcDbEntity
  8
1
  6
Continuous
 62
     7
100
AcDbLine
 10
208.9546956029135
 20
-427.1355509100977
 30
0.0
 11
210.940763580411
 21
-423.6955802657831
 31
0.0
  0
LINE
  5
3C1
330
5C
100
AcDbEntity
  8
1
  6
Continuous
 62
     7
100
AcDbLine
 10
211.8067889841969
 20
-424.1955802657831
 30
0.0
 11
209.8207210066958
 21
-427.6355509100977
 31
0.0
  0
LINE
  5
3C2
330
5C
100
AcDbEntity
  8
1
  6
Continuous
 62
     7
100
AcDbLine
 10
215.2467596285115
 20
-426.1816482432805
 30
0.0
 11
211.8067889841969
 21
-424.1955802657831
 31
0.0
  0
LINE
  5
3C3
330
5C
100
AcDbEntity
  8
1
  6
Continuous
 62
     7
100
AcDbLine
 10
212.3067889841969
 20
-423.3295548619972
 30
0.0
 11
215.7467596285115
 21
-425.3156228394983
 31
0.0
  0
LINE
  5
3C4
330
5C
100
AcDbEntity
  8
1
  6
Continuous
 62
     7
100
AcDbLine
 10
214.2928569616979
 20
-419.8895842176826
 30
0.0
 11
212.3067889841969
 21
-423.3295548619972
 31
0.0
  0
LINE
  5
3C5
330
5C
100
AcDbEntity
  8
1
  6
PHANTOM
 62
     2
100
AcDbLine
 10
208.5987762823043
 20
-428.752021256787
 30
0.0
 11
214.6487762823035
 21
-418.2731138709933
 31
0.0
  0
LINE
  5
3C6
330
5C
100
AcDbEntity
  8
1
  6
PHANTOM
 62
     2
100
AcDbLine
 10
216.8632299752008
 20
-426.5375675638898
 30
0.0
 11
206.3843225894071
 21
-420.4875675638905
 31
0.0
  0
LINE
  5
3C7
330
5C
100
AcDbEntity
  8
1
  6
Continuous
 62
     7
100
AcDbLine
 10
298.2458084159316
 20
-388.4895039684052
 30
0.0
 11
296.2597404384305
 21
-385.0495333240906
 31
0.0
  0
LINE
  5
3C8
330
5C
100
AcDbEntity
  8
1
  6
Continuous
 62
     7
100
AcDbLine
 10
294.8058377716134
 20
-390.4755719459063
 30
0.0
 11
298.2458084159316
 21
-388.4895039684052
 31
0.0
  0
LINE
  5
3C9
330
5C
100
AcDbEntity
  8
1
  6
Continuous
 62
     7
100
AcDbLine
 10
298.7458084159316
 20
-389.3555293721911
 30
0.0
 11
295.3058377716134
 21
-391.3415973496885
 31
0.0
  0
LINE
  5
3CA
330
5C
100
AcDbEntity
  8
1
  6
Continuous
 62
     7
100
AcDbLine
 10
300.7318763934291
 20
-392.7955000165057
 30
0.0
 11
298.7458084159316
 21
-389.3555293721911
 31
0.0
  0
LINE
  5
3CB
330
5C
100
AcDbEntity
  8
1
  6
Continuous
 62
     7
100
AcDbLine
 10
299.6118338197139
 20
-388.8555293721911
 30
0.0
 11
301.5979017972149
 21
-392.2955000165057
 31
0.0
  0
LINE
  5
3CC
330
5C
100
AcDbEntity
  8
1
  6
Continuous
 62
     7
100
AcDbLine
 10
303.0518044640285
 20
-386.86946139469
 30
0.0
 11
299.6118338197139
 21
-388.8555293721911
 31
0.0
  0
LINE
  5
3CD
330
5C
100
AcDbEntity
  8
1
  6
Continuous
 62
     7
100
AcDbLine
 10
299.1118338197139
 20
-387.9895039684052
 30
0.0
 11
302.5518044640285
 21
-386.0034359909078
 31
0.0
  0
LINE
  5
3CE
330
5C
100
AcDbEntity
  8
1
  6
Continuous
 62
     7
100
AcDbLine
 10
297.1257658422164
 20
-384.5495333240906
 30
0.0
 11
299.1118338197139
 21
-387.9895039684052
 31
0.0
  0
LINE
  5
3CF
330
5C
100
AcDbEntity
  8
1
  6
PHANTOM
 62
     2
100
AcDbLine
 10
301.9538211178206
 20
-393.911970363195
 30
0.0
 11
295.9038211178213
 21
-383.4330629774013
 31
0.0
  0
LINE
  5
3D0
330
5C
100
AcDbEntity
  8
1
  6
PHANTOM
 62
     2
100
AcDbLine
 10
304.1682748107178
 20
-385.6475166702985
 30
0.0
 11
293.6893674249277
 21
-391.6975166702978
 31
0.0
  0
ARC
  5
3D1
330
5C
100
AcDbEntity
  8
0
  6
Continuous
 62
     7
100
AcDbCircle
 10
225.1039295570681
 20
-330.4841554109953
 30
0.0
 40
64.50000000000031
100
AcDbArc
 50
-171.7999607012259
 51
-158.8431742796572
  0
ARC
  5
3D2
330
5C
100
AcDbEntity
  8
0
  6
Continuous
 62
     7
100
AcDbCircle
 10
225.1039295570681
 20
-330.4841554109953
 30
0.0
 40
70.50000000000068
100
AcDbArc
 50
-171.8869140318106
 51
-158.7562209490696
  0
ARC
  5
3D3
330
5C
100
AcDbEntity
  8
0
  6
Continuous
 62
     7
100
AcDbCircle
 10
225.1039295570681
 20
-330.4841554109953
 30
0.0
 40
52.00000000000158
100
AcDbArc
 50
-6.55434597773696
 51
5.91121099686243
  0
ARC
  5
3D4
330
5C
100
AcDbEntity
  8
0
  6
Continuous
 62
     7
100
AcDbCircle
 10
225.1039295570681
 20
-330.4841554109953
 30
0.0
 40
51.99999999999989
100
AcDbArc
 50
-171.5543459777393
 51
-159.0887890031426
  0
ARC
  5
3D5
330
5C
100
AcDbEntity
  8
0
  6
Continuous
 62
     7
100
AcDbCircle
 10
225.1039295570681
 20
-330.4841554109953
 30
0.0
 40
70.49999999999842
100
AcDbArc
 50
173.1130859681945
 51
-173.7562209490697
  0
ARC
  5
3D6
330
5C
100
AcDbEntity
  8
0
  6
Continuous
 62
     7
100
AcDbCircle
 10
225.1039295570681
 20
-330.4841554109953
 30
0.0
 40
64.50000000000057
100
AcDbArc
 50
143.2000392987777
 51
156.1568257203459
  0
ARC
  5
3D7
330
5C
100
AcDbEntity
  8
0
  6
Continuous
 62
     7
100
AcDbCircle
 10
225.1039295570681
 20
-330.4841554109953
 30
0.0
 40
64.50000000000045
100
AcDbArc
 50
158.2000392987737
 51
171.15682572035
  0
ARC
  5
3D8
330
5C
100
AcDbEntity
  8
0
  6
Continuous
 62
     7
100
AcDbCircle
 10
225.1039295570681
 20
-330.4841554109953
 30
0.0
 40
64.5000000000018
100
AcDbArc
 50
173.2000392987767
 51
-173.8431742796544
  0
ARC
  5
3D9
330
5C
100
AcDbEntity
  8
0
  6
Continuous
 62
     7
100
AcDbCircle
 10
225.1039295570681
 20
-330.4841554109953
 30
0.0
 40
52.0000000000016
100
AcDbArc
 50
83.44565402226291
 51
95.91121099686248
  0
ARC
  5
3DA
330
5C
100
AcDbEntity
  8
0
  6
Continuous
 62
     7
100
AcDbCircle
 10
225.1039295570681
 20
-330.4841554109953
 30
0.0
 40
64.5000000000018
100
AcDbArc
 50
83.20003929877666
 51
96.15682572034876
  0
ARC
  5
3DB
330
5C
100
AcDbEntity
  8
0
  6
Continuous
 62
     7
100
AcDbCircle
 10
225.1039295570681
 20
-330.4841554109953
 30
0.0
 40
64.50000000000239
100
AcDbArc
 50
38.20003929877635
 51
51.15682572034904
  0
ARC
  5
3DC
330
5C
100
AcDbEntity
  8
0
  6
Continuous
 62
     7
100
AcDbCircle
 10
225.1039295570681
 20
-330.4841554109953
 30
0.0
 40
64.50000000000071
100
AcDbArc
 50
23.20003929877519
 51
36.15682572035033
  0
ARC
  5
3DD
330
5C
100
AcDbEntity
  8
0
  6
Continuous
 62
     7
100
AcDbCircle
 10
225.1039295570681
 20
-330.4841554109953
 30
0.0
 40
64.50000000000131
100
AcDbArc
 50
-6.79996070122009
 51
6.15682572034555
  0
ARC
  5
3DE
330
5C
100
AcDbEntity
  8
0
  6
Continuous
 62
     7
100
AcDbCircle
 10
225.1039295570681
 20
-330.4841554109953
 30
0.0
 40
70.49999999999756
100
AcDbArc
 50
-66.8869140318084
 51
-53.75622094906686
  0
ARC
  5
3DF
330
5C
100
AcDbEntity
  8
0
  6
Continuous
 62
     7
100
AcDbCircle
 10
225.1039295570681
 20
-330.4841554109953
 30
0.0
 40
70.49999999999842
100
AcDbArc
 50
-96.88691403180549
 51
-83.75622094906646
  0
ARC
  5
3E0
330
5C
100
AcDbEntity
  8
0
  6
Continuous
 62
     7
100
AcDbCircle
 10
225.1039295570681
 20
-330.4841554109953
 30
0.0
 40
51.99999999999792
100
AcDbArc
 50
-96.55434597773746
 51
-84.08878900313702
  0
ARC
  5
3E1
330
5C
100
AcDbEntity
  8
0
  6
Continuous
 62
     7
100
AcDbCircle
 10
225.1039295570681
 20
-330.4841554109953
 30
0.0
 40
64.49999999999741
100
AcDbArc
 50
-66.79996070122358
 51
-53.84317427965222
  0
ARC
  5
3E2
330
5C
100
AcDbEntity
  8
0
  6
Continuous
 62
     7
100
AcDbCircle
 10
225.1039295570681
 20
-330.4841554109953
 30
0.0
 40
51.99999999999729
100
AcDbArc
 50
-66.55434597773778
 51
-54.08878900313812
  0
ARC
  5
3E3
330
5C
100
AcDbEntity
  8
0
  6
Continuous
 62
     7
100
AcDbCircle
 10
225.1039295570681
 20
-330.4841554109953
 30
0.0
 40
51.99999999999958
100
AcDbArc
 50
-51.55434597773723
 51
-39.08878900313681
  0
ARC
  5
3E4
330
5C
100
AcDbEntity
  8
0
  6
Continuous
 62
     7
100
AcDbCircle
 10
225.1039295570681
 20
-330.4841554109953
 30
0.0
 40
64.49999999999775
100
AcDbArc
 50
-96.7999607012205
 51
-83.84317427965085
  0
ARC
  5
3E5
330
5C
100
AcDbEntity
  8
0
  6
Continuous
 62
     7
100
AcDbCircle
 10
225.1039295570681
 20
-330.4841554109953
 30
0.0
 40
52.00000000000297
100
AcDbArc
 50
143.4456540222608
 51
155.9112109968602
  0
ARC
  5
3E6
330
5C
100
AcDbEntity
  8
0
  6
Continuous
 62
     7
100
AcDbCircle
 10
225.1039295570681
 20
-330.4841554109953
 30
0.0
 40
51.99999999999941
100
AcDbArc
 50
158.4456540222576
 51
170.9112109968631
  0
ARC
  5
3E7
330
5C
100
AcDbEntity
  8
0
  6
Continuous
 62
     7
100
AcDbCircle
 10
225.1039295570681
 20
-330.4841554109953
 30
0.0
 40
70.49999999999763
100
AcDbArc
 50
-51.88691403180798
 51
-38.75622094906662
  0
ARC
  5
3E8
330
5C
100
AcDbEntity
  8
0
  6
Continuous
 62
     7
100
AcDbCircle
 10
225.1039295570681
 20
-330.4841554109953
 30
0.0
 40
64.49999999999964
100
AcDbArc
 50
-51.79996070122161
 51
-38.843174279653
  0
ARC
  5
3E9
330
5C
100
AcDbEntity
  8
0
  6
Continuous
 62
     7
100
AcDbCircle
 10
225.1039295570681
 20
-330.4841554109953
 30
0.0
 40
70.49999999999713
100
AcDbArc
 50
-81.88691403181006
 51
-68.75622094906964
  0
ARC
  5
3EA
330
5C
100
AcDbEntity
  8
0
  6
Continuous
 62
     7
100
AcDbCircle
 10
225.1039295570681
 20
-330.4841554109953
 30
0.0
 40
51.99999999999813
100
AcDbArc
 50
-111.5543459777385
 51
-99.08878900313745
  0
ARC
  5
3EB
330
5C
100
AcDbEntity
  8
0
  6
Continuous
 62
     7
100
AcDbCircle
 10
225.1039295570681
 20
-330.4841554109953
 30
0.0
 40
51.99999999999916
100
AcDbArc
 50
-156.5543459777431
 51
-144.0887890031381
  0
ARC
  5
3EC
330
5C
100
AcDbEntity
  8
0
  6
Continuous
 62
     7
100
AcDbCircle
 10
225.1039295570681
 20
-330.4841554109953
 30
0.0
 40
64.49999999999676
100
AcDbArc
 50
-81.79996070122549
 51
-68.84317427965419
  0
ARC
  5
3ED
330
5C
100
AcDbEntity
  8
0
  6
Continuous
 62
     7
100
AcDbCircle
 10
225.1039295570681
 20
-330.4841554109953
 30
0.0
 40
51.99999999999954
100
AcDbArc
 50
-141.5543459777372
 51
-129.0887890031394
  0
ARC
  5
3EE
330
5C
100
AcDbEntity
  8
0
  6
Continuous
 62
     7
100
AcDbCircle
 10
225.1039295570681
 20
-330.4841554109953
 30
0.0
 40
51.99999999999785
100
AcDbArc
 50
-126.5543459777384
 51
-114.0887890031398
  0
ARC
  5
3EF
330
5C
100
AcDbEntity
  8
0
  6
Continuous
 62
     7
100
AcDbCircle
 10
225.1039295570681
 20
-330.4841554109953
 30
0.0
 40
64.50000000000077
100
AcDbArc
 50
-156.7999607012248
 51
-143.8431742796522
  0
ARC
  5
3F0
330
5C
100
AcDbEntity
  8
0
  6
Continuous
 62
     7
100
AcDbCircle
 10
225.1039295570681
 20
-330.4841554109953
 30
0.0
 40
64.49999999999915
100
AcDbArc
 50
-111.7999607012232
 51
-98.84317427965364
  0
ARC
  5
3F1
330
5C
100
AcDbEntity
  8
0
  6
Continuous
 62
     7
100
AcDbCircle
 10
225.1039295570681
 20
-330.4841554109953
 30
0.0
 40
52.00000000000153
100
AcDbArc
 50
173.445654022263
 51
-174.0887890031375
  0
ARC
  5
3F2
330
5C
100
AcDbEntity
  8
0
  6
Continuous
 62
     7
100
AcDbCircle
 10
225.1039295570681
 20
-330.4841554109953
 30
0.0
 40
51.99999999999989
100
AcDbArc
 50
-81.55434597773932
 51
-69.08878900313873
  0
ARC
  5
3F3
330
5C
100
AcDbEntity
  8
0
  6
Continuous
 62
     7
100
AcDbCircle
 10
225.1039295570681
 20
-330.4841554109953
 30
0.0
 40
70.49999999999838
100
AcDbArc
 50
-111.8869140318076
 51
-98.756220949069
  0
ARC
  5
3F4
330
5C
100
AcDbEntity
  8
0
  6
Continuous
 62
     7
100
AcDbCircle
 10
225.1039295570681
 20
-330.4841554109953
 30
0.0
 40
64.49999999999767
100
AcDbArc
 50
-126.7999607012243
 51
-113.8431742796553
  0
ARC
  5
3F5
330
5C
100
AcDbEntity
  8
0
  6
Continuous
 62
     7
100
AcDbCircle
 10
225.1039295570681
 20
-330.4841554109953
 30
0.0
 40
70.50000000000074
100
AcDbArc
 50
-156.8869140318096
 51
-143.7562209490669
  0
ARC
  5
3F6
330
5C
100
AcDbEntity
  8
0
  6
Continuous
 62
     7
100
AcDbCircle
 10
225.1039295570681
 20
-330.4841554109953
 30
0.0
 40
64.49999999999729
100
AcDbArc
 50
-141.7999607012241
 51
-128.843174279653
  0
ARC
  5
3F7
330
5C
100
AcDbEntity
  8
0
  6
Continuous
 62
     7
100
AcDbCircle
 10
225.1039295570681
 20
-330.4841554109953
 30
0.0
 40
70.49999999999754
100
AcDbArc
 50
-141.8869140318079
 51
-128.7562209490688
  0
ARC
  5
3F8
330
5C
100
AcDbEntity
  8
0
  6
Continuous
 62
     7
100
AcDbCircle
 10
225.1039295570681
 20
-330.4841554109953
 30
0.0
 40
70.49999999999815
100
AcDbArc
 50
-126.8869140318093
 51
-113.7562209490691
  0
ARC
  5
3F9
330
5C
100
AcDbEntity
  8
0
  6
Continuous
 62
     7
100
AcDbCircle
 10
225.1039295570681
 20
-330.4841554109953
 30
0.0
 40
64.50000000000054
100
AcDbArc
 50
53.20003929877764
 51
66.15682572034592
  0
ARC
  5
3FA
330
5C
100
AcDbEntity
  8
0
  6
Continuous
 62
     7
100
AcDbCircle
 10
225.1039295570681
 20
-330.4841554109953
 30
0.0
 40
64.5000000000025
100
AcDbArc
 50
68.20003929877794
 51
81.15682572034363
  0
ARC
  5
3FB
330
5C
100
AcDbEntity
  8
0
  6
Continuous
 62
     7
100
AcDbCircle
 10
225.1039295570681
 20
-330.4841554109953
 30
0.0
 40
70.50000000000182
100
AcDbArc
 50
68.11308596819343
 51
81.24377905093141
  0
ARC
  5
3FC
330
5C
100
AcDbEntity
  8
0
  6
Continuous
 62
     7
100
AcDbCircle
 10
225.1039295570681
 20
-330.4841554109953
 30
0.0
 40
70.50000000000253
100
AcDbArc
 50
83.11308596819192
 51
96.24377905093317
  0
ARC
  5
3FD
330
5C
100
AcDbEntity
  8
0
  6
Continuous
 62
     7
100
AcDbCircle
 10
225.1039295570681
 20
-330.4841554109953
 30
0.0
 40
70.50000000000107
100
AcDbArc
 50
53.11308596819235
 51
66.24377905093203
  0
ARC
  5
3FE
330
5C
100
AcDbEntity
  8
0
  6
Continuous
 62
     7
100
AcDbCircle
 10
225.1039295570681
 20
-330.4841554109953
 30
0.0
 40
70.50000000000266
100
AcDbArc
 50
38.11308596819251
 51
51.24377905093297
  0
ARC
  5
3FF
330
5C
100
AcDbEntity
  8
0
  6
Continuous
 62
     7
100
AcDbCircle
 10
225.1039295570681
 20
-330.4841554109953
 30
0.0
 40
52.00000000000079
100
AcDbArc
 50
53.44565402226411
 51
65.91121099686171
  0
ARC
  5
400
330
5C
100
AcDbEntity
  8
0
  6
Continuous
 62
     7
100
AcDbCircle
 10
225.1039295570681
 20
-330.4841554109953
 30
0.0
 40
70.49999999999838
100
AcDbArc
 50
-6.88691403180556
 51
6.24377905093316
  0
ARC
  5
401
330
5C
100
AcDbEntity
  8
0
  6
Continuous
 62
     7
100
AcDbCircle
 10
225.1039295570681
 20
-330.4841554109953
 30
0.0
 40
70.50000000000077
100
AcDbArc
 50
8.11308596818941
 51
21.24377905093307
  0
ARC
  5
402
330
5C
100
AcDbEntity
  8
0
  6
Continuous
 62
     7
100
AcDbCircle
 10
225.1039295570681
 20
-330.4841554109953
 30
0.0
 40
64.50000000000037
100
AcDbArc
 50
8.20003929877408
 51
21.15682572034885
  0
ARC
  5
403
330
5C
100
AcDbEntity
  8
0
  6
Continuous
 62
     7
100
AcDbCircle
 10
225.1039295570681
 20
-330.4841554109953
 30
0.0
 40
70.50000000000081
100
AcDbArc
 50
23.11308596819041
 51
36.24377905093549
  0
ARC
  5
404
330
5C
100
AcDbEntity
  8
0
  6
Continuous
 62
     7
100
AcDbCircle
 10
225.1039295570681
 20
-330.4841554109953
 30
0.0
 40
51.99999999999984
100
AcDbArc
 50
8.44565402226074
 51
20.91121099686505
  0
ARC
  5
405
330
5C
100
AcDbEntity
  8
0
  6
Continuous
 62
     7
100
AcDbCircle
 10
225.1039295570681
 20
-330.4841554109953
 30
0.0
 40
51.99999999999951
100
AcDbArc
 50
38.44565402226268
 51
50.91121099686324
  0
ARC
  5
406
330
5C
100
AcDbEntity
  8
0
  6
Continuous
 62
     7
100
AcDbCircle
 10
225.1039295570681
 20
-330.4841554109953
 30
0.0
 40
52.00000000000055
100
AcDbArc
 50
23.4456540222606
 51
35.91121099686504
  0
ARC
  5
407
330
5C
100
AcDbEntity
  8
0
  6
Continuous
 62
     7
100
AcDbCircle
 10
225.1039295570681
 20
-330.4841554109953
 30
0.0
 40
70.50000000000222
100
AcDbArc
 50
113.1130859681931
 51
126.2437790509314
  0
ARC
  5
408
330
5C
100
AcDbEntity
  8
0
  6
Continuous
 62
     7
100
AcDbCircle
 10
225.1039295570681
 20
-330.4841554109953
 30
0.0
 40
64.50000000000094
100
AcDbArc
 50
98.20003929877724
 51
111.1568257203458
  0
ARC
  5
409
330
5C
100
AcDbEntity
  8
0
  6
Continuous
 62
     7
100
AcDbCircle
 10
225.1039295570681
 20
-330.4841554109953
 30
0.0
 40
70.50000000000117
100
AcDbArc
 50
98.11308596819237
 51
111.2437790509303
  0
ARC
  5
40A
330
5C
100
AcDbEntity
  8
0
  6
Continuous
 62
     7
100
AcDbCircle
 10
225.1039295570681
 20
-330.4841554109953
 30
0.0
 40
52.00000000000203
100
AcDbArc
 50
113.4456540222642
 51
125.9112109968595
  0
ARC
  5
40B
330
5C
100
AcDbEntity
  8
0
  6
Continuous
 62
     7
100
AcDbCircle
 10
225.1039295570681
 20
-330.4841554109953
 30
0.0
 40
51.99999999999988
100
AcDbArc
 50
98.44565402226061
 51
110.9112109968598
  0
ARC
  5
40C
330
5C
100
AcDbEntity
  8
0
  6
Continuous
 62
     7
100
AcDbCircle
 10
225.1039295570681
 20
-330.4841554109953
 30
0.0
 40
64.50000000000217
100
AcDbArc
 50
113.2000392987781
 51
126.1568257203458
  0
ARC
  5
40D
330
5C
100
AcDbEntity
  8
0
  6
Continuous
 62
     7
100
AcDbCircle
 10
225.1039295570681
 20
-330.4841554109953
 30
0.0
 40
51.99999999999953
100
AcDbArc
 50
128.4456540222627
 51
140.91121099686
  0
ARC
  5
40E
330
5C
100
AcDbEntity
  8
0
  6
Continuous
 62
     7
100
AcDbCircle
 10
225.1039295570681
 20
-330.4841554109953
 30
0.0
 40
70.5000000000026
100
AcDbArc
 50
128.1130859681925
 51
141.2437790509311
  0
ARC
  5
40F
330
5C
100
AcDbEntity
  8
0
  6
Continuous
 62
     7
100
AcDbCircle
 10
225.1039295570681
 20
-330.4841554109953
 30
0.0
 40
64.4999999999995
100
AcDbArc
 50
128.2000392987784
 51
141.156825720347
  0
ARC
  5
410
330
5C
100
AcDbEntity
  8
0
  6
Continuous
 62
     7
100
AcDbCircle
 10
225.1039295570681
 20
-330.4841554109953
 30
0.0
 40
52.00000000000013
100
AcDbArc
 50
-21.55434597773337
 51
-9.08878900313284
  0
ARC
  5
411
330
5C
100
AcDbEntity
  8
0
  6
Continuous
 62
     7
100
AcDbCircle
 10
225.1039295570681
 20
-330.4841554109953
 30
0.0
 40
64.50000000000064
100
AcDbArc
 50
-36.7999607012223
 51
-23.84317427965117
  0
ARC
  5
412
330
5C
100
AcDbEntity
  8
0
  6
Continuous
 62
     7
100
AcDbCircle
 10
225.1039295570681
 20
-330.4841554109953
 30
0.0
 40
51.99999999999795
100
AcDbArc
 50
-36.55434597773829
 51
-24.08878900313619
  0
ARC
  5
413
330
5C
100
AcDbEntity
  8
0
  6
Continuous
 62
     7
100
AcDbCircle
 10
225.1039295570681
 20
-330.4841554109953
 30
0.0
 40
70.49999999999892
100
AcDbArc
 50
-36.88691403180533
 51
-23.7562209490664
  0
ARC
  5
414
330
5C
100
AcDbEntity
  8
0
  6
Continuous
 62
     7
100
AcDbCircle
 10
225.1039295570681
 20
-330.4841554109953
 30
0.0
 40
64.4999999999978
100
AcDbArc
 50
-21.79996070122019
 51
-8.84317427964996
  0
ARC
  5
415
330
5C
100
AcDbEntity
  8
0
  6
Continuous
 62
     7
100
AcDbCircle
 10
225.1039295570681
 20
-330.4841554109953
 30
0.0
 40
70.50000000000045
100
AcDbArc
 50
-21.8869140318038
 51
-8.75622094906608
  0
ARC
  5
416
330
5C
100
AcDbEntity
  8
0
  6
Continuous
 62
     7
100
AcDbCircle
 10
225.1039295570681
 20
-330.4841554109953
 30
0.0
 40
52.00000000000149
100
AcDbArc
 50
68.44565402226281
 51
80.91121099685907
  0
ARC
  5
417
330
5C
100
AcDbEntity
  8
0
  6
Continuous
 62
     7
100
AcDbCircle
 10
225.1039295570681
 20
-330.4841554109953
 30
0.0
 40
70.49999999999977
100
AcDbArc
 50
158.1130859681896
 51
171.2437790509339
  0
ARC
  5
418
330
5C
100
AcDbEntity
  8
0
  6
Continuous
 62
     7
100
AcDbCircle
 10
225.1039295570681
 20
-330.4841554109953
 30
0.0
 40
70.50000000000107
100
AcDbArc
 50
143.1130859681924
 51
156.2437790509309
  0
ARC
  5
419
330
5C
100
AcDbEntity
  8
0
  6
Continuous
 62
     7
100
AcDbCircle
 10
225.1039295570681
 20
-330.4841554109953
 30
0.0
 40
78.99999999999851
100
AcDbArc
 50
173.0125144556251
 51
-173.6556494364957
  0
ARC
  5
41A
330
5C
100
AcDbEntity
  8
0
  6
Continuous
 62
     7
100
AcDbCircle
 10
225.1039295570681
 20
-330.4841554109953
 30
0.0
 40
74.99999999999856
100
AcDbArc
 50
173.057002224644
 51
-173.7001372055153
  0
ARC
  5
41B
330
5C
100
AcDbEntity
  8
0
  6
Continuous
 62
     7
100
AcDbCircle
 10
225.1039295570681
 20
-330.4841554109953
 30
0.0
 40
78.99999999999925
100
AcDbArc
 50
158.0125144556231
 51
171.344350563506
  0
ARC
  5
41C
330
5C
100
AcDbEntity
  8
0
  6
Continuous
 62
     7
100
AcDbCircle
 10
225.1039295570681
 20
-330.4841554109953
 30
0.0
 40
79.00000000000283
100
AcDbArc
 50
-51.98748554437945
 51
-38.65564943649924
  0
ARC
  5
41D
330
5C
100
AcDbEntity
  8
0
  6
Continuous
 62
     7
100
AcDbCircle
 10
225.1039295570681
 20
-330.4841554109953
 30
0.0
 40
78.99999999999977
100
AcDbArc
 50
-36.98748554437855
 51
-23.65564943649939
  0
ARC
  5
41E
330
5C
100
AcDbEntity
  8
0
  6
Continuous
 62
     7
100
AcDbCircle
 10
225.1039295570681
 20
-330.4841554109953
 30
0.0
 40
78.99999999999936
100
AcDbArc
 50
-21.98748554437692
 51
-8.65564943649925
  0
ARC
  5
41F
330
5C
100
AcDbEntity
  8
0
  6
Continuous
 62
     7
100
AcDbCircle
 10
225.1039295570681
 20
-330.4841554109953
 30
0.0
 40
79.0000000000026
100
AcDbArc
 50
-96.98748554437721
 51
-83.65564943649856
  0
ARC
  5
420
330
5C
100
AcDbEntity
  8
0
  6
Continuous
 62
     7
100
AcDbCircle
 10
225.1039295570681
 20
-330.4841554109953
 30
0.0
 40
75.00000000000219
100
AcDbArc
 50
-81.94299777536084
 51
-68.70013720551705
  0
ARC
  5
421
330
5C
100
AcDbEntity
  8
0
  6
Continuous
 62
     7
100
AcDbCircle
 10
225.1039295570681
 20
-330.4841554109953
 30
0.0
 40
75.00000000000267
100
AcDbArc
 50
-96.94299777535838
 51
-83.70013720551556
  0
ARC
  5
422
330
5C
100
AcDbEntity
  8
0
  6
Continuous
 62
     7
100
AcDbCircle
 10
225.1039295570681
 20
-330.4841554109953
 30
0.0
 40
75.00000000000162
100
AcDbArc
 50
-66.9429977753615
 51
-53.70013720551774
  0
ARC
  5
423
330
5C
100
AcDbEntity
  8
0
  6
Continuous
 62
     7
100
AcDbCircle
 10
225.1039295570681
 20
-330.4841554109953
 30
0.0
 40
79.00000000000213
100
AcDbArc
 50
-81.98748554437812
 51
-68.65564943649835
  0
ARC
  5
424
330
5C
100
AcDbEntity
  8
0
  6
Continuous
 62
     7
100
AcDbCircle
 10
225.1039295570681
 20
-330.4841554109953
 30
0.0
 40
79.00000000000155
100
AcDbArc
 50
-66.98748554437957
 51
-53.65564943650163
  0
ARC
  5
425
330
5C
100
AcDbEntity
  8
0
  6
Continuous
 62
     7
100
AcDbCircle
 10
225.1039295570681
 20
-330.4841554109953
 30
0.0
 40
74.99999999999902
100
AcDbArc
 50
-171.9429977753577
 51
-158.700137205517
  0
ARC
  5
426
330
5C
100
AcDbEntity
  8
0
  6
Continuous
 62
     7
100
AcDbCircle
 10
225.1039295570681
 20
-330.4841554109953
 30
0.0
 40
79.0000000000027
100
AcDbArc
 50
-111.9874855443759
 51
-98.65564943649886
  0
ARC
  5
427
330
5C
100
AcDbEntity
  8
0
  6
Continuous
 62
     7
100
AcDbCircle
 10
225.1039295570681
 20
-330.4841554109953
 30
0.0
 40
75.000000000001
100
AcDbArc
 50
-111.9429977753588
 51
-98.70013720551702
  0
ARC
  5
428
330
5C
100
AcDbEntity
  8
0
  6
Continuous
 62
     7
100
AcDbCircle
 10
225.1039295570681
 20
-330.4841554109953
 30
0.0
 40
75.00000000000162
100
AcDbArc
 50
-156.9429977753616
 51
-143.7001372055139
  0
ARC
  5
429
330
5C
100
AcDbEntity
  8
0
  6
Continuous
 62
     7
100
AcDbCircle
 10
225.1039295570681
 20
-330.4841554109953
 30
0.0
 40
75.000000000001
100
AcDbArc
 50
-141.9429977753574
 51
-128.700137205515
  0
ARC
  5
42A
330
5C
100
AcDbEntity
  8
0
  6
Continuous
 62
     7
100
AcDbCircle
 10
225.1039295570681
 20
-330.4841554109953
 30
0.0
 40
75.0000000000007
100
AcDbArc
 50
-126.9429977753601
 51
-113.7001372055156
  0
ARC
  5
42B
330
5C
100
AcDbEntity
  8
0
  6
Continuous
 62
     7
100
AcDbCircle
 10
225.1039295570681
 20
-330.4841554109953
 30
0.0
 40
78.99999999999957
100
AcDbArc
 50
-156.9874855443761
 51
-143.655649436498
  0
ARC
  5
42C
330
5C
100
AcDbEntity
  8
0
  6
Continuous
 62
     7
100
AcDbCircle
 10
225.1039295570681
 20
-330.4841554109953
 30
0.0
 40
78.999999999999
100
AcDbArc
 50
-171.9874855443751
 51
-158.6556494364983
  0
ARC
  5
42D
330
5C
100
AcDbEntity
  8
0
  6
Continuous
 62
     7
100
AcDbCircle
 10
225.1039295570681
 20
-330.4841554109953
 30
0.0
 40
79.00000000000263
100
AcDbArc
 50
-126.9874855443769
 51
-113.6556494364994
  0
ARC
  5
42E
330
5C
100
AcDbEntity
  8
0
  6
Continuous
 62
     7
100
AcDbCircle
 10
225.1039295570681
 20
-330.4841554109953
 30
0.0
 40
79.00000000000216
100
AcDbArc
 50
-141.9874855443757
 51
-128.6556494364993
  0
ARC
  5
42F
330
5C
100
AcDbEntity
  8
0
  6
Continuous
 62
     7
100
AcDbCircle
 10
225.1039295570681
 20
-330.4841554109953
 30
0.0
 40
75.00000000000276
100
AcDbArc
 50
-46.87378957661883
 51
-38.7001372055168
  0
ARC
  5
430
330
5C
100
AcDbEntity
  8
0
  6
Continuous
 62
     7
100
AcDbCircle
 10
225.1039295570681
 20
-330.4841554109989
 30
0.0
 40
75.00000000000078
100
AcDbArc
 50
-28.76943394102251
 51
-23.70013720551419
  0
ARC
  5
431
330
5C
100
AcDbEntity
  8
0
  6
Continuous
 62
     7
100
AcDbCircle
 10
225.1039295570681
 20
-330.4841554109953
 30
0.0
 40
75.0000000000029
100
AcDbArc
 50
-36.94299777536231
 51
-28.76943394102491
  0
ARC
  5
432
330
5C
100
AcDbEntity
  8
0
  6
Continuous
 62
     7
100
AcDbCircle
 10
225.1039295570681
 20
-330.4841554109989
 30
0.0
 40
74.99999999999878
100
AcDbArc
 50
-51.94299777535955
 51
-46.87378957661696
  0
ARC
  5
433
330
5C
100
AcDbEntity
  8
0
  6
Continuous
 62
     7
100
AcDbCircle
 10
225.1039295570681
 20
-330.4841554109953
 30
0.0
 40
74.99999999999956
100
AcDbArc
 50
83.05700222463852
 51
96.2998627944847
  0
ARC
  5
434
330
5C
100
AcDbEntity
  8
0
  6
Continuous
 62
     7
100
AcDbCircle
 10
225.1039295570681
 20
-330.4841554109953
 30
0.0
 40
74.9999999999978
100
AcDbArc
 50
53.05700222463818
 51
66.29986279448325
  0
ARC
  5
435
330
5C
100
AcDbEntity
  8
0
  6
Continuous
 62
     7
100
AcDbCircle
 10
225.1039295570681
 20
-330.4841554109953
 30
0.0
 40
78.99999999999967
100
AcDbArc
 50
53.0125144556214
 51
66.3443505634996
  0
ARC
  5
436
330
5C
100
AcDbEntity
  8
0
  6
Continuous
 62
     7
100
AcDbCircle
 10
225.1039295570681
 20
-330.4841554109953
 30
0.0
 40
74.99999999999893
100
AcDbArc
 50
68.05700222463757
 51
81.29986279448252
  0
ARC
  5
437
330
5C
100
AcDbEntity
  8
0
  6
Continuous
 62
     7
100
AcDbCircle
 10
225.1039295570681
 20
-330.4841554109953
 30
0.0
 40
78.99999999999939
100
AcDbArc
 50
68.0125144556231
 51
81.34435056349811
  0
ARC
  5
438
330
5C
100
AcDbEntity
  8
0
  6
Continuous
 62
     7
100
AcDbCircle
 10
225.1039295570681
 20
-330.4841554109953
 30
0.0
 40
78.99999999999905
100
AcDbArc
 50
-6.98748554437755
 51
6.34435056349907
  0
ARC
  5
439
330
5C
100
AcDbEntity
  8
0
  6
Continuous
 62
     7
100
AcDbCircle
 10
225.1039295570681
 20
-330.4841554109953
 30
0.0
 40
79.00000000000162
100
AcDbArc
 50
8.01251445561923
 51
21.34435056349919
  0
ARC
  5
43A
330
5C
100
AcDbEntity
  8
0
  6
Continuous
 62
     7
100
AcDbCircle
 10
225.1039295570681
 20
-330.4841554109953
 30
0.0
 40
75.00000000000162
100
AcDbArc
 50
8.0570022246364
 51
21.29986279448293
  0
ARC
  5
43B
330
5C
100
AcDbEntity
  8
0
  6
Continuous
 62
     7
100
AcDbCircle
 10
225.1039295570681
 20
-330.4841554109953
 30
0.0
 40
79.00000000000152
100
AcDbArc
 50
23.01251445562038
 51
36.34435056349987
  0
ARC
  5
43C
330
5C
100
AcDbEntity
  8
0
  6
Continuous
 62
     7
100
AcDbCircle
 10
225.1039295570681
 20
-330.4841554109953
 30
0.0
 40
74.9999999999995
100
AcDbArc
 50
-6.94299777536149
 51
6.29986279448193
  0
ARC
  5
43D
330
5C
100
AcDbEntity
  8
0
  6
Continuous
 62
     7
100
AcDbCircle
 10
225.1039295570681
 20
-330.4841554109953
 30
0.0
 40
78.99999999999893
100
AcDbArc
 50
83.01251445562244
 51
96.34435056350168
  0
ARC
  5
43E
330
5C
100
AcDbEntity
  8
0
  6
Continuous
 62
     7
100
AcDbCircle
 10
225.1039295570681
 20
-330.4841554109953
 30
0.0
 40
78.9999999999993
100
AcDbArc
 50
128.0125144556259
 51
141.3443505635028
  0
ARC
  5
43F
330
5C
100
AcDbEntity
  8
0
  6
Continuous
 62
     7
100
AcDbCircle
 10
225.1039295570681
 20
-330.4841554109953
 30
0.0
 40
78.99999999999618
100
AcDbArc
 50
113.0125144556249
 51
126.3443505634999
  0
ARC
  5
440
330
5C
100
AcDbEntity
  8
0
  6
Continuous
 62
     7
100
AcDbCircle
 10
225.1039295570681
 20
-330.4841554109953
 30
0.0
 40
78.9999999999985
100
AcDbArc
 50
98.01251445562221
 51
111.3443505635026
  0
ARC
  5
441
330
5C
100
AcDbEntity
  8
0
  6
Continuous
 62
     7
100
AcDbCircle
 10
225.1039295570681
 20
-330.4841554109953
 30
0.0
 40
74.99999999999972
100
AcDbArc
 50
113.057002224642
 51
126.2998627944838
  0
ARC
  5
442
330
5C
100
AcDbEntity
  8
0
  6
Continuous
 62
     7
100
AcDbCircle
 10
225.1039295570681
 20
-330.4841554109953
 30
0.0
 40
74.99999999999847
100
AcDbArc
 50
98.0570022246395
 51
111.2998627944839
  0
ARC
  5
443
330
5C
100
AcDbEntity
  8
0
  6
Continuous
 62
     7
100
AcDbCircle
 10
225.1039295570681
 20
-330.4841554109989
 30
0.0
 40
75.00000000000101
100
AcDbArc
 50
128.0570022246426
 51
133.1262104233812
  0
ARC
  5
444
330
5C
100
AcDbEntity
  8
0
  6
Continuous
 62
     7
100
AcDbCircle
 10
225.1039295570681
 20
-330.4841554109953
 30
0.0
 40
75.00000000000004
100
AcDbArc
 50
133.126210423383
 51
141.2998627944854
  0
ARC
  5
445
330
5C
100
AcDbEntity
  8
0
  6
Continuous
 62
     7
100
AcDbCircle
 10
225.1039295570681
 20
-330.4841554109953
 30
0.0
 40
75.00000000000236
100
AcDbArc
 50
-21.94299777536138
 51
-8.70013720551745
  0
ARC
  5
446
330
5C
100
AcDbEntity
  8
0
  6
Continuous
 62
     7
100
AcDbCircle
 10
225.1039295570681
 20
-330.4841554109953
 30
0.0
 40
75.00000000000027
100
AcDbArc
 50
23.05700222463585
 51
36.29986279448381
  0
ARC
  5
447
330
5C
100
AcDbEntity
  8
0
  6
Continuous
 62
     7
100
AcDbCircle
 10
225.1039295570681
 20
-330.4841554109953
 30
0.0
 40
74.99999999999942
100
AcDbArc
 50
38.05700222463649
 51
51.2998627944832
  0
ARC
  5
448
330
5C
100
AcDbEntity
  8
0
  6
Continuous
 62
     7
100
AcDbCircle
 10
225.1039295570681
 20
-330.4841554109953
 30
0.0
 40
78.99999999999997
100
AcDbArc
 50
38.01251445562218
 51
51.34435056349909
  0
ARC
  5
449
330
5C
100
AcDbEntity
  8
0
  6
Continuous
 62
     7
100
AcDbCircle
 10
225.1039295570681
 20
-330.4841554109953
 30
0.0
 40
78.99999999999754
100
AcDbArc
 50
143.0125144556235
 51
156.344350563503
  0
ARC
  5
44A
330
5C
100
AcDbEntity
  8
0
  6
Continuous
 62
     7
100
AcDbCircle
 10
225.1039295570681
 20
-330.4841554109953
 30
0.0
 40
75.0000000000009
100
AcDbArc
 50
158.0570022246412
 51
171.2998627944881
  0
ARC
  5
44B
330
5C
100
AcDbEntity
  8
0
  6
Continuous
 62
     7
100
AcDbCircle
 10
225.1039295570681
 20
-330.4841554109953
 30
0.0
 40
74.99999999999847
100
AcDbArc
 50
143.0570022246421
 51
156.2998627944833
  0
ARC
  5
44C
330
5C
100
AcDbEntity
  8
0
  6
Continuous
 62
     7
100
AcDbCircle
 10
225.1039295570718
 20
-330.4841554109989
 30
0.0
 40
73.90000000000056
100
AcDbArc
 50
-111.9299192349174
 51
-98.7132157459608
  0
ARC
  5
44D
330
5C
100
AcDbEntity
  8
0
  6
Continuous
 62
     7
100
AcDbCircle
 10
225.1039295570718
 20
-330.4841554109989
 30
0.0
 40
73.9
100
AcDbArc
 50
-156.9299192349179
 51
-143.7132157459608
  0
ARC
  5
44E
330
5C
100
AcDbEntity
  8
0
  6
Continuous
 62
     7
100
AcDbCircle
 10
225.1039295570718
 20
-330.4841554109989
 30
0.0
 40
73.8999999999991
100
AcDbArc
 50
-171.9299192349185
 51
-158.71321574596
  0
ARC
  5
44F
330
5C
100
AcDbEntity
  8
0
  6
Continuous
 62
     7
100
AcDbCircle
 10
225.1039295570718
 20
-330.4841554109989
 30
0.0
 40
73.89999999999831
100
AcDbArc
 50
-6.92991923491559
 51
6.28678425404022
  0
ARC
  5
450
330
5C
100
AcDbEntity
  8
0
  6
Continuous
 62
     7
100
AcDbCircle
 10
225.1039295570718
 20
-330.4841554109989
 30
0.0
 40
73.89999999999843
100
AcDbArc
 50
-96.92991923491556
 51
-83.71321574596254
  0
ARC
  5
451
330
5C
100
AcDbEntity
  8
0
  6
Continuous
 62
     7
100
AcDbCircle
 10
225.1039295570718
 20
-330.4841554109989
 30
0.0
 40
70.50000000000078
100
AcDbArc
 50
-171.8869140318105
 51
-158.7562209490696
  0
ARC
  5
452
330
5C
100
AcDbEntity
  8
0
  6
Continuous
 62
     7
100
AcDbCircle
 10
225.1039295570718
 20
-330.4841554109989
 30
0.0
 40
58.1314831978066
100
AcDbArc
 50
128.3119739458322
 51
141.0448910732935
  0
ARC
  5
453
330
5C
100
AcDbEntity
  8
0
  6
Continuous
 62
     7
100
AcDbCircle
 10
225.1039295570718
 20
-330.4841554109989
 30
0.0
 40
56.20000000000162
100
AcDbArc
 50
38.35093687884092
 51
51.00592814028614
  0
ARC
  5
454
330
5C
100
AcDbEntity
  8
0
  6
Continuous
 62
     7
100
AcDbCircle
 10
225.1039295570718
 20
-330.4841554109989
 30
0.0
 40
56.20000000000096
100
AcDbArc
 50
-126.6490631211619
 51
-113.9940718597178
  0
ARC
  5
455
330
5C
100
AcDbEntity
  8
0
  6
Continuous
 62
     7
100
AcDbCircle
 10
225.1039295570718
 20
-330.4841554109989
 30
0.0
 40
56.19999999999942
100
AcDbArc
 50
-141.649063121162
 51
-128.994071859719
  0
ARC
  5
456
330
5C
100
AcDbEntity
  8
0
  6
Continuous
 62
     7
100
AcDbCircle
 10
225.1039295570718
 20
-330.4841554109989
 30
0.0
 40
58.13148319780665
100
AcDbArc
 50
38.31197394583219
 51
51.04489107329351
  0
ARC
  5
457
330
5C
100
AcDbEntity
  8
0
  6
Continuous
 62
     7
100
AcDbCircle
 10
225.1039295570718
 20
-330.4841554109989
 30
0.0
 40
56.20000000000164
100
AcDbArc
 50
128.3509368788409
 51
141.0059281402834
  0
ARC
  5
458
330
5C
100
AcDbEntity
  8
0
  6
Continuous
 62
     7
100
AcDbCircle
 10
225.1039295570718
 20
-330.4841554109989
 30
0.0
 40
58.13148319780555
100
AcDbArc
 50
113.3119739458311
 51
126.0448910732939
  0
ARC
  5
459
330
5C
100
AcDbEntity
  8
0
  6
Continuous
 62
     7
100
AcDbCircle
 10
225.1039295570718
 20
-330.4841554109989
 30
0.0
 40
56.20000000000034
100
AcDbArc
 50
113.3509368788404
 51
126.0059281402839
  0
ARC
  5
45A
330
5C
100
AcDbEntity
  8
0
  6
Continuous
 62
     7
100
AcDbCircle
 10
225.1039295570718
 20
-330.4841554109989
 30
0.0
 40
56.20000000000049
100
AcDbArc
 50
-156.6490631211595
 51
-143.9940718597161
  0
ARC
  5
45B
330
5C
100
AcDbEntity
  8
0
  6
Continuous
 62
     7
100
AcDbCircle
 10
225.1039295570718
 20
-330.4841554109989
 30
0.0
 40
58.13148319780436
100
AcDbArc
 50
-126.6880260541702
 51
-113.9551089267096
  0
ARC
  5
45C
330
5C
100
AcDbEntity
  8
0
  6
Continuous
 62
     7
100
AcDbCircle
 10
225.1039295570718
 20
-330.4841554109989
 30
0.0
 40
58.13148319780443
100
AcDbArc
 50
-141.6880260541706
 51
-128.9551089267087
  0
ARC
  5
45D
330
5C
100
AcDbEntity
  8
0
  6
Continuous
 62
     7
100
AcDbCircle
 10
225.1039295570718
 20
-330.4841554109989
 30
0.0
 40
58.13148319780503
100
AcDbArc
 50
-111.6880260541695
 51
-98.95510892670886
  0
ARC
  5
45E
330
5C
100
AcDbEntity
  8
0
  6
Continuous
 62
     7
100
AcDbCircle
 10
225.1039295570718
 20
-330.4841554109989
 30
0.0
 40
56.19999999999784
100
AcDbArc
 50
-111.6490631211603
 51
-98.994071859717
  0
ARC
  5
45F
330
5C
100
AcDbEntity
  8
0
  6
Continuous
 62
     7
100
AcDbCircle
 10
225.1039295570718
 20
-330.4841554109989
 30
0.0
 40
58.13148319780417
100
AcDbArc
 50
-156.6880260541722
 51
-143.9551089267089
  0
ARC
  5
460
330
5C
100
AcDbEntity
  8
0
  6
Continuous
 62
     7
100
AcDbCircle
 10
225.1039295570718
 20
-330.4841554109989
 30
0.0
 40
56.20000000000088
100
AcDbArc
 50
143.3509368788382
 51
156.0059281402838
  0
ARC
  5
461
330
5C
100
AcDbEntity
  8
0
  6
Continuous
 62
     7
100
AcDbCircle
 10
225.1039295570718
 20
-330.4841554109989
 30
0.0
 40
58.13148319780498
100
AcDbArc
 50
158.3119739458306
 51
171.0448910732918
  0
ARC
  5
462
330
5C
100
AcDbEntity
  8
0
  6
Continuous
 62
     7
100
AcDbCircle
 10
225.1039295570718
 20
-330.4841554109989
 30
0.0
 40
56.20000000000248
100
AcDbArc
 50
158.3509368788377
 51
171.0059281402836
  0
ARC
  5
463
330
5C
100
AcDbEntity
  8
0
  6
Continuous
 62
     7
100
AcDbCircle
 10
225.1039295570718
 20
-330.4841554109989
 30
0.0
 40
73.90000000000197
100
AcDbArc
 50
173.0700807650849
 51
-173.7132157459625
  0
ARC
  5
464
330
5C
100
AcDbEntity
  8
0
  6
Continuous
 62
     7
100
AcDbCircle
 10
225.1039295570718
 20
-330.4841554109989
 30
0.0
 40
58.13148319780425
100
AcDbArc
 50
143.3119739458298
 51
156.044891073292
  0
ARC
  5
465
330
5C
100
AcDbEntity
  8
0
  6
Continuous
 62
     7
100
AcDbCircle
 10
232.9490930818738
 20
-335.0550863084281
 30
0.0
 40
1.000000000003681
100
AcDbArc
 50
52.17843250954851
 51
142.17843250942
  0
ARC
  5
466
330
5C
100
AcDbEntity
  8
0
  6
Continuous
 62
     7
100
AcDbCircle
 10
225.1039297275147
 20
-330.4841547888755
 30
0.0
 40
40.99999976996593
100
AcDbArc
 50
-36.21428077380514
 51
5.57114412664746
  0
ARC
  5
467
330
5C
100
AcDbEntity
  8
0
  6
Continuous
 62
     7
100
AcDbCircle
 10
225.1039295570718
 20
-330.4841554109989
 30
0.0
 40
58.13148319780361
100
AcDbArc
 50
8.31197394583039
 51
21.04489107329397
  0
ARC
  5
468
330
5C
100
AcDbEntity
  8
0
  6
Continuous
 62
     7
100
AcDbCircle
 10
225.1039295570718
 20
-330.4841554109989
 30
0.0
 40
56.19999999999756
100
AcDbArc
 50
8.35093687884098
 51
21.0059281402846
  0
ARC
  5
469
330
5C
100
AcDbEntity
  8
0
  6
Continuous
 62
     7
100
AcDbCircle
 10
225.1039295570718
 20
-330.4841554109989
 30
0.0
 40
43.49999999999922
100
AcDbArc
 50
-21.30667498477012
 51
-9.33645999610355
  0
ARC
  5
46A
330
5C
100
AcDbEntity
  8
0
  6
Continuous
 62
     7
100
AcDbCircle
 10
225.1039295570718
 20
-330.4841554109989
 30
0.0
 40
43.50000000000007
100
AcDbArc
 50
-6.30667498477441
 51
5.66354000390123
  0
ARC
  5
46B
330
5C
100
AcDbEntity
  8
0
  6
Continuous
 62
     7
100
AcDbCircle
 10
225.1039295570718
 20
-330.4841554109989
 30
0.0
 40
43.49999999999749
100
AcDbArc
 50
8.69332501522849
 51
20.66354000390079
  0
ARC
  5
46C
330
5C
100
AcDbEntity
  8
0
  6
Continuous
 62
     7
100
AcDbCircle
 10
225.1039295570718
 20
-330.4841554109989
 30
0.0
 40
43.49999999999889
100
AcDbArc
 50
23.69332501523093
 51
35.66354000390086
  0
ARC
  5
46D
330
5C
100
AcDbEntity
  8
0
  6
Continuous
 62
     7
100
AcDbCircle
 10
225.1039295570718
 20
-330.4841554109989
 30
0.0
 40
43.49999999999923
100
AcDbArc
 50
38.69332501522727
 51
50.66354000390245
  0
ARC
  5
46E
330
5C
100
AcDbEntity
  8
0
  6
Continuous
 62
     7
100
AcDbCircle
 10
225.1039295570718
 20
-330.4841554109989
 30
0.0
 40
41.00000000000006
100
AcDbArc
 50
8.78572005031829
 51
50.5711449688104
  0
ARC
  5
46F
330
5C
100
AcDbEntity
  8
0
  6
Continuous
 62
     7
100
AcDbCircle
 10
225.1039295570718
 20
-330.4841554109989
 30
0.0
 40
43.5
100
AcDbArc
 50
83.69332501522574
 51
95.66354000389622
  0
ARC
  5
470
330
5C
100
AcDbEntity
  8
0
  6
Continuous
 62
     7
100
AcDbCircle
 10
225.1039295570718
 20
-330.4841554109989
 30
0.0
 40
43.50000000000046
100
AcDbArc
 50
68.69332501522547
 51
80.66354000389653
  0
ARC
  5
471
330
5C
100
AcDbEntity
  8
0
  6
Continuous
 62
     7
100
AcDbCircle
 10
217.2587660322661
 20
-325.9132245135697
 30
0.0
 40
0.9999999999986566
100
AcDbArc
 50
-127.8215674904152
 51
-37.82156749041751
  0
ARC
  5
472
330
5C
100
AcDbEntity
  8
0
  6
Continuous
 62
     7
100
AcDbCircle
 10
218.7304566962139
 20
-324.0174063288141
 30
0.0
 40
0.9999999999986168
100
AcDbArc
 50
-37.82156749041494
 51
52.17843250958478
  0
ARC
  5
473
330
5C
100
AcDbEntity
  8
0
  6
Continuous
 62
     7
100
AcDbCircle
 10
198.3005841847171
 20
-311.1963178740843
 30
0.0
 40
0.9999999999985695
100
AcDbArc
 50
142.1784325095912
 51
-127.8215674904152
  0
ARC
  5
474
330
5C
100
AcDbEntity
  8
0
  6
Continuous
 62
     7
100
AcDbCircle
 10
225.1039295570718
 20
-330.4841554109989
 30
0.0
 40
43.50000000000006
100
AcDbArc
 50
173.6933250152258
 51
-174.3364599961038
  0
ARC
  5
475
330
5C
100
AcDbEntity
  8
0
  6
Continuous
 62
     7
100
AcDbCircle
 10
225.1039295570718
 20
-330.4841554109989
 30
0.0
 40
43.50000000000061
100
AcDbArc
 50
-171.3066749847768
 51
-159.3364599961037
  0
ARC
  5
476
330
5C
100
AcDbEntity
  8
0
  6
Continuous
 62
     7
100
AcDbCircle
 10
225.1039295570718
 20
-330.4841554109989
 30
0.0
 40
43.50000000000115
100
AcDbArc
 50
98.69332501522783
 51
110.6635400039008
  0
ARC
  5
477
330
5C
100
AcDbEntity
  8
0
  6
Continuous
 62
     7
100
AcDbCircle
 10
225.1039295570718
 20
-330.4841554109989
 30
0.0
 40
43.50000000000084
100
AcDbArc
 50
113.6933250152247
 51
125.6635400038982
  0
ARC
  5
478
330
5C
100
AcDbEntity
  8
0
  6
Continuous
 62
     7
100
AcDbCircle
 10
199.7722748486649
 20
-309.3004996893287
 30
0.0
 40
1.00000000000078
100
AcDbArc
 50
52.17843250941742
 51
142.1784325095785
  0
ARC
  5
479
330
5C
100
AcDbEntity
  8
0
  6
Continuous
 62
     7
100
AcDbCircle
 10
225.1039295570718
 20
-330.4841554109989
 30
0.0
 40
41.00000000000024
100
AcDbArc
 50
98.78572006835925
 51
140.5711449507683
  0
ARC
  5
47A
330
5C
100
AcDbEntity
  8
0
  6
Continuous
 62
     7
100
AcDbCircle
 10
225.1039295570718
 20
-330.4841554109989
 30
0.0
 40
58.13148319780608
100
AcDbArc
 50
173.3119739458293
 51
-173.9551089267091
  0
ARC
  5
47B
330
5C
100
AcDbEntity
  8
0
  6
Continuous
 62
     7
100
AcDbCircle
 10
225.1039295570718
 20
-330.4841554109989
 30
0.0
 40
56.2000000000026
100
AcDbArc
 50
173.3509368788397
 51
-173.9940718597176
  0
ARC
  5
47C
330
5C
100
AcDbEntity
  8
0
  6
Continuous
 62
     7
100
AcDbCircle
 10
225.1039295570718
 20
-330.4841554109989
 30
0.0
 40
58.13148319780717
100
AcDbArc
 50
98.31197394582999
 51
111.0448910732928
  0
ARC
  5
47D
330
5C
100
AcDbEntity
  8
0
  6
Continuous
 62
     7
100
AcDbCircle
 10
225.1039295570718
 20
-330.4841554109989
 30
0.0
 40
56.20000000000124
100
AcDbArc
 50
98.35093687884057
 51
111.0059281402834
  0
ARC
  5
47E
330
5C
100
AcDbEntity
  8
0
  6
Continuous
 62
     7
100
AcDbCircle
 10
225.1039295570718
 20
-330.4841554109989
 30
0.0
 40
43.50000000000209
100
AcDbArc
 50
128.6933250152244
 51
140.6635400038959
  0
ARC
  5
47F
330
5C
100
AcDbEntity
  8
0
  6
Continuous
 62
     7
100
AcDbCircle
 10
225.1039295570718
 20
-330.4841554109989
 30
0.0
 40
43.50000000000115
100
AcDbArc
 50
143.6933250152262
 51
155.663540003895
  0
ARC
  5
480
330
5C
100
AcDbEntity
  8
0
  6
Continuous
 62
     7
100
AcDbCircle
 10
225.1039295570718
 20
-330.4841554109989
 30
0.0
 40
43.50000000000052
100
AcDbArc
 50
158.6933250152255
 51
170.6635400038967
  0
ARC
  5
481
330
5C
100
AcDbEntity
  8
0
  6
Continuous
 62
     7
100
AcDbCircle
 10
225.1039295570718
 20
-330.4841554109989
 30
0.0
 40
41.00000000000114
100
AcDbArc
 50
143.7857200683535
 51
-174.4288550311912
  0
ARC
  5
482
330
5C
100
AcDbEntity
  8
0
  6
Continuous
 62
     7
100
AcDbCircle
 10
225.1039295570718
 20
-330.4841554109989
 30
0.0
 40
41.00000000000037
100
AcDbArc
 50
53.7857200503185
 51
95.57114495077178
  0
ARC
  5
483
330
5C
100
AcDbEntity
  8
0
  6
Continuous
 62
     7
100
AcDbCircle
 10
225.1039295570718
 20
-330.4841554109989
 30
0.0
 40
43.50000000000089
100
AcDbArc
 50
-156.3066749847754
 51
-144.3364599961057
  0
ARC
  5
484
330
5C
100
AcDbEntity
  8
0
  6
Continuous
 62
     7
100
AcDbCircle
 10
225.1039295570718
 20
-330.4841554109989
 30
0.0
 40
40.99999999999966
100
AcDbArc
 50
-171.2142799496867
 51
-129.4288550311935
  0
ARC
  5
485
330
5C
100
AcDbEntity
  8
0
  6
Continuous
 62
     7
100
AcDbCircle
 10
225.1039295570718
 20
-330.4841554109989
 30
0.0
 40
45.10463792494866
100
AcDbArc
 50
173.6394194571583
 51
-174.2825544380378
  0
ARC
  5
486
330
5C
100
AcDbEntity
  8
0
  6
Continuous
 62
     7
100
AcDbCircle
 10
225.1039295570718
 20
-330.4841554109989
 30
0.0
 40
43.50000000000218
100
AcDbArc
 50
-141.3066749847757
 51
-129.3364599961041
  0
ARC
  5
487
330
5C
100
AcDbEntity
  8
0
  6
Continuous
 62
     7
100
AcDbCircle
 10
225.1039295570718
 20
-330.4841554109989
 30
0.0
 40
43.49999999999832
100
AcDbArc
 50
-126.3066749847767
 51
-114.3364599961027
  0
ARC
  5
488
330
5C
100
AcDbEntity
  8
0
  6
Continuous
 62
     7
100
AcDbCircle
 10
251.9072749294228
 20
-349.7719929479099
 30
0.0
 40
1.000000000003676
100
AcDbArc
 50
-37.82156749045377
 51
52.1784325094227
  0
ARC
  5
489
330
5C
100
AcDbEntity
  8
0
  6
Continuous
 62
     7
100
AcDbCircle
 10
225.1039295570718
 20
-330.4841554109989
 30
0.0
 40
43.499999999999
100
AcDbArc
 50
-36.30667498477015
 51
-24.33645999610279
  0
ARC
  5
48A
330
5C
100
AcDbEntity
  8
0
  6
Continuous
 62
     7
100
AcDbCircle
 10
225.1039311257901
 20
-330.4841538597866
 30
0.0
 40
43.49999976996583
100
AcDbArc
 50
-51.30667785873823
 51
-39.33646288609103
  0
ARC
  5
48B
330
5C
100
AcDbEntity
  8
0
  6
Continuous
 62
     7
100
AcDbCircle
 10
225.1039295570718
 20
-330.4841554109989
 30
0.0
 40
58.13148319780208
100
AcDbArc
 50
-6.68802605416767
 51
6.04489107329437
  0
ARC
  5
48C
330
5C
100
AcDbEntity
  8
0
  6
Continuous
 62
     7
100
AcDbCircle
 10
225.1039295570718
 20
-330.4841554109989
 30
0.0
 40
56.19999999999889
100
AcDbArc
 50
-6.64906312116075
 51
6.00592814028629
  0
ARC
  5
48D
330
5C
100
AcDbEntity
  8
0
  6
Continuous
 62
     7
100
AcDbCircle
 10
225.1039295570718
 20
-330.4841554109989
 30
0.0
 40
43.49999999999761
100
AcDbArc
 50
-66.30667498477348
 51
-54.336459996103
  0
ARC
  5
48E
330
5C
100
AcDbEntity
  8
0
  6
Continuous
 62
     7
100
AcDbCircle
 10
250.435584265475
 20
-351.6678111326655
 30
0.0
 40
0.9999999999986118
100
AcDbArc
 50
-127.8215674904172
 51
-37.82156749041494
  0
ARC
  5
48F
330
5C
100
AcDbEntity
  8
0
  6
Continuous
 62
     7
100
AcDbCircle
 10
225.1039289966411
 20
-330.4841557303807
 30
0.0
 40
40.99999976996527
100
AcDbArc
 50
-81.2142791075268
 51
-39.42885420707082
  0
ARC
  5
490
330
5C
100
AcDbEntity
  8
0
  6
Continuous
 62
     7
100
AcDbCircle
 10
231.477402417926
 20
-336.9509044931801
 30
0.0
 40
0.9999999999984572
100
AcDbArc
 50
142.1784325095862
 51
-127.8215674902881
  0
ARC
  5
491
330
5C
100
AcDbEntity
  8
0
  6
Continuous
 62
     7
100
AcDbCircle
 10
225.1039295570718
 20
-330.4841554109989
 30
0.0
 40
58.13148319780372
100
AcDbArc
 50
-81.68802605416963
 51
-68.95510892670595
  0
ARC
  5
492
330
5C
100
AcDbEntity
  8
0
  6
Continuous
 62
     7
100
AcDbCircle
 10
225.1039295570718
 20
-330.4841554109989
 30
0.0
 40
56.19999999999775
100
AcDbArc
 50
-81.64906312115893
 51
-68.99407185971535
  0
ARC
  5
493
330
5C
100
AcDbEntity
  8
0
  6
Continuous
 62
     7
100
AcDbCircle
 10
225.1039295570718
 20
-330.4841554109989
 30
0.0
 40
43.50000000000018
100
AcDbArc
 50
-96.30667498477439
 51
-84.33645999610349
  0
ARC
  5
494
330
5C
100
AcDbEntity
  8
0
  6
Continuous
 62
     7
100
AcDbCircle
 10
225.1039295570718
 20
-330.4841554109989
 30
0.0
 40
43.49999999999707
100
AcDbArc
 50
-81.30667498477617
 51
-69.33645999610374
  0
ARC
  5
495
330
5C
100
AcDbEntity
  8
0
  6
Continuous
 62
     7
100
AcDbCircle
 10
225.1039295570718
 20
-330.4841554109989
 30
0.0
 40
58.1314831978025
100
AcDbArc
 50
-96.68802605417117
 51
-83.95510892670562
  0
ARC
  5
496
330
5C
100
AcDbEntity
  8
0
  6
Continuous
 62
     7
100
AcDbCircle
 10
225.1039295570718
 20
-330.4841554109989
 30
0.0
 40
56.19999999999901
100
AcDbArc
 50
-96.64906312116074
 51
-83.99407185971737
  0
ARC
  5
497
330
5C
100
AcDbEntity
  8
0
  6
Continuous
 62
     7
100
AcDbCircle
 10
225.1039295570718
 20
-330.4841554109989
 30
0.0
 40
43.50000000000066
100
AcDbArc
 50
-111.3066749847746
 51
-99.33645999610347
  0
ARC
  5
498
330
5C
100
AcDbEntity
  8
0
  6
Continuous
 62
     7
100
AcDbCircle
 10
225.1039295570718
 20
-330.4841554109989
 30
0.0
 40
40.99999999999966
100
AcDbArc
 50
-126.2142799496886
 51
-84.42885503119142
  0
ARC
  5
499
330
5C
100
AcDbEntity
  8
0
  6
Continuous
 62
     7
100
AcDbCircle
 10
225.1039295570718
 20
-330.4841554109989
 30
0.0
 40
56.20000000000077
100
AcDbArc
 50
-171.6490631211631
 51
-158.9940718597166
  0
ARC
  5
49A
330
5C
100
AcDbEntity
  8
0
  6
Continuous
 62
     7
100
AcDbCircle
 10
225.1039295570718
 20
-330.4841554109989
 30
0.0
 40
58.13148319780731
100
AcDbArc
 50
-171.6880260541701
 51
-158.9551089267059
  0
ARC
  5
49B
330
5C
100
AcDbEntity
  8
0
  6
Continuous
 62
     7
100
AcDbCircle
 10
225.1039295570718
 20
-330.4841554109989
 30
0.0
 40
58.13148319780155
100
AcDbArc
 50
-51.68802605416848
 51
-38.95510892670376
  0
ARC
  5
49C
330
5C
100
AcDbEntity
  8
0
  6
Continuous
 62
     7
100
AcDbCircle
 10
225.1039295570718
 20
-330.4841554109989
 30
0.0
 40
58.13148319780214
100
AcDbArc
 50
-36.68802605416746
 51
-23.95510892670632
  0
ARC
  5
49D
330
5C
100
AcDbEntity
  8
0
  6
Continuous
 62
     7
100
AcDbCircle
 10
225.1039295570718
 20
-330.4841554109989
 30
0.0
 40
58.13148319780232
100
AcDbArc
 50
-66.68802605416758
 51
-53.95510892670617
  0
ARC
  5
49E
330
5C
100
AcDbEntity
  8
0
  6
Continuous
 62
     7
100
AcDbCircle
 10
225.1039295570718
 20
-330.4841554109989
 30
0.0
 40
56.20000000000043
100
AcDbArc
 50
-66.6490631211597
 51
-53.99407185971407
  0
ARC
  5
49F
330
5C
100
AcDbEntity
  8
0
  6
Continuous
 62
     7
100
AcDbCircle
 10
225.1039295570718
 20
-330.4841554109989
 30
0.0
 40
56.19999999999875
100
AcDbArc
 50
-36.64906312115905
 51
-23.99407185971448
  0
ARC
  5
4A0
330
5C
100
AcDbEntity
  8
0
  6
Continuous
 62
     7
100
AcDbCircle
 10
225.1039295570718
 20
-330.4841554109989
 30
0.0
 40
56.19999999999663
100
AcDbArc
 50
-51.64906312115971
 51
-38.9940718597163
  0
ARC
  5
4A1
330
5C
100
AcDbEntity
  8
0
  6
Continuous
 62
     7
100
AcDbCircle
 10
225.1039295570718
 20
-330.4841554109989
 30
0.0
 40
58.13148319780493
100
AcDbArc
 50
-21.68802605416955
 51
-8.95510892670528
  0
ARC
  5
4A2
330
5C
100
AcDbEntity
  8
0
  6
Continuous
 62
     7
100
AcDbCircle
 10
225.1039295570718
 20
-330.4841554109989
 30
0.0
 40
56.19999999999769
100
AcDbArc
 50
-21.64906312116037
 51
-8.99407185971338
  0
ARC
  5
4A3
330
5C
100
AcDbEntity
  8
0
  6
Continuous
 62
     7
100
AcDbCircle
 10
225.1039295570718
 20
-330.4841554109989
 30
0.0
 40
58.13148319780555
100
AcDbArc
 50
23.31197394583105
 51
36.04489107329383
  0
ARC
  5
4A4
330
5C
100
AcDbEntity
  8
0
  6
Continuous
 62
     7
100
AcDbCircle
 10
225.1039295570718
 20
-330.4841554109989
 30
0.0
 40
56.20000000000032
100
AcDbArc
 50
23.35093687884033
 51
36.00592814028382
  0
ARC
  5
4A5
330
5C
100
AcDbEntity
  8
0
  6
Continuous
 62
     7
100
AcDbCircle
 10
225.1039295570718
 20
-330.4841554109989
 30
0.0
 40
43.50000000000105
100
AcDbArc
 50
53.69332501522603
 51
65.66354000389919
  0
ARC
  5
4A6
330
5C
100
AcDbEntity
  8
0
  6
Continuous
 62
     7
100
AcDbCircle
 10
225.1039295570718
 20
-330.4841554109989
 30
0.0
 40
58.13148319780492
100
AcDbArc
 50
68.31197394583047
 51
81.04489107329529
  0
ARC
  5
4A7
330
5C
100
AcDbEntity
  8
0
  6
Continuous
 62
     7
100
AcDbCircle
 10
225.1039295570718
 20
-330.4841554109989
 30
0.0
 40
56.20000000000111
100
AcDbArc
 50
68.35093687884107
 51
81.00592814028356
  0
ARC
  5
4A8
330
5C
100
AcDbEntity
  8
0
  6
Continuous
 62
     7
100
AcDbCircle
 10
225.1039295570718
 20
-330.4841554109989
 30
0.0
 40
58.13148319780563
100
AcDbArc
 50
83.31197394583278
 51
96.04489107329404
  0
ARC
  5
4A9
330
5C
100
AcDbEntity
  8
0
  6
Continuous
 62
     7
100
AcDbCircle
 10
225.1039295570718
 20
-330.4841554109989
 30
0.0
 40
56.20000000000245
100
AcDbArc
 50
83.35093687883966
 51
96.00592814028602
  0
ARC
  5
4AA
330
5C
100
AcDbEntity
  8
0
  6
Continuous
 62
     7
100
AcDbCircle
 10
225.1039295570718
 20
-330.4841554109989
 30
0.0
 40
56.19999999999865
100
AcDbArc
 50
53.3509368788411
 51
66.00592814028714
  0
ARC
  5
4AB
330
5C
100
AcDbEntity
  8
0
  6
Continuous
 62
     7
100
AcDbCircle
 10
225.1039295570718
 20
-330.4841554109989
 30
0.0
 40
58.13148319780713
100
AcDbArc
 50
53.31197394583187
 51
66.04489107329516
  0
ARC
  5
4AC
330
5C
100
AcDbEntity
  8
0
  6
Continuous
 62
     7
100
AcDbCircle
 10
225.1039295570718
 20
-330.4841554109989
 30
0.0
 40
70.49999999999842
100
AcDbArc
 50
173.1130859681945
 51
-173.7562209490696
  0
ARC
  5
4AD
330
5C
100
AcDbEntity
  8
0
  6
Continuous
 62
     7
100
AcDbCircle
 10
225.1039295570718
 20
-330.4841554109989
 30
0.0
 40
45.10463792494687
100
AcDbArc
 50
-171.3605805428415
 51
-159.2825544380361
  0
ARC
  5
4AE
330
5C
100
AcDbEntity
  8
0
  6
Continuous
 62
     7
100
AcDbCircle
 10
225.1039295570718
 20
-330.4841554109989
 30
0.0
 40
70.49999999999751
100
AcDbArc
 50
-66.88691403180847
 51
-53.75622094906694
  0
ARC
  5
4AF
330
5C
100
AcDbEntity
  8
0
  6
Continuous
 62
     7
100
AcDbCircle
 10
225.1039295570718
 20
-330.4841554109989
 30
0.0
 40
73.8999999999981
100
AcDbArc
 50
-66.9299192349143
 51
-53.71321574596092
  0
ARC
  5
4B0
330
5C
100
AcDbEntity
  8
0
  6
Continuous
 62
     7
100
AcDbCircle
 10
225.1039295570718
 20
-330.4841554109989
 30
0.0
 40
70.49999999999855
100
AcDbArc
 50
-96.88691403180555
 51
-83.75622094906653
  0
ARC
  5
4B1
330
5C
100
AcDbEntity
  8
0
  6
Continuous
 62
     7
100
AcDbCircle
 10
225.1039295570718
 20
-330.4841554109989
 30
0.0
 40
45.10463792494791
100
AcDbArc
 50
-111.3605805428423
 51
-99.28255443804068
  0
ARC
  5
4B2
330
5C
100
AcDbEntity
  8
0
  6
Continuous
 62
     7
100
AcDbCircle
 10
225.1039295570718
 20
-330.4841554109989
 30
0.0
 40
73.8999999999997
100
AcDbArc
 50
-81.92991923491574
 51
-68.71321574596011
  0
ARC
  5
4B3
330
5C
100
AcDbEntity
  8
0
  6
Continuous
 62
     7
100
AcDbCircle
 10
225.1039295570718
 20
-330.4841554109989
 30
0.0
 40
45.10463792494773
100
AcDbArc
 50
158.6394194571578
 51
170.7174455619602
  0
ARC
  5
4B4
330
5C
100
AcDbEntity
  8
0
  6
Continuous
 62
     7
100
AcDbCircle
 10
225.1039295570718
 20
-330.4841554109989
 30
0.0
 40
45.10463792494954
100
AcDbArc
 50
143.6394194571629
 51
155.7174455619625
  0
ARC
  5
4B5
330
5C
100
AcDbEntity
  8
0
  6
Continuous
 62
     7
100
AcDbCircle
 10
225.1039295570718
 20
-330.4841554109989
 30
0.0
 40
45.10463792494559
100
AcDbArc
 50
-66.3605805428369
 51
-54.28255443803597
  0
ARC
  5
4B6
330
5C
100
AcDbEntity
  8
0
  6
Continuous
 62
     7
100
AcDbCircle
 10
225.1039295570718
 20
-330.4841554109989
 30
0.0
 40
45.10463792494637
100
AcDbArc
 50
-51.36058054283653
 51
-39.28255443803663
  0
ARC
  5
4B7
330
5C
100
AcDbEntity
  8
0
  6
Continuous
 62
     7
100
AcDbCircle
 10
225.1039295570718
 20
-330.4841554109989
 30
0.0
 40
70.49999999999756
100
AcDbArc
 50
-51.88691403180805
 51
-38.75622094906667
  0
ARC
  5
4B8
330
5C
100
AcDbEntity
  8
0
  6
Continuous
 62
     7
100
AcDbCircle
 10
225.1039295570718
 20
-330.4841554109989
 30
0.0
 40
73.89999999999816
100
AcDbArc
 50
-51.92991923491728
 51
-47.00968993933198
  0
ARC
  5
4B9
330
5C
100
AcDbEntity
  8
0
  6
Continuous
 62
     7
100
AcDbCircle
 10
225.1039295570718
 20
-330.4841554109989
 30
0.0
 40
73.89999999999665
100
AcDbArc
 50
-36.92991923491513
 51
-28.63353493039646
  0
ARC
  5
4BA
330
5C
100
AcDbEntity
  8
0
  6
Continuous
 62
     7
100
AcDbCircle
 10
225.1039295570718
 20
-330.4841554109989
 30
0.0
 40
45.10463792494694
100
AcDbArc
 50
-141.3605805428429
 51
-129.2825544380394
  0
ARC
  5
4BB
330
5C
100
AcDbEntity
  8
0
  6
Continuous
 62
     7
100
AcDbCircle
 10
225.1039295570718
 20
-330.4841554109989
 30
0.0
 40
45.10463792494674
100
AcDbArc
 50
-126.36058054284
 51
-114.2825544380377
  0
ARC
  5
4BC
330
5C
100
AcDbEntity
  8
0
  6
Continuous
 62
     7
100
AcDbCircle
 10
225.1039295570718
 20
-330.4841554109989
 30
0.0
 40
70.49999999999712
100
AcDbArc
 50
-81.88691403181016
 51
-68.75622094906964
  0
ARC
  5
4BD
330
5C
100
AcDbEntity
  8
0
  6
Continuous
 62
     7
100
AcDbCircle
 10
225.1039295570718
 20
-330.4841554109989
 30
0.0
 40
45.10463792494509
100
AcDbArc
 50
-96.36058054284234
 51
-84.28255443803788
  0
ARC
  5
4BE
330
5C
100
AcDbEntity
  8
0
  6
Continuous
 62
     7
100
AcDbCircle
 10
225.1039295570718
 20
-330.4841554109989
 30
0.0
 40
45.10463792494743
100
AcDbArc
 50
-156.3605805428429
 51
-144.2825544380385
  0
ARC
  5
4BF
330
5C
100
AcDbEntity
  8
0
  6
Continuous
 62
     7
100
AcDbCircle
 10
225.1039295570718
 20
-330.4841554109989
 30
0.0
 40
45.10463792494685
100
AcDbArc
 50
-81.3605805428417
 51
-69.28255443803617
  0
ARC
  5
4C0
330
5C
100
AcDbEntity
  8
0
  6
Continuous
 62
     7
100
AcDbCircle
 10
225.1039295570718
 20
-330.4841554109989
 30
0.0
 40
73.89999999999824
100
AcDbArc
 50
-141.9299192349172
 51
-137.0096899393319
  0
ARC
  5
4C1
330
5C
100
AcDbEntity
  8
0
  6
Continuous
 62
     7
100
AcDbCircle
 10
225.1039295570718
 20
-330.4841554109989
 30
0.0
 40
70.49999999999851
100
AcDbArc
 50
-111.8869140318077
 51
-98.756220949069
  0
ARC
  5
4C2
330
5C
100
AcDbEntity
  8
0
  6
Continuous
 62
     7
100
AcDbCircle
 10
225.1039295570718
 20
-330.4841554109989
 30
0.0
 40
70.50000000000088
100
AcDbArc
 50
-156.8869140318095
 51
-143.7562209490669
  0
ARC
  5
4C3
330
5C
100
AcDbEntity
  8
0
  6
Continuous
 62
     7
100
AcDbCircle
 10
225.1039295570718
 20
-330.4841554109989
 30
0.0
 40
73.89999999999831
100
AcDbArc
 50
-137.0096899393319
 51
-128.7132157459616
  0
ARC
  5
4C4
330
5C
100
AcDbEntity
  8
0
  6
Continuous
 62
     7
100
AcDbCircle
 10
225.1039295570718
 20
-330.4841554109989
 30
0.0
 40
70.49999999999763
100
AcDbArc
 50
-141.886914031808
 51
-128.7562209490689
  0
ARC
  5
4C5
330
5C
100
AcDbEntity
  8
0
  6
Continuous
 62
     7
100
AcDbCircle
 10
225.1039295570718
 20
-330.4841554109989
 30
0.0
 40
70.49999999999822
100
AcDbArc
 50
-126.8869140318094
 51
-113.7562209490691
  0
ARC
  5
4C6
330
5C
100
AcDbEntity
  8
0
  6
Continuous
 62
     7
100
AcDbCircle
 10
225.1039295570718
 20
-330.4841554109989
 30
0.0
 40
73.89999999999878
100
AcDbArc
 50
-118.6335349303988
 51
-113.713215745962
  0
ARC
  5
4C7
330
5C
100
AcDbEntity
  8
0
  6
Continuous
 62
     7
100
AcDbCircle
 10
225.1039295570718
 20
-330.4841554109989
 30
0.0
 40
73.89999999999897
100
AcDbArc
 50
-126.9299192349174
 51
-118.6335349303988
  0
ARC
  5
4C8
330
5C
100
AcDbEntity
  8
0
  6
Continuous
 62
     7
100
AcDbCircle
 10
225.1039295570718
 20
-330.4841554109989
 30
0.0
 40
73.89999999999823
100
AcDbArc
 50
-47.00968993933198
 51
-38.71321574595945
  0
ARC
  5
4C9
330
5C
100
AcDbEntity
  8
0
  6
Continuous
 62
     7
100
AcDbCircle
 10
225.1039295570718
 20
-330.4841554109989
 30
0.0
 40
73.90000000000198
100
AcDbArc
 50
83.07008076508478
 51
96.28678425404034
  0
ARC
  5
4CA
330
5C
100
AcDbEntity
  8
0
  6
Continuous
 62
     7
100
AcDbCircle
 10
225.1039295570718
 20
-330.4841554109989
 30
0.0
 40
73.90000000000182
100
AcDbArc
 50
61.36646506960256
 51
66.2867842540391
  0
ARC
  5
4CB
330
5C
100
AcDbEntity
  8
0
  6
Continuous
 62
     7
100
AcDbCircle
 10
225.1039295570718
 20
-330.4841554109989
 30
0.0
 40
70.50000000000169
100
AcDbArc
 50
68.11308596819346
 51
81.24377905093148
  0
ARC
  5
4CC
330
5C
100
AcDbEntity
  8
0
  6
Continuous
 62
     7
100
AcDbCircle
 10
225.1039295570718
 20
-330.4841554109989
 30
0.0
 40
73.89999999999917
100
AcDbArc
 50
68.07008076508522
 51
81.28678425403962
  0
ARC
  5
4CD
330
5C
100
AcDbEntity
  8
0
  6
Continuous
 62
     7
100
AcDbCircle
 10
225.1039295570718
 20
-330.4841554109989
 30
0.0
 40
70.50000000000242
100
AcDbArc
 50
83.11308596819191
 51
96.24377905093326
  0
ARC
  5
4CE
330
5C
100
AcDbEntity
  8
0
  6
Continuous
 62
     7
100
AcDbCircle
 10
225.1039295570718
 20
-330.4841554109989
 30
0.0
 40
70.500000000001
100
AcDbArc
 50
53.11308596819243
 51
66.2437790509321
  0
ARC
  5
4CF
330
5C
100
AcDbEntity
  8
0
  6
Continuous
 62
     7
100
AcDbCircle
 10
225.1039295570718
 20
-330.4841554109989
 30
0.0
 40
73.90000000000175
100
AcDbArc
 50
53.07008076508437
 51
61.36646506960256
  0
ARC
  5
4D0
330
5C
100
AcDbEntity
  8
0
  6
Continuous
 62
     7
100
AcDbCircle
 10
225.1039295570718
 20
-330.4841554109989
 30
0.0
 40
70.50000000000266
100
AcDbArc
 50
38.11308596819251
 51
51.24377905093301
  0
ARC
  5
4D1
330
5C
100
AcDbEntity
  8
0
  6
Continuous
 62
     7
100
AcDbCircle
 10
225.1039295570718
 20
-330.4841554109989
 30
0.0
 40
70.49999999999844
100
AcDbArc
 50
-6.88691403180556
 51
6.24377905093316
  0
ARC
  5
4D2
330
5C
100
AcDbEntity
  8
0
  6
Continuous
 62
     7
100
AcDbCircle
 10
225.1039295570718
 20
-330.4841554109989
 30
0.0
 40
70.50000000000065
100
AcDbArc
 50
8.11308596818943
 51
21.24377905093307
  0
ARC
  5
4D3
330
5C
100
AcDbEntity
  8
0
  6
Continuous
 62
     7
100
AcDbCircle
 10
225.1039295570718
 20
-330.4841554109989
 30
0.0
 40
73.89999999999958
100
AcDbArc
 50
8.07008076508425
 51
21.28678425403991
  0
ARC
  5
4D4
330
5C
100
AcDbEntity
  8
0
  6
Continuous
 62
     7
100
AcDbCircle
 10
225.1039295570718
 20
-330.4841554109989
 30
0.0
 40
45.10463792494542
100
AcDbArc
 50
23.63941945716315
 51
35.7174455619678
  0
ARC
  5
4D5
330
5C
100
AcDbEntity
  8
0
  6
Continuous
 62
     7
100
AcDbCircle
 10
225.1039295570718
 20
-330.4841554109989
 30
0.0
 40
45.10463792494625
100
AcDbArc
 50
38.6394194571636
 51
50.71744556196342
  0
ARC
  5
4D6
330
5C
100
AcDbEntity
  8
0
  6
Continuous
 62
     7
100
AcDbCircle
 10
225.1039295570718
 20
-330.4841554109989
 30
0.0
 40
73.90000000000023
100
AcDbArc
 50
38.07008076508499
 51
42.99031006067005
  0
ARC
  5
4D7
330
5C
100
AcDbEntity
  8
0
  6
Continuous
 62
     7
100
AcDbCircle
 10
225.1039295570718
 20
-330.4841554109989
 30
0.0
 40
70.5000000000007
100
AcDbArc
 50
23.1130859681904
 51
36.24377905093547
  0
ARC
  5
4D8
330
5C
100
AcDbEntity
  8
0
  6
Continuous
 62
     7
100
AcDbCircle
 10
225.1039295570718
 20
-330.4841554109989
 30
0.0
 40
73.90000000000128
100
AcDbArc
 50
23.07008076508466
 51
36.28678425404141
  0
ARC
  5
4D9
330
5C
100
AcDbEntity
  8
0
  6
Continuous
 62
     7
100
AcDbCircle
 10
225.1039295570718
 20
-330.4841554109989
 30
0.0
 40
70.50000000000225
100
AcDbArc
 50
113.1130859681932
 51
126.2437790509314
  0
ARC
  5
4DA
330
5C
100
AcDbEntity
  8
0
  6
Continuous
 62
     7
100
AcDbCircle
 10
225.1039295570718
 20
-330.4841554109989
 30
0.0
 40
73.90000000000128
100
AcDbArc
 50
113.0700807650848
 51
126.2867842540375
  0
ARC
  5
4DB
330
5C
100
AcDbEntity
  8
0
  6
Continuous
 62
     7
100
AcDbCircle
 10
225.1039295570718
 20
-330.4841554109989
 30
0.0
 40
73.90000000000323
100
AcDbArc
 50
128.0700807650833
 51
132.9903100606682
  0
ARC
  5
4DC
330
5C
100
AcDbEntity
  8
0
  6
Continuous
 62
     7
100
AcDbCircle
 10
225.1039295570718
 20
-330.4841554109989
 30
0.0
 40
70.50000000000118
100
AcDbArc
 50
98.11308596819242
 51
111.2437790509304
  0
ARC
  5
4DD
330
5C
100
AcDbEntity
  8
0
  6
Continuous
 62
     7
100
AcDbCircle
 10
225.1039295570718
 20
-330.4841554109989
 30
0.0
 40
73.90000000000313
100
AcDbArc
 50
98.07008076508392
 51
111.28678425404
  0
ARC
  5
4DE
330
5C
100
AcDbEntity
  8
0
  6
Continuous
 62
     7
100
AcDbCircle
 10
225.1039295570718
 20
-330.4841554109989
 30
0.0
 40
70.50000000000267
100
AcDbArc
 50
128.1130859681925
 51
141.2437790509312
  0
ARC
  5
4DF
330
5C
100
AcDbEntity
  8
0
  6
Continuous
 62
     7
100
AcDbCircle
 10
225.1039295570718
 20
-330.4841554109989
 30
0.0
 40
73.90000000000336
100
AcDbArc
 50
132.9903100606682
 51
141.2867842540385
  0
ARC
  5
4E0
330
5C
100
AcDbEntity
  8
0
  6
Continuous
 62
     7
100
AcDbCircle
 10
225.1039295570718
 20
-330.4841554109989
 30
0.0
 40
45.10463792494913
100
AcDbArc
 50
128.6394194571607
 51
140.7174455619636
  0
ARC
  5
4E1
330
5C
100
AcDbEntity
  8
0
  6
Continuous
 62
     7
100
AcDbCircle
 10
225.1039295570718
 20
-330.4841554109989
 30
0.0
 40
45.10463792494883
100
AcDbArc
 50
113.6394194571613
 51
125.7174455619615
  0
ARC
  5
4E2
330
5C
100
AcDbEntity
  8
0
  6
Continuous
 62
     7
100
AcDbCircle
 10
225.1039295570718
 20
-330.4841554109989
 30
0.0
 40
45.1046379249464
100
AcDbArc
 50
-21.36058054283799
 51
-9.28255443803544
  0
ARC
  5
4E3
330
5C
100
AcDbEntity
  8
0
  6
Continuous
 62
     7
100
AcDbCircle
 10
225.1039295570718
 20
-330.4841554109989
 30
0.0
 40
45.10463792494458
100
AcDbArc
 50
-6.36058054283783
 51
5.71744556196195
  0
ARC
  5
4E4
330
5C
100
AcDbEntity
  8
0
  6
Continuous
 62
     7
100
AcDbCircle
 10
225.1039295570718
 20
-330.4841554109989
 30
0.0
 40
45.10463792494666
100
AcDbArc
 50
-36.36058054284005
 51
-24.28255443803777
  0
ARC
  5
4E5
330
5C
100
AcDbEntity
  8
0
  6
Continuous
 62
     7
100
AcDbCircle
 10
225.1039295570718
 20
-330.4841554109989
 30
0.0
 40
73.89999999999692
100
AcDbArc
 50
-28.63353493039646
 51
-23.713215745961
  0
ARC
  5
4E6
330
5C
100
AcDbEntity
  8
0
  6
Continuous
 62
     7
100
AcDbCircle
 10
225.1039295570718
 20
-330.4841554109989
 30
0.0
 40
70.49999999999892
100
AcDbArc
 50
-36.88691403180533
 51
-23.75622094906644
  0
ARC
  5
4E7
330
5C
100
AcDbEntity
  8
0
  6
Continuous
 62
     7
100
AcDbCircle
 10
225.1039295570718
 20
-330.4841554109989
 30
0.0
 40
73.89999999999911
100
AcDbArc
 50
-21.92991923491489
 51
-8.7132157459608
  0
ARC
  5
4E8
330
5C
100
AcDbEntity
  8
0
  6
Continuous
 62
     7
100
AcDbCircle
 10
225.1039295570718
 20
-330.4841554109989
 30
0.0
 40
70.5000000000004
100
AcDbArc
 50
-21.88691403180392
 51
-8.75622094906613
  0
ARC
  5
4E9
330
5C
100
AcDbEntity
  8
0
  6
Continuous
 62
     7
100
AcDbCircle
 10
225.1039295570718
 20
-330.4841554109989
 30
0.0
 40
45.10463792494812
100
AcDbArc
 50
83.63941945716286
 51
95.71744556196214
  0
ARC
  5
4EA
330
5C
100
AcDbEntity
  8
0
  6
Continuous
 62
     7
100
AcDbCircle
 10
225.1039295570718
 20
-330.4841554109989
 30
0.0
 40
45.10463792494741
100
AcDbArc
 50
98.63941945716299
 51
110.7174455619639
  0
ARC
  5
4EB
330
5C
100
AcDbEntity
  8
0
  6
Continuous
 62
     7
100
AcDbCircle
 10
225.1039295570718
 20
-330.4841554109989
 30
0.0
 40
45.1046379249496
100
AcDbArc
 50
53.63941945716279
 51
65.71744556196226
  0
ARC
  5
4EC
330
5C
100
AcDbEntity
  8
0
  6
Continuous
 62
     7
100
AcDbCircle
 10
225.1039295570718
 20
-330.4841554109989
 30
0.0
 40
45.10463792494978
100
AcDbArc
 50
68.6394194571637
 51
80.71744556196471
  0
ARC
  5
4ED
330
5C
100
AcDbEntity
  8
0
  6
Continuous
 62
     7
100
AcDbCircle
 10
225.1039295570718
 20
-330.4841554109989
 30
0.0
 40
45.10463792494739
100
AcDbArc
 50
8.63941945716283
 51
20.71744556196374
  0
ARC
  5
4EE
330
5C
100
AcDbEntity
  8
0
  6
Continuous
 62
     7
100
AcDbCircle
 10
225.1039295570718
 20
-330.4841554109989
 30
0.0
 40
73.90000000000067
100
AcDbArc
 50
42.99031006067005
 51
51.2867842540406
  0
ARC
  5
4EF
330
5C
100
AcDbEntity
  8
0
  6
Continuous
 62
     7
100
AcDbCircle
 10
225.1039295570718
 20
-330.4841554109989
 30
0.0
 40
70.4999999999998
100
AcDbArc
 50
158.1130859681897
 51
171.243779050934
  0
ARC
  5
4F0
330
5C
100
AcDbEntity
  8
0
  6
Continuous
 62
     7
100
AcDbCircle
 10
225.1039295570718
 20
-330.4841554109989
 30
0.0
 40
73.90000000000053
100
AcDbArc
 50
158.0700807650827
 51
171.2867842540396
  0
ARC
  5
4F1
330
5C
100
AcDbEntity
  8
0
  6
Continuous
 62
     7
100
AcDbCircle
 10
225.1039295570718
 20
-330.4841554109989
 30
0.0
 40
73.90000000000185
100
AcDbArc
 50
151.3664650696026
 51
156.2867842540392
  0
ARC
  5
4F2
330
5C
100
AcDbEntity
  8
0
  6
Continuous
 62
     7
100
AcDbCircle
 10
225.1039295570718
 20
-330.4841554109989
 30
0.0
 40
73.90000000000175
100
AcDbArc
 50
143.0700807650844
 51
151.3664650696026
  0
ARC
  5
4F3
330
5C
100
AcDbEntity
  8
0
  6
Continuous
 62
     7
100
AcDbCircle
 10
225.1039295570718
 20
-330.4841554109989
 30
0.0
 40
70.500000000001
100
AcDbArc
 50
143.1130859681924
 51
156.243779050931
  0
ARC
  5
4F4
330
5C
100
AcDbEntity
  8
1
  6
Continuous
 62
     7
100
AcDbCircle
 10
312.4089743925852
 20
-295.6441045173997
 30
0.0
 40
4.500000000002507
100
AcDbArc
 50
-6.37937020843924
 51
6.37937020843924
  0
ARC
  5
4F5
330
5C
100
AcDbEntity
  8
1
  6
Continuous
 62
     7
100
AcDbCircle
 10
312.4089743925852
 20
-295.6441045173997
 30
0.0
 40
4.499999999998948
100
AcDbArc
 50
-96.3793702084443
 51
-83.62062979155571
  0
ARC
  5
4F6
330
5C
100
AcDbEntity
  8
1
  6
Continuous
 62
     7
100
AcDbCircle
 10
312.4089743925852
 20
-295.6441045173997
 30
0.0
 40
4.499999999999061
100
AcDbArc
 50
173.6206297915559
 51
-173.6206297915559
  0
ARC
  5
4F7
330
5C
100
AcDbEntity
  8
1
  6
Continuous
 62
     7
100
AcDbCircle
 10
312.4089743925852
 20
-295.6441045173997
 30
0.0
 40
4.499999999998892
100
AcDbArc
 50
83.62062979155561
 51
96.37937020844439
  0
ARC
  5
4F8
330
5C
100
AcDbEntity
  8
1
  6
Continuous
 62
     7
100
AcDbCircle
 10
238.5840828318342
 20
-237.4557432581023
 30
0.0
 40
4.500000000001712
100
AcDbArc
 50
143.6206297915701
 51
156.3793702084258
  0
ARC
  5
4F9
330
5C
100
AcDbEntity
  8
1
  6
Continuous
 62
     7
100
AcDbCircle
 10
238.5840828318342
 20
-237.4557432581023
 30
0.0
 40
4.49999999999872
100
AcDbArc
 50
-126.3793702084575
 51
-113.620629791593
  0
ARC
  5
4FA
330
5C
100
AcDbEntity
  8
1
  6
Continuous
 62
     7
100
AcDbCircle
 10
238.5840828318342
 20
-237.4557432581023
 30
0.0
 40
4.499999999996596
100
AcDbArc
 50
-36.37937020842082
 51
-23.62062979155127
  0
ARC
  5
4FB
330
5C
100
AcDbEntity
  8
1
  6
Continuous
 62
     7
100
AcDbCircle
 10
238.5840828318342
 20
-237.4557432581023
 30
0.0
 40
4.500000000001712
100
AcDbArc
 50
53.62062979157009
 51
66.37937020846758
  0
ARC
  5
4FC
330
5C
100
AcDbEntity
  8
1
  6
Continuous
 62
     7
100
AcDbCircle
 10
151.2790379963172
 20
-272.2957941516943
 30
0.0
 40
4.500000000001308
100
AcDbArc
 50
-156.3793702084676
 51
-143.6206297915701
  0
ARC
  5
4FD
330
5C
100
AcDbEntity
  8
1
  6
Continuous
 62
     7
100
AcDbCircle
 10
151.2790379963172
 20
-272.2957941516943
 30
0.0
 40
4.500000000001334
100
AcDbArc
 50
-66.37937020846772
 51
-53.62062979157029
  0
ARC
  5
4FE
330
5C
100
AcDbEntity
  8
1
  6
Continuous
 62
     7
100
AcDbCircle
 10
151.2790379963172
 20
-272.2957941516943
 30
0.0
 40
4.4999999999979
100
AcDbArc
 50
23.62062979155061
 51
36.37937020845782
  0
ARC
  5
4FF
330
5C
100
AcDbEntity
  8
1
  6
Continuous
 62
     7
100
AcDbCircle
 10
151.2790379963172
 20
-272.2957941516943
 30
0.0
 40
4.499999999999366
100
AcDbArc
 50
113.6206297915942
 51
126.3793702084578
  0
ARC
  5
500
330
5C
100
AcDbEntity
  8
1
  6
Continuous
 62
     7
100
AcDbCircle
 10
137.7988847215511
 20
-365.3242063045873
 30
0.0
 40
4.500000000002507
100
AcDbArc
 50
-96.37937020843924
 51
-83.62062979156077
  0
ARC
  5
501
330
5C
100
AcDbEntity
  8
1
  6
Continuous
 62
     7
100
AcDbCircle
 10
137.7988847215511
 20
-365.3242063045873
 30
0.0
 40
4.500000000002592
100
AcDbArc
 50
-6.37937020843911
 51
6.37937020843911
  0
ARC
  5
502
330
5C
100
AcDbEntity
  8
1
  6
Continuous
 62
     7
100
AcDbCircle
 10
137.7988847215511
 20
-365.3242063045873
 30
0.0
 40
4.499999999998892
100
AcDbArc
 50
83.62062979155561
 51
96.37937020844439
  0
ARC
  5
503
330
5C
100
AcDbEntity
  8
1
  6
Continuous
 62
     7
100
AcDbCircle
 10
137.7988847215511
 20
-365.3242063045873
 30
0.0
 40
4.49999999999892
100
AcDbArc
 50
173.6206297915557
 51
-173.6206297915557
  0
ARC
  5
504
330
5C
100
AcDbEntity
  8
1
  6
Continuous
 62
     7
100
AcDbCircle
 10
211.6237762823057
 20
-423.5125675638883
 30
0.0
 40
4.499999999998828
100
AcDbArc
 50
-36.37937020845696
 51
-23.62062979159379
  0
ARC
  5
505
330
5C
100
AcDbEntity
  8
1
  6
Continuous
 62
     7
100
AcDbCircle
 10
211.6237762823057
 20
-423.5125675638883
 30
0.0
 40
4.499999999998714
100
AcDbArc
 50
53.62062979154197
 51
66.37937020844859
  0
ARC
  5
506
330
5C
100
AcDbEntity
  8
1
  6
Continuous
 62
     7
100
AcDbCircle
 10
211.6237762823057
 20
-423.5125675638883
 30
0.0
 40
4.500000000001643
100
AcDbArc
 50
143.6206297915695
 51
156.3793702084672
  0
ARC
  5
507
330
5C
100
AcDbEntity
  8
1
  6
Continuous
 62
     7
100
AcDbCircle
 10
211.6237762823057
 20
-423.5125675638883
 30
0.0
 40
4.500000000001735
100
AcDbArc
 50
-126.3793702084297
 51
-113.6206297915741
  0
ARC
  5
508
330
5C
100
AcDbEntity
  8
1
  6
Continuous
 62
     7
100
AcDbCircle
 10
298.9288211178227
 20
-388.6725166703
 30
0.0
 40
4.499999999999534
100
AcDbArc
 50
23.62062979159365
 51
36.37937020845675
  0
ARC
  5
509
330
5C
100
AcDbEntity
  8
1
  6
Continuous
 62
     7
100
AcDbCircle
 10
298.9288211178227
 20
-388.6725166703
 30
0.0
 40
4.500000000001311
100
AcDbArc
 50
113.6206297915316
 51
126.3793702084291
  0
ARC
  5
50A
330
5C
100
AcDbEntity
  8
1
  6
Continuous
 62
     7
100
AcDbCircle
 10
298.9288211178227
 20
-388.6725166703
 30
0.0
 40
4.500000000001178
100
AcDbArc
 50
-156.3793702084669
 51
-143.6206297916069
  0
ARC
  5
50B
330
5C
100
AcDbEntity
  8
1
  6
Continuous
 62
     7
100
AcDbCircle
 10
298.9288211178227
 20
-388.6725166703
 30
0.0
 40
4.499999999997942
100
AcDbArc
 50
-66.37937020844727
 51
-53.62062979154197
  0
CIRCLE
  5
50C
330
5C
100
AcDbEntity
  8
0
  6
Continuous
 62
     7
100
AcDbCircle
 10
312.4089743925852
 20
-295.6441045173924
 30
0.0
 40
6.899999999996075
  0
CIRCLE
  5
50D
330
5C
100
AcDbEntity
  8
1
  6
Continuous
 62
     7
100
AcDbCircle
 10
312.4089743925852
 20
-295.6441045173997
 30
0.0
 40
5.5
  0
CIRCLE
  5
50E
330
5C
100
AcDbEntity
  8
1
  6
Continuous
 62
     7
100
AcDbCircle
 10
238.5840828318342
 20
-237.4557432581023
 30
0.0
 40
5.500000000002248
  0
CIRCLE
  5
50F
330
5C
100
AcDbEntity
  8
0
  6
Continuous
 62
     7
100
AcDbCircle
 10
238.5840828318269
 20
-237.455743258095
 30
0.0
 40
6.89999999999581
  0
CIRCLE
  5
510
330
5C
100
AcDbEntity
  8
1
  6
Continuous
 62
     7
100
AcDbCircle
 10
151.2790379963172
 20
-272.2957941516943
 30
0.0
 40
5.499999999999122
  0
CIRCLE
  5
511
330
5C
100
AcDbEntity
  8
0
  6
Continuous
 62
     7
100
AcDbCircle
 10
151.2790379963099
 20
-272.2957941516979
 30
0.0
 40
6.899999999995074
  0
CIRCLE
  5
512
330
5C
100
AcDbEntity
  8
1
  6
Continuous
 62
     7
100
AcDbCircle
 10
137.7988847215511
 20
-365.3242063045873
 30
0.0
 40
5.5
  0
CIRCLE
  5
513
330
5C
100
AcDbEntity
  8
0
  6
Continuous
 62
     7
100
AcDbCircle
 10
137.7988847215511
 20
-365.3242063045946
 30
0.0
 40
6.899999999996075
  0
CIRCLE
  5
514
330
5C
100
AcDbEntity
  8
1
  6
Continuous
 62
     7
100
AcDbCircle
 10
211.6237762823057
 20
-423.5125675638883
 30
0.0
 40
5.500000000002224
  0
CIRCLE
  5
515
330
5C
100
AcDbEntity
  8
0
  6
Continuous
 62
     7
100
AcDbCircle
 10
211.6237762823094
 20
-423.5125675638919
 30
0.0
 40
6.899999999995429
  0
CIRCLE
  5
516
330
5C
100
AcDbEntity
  8
1
  6
Continuous
 62
     7
100
AcDbCircle
 10
298.9288211178227
 20
-388.6725166703
 30
0.0
 40
5.499999999999024
  0
CIRCLE
  5
517
330
5C
100
AcDbEntity
  8
0
  6
Continuous
 62
     7
100
AcDbCircle
 10
298.92882111783
 20
-388.6725166702927
 30
0.0
 40
6.899999999997339
  0
CIRCLE
  5
518
330
5C
100
AcDbEntity
  8
1
  6
Continuous
 62
     7
100
AcDbCircle
 10
225.1039295570681
 20
-330.4841554109953
 30
0.0
 40
177.0
  0
ENDBLK
  5
5E
330
5C
100
AcDbEntity
  8
0
100
AcDbBlockEnd
  0
BLOCK
  5
521
330
519
100
AcDbEntity
  8
0
100
AcDbBlockBegin
  2
*D6
 70
     1
 71
     0
 10
0.0
 20
0.0
 30
0.0
  3
*D6
  1

  0
LINE
  5
51A
330
519
100
AcDbEntity
  8
1
  6
Continuous
 62
     4
100
AcDbLine
 10
48.1030809602764
 20
503.7661567907996
 30
0.0
 11
402.1038853328452
 21
503.7666103033605
 31
0.0
  0
LINE
  5
51B
330
519
100
AcDbEntity
  8
1
  6
Continuous
 62
     4
100
AcDbLine
 10
48.1032036793894
 20
407.9746209356346
 30
0.0
 11
48.1030783980643
 21
505.7661567907979
 31
0.0
  0
LINE
  5
51C
330
519
100
AcDbEntity
  8
1
  6
Continuous
 62
     4
100
AcDbLine
 10
402.1040080519377
 20
407.9750905206371
 30
0.0
 11
402.1038827706332
 21
505.7666103033588
 31
0.0
  0
SOLID
  5
51D
330
519
100
AcDbEntity
  8
1
 62
     4
100
AcDbTrace
 10
60.10307893633691
 20
505.346002135119
 30
0.0
 11
60.1030829841962
 21
502.1863421930241
 31
0.0
 12
48.1030809602764
 22
503.7661567907996
 32
0.0
 13
48.1030809602764
 23
503.7661567907996
 33
0.0
  0
SOLID
  5
51E
330
519
100
AcDbEntity
  8
1
 62
     4
100
AcDbTrace
 10
390.1038873567847
 20
502.1867649590411
 30
0.0
 11
390.1038833089254
 21
505.346424901136
 31
0.0
 12
402.1038853328452
 22
503.7666103033605
 32
0.0
 13
402.1038853328452
 23
503.7666103033605
 33
0.0
  0
MTEXT
  5
520
330
519
100
AcDbEntity
  8
1
 62
     1
100
AcDbMText
 10
202.7194598143882
 20
505.7663323772749
 30
0.0
 40
12.0
 41
0.0
 71
     7
 72
     1
  1
\C1;\U+00d8\C1;354
  7
CONVERTER_11
 11
0.9999999999970619
 21
2.424068405545306E-6
 31
0.0
 73
     1
 44
0.60024009603842
  0
ENDBLK
  5
522
330
519
100
AcDbEntity
  8
0
100
AcDbBlockEnd
  0
BLOCK
  5
52D
330
525
100
AcDbEntity
  8
0
100
AcDbBlockBegin
  2
*D7
 70
     1
 71
     0
 10
0.0
 20
0.0
 30
0.0
  3
*D7
  1

  0
LINE
  5
526
330
525
100
AcDbEntity
  8
1
  6
Continuous
 62
     4
100
AcDbLine
 10
151.6038439588455
 20
333.9497924147001
 30
0.0
 11
98.17743811135877
 21
333.94972396981
 31
0.0
  0
LINE
  5
527
330
525
100
AcDbEntity
  8
1
  6
Continuous
 62
     4
100
AcDbLine
 10
298.6038439586043
 20
333.9499807372848
 30
0.0
 11
151.6038439588455
 21
333.9497924147001
 31
0.0
  0
LINE
  5
528
330
525
100
AcDbEntity
  8
1
  6
Continuous
 62
     4
100
AcDbLine
 10
298.6038036185855
 20
365.438412
 30
0.0
 11
298.6038465208163
 21
331.9499807372864
 31
0.0
  0
LINE
  5
529
330
525
100
AcDbEntity
  8
1
  6
Continuous
 62
     4
100
AcDbLine
 10
151.6038036185855
 20
365.438412
 30
0.0
 11
151.6038465210575
 21
331.9497924147018
 31
0.0
  0
SOLID
  5
52A
330
525
100
AcDbEntity
  8
1
 62
     4
100
AcDbTrace
 10
286.6038459825438
 20
332.3701353929654
 30
0.0
 11
286.6038419346845
 21
335.5297953350603
 31
0.0
 12
298.6038439586043
 22
333.9499807372848
 32
0.0
 13
298.6038439586043
 23
333.9499807372848
 33
0.0
  0
SOLID
  5
52B
330
525
100
AcDbEntity
  8
1
 62
     4
100
AcDbTrace
 10
163.6038419349061
 20
335.5296377590195
 30
0.0
 11
163.6038459827653
 21
332.3699778169246
 31
0.0
 12
151.6038439588455
 22
333.9497924147001
 32
0.0
 13
151.6038439588455
 23
333.9497924147001
 33
0.0
  0
MTEXT
  5
52C
330
525
100
AcDbEntity
  8
1
 62
     1
100
AcDbMText
 10
92.89743554919275
 20
335.9496947120688
 30
0.0
 40
12.0
 41
0.0
 71
     7
 72
     1
  1
\C1;\U+00d8\C1;147
  7
CONVERTER_11
 11
0.9999999999970619
 21
2.424068405545306E-6
 31
0.0
 73
     1
 44
0.60024009603842
  0
ENDBLK
  5
52E
330
525
100
AcDbEntity
  8
0
100
AcDbBlockEnd
  0
BLOCK
  5
538
330
531
100
AcDbEntity
  8
0
100
AcDbBlockBegin
  2
*D8
 70
     1
 71
     0
 10
0.0
 20
0.0
 30
0.0
  3
*D8
  1

  0
LINE
  5
532
330
531
100
AcDbEntity
  8
1
  6
Continuous
 62
     4
100
AcDbLine
 10
162.6039801196835
 20
-116.9807901723631
 30
0.0
 11
287.6039801193062
 21
-116.9806184988649
 31
0.0
  0
LINE
  5
533
330
531
100
AcDbEntity
  8
1
  6
Continuous
 62
     4
100
AcDbLine
 10
162.6039409945775
 20
-88.49276899999985
 30
0.0
 11
162.6039828664595
 21
-118.9807901723612
 31
0.0
  0
LINE
  5
534
330
531
100
AcDbEntity
  8
1
  6
Continuous
 62
     4
100
AcDbLine
 10
287.6039409945774
 20
-88.49287199999834
 30
0.0
 11
287.6039828660822
 21
-118.980618498863
 31
0.0
  0
SOLID
  5
535
330
531
100
AcDbEntity
  8
1
 62
     4
100
AcDbTrace
 10
174.6039779499527
 20
-115.40094372066
 30
0.0
 11
174.6039822893917
 21
-118.5606036627545
 31
0.0
 12
162.6039801196835
 22
-116.9807901723631
 32
0.0
 13
162.6039801196835
 23
-116.9807901723631
 33
0.0
  0
SOLID
  5
536
330
531
100
AcDbEntity
  8
1
 62
     4
100
AcDbTrace
 10
275.603982289037
 20
-118.560464950568
 30
0.0
 11
275.6039779495981
 21
-115.4008050084735
 31
0.0
 12
287.6039801193062
 22
-116.9806184988649
 32
0.0
 13
287.6039801193062
 23
-116.9806184988649
 33
0.0
  0
MTEXT
  5
537
330
531
100
AcDbEntity
  8
1
 62
     1
100
AcDbMText
 10
204.2683354861683
 20
-114.9807536284268
 30
0.0
 40
12.0
 41
0.0
 71
     7
 72
     1
  1
\C1;DN\C1;125
  7
CONVERTER_11
 11
0.9999999999970619
 21
2.424068405545306E-6
 31
0.0
 73
     1
 44
0.60024009603842
  0
ENDBLK
  5
539
330
531
100
AcDbEntity
  8
0
100
AcDbBlockEnd
  0
BLOCK
  5
543
330
53C
100
AcDbEntity
  8
0
100
AcDbBlockBegin
  2
*D9
 70
     1
 71
     0
 10
0.0
 20
0.0
 30
0.0
  3
*D9
  1

  0
LINE
  5
53D
330
53C
100
AcDbEntity
  8
1
  6
Continuous
 62
     4
100
AcDbLine
 10
331.863961372574
 20
-49.5615879999999
 30
0.0
 11
331.863961372574
 21
260.4195559999978
 31
0.0
  0
LINE
  5
53E
330
53C
100
AcDbEntity
  8
1
  6
Continuous
 62
     4
100
AcDbLine
 10
268.898169105993
 20
-49.5615879999999
 30
0.0
 11
333.863961372574
 21
-49.5615879999999
 31
0.0
  0
LINE
  5
53F
330
53C
100
AcDbEntity
  8
1
  6
Continuous
 62
     4
100
AcDbLine
 10
286.1039401059938
 20
260.4195559999978
 30
0.0
 11
333.863961372574
 21
260.4195559999978
 31
0.0
  0
SOLID
  5
540
330
53C
100
AcDbEntity
  8
1
 62
     4
100
AcDbTrace
 10
330.2841314015253
 20
-37.5615879999999
 30
0.0
 11
333.4437913436228
 21
-37.5615879999999
 31
0.0
 12
331.863961372574
 22
-49.5615879999999
 32
0.0
 13
331.863961372574
 23
-49.5615879999999
 33
0.0
  0
SOLID
  5
541
330
53C
100
AcDbEntity
  8
1
 62
     4
100
AcDbTrace
 10
333.4437913436228
 20
248.4195559999978
 30
0.0
 11
330.2841314015253
 21
248.4195559999978
 31
0.0
 12
331.863961372574
 22
260.4195559999978
 32
0.0
 13
331.863961372574
 23
260.4195559999978
 33
0.0
  0
MTEXT
  5
542
330
53C
100
AcDbEntity
  8
1
 62
     1
100
AcDbMText
 10
329.863961372574
 20
83.44192534249221
 30
0.0
 40
12.0
 41
0.0
 71
     7
 72
     1
  1
310
  7
CONVERTER_11
 11
0.0
 21
1.0
 31
0.0
 73
     1
 44
0.60024009603842
  0
ENDBLK
  5
544
330
53C
100
AcDbEntity
  8
0
100
AcDbBlockEnd
  0
BLOCK
  5
54E
330
547
100
AcDbEntity
  8
0
100
AcDbBlockBegin
  2
*D10
 70
     1
 71
     0
 10
0.0
 20
0.0
 30
0.0
  3
*D10
  1

  0
LINE
  5
548
330
547
100
AcDbEntity
  8
1
  6
Continuous
 62
     4
100
AcDbLine
 10
410.1040088122707
 20
-49.56158799999992
 30
0.0
 11
410.1040088122707
 21
415.060705
 31
0.0
  0
LINE
  5
549
330
547
100
AcDbEntity
  8
1
  6
Continuous
 62
     4
100
AcDbLine
 10
268.8981691059931
 20
-49.56158799999992
 30
0.0
 11
412.1040088122707
 21
-49.56158799999992
 31
0.0
  0
LINE
  5
54A
330
547
100
AcDbEntity
  8
1
  6
Continuous
 62
     4
100
AcDbLine
 10
400.1040088122707
 20
415.060705
 30
0.0
 11
412.1040088122707
 21
415.060705
 31
0.0
  0
SOLID
  5
54B
330
547
100
AcDbEntity
  8
1
 62
     4
100
AcDbTrace
 10
408.524178841222
 20
-37.56158799999992
 30
0.0
 11
411.6838387833195
 21
-37.56158799999992
 31
0.0
 12
410.1040088122707
 22
-49.56158799999992
 32
0.0
 13
410.1040088122707
 23
-49.56158799999992
 33
0.0
  0
SOLID
  5
54C
330
547
100
AcDbEntity
  8
1
 62
     4
100
AcDbTrace
 10
411.6838387833195
 20
403.060705
 30
0.0
 11
408.524178841222
 21
403.060705
 31
0.0
 12
410.1040088122707
 22
415.060705
 32
0.0
 13
410.1040088122707
 23
415.060705
 33
0.0
  0
MTEXT
  5
54D
330
547
100
AcDbEntity
  8
1
 62
     1
100
AcDbMText
 10
408.1040088122707
 20
158.796746070091
 30
0.0
 40
12.0
 41
0.0
 71
     7
 72
     1
  1
465
  7
CONVERTER_11
 11
0.0
 21
1.0
 31
0.0
 73
     1
 44
0.60024009603842
  0
ENDBLK
  5
54F
330
547
100
AcDbEntity
  8
0
100
AcDbBlockEnd
  0
BLOCK
  5
559
330
552
100
AcDbEntity
  8
0
100
AcDbBlockBegin
  2
*D11
 70
     1
 71
     0
 10
0.0
 20
0.0
 30
0.0
  3
*D11
  1

  0
LINE
  5
553
330
552
100
AcDbEntity
  8
1
  6
Continuous
 62
     4
100
AcDbLine
 10
367.079253917198
 20
-49.56158799999992
 30
0.0
 11
367.079253917198
 21
365.438412
 31
0.0
  0
LINE
  5
554
330
552
100
AcDbEntity
  8
1
  6
Continuous
 62
     4
100
AcDbLine
 10
268.898169105993
 20
-49.56158799999992
 30
0.0
 11
369.079253917198
 21
-49.56158799999992
 31
0.0
  0
LINE
  5
555
330
552
100
AcDbEntity
  8
1
  6
Continuous
 62
     4
100
AcDbLine
 10
305.3538056185855
 20
365.438412
 30
0.0
 11
369.079253917198
 21
365.438412
 31
0.0
  0
SOLID
  5
556
330
552
100
AcDbEntity
  8
1
 62
     4
100
AcDbTrace
 10
365.4994239461492
 20
-37.56158799999992
 30
0.0
 11
368.6590838882468
 21
-37.56158799999992
 31
0.0
 12
367.079253917198
 22
-49.56158799999992
 32
0.0
 13
367.079253917198
 23
-49.56158799999992
 33
0.0
  0
SOLID
  5
557
330
552
100
AcDbEntity
  8
1
 62
     4
100
AcDbTrace
 10
368.6590838882468
 20
353.438412
 30
0.0
 11
365.4994239461492
 21
353.438412
 31
0.0
 12
367.079253917198
 22
365.438412
 32
0.0
 13
367.079253917198
 23
365.438412
 33
0.0
  0
MTEXT
  5
558
330
552
100
AcDbEntity
  8
1
 62
     1
100
AcDbMText
 10
365.079253917198
 20
124.878081156561
 30
0.0
 40
12.0
 41
0.0
 71
     7
 72
     1
  1
415
  7
CONVERTER_11
 11
0.0
 21
1.0
 31
0.0
 73
     1
 44
0.60024009603842
  0
ENDBLK
  5
55A
330
552
100
AcDbEntity
  8
0
100
AcDbBlockEnd
  0
ENDSEC
  0
SECTION
  2
ENTITIES
  0
INSERT
  5
5F
330
1F
100
AcDbEntity
  8
0
100
AcDbBlockReference
  2
HL69_1
 10
225.1036716185855
 20
194.0560180000001
 30
0.0
  0
INSERT
  5
60
330
1F
100
AcDbEntity
  8
1
100
AcDbBlockReference
  2
PVC_Manschette
 10
48.10320281227064
 20
387.060705
 30
0.0
  0
INSERT
  5
61
330
1F
100
AcDbEntity
  8
1
100
AcDbBlockReference
  2
062_1E_Laubfangkorb
 10
-642.4799843398262
 20
1067.586963
 30
0.0
  0
INSERT
  5
62
330
1F
100
AcDbEntity
  8
0
100
AcDbBlockReference
  2
Bauschutz_062_9E
 10
-421.4929742821878
 20
93.08649090136169
 30
0.0
  0
INSERT
  5
63
330
1F
100
AcDbEntity
  8
0
100
AcDbBlockReference
  2
Draufsicht
 10
38.95423123163531
 20
-582.4841554109953
 30
0.0
  0
DIMENSION
  5
524
330
1F
100
AcDbEntity
  8
1
100
AcDbDimension
  2
*D6
 10
48.1030809602764
 20
503.7661567907996
 30
0.0
 11
229.5994521276884
 21
511.7663893068995
 31
0.0
 70
    32
  1
<>
 71
     5
 42
-1.0
 53
0.00013888888889
  3
ME10_DIM_10
100
AcDbAlignedDimension
 13
402.1040080519376
 23
407.9750905206371
 33
0.0
 14
48.10320367938937
 24
407.9746209356346
 34
0.0
 50
0.00007340196795
100
AcDbRotatedDimension
  0
DIMENSION
  5
530
330
1F
100
AcDbEntity
  8
1
100
AcDbDimension
  2
*D7
 10
298.6038439586043
 20
333.9499807372848
 30
0.0
 11
117.9774278624944
 21
341.9497493357027
 31
0.0
 70
   160
  1
<>
 71
     5
 42
-1.0
 53
0.00013888888889
  3
ME10_DIM_11
100
AcDbAlignedDimension
 13
151.6038036185855
 23
365.438412
 33
0.0
 14
298.6038036185855
 24
365.438412
 34
0.0
 50
0.00007340196795
100
AcDbRotatedDimension
  0
DIMENSION
  5
53B
330
1F
100
AcDbEntity
  8
1
100
AcDbDimension
  2
*D8
 10
162.6039801196835
 20
-116.9807901723631
 30
0.0
 11
223.3483272457831
 21
-108.980706746799
 31
0.0
 70
    32
  1
<>
 71
     5
 42
-1.0
 53
0.00013888888889
  3
ME10_DIM_12
100
AcDbAlignedDimension
 13
287.6039409945774
 23
-88.49287199999833
 33
0.0
 14
162.6039409945774
 24
-88.49276899999984
 34
0.0
 50
0.00007868933514
100
AcDbRotatedDimension
  0
DIMENSION
  5
546
330
1F
100
AcDbEntity
  8
1
100
AcDbDimension
  2
*D9
 10
331.863961372574
 20
-49.5615879999999
 30
0.0
 11
323.863961372574
 21
96.0419253424922
 31
0.0
 70
    32
  1
<>
 71
     5
 42
-1.0
 53
90.0
  3
ME10_DIM_13
100
AcDbAlignedDimension
 13
286.1039401059938
 23
260.4195559999978
 33
0.0
 14
268.898169105993
 24
-49.56158799999992
 34
0.0
 50
90.0
100
AcDbRotatedDimension
  0
DIMENSION
  5
551
330
1F
100
AcDbEntity
  8
1
100
AcDbDimension
  2
*D10
 10
410.1040088122707
 20
-49.56158799999992
 30
0.0
 11
402.1040088122707
 21
173.196746070091
 31
0.0
 70
    32
  1
<>
 71
     5
 42
-1.0
 53
90.0
  3
ME10_DIM_14
100
AcDbAlignedDimension
 13
400.1040088122707
 23
415.060705
 33
0.0
 14
268.898169105993
 24
-49.56158799999992
 34
0.0
 50
90.0
100
AcDbRotatedDimension
  0
DIMENSION
  5
55C
330
1F
100
AcDbEntity
  8
1
100
AcDbDimension
  2
*D11
 10
367.079253917198
 20
-49.56158799999992
 30
0.0
 11
359.079253917198
 21
137.478081156561
 31
0.0
 70
    32
  1
<>
 71
     5
 42
-1.0
 53
90.0
  3
ME10_DIM_15
100
AcDbAlignedDimension
 13
305.3538056185855
 23
365.438412
 33
0.0
 14
268.898169105993
 24
-49.56158799999992
 34
0.0
 50
90.0
100
AcDbRotatedDimension
  0
ENDSEC
  0
SECTION
  2
OBJECTS
  0
DICTIONARY
  5
C
330
0
100
AcDbDictionary
281
     1
  3
ACAD_GROUP
350
D
  3
ACAD_LAYOUT
350
1A
  3
ACAD_MLINESTYLE
350
17
  3
ACAD_PLOTSETTINGS
350
19
  3
ACAD_PLOTSTYLENAME
350
E
  3
ACAD_TABLESTYLE
350
55D
  3
ACAD_VISUALSTYLE
350
2A
  0
DICTIONARY
  5
D
102
{ACAD_REACTORS
330
C
102
}
330
C
100
AcDbDictionary
281
     1
  0
DICTIONARY
  5
1A
102
{ACAD_REACTORS
330
C
102
}
330
C
100
AcDbDictionary
281
     1
  3
Layout1
350
1E
  3
Layout2
350
26
  3
Model
350
22
  0
DICTIONARY
  5
17
102
{ACAD_REACTORS
330
C
102
}
330
C
100
AcDbDictionary
281
     1
  3
Standard
350
18
  0
DICTIONARY
  5
19
102
{ACAD_REACTORS
330
C
102
}
330
C
100
AcDbDictionary
281
     1
  0
ACDBDICTIONARYWDFLT
  5
E
102
{ACAD_REACTORS
330
C
102
}
330
C
100
AcDbDictionary
281
     1
  3
Normal
350
F
100
AcDbDictionaryWithDefault
340
F
  0
DICTIONARY
  5
55D
102
{ACAD_REACTORS
330
C
102
}
330
C
100
AcDbDictionary
281
     1
  0
DICTIONARY
  5
2A
102
{ACAD_REACTORS
330
C
102
}
330
C
100
AcDbDictionary
281
     1
  3
2dWireframe
350
2F
  3
3D Hidden
350
31
  3
3dWireframe
350
30
  3
Basic
350
32
  3
Brighten
350
36
  3
ColorChange
350
3A
  3
Conceptual
350
34
  3
Dim
350
35
  3
Facepattern
350
39
  3
Flat
350
2B
  3
FlatWithEdges
350
2C
  3
Gouraud
350
2D
  3
GouraudWithEdges
350
2E
  3
Linepattern
350
38
  3
Realistic
350
33
  3
Thicken
350
37
  0
LAYOUT
  5
1E
102
{ACAD_REACTORS
330
1A
102
}
330
1A
100
AcDbPlotSettings
  1

  2
none_device
  4

  6

 40
0.0
 41
0.0
 42
0.0
 43
0.0
 44
0.0
 45
0.0
 46
0.0
 47
0.0
 48
0.0
 49
0.0
140
0.0
141
0.0
142
1.0
143
1.0
 70
   688
 72
     0
 73
     0
 74
     5
  7

 75
    16
147
1.0
148
0.0
149
0.0
100
AcDbLayout
  1
Layout1
 70
     1
 71
     1
 10
0.0
 20
0.0
 11
12.0
 21
9.0
 12
0.0
 22
0.0
 32
0.0
 14
1.00000000000000E+20
 24
1.00000000000000E+20
 34
1.00000000000000E+20
 15
-1.00000000000000E+20
 25
-1.00000000000000E+20
 35
-1.00000000000000E+20
146
0.0
 13
0.0
 23
0.0
 33
0.0
 16
1.0
 26
0.0
 36
0.0
 17
0.0
 27
1.0
 37
0.0
 76
     0
330
1B
  0
LAYOUT
  5
26
102
{ACAD_REACTORS
330
1A
102
}
330
1A
100
AcDbPlotSettings
  1

  2
none_device
  4

  6

 40
0.0
 41
0.0
 42
0.0
 43
0.0
 44
0.0
 45
0.0
 46
0.0
 47
0.0
 48
0.0
 49
0.0
140
0.0
141
0.0
142
1.0
143
1.0
 70
   688
 72
     0
 73
     0
 74
     5
  7

 75
    16
147
1.0
148
0.0
149
0.0
100
AcDbLayout
  1
Layout2
 70
     1
 71
     2
 10
0.0
 20
0.0
 11
0.0
 21
0.0
 12
0.0
 22
0.0
 32
0.0
 14
0.0
 24
0.0
 34
0.0
 15
0.0
 25
0.0
 35
0.0
146
0.0
 13
0.0
 23
0.0
 33
0.0
 16
1.0
 26
0.0
 36
0.0
 17
0.0
 27
1.0
 37
0.0
 76
     0
330
23
  0
LAYOUT
  5
22
102
{ACAD_REACTORS
330
1A
102
}
330
1A
100
AcDbPlotSettings
  1

  2
none_device
  4

  6

 40
0.0
 41
0.0
 42
0.0
 43
0.0
 44
0.0
 45
0.0
 46
0.0
 47
0.0
 48
0.0
 49
0.0
140
0.0
141
0.0
142
1.0
143
1.0
 70
  1712
 72
     0
 73
     0
 74
     0
  7

 75
     0
147
1.0
148
0.0
149
0.0
100
AcDbLayout
  1
Model
 70
     1
 71
     0
 10
0.0
 20
0.0
 11
12.0
 21
9.0
 12
0.0
 22
0.0
 32
0.0
 14
48.1030783980643
 24
-507.4841554109953
 34
0.0
 15
412.1040088122707
 25
568.080753975988
 35
0.0
146
0.0
 13
0.0
 23
0.0
 33
0.0
 16
1.0
 26
0.0
 36
0.0
 17
0.0
 27
1.0
 37
0.0
 76
     0
330
1F
331
29
  0
MLINESTYLE
  5
18
102
{ACAD_REACTORS
330
17
102
}
330
17
100
AcDbMlineStyle
  2
Standard
 70
     0
  3

 62
   256
 51
90.0
 52
90.0
 71
     2
 49
0.5
 62
   256
  6
BYLAYER
 49
-0.5
 62
   256
  6
BYLAYER
  0
ACDBPLACEHOLDER
  5
F
102
{ACAD_REACTORS
330
E
102
}
330
E
  0
VISUALSTYLE
  5
2F
102
{ACAD_REACTORS
330
2A
102
}
330
2A
100
AcDbVisualStyle
  2
2dWireframe
 70
     4
 71
     0
 72
     2
 73
     0
 90
        0
 40
-0.6
 41
-30.0
 62
     5
 63
     7
 74
     1
 91
        4
 64
     7
 65
   257
 75
     1
175
     1
 42
1.0
 92
        0
 66
   257
 43
1.0
 76
     1
 77
     6
 78
     2
 67
     7
 79
     5
170
     0
171
     0
290
     0
174
     0
 93
        1
 44
0.0
173
     0
291
     0
 45
0.0
1001
ACAD
1000
AcDbSavedByObjectVersion
1070
     0
  0
VISUALSTYLE
  5
31
102
{ACAD_REACTORS
330
2A
102
}
330
2A
100
AcDbVisualStyle
  2
3D Hidden
 70
     6
 71
     1
 72
     2
 73
     2
 90
        0
 40
-0.6
 41
-30.0
 62
     5
 63
     7
 74
     2
 91
        2
 64
     7
 65
   257
 75
     2
175
     1
 42
40.0
 92
        0
 66
   257
 43
1.0
 76
     1
 77
     6
 78
     2
 67
     7
 79
     3
170
     0
171
     0
290
     0
174
     0
 93
        1
 44
0.0
173
     0
291
     0
 45
0.0
1001
ACAD
1000
AcDbSavedByObjectVersion
1070
     0
  0
VISUALSTYLE
  5
30
102
{ACAD_REACTORS
330
2A
102
}
330
2A
100
AcDbVisualStyle
  2
3dWireframe
 70
     5
 71
     0
 72
     2
 73
     0
 90
        0
 40
-0.6
 41
-30.0
 62
     5
 63
     7
 74
     1
 91
        4
 64
     7
 65
   257
 75
     1
175
     1
 42
1.0
 92
        0
 66
   257
 43
1.0
 76
     1
 77
     6
 78
     2
 67
     7
 79
     5
170
     0
171
     0
290
     0
174
     0
 93
        1
 44
0.0
173
     0
291
     0
 45
0.0
1001
ACAD
1000
AcDbSavedByObjectVersion
1070
     0
  0
VISUALSTYLE
  5
32
102
{ACAD_REACTORS
330
2A
102
}
330
2A
100
AcDbVisualStyle
  2
Basic
 70
     7
 71
     1
 72
     0
 73
     1
 90
        0
 40
-0.6
 41
-30.0
 62
     5
 63
     7
 74
     0
 91
        4
 64
     7
 65
   257
 75
     1
175
     1
 42
1.0
 92
        8
 66
     7
 43
1.0
 76
     1
 77
     6
 78
     2
 67
     7
 79
     5
170
     0
171
     0
290
     0
174
     0
 93
        1
 44
0.0
173
     0
291
     1
 45
0.0
1001
ACAD
1000
AcDbSavedByObjectVersion
1070
     0
  0
VISUALSTYLE
  5
36
102
{ACAD_REACTORS
330
2A
102
}
330
2A
100
AcDbVisualStyle
  2
Brighten
 70
    12
 71
     2
 72
     2
 73
     0
 90
        0
 40
-0.6
 41
-30.0
 62
     5
 63
     7
 74
     1
 91
        4
 64
     7
 65
   257
 75
     1
175
     1
 42
1.0
 92
        8
 66
     7
 43
1.0
 76
     1
 77
     6
 78
     2
 67
     7
 79
     5
170
     0
171
     0
290
     0
174
     0
 93
        1
 44
50.0
173
     0
291
     1
 45
0.0
1001
ACAD
1000
AcDbSavedByObjectVersion
1070
     0
  0
VISUALSTYLE
  5
3A
102
{ACAD_REACTORS
330
2A
102
}
330
2A
100
AcDbVisualStyle
  2
ColorChange
 70
    16
 71
     2
 72
     2
 73
     3
 90
        0
 40
-0.6
 41
-30.0
 62
     5
 63
     8
 74
     1
 91
        4
 64
     7
 65
   257
 75
     1
175
     1
 42
1.0
 92
        8
 66
     8
 43
1.0
 76
     1
 77
     6
 78
     2
 67
     7
 79
     5
170
     0
171
     0
290
     0
174
     0
 93
        1
 44
0.0
173
     0
291
     1
 45
0.0
1001
ACAD
1000
AcDbSavedByObjectVersion
1070
     0
  0
VISUALSTYLE
  5
34
102
{ACAD_REACTORS
330
2A
102
}
330
2A
100
AcDbVisualStyle
  2
Conceptual
 70
     9
 71
     3
 72
     2
 73
     0
 90
        0
 40
-0.6
 41
-30.0
 62
     5
 63
     7
 74
     2
 91
        2
 64
     7
 65
   257
 75
     1
175
     1
 42
40.0
 92
        8
 66
     7
 43
1.0
 76
     1
 77
     6
 78
     2
 67
     7
 79
     3
170
     0
171
     0
290
     0
174
     0
 93
        1
 44
0.0
173
     0
291
     0
 45
0.0
1001
ACAD
1000
AcDbSavedByObjectVersion
1070
     0
  0
VISUALSTYLE
  5
35
102
{ACAD_REACTORS
330
2A
102
}
330
2A
100
AcDbVisualStyle
  2
Dim
 70
    11
 71
     2
 72
     2
 73
     0
 90
        0
 40
-0.6
 41
-30.0
 62
     5
 63
     7
 74
     1
 91
        4
 64
     7
 65
   257
 75
     1
175
     1
 42
1.0
 92
        8
 66
     7
 43
1.0
 76
     1
 77
     6
 78
     2
 67
     7
 79
     5
170
     0
171
     0
290
     0
174
     0
 93
        1
 44
-50.0
173
     0
291
     1
 45
0.0
1001
ACAD
1000
AcDbSavedByObjectVersion
1070
     0
  0
VISUALSTYLE
  5
39
102
{ACAD_REACTORS
330
2A
102
}
330
2A
100
AcDbVisualStyle
  2
Facepattern
 70
    15
 71
     2
 72
     2
 73
     0
 90
        0
 40
-0.6
 41
-30.0
 62
     5
 63
     7
 74
     1
 91
        4
 64
     7
 65
   257
 75
     1
175
     1
 42
1.0
 92
        8
 66
     7
 43
1.0
 76
     1
 77
     6
 78
     2
 67
     7
 79
     5
170
     0
171
     0
290
     0
174
     0
 93
        1
 44
0.0
173
     0
291
     1
 45
0.0
1001
ACAD
1000
AcDbSavedByObjectVersion
1070
     0
  0
VISUALSTYLE
  5
2B
102
{ACAD_REACTORS
330
2A
102
}
330
2A
100
AcDbVisualStyle
  2
Flat
 70
     0
 71
     2
 72
     1
 73
     1
 90
        2
 40
-0.6
 41
30.0
 62
     5
 63
     7
 74
     0
 91
        4
 64
     7
 65
   257
 75
     1
175
     1
 42
1.0
 92
        8
 66
     7
 43
1.0
 76
     1
 77
     6
 78
     2
 67
     7
 79
     5
170
     0
171
     0
290
     0
174
     0
 93
       13
 44
0.0
173
     0
291
     1
 45
0.0
1001
ACAD
1000
AcDbSavedByObjectVersion
1070
     0
  0
VISUALSTYLE
  5
2C
102
{ACAD_REACTORS
330
2A
102
}
330
2A
100
AcDbVisualStyle
  2
FlatWithEdges
 70
     1
 71
     2
 72
     1
 73
     1
 90
        2
 40
-0.6
 41
30.0
 62
     5
 63
     7
 74
     1
 91
        4
 64
     7
 65
   257
 75
     1
175
     1
 42
1.0
 92
        0
 66
   257
 43
1.0
 76
     1
 77
     6
 78
     2
 67
     7
 79
     5
170
     0
171
     0
290
     0
174
     0
 93
       13
 44
0.0
173
     0
291
     1
 45
0.0
1001
ACAD
1000
AcDbSavedByObjectVersion
1070
     0
  0
VISUALSTYLE
  5
2D
102
{ACAD_REACTORS
330
2A
102
}
330
2A
100
AcDbVisualStyle
  2
Gouraud
 70
     2
 71
     2
 72
     2
 73
     1
 90
        2
 40
-0.6
 41
30.0
 62
     5
 63
     7
 74
     0
 91
        4
 64
     7
 65
   257
 75
     1
175
     1
 42
1.0
 92
        0
 66
     7
 43
1.0
 76
     1
 77
     6
 78
     2
 67
     7
 79
     5
170
     0
171
     0
290
     0
174
     0
 93
       13
 44
0.0
173
     0
291
     1
 45
0.0
1001
ACAD
1000
AcDbSavedByObjectVersion
1070
     0
  0
VISUALSTYLE
  5
2E
102
{ACAD_REACTORS
330
2A
102
}
330
2A
100
AcDbVisualStyle
  2
GouraudWithEdges
 70
     3
 71
     2
 72
     2
 73
     1
 90
        2
 40
-0.6
 41
30.0
 62
     5
 63
     7
 74
     1
 91
        4
 64
     7
 65
   257
 75
     1
175
     1
 42
1.0
 92
        0
 66
   257
 43
1.0
 76
     1
 77
     6
 78
     2
 67
     7
 79
     5
170
     0
171
     0
290
     0
174
     0
 93
       13
 44
0.0
173
     0
291
     1
 45
0.0
1001
ACAD
1000
AcDbSavedByObjectVersion
1070
     0
  0
VISUALSTYLE
  5
38
102
{ACAD_REACTORS
330
2A
102
}
330
2A
100
AcDbVisualStyle
  2
Linepattern
 70
    14
 71
     2
 72
     2
 73
     0
 90
        0
 40
-0.6
 41
-30.0
 62
     5
 63
     7
 74
     1
 91
        4
 64
     7
 65
   257
 75
     7
175
     7
 42
1.0
 92
        8
 66
     7
 43
1.0
 76
     1
 77
     6
 78
     2
 67
     7
 79
     5
170
     0
171
     0
290
     0
174
     0
 93
        1
 44
0.0
173
     0
291
     1
 45
0.0
1001
ACAD
1000
AcDbSavedByObjectVersion
1070
     0
  0
VISUALSTYLE
  5
33
102
{ACAD_REACTORS
330
2A
102
}
330
2A
100
AcDbVisualStyle
  2
Realistic
 70
     8
 71
     2
 72
     2
 73
     0
 90
        0
 40
-0.6
 41
-30.0
 62
     5
 63
     7
 74
     1
 91
        0
 64
     7
 65
   257
 75
     1
175
     1
 42
1.0
 92
        8
 66
     8
 43
1.0
 76
     1
 77
     6
 78
     2
 67
     7
 79
     5
170
     0
171
     0
290
     0
174
     0
 93
       13
 44
0.0
173
     0
291
     0
 45
0.0
1001
ACAD
1000
AcDbSavedByObjectVersion
1070
     0
  0
VISUALSTYLE
  5
37
102
{ACAD_REACTORS
330
2A
102
}
330
2A
100
AcDbVisualStyle
  2
Thicken
 70
    13
 71
     2
 72
     2
 73
     0
 90
        0
 40
-0.6
 41
-30.0
 62
     5
 63
     7
 74
     1
 91
        4
 64
     7
 65
   257
 75
     1
175
     1
 42
1.0
 92
       12
 66
     7
 43
1.0
 76
     1
 77
     6
 78
     2
 67
     7
 79
     5
170
     0
171
     0
290
     0
174
     0
 93
        1
 44
0.0
173
     0
291
     1
 45
0.0
1001
ACAD
1000
AcDbSavedByObjectVersion
1070
     0
  0
ENDSEC
  0
EOF
