  0
SECTION
  2
HEADER
  9
$ACADVER
  1
AC1015
  9
$ACADMAINTVER
 70
     6
  9
$DWGCODEPAGE
  3
ANSI_1252
  9
$INSBASE
 10
0.0
 20
0.0
 30
0.0
  9
$EXTMIN
 10
-225.7847865159922
 20
-181.577223477794
 30
0.0
  9
$EXTMAX
 10
319.997504164767
 20
41.80215884570909
 30
0.0
  9
$LIMMIN
 10
0.0
 20
0.0
  9
$LIMMAX
 10
12.0
 20
9.0
  9
$ORTHOMODE
 70
     0
  9
$REGENMODE
 70
     1
  9
$FILLMODE
 70
     1
  9
$QTEXTMODE
 70
     0
  9
$MIRRTEXT
 70
     1
  9
$LTSCALE
 40
1.0
  9
$ATTMODE
 70
     1
  9
$TEXTSIZE
 40
0.2
  9
$TRACEWID
 40
0.05
  9
$TEXTSTYLE
  7
Standard
  9
$CLAYER
  8
0
  9
$CELTYPE
  6
ByLayer
  9
$CECOLOR
 62
   256
  9
$CELTSCALE
 40
1.0
  9
$DISPSILH
 70
     0
  9
$DIMSCALE
 40
1.0
  9
$DIMASZ
 40
0.18
  9
$DIMEXO
 40
0.0625
  9
$DIMDLI
 40
0.38
  9
$DIMRND
 40
0.0
  9
$DIMDLE
 40
0.0
  9
$DIMEXE
 40
0.18
  9
$DIMTP
 40
0.0
  9
$DIMTM
 40
0.0
  9
$DIMTXT
 40
0.18
  9
$DIMCEN
 40
0.09
  9
$DIMTSZ
 40
0.0
  9
$DIMTOL
 70
     0
  9
$DIMLIM
 70
     0
  9
$DIMTIH
 70
     1
  9
$DIMTOH
 70
     1
  9
$DIMSE1
 70
     0
  9
$DIMSE2
 70
     0
  9
$DIMTAD
 70
     0
  9
$DIMZIN
 70
     0
  9
$DIMBLK
  1

  9
$DIMASO
 70
     1
  9
$DIMSHO
 70
     1
  9
$DIMPOST
  1

  9
$DIMAPOST
  1

  9
$DIMALT
 70
     0
  9
$DIMALTD
 70
     2
  9
$DIMALTF
 40
25.4
  9
$DIMLFAC
 40
1.0
  9
$DIMTOFL
 70
     0
  9
$DIMTVP
 40
0.0
  9
$DIMTIX
 70
     0
  9
$DIMSOXD
 70
     0
  9
$DIMSAH
 70
     0
  9
$DIMBLK1
  1

  9
$DIMBLK2
  1

  9
$DIMSTYLE
  2
Standard
  9
$DIMCLRD
 70
     0
  9
$DIMCLRE
 70
     0
  9
$DIMCLRT
 70
     0
  9
$DIMTFAC
 40
1.0
  9
$DIMGAP
 40
0.09
  9
$DIMJUST
 70
     0
  9
$DIMSD1
 70
     0
  9
$DIMSD2
 70
     0
  9
$DIMTOLJ
 70
     1
  9
$DIMTZIN
 70
     0
  9
$DIMALTZ
 70
     0
  9
$DIMALTTZ
 70
     0
  9
$DIMUPT
 70
     0
  9
$DIMDEC
 70
     4
  9
$DIMTDEC
 70
     4
  9
$DIMALTU
 70
     2
  9
$DIMALTTD
 70
     2
  9
$DIMTXSTY
  7
Standard
  9
$DIMAUNIT
 70
     0
  9
$DIMADEC
 70
     0
  9
$DIMALTRND
 40
0.0
  9
$DIMAZIN
 70
     0
  9
$DIMDSEP
 70
    46
  9
$DIMATFIT
 70
     3
  9
$DIMFRAC
 70
     0
  9
$DIMLDRBLK
  1

  9
$DIMLUNIT
 70
     2
  9
$DIMLWD
 70
    -2
  9
$DIMLWE
 70
    -2
  9
$DIMTMOVE
 70
     0
  9
$LUNITS
 70
     2
  9
$LUPREC
 70
     4
  9
$SKETCHINC
 40
0.1
  9
$FILLETRAD
 40
0.5
  9
$AUNITS
 70
     0
  9
$AUPREC
 70
     0
  9
$MENU
  1
.
  9
$ELEVATION
 40
0.0
  9
$PELEVATION
 40
0.0
  9
$THICKNESS
 40
0.0
  9
$LIMCHECK
 70
     0
  9
$CHAMFERA
 40
0.5
  9
$CHAMFERB
 40
0.5
  9
$CHAMFERC
 40
1.0
  9
$CHAMFERD
 40
0.0
  9
$SKPOLY
 70
     0
  9
$TDCREATE
 40
2454704.496384722
  9
$TDUCREATE
 40
2454704.413051389
  9
$TDUPDATE
 40
2454704.496384734
  9
$TDUUPDATE
 40
2454704.4130514
  9
$TDINDWG
 40
0.0000000116
  9
$TDUSRTIMER
 40
0.0000000116
  9
$USRTIMER
 70
     1
  9
$ANGBASE
 50
0.0
  9
$ANGDIR
 70
     0
  9
$PDMODE
 70
     0
  9
$PDSIZE
 40
0.0
  9
$PLINEWID
 40
0.0
  9
$SPLFRAME
 70
     0
  9
$SPLINETYPE
 70
     6
  9
$SPLINESEGS
 70
     8
  9
$HANDSEED
  5
190
  9
$SURFTAB1
 70
     6
  9
$SURFTAB2
 70
     6
  9
$SURFTYPE
 70
     6
  9
$SURFU
 70
     6
  9
$SURFV
 70
     6
  9
$UCSBASE
  2

  9
$UCSNAME
  2

  9
$UCSORG
 10
0.0
 20
0.0
 30
0.0
  9
$UCSXDIR
 10
1.0
 20
0.0
 30
0.0
  9
$UCSYDIR
 10
0.0
 20
1.0
 30
0.0
  9
$UCSORTHOREF
  2

  9
$UCSORTHOVIEW
 70
     0
  9
$UCSORGTOP
 10
0.0
 20
0.0
 30
0.0
  9
$UCSORGBOTTOM
 10
0.0
 20
0.0
 30
0.0
  9
$UCSORGLEFT
 10
0.0
 20
0.0
 30
0.0
  9
$UCSORGRIGHT
 10
0.0
 20
0.0
 30
0.0
  9
$UCSORGFRONT
 10
0.0
 20
0.0
 30
0.0
  9
$UCSORGBACK
 10
0.0
 20
0.0
 30
0.0
  9
$PUCSBASE
  2

  9
$PUCSNAME
  2

  9
$PUCSORG
 10
0.0
 20
0.0
 30
0.0
  9
$PUCSXDIR
 10
1.0
 20
0.0
 30
0.0
  9
$PUCSYDIR
 10
0.0
 20
1.0
 30
0.0
  9
$PUCSORTHOREF
  2

  9
$PUCSORTHOVIEW
 70
     0
  9
$PUCSORGTOP
 10
0.0
 20
0.0
 30
0.0
  9
$PUCSORGBOTTOM
 10
0.0
 20
0.0
 30
0.0
  9
$PUCSORGLEFT
 10
0.0
 20
0.0
 30
0.0
  9
$PUCSORGRIGHT
 10
0.0
 20
0.0
 30
0.0
  9
$PUCSORGFRONT
 10
0.0
 20
0.0
 30
0.0
  9
$PUCSORGBACK
 10
0.0
 20
0.0
 30
0.0
  9
$USERI1
 70
     0
  9
$USERI2
 70
     0
  9
$USERI3
 70
     0
  9
$USERI4
 70
     0
  9
$USERI5
 70
     0
  9
$USERR1
 40
15.5
  9
$USERR2
 40
0.0
  9
$USERR3
 40
0.0
  9
$USERR4
 40
0.0
  9
$USERR5
 40
0.0
  9
$WORLDVIEW
 70
     1
  9
$SHADEDGE
 70
     3
  9
$SHADEDIF
 70
    70
  9
$TILEMODE
 70
     1
  9
$MAXACTVP
 70
    64
  9
$PINSBASE
 10
0.0
 20
0.0
 30
0.0
  9
$PLIMCHECK
 70
     0
  9
$PEXTMIN
 10
1.00000000000000E+20
 20
1.00000000000000E+20
 30
1.00000000000000E+20
  9
$PEXTMAX
 10
-1.00000000000000E+20
 20
-1.00000000000000E+20
 30
-1.00000000000000E+20
  9
$PLIMMIN
 10
0.0
 20
0.0
  9
$PLIMMAX
 10
12.0
 20
9.0
  9
$UNITMODE
 70
     0
  9
$VISRETAIN
 70
     1
  9
$PLINEGEN
 70
     0
  9
$PSLTSCALE
 70
     1
  9
$TREEDEPTH
 70
  3020
  9
$CMLSTYLE
  2
Standard
  9
$CMLJUST
 70
     0
  9
$CMLSCALE
 40
1.0
  9
$PROXYGRAPHICS
 70
     1
  9
$MEASUREMENT
 70
     1
  9
$CELWEIGHT
370
    -1
  9
$ENDCAPS
280
     0
  9
$JOINSTYLE
280
     0
  9
$LWDISPLAY
290
     0
  9
$INSUNITS
 70
     1
  9
$HYPERLINKBASE
  1

  9
$STYLESHEET
  1

  9
$XEDIT
290
     1
  9
$CEPSNTYPE
380
     0
  9
$PSTYLEMODE
290
     1
  9
$FINGERPRINTGUID
  2
{12006641-FAE5-46CB-BC8D-B0B4E0201C03}
  9
$VERSIONGUID
  2
{FAEB1C32-E019-11D5-929B-00C0DF256EC4}
  9
$EXTNAMES
290
     1
  9
$PSVPSCALE
 40
0.0
  9
$OLESTARTUP
290
     0
  0
ENDSEC
  0
SECTION
  2
CLASSES
  0
CLASS
  1
ACDBDICTIONARYWDFLT
  2
AcDbDictionaryWithDefault
  3
ObjectDBX Classes
 90
        0
280
     0
281
     0
  0
CLASS
  1
VISUALSTYLE
  2
AcDbVisualStyle
  3
ObjectDBX Classes
 90
     4095
280
     0
281
     0
  0
CLASS
  1

  2
exOdDbCircle
  3

 90
        0
280
     0
281
     1
  0
CLASS
  1

  2
exOdDbSpline
  3

 90
        0
280
     0
281
     1
  0
CLASS
  1
ACDBPLACEHOLDER
  2
AcDbPlaceHolder
  3
ObjectDBX Classes
 90
        0
280
     0
281
     0
  0
CLASS
  1
LAYOUT
  2
AcDbLayout
  3
ObjectDBX Classes
 90
        0
280
     0
281
     0
  0
ENDSEC
  0
SECTION
  2
TABLES
  0
TABLE
  2
VPORT
  5
8
330
0
100
AcDbSymbolTable
 70
     1
  0
VPORT
  5
29
330
8
100
AcDbSymbolTableRecord
100
AcDbViewportTableRecord
  2
*Active
 70
     0
 10
0.0
 20
0.0
 11
1.0
 21
1.0
 12
47.1063588243874
 22
-69.88753231604247
 13
0.0
 23
0.0
 14
0.5
 24
0.5
 15
0.5
 25
0.5
 16
0.0
 26
0.0
 36
1.0
 17
0.0
 27
0.0
 37
0.0
 40
374.5982073084655
 41
1.60267857142857
 42
50.0
 43
0.0
 44
0.0
 50
0.0
 51
0.0
 71
     0
 72
   100
 73
     1
 74
     3
 75
     0
 76
     0
 77
     0
 78
     0
281
     0
 65
     1
110
0.0
120
0.0
130
0.0
111
1.0
121
0.0
131
0.0
112
0.0
122
1.0
132
0.0
 79
     0
146
0.0
  0
ENDTAB
  0
TABLE
  2
LTYPE
  5
5
330
0
100
AcDbSymbolTable
 70
     8
  0
LTYPE
  5
14
330
5
100
AcDbSymbolTableRecord
100
AcDbLinetypeTableRecord
  2
ByBlock
 70
     0
  3

 72
    65
 73
     0
 40
0.0
  0
LTYPE
  5
15
330
5
100
AcDbSymbolTableRecord
100
AcDbLinetypeTableRecord
  2
ByLayer
 70
     0
  3

 72
    65
 73
     0
 40
0.0
  0
LTYPE
  5
16
330
5
100
AcDbSymbolTableRecord
100
AcDbLinetypeTableRecord
  2
Continuous
 70
     0
  3
Solid line
 72
    65
 73
     0
 40
0.0
  0
LTYPE
  5
3B
330
5
100
AcDbSymbolTableRecord
100
AcDbLinetypeTableRecord
  2
DASHED
 70
     0
  3
Dashed
 72
    65
 73
     2
 40
15.0
 49
7.0
 74
     0
 49
-8.0
 74
     0
  0
LTYPE
  5
3C
330
5
100
AcDbSymbolTableRecord
100
AcDbLinetypeTableRecord
  2
DOTTED
 70
     0
  3
Dotted
 72
    65
 73
     2
 40
1.0
 49
0.0
 74
     0
 49
-1.0
 74
     0
  0
LTYPE
  5
3D
330
5
100
AcDbSymbolTableRecord
100
AcDbLinetypeTableRecord
  2
DOT_CENTER
 70
     0
  3
Dot_Center
 72
    65
 73
     4
 40
14.0
 49
12.0
 74
     0
 49
-1.0
 74
     0
 49
0.0
 74
     0
 49
-1.0
 74
     0
  0
LTYPE
  5
3E
330
5
100
AcDbSymbolTableRecord
100
AcDbLinetypeTableRecord
  2
LONG_DASHED
 70
     0
  3
Long_Dashed
 72
    65
 73
     2
 40
15.0
 49
10.0
 74
     0
 49
-5.0
 74
     0
  0
LTYPE
  5
3F
330
5
100
AcDbSymbolTableRecord
100
AcDbLinetypeTableRecord
  2
DASH_CENTER
 70
     0
  3
Dash_Center
 72
    65
 73
     4
 40
14.0
 49
11.0
 74
     0
 49
-1.0
 74
     0
 49
1.0
 74
     0
 49
-1.0
 74
     0
  0
LTYPE
  5
40
330
5
100
AcDbSymbolTableRecord
100
AcDbLinetypeTableRecord
  2
PHANTOM
 70
     0
  3
Phantom
 72
    65
 73
     6
 40
13.0
 49
10.0
 74
     0
 49
-1.0
 74
     0
 49
0.0
 74
     0
 49
-1.0
 74
     0
 49
0.0
 74
     0
 49
-1.0
 74
     0
  0
LTYPE
  5
41
330
5
100
AcDbSymbolTableRecord
100
AcDbLinetypeTableRecord
  2
CENTER_DASH_DASH
 70
     0
  3
Center_Dash_Dash
 72
    65
 73
     6
 40
14.0
 49
9.0
 74
     0
 49
-1.0
 74
     0
 49
1.0
 74
     0
 49
-1.0
 74
     0
 49
1.0
 74
     0
 49
-1.0
 74
     0
  0
ENDTAB
  0
TABLE
  2
LAYER
  5
2
330
0
100
AcDbSymbolTable
 70
     2
  0
LAYER
  5
10
330
2
100
AcDbSymbolTableRecord
100
AcDbLayerTableRecord
  2
0
 70
     0
 62
     7
  6
Continuous
370
    -3
390
F
  0
LAYER
  5
42
330
2
100
AcDbSymbolTableRecord
100
AcDbLayerTableRecord
  2
1
 70
     0
 62
     7
  6
Continuous
370
    -3
390
F
  0
ENDTAB
  0
TABLE
  2
STYLE
  5
3
330
0
100
AcDbSymbolTable
 70
     2
  0
STYLE
  5
11
330
3
100
AcDbSymbolTableRecord
100
AcDbTextStyleTableRecord
  2
Standard
 70
     0
 40
0.0
 41
1.0
 50
0.0
 71
     0
 42
0.2
  3
txt
  4

  0
STYLE
  5
13A
330
3
100
AcDbSymbolTableRecord
100
AcDbTextStyleTableRecord
  2
CONVERTER_11
 70
     0
 40
0.0
 41
0.9
 50
0.0
 71
     0
 42
0.2
  3
txt.shx
  4

  0
ENDTAB
  0
TABLE
  2
VIEW
  5
6
330
0
100
AcDbSymbolTable
 70
     0
  0
ENDTAB
  0
TABLE
  2
UCS
  5
7
330
0
100
AcDbSymbolTable
 70
     0
  0
ENDTAB
  0
TABLE
  2
APPID
  5
9
330
0
100
AcDbSymbolTable
 70
     1
  0
APPID
  5
12
330
9
100
AcDbSymbolTableRecord
100
AcDbRegAppTableRecord
  2
ACAD
 70
     0
  0
ENDTAB
  0
TABLE
  2
DIMSTYLE
  5
A
330
0
100
AcDbSymbolTable
 70
     9
100
AcDbDimStyleTable
  0
DIMSTYLE
105
27
330
A
100
AcDbSymbolTableRecord
100
AcDbDimStyleTableRecord
  2
Standard
 70
     0
340
11
  0
DIMSTYLE
105
13E
102
{ACAD_REACTORS
330
13F
102
}
330
A
100
AcDbSymbolTableRecord
100
AcDbDimStyleTableRecord
  2
ME10_DIM_10
 70
     0
  3
Ø<>
 41
10.0
 42
0.0
 44
2.0
 73
     0
 74
     0
 77
     1
 78
     8
140
10.0
147
2.0
172
     1
173
     1
176
     4
177
     4
178
     1
271
     2
340
13A
  0
DIMSTYLE
105
149
102
{ACAD_REACTORS
330
14A
102
}
330
A
100
AcDbSymbolTableRecord
100
AcDbDimStyleTableRecord
  2
ME10_DIM_11
 70
     0
  3
Ø<>
 41
10.0
 42
0.0
 44
2.0
 73
     0
 74
     0
 77
     1
 78
     8
140
10.0
147
2.0
172
     1
173
     1
176
     4
177
     4
178
     1
271
     2
340
13A
  0
DIMSTYLE
105
154
102
{ACAD_REACTORS
330
155
102
}
330
A
100
AcDbSymbolTableRecord
100
AcDbDimStyleTableRecord
  2
ME10_DIM_12
 70
     0
  3
DN<>
 41
10.0
 42
0.0
 44
2.0
 73
     0
 74
     0
 77
     1
 78
     8
140
10.0
147
2.0
172
     1
173
     1
176
     4
177
     4
178
     1
271
     2
340
13A
  0
DIMSTYLE
105
160
102
{ACAD_REACTORS
330
161
102
}
330
A
100
AcDbSymbolTableRecord
100
AcDbDimStyleTableRecord
  2
ME10_DIM_13
 70
     0
  3
DN<>
 41
10.0
 42
0.0
 44
2.0
 73
     0
 74
     0
 77
     1
 78
     8
140
10.0
147
2.0
172
     1
173
     1
176
     4
177
     4
178
     1
271
     2
340
13A
  0
DIMSTYLE
105
16C
102
{ACAD_REACTORS
330
16D
102
}
330
A
100
AcDbSymbolTableRecord
100
AcDbDimStyleTableRecord
  2
ME10_DIM_14
 70
     0
  3
DN<>
 41
10.0
 42
0.0
 44
2.0
 73
     0
 74
     0
 77
     1
 78
     8
140
10.0
147
2.0
172
     1
173
     1
176
     4
177
     4
178
     1
271
     2
340
13A
  0
DIMSTYLE
105
177
102
{ACAD_REACTORS
330
178
102
}
330
A
100
AcDbSymbolTableRecord
100
AcDbDimStyleTableRecord
  2
ME10_DIM_15
 70
     0
  3
DN<>
 41
10.0
 42
0.0
 44
2.0
 73
     0
 74
     0
 77
     1
 78
     8
140
10.0
147
2.0
172
     1
173
     1
176
     4
177
     4
178
     1
271
     2
340
13A
  0
DIMSTYLE
105
182
102
{ACAD_REACTORS
330
183
102
}
330
A
100
AcDbSymbolTableRecord
100
AcDbDimStyleTableRecord
  2
ME10_DIM_16
 70
     0
 41
10.0
 42
0.0
 44
2.0
 73
     0
 74
     0
 77
     1
 78
     8
140
10.0
147
2.0
172
     1
173
     1
176
     4
177
     4
178
     1
271
     2
340
13A
  0
DIMSTYLE
105
18D
102
{ACAD_REACTORS
330
18E
102
}
330
A
100
AcDbSymbolTableRecord
100
AcDbDimStyleTableRecord
  2
ME10_DIM_17
 70
     0
 41
10.0
 42
0.0
 44
2.0
 73
     0
 74
     0
 77
     1
 78
     8
140
10.0
147
2.0
172
     1
173
     1
176
     4
177
     4
178
     1
271
     2
340
13A
  0
ENDTAB
  0
TABLE
  2
BLOCK_RECORD
  5
1
330
0
100
AcDbSymbolTable
 70
    11
  0
BLOCK_RECORD
  5
1F
330
1
100
AcDbSymbolTableRecord
100
AcDbBlockTableRecord
  2
*Model_Space
340
22
  0
BLOCK_RECORD
  5
1B
330
1
100
AcDbSymbolTableRecord
100
AcDbBlockTableRecord
  2
*Paper_Space
340
1E
  0
BLOCK_RECORD
  5
23
330
1
100
AcDbSymbolTableRecord
100
AcDbBlockTableRecord
  2
*Paper_Space0
340
26
  0
BLOCK_RECORD
  5
43
330
1
100
AcDbSymbolTableRecord
100
AcDbBlockTableRecord
  2
0317_4E_Reduktion_DN75-110
340
0
102
{BLKREFS
331
47
102
}
  0
BLOCK_RECORD
  5
46
330
1
100
AcDbSymbolTableRecord
100
AcDbBlockTableRecord
  2
HL70K_Bodenablaufkörper_komplett__1
340
0
102
{BLKREFS
331
4A
102
}
  0
BLOCK_RECORD
  5
134
330
1
100
AcDbSymbolTableRecord
100
AcDbBlockTableRecord
  2
*D3
340
0
  0
BLOCK_RECORD
  5
140
330
1
100
AcDbSymbolTableRecord
100
AcDbBlockTableRecord
  2
*D4
340
0
  0
BLOCK_RECORD
  5
14B
330
1
100
AcDbSymbolTableRecord
100
AcDbBlockTableRecord
  2
*D5
340
0
  0
BLOCK_RECORD
  5
156
330
1
100
AcDbSymbolTableRecord
100
AcDbBlockTableRecord
  2
*D6
340
0
  0
BLOCK_RECORD
  5
162
330
1
100
AcDbSymbolTableRecord
100
AcDbBlockTableRecord
  2
*D7
340
0
  0
BLOCK_RECORD
  5
16E
330
1
100
AcDbSymbolTableRecord
100
AcDbBlockTableRecord
  2
*D8
340
0
  0
BLOCK_RECORD
  5
179
330
1
100
AcDbSymbolTableRecord
100
AcDbBlockTableRecord
  2
*D9
340
0
  0
BLOCK_RECORD
  5
184
330
1
100
AcDbSymbolTableRecord
100
AcDbBlockTableRecord
  2
*D10
340
0
  0
ENDTAB
  0
ENDSEC
  0
SECTION
  2
BLOCKS
  0
BLOCK
  5
20
330
1F
100
AcDbEntity
  8
0
100
AcDbBlockBegin
  2
*Model_Space
 70
     0
 71
     0
 10
0.0
 20
0.0
 30
0.0
  3
*Model_Space
  1

  0
ENDBLK
  5
21
330
1F
100
AcDbEntity
  8
0
100
AcDbBlockEnd
  0
BLOCK
  5
1C
330
1B
100
AcDbEntity
 67
     1
  8
0
100
AcDbBlockBegin
  2
*Paper_Space
 70
     0
 71
     0
 10
0.0
 20
0.0
 30
0.0
  3
*Paper_Space
  1

  0
ENDBLK
  5
1D
330
1B
100
AcDbEntity
 67
     1
  8
0
100
AcDbBlockEnd
  0
BLOCK
  5
24
330
23
100
AcDbEntity
  8
0
100
AcDbBlockBegin
  2
*Paper_Space0
 70
     0
 71
     0
 10
0.0
 20
0.0
 30
0.0
  3
*Paper_Space0
  1

  0
ENDBLK
  5
25
330
23
100
AcDbEntity
  8
0
100
AcDbBlockEnd
  0
BLOCK
  5
44
330
43
100
AcDbEntity
  8
0
100
AcDbBlockBegin
  2
0317_4E_Reduktion_DN75-110
 70
     0
 71
     0
 10
204.5160159491336
 20
-142.3890475527651
 30
0.0
  3
0317_4E_Reduktion_DN75-110
  1

  0
LINE
  5
4B
330
43
100
AcDbEntity
  8
0
  6
Continuous
 62
     7
100
AcDbLine
 10
298.0736611631889
 20
-144.6870649664044
 30
0.0
 11
302.7794984647844
 21
-36.90567070160248
 31
0.0
  0
LINE
  5
4C
330
43
100
AcDbEntity
  8
0
  6
Continuous
 62
     7
100
AcDbLine
 10
292.033224179402
 20
-145.4823036968136
 30
0.0
 11
296.8313567895889
 21
-35.58699932280928
 31
0.0
  0
LINE
  5
4D
330
43
100
AcDbEntity
  8
0
  6
Continuous
 62
     7
100
AcDbLine
 10
222.8239304989366
 20
-125.8447461029814
 30
0.0
 11
226.6973320969785
 21
-37.12926402651226
 31
0.0
  0
LINE
  5
4E
330
43
100
AcDbEntity
  8
0
  6
Continuous
 62
     7
100
AcDbLine
 10
222.1870874434027
 20
-140.4308501380763
 30
0.0
 11
222.8239304989366
 21
-125.8447461029814
 31
0.0
  0
LINE
  5
4F
330
43
100
AcDbEntity
  8
0
  6
Continuous
 62
     7
100
AcDbLine
 10
226.6973320969785
 20
-37.12926402651226
 30
0.0
 11
217.7768984617531
 21
-36.73978948284548
 31
0.0
  0
LINE
  5
50
330
43
100
AcDbEntity
  8
0
  6
Continuous
 62
     7
100
AcDbLine
 10
213.9034968637112
 20
-125.4552715593146
 30
0.0
 11
217.7768984617531
 21
-36.73978948284548
 31
0.0
  0
LINE
  5
51
330
43
100
AcDbEntity
  8
0
  6
Continuous
 62
     7
100
AcDbLine
 10
211.5371312237893
 20
-40.47116610235966
 30
0.0
 11
214.1808504868482
 21
-38.04864390670429
 31
0.0
  0
LINE
  5
52
330
43
100
AcDbEntity
  8
0
  6
Continuous
 62
     7
100
AcDbLine
 10
210.4352071164874
 20
-123.8379814894834
 30
0.0
 11
214.1808504868482
 21
-38.04864390670429
 31
0.0
  0
LINE
  5
53
330
43
100
AcDbEntity
  8
0
  6
Continuous
 62
     7
100
AcDbLine
 10
222.8239304989366
 20
-125.8447461029814
 30
0.0
 11
213.9034968637112
 21
-125.4552715593146
 31
0.0
  0
LINE
  5
54
330
43
100
AcDbEntity
  8
0
  6
Continuous
 62
     7
100
AcDbLine
 10
292.033224179402
 20
-145.4823036968136
 30
0.0
 11
224.0979451118359
 21
-142.5161853559707
 31
0.0
  0
LINE
  5
55
330
43
100
AcDbEntity
  8
0
  6
Continuous
 62
     7
100
AcDbLine
 10
298.0736611631889
 20
-144.6870649664044
 30
0.0
 11
292.033224179402
 21
-145.4823036968136
 31
0.0
  0
LINE
  5
56
330
43
100
AcDbEntity
  8
0
  6
Continuous
 62
     7
100
AcDbLine
 10
208.0126847246702
 20
-121.1942624061738
 30
0.0
 11
211.5371312237893
 21
-40.47116610235966
 31
0.0
  0
LINE
  5
57
330
43
100
AcDbEntity
  8
0
  6
Continuous
 62
     7
100
AcDbLine
 10
208.0126847246702
 20
-121.1942624061738
 30
0.0
 11
210.4352071164874
 21
-123.8379814894834
 31
0.0
  0
LINE
  5
58
330
43
100
AcDbEntity
  8
0
  6
Continuous
 62
     7
100
AcDbLine
 10
204.5160159491336
 20
-121.0415945503952
 30
0.0
 11
208.0404624482528
 21
-40.31849824658099
 31
0.0
  0
LINE
  5
59
330
43
100
AcDbEntity
  8
0
  6
Continuous
 62
     7
100
AcDbLine
 10
226.6973320969785
 20
-37.12926402651226
 30
0.0
 11
226.8107425041284
 21
-34.53173865039946
 31
0.0
  0
LINE
  5
5A
330
43
100
AcDbEntity
  8
0
  6
Continuous
 62
     7
100
AcDbLine
 10
296.8313567895889
 20
-35.58699932280928
 30
0.0
 11
228.8960777220228
 21
-32.62088098196648
 31
0.0
  0
LINE
  5
5B
330
43
100
AcDbEntity
  8
0
  6
Continuous
 62
     7
100
AcDbLine
 10
224.0979451118359
 20
-142.5161853559707
 30
0.0
 11
228.8960777220228
 21
-32.62088098196648
 31
0.0
  0
LINE
  5
5C
330
43
100
AcDbEntity
  8
0
  6
Continuous
 62
     7
100
AcDbLine
 10
302.7794984647844
 20
-36.90567070160248
 30
0.0
 11
296.8313567895889
 21
-35.58699932280928
 31
0.0
  0
LINE
  5
5D
330
43
100
AcDbEntity
  8
0
  6
Continuous
 62
     7
100
AcDbLine
 10
208.0126847246702
 20
-121.1942624061738
 30
0.0
 11
204.5160159491336
 21
-121.0415945503952
 31
0.0
  0
LINE
  5
5E
330
43
100
AcDbEntity
  8
0
  6
Continuous
 62
     7
100
AcDbLine
 10
211.5371312237893
 20
-40.47116610235966
 30
0.0
 11
208.0404624482528
 21
-40.31849824658099
 31
0.0
  0
LINE
  5
5F
330
43
100
AcDbEntity
  8
1
  6
PHANTOM
 62
     2
100
AcDbLine
 10
234.3748991473451
 20
-81.90677306442606
 30
0.0
 11
201.1051098940023
 21
-80.45418269525749
 31
0.0
  0
LINE
  5
60
330
43
100
AcDbEntity
  8
1
  6
PHANTOM
 62
     2
100
AcDbLine
 10
301.3553390697329
 20
-90.83691833884433
 30
0.0
 11
219.8630243639319
 21
-87.27888703899188
 31
0.0
  0
ARC
  5
61
330
43
100
AcDbEntity
  8
0
  6
Continuous
 62
     7
100
AcDbCircle
 10
217.5588015249265
 20
-41.73503059075486
 30
0.0
 40
5.000000000000086
100
AcDbArc
 50
87.50000000000115
 51
132.5000000000006
  0
ARC
  5
62
330
43
100
AcDbEntity
  8
0
  6
Continuous
 62
     7
100
AcDbCircle
 10
214.121593800538
 20
-120.4600304514053
 30
0.0
 40
4.999999999999848
100
AcDbArc
 50
-137.5000000000016
 51
-92.50000000000117
  0
ARC
  5
63
330
43
100
AcDbEntity
  8
0
  6
Continuous
 62
     7
100
AcDbCircle
 10
224.1851838865665
 20
-140.518088912807
 30
0.0
 40
2.000000000000089
100
AcDbArc
 50
177.4999999999991
 51
-92.4999999999978
  0
ARC
  5
64
330
43
100
AcDbEntity
  8
0
  6
Continuous
 62
     7
100
AcDbCircle
 10
228.8088389472921
 20
-34.61897742513008
 30
0.0
 40
1.99999999999989
100
AcDbArc
 50
87.49999999999886
 51
177.5000000000014
  0
ENDBLK
  5
45
330
43
100
AcDbEntity
  8
0
100
AcDbBlockEnd
  0
BLOCK
  5
48
330
46
100
AcDbEntity
  8
0
100
AcDbBlockBegin
  2
HL70K_Bodenablaufkörper_komplett__1
 70
     0
 71
     0
 10
-175.0
 20
-156.0022761606564
 30
0.0
  3
HL70K_Bodenablaufkörper_komplett__1
  1

  0
INSERT
  5
47
330
46
100
AcDbEntity
  8
0
100
AcDbBlockReference
  2
0317_4E_Reduktion_DN75-110
 10
204.5160159491336
 20
-142.3890475527651
 30
0.0
  0
POINT
  5
65
330
46
100
AcDbEntity
  8
1
 62
     3
 60
     1
100
AcDbPoint
 10
110.0
 20
-114.0121733871262
 30
0.0
  0
POINT
  5
66
330
46
100
AcDbEntity
  8
1
 62
     3
 60
     1
100
AcDbPoint
 10
94.22663189925622
 20
-74.00227616065644
 30
0.0
  0
LINE
  5
67
330
46
100
AcDbEntity
  8
1
  6
DOT_CENTER
 62
     2
100
AcDbLine
 10
-54.99999999999999
 20
5.0
 30
0.0
 11
-54.99999999999999
 21
3.0
 31
0.0
  0
LINE
  5
68
330
46
100
AcDbEntity
  8
1
  6
DOT_CENTER
 62
     2
100
AcDbLine
 10
55.0
 20
5.0
 30
0.0
 11
55.0
 21
3.0
 31
0.0
  0
LINE
  5
69
330
46
100
AcDbEntity
  8
1
  6
PHANTOM
 62
     2
100
AcDbLine
 10
0.0
 20
4.00580671144081
 30
0.0
 11
0.0
 21
-181.577223477794
 31
0.0
  0
LINE
  5
6A
330
46
100
AcDbEntity
  8
0
  6
Continuous
 62
     7
100
AcDbLine
 10
26.26254139118229
 20
2.42772383934346
 30
0.0
 11
30.19999999999999
 21
2.42772383934346
 31
0.0
  0
LINE
  5
6B
330
46
100
AcDbEntity
  8
0
  6
Continuous
 62
     7
100
AcDbLine
 10
-58.2
 20
2.42772383934346
 30
0.0
 11
-56.3
 21
2.42772383934346
 31
0.0
  0
LINE
  5
6C
330
46
100
AcDbEntity
  8
0
  6
Continuous
 62
     7
100
AcDbLine
 10
100.0000000000001
 20
-0.5130638028499
 30
0.0
 11
100.0000000000001
 21
-3.61495339017591
 31
0.0
  0
LINE
  5
6D
330
46
100
AcDbEntity
  8
0
  6
Continuous
 62
     7
100
AcDbLine
 10
-100.0000000000001
 20
-0.5130638028499
 30
0.0
 11
-100.0000000000001
 21
-3.61495339017591
 31
0.0
  0
LINE
  5
6E
330
46
100
AcDbEntity
  8
0
  6
Continuous
 62
     7
100
AcDbLine
 10
100.0000000000001
 20
-0.5130638028499
 30
0.0
 11
-100.0000000000001
 21
-0.5130638028499
 31
0.0
  0
LINE
  5
6F
330
46
100
AcDbEntity
  8
0
  6
Continuous
 62
     7
100
AcDbLine
 10
97.50000000000007
 20
0.0
 30
0.0
 11
-97.5000000000001
 21
0.0
 31
0.0
  0
LINE
  5
70
330
46
100
AcDbEntity
  8
0
  6
Continuous
 62
     7
100
AcDbLine
 10
-97.5000000000001
 20
0.0
 30
0.0
 11
-97.820597845975
 21
-0.5130638028499
 31
0.0
  0
LINE
  5
71
330
46
100
AcDbEntity
  8
0
  6
Continuous
 62
     7
100
AcDbLine
 10
97.50000000000007
 20
0.0
 30
0.0
 11
97.82059784597502
 21
-0.5130638028499
 31
0.0
  0
LINE
  5
72
330
46
100
AcDbEntity
  8
0
  6
Continuous
 62
     7
100
AcDbLine
 10
26.02561521725264
 20
0.0
 30
0.0
 11
26.02561521725266
 21
2.1277238393435
 31
0.0
  0
LINE
  5
73
330
46
100
AcDbEntity
  8
0
  6
Continuous
 62
     7
100
AcDbLine
 10
25.9625413911823
 20
2.1277238393435
 30
0.0
 11
26.02561521725266
 21
2.1277238393435
 31
0.0
  0
LINE
  5
74
330
46
100
AcDbEntity
  8
0
  6
Continuous
 62
     7
100
AcDbLine
 10
25.9625413911823
 20
0.0
 30
0.0
 11
25.9625413911823
 21
2.1277238393435
 31
0.0
  0
LINE
  5
75
330
46
100
AcDbEntity
  8
0
  6
Continuous
 62
     7
100
AcDbLine
 10
26.02561521725266
 20
2.1277238393435
 30
0.0
 11
30.49999999999999
 21
2.1277238393435
 31
0.0
  0
LINE
  5
76
330
46
100
AcDbEntity
  8
0
  6
Continuous
 62
     7
100
AcDbLine
 10
30.49999999999999
 20
0.0
 30
0.0
 11
30.49999999999999
 21
2.1277238393435
 31
0.0
  0
LINE
  5
77
330
46
100
AcDbEntity
  8
0
  6
Continuous
 62
     7
100
AcDbLine
 10
-56.00000000000001
 20
0.0
 30
0.0
 11
-56.00000000000001
 21
2.1277238393435
 31
0.0
  0
LINE
  5
78
330
46
100
AcDbEntity
  8
0
  6
Continuous
 62
     7
100
AcDbLine
 10
-56.34090909090911
 20
0.0
 30
0.0
 11
-56.34090909090911
 21
2.1277238393435
 31
0.0
  0
LINE
  5
79
330
46
100
AcDbEntity
  8
0
  6
Continuous
 62
     7
100
AcDbLine
 10
-56.34090909090911
 20
2.1277238393435
 30
0.0
 11
-56.00000000000001
 21
2.1277238393435
 31
0.0
  0
LINE
  5
7A
330
46
100
AcDbEntity
  8
0
  6
Continuous
 62
     7
100
AcDbLine
 10
-58.50000000000001
 20
2.1277238393435
 30
0.0
 11
-56.34090909090911
 21
2.1277238393435
 31
0.0
  0
LINE
  5
7B
330
46
100
AcDbEntity
  8
0
  6
Continuous
 62
     7
100
AcDbLine
 10
-58.50000000000001
 20
0.0
 30
0.0
 11
-58.50000000000001
 21
2.1277238393435
 31
0.0
  0
LINE
  5
7C
330
46
100
AcDbEntity
  8
0
  6
Continuous
 62
     7
100
AcDbLine
 10
-100.0000000000001
 20
-3.61495339017591
 30
0.0
 11
100.0000000000001
 21
-3.61495339017591
 31
0.0
  0
LINE
  5
7D
330
46
100
AcDbEntity
  8
0
  6
Continuous
 62
     7
100
AcDbLine
 10
61.00000000000001
 20
-24.00227616065644
 30
0.0
 11
60.00000000000001
 21
-24.00227616065644
 31
0.0
  0
LINE
  5
7E
330
46
100
AcDbEntity
  8
0
  6
Continuous
 62
     7
100
AcDbLine
 10
-4.02551771664256
 20
-21.07227616065632
 30
0.0
 11
4.02551771664258
 21
-21.07227616065632
 31
0.0
  0
LINE
  5
7F
330
46
100
AcDbEntity
  8
0
  6
Continuous
 62
     7
100
AcDbLine
 10
60.00000000000001
 20
-24.00227616065644
 30
0.0
 11
-60.00000000000001
 21
-24.00227616065644
 31
0.0
  0
LINE
  5
80
330
46
100
AcDbEntity
  8
0
  6
Continuous
 62
     7
100
AcDbLine
 10
-4.52483248401985
 20
-20.59844413877784
 30
0.0
 11
4.52483248401985
 21
-20.59844413877784
 31
0.0
  0
LINE
  5
81
330
46
100
AcDbEntity
  8
0
  6
Continuous
 62
     7
100
AcDbLine
 10
-4.52483248401985
 20
-20.59844413877784
 30
0.0
 11
-5.15497864729575
 21
-8.57453906406255
 31
0.0
  0
LINE
  5
82
330
46
100
AcDbEntity
  8
0
  6
Continuous
 62
     7
100
AcDbLine
 10
-60.00000000000001
 20
-24.00227616065644
 30
0.0
 11
-60.0000000003193
 21
-7.82252228426745
 31
0.0
  0
LINE
  5
83
330
46
100
AcDbEntity
  8
0
  6
Continuous
 62
     7
100
AcDbLine
 10
-62.2827931735301
 20
-5.3475540623661
 30
0.0
 11
-62.2827931735301
 21
-4.80762716667931
 31
0.0
  0
LINE
  5
84
330
46
100
AcDbEntity
  8
0
  6
Continuous
 62
     7
100
AcDbLine
 10
-46.43274706497552
 20
-8.5745390640634
 30
0.0
 11
46.43274706497548
 21
-8.57453906406255
 31
0.0
  0
LINE
  5
85
330
46
100
AcDbEntity
  8
0
  6
Continuous
 62
     7
100
AcDbLine
 10
46.62188657623261
 20
-8.5727115451603
 30
0.0
 11
-46.62188657821432
 21
-8.57271154512205
 31
0.0
  0
LINE
  5
86
330
46
100
AcDbEntity
  8
0
  6
Continuous
 62
     7
100
AcDbLine
 10
-57.52574544048339
 20
-8.34572654342321
 30
0.0
 11
57.52574544048336
 21
-8.34572654342321
 31
0.0
  0
LINE
  5
87
330
46
100
AcDbEntity
  8
0
  6
Continuous
 62
     7
100
AcDbLine
 10
-62.2827931735301
 20
-5.3475540623661
 30
0.0
 11
62.28279317353024
 21
-5.3475540623661
 31
0.0
  0
LINE
  5
88
330
46
100
AcDbEntity
  8
0
  6
Continuous
 62
     7
100
AcDbLine
 10
-62.2827931735301
 20
-4.80762716667931
 30
0.0
 11
62.28279317353007
 21
-4.80762716667931
 31
0.0
  0
LINE
  5
89
330
46
100
AcDbEntity
  8
0
  6
Continuous
 62
     7
100
AcDbLine
 10
4.52483248401985
 20
-20.59844413877784
 30
0.0
 11
5.15497864729577
 21
-8.57453906406255
 31
0.0
  0
LINE
  5
8A
330
46
100
AcDbEntity
  8
0
  6
Continuous
 62
     7
100
AcDbLine
 10
70.00000000000007
 20
-8.57453906406255
 30
0.0
 11
70.00000000000001
 21
-24.00227616065644
 31
0.0
  0
LINE
  5
8B
330
46
100
AcDbEntity
  8
0
  6
Continuous
 62
     7
100
AcDbLine
 10
70.00000000000001
 20
-24.00227616065644
 30
0.0
 11
61.00000000000001
 21
-24.00227616065644
 31
0.0
  0
LINE
  5
8C
330
46
100
AcDbEntity
  8
0
  6
Continuous
 62
     7
100
AcDbLine
 10
60.00000000000001
 20
-7.82252228440962
 30
0.0
 11
60.00000000000001
 21
-24.00227616065644
 31
0.0
  0
LINE
  5
8D
330
46
100
AcDbEntity
  8
0
  6
Continuous
 62
     7
100
AcDbLine
 10
-70.00000000000001
 20
-24.00227616065644
 30
0.0
 11
-70.0000000000001
 21
-8.57453906406255
 31
0.0
  0
LINE
  5
8E
330
46
100
AcDbEntity
  8
0
  6
Continuous
 62
     7
100
AcDbLine
 10
-70.00000000000001
 20
-24.00227616065644
 30
0.0
 11
-61.00000000000001
 21
-24.00227616065644
 31
0.0
  0
LINE
  5
8F
330
46
100
AcDbEntity
  8
0
  6
Continuous
 62
     7
100
AcDbLine
 10
-61.00000000000001
 20
-24.00227616065644
 30
0.0
 11
-60.00000000000001
 21
-24.00227616065644
 31
0.0
  0
LINE
  5
90
330
46
100
AcDbEntity
  8
0
  6
Continuous
 62
     7
100
AcDbLine
 10
-70.0000000000001
 20
-8.57453906406255
 30
0.0
 11
-70.00000000000001
 21
-8.5727115451196
 31
0.0
  0
LINE
  5
91
330
46
100
AcDbEntity
  8
0
  6
Continuous
 62
     7
100
AcDbLine
 10
-83.99999999999999
 20
-8.57453906406255
 30
0.0
 11
-70.0000000000001
 21
-8.57453906406255
 31
0.0
  0
LINE
  5
92
330
46
100
AcDbEntity
  8
0
  6
Continuous
 62
     7
100
AcDbLine
 10
-93.5
 20
-5.3475540623661
 30
0.0
 11
-93.5
 21
-4.80762716667931
 31
0.0
  0
LINE
  5
93
330
46
100
AcDbEntity
  8
0
  6
Continuous
 62
     7
100
AcDbLine
 10
-69.7359568264698
 20
-5.34755406236604
 30
0.0
 11
-69.7359568264698
 21
-4.80762716667931
 31
0.0
  0
LINE
  5
94
330
46
100
AcDbEntity
  8
0
  6
Continuous
 62
     7
100
AcDbLine
 10
-93.5
 20
-4.80762716667931
 30
0.0
 11
-69.7359568264698
 21
-4.80762716667931
 31
0.0
  0
LINE
  5
95
330
46
100
AcDbEntity
  8
0
  6
Continuous
 62
     7
100
AcDbLine
 10
-93.5
 20
-5.3475540623661
 30
0.0
 11
-69.7359568264698
 21
-5.34755406236604
 31
0.0
  0
LINE
  5
96
330
46
100
AcDbEntity
  8
0
  6
Continuous
 62
     7
100
AcDbLine
 10
-70.00000000000001
 20
-8.5727115451196
 30
0.0
 11
-84.10469849010748
 21
-8.5727115451196
 31
0.0
  0
LINE
  5
97
330
46
100
AcDbEntity
  8
0
  6
Continuous
 62
     7
100
AcDbLine
 10
-90.60469849010751
 20
-8.34572654342321
 30
0.0
 11
-70.00000000000001
 21
-8.34572654342321
 31
0.0
  0
LINE
  5
98
330
46
100
AcDbEntity
  8
0
  6
Continuous
 62
     7
100
AcDbLine
 10
-70.00000000000001
 20
-8.34572654342321
 30
0.0
 11
-70.00000000000001
 21
-7.82252228440962
 31
0.0
  0
LINE
  5
99
330
46
100
AcDbEntity
  8
0
  6
Continuous
 62
     7
100
AcDbLine
 10
-84.10469849010748
 20
-8.5727115451196
 30
0.0
 11
-90.60469849010751
 21
-8.34572654342321
 31
0.0
  0
LINE
  5
9A
330
46
100
AcDbEntity
  8
0
  6
Continuous
 62
     7
100
AcDbLine
 10
-64.70812959306839
 20
-3.80823633966054
 30
0.0
 11
64.70812959308417
 21
-3.8082363396602
 31
0.0
  0
LINE
  5
9B
330
46
100
AcDbEntity
  8
0
  6
Continuous
 62
     7
100
AcDbLine
 10
-70.00000000000001
 20
-8.5727115451196
 30
0.0
 11
-70.00000000000001
 21
-8.34572654342321
 31
0.0
  0
LINE
  5
9C
330
46
100
AcDbEntity
  8
0
  6
Continuous
 62
     7
100
AcDbLine
 10
-94.4651005032975
 20
-3.8082363396602
 30
0.0
 11
-68.82233051606731
 21
-3.80823633966031
 31
0.0
  0
LINE
  5
9D
330
46
100
AcDbEntity
  8
0
  6
Continuous
 62
     7
100
AcDbLine
 10
69.99999999999999
 20
-8.34572654342321
 30
0.0
 11
70.00000000000001
 21
-8.5727115451196
 31
0.0
  0
LINE
  5
9E
330
46
100
AcDbEntity
  8
0
  6
Continuous
 62
     7
100
AcDbLine
 10
70.00000000000001
 20
-7.82252228440962
 30
0.0
 11
69.99999999999999
 21
-8.34572654342321
 31
0.0
  0
LINE
  5
9F
330
46
100
AcDbEntity
  8
0
  6
Continuous
 62
     7
100
AcDbLine
 10
69.99999999999999
 20
-8.34572654342321
 30
0.0
 11
90.60469849010754
 21
-8.34572654342321
 31
0.0
  0
LINE
  5
A0
330
46
100
AcDbEntity
  8
0
  6
Continuous
 62
     7
100
AcDbLine
 10
84.10469849010752
 20
-8.5727115451196
 30
0.0
 11
90.60469849010754
 21
-8.34572654342321
 31
0.0
  0
LINE
  5
A1
330
46
100
AcDbEntity
  8
0
  6
Continuous
 62
     7
100
AcDbLine
 10
93.50000000000001
 20
-5.3475540623661
 30
0.0
 11
93.50000000000001
 21
-4.80762716667931
 31
0.0
  0
LINE
  5
A2
330
46
100
AcDbEntity
  8
0
  6
Continuous
 62
     7
100
AcDbLine
 10
69.73595682646982
 20
-5.3475540623661
 30
0.0
 11
93.50000000000001
 21
-5.3475540623661
 31
0.0
  0
LINE
  5
A3
330
46
100
AcDbEntity
  8
0
  6
Continuous
 62
     7
100
AcDbLine
 10
69.73595682646997
 20
-4.80762716667931
 30
0.0
 11
93.50000000000001
 21
-4.80762716667931
 31
0.0
  0
LINE
  5
A4
330
46
100
AcDbEntity
  8
0
  6
Continuous
 62
     7
100
AcDbLine
 10
94.4651005032975
 20
-3.8082363396602
 30
0.0
 11
100.0000000000001
 21
-3.61495339017591
 31
0.0
  0
LINE
  5
A5
330
46
100
AcDbEntity
  8
0
  6
Continuous
 62
     7
100
AcDbLine
 10
68.82233051606677
 20
-3.8082363396602
 30
0.0
 11
94.4651005032975
 21
-3.8082363396602
 31
0.0
  0
LINE
  5
A6
330
46
100
AcDbEntity
  8
0
  6
Continuous
 62
     7
100
AcDbLine
 10
70.00000000000001
 20
-8.5727115451196
 30
0.0
 11
70.00000000000007
 21
-8.57453906406255
 31
0.0
  0
LINE
  5
A7
330
46
100
AcDbEntity
  8
0
  6
Continuous
 62
     7
100
AcDbLine
 10
84.00000000000001
 20
-8.57453906406255
 30
0.0
 11
70.00000000000007
 21
-8.57453906406255
 31
0.0
  0
LINE
  5
A8
330
46
100
AcDbEntity
  8
0
  6
Continuous
 62
     7
100
AcDbLine
 10
62.28279317353024
 20
-5.3475540623661
 30
0.0
 11
62.28279317353007
 21
-4.80762716667931
 31
0.0
  0
LINE
  5
A9
330
46
100
AcDbEntity
  8
0
  6
Continuous
 62
     7
100
AcDbLine
 10
69.73595682646982
 20
-5.3475540623661
 30
0.0
 11
69.73595682646997
 21
-4.80762716667931
 31
0.0
  0
LINE
  5
AA
330
46
100
AcDbEntity
  8
0
  6
Continuous
 62
     7
100
AcDbLine
 10
84.10469849010752
 20
-8.5727115451196
 30
0.0
 11
70.00000000000001
 21
-8.5727115451196
 31
0.0
  0
LINE
  5
AB
330
46
100
AcDbEntity
  8
0
  6
Continuous
 62
     7
100
AcDbLine
 10
-94.4651005032975
 20
-3.8082363396602
 30
0.0
 11
-100.0000000000001
 21
-3.61495339017591
 31
0.0
  0
LINE
  5
AC
330
46
100
AcDbEntity
  8
0
  6
Continuous
 62
     7
100
AcDbLine
 10
-130.0
 20
-76.00227616065644
 30
0.0
 11
-175.0
 21
-76.00227616065644
 31
0.0
  0
LINE
  5
AD
330
46
100
AcDbEntity
  8
0
  6
Continuous
 62
     7
100
AcDbLine
 10
-74.20539599345248
 20
-81.00227616065644
 30
0.0
 11
-125.0
 21
-81.00227616065644
 31
0.0
  0
LINE
  5
AE
330
46
100
AcDbEntity
  8
0
  6
Continuous
 62
     7
100
AcDbLine
 10
-130.0
 20
-76.00227616065644
 30
0.0
 11
-125.0
 21
-81.00227616065644
 31
0.0
  0
LINE
  5
AF
330
46
100
AcDbEntity
  8
0
  6
Continuous
 62
     7
100
AcDbLine
 10
-130.0
 20
-36.00227616065644
 30
0.0
 11
-130.0
 21
-76.00227616065644
 31
0.0
  0
LINE
  5
B0
330
46
100
AcDbEntity
  8
0
  6
Continuous
 62
     7
100
AcDbLine
 10
-175.0
 20
-36.00227616065644
 30
0.0
 11
-175.0
 21
-76.00227616065644
 31
0.0
  0
LINE
  5
B1
330
46
100
AcDbEntity
  8
0
  6
Continuous
 62
     7
100
AcDbLine
 10
-125.0
 20
-31.00227616065644
 30
0.0
 11
-125.0
 21
-81.00227616065644
 31
0.0
  0
LINE
  5
B2
330
46
100
AcDbEntity
  8
0
  6
Continuous
 62
     7
100
AcDbLine
 10
-70.00000000000001
 20
-31.00227616065644
 30
0.0
 11
-125.0
 21
-31.00227616065644
 31
0.0
  0
LINE
  5
B3
330
46
100
AcDbEntity
  8
0
  6
Continuous
 62
     7
100
AcDbLine
 10
-130.0
 20
-36.00227616065644
 30
0.0
 11
-125.0
 21
-31.00227616065644
 31
0.0
  0
LINE
  5
B4
330
46
100
AcDbEntity
  8
0
  6
Continuous
 62
     7
100
AcDbLine
 10
-130.0
 20
-36.00227616065644
 30
0.0
 11
-175.0
 21
-36.00227616065644
 31
0.0
  0
LINE
  5
B5
330
46
100
AcDbEntity
  8
0
  6
Continuous
 62
     7
100
AcDbLine
 10
70.00000000000001
 20
-74.00227616065644
 30
0.0
 11
94.22663189925622
 21
-74.00227616065644
 31
0.0
  0
LINE
  5
B6
330
46
100
AcDbEntity
  8
0
  6
Continuous
 62
     7
100
AcDbLine
 10
54.00000000000001
 20
-156.0022761606564
 30
0.0
 11
54.00000000000001
 21
-81.00227616065644
 31
0.0
  0
LINE
  5
B7
330
46
100
AcDbEntity
  8
0
  6
Continuous
 62
     7
100
AcDbLine
 10
60.00000000000001
 20
-81.00227616065644
 30
0.0
 11
63.00000000000001
 21
-81.00227616065644
 31
0.0
  0
LINE
  5
B8
330
46
100
AcDbEntity
  8
0
  6
Continuous
 62
     7
100
AcDbLine
 10
54.00000000000001
 20
-81.00227616065644
 30
0.0
 11
60.00000000000001
 21
-81.00227616065644
 31
0.0
  0
LINE
  5
B9
330
46
100
AcDbEntity
  8
0
  6
Continuous
 62
     7
100
AcDbLine
 10
63.51659485765457
 20
-80.98318797452754
 30
0.0
 11
63.5162552567984
 21
-80.98321309704451
 31
0.0
  0
LINE
  5
BA
330
46
100
AcDbEntity
  8
0
  6
DASHED
 62
     7
100
AcDbLine
 10
61.00000000000001
 20
-24.00227616065644
 30
0.0
 11
60.00000000000001
 21
-24.00227616065644
 31
0.0
  0
LINE
  5
BB
330
46
100
AcDbEntity
  8
0
  6
Continuous
 62
     7
100
AcDbLine
 10
110.0
 20
-156.0022761606564
 30
0.0
 11
110.0
 21
-114.0136024148712
 31
0.0
  0
LINE
  5
BC
330
46
100
AcDbEntity
  8
0
  6
Continuous
 62
     7
100
AcDbLine
 10
-38.99999999999999
 20
-81.00227616065644
 30
0.0
 11
-38.88455900847176
 21
-81.00227616065644
 31
0.0
  0
LINE
  5
BD
330
46
100
AcDbEntity
  8
0
  6
Continuous
 62
     7
100
AcDbLine
 10
-55.9910707166777
 20
-89.07794163898882
 30
0.0
 11
-55.9910707166777
 21
-107.0150284988348
 31
0.0
  0
LINE
  5
BE
330
46
100
AcDbEntity
  8
0
  6
Continuous
 62
     7
100
AcDbLine
 10
-55.9910707166777
 20
-107.0150284988348
 30
0.0
 11
-56.00000000000001
 21
-107.0022761606564
 31
0.0
  0
LINE
  5
BF
330
46
100
AcDbEntity
  8
0
  6
Continuous
 62
     7
100
AcDbLine
 10
-38.88455900847176
 20
-81.00227616065644
 30
0.0
 11
-38.88455900847173
 21
-107.6994595438192
 31
0.0
  0
LINE
  5
C0
330
46
100
AcDbEntity
  8
0
  6
Continuous
 62
     7
100
AcDbLine
 10
0.00000000000002
 20
-156.0022761606564
 30
0.0
 11
0.00000000000001
 21
-81.00227616065644
 31
0.0
  0
LINE
  5
C1
330
46
100
AcDbEntity
  8
0
  6
Continuous
 62
     7
100
AcDbLine
 10
-56.00000000000001
 20
-107.0022761606564
 30
0.0
 11
-56.00000000000001
 21
-156.0022761606564
 31
0.0
  0
LINE
  5
C2
330
46
100
AcDbEntity
  8
0
  6
Continuous
 62
     7
100
AcDbLine
 10
0.00000000000002
 20
-156.0022761606564
 30
0.0
 11
54.00000000000001
 21
-156.0022761606564
 31
0.0
  0
LINE
  5
C3
330
46
100
AcDbEntity
  8
0
  6
Continuous
 62
     7
100
AcDbLine
 10
110.0
 20
-156.0022761606564
 30
0.0
 11
54.00000000000001
 21
-156.0022761606564
 31
0.0
  0
LINE
  5
C4
330
46
100
AcDbEntity
  8
0
  6
Continuous
 62
     7
100
AcDbLine
 10
0.00000000000002
 20
-156.0022761606564
 30
0.0
 11
-56.00000000000001
 21
-156.0022761606564
 31
0.0
  0
LINE
  5
C5
330
46
100
AcDbEntity
  8
0
  6
Continuous
 62
     7
100
AcDbLine
 10
-58.62027945134331
 20
-81.00227616065644
 30
0.0
 11
-38.99999999999999
 21
-81.00227616065644
 31
0.0
  0
LINE
  5
C6
330
46
100
AcDbEntity
  8
0
  6
Continuous
 62
     7
100
AcDbLine
 10
-60.00000000000001
 20
-80.88719903573804
 30
0.0
 11
-60.00000000000001
 21
-77.96577156915004
 31
0.0
  0
LINE
  5
C7
330
46
100
AcDbEntity
  8
0
  6
Continuous
 62
     7
100
AcDbLine
 10
-38.88455900847176
 20
-81.00227616065644
 30
0.0
 11
0.00000000000001
 21
-81.00227616065644
 31
0.0
  0
LINE
  5
C8
330
46
100
AcDbEntity
  8
0
  6
Continuous
 62
     7
100
AcDbLine
 10
0.00000000000001
 20
-81.00227616065644
 30
0.0
 11
54.00000000000001
 21
-81.00227616065644
 31
0.0
  0
LINE
  5
C9
330
46
100
AcDbEntity
  8
0
  6
Continuous
 62
     7
100
AcDbLine
 10
60.00000000000001
 20
-24.00227616065644
 30
0.0
 11
-60.00000000000001
 21
-24.00227616065644
 31
0.0
  0
LINE
  5
CA
330
46
100
AcDbEntity
  8
0
  6
Continuous
 62
     7
100
AcDbLine
 10
-38.88455900847173
 20
-107.6994595438192
 30
0.0
 11
-62.32789482552279
 21
-79.88004816065643
 31
0.0
  0
LINE
  5
CB
330
46
100
AcDbEntity
  8
0
  6
Continuous
 62
     7
100
AcDbLine
 10
-40.29877257084481
 20
-107.6994595438192
 30
0.0
 11
-63.71975293860091
 21
-79.90657661400641
 31
0.0
  0
LINE
  5
CC
330
46
100
AcDbEntity
  8
0
  6
Continuous
 62
     7
100
AcDbLine
 10
-60.00000000000001
 20
-71.00227616065644
 30
0.0
 11
-66.96349540849361
 21
-71.00227616065644
 31
0.0
  0
LINE
  5
CD
330
46
100
AcDbEntity
  8
0
  6
Continuous
 62
     7
100
AcDbLine
 10
-60.00000000000001
 20
-24.00227616065644
 30
0.0
 11
-60.00000000000001
 21
-42.43761619440582
 31
0.0
  0
LINE
  5
CE
330
46
100
AcDbEntity
  8
0
  6
DASHED
 62
     7
100
AcDbLine
 10
70.00000000000001
 20
-24.00227616065644
 30
0.0
 11
61.00000000000001
 21
-24.00227616065644
 31
0.0
  0
LINE
  5
CF
330
46
100
AcDbEntity
  8
0
  6
Continuous
 62
     7
100
AcDbLine
 10
-60.00000000000001
 20
-71.00227616065644
 30
0.0
 11
-58.9808658531954
 21
-71.02775451432652
 31
0.0
  0
LINE
  5
D0
330
46
100
AcDbEntity
  8
0
  6
Continuous
 62
     7
100
AcDbLine
 10
-60.00000000000001
 20
-69.56693612690694
 30
0.0
 11
-60.00000000000001
 21
-71.00227616065644
 31
0.0
  0
LINE
  5
D1
330
46
100
AcDbEntity
  8
0
  6
Continuous
 62
     7
100
AcDbLine
 10
70.00000000000001
 20
-74.00227616065644
 30
0.0
 11
70.00000000000001
 21
-24.00227616065644
 31
0.0
  0
LINE
  5
D2
330
46
100
AcDbEntity
  8
0
  6
Continuous
 62
     7
100
AcDbLine
 10
-19.79489929358782
 20
-72.00740367831673
 30
0.0
 11
60.00000000000001
 21
-74.00227616065644
 31
0.0
  0
LINE
  5
D3
330
46
100
AcDbEntity
  8
0
  6
Continuous
 62
     7
100
AcDbLine
 10
60.00000000000001
 20
-74.00227616065644
 30
0.0
 11
60.00000000000001
 21
-35.00227616065644
 31
0.0
  0
LINE
  5
D4
330
46
100
AcDbEntity
  8
0
  6
Continuous
 62
     7
100
AcDbLine
 10
60.00000000000001
 20
-35.00227616065644
 30
0.0
 11
60.00000000000001
 21
-24.00227616065644
 31
0.0
  0
LINE
  5
D5
330
46
100
AcDbEntity
  8
0
  6
Continuous
 62
     7
100
AcDbLine
 10
-60.00000000000001
 20
-77.96577156915004
 30
0.0
 11
-60.00000000000001
 21
-71.00227616065644
 31
0.0
  0
LINE
  5
D6
330
46
100
AcDbEntity
  8
0
  6
Continuous
 62
     7
100
AcDbLine
 10
67.81907870135777
 20
-79.07933047099422
 30
0.0
 11
67.89897948556636
 21
-79.00227616065644
 31
0.0
  0
LINE
  5
D7
330
46
100
AcDbEntity
  8
0
  6
Continuous
 62
     7
100
AcDbLine
 10
68.0770543103378
 20
-78.82135486201423
 30
0.0
 11
68.0
 21
-78.90125564622284
 31
0.0
  0
LINE
  5
D8
330
46
100
AcDbEntity
  8
0
  6
Continuous
 62
     7
100
AcDbLine
 10
-62.3065033411112
 20
-79.88004816065643
 30
0.0
 11
-62.32789482552279
 21
-79.88004816065643
 31
0.0
  0
LINE
  5
D9
330
46
100
AcDbEntity
  8
0
  6
Continuous
 62
     7
100
AcDbLine
 10
-62.32789482552279
 20
-79.88004816065643
 30
0.0
 11
-62.4212530694456
 21
-79.88004816009573
 31
0.0
  0
LINE
  5
DA
330
46
100
AcDbEntity
  8
0
  6
Continuous
 62
     7
100
AcDbLine
 10
-70.00000000000001
 20
-24.00227616065644
 30
0.0
 11
-70.00000000000001
 21
-31.00227616065644
 31
0.0
  0
LINE
  5
DB
330
46
100
AcDbEntity
  8
0
  6
Continuous
 62
     7
100
AcDbLine
 10
-70.00000000000001
 20
-31.00227616065644
 30
0.0
 11
-70.00000000000001
 21
-71.00227616065644
 31
0.0
  0
LINE
  5
DC
330
46
100
AcDbEntity
  8
0
  6
DASHED
 62
     7
100
AcDbLine
 10
-70.00000000000001
 20
-24.00227616065644
 30
0.0
 11
-61.00000000000001
 21
-24.00227616065644
 31
0.0
  0
LINE
  5
DD
330
46
100
AcDbEntity
  8
0
  6
DASHED
 62
     7
100
AcDbLine
 10
-61.00000000000001
 20
-24.00227616065644
 30
0.0
 11
-60.00000000000001
 21
-24.00227616065644
 31
0.0
  0
LINE
  5
DE
330
46
100
AcDbEntity
  8
0
  6
Continuous
 62
     7
100
AcDbLine
 10
-56.00000000000001
 20
-107.0022761606564
 30
0.0
 11
-74.20539599345248
 21
-81.00227616065644
 31
0.0
  0
LINE
  5
DF
330
46
100
AcDbEntity
  8
0
  6
Continuous
 62
     7
100
AcDbLine
 10
-62.8132708543411
 20
-80.98226815425002
 30
0.0
 11
-74.21940575036278
 21
-80.98226815425002
 31
0.0
  0
LINE
  5
E0
330
46
100
AcDbEntity
  8
0
  6
Continuous
 62
     7
100
AcDbLine
 10
-74.20539599345248
 20
-81.00227616065644
 30
0.0
 11
-74.21940575036278
 21
-80.98226815425002
 31
0.0
  0
LINE
  5
E1
330
46
100
AcDbEntity
  8
1
  6
PHANTOM
 62
     2
100
AcDbLine
 10
-11.49999999999999
 20
-56.00227616065644
 30
0.0
 11
-181.8563485438462
 21
-56.00227616065644
 31
0.0
  0
LINE
  5
E2
330
46
100
AcDbEntity
  8
1
  6
PHANTOM
 62
     2
100
AcDbLine
 10
-38.99999999999999
 20
-28.50227616065644
 30
0.0
 11
-38.99999999999999
 21
-83.50227616065644
 31
0.0
  0
LINE
  5
E3
330
46
100
AcDbEntity
  8
0
  6
Continuous
 62
     7
100
AcDbLine
 10
70.00000000000013
 20
-37.19428428353672
 30
0.0
 11
166.9056434389599
 21
-41.42527604923782
 31
0.0
  0
LINE
  5
E4
330
46
100
AcDbEntity
  8
0
  6
Continuous
 62
     7
100
AcDbLine
 10
170.3614049858301
 20
-42.51487347962052
 30
0.0
 11
166.9056434389599
 21
-41.42527604923782
 31
0.0
  0
LINE
  5
E5
330
46
100
AcDbEntity
  8
0
  6
Continuous
 62
     7
100
AcDbLine
 10
170.3150734397655
 20
-44.57699303334343
 30
0.0
 11
170.3614049858301
 21
-42.51487347962052
 31
0.0
  0
LINE
  5
E6
330
46
100
AcDbEntity
  8
0
  6
Continuous
 62
     7
100
AcDbLine
 10
167.0872387747309
 20
-113.5017980045843
 30
0.0
 11
170.3150734397655
 21
-44.57699303334343
 31
0.0
  0
LINE
  5
E7
330
46
100
AcDbEntity
  8
0
  6
Continuous
 62
     7
100
AcDbLine
 10
167.0409072286662
 20
-115.5639175583073
 30
0.0
 11
167.0872387747309
 21
-113.5017980045843
 31
0.0
  0
LINE
  5
E8
330
46
100
AcDbEntity
  8
0
  6
Continuous
 62
     7
100
AcDbLine
 10
167.0409072286662
 20
-115.5639175583073
 30
0.0
 11
163.5033312244637
 21
-116.3481792771327
 31
0.0
  0
LINE
  5
E9
330
46
100
AcDbEntity
  8
0
  6
Continuous
 62
     7
100
AcDbLine
 10
110.0
 20
-114.0121733871262
 30
0.0
 11
163.5033312244637
 21
-116.3481792771327
 31
0.0
  0
LINE
  5
EA
330
46
100
AcDbEntity
  8
1
  6
Continuous
 62
     7
100
AcDbLine
 10
166.9056434389599
 20
-41.42527604923782
 30
0.0
 11
163.5033312244637
 21
-116.3481792771327
 31
0.0
  0
LINE
  5
EB
330
46
100
AcDbEntity
  8
1
  6
PHANTOM
 62
     2
100
AcDbLine
 10
68.36427297380003
 20
-74.65859259285642
 30
0.0
 11
165.2699164127598
 21
-78.88958435855741
 31
0.0
  0
LINE
  5
EC
330
46
100
AcDbEntity
  8
0
  6
Continuous
 62
     7
100
AcDbLine
 10
-56.00000000000001
 20
-156.0022761606564
 30
0.0
 11
-56.00000000000001
 21
-158.0022761606564
 31
0.0
  0
LINE
  5
ED
330
46
100
AcDbEntity
  8
0
  6
Continuous
 62
     7
100
AcDbLine
 10
54.00000000000001
 20
-173.0022761606564
 30
0.0
 11
54.00000000000001
 21
-158.0022761606564
 31
0.0
  0
LINE
  5
EE
330
46
100
AcDbEntity
  8
0
  6
Continuous
 62
     7
100
AcDbLine
 10
0.00000000000001
 20
-173.0022761606564
 30
0.0
 11
0.00000000000001
 21
-158.0022761606564
 31
0.0
  0
LINE
  5
EF
330
46
100
AcDbEntity
  8
0
  6
Continuous
 62
     7
100
AcDbLine
 10
0.00000000000001
 20
-173.0022761606564
 30
0.0
 11
54.00000000000001
 21
-173.0022761606564
 31
0.0
  0
LINE
  5
F0
330
46
100
AcDbEntity
  8
0
  6
Continuous
 62
     7
100
AcDbLine
 10
0.00000000000001
 20
-158.0022761606564
 30
0.0
 11
-56.00000000000001
 21
-158.0022761606564
 31
0.0
  0
LINE
  5
F1
330
46
100
AcDbEntity
  8
0
  6
Continuous
 62
     7
100
AcDbLine
 10
110.0
 20
-156.0022761606564
 30
0.0
 11
110.0
 21
-158.0022761606564
 31
0.0
  0
LINE
  5
F2
330
46
100
AcDbEntity
  8
0
  6
Continuous
 62
     7
100
AcDbLine
 10
0.00000000000002
 20
-156.0022761606564
 30
0.0
 11
54.00000000000001
 21
-156.0022761606564
 31
0.0
  0
LINE
  5
F3
330
46
100
AcDbEntity
  8
0
  6
Continuous
 62
     7
100
AcDbLine
 10
54.00000000000001
 20
-156.0022761606564
 30
0.0
 11
54.00000000000001
 21
-158.0022761606564
 31
0.0
  0
LINE
  5
F4
330
46
100
AcDbEntity
  8
0
  6
Continuous
 62
     7
100
AcDbLine
 10
0.00000000000002
 20
-156.0022761606564
 30
0.0
 11
0.00000000000001
 21
-158.0022761606564
 31
0.0
  0
LINE
  5
F5
330
46
100
AcDbEntity
  8
0
  6
Continuous
 62
     7
100
AcDbLine
 10
0.00000000000001
 20
-158.0022761606564
 30
0.0
 11
54.00000000000001
 21
-158.0022761606564
 31
0.0
  0
LINE
  5
F6
330
46
100
AcDbEntity
  8
0
  6
Continuous
 62
     7
100
AcDbLine
 10
110.0
 20
-158.0022761606564
 30
0.0
 11
54.00000000000001
 21
-158.0022761606564
 31
0.0
  0
LINE
  5
F7
330
46
100
AcDbEntity
  8
0
  6
Continuous
 62
     7
100
AcDbLine
 10
0.00000000000001
 20
-173.0022761606564
 30
0.0
 11
-40.99999999999999
 21
-173.0022761606564
 31
0.0
  0
LINE
  5
F8
330
46
100
AcDbEntity
  8
0
  6
Continuous
 62
     7
100
AcDbLine
 10
110.0
 20
-156.0022761606564
 30
0.0
 11
54.00000000000001
 21
-156.0022761606564
 31
0.0
  0
LINE
  5
F9
330
46
100
AcDbEntity
  8
0
  6
Continuous
 62
     7
100
AcDbLine
 10
0.00000000000002
 20
-156.0022761606564
 30
0.0
 11
-56.00000000000001
 21
-156.0022761606564
 31
0.0
  0
LINE
  5
FA
330
46
100
AcDbEntity
  8
0
  6
Continuous
 62
     7
100
AcDbLine
 10
95.00000000000001
 20
-173.0022761606564
 30
0.0
 11
54.00000000000001
 21
-173.0022761606564
 31
0.0
  0
ARC
  5
FB
330
46
100
AcDbEntity
  8
0
  6
Continuous
 62
     7
100
AcDbCircle
 10
-56.3
 20
2.1277238393435
 30
0.0
 40
0.2999999999999901
100
AcDbArc
 50
0.0
 51
90.0
  0
ARC
  5
FC
330
46
100
AcDbEntity
  8
0
  6
Continuous
 62
     7
100
AcDbCircle
 10
-58.2
 20
2.1277238393435
 30
0.0
 40
0.2999999999999536
100
AcDbArc
 50
90.0
 51
180.0
  0
ARC
  5
FD
330
46
100
AcDbEntity
  8
0
  6
Continuous
 62
     7
100
AcDbCircle
 10
30.19999999999999
 20
2.1277238393435
 30
0.0
 40
0.3000000000000007
100
AcDbArc
 50
0.0
 51
90.0
  0
ARC
  5
FE
330
46
100
AcDbEntity
  8
0
  6
Continuous
 62
     7
100
AcDbCircle
 10
26.2625413911823
 20
2.1277238393435
 30
0.0
 40
0.2999999999999536
100
AcDbArc
 50
90.00000000000203
 51
180.0
  0
ARC
  5
FF
330
46
100
AcDbEntity
  8
0
  6
Continuous
 62
     7
100
AcDbCircle
 10
4.02551771664258
 20
-20.57227616065632
 30
0.0
 40
0.5
100
AcDbArc
 50
-90.0
 51
-3.00000000000568
  0
ARC
  5
100
330
46
100
AcDbEntity
  8
0
  6
Continuous
 62
     7
100
AcDbCircle
 10
-4.02551771664256
 20
-20.57227616065632
 30
0.0
 40
0.500000000000008
100
AcDbArc
 50
-176.9999999999945
 51
-90.0
  0
ARC
  5
101
330
46
100
AcDbEntity
  8
0
  6
Continuous
 62
     7
100
AcDbCircle
 10
-83.99999999999999
 20
-5.57453906406255
 30
0.0
 40
2.999999999999767
100
AcDbArc
 50
-92.0
 51
-90.0
  0
ARC
  5
102
330
46
100
AcDbEntity
  8
0
  6
Continuous
 62
     7
100
AcDbCircle
 10
-90.5
 20
-5.3475540623661
 30
0.0
 40
3.0
100
AcDbArc
 50
180.0
 51
-92.00000000000024
  0
ARC
  5
103
330
46
100
AcDbEntity
  8
0
  6
Continuous
 62
     7
100
AcDbCircle
 10
-94.5
 20
-4.80762716667931
 30
0.0
 40
1.0
100
AcDbArc
 50
0.0
 51
88.00000000000045
  0
ARC
  5
104
330
46
100
AcDbEntity
  8
0
  6
Continuous
 62
     7
100
AcDbCircle
 10
90.50000000000001
 20
-5.3475540623661
 30
0.0
 40
2.999999999999825
100
AcDbArc
 50
-87.9999999999995
 51
0.0
  0
ARC
  5
105
330
46
100
AcDbEntity
  8
0
  6
Continuous
 62
     7
100
AcDbCircle
 10
94.50000000000001
 20
-4.80762716667931
 30
0.0
 40
1.000000000000016
100
AcDbArc
 50
92.00000000000036
 51
180.0
  0
ARC
  5
106
330
46
100
AcDbEntity
  8
0
  6
Continuous
 62
     7
100
AcDbCircle
 10
84.00000000000001
 20
-5.57453906406255
 30
0.0
 40
3.0
100
AcDbArc
 50
-90.0
 51
-87.99999999999973
  0
ARC
  5
107
330
46
100
AcDbEntity
  8
0
  6
Continuous
 62
     7
100
AcDbCircle
 10
63.00000000000001
 20
-74.00227616065644
 30
0.0
 40
7.0
100
AcDbArc
 50
-90.0
 51
-85.77055319243156
  0
ARC
  5
108
330
46
100
AcDbEntity
  8
0
  6
Continuous
 62
     7
100
AcDbCircle
 10
63.00000000000001
 20
-74.00227616065644
 30
0.0
 40
7.0
100
AcDbArc
 50
-90.0
 51
0.0
  0
ARC
  5
109
330
46
100
AcDbEntity
  8
0
  6
Continuous
 62
     7
100
AcDbCircle
 10
63.00000000000001
 20
-74.00227616065644
 30
0.0
 40
6.999999999999951
100
AcDbArc
 50
-85.77055319243156
 51
-45.58469140280706
  0
ARC
  5
10A
330
46
100
AcDbEntity
  8
0
  6
Continuous
 62
     7
100
AcDbCircle
 10
-38.99999999999999
 20
-56.00227616065644
 30
0.0
 40
24.99999999999999
100
AcDbArc
 50
-90.0
 51
-39.80711504279514
  0
ARC
  5
10B
330
46
100
AcDbEntity
  8
0
  6
Continuous
 62
     7
100
AcDbCircle
 10
-38.99999999999999
 20
-56.00227616065644
 30
0.0
 40
24.99999999999996
100
AcDbArc
 50
-143.0570773255342
 51
-90.0
  0
ARC
  5
10C
330
46
100
AcDbEntity
  8
0
  6
Continuous
 62
     7
100
AcDbCircle
 10
-38.99999999999999
 20
-56.00227616065644
 30
0.0
 40
25.00000000000006
100
AcDbArc
 50
147.1401196211108
 51
-147.140119621111
  0
ARC
  5
10D
330
46
100
AcDbEntity
  8
0
  6
Continuous
 62
     7
100
AcDbCircle
 10
-60.00000000000001
 20
-71.00227616065644
 30
0.0
 40
10.00000000000001
100
AcDbArc
 50
180.0
 51
-109.6517991198959
  0
ARC
  5
10E
330
46
100
AcDbEntity
  8
0
  6
Continuous
 62
     7
100
AcDbCircle
 10
-38.99999999999999
 20
-56.00227616065644
 30
0.0
 40
24.99999999999999
100
AcDbArc
 50
-147.140119621111
 51
-143.0570773255342
  0
ARC
  5
10F
330
46
100
AcDbEntity
  8
0
  6
Continuous
 62
     7
100
AcDbCircle
 10
-38.99999999999999
 20
-56.00227616065644
 30
0.0
 40
25.0
100
AcDbArc
 50
90.0
 51
147.1401196211108
  0
ARC
  5
110
330
46
100
AcDbEntity
  8
0
  6
Continuous
 62
     7
100
AcDbCircle
 10
-38.99999999999999
 20
-56.00227616065644
 30
0.0
 40
25.0
100
AcDbArc
 50
-39.80711504279514
 51
90.0
  0
ARC
  5
111
330
46
100
AcDbEntity
  8
0
  6
Continuous
 62
     7
100
AcDbCircle
 10
63.00000000000001
 20
-74.00227616065644
 30
0.0
 40
7.000000000000026
100
AcDbArc
 50
-44.41530859719327
 51
0.0
  0
ARC
  5
112
330
46
100
AcDbEntity
  8
0
  6
Continuous
 62
     7
100
AcDbCircle
 10
63.00000000000001
 20
-74.00227616065644
 30
0.0
 40
6.999999999999996
100
AcDbArc
 50
-45.58469140280706
 51
-44.41530859719327
  0
ARC
  5
113
330
46
100
AcDbEntity
  8
1
  6
Continuous
 62
     7
100
AcDbCircle
 10
159.1214779825172
 20
-71.53251759327122
 30
0.0
 40
64.94182593330208
100
AcDbArc
 50
-177.8204974553679
 51
-139.1471492632951
  0
ARC
  5
114
330
46
100
AcDbEntity
  8
0
  6
Continuous
 62
     7
100
AcDbCircle
 10
-40.99999999999999
 20
-158.0022761606564
 30
0.0
 40
15.00000000000001
100
AcDbArc
 50
180.0
 51
-90.0
  0
ARC
  5
115
330
46
100
AcDbEntity
  8
0
  6
Continuous
 62
     7
100
AcDbCircle
 10
95.00000000000001
 20
-158.0022761606564
 30
0.0
 40
15.0
100
AcDbArc
 50
-90.0
 51
0.0
  0
CIRCLE
  5
116
330
46
100
AcDbEntity
  8
0
  6
Continuous
 62
     7
100
AcDbCircle
 10
-38.99999999999999
 20
-56.00227616065644
 30
0.0
 40
20.0
  0
SPLINE
  5
117
330
46
100
AcDbEntity
  8
0
  6
Continuous
 62
     7
100
AcDbSpline
210
0.0
220
0.0
230
1.0
 70
     8
 71
     3
 72
    12
 73
     8
 74
     6
 42
0.0000000001
 43
0.0000000001
 44
0.00000001
 40
0.0
 40
0.0
 40
0.0
 40
0.0
 40
0.1148469090961227
 40
0.2125774199097088
 40
0.2611116642196473
 40
0.2924901207190573
 40
0.3072673282557833
 40
0.3072673282557833
 40
0.3072673282557833
 40
0.3072673282557833
 10
-56.34090909090911
 20
2.127723839343503
 30
0.0
 10
-56.34025138602605
 20
2.165922439621303
 30
0.0
 10
-56.33903399839062
 20
2.236626648860585
 30
0.0
 10
-56.33273693423182
 20
2.324352591842221
 30
0.0
 10
-56.32131619763786
 20
2.381246534725161
 30
0.0
 10
-56.31592106651526
 20
2.414461740935594
 30
0.0
 10
-56.30386111630766
 20
2.424507565836453
 30
0.0
 10
-56.3
 20
2.427723839343457
 30
0.0
 11
-56.34090909090911
 21
2.127723839343503
 31
0.0
 11
-56.33779495686885
 21
2.242528519988991
 31
0.0
 11
-56.328927095594
 21
2.33985587369952
 31
0.0
 11
-56.32042882477189
 21
2.387640309070998
 31
0.0
 11
-56.31061673469298
 21
2.417445181500999
 31
0.0
 11
-56.3
 21
2.427723839343457
 31
0.0
  0
SPLINE
  5
118
330
46
100
AcDbEntity
  8
0
  6
Continuous
 62
     7
100
AcDbSpline
210
0.0
220
0.0
230
1.0
 70
     8
 71
     3
 72
    11
 73
     7
 74
     5
 42
0.0000000001
 43
0.0000000001
 44
0.00000001
 40
0.0
 40
0.0
 40
0.0
 40
0.0
 40
0.1162127249697994
 40
0.2262595628793796
 40
0.3269432478853239
 40
0.4204425180182397
 40
0.4204425180182397
 40
0.4204425180182397
 40
0.4204425180182397
 10
26.02561521725266
 20
2.127723839343503
 30
0.0
 10
26.02902565743163
 20
2.166696938608708
 30
0.0
 10
26.03566559040215
 20
2.242575345264188
 30
0.0
 10
26.08800713504181
 20
2.340636495342257
 30
0.0
 10
26.16584552021957
 20
2.412885696060203
 30
0.0
 10
26.23111437704771
 20
2.422901311410765
 30
0.0
 10
26.26254139118229
 20
2.427723839343457
 30
0.0
 11
26.02561521725266
 21
2.127723839343503
 31
0.0
 11
26.04365081391021
 21
2.242528519988991
 31
0.0
 11
26.09500928695608
 21
2.33985587369952
 31
0.0
 11
26.17187394540054
 21
2.404886856381562
 31
0.0
 11
26.26254139118229
 21
2.427723839343457
 31
0.0
  0
SPLINE
  5
119
330
46
100
AcDbEntity
  8
0
  6
Continuous
 62
     7
100
AcDbSpline
210
0.0
220
0.0
230
1.0
 70
     8
 71
     3
 72
    11
 73
     7
 74
     5
 42
0.0000000001
 43
0.0000000001
 44
0.00000001
 40
0.0
 40
0.0
 40
0.0
 40
0.0
 40
1.078887248797832
 40
2.361208585768074
 40
3.213576509662972
 40
4.114317549339638
 40
4.114317549339638
 40
4.114317549339638
 40
4.114317549339638
 10
-64.70812959306839
 20
-3.808236339660539
 30
0.0
 10
-65.06774364780479
 20
-3.804865562023174
 30
0.0
 10
-65.85478028629741
 20
-3.79748841570234
 30
0.0
 10
-66.92597007669363
 20
-3.793889454166061
 30
0.0
 10
-67.93779539738894
 20
-3.795570076222782
 30
0.0
 10
-68.52211118134467
 20
-3.803937293639032
 30
0.0
 10
-68.82233051606731
 20
-3.808236339660311
 30
0.0
 11
-64.70812959306839
 21
-3.808236339660539
 31
0.0
 11
-65.78697825896815
 21
-3.799112102439053
 31
0.0
 11
-67.0692919955574
 21
-3.794697104858244
 31
0.0
 11
-67.92165597018597
 21
-3.797291799503931
 31
0.0
 11
-68.82233051606731
 21
-3.808236339660311
 31
0.0
  0
SPLINE
  5
11A
330
46
100
AcDbEntity
  8
0
  6
Continuous
 62
     7
100
AcDbSpline
210
0.0
220
0.0
230
1.0
 70
     8
 71
     3
 72
    11
 73
     7
 74
     5
 42
0.0000000001
 43
0.0000000001
 44
0.00000001
 40
0.0
 40
0.0
 40
0.0
 40
0.0
 40
0.0473068344255233
 40
0.0945778222623407
 40
0.1418847832025961
 40
0.1891511097848099
 40
0.1891511097848099
 40
0.1891511097848099
 40
0.1891511097848099
 10
-46.43274706497552
 20
-8.574539064063401
 30
0.0
 10
-46.44851602953845
 20
-8.574517359064401
 30
0.0
 10
-46.48004200978643
 20
-8.574473965513292
 30
0.0
 10
-46.5273358170416
 20
-8.574115435274901
 30
0.0
 10
-46.57461423227045
 20
-8.57356093982125
 30
0.0
 10
-46.60613364377641
 20
-8.572994595576628
 30
0.0
 10
-46.62188657821432
 20
-8.572711545122047
 30
0.0
 11
-46.43274706497552
 21
-8.574539064063401
 31
0.0
 11
-46.48005376191904
 21
-8.574425012942008
 31
0.0
 11
-46.5273235115252
 21
-8.574082867886602
 31
0.0
 11
-46.57462702283406
 21
-8.573511578768944
 31
0.0
 11
-46.62188657821432
 21
-8.572711545122047
 31
0.0
  0
SPLINE
  5
11B
330
46
100
AcDbEntity
  8
0
  6
Continuous
 62
     7
100
AcDbSpline
210
0.0
220
0.0
230
1.0
 70
     8
 71
     3
 72
    11
 73
     7
 74
     5
 42
0.0000000001
 43
0.0000000001
 44
0.00000001
 40
0.0
 40
0.0
 40
0.0
 40
0.0
 40
2.701542517398574
 40
5.453109455003695
 40
8.153887231939358
 40
10.90622454135528
 40
10.90622454135528
 40
10.90622454135528
 40
10.90622454135528
 10
-46.62188657821432
 20
-8.572711545122047
 30
0.0
 10
-47.52222822307242
 20
-8.555082550861794
 30
0.0
 10
-49.33958312483314
 20
-8.519498126532476
 30
0.0
 10
-52.0569725611964
 20
-8.463675629398747
 30
0.0
 10
-54.79125567481165
 20
-8.40586172903177
 30
0.0
 10
-56.60852139953272
 20
-8.365897559837183
 30
0.0
 10
-57.52574544048339
 20
-8.345726543423211
 30
0.0
 11
-46.62188657821432
 21
-8.572711545122047
 31
0.0
 11
-49.3229029371895
 21
-8.519395488809536
 31
0.0
 11
-52.07389289878142
 21
-8.463049740592737
 31
0.0
 11
-54.77406483890262
 21
-8.405847518855714
 31
0.0
 11
-57.52574544048339
 21
-8.345726543423211
 31
0.0
  0
SPLINE
  5
11C
330
46
100
AcDbEntity
  8
0
  6
Continuous
 62
     7
100
AcDbSpline
210
0.0
220
0.0
230
1.0
 70
     8
 71
     3
 72
    11
 73
     7
 74
     5
 42
0.0000000001
 43
0.0000000001
 44
0.00000001
 40
0.0
 40
0.0
 40
0.0
 40
0.0
 40
0.6412309956570852
 40
1.271909586971194
 40
1.921331206360084
 40
2.544286496834212
 40
2.544286496834212
 40
2.544286496834212
 40
2.544286496834212
 10
-57.52574544048339
 20
-8.345726543423211
 30
0.0
 10
-57.73942336182665
 20
-8.335742037308139
 30
0.0
 10
-58.16326281831158
 20
-8.315937334892098
 30
0.0
 10
-58.79640629859203
 20
-8.21303026716188
 30
0.0
 10
-59.41371873650267
 20
-8.059807571238828
 30
0.0
 10
-59.80730184696368
 20
-7.900512899761767
 30
0.0
 10
-60.0000000003193
 20
-7.82252228426745
 30
0.0
 11
-57.52574544048339
 21
-8.345726543423211
 31
0.0
 11
-58.16558403750549
 21
-8.303491965738933
 31
0.0
 11
-58.78862833830969
 21
-8.205659022527811
 31
0.0
 11
-59.41731512599442
 21
-8.042866631058352
 31
0.0
 11
-60.0000000003193
 21
-7.82252228426745
 31
0.0
  0
SPLINE
  5
11D
330
46
100
AcDbEntity
  8
0
  6
Continuous
 62
     7
100
AcDbSpline
210
0.0
220
0.0
230
1.0
 70
     8
 71
     3
 72
    23
 73
    19
 74
    17
 42
0.0000000001
 43
0.0000000001
 44
0.00000001
 40
0.0
 40
0.0
 40
0.0
 40
0.0
 40
0.2239547968153765
 40
0.4454186288101868
 40
0.6548099279340397
 40
0.8890859927643026
 40
1.111816094239927
 40
1.330537154331266
 40
1.553802804163806
 40
1.772522776775313
 40
2.047903958353695
 40
2.273403406706694
 40
2.548788115314475
 40
2.775900043145749
 40
2.9776617596799
 40
3.156625892329557
 40
3.346035747297772
 40
3.539340578346284
 40
3.539340578346284
 40
3.539340578346284
 40
3.539340578346284
 10
-60.0000000003193
 20
-7.82252228426745
 30
0.0
 10
-60.06788178386737
 20
-7.791440848170648
 30
0.0
 10
-60.20289032746241
 20
-7.729623683079504
 30
0.0
 10
-60.39718042769378
 20
-7.630008108839871
 30
0.0
 10
-60.59111978823888
 20
-7.522502572543197
 30
0.0
 10
-60.78123885365
 20
-7.407494670237982
 30
0.0
 10
-60.9691539956966
 20
-7.28319904346964
 30
0.0
 10
-61.1487269188252
 20
-7.153284400003983
 30
0.0
 10
-61.32118465575135
 20
-7.016167751435148
 30
0.0
 10
-61.50073680566138
 20
-6.858097192876262
 30
0.0
 10
-61.67069117965953
 20
-6.688474199647673
 30
0.0
 10
-61.83983795673589
 20
-6.492403016024676
 30
0.0
 10
-61.98217876283024
 20
-6.295278733496753
 30
0.0
 10
-62.09900296113101
 20
-6.091202667551657
 30
0.0
 10
-62.1808377899999
 20
-5.905375847408957
 30
0.0
 10
-62.23806460614743
 20
-5.723901262661585
 30
0.0
 10
-62.27548323112903
 20
-5.539694559009011
 30
0.0
 10
-62.28034004974012
 20
-5.412033971710785
 30
0.0
 10
-62.2827931735301
 20
-5.3475540623661
 30
0.0
 11
-60.0000000003193
 21
-7.82252228426745
 31
0.0
 11
-60.20292551721596
 21
-7.727775328596891
 31
0.0
 11
-60.4001783420966
 21
-7.627089917744911
 31
0.0
 11
-60.58324258905019
 21
-7.525442499498852
 31
0.0
 11
-60.7836680708614
 21
-7.404137508698398
 31
0.0
 11
-60.96937620058253
 21
-7.281169266217574
 31
0.0
 11
-61.14651107040289
 21
-7.15286439483225
 31
0.0
 11
-61.32116139542217
 21
-7.013778758025985
 31
0.0
 11
-61.48518831748881
 21
-6.869094290108649
 31
0.0
 11
-61.67970444740066
 21
-6.674162839666131
 31
0.0
 11
-61.82669663100511
 21
-6.503156117088622
 31
0.0
 11
-61.98714375731654
 21
-6.279340439815115
 31
0.0
 11
-62.09944975201789
 21
-6.081939347322248
 31
0.0
 11
-62.18024410215544
 21
-5.897060837904149
 31
0.0
 11
-62.23408132902581
 21
-5.726386546407298
 31
0.0
 11
-62.27016840475184
 21
-5.540446190043695
 31
0.0
 11
-62.2827931735301
 21
-5.3475540623661
 31
0.0
  0
SPLINE
  5
11E
330
46
100
AcDbEntity
  8
0
  6
Continuous
 62
     7
100
AcDbSpline
210
0.0
220
0.0
230
1.0
 70
     8
 71
     3
 72
    15
 73
    11
 74
     9
 42
0.0000000001
 43
0.0000000001
 44
0.00000001
 40
0.0
 40
0.0
 40
0.0
 40
0.0
 40
0.3720452233531935
 40
0.7358077556419957
 40
1.143110569057449
 40
1.530957333722494
 40
1.809342387263489
 40
2.071991897676312
 40
2.290101560702448
 40
2.491696336116566
 40
2.491696336116566
 40
2.491696336116566
 40
2.491696336116566
 10
-69.7359568264698
 20
-5.347554062366044
 30
0.0
 10
-69.73809979268891
 20
-5.471585942372458
 30
0.0
 10
-69.74233801714426
 20
-5.716888431228602
 30
0.0
 10
-69.77601252935841
 20
-6.096702402327137
 30
0.0
 10
-69.82637451898707
 20
-6.479766324313472
 30
0.0
 10
-69.88320793473999
 20
-6.833082879470902
 30
0.0
 10
-69.93276556284333
 20
-7.138733822778542
 30
0.0
 10
-69.96853753397895
 20
-7.389218984360348
 30
0.0
 10
-69.99407922681655
 20
-7.615423647279402
 30
0.0
 10
-69.998078869386
 20
-7.755324383124934
 30
0.0
 10
-70.00000000000001
 20
-7.822522284409615
 30
0.0
 11
-69.7359568264698
 21
-5.347554062366044
 31
0.0
 11
-69.74684384461214
 21
-5.719439960264708
 31
0.0
 11
-69.7771320303576
 21
-6.081939347438549
 31
0.0
 11
-69.82919873591426
 21
-6.485900533678787
 31
0.0
 11
-69.889095795975
 21
-6.869094290226599
 31
0.0
 11
-69.93271262201627
 21
-7.144041213324691
 31
0.0
 11
-69.9692459271029
 21
-7.404137508837607
 31
0.0
 11
-69.9915348191732
 21
-7.621105318421549
 31
0.0
 11
-70.00000000000001
 21
-7.822522284409615
 31
0.0
  0
SPLINE
  5
11F
330
46
100
AcDbEntity
  8
0
  6
Continuous
 62
     7
100
AcDbSpline
210
0.0
220
0.0
230
1.0
 70
     8
 71
     3
 72
    23
 73
    19
 74
    17
 42
0.0000000001
 43
0.0000000001
 44
0.00000001
 40
0.0
 40
0.0
 40
0.0
 40
0.0
 40
0.0647211875120194
 40
0.1294700086401833
 40
0.1868944122646689
 40
0.2506780597034273
 40
0.3134490184566383
 40
0.3668034090351436
 40
0.4317938919053923
 40
0.4876575193618968
 40
0.547541876285163
 40
0.6009378510140886
 40
0.700072531323569
 40
0.7887112403316585
 40
0.8679492131153912
 40
0.9452194779318591
 40
1.227366594615177
 40
1.569223651233074
 40
1.569223651233074
 40
1.569223651233074
 40
1.569223651233074
 10
-69.7359568264698
 20
-4.80762716667931
 30
0.0
 10
-69.73576491666519
 20
-4.786052590603175
 30
0.0
 10
-69.7353810151174
 20
-4.742894226883928
 30
0.0
 10
-69.73236581513007
 20
-4.680653107552446
 30
0.0
 10
-69.72760938591698
 20
-4.618843695268645
 30
0.0
 10
-69.72091363634289
 20
-4.557870557663156
 30
0.0
 10
-69.71222144407281
 20
-4.498519455817373
 30
0.0
 10
-69.70128440886387
 20
-4.439134966721006
 30
0.0
 10
-69.6884198350135
 20
-4.382483485638407
 30
0.0
 10
-69.67226914366573
 20
-4.324421511501291
 30
0.0
 10
-69.65434172946685
 20
-4.270929026380135
 30
0.0
 10
-69.62794245755924
 20
-4.205199683954053
 30
0.0
 10
-69.59133497329296
 20
-4.133355606389118
 30
0.0
 10
-69.54031022305065
 20
-4.060069838484692
 30
0.0
 10
-69.48440126502095
 20
-4.000113270618241
 30
0.0
 10
-69.37037875289951
 20
-3.907817429953783
 30
0.0
 10
-69.14467933099445
 20
-3.822433852457723
 30
0.0
 10
-68.9364226999771
 20
-3.813261409293373
 30
0.0
 10
-68.82233051606731
 20
-3.808236339660311
 30
0.0
 11
-69.7359568264698
 21
-4.80762716667931
 31
0.0
 11
-69.73495506383367
 21
-4.742913732335374
 31
0.0
 11
-69.73192354256621
 21
-4.678235917620498
 31
0.0
 11
-69.72747778651653
 21
-4.620983866261838
 31
0.0
 11
-69.720493578682
 21
-4.557583751738946
 31
0.0
 11
-69.7113568594824
 21
-4.495481307140807
 31
0.0
 11
-69.7016633345731
 21
-4.443014874359108
 31
0.0
 11
-69.68720366523137
 21
-4.379653365331656
 31
0.0
 11
-69.67218007324051
 21
-4.325847821413845
 31
0.0
 11
-69.65307494322875
 21
-4.269092819772169
 31
0.0
 11
-69.63311271350041
 21
-4.219568689274752
 31
0.0
 11
-69.58768466957868
 21
-4.131455252924169
 31
0.0
 11
-69.5367836727524
 21
-4.058888667936913
 31
0.0
 11
-69.48267383517913
 21
-4.00100273001872
 31
0.0
 11
-69.42260533217389
 21
-3.952397496025697
 31
0.0
 11
-69.1623782754034
 21
-3.843361381012009
 31
0.0
 11
-68.82233051606731
 21
-3.808236339660311
 31
0.0
  0
SPLINE
  5
120
330
46
100
AcDbEntity
  8
0
  6
Continuous
 62
     7
100
AcDbSpline
210
0.0
220
0.0
230
1.0
 70
     8
 71
     3
 72
    25
 73
    21
 74
    19
 42
0.0000000001
 43
0.0000000001
 44
0.00000001
 40
0.0
 40
0.0
 40
0.0
 40
0.0
 40
0.3367520404268223
 40
0.6728938089967165
 40
1.01692694520682
 40
1.369774941839586
 40
1.544045178127617
 40
1.726736408094107
 40
1.90047568314008
 40
2.089189135755769
 40
2.176279180127439
 40
2.268592374404231
 40
2.347951070794972
 40
2.432977356038224
 40
2.499393691108339
 40
2.570978581898667
 40
2.64072130017423
 40
2.700979586099432
 40
2.762545916868961
 40
2.831777239694887
 40
2.831777239694887
 40
2.831777239694887
 40
2.831777239694887
 10
-64.70812959306839
 20
-3.808236339660539
 30
0.0
 10
-64.59588774135744
 20
-3.810388230279782
 30
0.0
 10
-64.37160744588871
 20
-3.814688111799404
 30
0.0
 10
-64.03325902419965
 20
-3.837816417789179
 30
0.0
 10
-63.69122537678896
 20
-3.879117549782825
 30
0.0
 10
-63.40585517034084
 20
-3.935127146493456
 30
0.0
 10
-63.17769483993759
 20
-3.998160354953681
 30
0.0
 10
-63.01026128910464
 20
-4.055725759627334
 30
0.0
 10
-62.84318707456637
 20
-4.127618348525887
 30
0.0
 10
-62.71144736071469
 20
-4.199806869063914
 30
0.0
 10
-62.60984218590597
 20
-4.268735185591487
 30
0.0
 10
-62.54201301307566
 20
-4.322172723407013
 30
0.0
 10
-62.47915975746211
 20
-4.380354448114481
 30
0.0
 10
-62.42741086921884
 20
-4.437460737221674
 30
0.0
 10
-62.38284530529612
 20
-4.497079844861963
 30
0.0
 10
-62.34689444509448
 20
-4.556414406320414
 30
0.0
 10
-62.31862642459851
 20
-4.617566059093794
 30
0.0
 10
-62.29877266212652
 20
-4.67835144239655
 30
0.0
 10
-62.285502240802
 20
-4.740894531023138
 30
0.0
 10
-62.28373079923921
 20
-4.784530569752249
 30
0.0
 10
-62.2827931735301
 20
-4.80762716667931
 30
0.0
 11
-64.70812959306839
 21
-3.808236339660539
 31
0.0
 11
-64.3715035659436
 21
-3.817447994984406
 31
0.0
 11
-64.036153192903
 21
-3.840500454263804
 31
0.0
 11
-63.69474207970681
 21
-3.88289444672376
 31
0.0
 11
-63.34880706432749
 21
-3.952397496025697
 31
0.0
 11
-63.18090735420862
 21
-3.99908585215318
 31
0.0
 11
-63.00828143283231
 21
-4.058888667936799
 31
0.0
 11
-62.84889432649975
 21
-4.128034065675415
 31
0.0
 11
-62.68386651102411
 21
-4.219568689274752
 31
0.0
 11
-62.61187081703942
 21
-4.26857170832789
 31
0.0
 11
-62.5394748730415
 21
-4.325847821413845
 31
0.0
 11
-62.48133817948923
 21
-4.379865666202832
 31
0.0
 11
-62.42440271873319
 21
-4.443014874359108
 31
0.0
 11
-62.38473368953331
 21
-4.496283042025027
 31
0.0
 11
-62.34776587139329
 21
-4.557583751738946
 31
0.0
 11
-62.31866545688261
 21
-4.620965236636124
 31
0.0
 11
-62.29992699050381
 21
-4.678235917620498
 31
0.0
 11
-62.28765500878181
 21
-4.738566768344136
 31
0.0
 11
-62.2827931735301
 21
-4.80762716667931
 31
0.0
  0
SPLINE
  5
121
330
46
100
AcDbEntity
  8
0
  6
Continuous
 62
     7
100
AcDbSpline
210
0.0
220
0.0
230
1.0
 70
     8
 71
     3
 72
    11
 73
     7
 74
     5
 42
0.0000000001
 43
0.0000000001
 44
0.00000001
 40
0.0
 40
0.0
 40
0.0
 40
0.0
 40
2.752345380693276
 40
5.453115086351604
 40
8.204682021771921
 40
10.90622454333735
 40
10.90622454333735
 40
10.90622454333735
 40
10.90622454333735
 10
57.52574544048336
 20
-8.345726543423211
 30
0.0
 10
56.60851870974764
 20
-8.365897618570031
 30
0.0
 10
54.79125298500782
 20
-8.405861786934452
 30
0.0
 10
52.05696987206479
 20
-8.463675684582887
 30
0.0
 10
49.33958312490093
 20
-8.519498126545267
 30
0.0
 10
47.52222822247948
 20
-8.555082550877714
 30
0.0
 10
46.62188657623261
 20
-8.572711545160303
 30
0.0
 11
57.52574544048336
 21
-8.345726543423211
 31
0.0
 11
54.77405676949308
 21
-8.40584769250853
 31
0.0
 11
52.07389289878139
 21
-8.463049740592737
 31
0.0
 11
49.32290293937383
 21
-8.519395488765397
 31
0.0
 11
46.62188657623261
 21
-8.572711545160303
 31
0.0
  0
SPLINE
  5
122
330
46
100
AcDbEntity
  8
0
  6
Continuous
 62
     7
100
AcDbSpline
210
0.0
220
0.0
230
1.0
 70
     8
 71
     3
 72
    11
 73
     7
 74
     5
 42
0.0000000001
 43
0.0000000001
 44
0.00000001
 40
0.0
 40
0.0
 40
0.0
 40
0.0
 40
0.0472663260896999
 40
0.0945732865315304
 40
0.1420088610033483
 40
0.1891511077987104
 40
0.1891511077987104
 40
0.1891511077987104
 40
0.1891511077987104
 10
46.62188657623261
 20
-8.572711545160303
 30
0.0
 10
46.60613364194083
 20
-8.572994594931416
 30
0.0
 10
46.57461423072913
 20
-8.573560937808487
 30
0.0
 10
46.52728095738107
 20
-8.574116086834927
 30
0.0
 10
46.47998714630847
 20
-8.57447423704352
 30
0.0
 10
46.44846116674861
 20
-8.574517499781836
 30
0.0
 10
46.43274706497548
 20
-8.574539064062549
 30
0.0
 11
46.62188657623261
 21
-8.572711545160303
 31
0.0
 11
46.57462702134465
 21
-8.573511578790374
 31
0.0
 11
46.52732351053411
 21
-8.574082867896152
 31
0.0
 11
46.47988917571951
 21
-8.574425805452364
 31
0.0
 11
46.43274706497548
 21
-8.574539064062549
 31
0.0
  0
SPLINE
  5
123
330
46
100
AcDbEntity
  8
0
  6
Continuous
 62
     7
100
AcDbSpline
210
0.0
220
0.0
230
1.0
 70
     8
 71
     3
 72
    13
 73
     9
 74
     7
 42
0.0000000001
 43
0.0000000001
 44
0.00000001
 40
0.0
 40
0.0
 40
0.0
 40
0.0
 40
0.3728352756868389
 40
0.7895483424990022
 40
1.250217860715899
 40
1.749563582599634
 40
3.033786943460158
 40
4.114323338051403
 40
4.114323338051403
 40
4.114323338051403
 40
4.114323338051403
 10
68.82233051606677
 20
-3.808236339660198
 30
0.0
 10
68.69806989337918
 20
-3.806109796317373
 30
0.0
 10
68.43492481275304
 20
-3.801606443547205
 30
0.0
 10
68.01820054789599
 20
-3.797688691900476
 30
0.0
 10
67.55929736411957
 20
-3.795179825646078
 30
0.0
 10
66.81121715517722
 20
-3.794071684285703
 30
0.0
 10
65.85651265038646
 20
-3.797530694767793
 30
0.0
 10
65.06829302586529
 20
-3.804878765033799
 30
0.0
 10
64.70812959308417
 20
-3.808236339660198
 30
0.0
 11
68.82233051606677
 21
-3.808236339660198
 31
0.0
 11
68.44954235683643
 21
-3.802309187381353
 31
0.0
 11
68.03285069087671
 21
-3.798085969211115
 31
0.0
 11
67.57218818602674
 21
-3.795543993693527
 31
0.0
 11
67.07284318230397
 21
-3.794697104858244
 31
0.0
 11
65.78862737421575
 21
-3.799101515853941
 31
0.0
 11
64.70812959308417
 21
-3.808236339660198
 31
0.0
  0
SPLINE
  5
124
330
46
100
AcDbEntity
  8
0
  6
Continuous
 62
     7
100
AcDbSpline
210
0.0
220
0.0
230
1.0
 70
     8
 71
     3
 72
    21
 73
    17
 74
    15
 42
0.0000000001
 43
0.0000000001
 44
0.00000001
 40
0.0
 40
0.0
 40
0.0
 40
0.0
 40
0.3418570566185851
 40
0.6240041733017009
 40
0.7012744381514665
 40
0.7805124109019655
 40
0.8691511199161517
 40
0.968285800219532
 40
1.021681774898105
 40
1.081566131871717
 40
1.137429759337032
 40
1.202420242198418
 40
1.261392546406427
 40
1.318545591623897
 40
1.460839787643706
 40
1.569188633761867
 40
1.569188633761867
 40
1.569188633761867
 40
1.569188633761867
 10
68.82233051606677
 20
-3.808236339660198
 30
0.0
 10
68.93642270002249
 20
-3.813261409301786
 30
0.0
 10
69.14467933112343
 20
-3.822433852481688
 30
0.0
 10
69.37037875261966
 20
-3.907817429904162
 30
0.0
 10
69.48440126529437
 20
-4.000113270674934
 30
0.0
 10
69.54031022194647
 20
-4.060069838289505
 30
0.0
 10
69.59133497824342
 20
-4.133355607307021
 30
0.0
 10
69.62794244082227
 20
-4.205199680844346
 30
0.0
 10
69.65434176234712
 20
-4.270929032451207
 30
0.0
 10
69.67226900523569
 20
-4.324421485866425
 30
0.0
 10
69.68842034481409
 20
-4.38248358000056
 30
0.0
 10
69.70169710092385
 20
-4.440961474820607
 30
0.0
 10
69.71252772209549
 20
-4.500370793717256
 30
0.0
 10
69.72483097652726
 20
-4.58563485463169
 30
0.0
 10
69.73415023612117
 20
-4.687956007605337
 30
0.0
 10
69.73541157186644
 20
-4.771508712687845
 30
0.0
 10
69.73595682646997
 20
-4.80762716667931
 30
0.0
 11
68.82233051606677
 21
-3.808236339660198
 31
0.0
 11
69.16237827540353
 21
-3.843361381012124
 31
0.0
 11
69.42260533217384
 21
-3.952397496025697
 31
0.0
 11
69.48267383520358
 21
-4.001002730041377
 31
0.0
 11
69.53678367275243
 21
-4.058888667936913
 31
0.0
 11
69.58768466958185
 21
-4.131455252929413
 31
0.0
 11
69.63311271350044
 21
-4.219568689274752
 31
0.0
 11
69.65307494321128
 21
-4.269092819724931
 31
0.0
 11
69.67218007324053
 21
-4.325847821413845
 31
0.0
 11
69.68720366523355
 21
-4.379653365340197
 31
0.0
 11
69.70166333457313
 21
-4.443014874359051
 31
0.0
 11
69.71227145133682
 21
-4.501025222766295
 31
0.0
 11
69.72049357868197
 21
-4.557583751738946
 31
0.0
 11
69.73313865289558
 21
-4.699314977370619
 31
0.0
 11
69.73595682646997
 21
-4.80762716667931
 31
0.0
  0
SPLINE
  5
125
330
46
100
AcDbEntity
  8
0
  6
Continuous
 62
     7
100
AcDbSpline
210
0.0
220
0.0
230
1.0
 70
     8
 71
     3
 72
    23
 73
    19
 74
    17
 42
0.0000000001
 43
0.0000000001
 44
0.00000001
 40
0.0
 40
0.0
 40
0.0
 40
0.0
 40
0.126918752132113
 40
0.2603144832629216
 40
0.3276355506720641
 40
0.3983166655764531
 40
0.4779813725144698
 40
0.5627027226330472
 40
0.6494983836404468
 40
0.7421066364757347
 40
0.9308200890961128
 40
1.104559364137196
 40
1.28725059396999
 40
1.46152083039176
 40
1.814368826975143
 40
2.158401963234563
 40
2.494543731834746
 40
2.831295772247364
 40
2.831295772247364
 40
2.831295772247364
 40
2.831295772247364
 10
62.28279317353007
 20
-4.80762716667931
 30
0.0
 10
62.28601964063007
 20
-4.765219663637086
 30
0.0
 10
62.29263722945592
 20
-4.678240497395234
 30
0.0
 10
62.33555155729255
 20
-4.575879981907699
 30
0.0
 10
62.38199718236319
 20
-4.498274032109631
 30
0.0
 10
62.42540156257819
 20
-4.439947125909728
 30
0.0
 10
62.47788233838615
 20
-4.38162984732336
 30
0.0
 10
62.53926253712777
 20
-4.324531916407024
 30
0.0
 10
62.60834507953349
 20
-4.269820974460308
 30
0.0
 10
62.70983343704289
 20
-4.20069108635024
 30
0.0
 10
62.84318607704051
 20
-4.127618942970735
 30
0.0
 10
63.01026156182628
 20
-4.055725597100849
 30
0.0
 10
63.17769477073514
 20
-3.998160396180389
 30
0.0
 10
63.40585521001611
 20
-3.935127122827367
 30
0.0
 10
63.69122536358938
 20
-3.879117557641194
 30
0.0
 10
64.03325902758154
 20
-3.837816415769731
 30
0.0
 10
64.37160744506312
 20
-3.814688112299777
 30
0.0
 10
64.59588774109753
 20
-3.810388230446351
 30
0.0
 10
64.70812959308417
 20
-3.808236339660198
 30
0.0
 11
62.28279317353007
 21
-4.80762716667931
 31
0.0
 11
62.2990046959269
 21
-4.681748033442901
 31
0.0
 11
62.34776587139329
 21
-4.557583751738946
 31
0.0
 11
62.38235066013562
 21
-4.49982547523458
 31
0.0
 11
62.42440271873321
 21
-4.443014874359108
 31
0.0
 11
62.47756828165433
 21
-4.383686226550473
 31
0.0
 11
62.5394748730414
 21
-4.325847821413845
 31
0.0
 11
62.60741869212964
 21
-4.271837412996433
 31
0.0
 11
62.68386651102404
 21
-4.219568689274752
 31
0.0
 11
62.84889432650395
 21
-4.128034065673447
 31
0.0
 11
63.00828143283209
 21
-4.058888667936913
 31
0.0
 11
63.18090735408061
 21
-3.999085852192841
 31
0.0
 11
63.34880706432726
 21
-3.952397496025697
 31
0.0
 11
63.69474207965775
 21
-3.882894446731434
 31
0.0
 11
64.03615319290269
 21
-3.840500454263804
 31
0.0
 11
64.37150356597355
 21
-3.817447994983083
 31
0.0
 11
64.70812959308417
 21
-3.808236339660198
 31
0.0
  0
SPLINE
  5
126
330
46
100
AcDbEntity
  8
0
  6
Continuous
 62
     7
100
AcDbSpline
210
0.0
220
0.0
230
1.0
 70
     8
 71
     3
 72
    13
 73
     9
 74
     7
 42
0.0000000001
 43
0.0000000001
 44
0.00000001
 40
0.0
 40
0.0
 40
0.0
 40
0.0
 40
0.6229552901994082
 40
1.272376909514614
 40
1.570127279490829
 40
1.909283350674641
 40
2.226091881160512
 40
2.54460816670813
 40
2.54460816670813
 40
2.54460816670813
 40
2.54460816670813
 10
60.00000000000001
 20
-7.822522284409615
 30
0.0
 10
59.80731719565718
 20
-7.9004859403028
 30
0.0
 10
59.4137654352606
 20
-8.059725547222389
 30
0.0
 10
58.90424976868668
 20
-8.186491257014879
 30
0.0
 10
58.4824895311685
 20
-8.263695133940017
 30
0.0
 10
58.16722039530779
 20
-8.305652947706356
 30
0.0
 10
57.84355551601294
 20
-8.334746709538988
 30
0.0
 10
57.63187180115235
 20
-8.34206004603813
 30
0.0
 10
57.52574544048336
 20
-8.345726543423211
 30
0.0
 11
60.00000000000001
 21
-7.822522284409615
 31
0.0
 11
59.41731512592532
 21
-8.042866631085438
 31
0.0
 11
58.78862833830969
 21
-8.205659022527811
 31
0.0
 11
58.49569111358422
 21
-8.258979423793292
 31
0.0
 11
58.15955744978118
 21
-8.304156859302452
 31
0.0
 11
57.84395702298492
 21
-8.331797691320176
 31
0.0
 11
57.52574544048336
 21
-8.345726543423211
 31
0.0
  0
SPLINE
  5
127
330
46
100
AcDbEntity
  8
0
  6
Continuous
 62
     7
100
AcDbSpline
210
0.0
220
0.0
230
1.0
 70
     8
 71
     3
 72
    21
 73
    17
 74
    15
 42
0.0000000001
 43
0.0000000001
 44
0.00000001
 40
0.0
 40
0.0
 40
0.0
 40
0.0
 40
0.1843703946210494
 40
0.3827148665359121
 40
0.5616789990840833
 40
0.7634407157196796
 40
1.285046364260801
 40
1.765752471312687
 40
1.968083112095981
 40
2.207737836825494
 40
2.411121149586954
 40
2.649188739891042
 40
2.869379877824184
 40
3.092856494701986
 40
3.301229825437956
 40
3.538274898508929
 40
3.538274898508929
 40
3.538274898508929
 40
3.538274898508929
 10
62.28279317353024
 20
-5.3475540623661
 30
0.0
 10
62.28054942027508
 20
-5.40904834581822
 30
0.0
 10
62.27589185185496
 20
-5.536697779624943
 30
0.0
 10
62.23896902091749
 20
-5.721061221044891
 30
0.0
 10
62.18083331433335
 20
-5.905379389457359
 30
0.0
 10
62.05937407518893
 20
-6.181199569128508
 30
0.0
 10
61.83359732030857
 20
-6.51733329898342
 30
0.0
 10
61.55587619528
 20
-6.808879843892004
 30
0.0
 10
61.32540018155341
 20
-7.012667150290361
 30
0.0
 10
61.15714919174749
 20
-7.146892476286286
 30
0.0
 10
60.97337139209148
 20
-7.280291838393142
 30
0.0
 10
60.78952608321246
 20
-7.402252586872354
 30
0.0
 10
60.59518720356574
 20
-7.520143532889157
 30
0.0
 10
60.40517338141167
 20
-7.625746360708757
 30
0.0
 10
60.20681395496605
 20
-7.727701792829302
 30
0.0
 10
60.07183421637639
 20
-7.789587583701373
 30
0.0
 10
60.00000000000001
 20
-7.822522284409615
 30
0.0
 11
62.28279317353024
 21
-5.3475540623661
 31
0.0
 11
62.2713041584442
 21
-5.531566140624768
 31
0.0
 11
62.23408132902573
 21
-5.726386546407298
 31
0.0
 11
62.18024410219098
 21
-5.897060837808972
 31
0.0
 11
62.09944975201789
 21
-6.081939347322248
 31
0.0
 11
61.81424750519057
 21
-6.518668246062248
 31
0.0
 11
61.48518831748877
 21
-6.869094290108649
 31
0.0
 11
61.33371193601396
 21
-7.003230765591929
 31
0.0
 11
61.14651107040285
 21
-7.15286439483225
 31
0.0
 11
60.98197668955525
 21
-7.272418606087733
 31
0.0
 11
60.78366807086146
 21
-7.404137508698398
 31
0.0
 11
60.59542997023617
 21
-7.518376533104572
 31
0.0
 11
60.40017834209663
 21
-7.627089917745138
 31
0.0
 11
60.21468361973766
 21
-7.722017010500428
 31
0.0
 11
60.00000000000001
 21
-7.822522284409615
 31
0.0
  0
SPLINE
  5
128
330
46
100
AcDbEntity
  8
0
  6
Continuous
 62
     7
100
AcDbSpline
210
0.0
220
0.0
230
1.0
 70
     8
 71
     3
 72
    15
 73
    11
 74
     9
 42
0.0000000001
 43
0.0000000001
 44
0.00000001
 40
0.0
 40
0.0
 40
0.0
 40
0.0
 40
0.2015947755386849
 40
0.4197044385803858
 40
0.6823539489837657
 40
0.9607390025133979
 40
1.348585767177336
 40
1.755888580591389
 40
2.119651112826895
 40
2.491696336116394
 40
2.491696336116394
 40
2.491696336116394
 40
2.491696336116394
 10
70.00000000000001
 20
-7.822522284409615
 30
0.0
 10
69.99807886938306
 20
-7.755324383083462
 30
0.0
 10
69.99407922680862
 20
-7.615423647191315
 30
0.0
 10
69.96853753396249
 20
-7.389218984229437
 30
0.0
 10
69.93276556282288
 20
-7.138733822649949
 30
0.0
 10
69.88320793472019
 20
-6.833082879349631
 30
0.0
 10
69.82637451896942
 20
-6.479766324196521
 30
0.0
 10
69.77601252934765
 20
-6.096702402227992
 30
0.0
 10
69.74233801714217
 20
-5.716888431168405
 30
0.0
 10
69.73809979268822
 20
-5.471585942351275
 30
0.0
 10
69.73595682646982
 20
-5.3475540623661
 30
0.0
 11
70.00000000000001
 21
-7.822522284409615
 31
0.0
 11
69.99153481916225
 21
-7.621105318297332
 31
0.0
 11
69.9692459270856
 21
-7.404137508698398
 31
0.0
 11
69.93271262199649
 21
-7.144041213195364
 31
0.0
 11
69.88909579595602
 21
-6.869094290108649
 31
0.0
 11
69.82919873589705
 21
-6.485900533561682
 31
0.0
 11
69.77713203034511
 21
-6.081939347322248
 31
0.0
 11
69.74684384460849
 21
-5.71943996020115
 31
0.0
 11
69.73595682646982
 21
-5.3475540623661
 31
0.0
  0
SPLINE
  5
129
330
46
100
AcDbEntity
  8
0
  6
Continuous
 62
     7
100
AcDbSpline
210
0.0
220
0.0
230
1.0
 70
     8
 71
     3
 72
    15
 73
    11
 74
     9
 42
0.0000000001
 43
0.0000000001
 44
0.00000001
 40
0.0
 40
0.0
 40
0.0
 40
0.0
 40
0.3162434203168527
 40
0.6130833429766324
 40
0.9218783367355967
 40
1.240049776164203
 40
1.576924340723099
 40
1.882283356363654
 40
2.220513484136285
 40
2.540078410325914
 40
2.540078410325914
 40
2.540078410325914
 40
2.540078410325914
 10
-60.00000000000001
 20
-80.88719903573804
 30
0.0
 10
-60.10371692392828
 20
-80.86812992329321
 30
0.0
 10
-60.30478709443646
 20
-80.83116170686817
 30
0.0
 10
-60.60165911226423
 20
-80.75064902292354
 30
0.0
 10
-60.89400146511022
 20
-80.65344641205196
 30
0.0
 10
-61.19220165825283
 20
-80.53331615998437
 30
0.0
 10
-61.4815860984821
 20
-80.39591198538253
 30
0.0
 10
-61.76822137852231
 20
-80.23865174001216
 30
0.0
 10
-62.0415348133649
 20
-80.06971760450037
 30
0.0
 10
-62.21986725028349
 20
-79.9420639000496
 30
0.0
 10
-62.3065033411112
 20
-79.88004816065643
 30
0.0
 11
-60.00000000000001
 21
-80.88719903573804
 31
0.0
 11
-60.31018245872747
 21
-80.8255813175761
 31
0.0
 11
-60.5969980679471
 21
-80.74909114832121
 31
0.0
 11
-60.88995946876319
 21
-80.65147984875775
 31
0.0
 11
-61.18516762285891
 21
-80.53279871873502
 31
0.0
 11
-61.48949747320195
 21
-80.38834175477368
 31
0.0
 11
-61.7573689019366
 21
-80.24175039725003
 31
0.0
 11
-62.04462918819346
 21
-80.0631974715593
 31
0.0
 11
-62.3065033411112
 21
-79.88004816065643
 31
0.0
  0
SPLINE
  5
12A
330
46
100
AcDbEntity
  8
0
  6
Continuous
 62
     7
100
AcDbSpline
210
0.0
220
0.0
230
1.0
 70
    24
 71
     3
 72
    13
 73
     9
 74
     7
 42
0.0000000001
 43
0.0000000001
 44
0.00000001
 40
0.0
 40
0.0
 40
0.0
 40
0.0
 40
0.99010491150284
 40
1.874446785945594
 40
2.686306998869725
 40
3.327787966485602
 40
3.663893983242801
 40
4.0
 40
4.0
 40
4.0
 40
4.0
 10
60.00000000000001
 20
-77.00227616065644
 30
0.0
 10
60.00000000000001
 20
-77.3323111311574
 30
0.0
 10
60.00000000000001
 20
-77.95712672647261
 30
0.0
 10
60.0
 20
-78.85256239276248
 30
0.0
 10
60.00000000000001
 20
-79.63179007775676
 30
0.0
 10
60.00000000000001
 20
-80.2282724768558
 30
0.0
 10
60.0
 20
-80.66617014389925
 30
0.0
 10
60.00000000000001
 20
-80.89024082173736
 30
0.0
 10
60.00000000000001
 20
-81.00227616065644
 30
0.0
 11
60.00000000000001
 21
-77.00227616065644
 31
0.0
 11
60.00000000000001
 21
-77.99238107215928
 31
0.0
 11
60.00000000000001
 21
-78.87672294660203
 31
0.0
 11
60.00000000000001
 21
-79.68858315952616
 31
0.0
 11
60.00000000000001
 21
-80.33006412714204
 31
0.0
 11
60.00000000000001
 21
-80.66617014389924
 31
0.0
 11
60.00000000000001
 21
-81.00227616065644
 31
0.0
  0
SPLINE
  5
12B
330
46
100
AcDbEntity
  8
0
  6
Continuous
 62
     7
100
AcDbSpline
210
0.0
220
0.0
230
1.0
 70
     8
 71
     3
 72
     9
 73
     5
 74
     3
 42
0.0000000001
 43
0.0000000001
 44
0.00000001
 40
0.0
 40
0.0
 40
0.0
 40
0.0
 40
0.7134600814352662
 40
1.414292958204026
 40
1.414292958204026
 40
1.414292958204026
 40
1.414292958204026
 10
-38.88455900847173
 20
-107.6994595438192
 30
0.0
 10
-39.12236604140643
 20
-107.6956907652124
 30
0.0
 10
-39.59377126903225
 20
-107.6882199098928
 30
0.0
 10
-40.06517507876872
 20
-107.6957353658776
 30
0.0
 10
-40.29877257084481
 20
-107.6994595438192
 30
0.0
 11
-38.88455900847173
 21
-107.6994595438192
 31
0.0
 11
-39.59797974644556
 21
-107.691966985478
 31
0.0
 11
-40.29877257084481
 21
-107.6994595438192
 31
0.0
  0
SPLINE
  5
12C
330
46
100
AcDbEntity
  8
0
  6
Continuous
 62
     7
100
AcDbSpline
210
0.0
220
0.0
230
1.0
 70
     8
 71
     3
 72
    11
 73
     7
 74
     5
 42
0.0000000001
 43
0.0000000001
 44
0.00000001
 40
0.0
 40
0.0
 40
0.0
 40
0.0
 40
0.3469479847666061
 40
0.6941810766197043
 40
1.039673048541405
 40
1.385982859754538
 40
1.385982859754538
 40
1.385982859754538
 40
1.385982859754538
 10
-60.00000000000001
 20
-80.88719903573804
 30
0.0
 10
-59.88569095700507
 20
-80.90487266528456
 30
0.0
 10
-59.65697893670906
 20
-80.94023444781405
 30
0.0
 10
-59.31207327220962
 20
-80.9752797309118
 30
0.0
 10
-58.96634857838659
 20
-80.99809010032556
 30
0.0
 10
-58.73572670644147
 20
-81.00087970793322
 30
0.0
 10
-58.62027945134331
 20
-81.00227616065644
 30
0.0
 11
-60.00000000000001
 21
-80.88719903573804
 31
0.0
 11
-59.65667853689039
 21
-80.93723179602448
 31
0.0
 11
-59.31132300212362
 21
-80.97329250433452
 31
0.0
 11
-58.96651239553559
 21
-80.99498001794805
 31
0.0
 11
-58.62027945134331
 21
-81.00227616065644
 31
0.0
  0
SPLINE
  5
12D
330
46
100
AcDbEntity
  8
0
  6
Continuous
 62
     7
100
AcDbSpline
210
0.0
220
0.0
230
1.0
 70
     8
 71
     3
 72
    15
 73
    11
 74
     9
 42
0.0000000001
 43
0.0000000001
 44
0.00000001
 40
0.0
 40
0.0
 40
0.0
 40
0.0
 40
0.1341296584712126
 40
0.2561386271122824
 40
0.4159821236727692
 40
0.5628066499709826
 40
0.7220284043506078
 40
0.9236019050333859
 40
1.123489274638658
 40
1.335386078770613
 40
1.335386078770613
 40
1.335386078770613
 40
1.335386078770613
 10
-62.4212530694456
 20
-79.88004816009573
 30
0.0
 10
-62.46000100487454
 20
-79.90261170125258
 30
0.0
 10
-62.53399540027768
 20
-79.9456998185309
 30
0.0
 10
-62.66674412611406
 20
-79.98840799905223
 30
0.0
 10
-62.80750382650344
 20
-80.01471636492869
 30
0.0
 10
-62.96275868265953
 20
-80.02484621207725
 30
0.0
 10
-63.13210614776288
 20
-80.02053288620958
 30
0.0
 10
-63.31801259282331
 20
-79.99928825087608
 30
0.0
 10
-63.51913278774138
 20
-79.9613499562877
 30
0.0
 10
-63.6515918589463
 20
-79.9251859617224
 30
0.0
 10
-63.71975293860091
 20
-79.90657661400641
 30
0.0
 11
-62.4212530694456
 21
-79.88004816009573
 31
0.0
 11
-62.53962067782
 21
-79.94313440716533
 31
0.0
 11
-62.65515819249019
 21
-79.98234245650082
 31
0.0
 11
-62.8121857344585
 21
-80.0122137546995
 31
0.0
 11
-62.95865324168439
 21
-80.02244658665003
 31
0.0
 11
-63.11783385777697
 21
-80.0188273977753
 31
0.0
 11
-63.31820009660142
 21
-79.99679908606393
 31
0.0
 11
-63.51459047369349
 21
-79.95957301571866
 31
0.0
 11
-63.71975293860091
 21
-79.90657661400641
 31
0.0
  0
SPLINE
  5
12E
330
46
100
AcDbEntity
  8
0
  6
Continuous
 62
     7
100
AcDbSpline
210
0.0
220
0.0
230
1.0
 70
     8
 71
     3
 72
   264
 73
   260
 74
   258
 42
0.0000000001
 43
0.0000000001
 44
0.00000001
 40
0.0
 40
0.0
 40
0.0
 40
0.0
 40
0.0137757828142608
 40
0.0275145551612063
 40
0.0412160225571558
 40
0.0548798924492408
 40
0.0685058742152241
 40
0.0820936791636308
 40
0.0956430205336682
 40
0.1091536134952557
 40
0.1226251751490457
 40
0.1360574245263428
 40
0.1494500825892049
 40
0.1628028722304131
 40
0.1761155182734214
 40
0.1893877474723976
 40
0.2026192885122629
 40
0.2158098720085523
 40
0.228959230507615
 40
0.2420670984865444
 40
0.2551332123529173
 40
0.268157310445276
 40
0.2811391330327669
 40
0.294078422315201
 40
0.3069749224232046
 40
0.3198283794180284
 40
0.3326385412916688
 40
0.3454051579668674
 40
0.358127981296991
 40
0.3708067650662121
 40
0.3834412649894092
 40
0.3960312387120157
 40
0.4085764458104222
 40
0.4210766477915244
 40
0.4335316080931148
 40
0.4459410920835016
 40
0.4583048670617998
 40
0.4706227022579212
 40
0.4828943688323337
 40
0.4951196398763625
 40
0.507298290411909
 40
0.5194300973917123
 40
0.531514839699138
 40
0.5435522981483093
 40
0.5555422554840563
 40
0.5674844963818666
 40
0.5793788074480656
 40
0.5912249772195758
 40
0.6030227961640574
 40
0.6147720566799587
 40
0.6264725530963253
 40
0.6381240816730613
 40
0.6497264406006182
 40
0.661279430000276
 40
0.6727828519240227
 40
0.6842365103545345
 40
0.6956402112051456
 40
0.7069937623200495
 40
0.7182969734740171
 40
0.7295496563725883
 40
0.7407516246520116
 40
0.7519026938793445
 40
0.7630026815521321
 40
0.7740514070988394
 40
0.7850486918786198
 40
0.7959943591812054
 40
0.8068882342272279
 40
0.8177301441678974
 40
0.8285199180852132
 40
0.8392573869918439
 40
0.8499423838312273
 40
0.8605747434774501
 40
0.8711543027353585
 40
0.8816809003405283
 40
0.8921543769592041
 40
0.9025745751883602
 40
0.9129413395557505
 40
0.923254516519708
 40
0.9335139544694157
 40
0.9437195037247157
 40
0.9538710165361802
 40
0.9639683470850707
 40
0.9740113514833885
 40
0.9839998877738444
 40
0.9939338159298392
 40
1.003812997855564
 40
1.013637297385838
 40
1.023406580286302
 40
1.033120714253135
 40
1.042779568913449
 40
1.052383015824912
 40
1.061930928475994
 40
1.071423182285844
 40
1.080859654604313
 40
1.09024022471202
 40
1.099564773820223
 40
1.108833185071014
 40
1.11804534353708
 40
1.127201136221902
 40
1.13630045205964
 40
1.145343181915162
 40
1.154329218584109
 40
1.16325845679277
 40
1.172130793198185
 40
1.180946126388144
 40
1.189704356881066
 40
1.198405387126152
 40
1.207049121503312
 40
1.215635466323175
 40
1.224164329827062
 40
1.232635622186993
 40
1.241049255505799
 40
1.249405143816888
 40
1.257703203084533
 40
1.265943351203632
 40
1.274125507999797
 40
1.282249595229388
 40
1.290315536579454
 40
1.298323257667786
 40
1.306272686042874
 40
1.314163751183989
 40
1.321996384500981
 40
1.329770519334538
 40
1.337486090956041
 40
1.34514303656753
 40
1.352741295301794
 40
1.360280808222371
 40
1.367761518323502
 40
1.375183370530104
 40
1.382546311697826
 40
1.389850290613065
 40
1.3970952579929
 40
1.404281166485158
 40
1.411407970668335
 40
1.418475627051697
 40
1.425484094075181
 40
1.432433332109472
 40
1.439323303455893
 40
1.446153972346649
 40
1.452925304944473
 40
1.459637269342938
 40
1.466289835566295
 40
1.472882975569504
 40
1.479416663238206
 40
1.48589087438887
 40
1.492305586768503
 40
1.498660780055022
 40
1.504956435856934
 40
1.511192537713511
 40
1.517369071094709
 40
1.523486023401188
 40
1.529543383964368
 40
1.535541144046391
 40
1.541479296840051
 40
1.547357837468927
 40
1.553176762987232
 40
1.558936072379978
 40
1.564635766562847
 40
1.570275848382237
 40
1.575856322615246
 40
1.581377195969747
 40
1.586838477084255
 40
1.592240176528029
 40
1.597582306801067
 40
1.602864882334046
 40
1.608087919488369
 40
1.613251436556127
 40
1.618355453760177
 40
1.623399993254055
 40
1.628385079122004
 40
1.633310737379054
 40
1.63817699597078
 40
1.642983884773686
 40
1.647731435594803
 40
1.652419682171956
 40
1.65704866017376
 40
1.661618407199383
 40
1.666128962778832
 40
1.670580368372748
 40
1.67497266737251
 40
1.679305905100223
 40
1.683580128808755
 40
1.687795387681542
 40
1.691951732832856
 40
1.696049217307663
 40
1.700087896081564
 40
1.704067826060988
 40
1.707989066082946
 40
1.711851676915294
 40
1.715655721256516
 40
1.719401263735796
 40
1.723088370913086
 40
1.726717111279032
 40
1.730287555254951
 40
1.733799775192868
 40
1.737253845375651
 40
1.740649842016649
 40
1.743987843260137
 40
1.747267929180994
 40
1.7504901817848
 40
1.75365468500787
 40
1.756761524717261
 40
1.759810788710663
 40
1.762802566716538
 40
1.765736950394042
 40
1.768614033333022
 40
1.771433911054047
 40
1.774196681008398
 40
1.77690244257806
 40
1.779551297075715
 40
1.782143347744771
 40
1.784678699759334
 40
1.787157460224194
 40
1.789579738174899
 40
1.791945644577661
 40
1.794255292329439
 40
1.796508796257866
 40
1.798706273121263
 40
1.800847841608702
 40
1.802933622339985
 40
1.804963737865525
 40
1.806938312666512
 40
1.808857473154851
 40
1.810721347673081
 40
1.812530066494555
 40
1.814283761823225
 40
1.81598256779378
 40
1.817626620471734
 40
1.819216057853057
 40
1.820751019864711
 40
1.822231648364138
 40
1.823658087139604
 40
1.825030481910073
 40
1.826348980325184
 40
1.827613731965309
 40
1.828824888341534
 40
1.829982602895633
 40
1.831087031000108
 40
1.83213832995819
 40
1.833136659003829
 40
1.83408217930172
 40
1.834975053947184
 40
1.835815447966435
 40
1.836603528316329
 40
1.83733946388452
 40
1.838023425489446
 40
1.838655585880338
 40
1.83923611973729
 40
1.839765203671313
 40
1.840243016224379
 40
1.840669737869604
 40
1.8410455510115
 40
1.841370639986335
 40
1.841645191062974
 40
1.841869392444498
 40
1.842043434272304
 40
1.842167508638361
 40
1.842241809637912
 40
1.842266533950541
 40
1.842266533950541
 40
1.842266533950541
 40
1.842266533950541
 10
-65.6604261332668
 20
-76.66348266017141
 30
0.0
 10
-65.6636740396523
 20
-76.6667287198194
 30
0.0
 10
-65.6701611264921
 20
-76.67321211814568
 30
0.0
 10
-65.67987863419035
 20
-76.68292402900386
 30
0.0
 10
-65.68956978165464
 20
-76.69260954382591
 30
0.0
 10
-65.69923436390863
 20
-76.70226845385471
 30
0.0
 10
-65.70887217406064
 20
-76.71190055498066
 30
0.0
 10
-65.71848300746656
 20
-76.72150564357659
 30
0.0
 10
-65.72806666061902
 20
-76.73108351760919
 30
0.0
 10
-65.73762293144405
 20
-76.74063397634215
 30
0.0
 10
-65.74715161922148
 20
-76.75015682041573
 30
0.0
 10
-65.75665252460652
 20
-76.75965185182532
 30
0.0
 10
-65.76612544962386
 20
-76.7691188739273
 30
0.0
 10
-65.7755701976693
 20
-76.77855769143724
 30
0.0
 10
-65.7849865735093
 20
-76.78796811043068
 30
0.0
 10
-65.79437438328104
 20
-76.79734993834265
 30
0.0
 10
-65.80373343449253
 20
-76.80670298396812
 30
0.0
 10
-65.81306353602245
 20
-76.81602705746135
 30
0.0
 10
-65.82236449812031
 20
-76.82532197033684
 30
0.0
 10
-65.83163613240632
 20
-76.83458753546824
 30
0.0
 10
-65.8408782518714
 20
-76.84382356708929
 30
0.0
 10
-65.85009067087725
 20
-76.85302988079312
 30
0.0
 10
-65.85927320515643
 20
-76.86220629353284
 30
0.0
 10
-65.86842567181203
 20
-76.87135262362094
 30
0.0
 10
-65.87754788931811
 20
-76.88046869072984
 30
0.0
 10
-65.8866396775193
 20
-76.88955431589166
 30
0.0
 10
-65.89570085763114
 20
-76.89860932149794
 30
0.0
 10
-65.90473125223978
 20
-76.90763353130018
 30
0.0
 10
-65.9137306853022
 20
-76.91662677040955
 30
0.0
 10
-65.9226989821461
 20
-76.92558886529679
 30
0.0
 10
-65.93163596946991
 20
-76.93451964379234
 30
0.0
 10
-65.94054147534293
 20
-76.94341893508648
 30
0.0
 10
-65.94941532920498
 20
-76.95228656972893
 30
0.0
 10
-65.95825736186686
 20
-76.96112237962942
 30
0.0
 10
-65.96706740551002
 20
-76.96992619805708
 30
0.0
 10
-65.97584529368666
 20
-76.97869785964087
 30
0.0
 10
-65.98459086131965
 20
-76.98743720036941
 30
0.0
 10
-65.99330394470283
 20
-76.9961440575911
 30
0.0
 10
-66.0019843815005
 20
-77.00481827001383
 30
0.0
 10
-66.01063201074801
 20
-77.0134596777054
 30
0.0
 10
-66.01924667285121
 20
-77.02206812209309
 30
0.0
 10
-66.02782820958687
 20
-77.03064344596415
 30
0.0
 10
-66.03637646410239
 20
-77.0391854934652
 30
0.0
 10
-66.04489128091595
 20
-77.04769411010281
 30
0.0
 10
-66.05337250591657
 20
-77.05616914274302
 30
0.0
 10
-66.06181998636391
 20
-77.06461043961173
 30
0.0
 10
-66.07023357088835
 20
-77.07301785029455
 30
0.0
 10
-66.07861310949117
 20
-77.08139122573657
 30
0.0
 10
-66.08695845354433
 20
-77.08973041824281
 30
0.0
 10
-66.09526945579046
 20
-77.09803528147779
 30
0.0
 10
-66.10354597034306
 20
-77.10630567046596
 30
0.0
 10
-66.11178785268628
 20
-77.11454144159107
 30
0.0
 10
-66.11999495967507
 20
-77.12274245259707
 30
0.0
 10
-66.12816714953516
 20
-77.13090856258707
 30
0.0
 10
-66.13630428186298
 20
-77.13903963202435
 30
0.0
 10
-66.14440621762564
 20
-77.14713552273153
 30
0.0
 10
-66.15247281916122
 20
-77.15519609789106
 30
0.0
 10
-66.1605039501783
 20
-77.16322122204511
 30
0.0
 10
-66.16849947575633
 20
-77.17121076109548
 30
0.0
 10
-66.17645926234559
 20
-77.17916458230371
 30
0.0
 10
-66.18438317776689
 20
-77.187082554291
 30
0.0
 10
-66.19227109121206
 20
-77.19496454703817
 30
0.0
 10
-66.20012287324343
 20
-77.2028104318859
 30
0.0
 10
-66.20793839579419
 20
-77.21062008153442
 30
0.0
 10
-66.21571753216833
 20
-77.21839337004366
 30
0.0
 10
-66.2234601570405
 20
-77.22613017283335
 30
0.0
 10
-66.23116614645615
 20
-77.23383036668282
 30
0.0
 10
-66.23883537783144
 20
-77.24149382973106
 30
0.0
 10
-66.24646772995334
 20
-77.24912044147685
 30
0.0
 10
-66.25406308297951
 20
-77.25671008277854
 30
0.0
 10
-66.26162131843839
 20
-77.2642626358543
 30
0.0
 10
-66.26914231922912
 20
-77.27177798428194
 30
0.0
 10
-66.27662596962173
 20
-77.2792560129989
 30
0.0
 10
-66.28407215525681
 20
-77.28669660830238
 30
0.0
 10
-66.29148076314584
 20
-77.29409965784924
 30
0.0
 10
-66.29885168167097
 20
-77.3014650506561
 30
0.0
 10
-66.30618480058513
 20
-77.30879267709912
 30
0.0
 10
-66.31348001101202
 20
-77.31608242891433
 30
0.0
 10
-66.32073720544608
 20
-77.32333419919728
 30
0.0
 10
-66.3279562777524
 20
-77.33054788240335
 30
0.0
 10
-66.33513712316704
 20
-77.33772337434756
 30
0.0
 10
-66.34227963829659
 20
-77.34486057220461
 30
0.0
 10
-66.34938372111847
 20
-77.35195937450881
 30
0.0
 10
-66.3564492709809
 20
-77.35901968115436
 30
0.0
 10
-66.36347618860276
 20
-77.366041393395
 30
0.0
 10
-66.37046437607376
 20
-77.37302441384416
 30
0.0
 10
-66.3774137368543
 20
-77.37996864647504
 30
0.0
 10
-66.38432417577557
 20
-77.38687399662052
 30
0.0
 10
-66.39119559903952
 20
-77.393740370973
 30
0.0
 10
-66.3980279142187
 20
-77.40056767758486
 30
0.0
 10
-66.40482103025668
 20
-77.407355825868
 30
0.0
 10
-66.41157485746757
 20
-77.41410472659388
 30
0.0
 10
-66.41828930753624
 20
-77.42081429189403
 30
0.0
 10
-66.42496429351849
 20
-77.42748443525923
 30
0.0
 10
-66.43159972984058
 20
-77.4341150715403
 30
0.0
 10
-66.43819553229974
 20
-77.44070611694758
 30
0.0
 10
-66.44475161806395
 20
-77.44725748905113
 30
0.0
 10
-66.45126790567183
 20
-77.45376910678061
 30
0.0
 10
-66.45774431503276
 20
-77.46024089042567
 30
0.0
 10
-66.46418076742697
 20
-77.46667276163525
 30
0.0
 10
-66.47057718550535
 20
-77.47306464341825
 30
0.0
 10
-66.47693349328952
 20
-77.4794164601432
 30
0.0
 10
-66.48324961617192
 20
-77.4857281375383
 30
0.0
 10
-66.48952548091582
 20
-77.49199960269138
 30
0.0
 10
-66.49576101565496
 20
-77.49823078405018
 30
0.0
 10
-66.50195614989411
 20
-77.50442161142178
 30
0.0
 10
-66.50811081450865
 20
-77.51057201597335
 30
0.0
 10
-66.51422494174474
 20
-77.51668193023137
 30
0.0
 10
-66.52029846521931
 20
-77.5227512880823
 30
0.0
 10
-66.52633131991999
 20
-77.5287800247722
 30
0.0
 10
-66.53232344220521
 20
-77.53476807690669
 30
0.0
 10
-66.53827476980413
 20
-77.54071538245122
 30
0.0
 10
-66.54418524181665
 20
-77.54662188073101
 30
0.0
 10
-66.5500547987134
 20
-77.55248751243073
 30
0.0
 10
-66.55588338233589
 20
-77.55831221959497
 30
0.0
 10
-66.56167093589613
 20
-77.56409594562783
 30
0.0
 10
-66.56741740397716
 20
-77.56983863529331
 30
0.0
 10
-66.57312273253254
 20
-77.57554023471477
 30
0.0
 10
-66.5787868688867
 20
-77.58120069137568
 30
0.0
 10
-66.58440976173483
 20
-77.58681995411882
 30
0.0
 10
-66.58999136114276
 20
-77.59239797314699
 30
0.0
 10
-66.59553161854726
 20
-77.59793470002234
 30
0.0
 10
-66.60103048675566
 20
-77.60343008766704
 30
0.0
 10
-66.60648791994606
 20
-77.60888409036264
 30
0.0
 10
-66.61190387366747
 20
-77.61429666375076
 30
0.0
 10
-66.61727830483943
 20
-77.61966776483224
 30
0.0
 10
-66.62261117175244
 20
-77.62499735196802
 30
0.0
 10
-66.62790243406758
 20
-77.63028538487856
 30
0.0
 10
-66.6331520528168
 20
-77.63553182464395
 30
0.0
 10
-66.63835999040268
 20
-77.64073663370411
 30
0.0
 10
-66.64352621059874
 20
-77.64589977585854
 30
0.0
 10
-66.64865067854892
 20
-77.65102121626647
 30
0.0
 10
-66.65373336076838
 20
-77.65610092144682
 30
0.0
 10
-66.65877422514252
 20
-77.66113885927828
 30
0.0
 10
-66.66377324092792
 20
-77.66613499899906
 30
0.0
 10
-66.66873037875162
 20
-77.6710893112072
 30
0.0
 10
-66.67364561061153
 20
-77.67600176786041
 30
0.0
 10
-66.67851890987633
 20
-77.68087234227602
 30
0.0
 10
-66.68335025128536
 20
-77.68570100913104
 30
0.0
 10
-66.6881396109488
 20
-77.69048774446239
 30
0.0
 10
-66.69288696634754
 20
-77.69523252566638
 30
0.0
 10
-66.6975922963332
 20
-77.6999353314992
 30
0.0
 10
-66.70225558112817
 20
-77.70459614207672
 30
0.0
 10
-66.70687680232564
 20
-77.70921493887435
 30
0.0
 10
-66.71145594288942
 20
-77.71379170472741
 30
0.0
 10
-66.71599298715422
 20
-77.71832642383076
 30
0.0
 10
-66.72048792082535
 20
-77.72281908173895
 30
0.0
 10
-66.72494073097903
 20
-77.72726966536636
 30
0.0
 10
-66.72935140606212
 20
-77.73167816298684
 30
0.0
 10
-66.7337199358922
 20
-77.73604456423416
 30
0.0
 10
-66.73804631165771
 20
-77.74036886010164
 30
0.0
 10
-66.74233052591774
 20
-77.74465104294231
 30
0.0
 10
-66.7465725726023
 20
-77.74889110646889
 30
0.0
 10
-66.75077244701178
 20
-77.75308904575385
 30
0.0
 10
-66.75493014581785
 20
-77.7572448572293
 30
0.0
 10
-66.75904566706241
 20
-77.76135853868705
 30
0.0
 10
-66.76311901015848
 20
-77.76543008927851
 30
0.0
 10
-66.76715017588957
 20
-77.76945950951503
 30
0.0
 10
-66.7711391664102
 20
-77.77344680126738
 30
0.0
 10
-66.77508598524537
 20
-77.77739196776614
 30
0.0
 10
-66.778990637291
 20
-77.78129501360162
 30
0.0
 10
-66.7828531288138
 20
-77.7851559447237
 30
0.0
 10
-66.78667346745098
 20
-77.78897476844212
 30
0.0
 10
-66.79045166221084
 20
-77.79275149342612
 30
0.0
 10
-66.79418772347212
 20
-77.79648612970473
 30
0.0
 10
-66.79788166298451
 20
-77.80017868866679
 30
0.0
 10
-66.80153349386839
 20
-77.80382918306056
 30
0.0
 10
-66.80514323061477
 20
-77.8074376269942
 30
0.0
 10
-66.80871088908569
 20
-77.81100403593548
 30
0.0
 10
-66.81223648651365
 20
-77.8145284267119
 30
0.0
 10
-66.81572004150208
 20
-77.81801081751067
 30
0.0
 10
-66.81916157402503
 20
-77.82145122787855
 30
0.0
 10
-66.82256110542744
 20
-77.82484967872217
 30
0.0
 10
-66.82591865842487
 20
-77.82820619230773
 30
0.0
 10
-66.8292342571037
 20
-77.83152079226119
 30
0.0
 10
-66.83250792692107
 20
-77.8347935035682
 30
0.0
 10
-66.83573969470483
 20
-77.83802435257397
 30
0.0
 10
-66.83892958865357
 20
-77.84121336698371
 30
0.0
 10
-66.84207763833669
 20
-77.84436057586187
 30
0.0
 10
-66.84518387469421
 20
-77.84746600963304
 30
0.0
 10
-66.84824833003708
 20
-77.85052970008118
 30
0.0
 10
-66.85127103804686
 20
-77.85355168035011
 30
0.0
 10
-66.85425203377591
 20
-77.85653198494329
 30
0.0
 10
-66.85719135364742
 20
-77.85947064972392
 30
0.0
 10
-66.86008903545503
 20
-77.86236771191474
 30
0.0
 10
-66.86294511836356
 20
-77.86522321009839
 30
0.0
 10
-66.86575964290827
 20
-77.86803718421706
 30
0.0
 10
-66.86853265099518
 20
-77.87080967557266
 30
0.0
 10
-66.87126418590131
 20
-77.8735407268268
 30
0.0
 10
-66.87395429227409
 20
-77.87623038200081
 30
0.0
 10
-66.87660301613192
 20
-77.8788786864757
 30
0.0
 10
-66.87921040486395
 20
-77.88148568699211
 30
0.0
 10
-66.88177650722992
 20
-77.88405143165048
 30
0.0
 10
-66.88430137336047
 20
-77.88657596991078
 30
0.0
 10
-66.88678505475693
 20
-77.88905935259295
 30
0.0
 10
-66.88922760429128
 20
-77.89150163187625
 30
0.0
 10
-66.89162907620657
 20
-77.89390286129998
 30
0.0
 10
-66.89398952611612
 20
-77.89626309576288
 30
0.0
 10
-66.89630901100445
 20
-77.89858239152358
 30
0.0
 10
-66.89858758922648
 20
-77.90086080620026
 30
0.0
 10
-66.90082532050813
 20
-77.90309839877082
 30
0.0
 10
-66.90302226594592
 20
-77.90529522957297
 30
0.0
 10
-66.90517848800712
 20
-77.9074513603039
 30
0.0
 10
-66.90729405052986
 20
-77.9095668540207
 30
0.0
 10
-66.90936901872288
 20
-77.91164177514001
 30
0.0
 10
-66.91140345916571
 20
-77.91367618943832
 30
0.0
 10
-66.91339743980872
 20
-77.91567016405166
 30
0.0
 10
-66.91535102997284
 20
-77.91762376747573
 30
0.0
 10
-66.91726430034993
 20
-77.91953706956623
 30
0.0
 10
-66.9191373230024
 20
-77.92141014153812
 30
0.0
 10
-66.92097017136365
 20
-77.92324305596642
 30
0.0
 10
-66.92276292023755
 20
-77.92503588678562
 30
0.0
 10
-66.92451564579892
 20
-77.92678870929011
 30
0.0
 10
-66.92622842559317
 20
-77.92850160013371
 30
0.0
 10
-66.92790133853663
 20
-77.93017463733021
 30
0.0
 10
-66.92953446491614
 20
-77.93180790025298
 30
0.0
 10
-66.93112788638946
 20
-77.93340146963511
 30
0.0
 10
-66.93268168598499
 20
-77.93495542756932
 30
0.0
 10
-66.93419594810192
 20
-77.93646985750819
 30
0.0
 10
-66.93567075851004
 20
-77.93794484426388
 30
0.0
 10
-66.93710620435013
 20
-77.93938047400835
 30
0.0
 10
-66.93850237413339
 20
-77.94077683427325
 30
0.0
 10
-66.93985935774188
 20
-77.94213401394985
 30
0.0
 10
-66.94117724642851
 20
-77.94345210328935
 30
0.0
 10
-66.9424561328166
 20
-77.94473119390246
 30
0.0
 10
-66.94369611090046
 20
-77.94597137875977
 30
0.0
 10
-66.94489727604498
 20
-77.94717275219153
 30
0.0
 10
-66.94605972498567
 20
-77.94833540988783
 30
0.0
 10
-66.94718355582887
 20
-77.94945944889837
 30
0.0
 10
-66.94826886805149
 20
-77.9505449676328
 30
0.0
 10
-66.94931576250116
 20
-77.95159206586041
 30
0.0
 10
-66.95032434139601
 20
-77.95260084471033
 30
0.0
 10
-66.95129470832507
 20
-77.95357140667154
 30
0.0
 10
-66.95222696824763
 20
-77.95450385559286
 30
0.0
 10
-66.9531212274938
 20
-77.95539829668297
 30
0.0
 10
-66.95397759376405
 20
-77.95625483651045
 30
0.0
 10
-66.95479617612939
 20
-77.95707358300395
 30
0.0
 10
-66.95557708503128
 20
-77.95785464545204
 30
0.0
 10
-66.95632043228129
 20
-77.95859813450349
 30
0.0
 10
-66.95702633106143
 20
-77.95930416216726
 30
0.0
 10
-66.9576948959237
 20
-77.95997284181279
 30
0.0
 10
-66.95832624278977
 20
-77.96060428816999
 30
0.0
 10
-66.95892048895114
 20
-77.96119861732971
 30
0.0
 10
-66.95947775306823
 20
-77.9617559467442
 30
0.0
 10
-66.95999815517051
 20
-77.96227639522708
 30
0.0
 10
-66.9604818166541
 20
-77.9627600829558
 30
0.0
 10
-66.96092886028542
 20
-77.96320713146793
 30
0.0
 10
-66.96133941018353
 20
-77.96361766367895
 30
0.0
 10
-66.96171359186911
 20
-77.96399180383271
 30
0.0
 10
-66.96205153209158
 20
-77.96432967767687
 30
0.0
 10
-66.96235335935792
 20
-77.96463141192527
 30
0.0
 10
-66.9626192022297
 20
-77.96489713598852
 30
0.0
 10
-66.96284919448885
 20
-77.96512697672506
 30
0.0
 10
-66.96304345952399
 20
-77.96532107430403
 30
0.0
 10
-66.96320215508456
 20
-77.96547953673499
 30
0.0
 10
-66.96332534977782
 20
-77.96560256534474
 30
0.0
 10
-66.96341333478598
 20
-77.9656901380848
 30
0.0
 10
-66.96346591745518
 20
-77.96574272745866
 30
0.0
 10
-66.96348951638967
 20
-77.96576580678109
 30
0.0
 10
-66.96349540849361
 20
-77.96577156915004
 30
0.0
 11
-65.6604261332668
 21
-76.66348266017141
 31
0.0
 11
-65.67016985840837
 21
-76.6732208331269
 31
0.0
 11
-65.67988743385021
 21
-76.68293281506332
 31
0.0
 11
-65.68957865065119
 21
-76.69261839845922
 31
0.0
 11
-65.69924330124103
 21
-76.70227737715285
 31
0.0
 11
-65.7088811794202
 21
-76.7119095463421
 31
0.0
 11
-65.71849208035991
 21
-76.72151470258461
 31
0.0
 11
-65.72807580060207
 21
-76.73109264379772
 31
0.0
 11
-65.73763213805944
 21
-76.74064316925838
 31
0.0
 11
-65.74716089201547
 21
-76.75016607960329
 31
0.0
 11
-65.75666186312434
 21
-76.75966117682883
 31
0.0
 11
-65.76613485341097
 21
-76.76912826429108
 31
0.0
 11
-65.77557966627113
 21
-76.77856714670581
 31
0.0
 11
-65.78499610647124
 21
-76.78797763014845
 31
0.0
 11
-65.7943839801485
 21
-76.79735952205414
 31
0.0
 11
-65.80374309481086
 21
-76.80671263121775
 31
0.0
 11
-65.81307325933702
 21
-76.81603676779372
 31
0.0
 11
-65.82237428397642
 21
-76.82533174329633
 31
0.0
 11
-65.83164598034934
 21
-76.83459737059951
 31
0.0
 11
-65.8408881614466
 21
-76.84383346393676
 31
0.0
 11
-65.85010064162998
 21
-76.85303983890144
 31
0.0
 11
-65.85928323663191
 21
-76.86221631244652
 31
0.0
 11
-65.86843576355558
 21
-76.87136270288461
 31
0.0
 11
-65.87755804087497
 21
-76.8804788298881
 31
0.0
 11
-65.88664988843472
 21
-76.88956451448907
 31
0.0
 11
-65.89571112745033
 21
-76.89861957907917
 31
0.0
 11
-65.90474158050799
 21
-76.90764384740989
 31
0.0
 11
-65.9137410715646
 21
-76.91663714459231
 31
0.0
 11
-65.92270942594789
 21
-76.92559929709729
 31
0.0
 11
-65.93164647035633
 21
-76.93453013275533
 31
0.0
 11
-65.94055203285903
 21
-76.94342948075652
 31
0.0
 11
-65.94942594289603
 21
-76.95229717165084
 31
0.0
 11
-65.95826803127794
 21
-76.9611330373478
 31
0.0
 11
-65.96707813018631
 21
-76.96993691111672
 31
0.0
 11
-65.97585607317323
 21
-76.97870862758649
 31
0.0
 11
-65.98460169516166
 21
-76.98744802274574
 31
0.0
 11
-65.99331483244534
 21
-76.99615493394286
 31
0.0
 11
-66.00199532268864
 21
-77.00482919988583
 31
0.0
 11
-66.01064300492683
 21
-77.0134706606424
 31
0.0
 11
-66.0192577195658
 21
-77.02207915763991
 31
0.0
 11
-66.02783930838226
 21
-77.03065453366551
 31
0.0
 11
-66.03638761452363
 21
-77.03919663286595
 31
0.0
 11
-66.0449024825081
 21
-77.04770530074774
 31
0.0
 11
-66.05338375822467
 21
-77.05618038417698
 31
0.0
 11
-66.06183128893294
 21
-77.06462173137955
 31
0.0
 11
-66.07024492326337
 21
-77.07302919194105
 31
0.0
 11
-66.07862451121717
 21
-77.08140261680666
 31
0.0
 11
-66.08696990416627
 21
-77.08974185828127
 31
0.0
 11
-66.09528095485337
 21
-77.09804677002957
 31
0.0
 11
-66.10355751739185
 21
-77.10631720707582
 31
0.0
 11
-66.11179944726598
 21
-77.11455302580406
 31
0.0
 11
-66.12000660133062
 21
-77.12275408395793
 31
0.0
 11
-66.12817883781149
 21
-77.1309202406408
 31
0.0
 11
-66.13631601630502
 21
-77.1390513563158
 31
0.0
 11
-66.14441799777839
 21
-77.14714729280567
 31
0.0
 11
-66.15248464456953
 21
-77.15520791329278
 31
0.0
 11
-66.16051582038713
 21
-77.16323308231938
 31
0.0
 11
-66.16851139031063
 21
-77.17122266578723
 31
0.0
 11
-66.17647122079018
 21
-77.17917653095786
 31
0.0
 11
-66.18439517964671
 21
-77.18709454645249
 31
0.0
 11
-66.192283136072
 21
-77.19497658225204
 31
0.0
 11
-66.20013496062836
 21
-77.20282250969704
 31
0.0
 11
-66.20795052524899
 21
-77.21063220148784
 31
0.0
 11
-66.2157297032379
 21
-77.21840553168438
 31
0.0
 11
-66.22347236926966
 21
-77.2261423757063
 31
0.0
 11
-66.23117839938976
 21
-77.23384261033301
 31
0.0
 11
-66.23884767101437
 21
-77.24150611370351
 31
0.0
 11
-66.24648006293043
 21
-77.24913276531653
 31
0.0
 11
-66.25407545529559
 21
-77.25672244603051
 31
0.0
 11
-66.2616337296383
 21
-77.26427503806357
 31
0.0
 11
-66.26915476885772
 21
-77.27179042499351
 31
0.0
 11
-66.27663845722377
 21
-77.27926849175782
 31
0.0
 11
-66.28408468037716
 21
-77.28670912465368
 31
0.0
 11
-66.2914933253293
 21
-77.29411221133797
 31
0.0
 11
-66.29886428046233
 21
-77.30147764082727
 31
0.0
 11
-66.30619743552923
 21
-77.30880530349785
 31
0.0
 11
-66.31349268165361
 21
-77.3160950910856
 31
0.0
 11
-66.32074991132995
 21
-77.32334689668619
 31
0.0
 11
-66.3279690184234
 21
-77.33056061475496
 31
0.0
 11
-66.33514989816989
 21
-77.33773614110693
 31
0.0
 11
-66.34229244717608
 21
-77.3448733729168
 31
0.0
 11
-66.3493965634194
 21
-77.35197220871895
 31
0.0
 11
-66.35646214624802
 21
-77.3590325484075
 31
0.0
 11
-66.36348909638085
 21
-77.36605429323619
 31
0.0
 11
-66.37047731590756
 21
-77.37303734581855
 31
0.0
 11
-66.37742670828858
 21
-77.37998161012769
 31
0.0
 11
-66.38433717835511
 21
-77.38688699149651
 31
0.0
 11
-66.391208632309
 21
-77.39375339661747
 31
0.0
 11
-66.39804097772297
 21
-77.4005807335429
 31
0.0
 11
-66.40483412354041
 21
-77.40736891168466
 31
0.0
 11
-66.41158798007552
 21
-77.41411784181437
 31
0.0
 11
-66.41830245901319
 21
-77.42082743606338
 31
0.0
 11
-66.4249774734091
 21
-77.4274976079226
 31
0.0
 11
-66.43161293768965
 21
-77.4341282722428
 31
0.0
 11
-66.43820876765199
 21
-77.4407193452343
 31
0.0
 11
-66.44476488046409
 21
-77.44727074446719
 31
0.0
 11
-66.45128119466459
 21
-77.4537823888712
 31
0.0
 11
-66.45775763016289
 21
-77.46025419873583
 31
0.0
 11
-66.46419410823917
 21
-77.46668609571016
 31
0.0
 11
-66.47059055154433
 21
-77.47307800280302
 31
0.0
 11
-66.47694688410004
 21
-77.47942984438298
 31
0.0
 11
-66.4832630312987
 21
-77.4857415461782
 31
0.0
 11
-66.48953891990351
 21
-77.49201303527657
 31
0.0
 11
-66.49577447804835
 21
-77.49824424012574
 31
0.0
 11
-66.50196963523788
 21
-77.50443509053292
 31
0.0
 11
-66.50812432234751
 21
-77.51058551766512
 31
0.0
 11
-66.51423847162341
 21
-77.51669545404899
 31
0.0
 11
-66.52031201668251
 21
-77.52276483357087
 31
0.0
 11
-66.52634489251243
 21
-77.52879359147684
 31
0.0
 11
-66.53233703547158
 21
-77.53478166437256
 31
0.0
 11
-66.53828838328917
 21
-77.54072899022351
 31
0.0
 11
-66.54419887506504
 21
-77.54663550835477
 31
0.0
 11
-66.5500684512699
 21
-77.55250115945117
 31
0.0
 11
-66.55589705374514
 21
-77.5583258855572
 31
0.0
 11
-66.56168462570291
 21
-77.56410963007703
 31
0.0
 11
-66.56743111172612
 21
-77.56985233777453
 31
0.0
 11
-66.57313645776843
 21
-77.57555395477327
 31
0.0
 11
-66.57880061115422
 21
-77.5812144285565
 31
0.0
 11
-66.58442352057868
 21
-77.58683370796716
 31
0.0
 11
-66.5900051361077
 21
-77.59241174320795
 31
0.0
 11
-66.59554540917794
 21
-77.59794848584109
 31
0.0
 11
-66.60104429259681
 21
-77.60344388878865
 31
0.0
 11
-66.60650174054246
 21
-77.60889790633236
 31
0.0
 11
-66.61191770856375
 21
-77.6143104941136
 31
0.0
 11
-66.61729215358038
 21
-77.61968160913341
 31
0.0
 11
-66.62262503388274
 21
-77.62501120975261
 31
0.0
 11
-66.62791630913199
 21
-77.6302992556917
 31
0.0
 11
-66.63316594036002
 21
-77.63554570803079
 31
0.0
 11
-66.63837388996946
 21
-77.64075052920974
 31
0.0
 11
-66.64354012173375
 21
-77.64591368302808
 31
0.0
 11
-66.648664600797
 21
-77.65103513464507
 31
0.0
 11
-66.65374729367417
 21
-77.6561148505796
 31
0.0
 11
-66.65878816825084
 21
-77.6611527987103
 31
0.0
 11
-66.66378719378345
 21
-77.66614894827548
 31
0.0
 11
-66.66874434089914
 21
-77.6711032698731
 31
0.0
 11
-66.67365958159579
 21
-77.6760157354609
 31
0.0
 11
-66.67853288924204
 21
-77.68088631835614
 31
0.0
 11
-66.68336423857734
 21
-77.685714993236
 31
0.0
 11
-66.68815360571178
 21
-77.69050173613718
 31
0.0
 11
-66.69290096812628
 21
-77.69524652445612
 31
0.0
 11
-66.69760630467249
 21
-77.69994933694899
 31
0.0
 11
-66.7022695955728
 21
-77.7046101537316
 31
0.0
 11
-66.70689082242033
 21
-77.70922895627942
 31
0.0
 11
-66.71146996817903
 21
-77.71380572742773
 31
0.0
 11
-66.71600701718347
 21
-77.71834045137133
 31
0.0
 11
-66.7205019551391
 21
-77.7228331136649
 31
0.0
 11
-66.72495476912204
 21
-77.72728370122269
 31
0.0
 11
-66.72936544757921
 21
-77.73169220231864
 31
0.0
 11
-66.73373398032821
 21
-77.73605860658645
 31
0.0
 11
-66.73806035855743
 21
-77.74038290501943
 31
0.0
 11
-66.74234457482603
 21
-77.74466508997062
 31
0.0
 11
-66.74658662306393
 21
-77.74890515515277
 31
0.0
 11
-66.75078649857171
 21
-77.7531030956383
 31
0.0
 11
-66.75494419802082
 21
-77.7572589078593
 31
0.0
 11
-66.75905971945333
 21
-77.76137258960757
 31
0.0
 11
-66.7631330622822
 21
-77.76544414003462
 31
0.0
 11
-66.767164227291
 21
-77.76947355965163
 31
0.0
 11
-66.77115321663418
 21
-77.77346085032946
 31
0.0
 11
-66.77510003383682
 21
-77.77740601529865
 31
0.0
 11
-66.77900468379485
 21
-77.7813090591495
 31
0.0
 11
-66.7828671727749
 21
-77.78516998783192
 31
0.0
 11
-66.78668750841432
 21
-77.78898880865556
 31
0.0
 11
-66.7904656997213
 21
-77.79276553028973
 31
0.0
 11
-66.79420175707469
 21
-77.79650016276345
 31
0.0
 11
-66.79789569222413
 21
-77.80019271746544
 31
0.0
 11
-66.80154751829
 21
-77.80384320714406
 31
0.0
 11
-66.80515724976343
 21
-77.80745164590742
 31
0.0
 11
-66.80872490250633
 21
-77.81101804922328
 31
0.0
 11
-66.81225049375129
 21
-77.81454243391912
 31
0.0
 11
-66.81573404210175
 21
-77.81802481818212
 31
0.0
 11
-66.81917556753177
 21
-77.82146522155907
 31
0.0
 11
-66.82257509138631
 21
-77.82486366495655
 31
0.0
 11
-66.82593263638094
 21
-77.82822017064076
 31
0.0
 11
-66.82924822660203
 21
-77.83153476223762
 31
0.0
 11
-66.83252188750679
 21
-77.83480746473279
 31
0.0
 11
-66.83575364592303
 21
-77.8380383044715
 31
0.0
 11
-66.8389435300494
 21
-77.8412273091588
 31
0.0
 11
-66.84209156945529
 21
-77.84437450785931
 31
0.0
 11
-66.8451977950808
 21
-77.84747993099744
 31
0.0
 11
-66.8482622392368
 21
-77.85054361035722
 31
0.0
 11
-66.851284935605
 21
-77.85356557908246
 31
0.0
 11
-66.85426591923768
 21
-77.85654587167653
 31
0.0
 11
-66.85720522655801
 21
-77.8594845240026
 31
0.0
 11
-66.86010289535986
 21
-77.86238157328351
 31
0.0
 11
-66.86295896480785
 21
-77.86523705810173
 31
0.0
 11
-66.86577347543738
 21
-77.86805101839948
 31
0.0
 11
-66.86854646915451
 21
-77.87082349547866
 31
0.0
 11
-66.8712779892362
 21
-77.87355453200084
 31
0.0
 11
-66.87396808033003
 21
-77.87624417198732
 31
0.0
 11
-66.87661678845436
 21
-77.87889246081905
 31
0.0
 11
-66.87922416099833
 21
-77.88149944523667
 31
0.0
 11
-66.88179024672183
 21
-77.88406517334056
 31
0.0
 11
-66.88431509575547
 21
-77.88658969459073
 31
0.0
 11
-66.88679875960057
 21
-77.88907305980689
 31
0.0
 11
-66.88924129112934
 21
-77.89151532116853
 31
0.0
 11
-66.89164274458457
 21
-77.89391653221465
 31
0.0
 11
-66.89400317557994
 21
-77.89627674784413
 31
0.0
 11
-66.8963226410998
 21
-77.89859602431544
 31
0.0
 11
-66.89860119949925
 21
-77.90087441924675
 31
0.0
 11
-66.90083891050418
 21
-77.90311199161592
 31
0.0
 11
-66.9030358352112
 21
-77.90530880176054
 31
0.0
 11
-66.90519203608767
 21
-77.90746491137783
 31
0.0
 11
-66.90730757697173
 21
-77.90958038352473
 31
0.0
 11
-66.90938252307224
 21
-77.91165528261789
 31
0.0
 11
-66.91141694096879
 21
-77.91368967443363
 31
0.0
 11
-66.91341089861177
 21
-77.91568362610795
 31
0.0
 11
-66.91536446532231
 21
-77.91763720613655
 31
0.0
 11
-66.91727771179225
 21
-77.91955048437484
 31
0.0
 11
-66.91915071008422
 21
-77.92142353203788
 31
0.0
 11
-66.92098353363158
 21
-77.92325642170046
 31
0.0
 11
-66.92277625723844
 21
-77.92504922729705
 31
0.0
 11
-66.92452895707964
 21
-77.92680202412178
 31
0.0
 11
-66.92624171070084
 21
-77.92851488882852
 31
0.0
 11
-66.92791459701837
 21
-77.93018789943076
 31
0.0
 11
-66.92954769631936
 21
-77.93182113530179
 31
0.0
 11
-66.93114109026166
 21
-77.9334146771745
 31
0.0
 11
-66.93269486187388
 21
-77.93496860714146
 31
0.0
 11
-66.93420909555539
 21
-77.93648300865499
 31
0.0
 11
-66.9356838770763
 21
-77.93795796652712
 31
0.0
 11
-66.93711929357747
 21
-77.93939356692947
 31
0.0
 11
-66.93851543357049
 21
-77.94078989739343
 31
0.0
 11
-66.93987238693774
 21
-77.94214704681008
 31
0.0
 11
-66.94119024493232
 21
-77.9434651054301
 31
0.0
 11
-66.9424691001781
 21
-77.94474416486402
 31
0.0
 11
-66.94370904666967
 21
-77.94598431808191
 31
0.0
 11
-66.94491017977238
 21
-77.94718565941358
 31
0.0
 11
-66.9460725962224
 21
-77.94834828454862
 31
0.0
 11
-66.94719639412648
 21
-77.94947229053611
 31
0.0
 11
-66.94828167296232
 21
-77.95055777578506
 31
0.0
 11
-66.94932853357824
 21
-77.95160484006396
 31
0.0
 11
-66.95033707819331
 21
-77.95261358450115
 31
0.0
 11
-66.95130741039746
 21
-77.95358411158455
 31
0.0
 11
-66.95223963515123
 21
-77.95451652516184
 31
0.0
 11
-66.953133858786
 21
-77.95541093044034
 31
0.0
 11
-66.95399018900389
 21
-77.9562674339871
 31
0.0
 11
-66.95480873487772
 21
-77.95708614372883
 31
0.0
 11
-66.95558960685109
 21
-77.95786716895195
 31
0.0
 11
-66.95633291673838
 21
-77.95861062030257
 31
0.0
 11
-66.95703877772466
 21
-77.95931660978648
 31
0.0
 11
-66.95770730436584
 21
-77.9599852507692
 31
0.0
 11
-66.95833861258843
 21
-77.96061665797583
 31
0.0
 11
-66.95893281968986
 21
-77.96121094749131
 31
0.0
 11
-66.9594900443382
 21
-77.96176823676016
 31
0.0
 11
-66.9600104065723
 21
-77.96228864458664
 31
0.0
 11
-66.96049402780174
 21
-77.96277229113468
 31
0.0
 11
-66.9609410308069
 21
-77.96321929792792
 31
0.0
 11
-66.96135153973884
 21
-77.96362978784967
 31
0.0
 11
-66.96172568011946
 21
-77.96400388514294
 31
0.0
 11
-66.96206357884131
 21
-77.96434171541044
 31
0.0
 11
-66.96236536416775
 21
-77.96464340561454
 31
0.0
 11
-66.96263116573289
 21
-77.96490908407733
 31
0.0
 11
-66.96286111454155
 21
-77.9651388804806
 31
0.0
 11
-66.96305534296937
 21
-77.96533292586578
 31
0.0
 11
-66.96321398476265
 21
-77.96549135263405
 31
0.0
 11
-66.96333717503848
 21
-77.96561429454621
 31
0.0
 11
-66.96342505028474
 21
-77.96570188672284
 31
0.0
 11
-66.96347774836
 21
-77.96575426564415
 31
0.0
 11
-66.96349540849361
 21
-77.96577156915004
 31
0.0
  0
SPLINE
  5
12F
330
46
100
AcDbEntity
  8
0
  6
Continuous
 62
     7
100
AcDbSpline
210
0.0
220
0.0
230
1.0
 70
     8
 71
     3
 72
     9
 73
     5
 74
     3
 42
0.0000000001
 43
0.0000000001
 44
0.00000001
 40
0.0
 40
0.0
 40
0.0
 40
0.0
 40
2.795395398287463
 40
5.85441950503146
 40
5.85441950503146
 40
5.85441950503146
 40
5.85441950503146
 10
-65.6604261332668
 20
-76.66348266017141
 30
0.0
 10
-64.80037674956279
 20
-77.04389557546487
 30
0.0
 10
-62.99916827281858
 20
-77.84059746337107
 30
0.0
 10
-61.02929108505421
 20
-77.92281279543747
 30
0.0
 10
-60.00000000000001
 20
-77.96577156915004
 30
0.0
 11
-65.6604261332668
 21
-76.66348266017141
 31
0.0
 11
-63.04182293575612
 21
-77.64182448527836
 31
0.0
 11
-60.00000000000001
 21
-77.96577156915004
 31
0.0
  0
SPLINE
  5
130
330
46
100
AcDbEntity
  8
0
  6
Continuous
 62
     7
100
AcDbSpline
210
0.0
220
0.0
230
1.0
 70
     8
 71
     3
 72
     9
 73
     5
 74
     3
 42
0.0000000001
 43
0.0000000001
 44
0.00000001
 40
0.0
 40
0.0
 40
0.0
 40
0.0
 40
2.797012883619418
 40
5.855762344003456
 40
5.855762344003456
 40
5.855762344003456
 40
5.855762344003456
 10
-65.6604261332668
 20
-76.66348266017141
 30
0.0
 10
-66.04185128563665
 20
-75.80320225431112
 30
0.0
 10
-66.84039428033782
 20
-74.00213882860321
 30
0.0
 10
-66.92125691943426
 20
-72.0315897695399
 30
0.0
 10
-66.96349540849361
 20
-71.00227616065644
 30
0.0
 11
-65.6604261332668
 21
-76.66348266017141
 31
0.0
 11
-66.64096222328537
 21
-74.0439731550724
 31
0.0
 11
-66.96349540849361
 21
-71.00227616065644
 31
0.0
  0
SPLINE
  5
131
330
46
100
AcDbEntity
  8
0
  6
Continuous
 62
     7
100
AcDbSpline
210
0.0
220
0.0
230
1.0
 70
    24
 71
     3
 72
    15
 73
    11
 74
     9
 42
0.0000000001
 43
0.0000000001
 44
0.00000001
 40
0.0
 40
0.0
 40
0.0
 40
0.0
 40
0.4801514525103414
 40
0.9603029050206828
 40
1.876704287329005
 40
3.036504591506372
 40
4.401947347041343
 40
5.940578261905372
 40
7.917376336150227
 40
10.00000000000001
 40
10.00000000000001
 40
10.00000000000001
 40
10.00000000000001
 10
70.00000000000001
 20
-74.00227616065644
 30
0.0
 10
69.8399495158299
 20
-74.00227616065644
 30
0.0
 10
69.51984854748967
 20
-74.00227616065642
 30
0.0
 10
68.89428045171334
 20
-74.00227616065646
 30
0.0
 10
68.04216273871467
 20
-74.00227616065642
 30
0.0
 10
66.89494792470776
 20
-74.00227616065644
 30
0.0
 10
65.54032326651566
 20
-74.00227616065644
 30
0.0
 10
63.91336601830102
 20
-74.00227616065641
 30
0.0
 10
62.04734846731481
 20
-74.00227616065644
 30
0.0
 10
60.69420788794993
 20
-74.00227616065644
 30
0.0
 10
60.00000000000001
 20
-74.00227616065644
 30
0.0
 11
70.00000000000001
 21
-74.00227616065644
 31
0.0
 11
69.51984854748967
 21
-74.00227616065644
 31
0.0
 11
69.03969709497933
 21
-74.00227616065644
 31
0.0
 11
68.12329571267101
 21
-74.00227616065644
 31
0.0
 11
66.96349540849364
 21
-74.00227616065644
 31
0.0
 11
65.59805265295867
 21
-74.00227616065644
 31
0.0
 11
64.05942173809464
 21
-74.00227616065644
 31
0.0
 11
62.08262366384979
 21
-74.00227616065644
 31
0.0
 11
60.00000000000001
 21
-74.00227616065644
 31
0.0
  0
SPLINE
  5
132
330
46
100
AcDbEntity
  8
0
  6
Continuous
 62
     7
100
AcDbSpline
210
0.0
220
0.0
230
1.0
 70
    24
 71
     3
 72
    11
 73
     7
 74
     5
 42
0.0000000001
 43
0.0000000001
 44
0.00000001
 40
0.0
 40
0.0
 40
0.0
 40
0.0
 40
1.457836564694844
 40
2.841595216666292
 40
2.921060156852093
 40
3.0
 40
3.0
 40
3.0
 40
3.0
 10
60.00000000000001
 20
-74.00227616065644
 30
0.0
 10
60.0
 20
-74.48822168222138
 30
0.0
 10
60.00000000000001
 20
-75.4354200877768
 30
0.0
 10
60.0
 20
-76.40910680672755
 30
0.0
 10
60.00000000000001
 20
-76.92316128516256
 30
0.0
 10
60.00000000000001
 20
-76.97596287960714
 30
0.0
 10
60.00000000000001
 20
-77.00227616065644
 30
0.0
 11
60.00000000000001
 21
-74.00227616065644
 31
0.0
 11
60.00000000000001
 21
-75.46011272535128
 31
0.0
 11
60.00000000000001
 21
-76.84387137732273
 31
0.0
 11
60.00000000000001
 21
-76.92333631750853
 31
0.0
 11
60.00000000000001
 21
-77.00227616065644
 31
0.0
  0
SPLINE
  5
133
330
46
100
AcDbEntity
  8
0
  6
Continuous
 62
     7
100
AcDbSpline
210
0.0
220
0.0
230
1.0
 70
    24
 71
     3
 72
    11
 73
     7
 74
     5
 42
0.0000000001
 43
0.0000000001
 44
0.00000001
 40
0.0
 40
0.0
 40
0.0
 40
0.0
 40
1.251602881161958
 40
2.2103153696915
 40
2.623409980598936
 40
3.0365045915064
 40
3.0365045915064
 40
3.0365045915064
 40
3.0365045915064
 10
-66.96349540849361
 20
-71.00227616065644
 30
0.0
 10
-67.38069636888092
 20
-71.00227616065642
 30
0.0
 10
-68.11746815877808
 20
-71.00227616065641
 30
0.0
 10
-68.99193815231108
 20
-71.00227616065644
 30
0.0
 10
-69.58690538909255
 20
-71.00227616065642
 30
0.0
 10
-69.86230179636419
 20
-71.00227616065644
 30
0.0
 10
-70.00000000000001
 20
-71.00227616065644
 30
0.0
 11
-66.96349540849361
 21
-71.00227616065644
 31
0.0
 11
-68.21509828965557
 21
-71.00227616065644
 31
0.0
 11
-69.17381077818511
 21
-71.00227616065644
 31
0.0
 11
-69.58690538909255
 21
-71.00227616065644
 31
0.0
 11
-70.00000000000001
 21
-71.00227616065644
 31
0.0
  0
ENDBLK
  5
49
330
46
100
AcDbEntity
  8
0
100
AcDbBlockEnd
  0
BLOCK
  5
13C
330
134
100
AcDbEntity
  8
0
100
AcDbBlockBegin
  2
*D3
 70
     1
 71
     0
 10
0.0
 20
0.0
 30
0.0
  3
*D3
  1

  0
LINE
  5
135
330
134
100
AcDbEntity
  8
1
  6
Continuous
 62
     4
100
AcDbLine
 10
-100.0000000000001
 20
29.80215884570909
 30
0.0
 11
100.0000000000001
 21
29.80215884570909
 31
0.0
  0
LINE
  5
136
330
134
100
AcDbEntity
  8
1
  6
Continuous
 62
     4
100
AcDbLine
 10
100.0000000000001
 20
-0.51306380284991
 30
0.0
 11
100.0000000000001
 21
31.80215884570909
 31
0.0
  0
LINE
  5
137
330
134
100
AcDbEntity
  8
1
  6
Continuous
 62
     4
100
AcDbLine
 10
-100.0000000000001
 20
-0.51306380284991
 30
0.0
 11
-100.0000000000001
 21
31.80215884570909
 31
0.0
  0
SOLID
  5
138
330
134
100
AcDbEntity
  8
1
 62
     4
100
AcDbTrace
 10
90.0000000000001
 20
28.48563386983513
 30
0.0
 11
90.0000000000001
 21
31.11868382158304
 31
0.0
 12
100.0000000000001
 22
29.80215884570909
 32
0.0
 13
100.0000000000001
 23
29.80215884570909
 33
0.0
  0
SOLID
  5
139
330
134
100
AcDbEntity
  8
1
 62
     4
100
AcDbTrace
 10
-90.0000000000001
 20
31.11868382158304
 30
0.0
 11
-90.0000000000001
 21
28.48563386983513
 31
0.0
 12
-100.0000000000001
 22
29.80215884570909
 32
0.0
 13
-100.0000000000001
 23
29.80215884570909
 33
0.0
  0
MTEXT
  5
13B
330
134
100
AcDbEntity
  8
1
 62
     1
100
AcDbMText
 10
-54.82858182605122
 20
31.80211909098724
 30
0.0
 40
10.0
 41
0.0
 71
     7
 72
     1
  1
\C1;\U+00d8\C1;200
  7
CONVERTER_11
 11
0.9999999999970619
 21
2.424068405545306E-6
 31
0.0
 73
     1
 44
0.60024009603842
  0
ENDBLK
  5
13D
330
134
100
AcDbEntity
  8
0
100
AcDbBlockEnd
  0
BLOCK
  5
147
330
140
100
AcDbEntity
  8
0
100
AcDbBlockBegin
  2
*D4
 70
     1
 71
     0
 10
0.0
 20
0.0
 30
0.0
  3
*D4
  1

  0
LINE
  5
141
330
140
100
AcDbEntity
  8
1
  6
Continuous
 62
     4
100
AcDbLine
 10
55.0
 20
15.0
 30
0.0
 11
-55.0
 21
15.0
 31
0.0
  0
LINE
  5
142
330
140
100
AcDbEntity
  8
1
  6
Continuous
 62
     4
100
AcDbLine
 10
55.0
 20
5.0
 30
0.0
 11
55.0
 21
17.0
 31
0.0
  0
LINE
  5
143
330
140
100
AcDbEntity
  8
1
  6
Continuous
 62
     4
100
AcDbLine
 10
-55.0
 20
5.0
 30
0.0
 11
-55.0
 21
17.0
 31
0.0
  0
SOLID
  5
144
330
140
100
AcDbEntity
  8
1
 62
     4
100
AcDbTrace
 10
45.0
 20
13.68347502412604
 30
0.0
 11
45.0
 21
16.31652497587396
 31
0.0
 12
55.0
 22
15.0
 32
0.0
 13
55.0
 23
15.0
 33
0.0
  0
SOLID
  5
145
330
140
100
AcDbEntity
  8
1
 62
     4
100
AcDbTrace
 10
-45.0
 20
16.31652497587396
 30
0.0
 11
-45.0
 21
13.68347502412604
 31
0.0
 12
-55.0
 22
15.0
 32
0.0
 13
-55.0
 23
15.0
 33
0.0
  0
MTEXT
  5
146
330
140
100
AcDbEntity
  8
1
 62
     1
100
AcDbMText
 10
-1.17388665427541
 20
16.99996024527815
 30
0.0
 40
10.0
 41
0.0
 71
     7
 72
     1
  1
\C1;\U+00d8\C1;110
  7
CONVERTER_11
 11
0.9999999999970619
 21
2.424068405545306E-6
 31
0.0
 73
     1
 44
0.60024009603842
  0
ENDBLK
  5
148
330
140
100
AcDbEntity
  8
0
100
AcDbBlockEnd
  0
BLOCK
  5
152
330
14B
100
AcDbEntity
  8
0
100
AcDbBlockBegin
  2
*D5
 70
     1
 71
     0
 10
0.0
 20
0.0
 30
0.0
  3
*D5
  1

  0
LINE
  5
14C
330
14B
100
AcDbEntity
  8
1
  6
Continuous
 62
     4
100
AcDbLine
 10
184.3662762115848
 20
-117.2590751271188
 30
0.0
 11
187.637730263985
 21
-42.33045850847959
 31
0.0
  0
LINE
  5
14D
330
14B
100
AcDbEntity
  8
1
  6
Continuous
 62
     4
100
AcDbLine
 10
166.9056434389599
 20
-41.42527604923782
 30
0.0
 11
189.6358267071488
 21
-42.41769728321025
 31
0.0
  0
LINE
  5
14E
330
14B
100
AcDbEntity
  8
1
  6
Continuous
 62
     4
100
AcDbLine
 10
163.5033312244637
 20
-116.3481792771327
 30
0.0
 11
186.3643726547485
 21
-117.3463139018495
 31
0.0
  0
SOLID
  5
14F
330
14B
100
AcDbEntity
  8
1
 62
     4
100
AcDbTrace
 10
188.5168083261466
 20
-52.37836673719696
 30
0.0
 11
185.8862644545167
 21
-52.26351471139937
 31
0.0
 12
187.637730263985
 22
-42.33045850847959
 32
0.0
 13
187.637730263985
 23
-42.33045850847959
 33
0.0
  0
SOLID
  5
150
330
14B
100
AcDbEntity
  8
1
 62
     4
100
AcDbTrace
 10
183.4871981494233
 20
-107.2111668984015
 30
0.0
 11
186.1177420210532
 21
-107.3260189241991
 31
0.0
 12
184.3662762115848
 22
-117.2590751271188
 32
0.0
 13
184.3662762115848
 23
-117.2590751271188
 33
0.0
  0
MTEXT
  5
151
330
14B
100
AcDbEntity
  8
1
 62
     1
100
AcDbMText
 10
183.5538450062323
 20
-90.01563772663705
 30
0.0
 40
10.0
 41
0.0
 71
     7
 72
     1
  1
\C1;DN\C1;75
  7
CONVERTER_11
 11
0.04361938736533646
 21
0.9990482215818579
 31
0.0
 73
     1
 44
0.60024009603842
  0
ENDBLK
  5
153
330
14B
100
AcDbEntity
  8
0
100
AcDbBlockEnd
  0
BLOCK
  5
15E
330
156
100
AcDbEntity
  8
0
100
AcDbBlockBegin
  2
*D6
 70
     1
 71
     0
 10
0.0
 20
0.0
 30
0.0
  3
*D6
  1

  0
LINE
  5
157
330
156
100
AcDbEntity
  8
1
  6
Continuous
 62
     4
100
AcDbLine
 10
-151.4533891951712
 20
-76.00227616065644
 30
0.0
 11
-151.4533891951712
 21
-116.6772689832374
 31
0.0
  0
LINE
  5
158
330
156
100
AcDbEntity
  8
1
  6
Continuous
 62
     4
100
AcDbLine
 10
-151.4533891951712
 20
-76.00227616065644
 30
0.0
 11
-151.4533891951712
 21
-36.00227616065643
 31
0.0
  0
LINE
  5
159
330
156
100
AcDbEntity
  8
1
  6
Continuous
 62
     4
100
AcDbLine
 10
-175.0
 20
-36.00227616065643
 30
0.0
 11
-149.4533891951712
 21
-36.00227616065643
 31
0.0
  0
LINE
  5
15A
330
156
100
AcDbEntity
  8
1
  6
Continuous
 62
     4
100
AcDbLine
 10
-175.0
 20
-76.00227616065644
 30
0.0
 11
-149.4533891951712
 21
-76.00227616065644
 31
0.0
  0
SOLID
  5
15B
330
156
100
AcDbEntity
  8
1
 62
     4
100
AcDbTrace
 10
-150.1368642192973
 20
-46.00227616065643
 30
0.0
 11
-152.7699141710452
 21
-46.00227616065643
 31
0.0
 12
-151.4533891951712
 22
-36.00227616065643
 32
0.0
 13
-151.4533891951712
 23
-36.00227616065643
 33
0.0
  0
SOLID
  5
15C
330
156
100
AcDbEntity
  8
1
 62
     4
100
AcDbTrace
 10
-152.7699141710452
 20
-66.00227616065644
 30
0.0
 11
-150.1368642192973
 21
-66.00227616065644
 31
0.0
 12
-151.4533891951712
 22
-76.00227616065644
 32
0.0
 13
-151.4533891951712
 23
-76.00227616065644
 33
0.0
  0
MTEXT
  5
15D
330
156
100
AcDbEntity
  8
1
 62
     1
100
AcDbMText
 10
-153.4533891951712
 20
-111.0772689832374
 30
0.0
 40
10.0
 41
0.0
 71
     7
 72
     1
  1
\C1;DN\C1;40
  7
CONVERTER_11
 11
0.0
 21
1.0
 31
0.0
 73
     1
 44
0.60024009603842
  0
ENDBLK
  5
15F
330
156
100
AcDbEntity
  8
0
100
AcDbBlockEnd
  0
BLOCK
  5
16A
330
162
100
AcDbEntity
  8
0
100
AcDbBlockBegin
  2
*D7
 70
     1
 71
     0
 10
0.0
 20
0.0
 30
0.0
  3
*D7
  1

  0
LINE
  5
163
330
162
100
AcDbEntity
  8
1
  6
Continuous
 62
     4
100
AcDbLine
 10
-115.0
 20
-81.00227616065641
 30
0.0
 11
-115.0
 21
-119.3333785455884
 31
0.0
  0
LINE
  5
164
330
162
100
AcDbEntity
  8
1
  6
Continuous
 62
     4
100
AcDbLine
 10
-115.0
 20
-81.00227616065641
 30
0.0
 11
-115.0
 21
-31.00227616065641
 31
0.0
  0
LINE
  5
165
330
162
100
AcDbEntity
  8
1
  6
Continuous
 62
     4
100
AcDbLine
 10
-125.0
 20
-31.00227616065641
 30
0.0
 11
-113.0
 21
-31.00227616065641
 31
0.0
  0
LINE
  5
166
330
162
100
AcDbEntity
  8
1
  6
Continuous
 62
     4
100
AcDbLine
 10
-125.0
 20
-81.00227616065641
 30
0.0
 11
-113.0
 21
-81.00227616065641
 31
0.0
  0
SOLID
  5
167
330
162
100
AcDbEntity
  8
1
 62
     4
100
AcDbTrace
 10
-113.683475024126
 20
-41.00227616065641
 30
0.0
 11
-116.316524975874
 21
-41.00227616065641
 31
0.0
 12
-115.0
 22
-31.00227616065641
 32
0.0
 13
-115.0
 23
-31.00227616065641
 33
0.0
  0
SOLID
  5
168
330
162
100
AcDbEntity
  8
1
 62
     4
100
AcDbTrace
 10
-116.316524975874
 20
-71.00227616065641
 30
0.0
 11
-113.683475024126
 21
-71.00227616065641
 31
0.0
 12
-115.0
 22
-81.00227616065641
 32
0.0
 13
-115.0
 23
-81.00227616065641
 33
0.0
  0
MTEXT
  5
169
330
162
100
AcDbEntity
  8
1
 62
     1
100
AcDbMText
 10
-117.0
 20
-113.7333785455884
 30
0.0
 40
10.0
 41
0.0
 71
     7
 72
     1
  1
\C1;DN\C1;50
  7
CONVERTER_11
 11
0.0
 21
1.0
 31
0.0
 73
     1
 44
0.60024009603842
  0
ENDBLK
  5
16B
330
162
100
AcDbEntity
  8
0
100
AcDbBlockEnd
  0
BLOCK
  5
175
330
16E
100
AcDbEntity
  8
0
100
AcDbBlockBegin
  2
*D8
 70
     1
 71
     0
 10
0.0
 20
0.0
 30
0.0
  3
*D8
  1

  0
LINE
  5
16F
330
16E
100
AcDbEntity
  8
1
  6
Continuous
 62
     4
100
AcDbLine
 10
313.2012751114164
 20
-146.4065207600407
 30
0.0
 11
317.9994077216033
 21
-36.51121638603642
 31
0.0
  0
LINE
  5
170
330
16E
100
AcDbEntity
  8
1
  6
Continuous
 62
     4
100
AcDbLine
 10
296.8313567895889
 20
-35.58699932280928
 30
0.0
 11
319.997504164767
 21
-36.5984551607671
 31
0.0
  0
LINE
  5
171
330
16E
100
AcDbEntity
  8
1
  6
Continuous
 62
     4
100
AcDbLine
 10
292.033224179402
 20
-145.4823036968136
 30
0.0
 11
315.1993715545801
 21
-146.4937595347714
 31
0.0
  0
SOLID
  5
172
330
16E
100
AcDbEntity
  8
1
 62
     4
100
AcDbTrace
 10
318.8784857837651
 20
-46.55912461475376
 30
0.0
 11
316.2479419121352
 21
-46.44427258895626
 31
0.0
 12
317.9994077216033
 22
-36.51121638603642
 32
0.0
 13
317.9994077216033
 23
-36.51121638603642
 33
0.0
  0
SOLID
  5
173
330
16E
100
AcDbEntity
  8
1
 62
     4
100
AcDbTrace
 10
312.3221970492546
 20
-136.3586125313234
 30
0.0
 11
314.9527409208845
 21
-136.4734645571209
 31
0.0
 12
313.2012751114164
 22
-146.4065207600407
 32
0.0
 13
313.2012751114164
 23
-146.4065207600407
 33
0.0
  0
MTEXT
  5
174
330
16E
100
AcDbEntity
  8
1
 62
     1
100
AcDbMText
 10
313.8989062455919
 20
-84.57696957149008
 30
0.0
 40
10.0
 41
0.0
 71
     7
 72
     1
  1
\C1;DN\C1;110
  7
CONVERTER_11
 11
0.04361938736533513
 21
0.9990482215818578
 31
0.0
 73
     1
 44
0.60024009603842
  0
ENDBLK
  5
176
330
16E
100
AcDbEntity
  8
0
100
AcDbBlockEnd
  0
BLOCK
  5
180
330
179
100
AcDbEntity
  8
0
100
AcDbBlockBegin
  2
*D9
 70
     1
 71
     0
 10
0.0
 20
0.0
 30
0.0
  3
*D9
  1

  0
LINE
  5
17A
330
179
100
AcDbEntity
  8
1
  6
Continuous
 62
     4
100
AcDbLine
 10
-191.8563485438462
 20
0.0
 30
0.0
 11
-191.8563485438462
 21
-56.00227616065644
 31
0.0
  0
LINE
  5
17B
330
179
100
AcDbEntity
  8
1
  6
Continuous
 62
     4
100
AcDbLine
 10
-97.5000000000001
 20
0.0
 30
0.0
 11
-193.8563485438462
 21
0.0
 31
0.0
  0
LINE
  5
17C
330
179
100
AcDbEntity
  8
1
  6
Continuous
 62
     4
100
AcDbLine
 10
-181.8563485438462
 20
-56.00227616065644
 30
0.0
 11
-193.8563485438462
 21
-56.00227616065644
 31
0.0
  0
SOLID
  5
17D
330
179
100
AcDbEntity
  8
1
 62
     4
100
AcDbTrace
 10
-190.5398235679722
 20
-10.0
 30
0.0
 11
-193.1728735197202
 21
-10.0
 31
0.0
 12
-191.8563485438462
 22
0.0
 32
0.0
 13
-191.8563485438462
 23
0.0
 33
0.0
  0
SOLID
  5
17E
330
179
100
AcDbEntity
  8
1
 62
     4
100
AcDbTrace
 10
-193.1728735197202
 20
-46.00227616065644
 30
0.0
 11
-190.5398235679722
 21
-46.00227616065644
 31
0.0
 12
-191.8563485438462
 22
-56.00227616065644
 32
0.0
 13
-191.8563485438462
 23
-56.00227616065644
 33
0.0
  0
MTEXT
  5
17F
330
179
100
AcDbEntity
  8
1
 62
     1
100
AcDbMText
 10
-193.8563485438462
 20
-34.35491397637233
 30
0.0
 40
10.0
 41
0.0
 71
     7
 72
     1
  1
56
  7
CONVERTER_11
 11
0.0
 21
1.0
 31
0.0
 73
     1
 44
0.60024009603842
  0
ENDBLK
  5
181
330
179
100
AcDbEntity
  8
0
100
AcDbBlockEnd
  0
BLOCK
  5
18B
330
184
100
AcDbEntity
  8
0
100
AcDbBlockBegin
  2
*D10
 70
     1
 71
     0
 10
0.0
 20
0.0
 30
0.0
  3
*D10
  1

  0
LINE
  5
185
330
184
100
AcDbEntity
  8
1
  6
Continuous
 62
     4
100
AcDbLine
 10
-213.7847865159922
 20
0.0
 30
0.0
 11
-213.7847865159922
 21
-173.0022761606564
 31
0.0
  0
LINE
  5
186
330
184
100
AcDbEntity
  8
1
  6
Continuous
 62
     4
100
AcDbLine
 10
-97.50000000000011
 20
0.0
 30
0.0
 11
-215.7847865159922
 21
0.0
 31
0.0
  0
LINE
  5
187
330
184
100
AcDbEntity
  8
1
  6
Continuous
 62
     4
100
AcDbLine
 10
-41.0
 20
-173.0022761606564
 30
0.0
 11
-215.7847865159922
 21
-173.0022761606564
 31
0.0
  0
SOLID
  5
188
330
184
100
AcDbEntity
  8
1
 62
     4
100
AcDbTrace
 10
-212.4682615401182
 20
-10.0
 30
0.0
 11
-215.1013114918662
 21
-10.0
 31
0.0
 12
-213.7847865159922
 22
0.0
 32
0.0
 13
-213.7847865159922
 23
0.0
 33
0.0
  0
SOLID
  5
189
330
184
100
AcDbEntity
  8
1
 62
     4
100
AcDbTrace
 10
-215.1013114918662
 20
-163.0022761606564
 30
0.0
 11
-212.4682615401182
 21
-163.0022761606564
 31
0.0
 12
-213.7847865159922
 22
-173.0022761606564
 32
0.0
 13
-213.7847865159922
 23
-173.0022761606564
 33
0.0
  0
MTEXT
  5
18A
330
184
100
AcDbEntity
  8
1
 62
     1
100
AcDbMText
 10
-215.7847865159922
 20
-109.2850231354434
 30
0.0
 40
10.0
 41
0.0
 71
     7
 72
     1
  1
173
  7
CONVERTER_11
 11
0.0
 21
1.0
 31
0.0
 73
     1
 44
0.60024009603842
  0
ENDBLK
  5
18C
330
184
100
AcDbEntity
  8
0
100
AcDbBlockEnd
  0
ENDSEC
  0
SECTION
  2
ENTITIES
  0
INSERT
  5
4A
330
1F
100
AcDbEntity
  8
0
100
AcDbBlockReference
  2
HL70K_Bodenablaufkörper_komplett__1
 10
-175.0
 20
-156.0022761606564
 30
0.0
  0
DIMENSION
  5
13F
330
1F
100
AcDbEntity
  8
1
100
AcDbDimension
  2
*D3
 10
100.0000000000001
 20
29.80215884570909
 30
0.0
 11
-32.4285818260994
 21
36.80215884570909
 31
0.0
 70
    32
  1
<>
 71
     5
 42
-1.0
 53
180.0
  3
ME10_DIM_10
100
AcDbAlignedDimension
 13
-100.0000000000001
 23
-0.5130638028499
 33
0.0
 14
100.0000000000001
 24
-0.5130638028499
 34
0.0
 50
180.0
100
AcDbRotatedDimension
  0
DIMENSION
  5
14A
330
1F
100
AcDbEntity
  8
1
100
AcDbDimension
  2
*D4
 10
55.0
 20
15.0
 30
0.0
 11
18.2261133456764
 21
22.0
 31
0.0
 70
    32
  1
<>
 71
     5
 42
-1.0
 53
0.00013888888889
  3
ME10_DIM_11
100
AcDbAlignedDimension
 13
-54.99999999999999
 23
5.0
 33
0.0
 14
55.0
 24
5.0
 34
0.0
100
AcDbRotatedDimension
  0
DIMENSION
  5
155
330
1F
100
AcDbEntity
  8
1
100
AcDbDimension
  2
*D5
 10
187.637730263985
 20
-42.33045850847959
 30
0.0
 11
179.1212939953358
 21
-76.90981873140441
 31
0.0
 70
    32
  1
<>
 71
     5
 42
-1.0
 53
87.49999999999997
  3
ME10_DIM_12
100
AcDbAlignedDimension
 13
163.5033312244637
 23
-116.3481792771327
 33
0.0
 14
166.9056434389599
 24
-41.42527604923782
 34
0.0
 50
87.49999999999997
100
AcDbRotatedDimension
  0
DIMENSION
  5
161
330
1F
100
AcDbEntity
  8
1
100
AcDbDimension
  2
*D6
 10
-151.4533891951712
 20
-36.00227616065643
 30
0.0
 11
-158.4533891951712
 21
-98.17726898323741
 31
0.0
 70
    32
  1
<>
 71
     5
 42
-1.0
 53
90.0
  3
ME10_DIM_13
100
AcDbAlignedDimension
 13
-175.0
 23
-76.00227616065644
 33
0.0
 14
-175.0
 24
-36.00227616065644
 34
0.0
 50
90.0
100
AcDbRotatedDimension
  0
DIMENSION
  5
16D
330
1F
100
AcDbEntity
  8
1
100
AcDbDimension
  2
*D7
 10
-115.0
 20
-31.00227616065641
 30
0.0
 11
-122.0
 21
-100.8333785455884
 31
0.0
 70
    32
  1
<>
 71
     5
 42
-1.0
 53
90.0
  3
ME10_DIM_14
100
AcDbAlignedDimension
 13
-125.0
 23
-81.00227616065644
 33
0.0
 14
-125.0
 24
-31.00227616065644
 34
0.0
 50
90.0
100
AcDbRotatedDimension
  0
DIMENSION
  5
178
330
1F
100
AcDbEntity
  8
1
100
AcDbDimension
  2
*D8
 10
317.9994077216033
 20
-36.51121638603642
 30
0.0
 11
309.5317843157435
 21
-69.97257824388466
 31
0.0
 70
    32
  1
<>
 71
     5
 42
-1.0
 53
87.50000000000003
  3
ME10_DIM_15
100
AcDbAlignedDimension
 13
292.033224179402
 23
-145.4823036968136
 33
0.0
 14
296.8313567895889
 24
-35.58699932280928
 34
0.0
 50
87.50000000000003
100
AcDbRotatedDimension
  0
DIMENSION
  5
183
330
1F
100
AcDbEntity
  8
1
100
AcDbDimension
  2
*D9
 10
-191.8563485438462
 20
0.0
 30
0.0
 11
-198.8563485438462
 21
-26.85491397637233
 31
0.0
 70
    32
  1
<>
 71
     5
 42
-1.0
 53
90.0
  3
ME10_DIM_16
100
AcDbAlignedDimension
 13
-181.8563485438462
 23
-56.00227616065644
 33
0.0
 14
-97.5000000000001
 24
0.0
 34
0.0
 50
90.0
100
AcDbRotatedDimension
  0
DIMENSION
  5
18E
330
1F
100
AcDbEntity
  8
1
100
AcDbDimension
  2
*D10
 10
-213.7847865159922
 20
0.0
 30
0.0
 11
-220.7847865159922
 21
-98.78502313544341
 31
0.0
 70
    32
  1
<>
 71
     5
 42
-1.0
 53
90.0
  3
ME10_DIM_17
100
AcDbAlignedDimension
 13
-40.99999999999999
 23
-173.0022761606564
 33
0.0
 14
-97.5000000000001
 24
0.0
 34
0.0
 50
90.0
100
AcDbRotatedDimension
  0
ENDSEC
  0
SECTION
  2
OBJECTS
  0
DICTIONARY
  5
C
330
0
100
AcDbDictionary
281
     1
  3
ACAD_GROUP
350
D
  3
ACAD_LAYOUT
350
1A
  3
ACAD_MLINESTYLE
350
17
  3
ACAD_PLOTSETTINGS
350
19
  3
ACAD_PLOTSTYLENAME
350
E
  3
ACAD_TABLESTYLE
350
18F
  3
ACAD_VISUALSTYLE
350
2A
  0
DICTIONARY
  5
D
102
{ACAD_REACTORS
330
C
102
}
330
C
100
AcDbDictionary
281
     1
  0
DICTIONARY
  5
1A
102
{ACAD_REACTORS
330
C
102
}
330
C
100
AcDbDictionary
281
     1
  3
Layout1
350
1E
  3
Layout2
350
26
  3
Model
350
22
  0
DICTIONARY
  5
17
102
{ACAD_REACTORS
330
C
102
}
330
C
100
AcDbDictionary
281
     1
  3
Standard
350
18
  0
DICTIONARY
  5
19
102
{ACAD_REACTORS
330
C
102
}
330
C
100
AcDbDictionary
281
     1
  0
ACDBDICTIONARYWDFLT
  5
E
102
{ACAD_REACTORS
330
C
102
}
330
C
100
AcDbDictionary
281
     1
  3
Normal
350
F
100
AcDbDictionaryWithDefault
340
F
  0
DICTIONARY
  5
18F
102
{ACAD_REACTORS
330
C
102
}
330
C
100
AcDbDictionary
281
     1
  0
DICTIONARY
  5
2A
102
{ACAD_REACTORS
330
C
102
}
330
C
100
AcDbDictionary
281
     1
  3
2dWireframe
350
2F
  3
3D Hidden
350
31
  3
3dWireframe
350
30
  3
Basic
350
32
  3
Brighten
350
36
  3
ColorChange
350
3A
  3
Conceptual
350
34
  3
Dim
350
35
  3
Facepattern
350
39
  3
Flat
350
2B
  3
FlatWithEdges
350
2C
  3
Gouraud
350
2D
  3
GouraudWithEdges
350
2E
  3
Linepattern
350
38
  3
Realistic
350
33
  3
Thicken
350
37
  0
LAYOUT
  5
1E
102
{ACAD_REACTORS
330
1A
102
}
330
1A
100
AcDbPlotSettings
  1

  2
none_device
  4

  6

 40
0.0
 41
0.0
 42
0.0
 43
0.0
 44
0.0
 45
0.0
 46
0.0
 47
0.0
 48
0.0
 49
0.0
140
0.0
141
0.0
142
1.0
143
1.0
 70
   688
 72
     0
 73
     0
 74
     5
  7

 75
    16
147
1.0
148
0.0
149
0.0
100
AcDbLayout
  1
Layout1
 70
     1
 71
     1
 10
0.0
 20
0.0
 11
12.0
 21
9.0
 12
0.0
 22
0.0
 32
0.0
 14
1.00000000000000E+20
 24
1.00000000000000E+20
 34
1.00000000000000E+20
 15
-1.00000000000000E+20
 25
-1.00000000000000E+20
 35
-1.00000000000000E+20
146
0.0
 13
0.0
 23
0.0
 33
0.0
 16
1.0
 26
0.0
 36
0.0
 17
0.0
 27
1.0
 37
0.0
 76
     0
330
1B
  0
LAYOUT
  5
26
102
{ACAD_REACTORS
330
1A
102
}
330
1A
100
AcDbPlotSettings
  1

  2
none_device
  4

  6

 40
0.0
 41
0.0
 42
0.0
 43
0.0
 44
0.0
 45
0.0
 46
0.0
 47
0.0
 48
0.0
 49
0.0
140
0.0
141
0.0
142
1.0
143
1.0
 70
   688
 72
     0
 73
     0
 74
     5
  7

 75
    16
147
1.0
148
0.0
149
0.0
100
AcDbLayout
  1
Layout2
 70
     1
 71
     2
 10
0.0
 20
0.0
 11
0.0
 21
0.0
 12
0.0
 22
0.0
 32
0.0
 14
0.0
 24
0.0
 34
0.0
 15
0.0
 25
0.0
 35
0.0
146
0.0
 13
0.0
 23
0.0
 33
0.0
 16
1.0
 26
0.0
 36
0.0
 17
0.0
 27
1.0
 37
0.0
 76
     0
330
23
  0
LAYOUT
  5
22
102
{ACAD_REACTORS
330
1A
102
}
330
1A
100
AcDbPlotSettings
  1

  2
none_device
  4

  6

 40
0.0
 41
0.0
 42
0.0
 43
0.0
 44
0.0
 45
0.0
 46
0.0
 47
0.0
 48
0.0
 49
0.0
140
0.0
141
0.0
142
1.0
143
1.0
 70
  1712
 72
     0
 73
     0
 74
     0
  7

 75
     0
147
1.0
148
0.0
149
0.0
100
AcDbLayout
  1
Model
 70
     1
 71
     0
 10
0.0
 20
0.0
 11
12.0
 21
9.0
 12
0.0
 22
0.0
 32
0.0
 14
-225.7847865159922
 24
-181.577223477794
 34
0.0
 15
319.997504164767
 25
41.80215884570909
 35
0.0
146
0.0
 13
0.0
 23
0.0
 33
0.0
 16
1.0
 26
0.0
 36
0.0
 17
0.0
 27
1.0
 37
0.0
 76
     0
330
1F
331
29
  0
MLINESTYLE
  5
18
102
{ACAD_REACTORS
330
17
102
}
330
17
100
AcDbMlineStyle
  2
Standard
 70
     0
  3

 62
   256
 51
90.0
 52
90.0
 71
     2
 49
0.5
 62
   256
  6
BYLAYER
 49
-0.5
 62
   256
  6
BYLAYER
  0
ACDBPLACEHOLDER
  5
F
102
{ACAD_REACTORS
330
E
102
}
330
E
  0
VISUALSTYLE
  5
2F
102
{ACAD_REACTORS
330
2A
102
}
330
2A
100
AcDbVisualStyle
  2
2dWireframe
 70
     4
 71
     0
 72
     2
 73
     0
 90
        0
 40
-0.6
 41
-30.0
 62
     5
 63
     7
 74
     1
 91
        4
 64
     7
 65
   257
 75
     1
175
     1
 42
1.0
 92
        0
 66
   257
 43
1.0
 76
     1
 77
     6
 78
     2
 67
     7
 79
     5
170
     0
171
     0
290
     0
174
     0
 93
        1
 44
0.0
173
     0
291
     0
 45
0.0
1001
ACAD
1000
AcDbSavedByObjectVersion
1070
     0
  0
VISUALSTYLE
  5
31
102
{ACAD_REACTORS
330
2A
102
}
330
2A
100
AcDbVisualStyle
  2
3D Hidden
 70
     6
 71
     1
 72
     2
 73
     2
 90
        0
 40
-0.6
 41
-30.0
 62
     5
 63
     7
 74
     2
 91
        2
 64
     7
 65
   257
 75
     2
175
     1
 42
40.0
 92
        0
 66
   257
 43
1.0
 76
     1
 77
     6
 78
     2
 67
     7
 79
     3
170
     0
171
     0
290
     0
174
     0
 93
        1
 44
0.0
173
     0
291
     0
 45
0.0
1001
ACAD
1000
AcDbSavedByObjectVersion
1070
     0
  0
VISUALSTYLE
  5
30
102
{ACAD_REACTORS
330
2A
102
}
330
2A
100
AcDbVisualStyle
  2
3dWireframe
 70
     5
 71
     0
 72
     2
 73
     0
 90
        0
 40
-0.6
 41
-30.0
 62
     5
 63
     7
 74
     1
 91
        4
 64
     7
 65
   257
 75
     1
175
     1
 42
1.0
 92
        0
 66
   257
 43
1.0
 76
     1
 77
     6
 78
     2
 67
     7
 79
     5
170
     0
171
     0
290
     0
174
     0
 93
        1
 44
0.0
173
     0
291
     0
 45
0.0
1001
ACAD
1000
AcDbSavedByObjectVersion
1070
     0
  0
VISUALSTYLE
  5
32
102
{ACAD_REACTORS
330
2A
102
}
330
2A
100
AcDbVisualStyle
  2
Basic
 70
     7
 71
     1
 72
     0
 73
     1
 90
        0
 40
-0.6
 41
-30.0
 62
     5
 63
     7
 74
     0
 91
        4
 64
     7
 65
   257
 75
     1
175
     1
 42
1.0
 92
        8
 66
     7
 43
1.0
 76
     1
 77
     6
 78
     2
 67
     7
 79
     5
170
     0
171
     0
290
     0
174
     0
 93
        1
 44
0.0
173
     0
291
     1
 45
0.0
1001
ACAD
1000
AcDbSavedByObjectVersion
1070
     0
  0
VISUALSTYLE
  5
36
102
{ACAD_REACTORS
330
2A
102
}
330
2A
100
AcDbVisualStyle
  2
Brighten
 70
    12
 71
     2
 72
     2
 73
     0
 90
        0
 40
-0.6
 41
-30.0
 62
     5
 63
     7
 74
     1
 91
        4
 64
     7
 65
   257
 75
     1
175
     1
 42
1.0
 92
        8
 66
     7
 43
1.0
 76
     1
 77
     6
 78
     2
 67
     7
 79
     5
170
     0
171
     0
290
     0
174
     0
 93
        1
 44
50.0
173
     0
291
     1
 45
0.0
1001
ACAD
1000
AcDbSavedByObjectVersion
1070
     0
  0
VISUALSTYLE
  5
3A
102
{ACAD_REACTORS
330
2A
102
}
330
2A
100
AcDbVisualStyle
  2
ColorChange
 70
    16
 71
     2
 72
     2
 73
     3
 90
        0
 40
-0.6
 41
-30.0
 62
     5
 63
     8
 74
     1
 91
        4
 64
     7
 65
   257
 75
     1
175
     1
 42
1.0
 92
        8
 66
     8
 43
1.0
 76
     1
 77
     6
 78
     2
 67
     7
 79
     5
170
     0
171
     0
290
     0
174
     0
 93
        1
 44
0.0
173
     0
291
     1
 45
0.0
1001
ACAD
1000
AcDbSavedByObjectVersion
1070
     0
  0
VISUALSTYLE
  5
34
102
{ACAD_REACTORS
330
2A
102
}
330
2A
100
AcDbVisualStyle
  2
Conceptual
 70
     9
 71
     3
 72
     2
 73
     0
 90
        0
 40
-0.6
 41
-30.0
 62
     5
 63
     7
 74
     2
 91
        2
 64
     7
 65
   257
 75
     1
175
     1
 42
40.0
 92
        8
 66
     7
 43
1.0
 76
     1
 77
     6
 78
     2
 67
     7
 79
     3
170
     0
171
     0
290
     0
174
     0
 93
        1
 44
0.0
173
     0
291
     0
 45
0.0
1001
ACAD
1000
AcDbSavedByObjectVersion
1070
     0
  0
VISUALSTYLE
  5
35
102
{ACAD_REACTORS
330
2A
102
}
330
2A
100
AcDbVisualStyle
  2
Dim
 70
    11
 71
     2
 72
     2
 73
     0
 90
        0
 40
-0.6
 41
-30.0
 62
     5
 63
     7
 74
     1
 91
        4
 64
     7
 65
   257
 75
     1
175
     1
 42
1.0
 92
        8
 66
     7
 43
1.0
 76
     1
 77
     6
 78
     2
 67
     7
 79
     5
170
     0
171
     0
290
     0
174
     0
 93
        1
 44
-50.0
173
     0
291
     1
 45
0.0
1001
ACAD
1000
AcDbSavedByObjectVersion
1070
     0
  0
VISUALSTYLE
  5
39
102
{ACAD_REACTORS
330
2A
102
}
330
2A
100
AcDbVisualStyle
  2
Facepattern
 70
    15
 71
     2
 72
     2
 73
     0
 90
        0
 40
-0.6
 41
-30.0
 62
     5
 63
     7
 74
     1
 91
        4
 64
     7
 65
   257
 75
     1
175
     1
 42
1.0
 92
        8
 66
     7
 43
1.0
 76
     1
 77
     6
 78
     2
 67
     7
 79
     5
170
     0
171
     0
290
     0
174
     0
 93
        1
 44
0.0
173
     0
291
     1
 45
0.0
1001
ACAD
1000
AcDbSavedByObjectVersion
1070
     0
  0
VISUALSTYLE
  5
2B
102
{ACAD_REACTORS
330
2A
102
}
330
2A
100
AcDbVisualStyle
  2
Flat
 70
     0
 71
     2
 72
     1
 73
     1
 90
        2
 40
-0.6
 41
30.0
 62
     5
 63
     7
 74
     0
 91
        4
 64
     7
 65
   257
 75
     1
175
     1
 42
1.0
 92
        8
 66
     7
 43
1.0
 76
     1
 77
     6
 78
     2
 67
     7
 79
     5
170
     0
171
     0
290
     0
174
     0
 93
       13
 44
0.0
173
     0
291
     1
 45
0.0
1001
ACAD
1000
AcDbSavedByObjectVersion
1070
     0
  0
VISUALSTYLE
  5
2C
102
{ACAD_REACTORS
330
2A
102
}
330
2A
100
AcDbVisualStyle
  2
FlatWithEdges
 70
     1
 71
     2
 72
     1
 73
     1
 90
        2
 40
-0.6
 41
30.0
 62
     5
 63
     7
 74
     1
 91
        4
 64
     7
 65
   257
 75
     1
175
     1
 42
1.0
 92
        0
 66
   257
 43
1.0
 76
     1
 77
     6
 78
     2
 67
     7
 79
     5
170
     0
171
     0
290
     0
174
     0
 93
       13
 44
0.0
173
     0
291
     1
 45
0.0
1001
ACAD
1000
AcDbSavedByObjectVersion
1070
     0
  0
VISUALSTYLE
  5
2D
102
{ACAD_REACTORS
330
2A
102
}
330
2A
100
AcDbVisualStyle
  2
Gouraud
 70
     2
 71
     2
 72
     2
 73
     1
 90
        2
 40
-0.6
 41
30.0
 62
     5
 63
     7
 74
     0
 91
        4
 64
     7
 65
   257
 75
     1
175
     1
 42
1.0
 92
        0
 66
     7
 43
1.0
 76
     1
 77
     6
 78
     2
 67
     7
 79
     5
170
     0
171
     0
290
     0
174
     0
 93
       13
 44
0.0
173
     0
291
     1
 45
0.0
1001
ACAD
1000
AcDbSavedByObjectVersion
1070
     0
  0
VISUALSTYLE
  5
2E
102
{ACAD_REACTORS
330
2A
102
}
330
2A
100
AcDbVisualStyle
  2
GouraudWithEdges
 70
     3
 71
     2
 72
     2
 73
     1
 90
        2
 40
-0.6
 41
30.0
 62
     5
 63
     7
 74
     1
 91
        4
 64
     7
 65
   257
 75
     1
175
     1
 42
1.0
 92
        0
 66
   257
 43
1.0
 76
     1
 77
     6
 78
     2
 67
     7
 79
     5
170
     0
171
     0
290
     0
174
     0
 93
       13
 44
0.0
173
     0
291
     1
 45
0.0
1001
ACAD
1000
AcDbSavedByObjectVersion
1070
     0
  0
VISUALSTYLE
  5
38
102
{ACAD_REACTORS
330
2A
102
}
330
2A
100
AcDbVisualStyle
  2
Linepattern
 70
    14
 71
     2
 72
     2
 73
     0
 90
        0
 40
-0.6
 41
-30.0
 62
     5
 63
     7
 74
     1
 91
        4
 64
     7
 65
   257
 75
     7
175
     7
 42
1.0
 92
        8
 66
     7
 43
1.0
 76
     1
 77
     6
 78
     2
 67
     7
 79
     5
170
     0
171
     0
290
     0
174
     0
 93
        1
 44
0.0
173
     0
291
     1
 45
0.0
1001
ACAD
1000
AcDbSavedByObjectVersion
1070
     0
  0
VISUALSTYLE
  5
33
102
{ACAD_REACTORS
330
2A
102
}
330
2A
100
AcDbVisualStyle
  2
Realistic
 70
     8
 71
     2
 72
     2
 73
     0
 90
        0
 40
-0.6
 41
-30.0
 62
     5
 63
     7
 74
     1
 91
        0
 64
     7
 65
   257
 75
     1
175
     1
 42
1.0
 92
        8
 66
     8
 43
1.0
 76
     1
 77
     6
 78
     2
 67
     7
 79
     5
170
     0
171
     0
290
     0
174
     0
 93
       13
 44
0.0
173
     0
291
     0
 45
0.0
1001
ACAD
1000
AcDbSavedByObjectVersion
1070
     0
  0
VISUALSTYLE
  5
37
102
{ACAD_REACTORS
330
2A
102
}
330
2A
100
AcDbVisualStyle
  2
Thicken
 70
    13
 71
     2
 72
     2
 73
     0
 90
        0
 40
-0.6
 41
-30.0
 62
     5
 63
     7
 74
     1
 91
        4
 64
     7
 65
   257
 75
     1
175
     1
 42
1.0
 92
       12
 66
     7
 43
1.0
 76
     1
 77
     6
 78
     2
 67
     7
 79
     5
170
     0
171
     0
290
     0
174
     0
 93
        1
 44
0.0
173
     0
291
     1
 45
0.0
1001
ACAD
1000
AcDbSavedByObjectVersion
1070
     0
  0
ENDSEC
  0
EOF
