  0
SECTION
  2
HEADER
  9
$ACADVER
  1
AC1014
  9
$ACADMAINTVER
 70
             0
  9
$DWGCODEPAGE
  3
ANSI_1252
  9
$INSBASE
 10
0.0
 20
0.0
 30
0.0
  9
$EXTMIN
 10
-49.85687448673082
 20
-76.50355259237992
 30
0.0
  9
$EXTMAX
 10
212.58373700000001
 20
188.10114735089491
 30
0.0
  9
$LIMMIN
 10
0.0
 20
0.0
  9
$LIMMAX
 10
0.0
 20
0.0
  9
$ORTHOMODE
 70
             0
  9
$REGENMODE
 70
             1
  9
$FILLMODE
 70
             1
  9
$QTEXTMODE
 70
             0
  9
$MIRRTEXT
 70
             1
  9
$DRAGMODE
 70
             2
  9
$LTSCALE
 40
1.0
  9
$OSMODE
 70
             0
  9
$ATTMODE
 70
             1
  9
$TEXTSIZE
 40
0.2
  9
$TRACEWID
 40
0.05
  9
$TEXTSTYLE
  7
STANDARD
  9
$CLAYER
  8
0
  9
$CELTYPE
  6
CONTINUOUS
  9
$CECOLOR
 62
           256
  9
$CELTSCALE
 40
1.0
  9
$DELOBJ
 70
             1
  9
$DISPSILH
 70
             0
  9
$DIMSCALE
 40
1.0
  9
$DIMASZ
 40
0.18
  9
$DIMEXO
 40
0.0625
  9
$DIMDLI
 40
0.38
  9
$DIMRND
 40
0.0
  9
$DIMDLE
 40
0.0
  9
$DIMEXE
 40
0.18
  9
$DIMTP
 40
0.0
  9
$DIMTM
 40
0.0
  9
$DIMTXT
 40
0.18
  9
$DIMCEN
 40
0.09
  9
$DIMTSZ
 40
0.0
  9
$DIMTOL
 70
             0
  9
$DIMLIM
 70
             0
  9
$DIMTIH
 70
             1
  9
$DIMTOH
 70
             1
  9
$DIMSE1
 70
             0
  9
$DIMSE2
 70
             0
  9
$DIMTAD
 70
             0
  9
$DIMZIN
 70
             0
  9
$DIMBLK
  1

  9
$DIMASO
 70
             1
  9
$DIMSHO
 70
             1
  9
$DIMPOST
  1

  9
$DIMAPOST
  1

  9
$DIMALT
 70
             0
  9
$DIMALTD
 70
             2
  9
$DIMALTF
 40
25.4
  9
$DIMLFAC
 40
1.0
  9
$DIMTOFL
 70
             0
  9
$DIMTVP
 40
0.0
  9
$DIMTIX
 70
             0
  9
$DIMSOXD
 70
             0
  9
$DIMSAH
 70
             0
  9
$DIMBLK1
  1

  9
$DIMBLK2
  1

  9
$DIMSTYLE
  2
STANDARD
  9
$DIMCLRD
 70
             0
  9
$DIMCLRE
 70
             0
  9
$DIMCLRT
 70
             0
  9
$DIMTFAC
 40
1.0
  9
$DIMGAP
 40
0.09
  9
$DIMJUST
 70
             0
  9
$DIMSD1
 70
             0
  9
$DIMSD2
 70
             0
  9
$DIMTOLJ
 70
             1
  9
$DIMTZIN
 70
             0
  9
$DIMALTZ
 70
             0
  9
$DIMALTTZ
 70
             0
  9
$DIMFIT
 70
             3
  9
$DIMUPT
 70
             0
  9
$DIMUNIT
 70
             2
  9
$DIMDEC
 70
             4
  9
$DIMTDEC
 70
             4
  9
$DIMALTU
 70
             2
  9
$DIMALTTD
 70
             2
  9
$DIMTXSTY
  7
STANDARD
  9
$DIMAUNIT
 70
             0
  9
$LUNITS
 70
             2
  9
$LUPREC
 70
             4
  9
$SKETCHINC
 40
0.1
  9
$FILLETRAD
 40
0.0
  9
$AUNITS
 70
             0
  9
$AUPREC
 70
             0
  9
$MENU
  1
acad
  9
$ELEVATION
 40
0.0
  9
$PELEVATION
 40
0.0
  9
$THICKNESS
 40
0.0
  9
$LIMCHECK
 70
             0
  9
$BLIPMODE
 70
             1
  9
$CHAMFERA
 40
0.0
  9
$CHAMFERB
 40
0.0
  9
$CHAMFERC
 40
0.0
  9
$CHAMFERD
 40
0.0
  9
$SKPOLY
 70
             0
  9
$TDCREATE
 40
0.000000000
  9
$TDUPDATE
 40
0.000000000
  9
$TDINDWG
 40
0.0000000000
  9
$TDUSRTIMER
 40
0.0000000000
  9
$USRTIMER
 70
             1
  9
$ANGBASE
 50
0.0
  9
$ANGDIR
 70
             0
  9
$PDMODE
 70
             0
  9
$PDSIZE
 40
0.0
  9
$PLINEWID
 40
0.0
  9
$COORDS
 70
             0
  9
$SPLFRAME
 70
             0
  9
$SPLINETYPE
 70
             6
  9
$SPLINESEGS
 70
             8
  9
$ATTDIA
 70
             0
  9
$ATTREQ
 70
             1
  9
$HANDLING
 70
             1
  9
$HANDSEED
  5
F5
  9
$SURFTAB1
 70
             6
  9
$SURFTAB2
 70
             6
  9
$SURFTYPE
 70
             6
  9
$SURFU
 70
             6
  9
$SURFV
 70
             6
  9
$UCSNAME
  2

  9
$UCSORG
 10
0.0
 20
0.0
 30
0.0
  9
$UCSXDIR
 10
1.0
 20
0.0
 30
0.0
  9
$UCSYDIR
 10
0.0
 20
1.0
 30
0.0
  9
$PUCSNAME
  2

  9
$PUCSORG
 10
0.0
 20
0.0
 30
0.0
  9
$PUCSXDIR
 10
1.0
 20
0.0
 30
0.0
  9
$PUCSYDIR
 10
0.0
 20
1.0
 30
0.0
  9
$USERI1
 70
             0
  9
$USERI2
 70
             0
  9
$USERI3
 70
             0
  9
$USERI4
 70
             0
  9
$USERI5
 70
             0
  9
$USERR1
 40
12.01
  9
$USERR2
 40
0.0
  9
$USERR3
 40
0.0
  9
$USERR4
 40
0.0
  9
$USERR5
 40
0.0
  9
$WORLDVIEW
 70
             1
  9
$SHADEDGE
 70
             3
  9
$SHADEDIF
 70
            70
  9
$TILEMODE
 70
             1
  9
$MAXACTVP
 70
            16
  9
$PINSBASE
 10
0.0
 20
0.0
 30
0.0
  9
$PLIMCHECK
 70
             0
  9
$PEXTMIN
 10
1.00000000000000E+20
 20
1.00000000000000E+20
 30
1.00000000000000E+20
  9
$PEXTMAX
 10
-1.00000000000000E+20
 20
-1.00000000000000E+20
 30
-1.00000000000000E+20
  9
$PLIMMIN
 10
0.0
 20
0.0
  9
$PLIMMAX
 10
12.0
 20
9.0
  9
$UNITMODE
 70
             0
  9
$VISRETAIN
 70
             0
  9
$PLINEGEN
 70
             1
  9
$PSLTSCALE
 70
             0
  9
$TREEDEPTH
 70
          3020
  9
$PICKSTYLE
 70
             1
  9
$CMLSTYLE
  2
STANDARD
  9
$CMLJUST
 70
             0
  9
$CMLSCALE
 40
1.0
  9
$PROXYGRAPHICS
 70
             0
  9
$MEASUREMENT
 70
             1
  0
ENDSEC
  0
SECTION
  2
CLASSES
  0
CLASS
  1
LWPOLYLINE
  2
AcDbPolyline
  3
"AutoCAD"
 90
        0
280
             0
281
             1
  0
CLASS
  1
IMAGE
  2
AcDbRasterImage
  3
ISM
 90
      127
280
             0
281
             1
  0
CLASS
  1
OLE2FRAME
  2
AcDbOle2Frame
  3
""
 90
        0
280
             0
281
             1
  0
CLASS
  1
HATCH
  2
AcDbHatch
  3
"ACAD_SEDONA"
 90
        0
280
             0
281
             1
  0
CLASS
  1
DICTIONARYVAR
  2
AcDbDictionaryVar
  3
"AutoCAD"
 90
        0
280
             0
281
             0
  0
CLASS
  1
RASTERVARIABLES
  2
AcDbRasterVariables
  3
ISM
 90
        0
280
             0
281
             0
  0
CLASS
  1
IMAGEDEF
  2
AcDbRasterImageDef
  3
ISM
 90
        0
280
             0
281
             0
  0
CLASS
  1
IMAGEDEF_REACTOR
  2
AcDbRasterImageDefReactor
  3
ISM
 90
        1
280
             0
281
             0
  0
CLASS
  1
IDBUFFER
  2
AcDbIdBuffer
  3
"Acad"
 90
        0
280
             0
281
             0
  0
CLASS
  1
SPATIAL_FILTER
  2
AcDbSpatialFilter
  3
"Acad"
 90
        0
280
             0
281
             0
  0
CLASS
  1
XRECORD
  2
AcDbXrecord
  3
"<Built In>"
 90
        0
280
             0
281
             0
  0
CLASS
  1
SORTENTSTABLE
  2
AcDbSortentsTable
  3
"AutoCAD"
 90
        0
280
             0
281
             0
  0
CLASS
  1
LAYER_INDEX
  2
AcDbLayerIndex
  3
"Acad"
 90
        0
280
             0
281
             0
  0
CLASS
  1
SPATIAL_INDEX
  2
AcDbSpatialIndex
  3
"Acad"
 90
        0
280
             0
281
             0
  0
CLASS
  1
OBJECT_PTR
  2
CAseDLPNTableRecord
  3
"ASE-LPNTableRecord"
 90
        1
280
             0
281
             0
  0
CLASS
  1
LAYOUT
  2
AcDbLayout
  3
"AutoCAD 2000"
 90
        0
280
             0
281
             0
  0
CLASS
  1
PLOTSETTINGS
  2
AcDbPlotSettings
  3
"AutoCAD 2000"
 90
        0
280
             0
281
             0
  0
CLASS
  1
ACDBDICTIONARYWDFLT
  2
AcDbDictionaryWithDefault
  3
"AutoCAD 2000"
 90
        0
280
             0
281
             0
  0
CLASS
  1
ACDBPLACEHOLDER
  2
AcDbPlaceHolder
  3
"AutoCAD 2000"
 90
        0
280
             0
281
             0
  0
ENDSEC
  0
SECTION
  2
TABLES
  0
TABLE
  2
VPORT
  5
7
100
AcDbSymbolTable
 70
             1
  0
VPORT
  5
15
100
AcDbSymbolTableRecord
100
AcDbViewportTableRecord
  2
*ACTIVE
 70
             0
 10
0.0
 20
0.0
 11
1.0
 21
1.0
 12
81.3634312566346
 22
55.79879737925749
 13
0.0
 23
0.0
 14
1.0
 24
1.0
 15
0.0
 25
0.0
 16
0.0
 26
0.0
 36
1.0
 17
0.0
 27
0.0
 37
0.0
 40
291.06516993760232
 41
1.60267857142857
 42
50.0
 43
0.0
 44
0.0
 50
0.0
 51
0.0
 71
             0
 72
           100
 73
             1
 74
             1
 75
             0
 76
             0
 77
             0
 78
             0
  0
ENDTAB
  0
TABLE
  2
LTYPE
  5
4
100
AcDbSymbolTable
 70
            10
  0
LTYPE
  5
11
100
AcDbSymbolTableRecord
100
AcDbLinetypeTableRecord
  2
BYBLOCK
 70
            64
  3

 72
            65
 73
             0
 40
0.0
  0
LTYPE
  5
12
100
AcDbSymbolTableRecord
100
AcDbLinetypeTableRecord
  2
BYLAYER
 70
            64
  3

 72
            65
 73
             0
 40
0.0
  0
LTYPE
  5
13
100
AcDbSymbolTableRecord
100
AcDbLinetypeTableRecord
  2
CONTINUOUS
 70
            64
  3
Solid line
 72
            65
 73
             0
 40
0.0
  0
LTYPE
  5
1D
100
AcDbSymbolTableRecord
100
AcDbLinetypeTableRecord
  2
DASHED
 70
            64
  3
Dashed
 72
            65
 73
             2
 40
15.0
 49
7.0
 74
             0
 49
-8.0
 74
             0
  0
LTYPE
  5
1E
100
AcDbSymbolTableRecord
100
AcDbLinetypeTableRecord
  2
DOTTED
 70
            64
  3
Dotted
 72
            65
 73
             2
 40
1.0
 49
0.0
 74
             0
 49
-1.0
 74
             0
  0
LTYPE
  5
1F
100
AcDbSymbolTableRecord
100
AcDbLinetypeTableRecord
  2
DOT_CENTER
 70
            64
  3
Dot_Center
 72
            65
 73
             4
 40
14.0
 49
12.0
 74
             0
 49
-1.0
 74
             0
 49
0.0
 74
             0
 49
-1.0
 74
             0
  0
LTYPE
  5
20
100
AcDbSymbolTableRecord
100
AcDbLinetypeTableRecord
  2
LONG_DASHED
 70
            64
  3
Long_Dashed
 72
            65
 73
             2
 40
15.0
 49
10.0
 74
             0
 49
-5.0
 74
             0
  0
LTYPE
  5
21
100
AcDbSymbolTableRecord
100
AcDbLinetypeTableRecord
  2
DASH_CENTER
 70
            64
  3
Dash_Center
 72
            65
 73
             4
 40
14.0
 49
11.0
 74
             0
 49
-1.0
 74
             0
 49
1.0
 74
             0
 49
-1.0
 74
             0
  0
LTYPE
  5
22
100
AcDbSymbolTableRecord
100
AcDbLinetypeTableRecord
  2
PHANTOM
 70
            64
  3
Phantom
 72
            65
 73
             6
 40
13.0
 49
10.0
 74
             0
 49
-1.0
 74
             0
 49
0.0
 74
             0
 49
-1.0
 74
             0
 49
0.0
 74
             0
 49
-1.0
 74
             0
  0
LTYPE
  5
23
100
AcDbSymbolTableRecord
100
AcDbLinetypeTableRecord
  2
CENTER_DASH_DASH
 70
            64
  3
Center_Dash_Dash
 72
            65
 73
             6
 40
14.0
 49
9.0
 74
             0
 49
-1.0
 74
             0
 49
1.0
 74
             0
 49
-1.0
 74
             0
 49
1.0
 74
             0
 49
-1.0
 74
             0
  0
ENDTAB
  0
TABLE
  2
LAYER
  5
2
100
AcDbSymbolTable
 70
            10
  0
LAYER
  5
14
100
AcDbSymbolTableRecord
100
AcDbLayerTableRecord
  2
0
 70
             0
 62
             7
  6
CONTINUOUS
  0
LAYER
  5
24
100
AcDbSymbolTableRecord
100
AcDbLayerTableRecord
  2
1
 70
             0
 62
             7
  6
CONTINUOUS
  0
LAYER
  5
25
100
AcDbSymbolTableRecord
100
AcDbLayerTableRecord
  2
LC-001-002-----0
 70
             0
 62
             7
  6
CONTINUOUS
  0
LAYER
  5
26
100
AcDbSymbolTableRecord
100
AcDbLayerTableRecord
  2
LC-001-003-----0
 70
             0
 62
             7
  6
CONTINUOUS
  0
LAYER
  5
27
100
AcDbSymbolTableRecord
100
AcDbLayerTableRecord
  2
LC-002-002-----0
 70
             0
 62
             7
  6
CONTINUOUS
  0
LAYER
  5
28
100
AcDbSymbolTableRecord
100
AcDbLayerTableRecord
  2
LC-004-002-----0
 70
             0
 62
             7
  6
CONTINUOUS
  0
LAYER
  5
29
100
AcDbSymbolTableRecord
100
AcDbLayerTableRecord
  2
LC-004-003-----0
 70
             0
 62
             7
  6
CONTINUOUS
  0
LAYER
  5
2A
100
AcDbSymbolTableRecord
100
AcDbLayerTableRecord
  2
LC-005-002-RND-0
 70
             0
 62
             7
  6
CONTINUOUS
  0
LAYER
  5
2B
100
AcDbSymbolTableRecord
100
AcDbLayerTableRecord
  2
LC-008-100-D03-0
 70
             0
 62
             7
  6
CONTINUOUS
  0
LAYER
  5
2C
100
AcDbSymbolTableRecord
100
AcDbLayerTableRecord
  2
LC-009-005-----0
 70
             0
 62
             7
  6
CONTINUOUS
  0
ENDTAB
  0
TABLE
  2
STYLE
  5
3
100
AcDbSymbolTable
 70
             2
  0
STYLE
  5
17
100
AcDbSymbolTableRecord
100
AcDbTextStyleTableRecord
  2
STANDARD
 70
             0
 40
0.0
 41
1.0
 50
0.0
 71
             0
 42
0.0
  3
txt
  4

  0
STYLE
  5
CE
100
AcDbSymbolTableRecord
100
AcDbTextStyleTableRecord
  2
CONVERTER_1
 70
             0
 40
0.0
 41
0.9
 50
0.0
 71
             0
 42
0.0
  3
txt.shx
  4

  0
ENDTAB
  0
TABLE
  2
VIEW
  5
5
100
AcDbSymbolTable
 70
             0
  0
ENDTAB
  0
TABLE
  2
UCS
  5
6
100
AcDbSymbolTable
 70
             0
  0
ENDTAB
  0
TABLE
  2
APPID
  5
8
100
AcDbSymbolTable
 70
             1
  0
APPID
  5
16
100
AcDbSymbolTableRecord
100
AcDbRegAppTableRecord
  2
ACAD
 70
             0
  0
ENDTAB
  0
TABLE
  2
DIMSTYLE
  5
9
100
AcDbSymbolTable
 70
             5
  0
DIMSTYLE
105
18
100
AcDbSymbolTableRecord
100
AcDbDimStyleTableRecord
  2
STANDARD
 70
             0
  3

  4

  5

  6

  7

 40
1.0
 41
0.18
 42
0.0625
 43
0.38
 44
0.18
 45
0.0
 46
0.0
 47
0.0
 48
0.0
 71
             0
 72
             0
 73
             1
 74
             1
 75
             0
 76
             0
 77
             0
 78
             0
140
0.18
141
0.09
142
0.0
143
25.4
144
1.0
145
0.0
146
1.0
147
0.09
170
             0
171
             2
172
             0
173
             0
174
             0
175
             0
176
             0
177
             0
178
             0
270
             2
271
             4
272
             4
273
             2
274
             2
275
             0
280
             0
281
             0
282
             0
283
             1
284
             0
285
             0
286
             0
287
             3
288
             0
340
17
  0
DIMSTYLE
105
D1
100
AcDbSymbolTableRecord
100
AcDbDimStyleTableRecord
  2
ME10_DIM_0
 70
             0
  3
DN<>
  4

  5

  6

  7

 40
1.0
 41
12.0
 42
0.0
 43
0.38
 44
2.0
 45
0.0
 46
0.0
 47
0.0
 48
0.0
 71
             0
 72
             0
 73
             0
 74
             0
 75
             0
 76
             0
 77
             1
 78
             8
140
12.0
141
0.09
142
0.0
143
25.4
144
1.0
145
0.0
146
1.0
147
0.625
170
             0
171
             2
172
             1
173
             1
174
             0
175
             0
176
             4
177
             4
178
             1
270
             2
271
             2
272
             4
273
             2
274
             2
275
             0
280
             0
281
             0
282
             0
283
             1
284
             0
285
             0
286
             0
287
             3
288
             0
340
CE
  0
DIMSTYLE
105
DC
100
AcDbSymbolTableRecord
100
AcDbDimStyleTableRecord
  2
ME10_DIM_1
 70
             0
  3

  4

  5

  6

  7

 40
1.0
 41
12.0
 42
0.0
 43
0.38
 44
2.0
 45
0.0
 46
0.0
 47
0.0
 48
0.0
 71
             0
 72
             0
 73
             0
 74
             0
 75
             0
 76
             0
 77
             1
 78
             8
140
12.0
141
0.09
142
0.0
143
25.4
144
1.0
145
0.0
146
1.0
147
0.625
170
             0
171
             2
172
             1
173
             1
174
             0
175
             0
176
             4
177
             4
178
             1
270
             2
271
             2
272
             4
273
             2
274
             2
275
             0
280
             0
281
             0
282
             0
283
             1
284
             0
285
             0
286
             0
287
             3
288
             0
340
CE
  0
DIMSTYLE
105
E7
100
AcDbSymbolTableRecord
100
AcDbDimStyleTableRecord
  2
ME10_DIM_2
 70
             0
  3

  4

  5

  6

  7

 40
1.0
 41
12.0
 42
0.0
 43
0.38
 44
2.0
 45
0.0
 46
0.0
 47
0.0
 48
0.0
 71
             0
 72
             0
 73
             0
 74
             0
 75
             0
 76
             0
 77
             1
 78
             8
140
12.0
141
0.09
142
0.0
143
25.4
144
1.0
145
0.0
146
1.0
147
0.625
170
             0
171
             2
172
             1
173
             1
174
             0
175
             0
176
             4
177
             4
178
             1
270
             2
271
             2
272
             4
273
             2
274
             2
275
             0
280
             0
281
             0
282
             0
283
             1
284
             0
285
             0
286
             0
287
             3
288
             0
340
CE
  0
DIMSTYLE
105
F2
100
AcDbSymbolTableRecord
100
AcDbDimStyleTableRecord
  2
ME10_DIM_3
 70
             0
  3

  4

  5

  6

  7

 40
1.0
 41
12.0
 42
0.0
 43
0.38
 44
2.0
 45
0.0
 46
0.0
 47
0.0
 48
0.0
 71
             0
 72
             0
 73
             0
 74
             0
 75
             0
 76
             0
 77
             1
 78
             8
140
12.0
141
0.09
142
0.0
143
25.4
144
1.0
145
0.0
146
1.0
147
0.625
170
             0
171
             2
172
             1
173
             1
174
             0
175
             0
176
             4
177
             4
178
             1
270
             2
271
             2
272
             4
273
             2
274
             2
275
             0
280
             0
281
             0
282
             0
283
             1
284
             0
285
             0
286
             0
287
             3
288
             0
340
CE
  0
ENDTAB
  0
TABLE
  2
BLOCK_RECORD
  5
1
100
AcDbSymbolTable
 70
             8
  0
BLOCK_RECORD
  5
A
100
AcDbSymbolTableRecord
100
AcDbBlockTableRecord
  2
*MODEL_SPACE
  0
BLOCK_RECORD
  5
B
100
AcDbSymbolTableRecord
100
AcDbBlockTableRecord
  2
*PAPER_SPACE
  0
BLOCK_RECORD
  5
2D
100
AcDbSymbolTableRecord
100
AcDbBlockTableRecord
  2
HL_710_0_FROSCHKLAPPE_0__1
  0
BLOCK_RECORD
  5
2F
100
AcDbSymbolTableRecord
100
AcDbBlockTableRecord
  2
_1
  0
BLOCK_RECORD
  5
32
100
AcDbSymbolTableRecord
100
AcDbBlockTableRecord
  2
HL_710_R_CKSTAUVERSCHLS__2
  0
BLOCK_RECORD
  5
34
100
AcDbSymbolTableRecord
100
AcDbBlockTableRecord
  2
HL_710_R_CKSTAUVERSCHLS__3
  0
BLOCK_RECORD
  5
C7
100
AcDbSymbolTableRecord
100
AcDbBlockTableRecord
  2
*D4
  0
BLOCK_RECORD
  5
D3
100
AcDbSymbolTableRecord
100
AcDbBlockTableRecord
  2
*D5
  0
BLOCK_RECORD
  5
DE
100
AcDbSymbolTableRecord
100
AcDbBlockTableRecord
  2
*D6
  0
BLOCK_RECORD
  5
E9
100
AcDbSymbolTableRecord
100
AcDbBlockTableRecord
  2
*D7
  0
ENDTAB
  0
ENDSEC
  0
SECTION
  2
BLOCKS
  0
BLOCK
  5
D
100
AcDbEntity
  8
0
100
AcDbBlockBegin
  2
*MODEL_SPACE
 70
             0
 10
0.0
 20
0.0
 30
0.0
  3
*MODEL_SPACE
  1

  0
ENDBLK
  5
E
100
AcDbEntity
  8
0
100
AcDbBlockEnd
  0
BLOCK
  5
F
100
AcDbEntity
 67
             1
  8
0
100
AcDbBlockBegin
  2
*PAPER_SPACE
 70
             0
 10
0.0
 20
0.0
 30
0.0
  3
*PAPER_SPACE
  1

  0
ENDBLK
  5
10
100
AcDbEntity
 67
             1
  8
0
100
AcDbBlockEnd
  0
BLOCK
  5
2E
100
AcDbEntity
  8
0
100
AcDbBlockBegin
  2
HL_710_0_FROSCHKLAPPE_0__1
 70
             0
 10
-6.0
 20
-76.50355259237992
 30
0.0
  3
HL_710_0_FROSCHKLAPPE_0__1
  1

  0
ARC
  5
BC
100
AcDbEntity
  8
LC-002-002-----0
  6
CONTINUOUS
 62
             7
100
AcDbCircle
 10
98.15090355548517
 20
137.0238553199662
 40
2.0
100
AcDbArc
 50
180.0
 51
-100.33994900003532
  0
ARC
  5
BB
100
AcDbEntity
  8
LC-002-002-----0
  6
CONTINUOUS
 62
             7
100
AcDbCircle
 10
105.6409035554868
 20
97.41636367499811
 40
43.72999997229523
100
AcDbArc
 50
79.66010899999164
 51
100.33989100000836
  0
ARC
  5
BA
100
AcDbEntity
  8
LC-002-002-----0
  6
CONTINUOUS
 62
             7
100
AcDbCircle
 10
113.13090355548469
 20
138.468681299888
 40
2.0
100
AcDbArc
 50
0.0
 51
79.66012800003405
  0
ARC
  5
B9
100
AcDbEntity
  8
LC-002-002-----0
  6
CONTINUOUS
 62
             7
100
AcDbCircle
 10
105.6409035554868
 20
178.0761652464127
 40
43.72999239886968
100
AcDbArc
 50
-100.33994718957653
 51
-79.66010718956891
  0
ARC
  5
B8
100
AcDbEntity
  8
LC-002-002-----0
  6
CONTINUOUS
 62
             7
100
AcDbCircle
 10
113.13090355548469
 20
137.0238553199662
 40
2.0000000000005
100
AcDbArc
 50
-79.65995700000732
 51
0.0
  0
ARC
  5
B7
100
AcDbEntity
  8
LC-002-002-----0
  6
CONTINUOUS
 62
             7
100
AcDbCircle
 10
113.13090355548469
 20
138.632260299888
 40
2.0
100
AcDbArc
 50
0.0
 51
73.27321800015105
  0
ARC
  5
B6
100
AcDbEntity
  8
LC-002-002-----0
  6
CONTINUOUS
 62
             7
100
AcDbCircle
 10
113.13090355548469
 20
136.86027531996581
 40
2.00000000000096
100
AcDbArc
 50
-73.2730469998352
 51
0.0
  0
ARC
  5
B5
100
AcDbEntity
  8
LC-002-002-----0
  6
CONTINUOUS
 62
             7
100
AcDbCircle
 10
81.65837055548457
 20
97.40370171743777
 40
43.74303960783369
100
AcDbArc
 50
79.66016208407493
 51
100.33992508408151
  0
ARC
  5
B4
100
AcDbEntity
  8
LC-002-002-----0
  6
CONTINUOUS
 62
             7
100
AcDbCircle
 10
89.15068555548777
 20
138.4688522998876
 40
2.00000000000042
100
AcDbArc
 50
0.00003700012439
 51
79.6601650001105
  0
ARC
  5
B3
100
AcDbEntity
  8
LC-002-002-----0
  6
CONTINUOUS
 62
             7
100
AcDbCircle
 10
89.15068655548447
 20
137.02402531997271
 40
1.99999999999997
100
AcDbArc
 50
-79.65999500005536
 51
0.00003699991839
  0
ARC
  5
B2
100
AcDbEntity
  8
LC-002-002-----0
  6
CONTINUOUS
 62
             7
100
AcDbCircle
 10
81.65832155548617
 20
178.0891442303174
 40
43.74301730391266
100
AcDbArc
 50
-100.33986011731032
 51
-79.65992711731117
  0
ARC
  5
B1
100
AcDbEntity
  8
LC-002-002-----0
  6
CONTINUOUS
 62
             7
100
AcDbCircle
 10
74.16600555548638
 20
138.46884329989189
 40
1.99999999999832
100
AcDbArc
 50
100.34000299989337
 51
-179.99996299987561
  0
ARC
  5
B0
100
AcDbEntity
  8
LC-002-002-----0
  6
CONTINUOUS
 62
             7
100
AcDbCircle
 10
93.64856355548608
 20
73.80442755566403
 40
69.69201988818836
100
AcDbArc
 50
73.2732175347343
 51
106.7268005347386
  0
ARC
  5
AF
100
AcDbEntity
  8
LC-002-002-----0
  6
CONTINUOUS
 62
             7
100
AcDbCircle
 10
74.16622355548742
 20
138.632260299888
 40
2.00000000000281
100
AcDbArc
 50
106.72680100014976
 51
180.0
  0
ARC
  5
AE
100
AcDbEntity
  8
LC-002-002-----0
  6
CONTINUOUS
 62
             7
100
AcDbCircle
 10
74.16600655548672
 20
137.0240163199698
 40
2.00000000000042
100
AcDbArc
 50
-179.99996299987478
 51
-100.33991199995982
  0
ARC
  5
AD
100
AcDbEntity
  8
LC-002-002-----0
  6
CONTINUOUS
 62
             7
100
AcDbCircle
 10
93.64856355548608
 20
201.69660480205411
 40
69.70015619088143
100
AcDbArc
 50
-106.64675155019384
 51
-73.27506491510096
  0
ARC
  5
AC
100
AcDbEntity
  8
LC-002-002-----0
  6
CONTINUOUS
 62
             7
100
AcDbCircle
 10
74.16622355548742
 20
136.86027531996581
 40
2.0
100
AcDbArc
 50
180.0
 51
-106.72685999991813
  0
ARC
  5
AB
100
AcDbEntity
  8
LC-002-002-----0
  6
CONTINUOUS
 62
             7
100
AcDbCircle
 10
98.15090355548517
 20
138.468681299888
 40
1.99999999999868
100
AcDbArc
 50
100.3398910000394
 51
180.0
  0
ARC
  5
AA
100
AcDbEntity
  8
LC-002-002-----0
  6
CONTINUOUS
 62
             7
100
AcDbCircle
 10
95.15090355548517
 20
139.102029299891
 40
1.00000000000352
100
AcDbArc
 50
0.00015200005373
 51
90.0
  0
ARC
  5
A9
100
AcDbEntity
  8
LC-002-002-----0
  6
CONTINUOUS
 62
             7
100
AcDbCircle
 10
92.15090355548517
 20
139.102029299891
 40
1.0
100
AcDbArc
 50
90.0
 51
180.0
  0
ARC
  5
A8
100
AcDbEntity
  8
LC-002-002-----0
  6
CONTINUOUS
 62
             7
100
AcDbCircle
 10
92.15090355548517
 20
136.39050731997051
 40
1.0
100
AcDbArc
 50
180.0
 51
-90.00005799990878
  0
ARC
  5
A7
100
AcDbEntity
  8
LC-002-002-----0
  6
CONTINUOUS
 62
             7
100
AcDbCircle
 10
95.15090355548517
 20
136.39050731997051
 40
1.00000000000051
100
AcDbArc
 50
-90.00005799990878
 51
0.0
  0
ARC
  5
A6
100
AcDbEntity
  8
LC-008-100-D03-0
  6
CONTINUOUS
 62
             7
100
AcDbCircle
 10
8.47050100000001
 20
59.84921340762011
 40
4.97050099999971
100
AcDbArc
 50
92.99999500000136
 51
180.0
  0
ARC
  5
A5
100
AcDbEntity
  8
LC-008-100-D03-0
  6
CONTINUOUS
 62
             7
100
AcDbCircle
 10
0.49705
 20
58.79133840762009
 40
0.49704999999951
100
AcDbArc
 50
94.00763499999547
 51
180.0
  0
ARC
  5
A4
100
AcDbEntity
  8
LC-008-100-D03-0
  6
CONTINUOUS
 62
             7
100
AcDbCircle
 10
0.49705
 20
-58.79844359237993
 40
0.49705
100
AcDbArc
 50
180.0
 51
-103.68922100004481
  0
ARC
  5
A3
100
AcDbEntity
  8
LC-008-100-D03-0
  6
CONTINUOUS
 62
             7
100
AcDbCircle
 10
8.47050100000001
 20
-59.8563175923799
 40
4.97050100000001
100
AcDbArc
 50
180.0
 51
-92.99999500000133
  0
ARC
  5
A2
100
AcDbEntity
  8
LC-004-002-----0
  6
CONTINUOUS
 62
             7
100
AcDbCircle
 10
43.26326599999999
 20
-60.94645059237993
 40
1.50000000000001
100
AcDbArc
 50
-179.99999399998725
 51
0.00000600001493
  0
ARC
  5
A1
100
AcDbEntity
  8
LC-004-002-----0
  6
CONTINUOUS
 62
             7
100
AcDbCircle
 10
43.26326
 20
60.94644540762008
 40
1.5
100
AcDbArc
 50
0.0
 51
180.0
  0
ARC
  5
A0
100
AcDbEntity
  8
LC-005-002-RND-0
  6
CONTINUOUS
 62
             7
100
AcDbCircle
 10
103.15065300000001
 20
103.9921724076201
 40
0.5
100
AcDbArc
 50
-90.0
 51
0.0
  0
ARC
  5
9F
100
AcDbEntity
  8
LC-005-002-RND-0
  6
CONTINUOUS
 62
             7
100
AcDbCircle
 10
84.15065299999998
 20
103.9921724076201
 40
0.5
100
AcDbArc
 50
180.0
 51
-90.0
  0
ARC
  5
9E
100
AcDbEntity
  8
LC-005-002-RND-0
  6
CONTINUOUS
 62
             7
100
AcDbCircle
 10
103.15065300000001
 20
110.9921724076201
 40
0.5
100
AcDbArc
 50
0.0
 51
90.0
  0
ARC
  5
9D
100
AcDbEntity
  8
LC-005-002-RND-0
  6
CONTINUOUS
 62
             7
100
AcDbCircle
 10
84.15065299999998
 20
110.9921724076201
 40
0.5
100
AcDbArc
 50
90.0
 51
180.0
  0
ARC
  5
9C
100
AcDbEntity
  8
LC-005-002-RND-0
  6
CONTINUOUS
 62
             7
100
AcDbCircle
 10
103.15065300000001
 20
102.9921724076201
 40
0.5
100
AcDbArc
 50
0.0
 51
90.0
  0
ARC
  5
9B
100
AcDbEntity
  8
LC-005-002-RND-0
  6
CONTINUOUS
 62
             7
100
AcDbCircle
 10
84.15065299999998
 20
102.9921724076201
 40
0.5
100
AcDbArc
 50
90.0
 51
180.0
  0
ARC
  5
9A
100
AcDbEntity
  8
LC-005-002-RND-0
  6
CONTINUOUS
 62
             7
100
AcDbCircle
 10
84.15065299999998
 20
96.53937240762097
 40
0.5
100
AcDbArc
 50
180.0
 51
-90.0
  0
ARC
  5
99
100
AcDbEntity
  8
LC-005-002-RND-0
  6
CONTINUOUS
 62
             7
100
AcDbCircle
 10
103.15065300000001
 20
96.53937240762097
 40
0.5
100
AcDbArc
 50
-90.0
 51
0.0
  0
ARC
  5
98
100
AcDbEntity
  8
LC-005-002-RND-0
  6
CONTINUOUS
 62
             7
100
AcDbCircle
 10
90.72986099999997
 20
-76.00355259237992
 40
0.5
100
AcDbArc
 50
-90.0
 51
0.0
  0
ARC
  5
97
100
AcDbEntity
  8
LC-005-002-RND-0
  6
CONTINUOUS
 62
             7
100
AcDbCircle
 10
91.72986099999997
 20
-72.00330859237991
 40
0.5
100
AcDbArc
 50
90.0
 51
180.0
  0
ARC
  5
96
100
AcDbEntity
  8
LC-005-002-RND-0
  6
CONTINUOUS
 62
             7
100
AcDbCircle
 10
58.00037100000003
 20
115.4921724076201
 40
3.0
100
AcDbArc
 50
90.0
 51
180.0
  0
ARC
  5
95
100
AcDbEntity
  8
LC-005-002-RND-0
  6
CONTINUOUS
 62
             7
100
AcDbCircle
 10
55.50037100000003
 20
103.9921724076201
 40
0.5
100
AcDbArc
 50
180.0
 51
-90.0
  0
ARC
  5
94
100
AcDbEntity
  8
LC-005-002-RND-0
  6
CONTINUOUS
 62
             7
100
AcDbCircle
 10
65.712558
 20
-71.50355259237992
 40
5.00000000000006
100
AcDbArc
 50
-179.00000000000477
 51
-90.0
  0
ARC
  5
93
100
AcDbEntity
  8
LC-001-002-----0
  6
CONTINUOUS
 62
             7
100
AcDbCircle
 10
-374.99812700000001
 20
44.59662691226261
 40
499.99999999999989
100
AcDbArc
 50
-13.34956299999998
 51
0.0
  0
ARC
  5
92
100
AcDbEntity
  8
LC-001-002-----0
  6
DASHED
 62
             7
100
AcDbCircle
 10
205.021559
 20
14.72198491226261
 40
0.99999999999961
100
AcDbArc
 50
149.99999999998727
 51
-120.00000000001286
  0
ARC
  5
91
100
AcDbEntity
  8
LC-001-002-----0
  6
DASHED
 62
             7
100
AcDbCircle
 10
210.21771100000001
 20
11.72198491226261
 40
0.99999999999961
100
AcDbArc
 50
-120.00000000001286
 51
-30.00000000001276
  0
ARC
  5
90
100
AcDbEntity
  8
LC-001-002-----0
  6
DASHED
 62
             7
100
AcDbCircle
 10
97.44375600000001
 20
-55.49789008773738
 40
140.0000000000002
100
AcDbArc
 50
36.58023199999997
 51
64.36101600000015
  0
ARC
  5
8F
100
AcDbEntity
  8
LC-001-002-----0
  6
DASHED
 62
             7
100
AcDbCircle
 10
97.44375600000001
 20
-55.49789008773738
 40
138.99999999999963
100
AcDbArc
 50
36.58023199999997
 51
78.56478299999996
  0
ARC
  5
8E
100
AcDbEntity
  8
LC-001-002-----0
  6
DASHED
 62
             7
100
AcDbCircle
 10
206.65490199999999
 20
25.55101891226262
 40
2.99999999999973
100
AcDbArc
 50
-30.00000000000299
 51
36.58023199999536
  0
ARC
  5
8D
100
AcDbEntity
  8
LC-001-002-----0
  6
DASHED
 62
             7
100
AcDbCircle
 10
206.65490199999999
 20
25.55101891226262
 40
4.00000000000023
100
AcDbArc
 50
-29.9999999999981
 51
36.58023200000498
  0
ARC
  5
8C
100
AcDbEntity
  8
LC-001-002-----0
  6
DASHED
 62
             7
100
AcDbCircle
 10
154.88820200000001
 20
72.42452691226261
 40
1.9999999999999
100
AcDbArc
 50
1.37559799998914
 51
75.00000099999984
  0
ARC
  5
8B
100
AcDbEntity
  8
LC-001-002-----0
  6
DASHED
 62
             7
100
AcDbCircle
 10
158.88704999999999
 20
72.5205519122626
 40
1.9999999999999
100
AcDbArc
 50
-178.62440200001168
 51
-115.63898400000022
  0
ARC
  5
8A
100
AcDbEntity
  8
LC-001-002-----0
  6
DASHED
 62
             7
100
AcDbCircle
 10
154.88820200000001
 20
72.42452691226261
 40
0.99999999999995
100
AcDbArc
 50
1.37559800001765
 51
75.00000099999167
  0
ARC
  5
89
100
AcDbEntity
  8
LC-001-002-----0
  6
DASHED
 62
             7
100
AcDbCircle
 10
158.88704999999999
 20
72.5205519122626
 40
2.99999999999987
100
AcDbArc
 50
-178.62440200000191
 51
-115.6389840000048
  0
ARC
  5
88
100
AcDbEntity
  8
LC-001-002-----0
  6
DASHED
 62
             7
100
AcDbCircle
 10
132.691509
 20
80.44266391226263
 40
1.49999999999959
100
AcDbArc
 50
-14.99999900000899
 51
141.42182299997833
  0
ARC
  5
87
100
AcDbEntity
  8
LC-001-002-----0
  6
DASHED
 62
             7
100
AcDbCircle
 10
130.73711399999999
 20
82.00161891226263
 40
0.99999999999973
100
AcDbArc
 50
-104.99999900000833
 51
-38.5781769999676
  0
LINE
  5
86
100
AcDbEntity
  8
1
  6
DOT_CENTER
 62
             2
100
AcDbLine
 10
99.49544272937197
 20
143.49644740762011
 11
86.49544272937197
 21
143.49644740762011
  0
LINE
  5
85
100
AcDbEntity
  8
LC-002-002-----0
  6
CONTINUOUS
 62
             7
100
AcDbLine
 10
115.13090355548469
 20
138.632260299888
 11
115.13090355548469
 21
136.86027531996581
  0
LINE
  5
84
100
AcDbEntity
  8
LC-002-002-----0
  6
CONTINUOUS
 62
             7
100
AcDbLine
 10
72.16622355548742
 20
138.632260299888
 11
72.16622355548742
 21
136.86027531996581
  0
LINE
  5
83
100
AcDbEntity
  8
LC-002-002-----0
  6
CONTINUOUS
 62
             7
100
AcDbLine
 10
95.15090355548517
 20
140.102029299891
 11
92.15090355548517
 21
140.102029299891
  0
LINE
  5
82
100
AcDbEntity
  8
LC-002-002-----0
  6
CONTINUOUS
 62
             7
100
AcDbLine
 10
91.15090355548517
 20
139.102029299891
 11
91.15090355548517
 21
136.39050731997051
  0
LINE
  5
81
100
AcDbEntity
  8
LC-002-002-----0
  6
CONTINUOUS
 62
             7
100
AcDbLine
 10
96.15090355548517
 20
136.39050731997051
 11
96.15090355548517
 21
139.102029299891
  0
LINE
  5
80
100
AcDbEntity
  8
LC-002-002-----0
  6
CONTINUOUS
 62
             7
100
AcDbLine
 10
92.15090355548517
 20
135.39050731997051
 11
95.15090355548517
 21
135.39050731997051
  0
LINE
  5
7F
100
AcDbEntity
  8
1
  6
DOT_CENTER
 62
             2
100
AcDbLine
 10
-6.0
 20
54.9964474076201
 11
-3.0
 21
54.9964474076201
  0
LINE
  5
7E
100
AcDbEntity
  8
1
  6
DOT_CENTER
 62
             2
100
AcDbLine
 10
-6.0
 20
-55.0035525923799
 11
-3.0
 21
-55.0035525923799
  0
LINE
  5
7D
100
AcDbEntity
  8
1
  6
PHANTOM
 62
             2
100
AcDbLine
 10
93.65079579288033
 20
70.83426548738589
 11
93.65081874429922
 21
144.25321250882399
  0
LINE
  5
7C
100
AcDbEntity
  8
1
  6
PHANTOM
 62
             2
100
AcDbLine
 10
66.24831860715949
 20
-0.00000219365145
 11
-2.66894513257961
 21
-0.00000027928306
  0
LINE
  5
7B
100
AcDbEntity
  8
1
  6
CONTINUOUS
 62
             7
100
AcDbLine
 10
23.76326
 20
-59.45355159237991
 11
23.76326
 21
59.44644640762007
  0
LINE
  5
7A
100
AcDbEntity
  8
LC-004-002-----0
  6
CONTINUOUS
 62
             7
100
AcDbLine
 10
44.76326599999999
 20
-59.44644959237986
 11
44.76326599999999
 21
59.44644540762008
  0
LINE
  5
79
100
AcDbEntity
  8
LC-004-002-----0
  6
CONTINUOUS
 62
             7
100
AcDbLine
 10
41.76326599999999
 20
-59.44644959237986
 11
41.76326599999999
 21
59.44644540762008
  0
LINE
  5
78
100
AcDbEntity
  8
LC-004-002-----0
  6
CONTINUOUS
 62
             7
100
AcDbLine
 10
20.29915800000003
 20
65.44644740762007
 11
20.29915800000003
 21
-65.4427725923799
  0
LINE
  5
77
100
AcDbEntity
  8
LC-004-002-----0
  6
CONTINUOUS
 62
             7
100
AcDbLine
 10
3.5
 20
59.49999540762011
 11
3.5
 21
-59.8563175923799
  0
LINE
  5
76
100
AcDbEntity
  8
LC-009-005-----0
  6
CONTINUOUS
 62
             2
100
AcDbLine
 10
20.09345200000001
 20
-65.4427725923799
 11
20.59488400000004
 21
-64.94133959237993
  0
LINE
  5
75
100
AcDbEntity
  8
LC-008-100-D03-0
  6
CONTINUOUS
 62
             7
100
AcDbLine
 10
0.0
 20
56.19410240762008
 11
0.0
 21
-58.79844359237993
  0
LINE
  5
74
100
AcDbEntity
  8
LC-008-100-D03-0
  6
CONTINUOUS
 62
             7
100
AcDbLine
 10
58.42549099999997
 20
59.44644440762008
 11
44.76326
 21
59.44644540762008
  0
LINE
  5
73
100
AcDbEntity
  8
LC-008-100-D03-0
  6
CONTINUOUS
 62
             7
100
AcDbLine
 10
60.72746999999998
 20
-59.44644959237986
 11
44.76326599999999
 21
-59.44644959237986
  0
LINE
  5
72
100
AcDbEntity
  8
LC-008-100-D03-0
  6
CONTINUOUS
 62
             7
100
AcDbLine
 10
3.5
 20
59.84921340762011
 11
3.5
 21
59.49999540762011
  0
LINE
  5
71
100
AcDbEntity
  8
LC-008-100-D03-0
  6
CONTINUOUS
 62
             7
100
AcDbLine
 10
0.0
 20
58.79133840762009
 11
0.0
 21
56.19410240762008
  0
LINE
  5
70
100
AcDbEntity
  8
LC-008-100-D03-0
  6
CONTINUOUS
 62
             7
100
AcDbLine
 10
20.29915800000003
 20
65.44644740762007
 11
23.76326
 21
59.44644640762007
  0
LINE
  5
6F
100
AcDbEntity
  8
LC-008-100-D03-0
  6
CONTINUOUS
 62
             7
100
AcDbLine
 10
20.29915800000003
 20
65.44644740762007
 11
8.20706999999999
 21
64.81272840762009
  0
LINE
  5
6E
100
AcDbEntity
  8
LC-008-100-D03-0
  6
CONTINUOUS
 62
             7
100
AcDbLine
 10
3.5
 20
-59.8563175923799
 11
3.5
 21
-59.5000045923799
  0
LINE
  5
6D
100
AcDbEntity
  8
LC-008-100-D03-0
  6
CONTINUOUS
 62
             7
100
AcDbLine
 10
20.29915800000003
 20
-65.45355259237991
 11
8.21036499999997
 21
-64.82000659237988
  0
LINE
  5
6C
100
AcDbEntity
  8
LC-008-100-D03-0
  6
CONTINUOUS
 62
             7
100
AcDbLine
 10
20.29915800000003
 20
-65.45355259237991
 11
23.76326
 21
-59.45355159237991
  0
LINE
  5
6B
100
AcDbEntity
  8
LC-004-002-----0
  6
CONTINUOUS
 62
             7
100
AcDbLine
 10
60.96263500000003
 20
-72.9190165923799
 11
21.31348700000001
 21
-63.69668259237992
  0
LINE
  5
6A
100
AcDbEntity
  8
LC-008-100-D03-0
  6
CONTINUOUS
 62
             7
100
AcDbLine
 10
41.76326599999999
 20
-59.44644959237986
 11
23.76326
 21
-59.44644959237986
  0
LINE
  5
69
100
AcDbEntity
  8
LC-004-002-----0
  6
CONTINUOUS
 62
             7
100
AcDbLine
 10
44.76326599999999
 20
-59.44645159237993
 11
44.76326599999999
 21
-60.94645059237993
  0
LINE
  5
68
100
AcDbEntity
  8
LC-004-002-----0
  6
CONTINUOUS
 62
             7
100
AcDbLine
 10
41.76326599999999
 20
-59.44645159237993
 11
41.76326599999999
 21
-60.94645159237993
  0
LINE
  5
67
100
AcDbEntity
  8
LC-004-002-----0
  6
CONTINUOUS
 62
             7
100
AcDbLine
 10
44.76326
 20
59.44644640762007
 11
44.76326
 21
60.94644540762008
  0
LINE
  5
66
100
AcDbEntity
  8
LC-004-002-----0
  6
CONTINUOUS
 62
             7
100
AcDbLine
 10
41.76326
 20
59.44644640762007
 11
41.76326
 21
60.94644540762008
  0
LINE
  5
65
100
AcDbEntity
  8
LC-008-100-D03-0
  6
CONTINUOUS
 62
             7
100
AcDbLine
 10
41.76326
 20
59.44644540762008
 11
23.76326
 21
59.44644640762007
  0
LINE
  5
64
100
AcDbEntity
  8
LC-004-002-----0
  6
CONTINUOUS
 62
             7
100
AcDbLine
 10
0.462311
 20
59.28717240762011
 11
3.5
 21
59.49999540762011
  0
LINE
  5
63
100
AcDbEntity
  8
LC-004-002-----0
  6
CONTINUOUS
 62
             7
100
AcDbLine
 10
0.37942000000004
 20
-59.28137459237993
 11
3.50000599999998
 21
-59.5000045923799
  0
LINE
  5
62
100
AcDbEntity
  8
LC-004-002-----0
  6
CONTINUOUS
 62
             7
100
AcDbLine
 10
83.65065299999998
 20
103.9921724076201
 11
83.65065299999998
 21
110.9921724076201
  0
LINE
  5
61
100
AcDbEntity
  8
LC-004-002-----0
  6
CONTINUOUS
 62
             7
100
AcDbLine
 10
103.65065300000001
 20
103.9921724076201
 11
103.65065300000001
 21
110.9921724076201
  0
LINE
  5
60
100
AcDbEntity
  8
LC-004-002-----0
  6
CONTINUOUS
 62
             7
100
AcDbLine
 10
84.15065299999998
 20
111.4921724076201
 11
103.15065300000001
 21
111.4921724076201
  0
LINE
  5
5F
100
AcDbEntity
  8
LC-004-002-----0
  6
CONTINUOUS
 62
             7
100
AcDbLine
 10
91.22986099999997
 20
5.86368640762012
 11
91.22986099999997
 21
-76.00355259237992
  0
LINE
  5
5E
100
AcDbEntity
  8
LC-004-002-----0
  6
CONTINUOUS
 62
             7
100
AcDbLine
 10
65.712558
 20
-76.50355259237992
 11
90.72986099999997
 21
-76.50355259237992
  0
LINE
  5
5D
100
AcDbEntity
  8
LC-004-002-----0
  6
CONTINUOUS
 62
             7
100
AcDbLine
 10
91.72986099999997
 20
-71.50330859237991
 11
111.33591969611381
 21
-71.50330859237991
  0
LINE
  5
5C
100
AcDbEntity
  8
LC-004-002-----0
  6
CONTINUOUS
 62
             7
100
AcDbLine
 10
92.14711199999999
 20
74.86383277316854
 11
95.14711199999999
 21
74.86383277316854
  0
LINE
  5
5B
100
AcDbEntity
  8
LC-004-002-----0
  6
CONTINUOUS
 62
             7
100
AcDbLine
 10
95.14711199999999
 20
96.03937240762097
 11
95.14711199999999
 21
74.86383277316854
  0
LINE
  5
5A
100
AcDbEntity
  8
LC-004-002-----0
  6
CONTINUOUS
 62
             7
100
AcDbLine
 10
55.00037100000003
 20
115.4921724076201
 11
55.00037100000003
 21
103.9921724076201
  0
LINE
  5
59
100
AcDbEntity
  8
LC-004-002-----0
  6
CONTINUOUS
 62
             7
100
AcDbLine
 10
103.15065300000001
 20
118.4921724076201
 11
125.001873
 21
118.4921724076201
  0
LINE
  5
58
100
AcDbEntity
  8
LC-004-002-----0
  6
CONTINUOUS
 62
             7
100
AcDbLine
 10
58.00037100000003
 20
118.4921724076201
 11
84.15096899999998
 21
118.4921724076201
  0
LINE
  5
57
100
AcDbEntity
  8
LC-004-002-----0
  6
CONTINUOUS
 62
             7
100
AcDbLine
 10
84.15096399999999
 20
111.4921784076201
 11
84.15097722610216
 21
132.6465676771621
  0
LINE
  5
56
100
AcDbEntity
  8
LC-004-002-----0
  6
CONTINUOUS
 62
             7
100
AcDbLine
 10
84.15097700000001
 20
111.4921784076201
 11
103.15065300000001
 21
111.49216540762011
  0
LINE
  5
55
100
AcDbEntity
  8
LC-004-002-----0
  6
CONTINUOUS
 62
             7
100
AcDbLine
 10
103.15065300000001
 20
111.49216540762011
 11
103.15065300000001
 21
132.6471872142024
  0
LINE
  5
54
100
AcDbEntity
  8
LC-004-002-----0
  6
CONTINUOUS
 62
             7
100
AcDbLine
 10
55.50037100000003
 20
103.4921724076201
 11
125.001873
 21
103.4921724076201
  0
LINE
  5
53
100
AcDbEntity
  8
LC-004-002-----0
  6
CONTINUOUS
 62
             7
100
AcDbLine
 10
103.65065300000001
 20
96.53937240762097
 11
103.65065300000001
 21
102.9921724076201
  0
LINE
  5
52
100
AcDbEntity
  8
LC-004-002-----0
  6
CONTINUOUS
 62
             7
100
AcDbLine
 10
83.65065299999998
 20
102.9921724076201
 11
83.65065299999998
 21
96.53937240762097
  0
LINE
  5
51
100
AcDbEntity
  8
LC-004-002-----0
  6
CONTINUOUS
 62
             7
100
AcDbLine
 10
84.15065299999998
 20
96.03937240762097
 11
103.15065300000001
 21
96.03937240762097
  0
LINE
  5
50
100
AcDbEntity
  8
LC-004-002-----0
  6
CONTINUOUS
 62
             7
100
AcDbLine
 10
92.14711199999999
 20
96.03937240762097
 11
92.14711199999999
 21
74.86383277316854
  0
LINE
  5
4F
100
AcDbEntity
  8
LC-004-002-----0
  6
CONTINUOUS
 62
             7
100
AcDbLine
 10
60.71275499999996
 20
-71.5908245923799
 11
57.49794200000002
 21
103.4921724076201
  0
LINE
  5
4E
100
AcDbEntity
  8
LC-001-002-----0
  6
CONTINUOUS
 62
             7
100
AcDbLine
 10
125.001873
 20
108.6464589122626
 11
125.001873
 21
118.4921724076201
  0
LINE
  5
4D
100
AcDbEntity
  8
LC-001-002-----0
  6
DASHED
 62
             7
100
AcDbLine
 10
155.40584100000001
 20
74.35637891226263
 11
134.140398
 21
80.05443591226261
  0
LINE
  5
4C
100
AcDbEntity
  8
LC-001-002-----0
  6
DASHED
 62
             7
100
AcDbLine
 10
155.14702199999999
 20
73.39045291226263
 11
125.001873
 21
81.46781991226261
  0
LINE
  5
4B
100
AcDbEntity
  8
LC-001-002-----0
  6
DASHED
 62
             7
100
AcDbLine
 10
205.021559
 20
14.72198491226261
 11
210.11900399999999
 21
23.55101891226262
  0
LINE
  5
4A
100
AcDbEntity
  8
LC-001-002-----0
  6
DASHED
 62
             7
100
AcDbLine
 10
204.15553299999999
 20
15.22198491226261
 11
209.25297800000001
 21
24.05101891226262
  0
LINE
  5
49
100
AcDbEntity
  8
LC-001-002-----0
  6
DASHED
 62
             7
100
AcDbLine
 10
210.21771100000001
 20
11.72198491226261
 11
205.021559
 21
14.72198491226261
  0
LINE
  5
48
100
AcDbEntity
  8
LC-001-002-----0
  6
DASHED
 62
             7
100
AcDbLine
 10
209.71771100000001
 20
10.85595891226261
 11
204.521559
 21
13.85595891226261
  0
LINE
  5
47
100
AcDbEntity
  8
LC-001-002-----0
  6
DASHED
 62
             7
100
AcDbLine
 10
211.08373700000001
 20
11.22198491226261
 11
212.58373700000001
 21
13.82006091226261
  0
LINE
  5
46
100
AcDbEntity
  8
LC-001-002-----0
  6
DASHED
 62
             7
100
AcDbLine
 10
210.21771100000001
 20
11.72198491226261
 11
211.71771100000001
 21
14.32006091226261
  0
LINE
  5
45
100
AcDbEntity
  8
LC-001-002-----0
  6
DASHED
 62
             7
100
AcDbLine
 10
212.58373700000001
 20
13.82006091226261
 11
206.521559
 21
17.32006091226261
  0
LINE
  5
44
100
AcDbEntity
  8
LC-001-002-----0
  6
DASHED
 62
             7
100
AcDbLine
 10
125.001873
 20
59.76667091226263
 11
205.27567500000001
 21
13.42056991226262
  0
LINE
  5
43
100
AcDbEntity
  8
LC-001-002-----0
  6
DASHED
 62
             7
100
AcDbLine
 10
130.478295
 20
81.0356929122626
 11
125.001873
 21
82.50309591226262
  0
LINE
  5
42
100
AcDbEntity
  8
LC-001-002-----0
  6
CONTINUOUS
 62
             7
100
AcDbLine
 10
125.001873
 20
44.59662691226261
 11
125.001873
 21
103.4921724076201
  0
LINE
  5
41
100
AcDbEntity
  8
LC-001-002-----0
  6
CONTINUOUS
 62
             7
100
AcDbLine
 10
125.001873
 20
103.4921724076201
 11
125.001873
 21
110.99217140762011
  0
POINT
  5
40
100
AcDbEntity
  8
LC-001-003-----0
 62
             7
100
AcDbPoint
 10
0.37942000000004
 20
-59.28137459237993
  0
POINT
  5
3F
100
AcDbEntity
  8
LC-001-003-----0
 62
             7
100
AcDbPoint
 10
0.462311
 20
59.28717240762011
  0
POINT
  5
3E
100
AcDbEntity
  8
LC-001-003-----0
 62
             7
100
AcDbPoint
 10
59.46319499999999
 20
-0.00355259237992
  0
POINT
  5
3D
100
AcDbEntity
  8
LC-001-003-----0
 62
             7
100
AcDbPoint
 10
0.0
 20
-55.45355259237991
  0
POINT
  5
3C
100
AcDbEntity
  8
LC-001-003-----0
 62
             7
100
AcDbPoint
 10
55.00037100000003
 20
115.4921724076201
  0
POINT
  5
3B
100
AcDbEntity
  8
LC-004-003-----0
 62
             7
100
AcDbPoint
 10
125.001873
 20
108.6464589122626
  0
ENDBLK
  5
BD
100
AcDbEntity
  8
0
100
AcDbBlockEnd
  0
BLOCK
  5
30
100
AcDbEntity
  8
0
100
AcDbBlockBegin
  2
_1
 70
             0
 10
-6.0
 20
-76.50355259237992
 30
0.0
  3
_1
  1

  0
INSERT
  5
31
100
AcDbEntity
  8
1
100
AcDbBlockReference
  2
HL_710_0_FROSCHKLAPPE_0__1
 10
-6.0
 20
-76.50355259237992
  0
ENDBLK
  5
BE
100
AcDbEntity
  8
0
100
AcDbBlockEnd
  0
BLOCK
  5
33
100
AcDbEntity
  8
0
100
AcDbBlockBegin
  2
HL_710_R_CKSTAUVERSCHLS__2
 70
             0
 10
1349.1646544426189
 20
-86.1660850865303
 30
0.0
  3
HL_710_R_CKSTAUVERSCHLS__2
  1

  0
XLINE
  5
C3
100
AcDbEntity
  8
1
  6
DOT_CENTER
 62
             3
 60
             1
100
AcDbXline
 10
1863.0152384426181
 20
478.3703240225185
 30
0.0
 11
0.0
 21
1.0
 31
0.0
  0
XLINE
  5
C2
100
AcDbEntity
  8
1
  6
DOT_CENTER
 62
             3
 60
             1
100
AcDbXline
 10
1863.0152384426181
 20
478.3703240225185
 30
0.0
 11
1.0
 21
0.0
 31
0.0
  0
POINT
  5
C1
100
AcDbEntity
  8
1
 62
             3
 60
             1
100
AcDbPoint
 10
1863.0152384426181
 20
478.3703240225185
  0
POINT
  5
C0
100
AcDbEntity
  8
1
 62
             3
 60
             1
100
AcDbPoint
 10
1863.0152384426181
 20
650.11523422420191
  0
POINT
  5
BF
100
AcDbEntity
  8
1
 62
             3
 60
             1
100
AcDbPoint
 10
1863.0152384426181
 20
306.62541382083128
  0
ENDBLK
  5
C4
100
AcDbEntity
  8
0
100
AcDbBlockEnd
  0
BLOCK
  5
35
100
AcDbEntity
  8
0
100
AcDbBlockBegin
  2
HL_710_R_CKSTAUVERSCHLS__3
 70
             0
 10
300.0
 20
-0.0000003534204
 30
0.0
  3
HL_710_R_CKSTAUVERSCHLS__3
  1

  0
INSERT
  5
36
100
AcDbEntity
  8
0
100
AcDbBlockReference
  2
HL_710_R_CKSTAUVERSCHLS__2
 10
1349.1646544426189
 20
-86.1660850865303
  0
ENDBLK
  5
C5
100
AcDbEntity
  8
0
100
AcDbBlockEnd
  0
BLOCK
  5
C8
100
AcDbEntity
  8
0
100
AcDbBlockBegin
  2
*D4
 70
             1
 10
0.0
 20
0.0
 30
0.0
  3
*D4
  1

  0
LINE
  5
C9
100
AcDbEntity
  8
0
  6
CONTINUOUS
 62
             4
100
AcDbLine
 10
-16.00000443629334
 20
54.996447685398
 11
-16.00000749184883
 21
-55.00355231460193
  0
LINE
  5
CA
100
AcDbEntity
  8
0
  6
CONTINUOUS
 62
             4
100
AcDbLine
 10
-6.0
 20
-55.0035525923799
 11
-18.00000749184883
 21
-55.00355225904638
  0
LINE
  5
CB
100
AcDbEntity
  8
0
  6
CONTINUOUS
 62
             4
100
AcDbLine
 10
-6.0
 20
54.9964474076201
 11
-18.00000443629334
 21
54.99644774095354
  0
SOLID
  5
CC
100
AcDbEntity
  8
0
 62
             4
100
AcDbTrace
 10
-14.42017479857791
 20
42.99644764151384
 11
-17.57983474067541
 21
42.99644772928217
 12
-16.00000443629334
 22
54.996447685398
 13
-16.00000443629334
 23
54.996447685398
  0
SOLID
  5
CD
100
AcDbEntity
  8
0
 62
             4
100
AcDbTrace
 10
-17.57983712956426
 20
-43.00355227071776
 11
-14.42017718746676
 21
-43.00355235848609
 12
-16.00000749184883
 22
-55.00355231460193
 13
-16.00000749184883
 23
-55.00355231460193
  0
MTEXT
  5
CF
100
AcDbEntity
  8
0
 62
             1
100
AcDbMText
 10
-18.00000639505777
 20
-15.51907349547885
 30
0.0
 40
12.0
 41
0.0
 71
             7
 72
             1
  1
\C1;DN\C1;110
  7
CONVERTER_1
 11
0.00000002777778
 21
1.0
 31
0.0
  0
ENDBLK
  5
D0
100
AcDbEntity
  8
0
100
AcDbBlockEnd
  0
BLOCK
  5
D4
100
AcDbEntity
  8
0
100
AcDbBlockBegin
  2
*D5
 70
             1
 10
0.0
 20
0.0
 30
0.0
  3
*D5
  1

  0
LINE
  5
D5
100
AcDbEntity
  8
0
  6
CONTINUOUS
 62
             4
100
AcDbLine
 10
-35.85687799331542
 20
-76.50354977100677
 11
-35.85687257676762
 21
118.49217501476569
  0
LINE
  5
D6
100
AcDbEntity
  8
0
  6
CONTINUOUS
 62
             4
100
AcDbLine
 10
58.00037100000007
 20
118.49217240762009
 11
-37.85687257676762
 21
118.49217507032125
  0
LINE
  5
D7
100
AcDbEntity
  8
0
  6
CONTINUOUS
 62
             4
100
AcDbLine
 10
65.71255799999997
 20
-76.50355259237988
 11
-37.85687799331542
 21
-76.50354971545117
  0
SOLID
  5
D8
100
AcDbEntity
  8
0
 62
             4
100
AcDbTrace
 10
-37.43670763103081
 20
-64.5035497271226
 11
-34.27704768893331
 21
-64.50354981489095
 12
-35.85687799331542
 22
-76.50354977100677
 13
-35.85687799331542
 23
-76.50354977100677
  0
SOLID
  5
D9
100
AcDbEntity
  8
0
 62
             4
100
AcDbTrace
 10
-34.27704293905224
 20
106.49217497088152
 11
-37.43670288114974
 21
106.49217505864986
 12
-35.85687257676762
 22
118.49217501476569
 13
-35.85687257676762
 23
118.49217501476569
  0
MTEXT
  5
DA
100
AcDbEntity
  8
0
 62
             1
100
AcDbMText
 10
-37.85687448673083
 20
49.73349805852288
 30
0.0
 40
12.0
 41
0.0
 71
             7
 72
             1
  1
195
  7
CONVERTER_1
 11
0.00000002777778
 21
1.0
 31
0.0
  0
ENDBLK
  5
DB
100
AcDbEntity
  8
0
100
AcDbBlockEnd
  0
BLOCK
  5
DF
100
AcDbEntity
  8
0
100
AcDbBlockBegin
  2
*D6
 70
             1
 10
0.0
 20
0.0
 30
0.0
  3
*D6
  1

  0
LINE
  5
E0
100
AcDbEntity
  8
0
  6
CONTINUOUS
 62
             4
100
AcDbLine
 10
125.0018739805772
 20
153.79295285553596
 11
55.00037206391063
 21
153.7929548000221
  0
LINE
  5
E1
100
AcDbEntity
  8
0
  6
CONTINUOUS
 62
             4
100
AcDbLine
 10
55.00037100000003
 20
115.49217240762009
 11
55.00037211946618
 21
155.7929548000221
  0
LINE
  5
E2
100
AcDbEntity
  8
0
  6
CONTINUOUS
 62
             4
100
AcDbLine
 10
125.00187299999999
 20
118.49217240762009
 11
125.00187403613276
 21
155.79295285553596
  0
SOLID
  5
E3
100
AcDbEntity
  8
0
 62
             4
100
AcDbTrace
 10
113.00187393669303
 20
152.21312321782065
 11
113.00187402446139
 21
155.37278315991816
 12
125.0018739805772
 22
153.79295285553596
 13
125.0018739805772
 23
153.79295285553596
  0
SOLID
  5
E4
100
AcDbEntity
  8
0
 62
             4
100
AcDbTrace
 10
67.0003721077948
 20
155.37278443773741
 11
67.00037202002645
 21
152.2131244956399
 12
55.00037206391063
 22
153.7929548000221
 13
55.00037206391063
 23
153.7929548000221
  0
MTEXT
  5
E5
100
AcDbEntity
  8
0
 62
             1
100
AcDbMText
 10
82.32053511671049
 20
155.7929540411287
 30
0.0
 40
12.0
 41
0.0
 71
             7
 72
             1
  1
70
  7
CONVERTER_1
 11
0.99999999999706
 21
0.00000242406841
 31
0.0
  0
ENDBLK
  5
E6
100
AcDbEntity
  8
0
100
AcDbBlockEnd
  0
BLOCK
  5
EA
100
AcDbEntity
  8
0
100
AcDbBlockBegin
  2
*D7
 70
             1
 10
0.0
 20
0.0
 30
0.0
  3
*D7
  1

  0
LINE
  5
EB
100
AcDbEntity
  8
0
  6
CONTINUOUS
 62
             4
100
AcDbLine
 10
125.00187454469364
 20
174.10114531314696
 11
0.00000327519567
 21
174.10114878542109
  0
LINE
  5
EC
100
AcDbEntity
  8
0
  6
CONTINUOUS
 62
             4
100
AcDbLine
 10
0.0
 20
56.19410240762011
 11
0.00000333075123
 21
176.10114878542109
  0
LINE
  5
ED
100
AcDbEntity
  8
0
  6
CONTINUOUS
 62
             4
100
AcDbLine
 10
125.00187299999999
 20
118.49217240762009
 11
125.00187460024921
 21
176.10114531314696
  0
SOLID
  5
EE
100
AcDbEntity
  8
0
 62
             4
100
AcDbTrace
 10
113.00187450080946
 20
172.52131567543165
 11
113.00187458857782
 21
175.68097561752916
 12
125.00187454469364
 22
174.10114531314696
 13
125.00187454469364
 23
174.10114531314696
  0
SOLID
  5
EF
100
AcDbEntity
  8
0
 62
             4
100
AcDbTrace
 10
12.00000331907984
 20
175.68097842313639
 11
12.00000323131148
 21
172.52131848103889
 12
0.00000327519567
 22
174.10114878542109
 13
0.00000327519567
 23
174.10114878542109
  0
MTEXT
  5
F0
100
AcDbEntity
  8
0
 62
             1
100
AcDbMText
 10
51.64294653838392
 20
176.10114735089491
 30
0.0
 40
12.0
 41
0.0
 71
             7
 72
             1
  1
125
  7
CONVERTER_1
 11
0.99999999999706
 21
0.00000242406841
 31
0.0
  0
ENDBLK
  5
F1
100
AcDbEntity
  8
0
100
AcDbBlockEnd
  0
ENDSEC
  0
SECTION
  2
ENTITIES
  0
DIMENSION
  5
F3
100
AcDbEntity
  8
1
100
AcDbDimension
  2
*D7
 10
125.00187454469364
 20
174.10114531314696
 11
64.24294670505059
 21
182.10114700089491
 31
0.0
 53
0.00013888888889
  1
<>
  3
ME10_DIM_3
100
AcDbAlignedDimension
 13
0.0
 23
56.19410240762008
 14
125.001873
 24
118.4921724076201
 50
-0.0000015915494
100
AcDbRotatedDimension
  0
DIMENSION
  5
E8
100
AcDbEntity
  8
1
100
AcDbDimension
  2
*D6
 10
125.0018739805772
 20
153.79295285553596
 11
91.32053528337714
 21
161.7929537911287
 31
0.0
 53
0.00013888888889
  1
<>
  3
ME10_DIM_2
100
AcDbAlignedDimension
 13
55.00037100000003
 23
115.4921724076201
 14
125.001873
 24
118.4921724076201
 50
-0.0000015915494
100
AcDbRotatedDimension
  0
DIMENSION
  5
DD
100
AcDbEntity
  8
1
100
AcDbDimension
  2
*D5
 10
-35.85687799331542
 20
-76.50354977100677
 11
-43.85687413673083
 21
62.33349822518953
 31
0.0
 53
89.99999840845061
  1
<>
  3
ME10_DIM_1
100
AcDbAlignedDimension
 13
58.00037100000003
 23
118.4921724076201
 14
65.712558
 24
-76.50355259237992
 50
89.99999840845061
100
AcDbRotatedDimension
  0
DIMENSION
  5
D2
100
AcDbEntity
  8
1
100
AcDbDimension
  2
*D4
 10
-16.00000443629334
 20
54.996447685398
 11
-24.00000591505778
 21
1.7609266711878
 31
0.0
 53
89.99999840845061
  1
<>
  3
ME10_DIM_0
100
AcDbAlignedDimension
 13
-6.0
 23
-55.0035525923799
 14
-6.0
 24
54.9964474076201
 50
89.99999840845061
100
AcDbRotatedDimension
  0
INSERT
  5
39
100
AcDbEntity
  8
1
100
AcDbBlockReference
  2
_1
 10
-6.0
 20
-76.50355259237992
  0
INSERT
  5
3A
100
AcDbEntity
  8
0
100
AcDbBlockReference
  2
HL_710_R_CKSTAUVERSCHLS__3
 10
300.0
 20
-0.0000003534204
  0
ENDSEC
  0
SECTION
  2
OBJECTS
  0
DICTIONARY
  5
19
100
AcDbDictionary
  3
ACAD_GROUP
350
1A
  3
ACAD_MLINESTYLE
350
1B
  0
DICTIONARY
  5
1A
102
{ACAD_REACTORS
330
19
102
}
100
AcDbDictionary
  0
DICTIONARY
  5
1B
102
{ACAD_REACTORS
330
19
102
}
100
AcDbDictionary
  3
STANDARD
350
1C
  0
MLINESTYLE
  5
1C
102
{ACAD_REACTORS
330
1B
102
}
100
AcDbMlineStyle
  2
STANDARD
 70
             0
  3

 62
             0
 51
90.0
 52
90.0
 71
             2
 49
0.5
 62
           256
  6
BYLAYER
 49
-0.5
 62
           256
  6
BYLAYER
  0
ENDSEC
  0
EOF
