  0
SECTION
  2
HEADER
  9
$ACADVER
  1
AC1014
  9
$ACADMAINTVER
 70
             0
  9
$DWGCODEPAGE
  3
ANSI_1252
  9
$INSBASE
 10
0.0
 20
0.0
 30
0.0
  9
$EXTMIN
 10
-51.30535398729779
 20
-96.30425665539252
 30
0.0
  9
$EXTMAX
 10
623.11621752926692
 20
243.49233946595371
 30
0.0
  9
$LIMMIN
 10
0.0
 20
0.0
  9
$LIMMAX
 10
0.0
 20
0.0
  9
$ORTHOMODE
 70
             0
  9
$REGENMODE
 70
             1
  9
$FILLMODE
 70
             1
  9
$QTEXTMODE
 70
             0
  9
$MIRRTEXT
 70
             1
  9
$DRAGMODE
 70
             2
  9
$LTSCALE
 40
1.0
  9
$OSMODE
 70
             0
  9
$ATTMODE
 70
             1
  9
$TEXTSIZE
 40
0.2
  9
$TRACEWID
 40
0.05
  9
$TEXTSTYLE
  7
STANDARD
  9
$CLAYER
  8
0
  9
$CELTYPE
  6
CONTINUOUS
  9
$CECOLOR
 62
           256
  9
$CELTSCALE
 40
1.0
  9
$DELOBJ
 70
             1
  9
$DISPSILH
 70
             0
  9
$DIMSCALE
 40
1.0
  9
$DIMASZ
 40
0.18
  9
$DIMEXO
 40
0.0625
  9
$DIMDLI
 40
0.38
  9
$DIMRND
 40
0.0
  9
$DIMDLE
 40
0.0
  9
$DIMEXE
 40
0.18
  9
$DIMTP
 40
0.0
  9
$DIMTM
 40
0.0
  9
$DIMTXT
 40
0.18
  9
$DIMCEN
 40
0.09
  9
$DIMTSZ
 40
0.0
  9
$DIMTOL
 70
             0
  9
$DIMLIM
 70
             0
  9
$DIMTIH
 70
             1
  9
$DIMTOH
 70
             1
  9
$DIMSE1
 70
             0
  9
$DIMSE2
 70
             0
  9
$DIMTAD
 70
             0
  9
$DIMZIN
 70
             0
  9
$DIMBLK
  1

  9
$DIMASO
 70
             1
  9
$DIMSHO
 70
             1
  9
$DIMPOST
  1

  9
$DIMAPOST
  1

  9
$DIMALT
 70
             0
  9
$DIMALTD
 70
             2
  9
$DIMALTF
 40
25.4
  9
$DIMLFAC
 40
1.0
  9
$DIMTOFL
 70
             0
  9
$DIMTVP
 40
0.0
  9
$DIMTIX
 70
             0
  9
$DIMSOXD
 70
             0
  9
$DIMSAH
 70
             0
  9
$DIMBLK1
  1

  9
$DIMBLK2
  1

  9
$DIMSTYLE
  2
STANDARD
  9
$DIMCLRD
 70
             0
  9
$DIMCLRE
 70
             0
  9
$DIMCLRT
 70
             0
  9
$DIMTFAC
 40
1.0
  9
$DIMGAP
 40
0.09
  9
$DIMJUST
 70
             0
  9
$DIMSD1
 70
             0
  9
$DIMSD2
 70
             0
  9
$DIMTOLJ
 70
             1
  9
$DIMTZIN
 70
             0
  9
$DIMALTZ
 70
             0
  9
$DIMALTTZ
 70
             0
  9
$DIMFIT
 70
             3
  9
$DIMUPT
 70
             0
  9
$DIMUNIT
 70
             2
  9
$DIMDEC
 70
             4
  9
$DIMTDEC
 70
             4
  9
$DIMALTU
 70
             2
  9
$DIMALTTD
 70
             2
  9
$DIMTXSTY
  7
STANDARD
  9
$DIMAUNIT
 70
             0
  9
$LUNITS
 70
             2
  9
$LUPREC
 70
             4
  9
$SKETCHINC
 40
0.1
  9
$FILLETRAD
 40
0.0
  9
$AUNITS
 70
             0
  9
$AUPREC
 70
             0
  9
$MENU
  1
acad
  9
$ELEVATION
 40
0.0
  9
$PELEVATION
 40
0.0
  9
$THICKNESS
 40
0.0
  9
$LIMCHECK
 70
             0
  9
$BLIPMODE
 70
             1
  9
$CHAMFERA
 40
0.0
  9
$CHAMFERB
 40
0.0
  9
$CHAMFERC
 40
0.0
  9
$CHAMFERD
 40
0.0
  9
$SKPOLY
 70
             0
  9
$TDCREATE
 40
0.000000000
  9
$TDUPDATE
 40
0.000000000
  9
$TDINDWG
 40
0.0000000000
  9
$TDUSRTIMER
 40
0.0000000000
  9
$USRTIMER
 70
             1
  9
$ANGBASE
 50
0.0
  9
$ANGDIR
 70
             0
  9
$PDMODE
 70
             0
  9
$PDSIZE
 40
0.0
  9
$PLINEWID
 40
0.0
  9
$COORDS
 70
             0
  9
$SPLFRAME
 70
             0
  9
$SPLINETYPE
 70
             6
  9
$SPLINESEGS
 70
             8
  9
$ATTDIA
 70
             0
  9
$ATTREQ
 70
             1
  9
$HANDLING
 70
             1
  9
$HANDSEED
  5
211
  9
$SURFTAB1
 70
             6
  9
$SURFTAB2
 70
             6
  9
$SURFTYPE
 70
             6
  9
$SURFU
 70
             6
  9
$SURFV
 70
             6
  9
$UCSNAME
  2

  9
$UCSORG
 10
0.0
 20
0.0
 30
0.0
  9
$UCSXDIR
 10
1.0
 20
0.0
 30
0.0
  9
$UCSYDIR
 10
0.0
 20
1.0
 30
0.0
  9
$PUCSNAME
  2

  9
$PUCSORG
 10
0.0
 20
0.0
 30
0.0
  9
$PUCSXDIR
 10
1.0
 20
0.0
 30
0.0
  9
$PUCSYDIR
 10
0.0
 20
1.0
 30
0.0
  9
$USERI1
 70
             0
  9
$USERI2
 70
             0
  9
$USERI3
 70
             0
  9
$USERI4
 70
             0
  9
$USERI5
 70
             0
  9
$USERR1
 40
12.01
  9
$USERR2
 40
0.0
  9
$USERR3
 40
0.0
  9
$USERR4
 40
0.0
  9
$USERR5
 40
0.0
  9
$WORLDVIEW
 70
             1
  9
$SHADEDGE
 70
             3
  9
$SHADEDIF
 70
            70
  9
$TILEMODE
 70
             1
  9
$MAXACTVP
 70
            16
  9
$PINSBASE
 10
0.0
 20
0.0
 30
0.0
  9
$PLIMCHECK
 70
             0
  9
$PEXTMIN
 10
1.00000000000000E+20
 20
1.00000000000000E+20
 30
1.00000000000000E+20
  9
$PEXTMAX
 10
-1.00000000000000E+20
 20
-1.00000000000000E+20
 30
-1.00000000000000E+20
  9
$PLIMMIN
 10
0.0
 20
0.0
  9
$PLIMMAX
 10
12.0
 20
9.0
  9
$UNITMODE
 70
             0
  9
$VISRETAIN
 70
             0
  9
$PLINEGEN
 70
             1
  9
$PSLTSCALE
 70
             0
  9
$TREEDEPTH
 70
          3020
  9
$PICKSTYLE
 70
             1
  9
$CMLSTYLE
  2
STANDARD
  9
$CMLJUST
 70
             0
  9
$CMLSCALE
 40
1.0
  9
$PROXYGRAPHICS
 70
             0
  9
$MEASUREMENT
 70
             1
  0
ENDSEC
  0
SECTION
  2
CLASSES
  0
CLASS
  1
LWPOLYLINE
  2
AcDbPolyline
  3
"AutoCAD"
 90
        0
280
             0
281
             1
  0
CLASS
  1
IMAGE
  2
AcDbRasterImage
  3
ISM
 90
      127
280
             0
281
             1
  0
CLASS
  1
OLE2FRAME
  2
AcDbOle2Frame
  3
""
 90
        0
280
             0
281
             1
  0
CLASS
  1
HATCH
  2
AcDbHatch
  3
"ACAD_SEDONA"
 90
        0
280
             0
281
             1
  0
CLASS
  1
DICTIONARYVAR
  2
AcDbDictionaryVar
  3
"AutoCAD"
 90
        0
280
             0
281
             0
  0
CLASS
  1
RASTERVARIABLES
  2
AcDbRasterVariables
  3
ISM
 90
        0
280
             0
281
             0
  0
CLASS
  1
IMAGEDEF
  2
AcDbRasterImageDef
  3
ISM
 90
        0
280
             0
281
             0
  0
CLASS
  1
IMAGEDEF_REACTOR
  2
AcDbRasterImageDefReactor
  3
ISM
 90
        1
280
             0
281
             0
  0
CLASS
  1
IDBUFFER
  2
AcDbIdBuffer
  3
"Acad"
 90
        0
280
             0
281
             0
  0
CLASS
  1
SPATIAL_FILTER
  2
AcDbSpatialFilter
  3
"Acad"
 90
        0
280
             0
281
             0
  0
CLASS
  1
XRECORD
  2
AcDbXrecord
  3
"<Built In>"
 90
        0
280
             0
281
             0
  0
CLASS
  1
SORTENTSTABLE
  2
AcDbSortentsTable
  3
"AutoCAD"
 90
        0
280
             0
281
             0
  0
CLASS
  1
LAYER_INDEX
  2
AcDbLayerIndex
  3
"Acad"
 90
        0
280
             0
281
             0
  0
CLASS
  1
SPATIAL_INDEX
  2
AcDbSpatialIndex
  3
"Acad"
 90
        0
280
             0
281
             0
  0
CLASS
  1
OBJECT_PTR
  2
CAseDLPNTableRecord
  3
"ASE-LPNTableRecord"
 90
        1
280
             0
281
             0
  0
CLASS
  1
LAYOUT
  2
AcDbLayout
  3
"AutoCAD 2000"
 90
        0
280
             0
281
             0
  0
CLASS
  1
PLOTSETTINGS
  2
AcDbPlotSettings
  3
"AutoCAD 2000"
 90
        0
280
             0
281
             0
  0
CLASS
  1
ACDBDICTIONARYWDFLT
  2
AcDbDictionaryWithDefault
  3
"AutoCAD 2000"
 90
        0
280
             0
281
             0
  0
CLASS
  1
ACDBPLACEHOLDER
  2
AcDbPlaceHolder
  3
"AutoCAD 2000"
 90
        0
280
             0
281
             0
  0
ENDSEC
  0
SECTION
  2
TABLES
  0
TABLE
  2
VPORT
  5
7
100
AcDbSymbolTable
 70
             1
  0
VPORT
  5
15
100
AcDbSymbolTableRecord
100
AcDbViewportTableRecord
  2
*ACTIVE
 70
             0
 10
0.0
 20
0.0
 11
1.0
 21
1.0
 12
285.90543177098459
 22
73.59404140528059
 13
0.0
 23
0.0
 14
1.0
 24
1.0
 15
0.0
 25
0.0
 16
0.0
 26
0.0
 36
1.0
 17
0.0
 27
0.0
 37
0.0
 40
462.88990312446134
 41
1.60267857142857
 42
50.0
 43
0.0
 44
0.0
 50
0.0
 51
0.0
 71
             0
 72
           100
 73
             1
 74
             1
 75
             0
 76
             0
 77
             0
 78
             0
  0
ENDTAB
  0
TABLE
  2
LTYPE
  5
4
100
AcDbSymbolTable
 70
            10
  0
LTYPE
  5
11
100
AcDbSymbolTableRecord
100
AcDbLinetypeTableRecord
  2
BYBLOCK
 70
            64
  3

 72
            65
 73
             0
 40
0.0
  0
LTYPE
  5
12
100
AcDbSymbolTableRecord
100
AcDbLinetypeTableRecord
  2
BYLAYER
 70
            64
  3

 72
            65
 73
             0
 40
0.0
  0
LTYPE
  5
13
100
AcDbSymbolTableRecord
100
AcDbLinetypeTableRecord
  2
CONTINUOUS
 70
            64
  3
Solid line
 72
            65
 73
             0
 40
0.0
  0
LTYPE
  5
1D
100
AcDbSymbolTableRecord
100
AcDbLinetypeTableRecord
  2
DASHED
 70
            64
  3
Dashed
 72
            65
 73
             2
 40
15.0
 49
7.0
 74
             0
 49
-8.0
 74
             0
  0
LTYPE
  5
1E
100
AcDbSymbolTableRecord
100
AcDbLinetypeTableRecord
  2
DOTTED
 70
            64
  3
Dotted
 72
            65
 73
             2
 40
1.0
 49
0.0
 74
             0
 49
-1.0
 74
             0
  0
LTYPE
  5
1F
100
AcDbSymbolTableRecord
100
AcDbLinetypeTableRecord
  2
DOT_CENTER
 70
            64
  3
Dot_Center
 72
            65
 73
             4
 40
14.0
 49
12.0
 74
             0
 49
-1.0
 74
             0
 49
0.0
 74
             0
 49
-1.0
 74
             0
  0
LTYPE
  5
20
100
AcDbSymbolTableRecord
100
AcDbLinetypeTableRecord
  2
LONG_DASHED
 70
            64
  3
Long_Dashed
 72
            65
 73
             2
 40
15.0
 49
10.0
 74
             0
 49
-5.0
 74
             0
  0
LTYPE
  5
21
100
AcDbSymbolTableRecord
100
AcDbLinetypeTableRecord
  2
DASH_CENTER
 70
            64
  3
Dash_Center
 72
            65
 73
             4
 40
14.0
 49
11.0
 74
             0
 49
-1.0
 74
             0
 49
1.0
 74
             0
 49
-1.0
 74
             0
  0
LTYPE
  5
22
100
AcDbSymbolTableRecord
100
AcDbLinetypeTableRecord
  2
PHANTOM
 70
            64
  3
Phantom
 72
            65
 73
             6
 40
13.0
 49
10.0
 74
             0
 49
-1.0
 74
             0
 49
0.0
 74
             0
 49
-1.0
 74
             0
 49
0.0
 74
             0
 49
-1.0
 74
             0
  0
LTYPE
  5
23
100
AcDbSymbolTableRecord
100
AcDbLinetypeTableRecord
  2
CENTER_DASH_DASH
 70
            64
  3
Center_Dash_Dash
 72
            65
 73
             6
 40
14.0
 49
9.0
 74
             0
 49
-1.0
 74
             0
 49
1.0
 74
             0
 49
-1.0
 74
             0
 49
1.0
 74
             0
 49
-1.0
 74
             0
  0
ENDTAB
  0
TABLE
  2
LAYER
  5
2
100
AcDbSymbolTable
 70
            12
  0
LAYER
  5
14
100
AcDbSymbolTableRecord
100
AcDbLayerTableRecord
  2
0
 70
             0
 62
             7
  6
CONTINUOUS
  0
LAYER
  5
24
100
AcDbSymbolTableRecord
100
AcDbLayerTableRecord
  2
1
 70
             0
 62
             7
  6
CONTINUOUS
  0
LAYER
  5
25
100
AcDbSymbolTableRecord
100
AcDbLayerTableRecord
  2
LC-001-003-----0
 70
             0
 62
             7
  6
CONTINUOUS
  0
LAYER
  5
26
100
AcDbSymbolTableRecord
100
AcDbLayerTableRecord
  2
LC-002-002-----0
 70
             0
 62
             7
  6
CONTINUOUS
  0
LAYER
  5
27
100
AcDbSymbolTableRecord
100
AcDbLayerTableRecord
  2
LC-003-100-D03-0
 70
             0
 62
             7
  6
CONTINUOUS
  0
LAYER
  5
28
100
AcDbSymbolTableRecord
100
AcDbLayerTableRecord
  2
LC-004-002-----0
 70
             0
 62
             7
  6
CONTINUOUS
  0
LAYER
  5
29
100
AcDbSymbolTableRecord
100
AcDbLayerTableRecord
  2
LC-005-002-----0
 70
             0
 62
             7
  6
CONTINUOUS
  0
LAYER
  5
2A
100
AcDbSymbolTableRecord
100
AcDbLayerTableRecord
  2
LC-005-002-RND-0
 70
             0
 62
             7
  6
CONTINUOUS
  0
LAYER
  5
2B
100
AcDbSymbolTableRecord
100
AcDbLayerTableRecord
  2
LC-007-002-RND-0
 70
             0
 62
             7
  6
CONTINUOUS
  0
LAYER
  5
2C
100
AcDbSymbolTableRecord
100
AcDbLayerTableRecord
  2
LC-008-100-D03-0
 70
             0
 62
             7
  6
CONTINUOUS
  0
LAYER
  5
2D
100
AcDbSymbolTableRecord
100
AcDbLayerTableRecord
  2
LC-009-002-RND-0
 70
             0
 62
             7
  6
CONTINUOUS
  0
LAYER
  5
2E
100
AcDbSymbolTableRecord
100
AcDbLayerTableRecord
  2
LC-009-005-----0
 70
             0
 62
             7
  6
CONTINUOUS
  0
ENDTAB
  0
TABLE
  2
STYLE
  5
3
100
AcDbSymbolTable
 70
             2
  0
STYLE
  5
17
100
AcDbSymbolTableRecord
100
AcDbTextStyleTableRecord
  2
STANDARD
 70
             0
 40
0.0
 41
1.0
 50
0.0
 71
             0
 42
0.0
  3
txt
  4

  0
STYLE
  5
1C7
100
AcDbSymbolTableRecord
100
AcDbTextStyleTableRecord
  2
CONVERTER_1
 70
             0
 40
0.0
 41
0.9
 50
0.0
 71
             0
 42
0.0
  3
txt.shx
  4

  0
ENDTAB
  0
TABLE
  2
VIEW
  5
5
100
AcDbSymbolTable
 70
             0
  0
ENDTAB
  0
TABLE
  2
UCS
  5
6
100
AcDbSymbolTable
 70
             0
  0
ENDTAB
  0
TABLE
  2
APPID
  5
8
100
AcDbSymbolTable
 70
             1
  0
APPID
  5
16
100
AcDbSymbolTableRecord
100
AcDbRegAppTableRecord
  2
ACAD
 70
             0
  0
ENDTAB
  0
TABLE
  2
DIMSTYLE
  5
9
100
AcDbSymbolTable
 70
             8
  0
DIMSTYLE
105
18
100
AcDbSymbolTableRecord
100
AcDbDimStyleTableRecord
  2
STANDARD
 70
             0
  3

  4

  5

  6

  7

 40
1.0
 41
0.18
 42
0.0625
 43
0.38
 44
0.18
 45
0.0
 46
0.0
 47
0.0
 48
0.0
 71
             0
 72
             0
 73
             1
 74
             1
 75
             0
 76
             0
 77
             0
 78
             0
140
0.18
141
0.09
142
0.0
143
25.4
144
1.0
145
0.0
146
1.0
147
0.09
170
             0
171
             2
172
             0
173
             0
174
             0
175
             0
176
             0
177
             0
178
             0
270
             2
271
             4
272
             4
273
             2
274
             2
275
             0
280
             0
281
             0
282
             0
283
             1
284
             0
285
             0
286
             0
287
             3
288
             0
340
17
  0
DIMSTYLE
105
1CA
100
AcDbSymbolTableRecord
100
AcDbDimStyleTableRecord
  2
ME10_DIM_0
 70
             0
  3

  4

  5

  6

  7

 40
1.0
 41
12.0
 42
0.0
 43
0.38
 44
2.0
 45
0.0
 46
0.0
 47
0.0
 48
0.0
 71
             0
 72
             0
 73
             0
 74
             0
 75
             0
 76
             0
 77
             1
 78
             8
140
12.0
141
0.09
142
0.0
143
25.4
144
1.0
145
0.0
146
1.0
147
0.625
170
             0
171
             2
172
             1
173
             1
174
             0
175
             0
176
             4
177
             4
178
             1
270
             2
271
             2
272
             4
273
             2
274
             2
275
             0
280
             0
281
             0
282
             0
283
             1
284
             0
285
             0
286
             0
287
             3
288
             0
340
1C7
  0
DIMSTYLE
105
1D5
100
AcDbSymbolTableRecord
100
AcDbDimStyleTableRecord
  2
ME10_DIM_1
 70
             0
  3

  4

  5

  6

  7

 40
1.0
 41
12.0
 42
0.0
 43
0.38
 44
2.0
 45
0.0
 46
0.0
 47
0.0
 48
0.0
 71
             0
 72
             0
 73
             0
 74
             0
 75
             0
 76
             0
 77
             1
 78
             8
140
12.0
141
0.09
142
0.0
143
25.4
144
1.0
145
0.0
146
1.0
147
0.625
170
             0
171
             2
172
             1
173
             1
174
             0
175
             0
176
             4
177
             4
178
             1
270
             2
271
             2
272
             4
273
             2
274
             2
275
             0
280
             0
281
             0
282
             0
283
             1
284
             0
285
             0
286
             0
287
             3
288
             0
340
1C7
  0
DIMSTYLE
105
1E2
100
AcDbSymbolTableRecord
100
AcDbDimStyleTableRecord
  2
ME10_DIM_2
 70
             0
  3

  4

  5

  6

  7

 40
1.0
 41
12.0
 42
0.0
 43
0.38
 44
2.0
 45
0.0
 46
0.0
 47
0.0
 48
0.0
 71
             0
 72
             0
 73
             0
 74
             0
 75
             0
 76
             0
 77
             1
 78
             8
140
12.0
141
0.09
142
0.0
143
25.4
144
1.0
145
0.0
146
1.0
147
0.625
170
             0
171
             2
172
             1
173
             1
174
             0
175
             0
176
             4
177
             4
178
             1
270
             2
271
             2
272
             4
273
             2
274
             2
275
             0
280
             0
281
             0
282
             0
283
             1
284
             0
285
             0
286
             0
287
             3
288
             0
340
1C7
  0
DIMSTYLE
105
1ED
100
AcDbSymbolTableRecord
100
AcDbDimStyleTableRecord
  2
ME10_DIM_3
 70
             0
  3
DN<>
  4

  5

  6

  7

 40
1.0
 41
12.0
 42
0.0
 43
0.38
 44
2.0
 45
0.0
 46
0.0
 47
0.0
 48
0.0
 71
             0
 72
             0
 73
             0
 74
             0
 75
             0
 76
             0
 77
             1
 78
             8
140
12.0
141
0.09
142
0.0
143
25.4
144
1.0
145
0.0
146
1.0
147
0.625
170
             0
171
             2
172
             1
173
             1
174
             0
175
             0
176
             4
177
             4
178
             1
270
             2
271
             2
272
             4
273
             2
274
             2
275
             0
280
             0
281
             0
282
             0
283
             1
284
             0
285
             0
286
             0
287
             3
288
             0
340
1C7
  0
DIMSTYLE
105
1F8
100
AcDbSymbolTableRecord
100
AcDbDimStyleTableRecord
  2
ME10_DIM_4
 70
             0
  3

  4

  5

  6

  7

 40
1.0
 41
12.0
 42
0.0
 43
0.38
 44
2.0
 45
0.0
 46
0.0
 47
0.0
 48
0.0
 71
             0
 72
             0
 73
             0
 74
             0
 75
             0
 76
             0
 77
             1
 78
             8
140
12.0
141
0.09
142
0.0
143
25.4
144
1.0
145
0.0
146
1.0
147
0.625
170
             0
171
             2
172
             1
173
             1
174
             0
175
             0
176
             4
177
             4
178
             1
270
             2
271
             2
272
             4
273
             2
274
             2
275
             0
280
             0
281
             0
282
             0
283
             1
284
             0
285
             0
286
             0
287
             3
288
             0
340
1C7
  0
DIMSTYLE
105
203
100
AcDbSymbolTableRecord
100
AcDbDimStyleTableRecord
  2
ME10_DIM_5
 70
             0
  3
DN<>
  4

  5

  6

  7

 40
1.0
 41
12.0
 42
0.0
 43
0.38
 44
2.0
 45
0.0
 46
0.0
 47
0.0
 48
0.0
 71
             0
 72
             0
 73
             0
 74
             0
 75
             0
 76
             0
 77
             1
 78
             8
140
12.0
141
0.09
142
0.0
143
25.4
144
1.0
145
0.0
146
1.0
147
0.625
170
             0
171
             2
172
             1
173
             1
174
             0
175
             0
176
             4
177
             4
178
             1
270
             2
271
             2
272
             4
273
             2
274
             2
275
             0
280
             0
281
             0
282
             0
283
             1
284
             0
285
             0
286
             0
287
             3
288
             0
340
1C7
  0
DIMSTYLE
105
20E
100
AcDbSymbolTableRecord
100
AcDbDimStyleTableRecord
  2
ME10_DIM_6
 70
             0
  3
220-<>
  4

  5

  6

  7

 40
1.0
 41
12.0
 42
0.0
 43
0.38
 44
2.0
 45
0.0
 46
0.0
 47
0.0
 48
0.0
 71
             0
 72
             0
 73
             0
 74
             0
 75
             0
 76
             0
 77
             1
 78
             8
140
12.0
141
0.09
142
0.0
143
25.4
144
1.0
145
0.0
146
1.0
147
0.625
170
             0
171
             2
172
             1
173
             1
174
             0
175
             0
176
             4
177
             4
178
             1
270
             2
271
             2
272
             4
273
             2
274
             2
275
             0
280
             0
281
             0
282
             0
283
             1
284
             0
285
             0
286
             0
287
             3
288
             0
340
1C7
  0
ENDTAB
  0
TABLE
  2
BLOCK_RECORD
  5
1
100
AcDbSymbolTable
 70
             9
  0
BLOCK_RECORD
  5
A
100
AcDbSymbolTableRecord
100
AcDbBlockTableRecord
  2
*MODEL_SPACE
  0
BLOCK_RECORD
  5
B
100
AcDbSymbolTableRecord
100
AcDbBlockTableRecord
  2
*PAPER_SPACE
  0
BLOCK_RECORD
  5
2F
100
AcDbSymbolTableRecord
100
AcDbBlockTableRecord
  2
HL_710_1_R_CKSTAUVERSCS__1
  0
BLOCK_RECORD
  5
31
100
AcDbSymbolTableRecord
100
AcDbBlockTableRecord
  2
HL_710_1_R_CKSTAUVERSCS__2
  0
BLOCK_RECORD
  5
1C0
100
AcDbSymbolTableRecord
100
AcDbBlockTableRecord
  2
*D2
  0
BLOCK_RECORD
  5
1CC
100
AcDbSymbolTableRecord
100
AcDbBlockTableRecord
  2
*D3
  0
BLOCK_RECORD
  5
1D7
100
AcDbSymbolTableRecord
100
AcDbBlockTableRecord
  2
*D4
  0
BLOCK_RECORD
  5
1E4
100
AcDbSymbolTableRecord
100
AcDbBlockTableRecord
  2
*D5
  0
BLOCK_RECORD
  5
1EF
100
AcDbSymbolTableRecord
100
AcDbBlockTableRecord
  2
*D6
  0
BLOCK_RECORD
  5
1FA
100
AcDbSymbolTableRecord
100
AcDbBlockTableRecord
  2
*D7
  0
BLOCK_RECORD
  5
205
100
AcDbSymbolTableRecord
100
AcDbBlockTableRecord
  2
*D8
  0
ENDTAB
  0
ENDSEC
  0
SECTION
  2
BLOCKS
  0
BLOCK
  5
D
100
AcDbEntity
  8
0
100
AcDbBlockBegin
  2
*MODEL_SPACE
 70
             0
 10
0.0
 20
0.0
 30
0.0
  3
*MODEL_SPACE
  1

  0
ENDBLK
  5
E
100
AcDbEntity
  8
0
100
AcDbBlockEnd
  0
BLOCK
  5
F
100
AcDbEntity
 67
             1
  8
0
100
AcDbBlockBegin
  2
*PAPER_SPACE
 70
             0
 10
0.0
 20
0.0
 30
0.0
  3
*PAPER_SPACE
  1

  0
ENDBLK
  5
10
100
AcDbEntity
 67
             1
  8
0
100
AcDbBlockEnd
  0
BLOCK
  5
30
100
AcDbEntity
  8
0
100
AcDbBlockBegin
  2
HL_710_1_R_CKSTAUVERSCS__1
 70
             0
 10
1070.7463091592899
 20
306.7382037205731
 30
0.0
  3
HL_710_1_R_CKSTAUVERSCS__1
  1

  0
XLINE
  5
E5
100
AcDbEntity
  8
1
  6
DOT_CENTER
 62
             3
 60
             1
100
AcDbXline
 10
1584.5968931592899
 20
871.27461282962179
 30
0.0
 11
0.0
 21
1.0
 31
0.0
  0
XLINE
  5
E4
100
AcDbEntity
  8
1
  6
DOT_CENTER
 62
             3
 60
             1
100
AcDbXline
 10
1584.5968931592899
 20
871.27461282962179
 30
0.0
 11
1.0
 21
0.0
 31
0.0
  0
CIRCLE
  5
E3
100
AcDbEntity
  8
LC-002-002-----0
  6
CONTINUOUS
 62
             7
100
AcDbCircle
 10
503.11611015928997
 20
-0.00000124342506
 40
64.75
  0
CIRCLE
  5
E2
100
AcDbEntity
  8
1
  6
CONTINUOUS
 62
             7
100
AcDbCircle
 10
503.11611015928997
 20
-0.00000124342506
 40
55.19999956235552
  0
CIRCLE
  5
E1
100
AcDbEntity
  8
LC-002-002-----0
  6
CONTINUOUS
 62
             7
100
AcDbCircle
 10
503.11611015928997
 20
-0.00000124342506
 40
59.44999999999709
  0
ARC
  5
E0
100
AcDbEntity
  8
LC-002-002-----0
  6
CONTINUOUS
 62
             7
100
AcDbCircle
 10
406.10067952926897
 20
136.39050733896491
 40
1.00000000000051
100
AcDbArc
 50
-90.00005799990878
 51
0.0
  0
ARC
  5
DF
100
AcDbEntity
  8
LC-002-002-----0
  6
CONTINUOUS
 62
             7
100
AcDbCircle
 10
403.10067952926897
 20
136.39050733896491
 40
1.0
100
AcDbArc
 50
180.0
 51
-90.00005799990878
  0
ARC
  5
DE
100
AcDbEntity
  8
LC-002-002-----0
  6
CONTINUOUS
 62
             7
100
AcDbCircle
 10
403.10067952926897
 20
139.10206421542509
 40
1.0
100
AcDbArc
 50
90.0
 51
180.0
  0
ARC
  5
DD
100
AcDbEntity
  8
LC-002-002-----0
  6
CONTINUOUS
 62
             7
100
AcDbCircle
 10
406.10067952926897
 20
139.10206421542509
 40
1.00000000000352
100
AcDbArc
 50
0.00015200005373
 51
90.0
  0
ARC
  5
DC
100
AcDbEntity
  8
LC-002-002-----0
  6
CONTINUOUS
 62
             7
100
AcDbCircle
 10
409.10067952926897
 20
138.46871621542201
 40
1.99999999999879
100
AcDbArc
 50
100.3398910000388
 51
180.0
  0
ARC
  5
DB
100
AcDbEntity
  8
LC-002-002-----0
  6
CONTINUOUS
 62
             7
100
AcDbCircle
 10
385.11599952927128
 20
136.86027533896021
 40
2.0
100
AcDbArc
 50
180.0
 51
-106.72685999991658
  0
ARC
  5
DA
100
AcDbEntity
  8
LC-002-002-----0
  6
CONTINUOUS
 62
             7
100
AcDbCircle
 10
404.59833952926988
 20
201.69660482104851
 40
69.70015619088132
100
AcDbArc
 50
-106.64675155019378
 51
-73.27506491510096
  0
ARC
  5
D9
100
AcDbEntity
  8
LC-002-002-----0
  6
CONTINUOUS
 62
             7
100
AcDbCircle
 10
385.11578252927058
 20
137.0240163389642
 40
2.00000000000042
100
AcDbArc
 50
-179.99996299987561
 51
-100.33991199995924
  0
ARC
  5
D8
100
AcDbEntity
  8
LC-002-002-----0
  6
CONTINUOUS
 62
             7
100
AcDbCircle
 10
385.11599952927128
 20
138.63229521542209
 40
2.00000000000279
100
AcDbArc
 50
106.7268010001482
 51
180.0
  0
ARC
  5
D7
100
AcDbEntity
  8
LC-002-002-----0
  6
CONTINUOUS
 62
             7
100
AcDbCircle
 10
404.59833952926988
 20
73.80446247119807
 40
69.69201988818853
100
AcDbArc
 50
73.27321753473434
 51
106.72680053473852
  0
ARC
  5
D6
100
AcDbEntity
  8
LC-002-002-----0
  6
CONTINUOUS
 62
             7
100
AcDbCircle
 10
385.11578152927018
 20
138.468878215426
 40
1.99999999999821
100
AcDbArc
 50
100.34000299989395
 51
-179.99996299987561
  0
ARC
  5
D5
100
AcDbEntity
  8
LC-002-002-----0
  6
CONTINUOUS
 62
             7
100
AcDbCircle
 10
392.60809752927008
 20
178.0891442493118
 40
43.74301730391277
100
AcDbArc
 50
-100.33986011731029
 51
-79.65992711731117
  0
ARC
  5
D4
100
AcDbEntity
  8
LC-002-002-----0
  6
CONTINUOUS
 62
             7
100
AcDbCircle
 10
400.10046252926833
 20
137.02402533896719
 40
2.00000000000015
100
AcDbArc
 50
-79.65999500005464
 51
0.00003699991595
  0
ARC
  5
D3
100
AcDbEntity
  8
LC-002-002-----0
  6
CONTINUOUS
 62
             7
100
AcDbCircle
 10
400.10046152927163
 20
138.46888721542169
 40
2.00000000000042
100
AcDbArc
 50
0.00003700012521
 51
79.66016500011209
  0
ARC
  5
D2
100
AcDbEntity
  8
LC-002-002-----0
  6
CONTINUOUS
 62
             7
100
AcDbCircle
 10
392.60814652926848
 20
97.40373663297186
 40
43.74303960783368
100
AcDbArc
 50
79.660162084075
 51
100.33992508408166
  0
ARC
  5
D1
100
AcDbEntity
  8
LC-002-002-----0
  6
CONTINUOUS
 62
             7
100
AcDbCircle
 10
424.08067952926859
 20
136.86027533896021
 40
2.00000000000092
100
AcDbArc
 50
-73.27304699983871
 51
0.0
  0
ARC
  5
D0
100
AcDbEntity
  8
LC-002-002-----0
  6
CONTINUOUS
 62
             7
100
AcDbCircle
 10
424.08067952926859
 20
138.63229521542209
 40
2.0
100
AcDbArc
 50
0.0
 51
73.27321800015363
  0
ARC
  5
CF
100
AcDbEntity
  8
LC-002-002-----0
  6
CONTINUOUS
 62
             7
100
AcDbCircle
 10
424.08067952926859
 20
137.0238553389606
 40
2.00000000000042
100
AcDbArc
 50
-79.6599570000061
 51
0.0
  0
ARC
  5
CE
100
AcDbEntity
  8
LC-002-002-----0
  6
CONTINUOUS
 62
             7
100
AcDbCircle
 10
416.59067952927057
 20
178.07616526540701
 40
43.72999239886958
100
AcDbArc
 50
-100.33994718957652
 51
-79.66010718956885
  0
ARC
  5
CD
100
AcDbEntity
  8
LC-002-002-----0
  6
CONTINUOUS
 62
             7
100
AcDbCircle
 10
424.08067952926859
 20
138.46871621542201
 40
2.0
100
AcDbArc
 50
0.0
 51
79.66012800003544
  0
ARC
  5
CC
100
AcDbEntity
  8
LC-002-002-----0
  6
CONTINUOUS
 62
             7
100
AcDbCircle
 10
416.59067952927057
 20
97.4163985905322
 40
43.72999997229527
100
AcDbArc
 50
79.66010899999161
 51
100.33989100000818
  0
ARC
  5
CB
100
AcDbEntity
  8
LC-002-002-----0
  6
CONTINUOUS
 62
             7
100
AcDbCircle
 10
409.10067952926897
 20
137.0238553389606
 40
2.0
100
AcDbArc
 50
180.0
 51
-100.33994900003212
  0
ARC
  5
CA
100
AcDbEntity
  8
LC-002-002-----0
  6
CONTINUOUS
 62
             7
100
AcDbCircle
 10
601.63365952926893
 20
201.69660482104851
 40
69.70015619087994
100
AcDbArc
 50
-106.724935084899
 51
-73.35324844980617
  0
ARC
  5
C9
100
AcDbEntity
  8
LC-002-002-----0
  6
CONTINUOUS
 62
             7
100
AcDbCircle
 10
597.13131952926983
 20
137.0238553389606
 40
1.99999999999575
100
AcDbArc
 50
-79.66005099996468
 51
0.0
  0
ARC
  5
C8
100
AcDbEntity
  8
LC-002-002-----0
  6
CONTINUOUS
 62
             7
100
AcDbCircle
 10
589.64131952926823
 20
97.41636392568734
 40
43.72999997229523
100
AcDbArc
 50
79.66010899999168
 51
100.33989100000365
  0
ARC
  5
C7
100
AcDbEntity
  8
LC-002-002-----0
  6
CONTINUOUS
 62
             7
100
AcDbCircle
 10
582.15131952927027
 20
138.4686815505772
 40
1.99999999999996
100
AcDbArc
 50
100.33987199996501
 51
180.0
  0
ARC
  5
C6
100
AcDbEntity
  8
LC-002-002-----0
  6
CONTINUOUS
 62
             7
100
AcDbCircle
 10
589.64131952926823
 20
178.07616526540701
 40
43.72999239886436
100
AcDbArc
 50
-100.33989281042641
 51
-79.66005281042342
  0
ARC
  5
C5
100
AcDbEntity
  8
LC-002-002-----0
  6
CONTINUOUS
 62
             7
100
AcDbCircle
 10
582.15131952927027
 20
137.0238553389606
 40
2.0
100
AcDbArc
 50
180.0
 51
-100.34004299999231
  0
ARC
  5
C4
100
AcDbEntity
  8
LC-002-002-----0
  6
CONTINUOUS
 62
             7
100
AcDbCircle
 10
582.15131952927027
 20
138.6322605505772
 40
2.00000000000282
100
AcDbArc
 50
106.72678199984568
 51
180.0
  0
ARC
  5
C3
100
AcDbEntity
  8
LC-002-002-----0
  6
CONTINUOUS
 62
             7
100
AcDbCircle
 10
582.15131952927027
 20
136.86027533896021
 40
2.0
100
AcDbArc
 50
180.0
 51
-106.72695300016285
  0
ARC
  5
C2
100
AcDbEntity
  8
LC-002-002-----0
  6
CONTINUOUS
 62
             7
100
AcDbCircle
 10
613.62385252927038
 20
97.403701968127
 40
43.74303960783047
100
AcDbArc
 50
79.66007491591834
 51
100.33983791592031
  0
ARC
  5
C1
100
AcDbEntity
  8
LC-002-002-----0
  6
CONTINUOUS
 62
             7
100
AcDbCircle
 10
606.13153752927087
 20
138.46885255057691
 40
2.00000000000414
100
AcDbArc
 50
100.3398349998895
 51
179.99996299987887
  0
ARC
  5
C0
100
AcDbEntity
  8
LC-002-002-----0
  6
CONTINUOUS
 62
             7
100
AcDbCircle
 10
606.13153652927053
 20
137.02402533896719
 40
2.00000000000042
100
AcDbArc
 50
179.99996300008405
 51
-100.34000499994376
  0
ARC
  5
BF
100
AcDbEntity
  8
LC-002-002-----0
  6
CONTINUOUS
 62
             7
100
AcDbCircle
 10
613.62390152926878
 20
178.0891442493118
 40
43.7430173039084
100
AcDbArc
 50
-100.34007288268884
 51
-79.66013988268965
  0
ARC
  5
BE
100
AcDbEntity
  8
LC-002-002-----0
  6
CONTINUOUS
 62
             7
100
AcDbCircle
 10
621.11621752926862
 20
138.46884355058111
 40
2.00000000000042
100
AcDbArc
 50
-0.00003700012195
 51
79.65999700010489
  0
ARC
  5
BD
100
AcDbEntity
  8
LC-002-002-----0
  6
CONTINUOUS
 62
             7
100
AcDbCircle
 10
601.63365952926893
 20
73.8044278063532
 40
69.69201988818982
100
AcDbArc
 50
73.27319946525853
 51
106.72678246526277
  0
ARC
  5
BC
100
AcDbEntity
  8
LC-002-002-----0
  6
CONTINUOUS
 62
             7
100
AcDbCircle
 10
621.11599952927122
 20
138.6322605505772
 40
2.0
100
AcDbArc
 50
0.0
 51
73.27319899995005
  0
ARC
  5
BB
100
AcDbEntity
  8
LC-002-002-----0
  6
CONTINUOUS
 62
             7
100
AcDbCircle
 10
621.11621652926829
 20
137.0240163389642
 40
1.99999999999896
100
AcDbArc
 50
-79.66008799993823
 51
-0.00003700012439
  0
ARC
  5
BA
100
AcDbEntity
  8
LC-002-002-----0
  6
CONTINUOUS
 62
             7
100
AcDbCircle
 10
621.11599952927122
 20
136.86027533896021
 40
1.99999999999639
100
AcDbArc
 50
-73.27314000008187
 51
0.0
  0
ARC
  5
B9
100
AcDbEntity
  8
LC-002-002-----0
  6
CONTINUOUS
 62
             7
100
AcDbCircle
 10
597.13131952926983
 20
138.4686815505772
 40
2.0
100
AcDbArc
 50
0.0
 51
79.66010899985649
  0
ARC
  5
B8
100
AcDbEntity
  8
LC-002-002-----0
  6
CONTINUOUS
 62
             7
100
AcDbCircle
 10
600.13131952926983
 20
139.1020295505802
 40
1.0
100
AcDbArc
 50
90.0
 51
179.99984799993976
  0
ARC
  5
B7
100
AcDbEntity
  8
LC-002-002-----0
  6
CONTINUOUS
 62
             7
100
AcDbCircle
 10
603.13131952926983
 20
139.1020295505802
 40
1.0
100
AcDbArc
 50
0.0
 51
90.0
  0
ARC
  5
B6
100
AcDbEntity
  8
LC-002-002-----0
  6
CONTINUOUS
 62
             7
100
AcDbCircle
 10
603.13131952926983
 20
136.39050733896491
 40
1.00000000000051
100
AcDbArc
 50
-89.99994200008796
 51
0.0
  0
ARC
  5
B5
100
AcDbEntity
  8
LC-002-002-----0
  6
CONTINUOUS
 62
             7
100
AcDbCircle
 10
600.13131952926983
 20
136.39050733896491
 40
1.0
100
AcDbArc
 50
180.0
 51
-89.99994200008796
  0
ARC
  5
B4
100
AcDbEntity
  8
LC-009-002-RND-0
  6
CONTINUOUS
 62
             7
100
AcDbCircle
 10
588.16604115928772
 20
115.49217205287979
 40
3.0
100
AcDbArc
 50
0.0
 51
90.0
  0
ARC
  5
B3
100
AcDbEntity
  8
LC-009-002-RND-0
  6
CONTINUOUS
 62
             7
100
AcDbCircle
 10
593.16604115928772
 20
113.49217205287979
 40
2.0
100
AcDbArc
 50
180.0
 51
-90.0
  0
ARC
  5
B2
100
AcDbEntity
  8
LC-003-100-D03-0
  6
CONTINUOUS
 62
             7
100
AcDbCircle
 10
611.07538115928969
 20
96.53642242271206
 40
0.4970500000054
100
AcDbArc
 50
-90.0
 51
0.0
  0
ARC
  5
B1
100
AcDbEntity
  8
LC-003-100-D03-0
  6
CONTINUOUS
 62
             7
100
AcDbCircle
 10
503.11611015928997
 20
4.98925066230339
 40
81.4928029999958
100
AcDbArc
 50
-178.72632026524084
 51
-2.45566879744839
  0
ARC
  5
B0
100
AcDbEntity
  8
LC-009-002-RND-0
  6
CONTINUOUS
 62
             7
100
AcDbCircle
 10
611.11470915928862
 20
110.99217205287979
 40
0.5
100
AcDbArc
 50
0.0
 51
90.0
  0
ARC
  5
AF
100
AcDbEntity
  8
LC-009-002-RND-0
  6
CONTINUOUS
 62
             7
100
AcDbCircle
 10
611.11470915928862
 20
103.99217205287979
 40
0.5
100
AcDbArc
 50
-90.0
 51
0.0
  0
ARC
  5
AE
100
AcDbEntity
  8
LC-009-002-RND-0
  6
CONTINUOUS
 62
             7
100
AcDbCircle
 10
395.11751115928769
 20
103.99217205287979
 40
0.5
100
AcDbArc
 50
180.0
 51
-90.0
  0
ARC
  5
AD
100
AcDbEntity
  8
LC-009-002-RND-0
  6
CONTINUOUS
 62
             7
100
AcDbCircle
 10
395.11751115928769
 20
110.99217205287979
 40
0.5
100
AcDbArc
 50
90.0
 51
180.0
  0
ARC
  5
AC
100
AcDbEntity
  8
LC-003-100-D03-0
  6
CONTINUOUS
 62
             7
100
AcDbCircle
 10
395.15683915929031
 20
96.53642242271206
 40
0.49705000000171
100
AcDbArc
 50
180.0
 51
-90.0
  0
ARC
  5
AB
100
AcDbEntity
  8
LC-009-002-RND-0
  6
CONTINUOUS
 62
             7
100
AcDbCircle
 10
413.06617915928871
 20
113.49217205287979
 40
2.0
100
AcDbArc
 50
-90.0
 51
0.0
  0
ARC
  5
AA
100
AcDbEntity
  8
LC-009-002-RND-0
  6
CONTINUOUS
 62
             7
100
AcDbCircle
 10
418.06617915928871
 20
115.49217205287979
 40
3.0
100
AcDbArc
 50
90.0
 51
180.0
  0
ARC
  5
A9
100
AcDbEntity
  8
LC-009-002-RND-0
  6
CONTINUOUS
 62
             7
100
AcDbCircle
 10
557.11611015928997
 20
119.49217243132669
 40
1.0
100
AcDbArc
 50
-179.99999999998289
 51
-90.0
  0
ARC
  5
A8
100
AcDbEntity
  8
LC-009-002-RND-0
  6
CONTINUOUS
 62
             7
100
AcDbCircle
 10
535.11611015928997
 20
119.49217243132669
 40
1.0
100
AcDbArc
 50
-90.0
 51
-0.0000000000171
  0
ARC
  5
A7
100
AcDbEntity
  8
LC-009-002-RND-0
  6
CONTINUOUS
 62
             7
100
AcDbCircle
 10
536.61611015928997
 20
124.99217243132669
 40
0.5
100
AcDbArc
 50
90.0
 51
180.0
  0
ARC
  5
A6
100
AcDbEntity
  8
LC-009-002-RND-0
  6
CONTINUOUS
 62
             7
100
AcDbCircle
 10
555.61611015928997
 20
124.99217243132669
 40
0.5
100
AcDbArc
 50
0.0
 51
90.0
  0
ARC
  5
A5
100
AcDbEntity
  8
LC-009-002-RND-0
  6
CONTINUOUS
 62
             7
100
AcDbCircle
 10
449.11611015928997
 20
119.49217243132669
 40
1.0
100
AcDbArc
 50
-90.0
 51
-0.0000000000171
  0
ARC
  5
A4
100
AcDbEntity
  8
LC-009-002-RND-0
  6
CONTINUOUS
 62
             7
100
AcDbCircle
 10
450.61611015928997
 20
124.99217243132669
 40
0.5
100
AcDbArc
 50
90.0
 51
180.0
  0
ARC
  5
A3
100
AcDbEntity
  8
LC-009-002-RND-0
  6
CONTINUOUS
 62
             7
100
AcDbCircle
 10
471.11611015928997
 20
119.49217243132669
 40
1.0
100
AcDbArc
 50
-179.99999999998289
 51
-90.0
  0
ARC
  5
A2
100
AcDbEntity
  8
LC-009-002-RND-0
  6
CONTINUOUS
 62
             7
100
AcDbCircle
 10
469.61611015928997
 20
124.99217243132669
 40
0.5
100
AcDbArc
 50
0.0
 51
90.0
  0
ARC
  5
A1
100
AcDbEntity
  8
LC-009-002-RND-0
  6
CONTINUOUS
 62
             7
100
AcDbCircle
 10
538.11611015928997
 20
143.03087443132671
 40
0.99999999999968
100
AcDbArc
 50
-126.75761399993807
 51
0.0
  0
ARC
  5
A0
100
AcDbEntity
  8
LC-009-002-RND-0
  6
CONTINUOUS
 62
             7
100
AcDbCircle
 10
529.11611015928997
 20
132.20529443132651
 40
10.0
100
AcDbArc
 50
0.0
 51
62.42153200002036
  0
ARC
  5
9F
100
AcDbEntity
  8
LC-002-002-----0
  6
CONTINUOUS
 62
             7
100
AcDbCircle
 10
526.99111015928997
 20
128.13682143132669
 40
14.59000000000123
100
AcDbArc
 50
62.42153199999057
 51
131.29186300000345
  0
ARC
  5
9E
100
AcDbEntity
  8
LC-002-002-----0
  6
CONTINUOUS
 62
             7
100
AcDbCircle
 10
526.99111015928997
 20
128.13682143132669
 40
17.59027799999867
100
AcDbArc
 50
53.24238600000769
 51
129.95133399998838
  0
ARC
  5
9D
100
AcDbEntity
  8
LC-009-002-RND-0
  6
CONTINUOUS
 62
             7
100
AcDbCircle
 10
515.05361015928997
 20
141.72888543132669
 40
3.49999999999687
100
AcDbArc
 50
-131.29186299994305
 51
-48.70813700005416
  0
ARC
  5
9C
100
AcDbEntity
  8
LC-009-002-RND-0
  6
CONTINUOUS
 62
             7
100
AcDbCircle
 10
515.05361015928997
 20
142.38794543132661
 40
0.99999999999681
100
AcDbArc
 50
-129.95133399978295
 51
-50.04866600020708
  0
ARC
  5
9B
100
AcDbEntity
  8
LC-002-002-----0
  6
CONTINUOUS
 62
             7
100
AcDbCircle
 10
479.24111015928997
 20
128.13682143132669
 40
17.5902779999973
100
AcDbArc
 50
50.04866600001105
 51
126.7576139999923
  0
ARC
  5
9A
100
AcDbEntity
  8
LC-002-002-----0
  6
CONTINUOUS
 62
             7
100
AcDbCircle
 10
503.11611015928997
 20
128.13682143132669
 40
14.590000000001
100
AcDbArc
 50
48.70813699999587
 51
131.2918630000033
  0
ARC
  5
99
100
AcDbEntity
  8
LC-009-002-RND-0
  6
CONTINUOUS
 62
             7
100
AcDbCircle
 10
477.11611015928997
 20
132.20529443132651
 40
9.9999999999983
100
AcDbArc
 50
117.5784679999782
 51
180.0
  0
ARC
  5
98
100
AcDbEntity
  8
LC-002-002-----0
  6
CONTINUOUS
 62
             7
100
AcDbCircle
 10
503.11611015928997
 20
128.13682143132669
 40
17.5902779999973
100
AcDbArc
 50
50.04866600001105
 51
129.95133399998809
  0
ARC
  5
97
100
AcDbEntity
  8
LC-009-002-RND-0
  6
CONTINUOUS
 62
             7
100
AcDbCircle
 10
542.66486315929001
 20
226.99217243132671
 40
2.000000000001
100
AcDbArc
 50
-142.72420900002336
 51
-90.0
  0
ARC
  5
96
100
AcDbEntity
  8
LC-009-002-RND-0
  6
CONTINUOUS
 62
             7
100
AcDbCircle
 10
523.56735615929006
 20
226.99217243132671
 40
2.0
100
AcDbArc
 50
-90.0
 51
-37.27579099997664
  0
ARC
  5
95
100
AcDbEntity
  8
LC-009-002-RND-0
  6
CONTINUOUS
 62
             7
100
AcDbCircle
 10
463.56735615929011
 20
226.99217243132671
 40
2.0
100
AcDbArc
 50
-90.0
 51
-37.27579099997763
  0
ARC
  5
94
100
AcDbEntity
  8
LC-009-002-RND-0
  6
CONTINUOUS
 62
             7
100
AcDbCircle
 10
522.66486315929001
 20
226.99217243132671
 40
2.000000000001
100
AcDbArc
 50
-142.72420900002336
 51
-90.0
  0
ARC
  5
93
100
AcDbEntity
  8
LC-009-002-RND-0
  6
CONTINUOUS
 62
             7
100
AcDbCircle
 10
503.56735615929011
 20
226.99217243132671
 40
2.0
100
AcDbArc
 50
-90.0
 51
-37.27579099997763
  0
ARC
  5
92
100
AcDbEntity
  8
LC-009-002-RND-0
  6
CONTINUOUS
 62
             7
100
AcDbCircle
 10
502.66486315929012
 20
226.99217243132671
 40
2.000000000001
100
AcDbArc
 50
-142.72420900002336
 51
-90.0
  0
ARC
  5
91
100
AcDbEntity
  8
LC-009-002-RND-0
  6
CONTINUOUS
 62
             7
100
AcDbCircle
 10
483.56735615929011
 20
226.99217243132671
 40
2.0
100
AcDbArc
 50
-90.0
 51
-37.27579099997763
  0
ARC
  5
90
100
AcDbEntity
  8
LC-009-002-RND-0
  6
CONTINUOUS
 62
             7
100
AcDbCircle
 10
482.66486315929012
 20
226.99217243132671
 40
2.000000000001
100
AcDbArc
 50
-142.72420900002336
 51
-90.0
  0
ARC
  5
8F
100
AcDbEntity
  8
LC-009-002-RND-0
  6
CONTINUOUS
 62
             7
100
AcDbCircle
 10
545.11611015928997
 20
207.99217243132671
 40
2.0
100
AcDbArc
 50
180.0
 51
-90.0
  0
ARC
  5
8E
100
AcDbEntity
  8
LC-009-002-RND-0
  6
CONTINUOUS
 62
             7
100
AcDbCircle
 10
461.11611015928997
 20
207.99217243132671
 40
2.0
100
AcDbArc
 50
-90.0
 51
0.0
  0
ARC
  5
8D
100
AcDbEntity
  8
LC-009-002-RND-0
  6
CONTINUOUS
 62
             7
100
AcDbCircle
 10
551.11611015928997
 20
241.49217243132671
 40
2.0
100
AcDbArc
 50
0.0
 51
90.0
  0
ARC
  5
8C
100
AcDbEntity
  8
LC-002-002-----0
  6
CONTINUOUS
 62
             7
100
AcDbCircle
 10
455.11611015928997
 20
241.49217243132671
 40
2.0
100
AcDbArc
 50
90.0
 51
180.0
  0
ARC
  5
8B
100
AcDbEntity
  8
LC-009-002-RND-0
  6
CONTINUOUS
 62
             7
100
AcDbCircle
 10
468.11611015928997
 20
143.03087443132671
 40
1.0
100
AcDbArc
 50
180.0
 51
-53.24238600005931
  0
ARC
  5
8A
100
AcDbEntity
  8
LC-009-002-RND-0
  6
CONTINUOUS
 62
             7
100
AcDbCircle
 10
491.17861015928997
 20
141.72888543132669
 40
3.49999999999687
100
AcDbArc
 50
-131.29186299994305
 51
-48.70813700005276
  0
ARC
  5
89
100
AcDbEntity
  8
LC-002-002-----0
  6
CONTINUOUS
 62
             7
100
AcDbCircle
 10
493.11611015928997
 20
219.72434643132661
 40
9.99999999999779
100
AcDbArc
 50
37.27579100001159
 51
142.72420899998781
  0
ARC
  5
88
100
AcDbEntity
  8
LC-002-002-----0
  6
CONTINUOUS
 62
             7
100
AcDbCircle
 10
479.24111015928997
 20
128.13682143132669
 40
14.59000000000107
100
AcDbArc
 50
48.70813699999554
 51
117.57846800000846
  0
ARC
  5
87
100
AcDbEntity
  8
LC-002-002-----0
  6
CONTINUOUS
 62
             7
100
AcDbCircle
 10
533.11611015928997
 20
219.72434643132661
 40
9.9999999999977
100
AcDbArc
 50
37.27579100001199
 51
142.72420899998801
  0
ARC
  5
86
100
AcDbEntity
  8
LC-002-002-----0
  6
CONTINUOUS
 62
             7
100
AcDbCircle
 10
513.11611015928997
 20
219.72434643132661
 40
9.9999999999977
100
AcDbArc
 50
37.27579100001199
 51
142.72420899998781
  0
ARC
  5
85
100
AcDbEntity
  8
LC-002-002-----0
  6
CONTINUOUS
 62
             7
100
AcDbCircle
 10
473.11611015928997
 20
219.72434643132661
 40
9.99999999999779
100
AcDbArc
 50
37.27579100001159
 51
142.72420899998781
  0
ARC
  5
84
100
AcDbEntity
  8
LC-009-002-RND-0
  6
CONTINUOUS
 62
             7
100
AcDbCircle
 10
491.17861015928997
 20
142.38794543132661
 40
0.99999999999678
100
AcDbArc
 50
-129.95133399978045
 51
-50.04866600020458
  0
ARC
  5
83
100
AcDbEntity
  8
1
  6
CONTINUOUS
 62
             7
100
AcDbCircle
 10
503.11611015928997
 20
-16.11708524343732
 40
51.99999999999992
100
AcDbArc
 50
-2.84786933517775
 51
-177.15213066482229
  0
LINE
  5
82
100
AcDbEntity
  8
LC-002-002-----0
  6
CONTINUOUS
 62
             7
100
AcDbLine
 10
403.10067952926897
 20
135.39050733896491
 11
406.10067952926897
 21
135.39050733896491
  0
LINE
  5
81
100
AcDbEntity
  8
LC-002-002-----0
  6
CONTINUOUS
 62
             7
100
AcDbLine
 10
407.10067952926897
 20
136.39050733896491
 11
407.10067952926897
 21
139.10206421542509
  0
LINE
  5
80
100
AcDbEntity
  8
LC-002-002-----0
  6
CONTINUOUS
 62
             7
100
AcDbLine
 10
402.10067952926897
 20
139.10206421542509
 11
402.10067952926897
 21
136.39050733896491
  0
LINE
  5
7F
100
AcDbEntity
  8
LC-002-002-----0
  6
CONTINUOUS
 62
             7
100
AcDbLine
 10
406.10067952926897
 20
140.10206421542509
 11
403.10067952926897
 21
140.10206421542509
  0
LINE
  5
7E
100
AcDbEntity
  8
LC-002-002-----0
  6
CONTINUOUS
 62
             7
100
AcDbLine
 10
383.11599952927128
 20
138.63229521542209
 11
383.11599952927128
 21
136.86027533896021
  0
LINE
  5
7D
100
AcDbEntity
  8
LC-002-002-----0
  6
CONTINUOUS
 62
             7
100
AcDbLine
 10
426.08067952926859
 20
138.63229521542209
 11
426.08067952926859
 21
136.86027533896021
  0
LINE
  5
7C
100
AcDbEntity
  8
LC-002-002-----0
  6
CONTINUOUS
 62
             7
100
AcDbLine
 10
580.15131952927027
 20
136.86027533896021
 11
580.15131952927027
 21
138.6322605505772
  0
LINE
  5
7B
100
AcDbEntity
  8
LC-002-002-----0
  6
CONTINUOUS
 62
             7
100
AcDbLine
 10
623.11599952927122
 20
136.86027533896021
 11
623.11599952927122
 21
138.6322605505772
  0
LINE
  5
7A
100
AcDbEntity
  8
LC-002-002-----0
  6
CONTINUOUS
 62
             7
100
AcDbLine
 10
603.13131952926983
 20
140.1020295505802
 11
600.13131952926983
 21
140.1020295505802
  0
LINE
  5
79
100
AcDbEntity
  8
LC-002-002-----0
  6
CONTINUOUS
 62
             7
100
AcDbLine
 10
604.13131952926983
 20
136.39050733896491
 11
604.13131952926983
 21
139.1020295505802
  0
LINE
  5
78
100
AcDbEntity
  8
LC-002-002-----0
  6
CONTINUOUS
 62
             7
100
AcDbLine
 10
599.13131952926983
 20
139.1020295505802
 11
599.13131952926983
 21
136.39050733896491
  0
LINE
  5
77
100
AcDbEntity
  8
LC-002-002-----0
  6
CONTINUOUS
 62
             7
100
AcDbLine
 10
600.13131952926983
 20
135.39050733896491
 11
603.13131952926983
 21
135.39050733896491
  0
LINE
  5
76
100
AcDbEntity
  8
1
  6
PHANTOM
 62
             2
100
AcDbLine
 10
601.63152864265999
 20
99.81080344775165
 11
601.63154078769571
 21
146.91743000219111
  0
LINE
  5
75
100
AcDbEntity
  8
1
  6
PHANTOM
 62
             2
100
AcDbLine
 10
404.6006800918679
 20
144.66712711736881
 11
404.60069183274601
 21
99.12809587123746
  0
LINE
  5
74
100
AcDbEntity
  8
1
  6
PHANTOM
 62
             2
100
AcDbLine
 10
503.11611015928997
 20
124.954588682918
 11
503.11611015928997
 21
-96.30425665539252
  0
LINE
  5
73
100
AcDbEntity
  8
1
  6
PHANTOM
 62
             2
100
AcDbLine
 10
574.34111015928852
 20
-0.00000124342506
 11
431.8911101592879
 21
-0.00000124342506
  0
LINE
  5
72
100
AcDbEntity
  8
LC-002-002-----0
  6
CONTINUOUS
 62
             7
100
AcDbLine
 10
418.37765150041218
 20
103.49217205287979
 11
421.64344192538039
 21
3.17782259488712
  0
LINE
  5
71
100
AcDbEntity
  8
LC-003-100-D03-0
  6
CONTINUOUS
 62
             7
100
AcDbLine
 10
503.11611015928997
 20
103.49217205287979
 11
611.57243115928782
 21
103.49217205287979
  0
LINE
  5
70
100
AcDbEntity
  8
LC-002-002-----0
  6
CONTINUOUS
 62
             7
100
AcDbLine
 10
587.85456881816413
 20
103.49217205287979
 11
584.5340760338679
 21
1.4975786212778
  0
LINE
  5
6F
100
AcDbEntity
  8
LC-002-002-----0
  6
CONTINUOUS
 62
             7
100
AcDbLine
 10
395.11751115928769
 20
103.49217205287979
 11
611.11470915928862
 21
103.49217205287979
  0
LINE
  5
6E
100
AcDbEntity
  8
LC-002-002-----0
  6
CONTINUOUS
 62
             7
100
AcDbLine
 10
418.06617815928831
 20
118.49217205287979
 11
588.09604115928801
 21
118.49217205287979
  0
LINE
  5
6D
100
AcDbEntity
  8
LC-002-002-----0
  6
CONTINUOUS
 62
             7
100
AcDbLine
 10
591.16604115928772
 20
115.49217205287979
 11
591.16604115928772
 21
103.49217205287979
  0
LINE
  5
6C
100
AcDbEntity
  8
LC-003-100-D03-0
  6
CONTINUOUS
 62
             7
100
AcDbLine
 10
611.57243115928782
 20
103.49217205287979
 11
611.57243115928782
 21
96.53642242271206
  0
LINE
  5
6B
100
AcDbEntity
  8
LC-003-100-D03-0
  6
CONTINUOUS
 62
             7
100
AcDbLine
 10
503.11611015928997
 20
103.49217205287979
 11
394.65978915928861
 21
103.49217205287979
  0
LINE
  5
6A
100
AcDbEntity
  8
LC-003-100-D03-0
  6
CONTINUOUS
 62
             7
100
AcDbLine
 10
611.07538115928969
 20
96.03937242270666
 11
587.59566082974766
 21
96.03937242270666
  0
LINE
  5
69
100
AcDbEntity
  8
LC-003-100-D03-0
  6
CONTINUOUS
 62
             7
100
AcDbLine
 10
611.07538115928969
 20
96.03937242270666
 11
586.90627892129692
 21
74.36383214393544
  0
LINE
  5
68
100
AcDbEntity
  8
LC-002-002-----0
  6
CONTINUOUS
 62
             7
100
AcDbLine
 10
593.16604115928772
 20
111.49217205287979
 11
611.11470915928862
 21
111.49217205287979
  0
LINE
  5
67
100
AcDbEntity
  8
LC-002-002-----0
  6
CONTINUOUS
 62
             7
100
AcDbLine
 10
611.61470915928862
 20
103.99217205287979
 11
611.61470915928862
 21
110.99217205287979
  0
LINE
  5
66
100
AcDbEntity
  8
LC-002-002-----0
  6
CONTINUOUS
 62
             7
100
AcDbLine
 10
592.13143015928858
 20
111.78057044073999
 11
592.13143015928858
 21
132.64720648888741
  0
LINE
  5
65
100
AcDbEntity
  8
LC-002-002-----0
  6
CONTINUOUS
 62
             7
100
AcDbLine
 10
611.13163315928819
 20
111.4923390528854
 11
611.13164406728743
 21
132.64662246950289
  0
LINE
  5
64
100
AcDbEntity
  8
LC-002-002-----0
  6
CONTINUOUS
 62
             7
100
AcDbLine
 10
395.10057625130349
 20
132.64659203503439
 11
395.10058715928818
 21
111.4923390528854
  0
LINE
  5
63
100
AcDbEntity
  8
LC-002-002-----0
  6
CONTINUOUS
 62
             7
100
AcDbLine
 10
414.10079015928778
 20
132.64723693793681
 11
414.10079015928778
 21
111.78057044073999
  0
LINE
  5
62
100
AcDbEntity
  8
LC-002-002-----0
  6
CONTINUOUS
 62
             7
100
AcDbLine
 10
394.61751115928769
 20
110.99217205287979
 11
394.61751115928769
 21
103.99217205287979
  0
LINE
  5
61
100
AcDbEntity
  8
LC-002-002-----0
  6
CONTINUOUS
 62
             7
100
AcDbLine
 10
395.11751115928769
 20
111.49217205287979
 11
413.06617915928871
 21
111.49217205287979
  0
LINE
  5
60
100
AcDbEntity
  8
LC-003-100-D03-0
  6
CONTINUOUS
 62
             7
100
AcDbLine
 10
419.32594108398041
 20
74.36383241842822
 11
395.15683915929031
 21
96.03937242270666
  0
LINE
  5
5F
100
AcDbEntity
  8
LC-003-100-D03-0
  6
CONTINUOUS
 62
             7
100
AcDbLine
 10
418.63655940573358
 20
96.03937242270666
 11
395.15683915929031
 21
96.03937242270666
  0
LINE
  5
5E
100
AcDbEntity
  8
LC-003-100-D03-0
  6
CONTINUOUS
 62
             7
100
AcDbLine
 10
394.65978915928861
 20
96.53642242271206
 11
394.65978915928861
 21
103.49217205287979
  0
LINE
  5
5D
100
AcDbEntity
  8
LC-002-002-----0
  6
CONTINUOUS
 62
             7
100
AcDbLine
 10
415.06617915928871
 20
103.49217205287979
 11
415.06617915928871
 21
115.49217205287979
  0
LINE
  5
5C
100
AcDbEntity
  8
LC-009-002-RND-0
  6
CONTINUOUS
 62
             7
100
AcDbLine
 10
556.11611015928997
 20
124.99217243132669
 11
556.11611015928997
 21
119.4921724313264
  0
LINE
  5
5B
100
AcDbEntity
  8
LC-002-002-----0
  6
CONTINUOUS
 62
             7
100
AcDbLine
 10
536.11611015928997
 20
124.99217243132669
 11
536.11611015928997
 21
119.4921724313264
  0
LINE
  5
5A
100
AcDbEntity
  8
LC-002-002-----0
  6
CONTINUOUS
 62
             7
100
AcDbLine
 10
555.61611015928997
 20
125.49217243132669
 11
536.61611015928997
 21
125.49217243132669
  0
LINE
  5
59
100
AcDbEntity
  8
LC-002-002-----0
  6
CONTINUOUS
 62
             7
100
AcDbLine
 10
542.11611015928997
 20
125.8686284313266
 11
539.11611015928997
 21
125.8686284313266
  0
LINE
  5
58
100
AcDbEntity
  8
LC-002-002-----0
  6
CONTINUOUS
 62
             7
100
AcDbLine
 10
453.11611015928997
 20
125.8686284313266
 11
456.11611015928997
 21
125.8686284313266
  0
LINE
  5
57
100
AcDbEntity
  8
LC-009-002-RND-0
  6
CONTINUOUS
 62
             7
100
AcDbLine
 10
450.11611015928997
 20
124.99217243132669
 11
450.11611015928997
 21
119.4921724313264
  0
LINE
  5
56
100
AcDbEntity
  8
LC-002-002-----0
  6
CONTINUOUS
 62
             7
100
AcDbLine
 10
450.61611015928997
 20
125.49217243132669
 11
469.61611015928997
 21
125.49217243132669
  0
LINE
  5
55
100
AcDbEntity
  8
LC-002-002-----0
  6
CONTINUOUS
 62
             7
100
AcDbLine
 10
470.11611015928997
 20
124.99217243132669
 11
470.11611015928997
 21
119.4921724313264
  0
LINE
  5
54
100
AcDbEntity
  8
LC-002-002-----0
  6
CONTINUOUS
 62
             7
100
AcDbLine
 10
553.11611015928997
 20
125.8686284313266
 11
550.11611015928997
 21
125.8686284313266
  0
LINE
  5
53
100
AcDbEntity
  8
LC-002-002-----0
  6
CONTINUOUS
 62
             7
100
AcDbLine
 10
464.11611015928997
 20
125.8686284313266
 11
467.11611015928997
 21
125.8686284313266
  0
LINE
  5
52
100
AcDbEntity
  8
LC-002-002-----0
  6
CONTINUOUS
 62
             7
100
AcDbLine
 10
539.11611015928997
 20
143.03087443132671
 11
539.11611015928997
 21
224.56892843132661
  0
LINE
  5
51
100
AcDbEntity
  8
LC-002-002-----0
  6
CONTINUOUS
 62
             7
100
AcDbLine
 10
467.11611015928997
 20
143.03087443132671
 11
467.11611015928997
 21
224.56892843132661
  0
LINE
  5
50
100
AcDbEntity
  8
LC-002-002-----0
  6
CONTINUOUS
 62
             7
100
AcDbLine
 10
463.56735615929011
 20
224.99217243132671
 11
463.11611015928997
 21
224.99217243132671
  0
LINE
  5
4F
100
AcDbEntity
  8
LC-002-002-----0
  6
CONTINUOUS
 62
             7
100
AcDbLine
 10
483.56735615929011
 20
224.99217243132671
 11
482.66486315929012
 21
224.99217243132671
  0
LINE
  5
4E
100
AcDbEntity
  8
LC-002-002-----0
  6
CONTINUOUS
 62
             7
100
AcDbLine
 10
503.56735615929011
 20
224.99217243132671
 11
502.66486315929012
 21
224.99217243132671
  0
LINE
  5
4D
100
AcDbEntity
  8
LC-002-002-----0
  6
CONTINUOUS
 62
             7
100
AcDbLine
 10
461.11611015928997
 20
205.99217243132671
 11
453.11611015928997
 21
205.99217243132671
  0
LINE
  5
4C
100
AcDbEntity
  8
LC-002-002-----0
  6
CONTINUOUS
 62
             7
100
AcDbLine
 10
543.11611015928997
 20
224.99217243132671
 11
542.66486315929001
 21
224.99217243132671
  0
LINE
  5
4B
100
AcDbEntity
  8
LC-002-002-----0
  6
CONTINUOUS
 62
             7
100
AcDbLine
 10
542.9964171592901
 20
224.99217243132671
 11
542.33565415929002
 21
224.99217243132671
  0
LINE
  5
4A
100
AcDbEntity
  8
LC-002-002-----0
  6
CONTINUOUS
 62
             7
100
AcDbLine
 10
464.11611015928997
 20
224.56892843132661
 11
542.11611015928997
 21
224.56892843132661
  0
LINE
  5
49
100
AcDbEntity
  8
LC-002-002-----0
  6
CONTINUOUS
 62
             7
100
AcDbLine
 10
523.56735615929006
 20
224.99217243132671
 11
522.66486315929001
 21
224.99217243132671
  0
LINE
  5
48
100
AcDbEntity
  8
LC-002-002-----0
  6
CONTINUOUS
 62
             7
100
AcDbLine
 10
539.11611015928997
 20
125.8686284313266
 11
539.11611015928997
 21
132.20529443132651
  0
LINE
  5
47
100
AcDbEntity
  8
LC-002-002-----0
  6
CONTINUOUS
 62
             7
100
AcDbLine
 10
550.11611015928997
 20
205.99217243132671
 11
550.11611015928997
 21
125.49217243132669
  0
LINE
  5
46
100
AcDbEntity
  8
LC-002-002-----0
  6
CONTINUOUS
 62
             7
100
AcDbLine
 10
543.11611015928997
 20
207.99217243132671
 11
543.11611015928997
 21
224.99217243132671
  0
LINE
  5
45
100
AcDbEntity
  8
LC-002-002-----0
  6
CONTINUOUS
 62
             7
100
AcDbLine
 10
463.11611015928997
 20
207.99217243132671
 11
463.11611015928997
 21
224.99217243132671
  0
LINE
  5
44
100
AcDbEntity
  8
LC-002-002-----0
  6
CONTINUOUS
 62
             7
100
AcDbLine
 10
543.11611015928997
 20
224.99217243132671
 11
542.66486315929001
 21
224.99217243132671
  0
LINE
  5
43
100
AcDbEntity
  8
LC-002-002-----0
  6
CONTINUOUS
 62
             7
100
AcDbLine
 10
553.11611015928997
 20
205.99217243132671
 11
545.11611015928997
 21
205.99217243132671
  0
LINE
  5
42
100
AcDbEntity
  8
LC-002-002-----0
  6
CONTINUOUS
 62
             7
100
AcDbLine
 10
551.11611015928997
 20
243.49217243132671
 11
455.11611015928997
 21
243.49217243132671
  0
LINE
  5
41
100
AcDbEntity
  8
LC-002-002-----0
  6
CONTINUOUS
 62
             7
100
AcDbLine
 10
453.11611015928997
 20
125.8686284313266
 11
453.11611015928997
 21
241.49217243132671
  0
LINE
  5
40
100
AcDbEntity
  8
LC-002-002-----0
  6
CONTINUOUS
 62
             7
100
AcDbLine
 10
553.11611015928997
 20
125.8686284313266
 11
553.11611015928997
 21
241.49217243132671
  0
LINE
  5
3F
100
AcDbEntity
  8
LC-002-002-----0
  6
CONTINUOUS
 62
             7
100
AcDbLine
 10
542.11611015928997
 20
224.56892843132661
 11
542.11611015928997
 21
125.49217243132679
  0
LINE
  5
3E
100
AcDbEntity
  8
LC-002-002-----0
  6
CONTINUOUS
 62
             7
100
AcDbLine
 10
456.11611015928997
 20
205.99217243132671
 11
456.11611015928997
 21
125.49217243132669
  0
LINE
  5
3D
100
AcDbEntity
  8
LC-002-002-----0
  6
CONTINUOUS
 62
             7
100
AcDbLine
 10
464.11611015928997
 20
224.56892843132661
 11
464.11611015928997
 21
125.49217243132679
  0
LINE
  5
3C
100
AcDbEntity
  8
LC-002-002-----0
  6
CONTINUOUS
 62
             7
100
AcDbLine
 10
467.11611015928997
 20
125.8686284313266
 11
467.11611015928997
 21
132.20529443132651
  0
LINE
  5
3B
100
AcDbEntity
  8
1
  6
PHANTOM
 62
             2
100
AcDbLine
 10
546.11611015928997
 20
210.3403706942247
 11
546.11611015928997
 21
115.24088557410261
  0
LINE
  5
3A
100
AcDbEntity
  8
1
  6
PHANTOM
 62
             2
100
AcDbLine
 10
460.11611015928997
 20
210.04401298172459
 11
460.11611015928997
 21
117.0086831814796
  0
POINT
  5
39
100
AcDbEntity
  8
1
 62
             3
 60
             1
100
AcDbPoint
 10
1584.5968931592899
 20
871.27461282962179
  0
POINT
  5
38
100
AcDbEntity
  8
1
 62
             3
 60
             1
100
AcDbPoint
 10
1584.5968931592899
 20
1043.019523031305
  0
POINT
  5
37
100
AcDbEntity
  8
1
 62
             3
 60
             1
100
AcDbPoint
 10
1584.5968931592899
 20
699.52970262793463
  0
ENDBLK
  5
E6
100
AcDbEntity
  8
0
100
AcDbBlockEnd
  0
BLOCK
  5
32
100
AcDbEntity
  8
0
100
AcDbBlockBegin
  2
HL_710_1_R_CKSTAUVERSCS__2
 70
             0
 10
1147.7463091592899
 20
306.73820372148981
 30
0.0
  3
HL_710_1_R_CKSTAUVERSCS__2
  1

  0
XLINE
  5
1BD
100
AcDbEntity
  8
1
  6
DOT_CENTER
 62
             3
 60
             1
100
AcDbXline
 10
1661.5968931592899
 20
871.27461283053981
 30
0.0
 11
1.0
 21
0.0
 31
0.0
  0
XLINE
  5
1BC
100
AcDbEntity
  8
1
  6
DOT_CENTER
 62
             3
 60
             1
100
AcDbXline
 10
1661.5968931592899
 20
871.27461283053981
 30
0.0
 11
0.0
 21
1.0
 31
0.0
  0
CIRCLE
  5
1BB
100
AcDbEntity
  8
LC-005-002-----0
  6
CONTINUOUS
 62
             7
100
AcDbCircle
 10
117.773473
 20
228.49233846595379
 40
2.5
  0
ARC
  5
1BA
100
AcDbEntity
  8
LC-005-002-RND-0
  6
CONTINUOUS
 62
             7
100
AcDbCircle
 10
65.71255799999926
 20
-71.50355223895991
 40
5.00000000000051
100
AcDbArc
 50
-179.00000000000355
 51
-90.0
  0
ARC
  5
1B9
100
AcDbEntity
  8
LC-005-002-RND-0
  6
CONTINUOUS
 62
             7
100
AcDbCircle
 10
55.65037099999972
 20
103.99217276104081
 40
0.5
100
AcDbArc
 50
180.0
 51
-90.0
  0
ARC
  5
1B8
100
AcDbEntity
  8
LC-005-002-RND-0
  6
CONTINUOUS
 62
             7
100
AcDbCircle
 10
58.15037099999972
 20
115.49217276104081
 40
3.0
100
AcDbArc
 50
90.0
 51
180.0
  0
ARC
  5
1B7
100
AcDbEntity
  8
LC-005-002-RND-0
  6
CONTINUOUS
 62
             7
100
AcDbCircle
 10
237.15093500000151
 20
115.49217276104081
 40
3.0
100
AcDbArc
 50
0.0
 51
90.0
  0
ARC
  5
1B6
100
AcDbEntity
  8
LC-005-002-RND-0
  6
CONTINUOUS
 62
             7
100
AcDbCircle
 10
239.65093500000151
 20
103.99217276104081
 40
0.5
100
AcDbArc
 50
-90.0
 51
0.0
  0
ARC
  5
1B5
100
AcDbEntity
  8
LC-005-002-RND-0
  6
CONTINUOUS
 62
             7
100
AcDbCircle
 10
91.7298609999998
 20
-72.00330823896098
 40
0.5
100
AcDbArc
 50
90.0
 51
180.0
  0
ARC
  5
1B4
100
AcDbEntity
  8
LC-005-002-RND-0
  6
CONTINUOUS
 62
             7
100
AcDbCircle
 10
90.7298609999998
 20
-76.00355223895991
 40
0.5
100
AcDbArc
 50
-90.0
 51
0.0
  0
ARC
  5
1B3
100
AcDbEntity
  8
LC-005-002-RND-0
  6
CONTINUOUS
 62
             7
100
AcDbCircle
 10
103.4965986846215
 20
96.53937276104165
 40
0.5
100
AcDbArc
 50
-90.0
 51
0.0
  0
ARC
  5
1B2
100
AcDbEntity
  8
LC-005-002-RND-0
  6
CONTINUOUS
 62
             7
100
AcDbCircle
 10
84.49659868462153
 20
96.53937276104165
 40
0.5
100
AcDbArc
 50
180.0
 51
-90.0
  0
ARC
  5
1B1
100
AcDbEntity
  8
LC-005-002-RND-0
  6
CONTINUOUS
 62
             7
100
AcDbCircle
 10
84.49659868462153
 20
102.99217276104081
 40
0.5
100
AcDbArc
 50
90.0
 51
180.0
  0
ARC
  5
1B0
100
AcDbEntity
  8
LC-005-002-RND-0
  6
CONTINUOUS
 62
             7
100
AcDbCircle
 10
103.4965986846215
 20
102.99217276104081
 40
0.5
100
AcDbArc
 50
0.0
 51
90.0
  0
ARC
  5
1AF
100
AcDbEntity
  8
LC-005-002-RND-0
  6
CONTINUOUS
 62
             7
100
AcDbCircle
 10
84.49659868462153
 20
110.99217276104081
 40
0.5
100
AcDbArc
 50
90.0
 51
180.0
  0
ARC
  5
1AE
100
AcDbEntity
  8
LC-005-002-RND-0
  6
CONTINUOUS
 62
             7
100
AcDbCircle
 10
103.4965986846215
 20
110.99217276104081
 40
0.5
100
AcDbArc
 50
0.0
 51
90.0
  0
ARC
  5
1AD
100
AcDbEntity
  8
LC-005-002-RND-0
  6
CONTINUOUS
 62
             7
100
AcDbCircle
 10
84.49659868462153
 20
103.99217276104081
 40
0.5
100
AcDbArc
 50
180.0
 51
-90.0
  0
ARC
  5
1AC
100
AcDbEntity
  8
LC-005-002-RND-0
  6
CONTINUOUS
 62
             7
100
AcDbCircle
 10
103.4965986846215
 20
103.99217276104081
 40
0.5
100
AcDbArc
 50
-90.0
 51
0.0
  0
ARC
  5
1AB
100
AcDbEntity
  8
LC-004-002-----0
  6
CONTINUOUS
 62
             7
100
AcDbCircle
 10
43.26325999999972
 20
60.94644576104014
 40
1.5
100
AcDbArc
 50
0.0
 51
180.0
  0
ARC
  5
1AA
100
AcDbEntity
  8
LC-004-002-----0
  6
CONTINUOUS
 62
             7
100
AcDbCircle
 10
43.26326600000175
 20
-60.94645023896106
 40
1.50000000000001
100
AcDbArc
 50
-179.99999399996119
 51
0.00000600003909
  0
ARC
  5
1A9
100
AcDbEntity
  8
LC-008-100-D03-0
  6
CONTINUOUS
 62
             7
100
AcDbCircle
 10
8.47050099999979
 20
-59.85631723895955
 40
4.97050099999979
100
AcDbArc
 50
180.0
 51
-92.99999499997743
  0
ARC
  5
1A8
100
AcDbEntity
  8
LC-008-100-D03-0
  6
CONTINUOUS
 62
             7
100
AcDbCircle
 10
0.49705000000176
 20
-58.79844323896128
 40
0.49705000000176
100
AcDbArc
 50
180.0
 51
-103.68922100010994
  0
ARC
  5
1A7
100
AcDbEntity
  8
LC-008-100-D03-0
  6
CONTINUOUS
 62
             7
100
AcDbCircle
 10
0.49705000000176
 20
58.79133876103782
 40
0.49705000000206
100
AcDbArc
 50
94.00763500011281
 51
180.0
  0
ARC
  5
1A6
100
AcDbEntity
  8
LC-008-100-D03-0
  6
CONTINUOUS
 62
             7
100
AcDbCircle
 10
8.47050099999979
 20
59.84921376104006
 40
4.97050099999768
100
AcDbArc
 50
92.99999499997963
 51
180.0
  0
ARC
  5
1A5
100
AcDbEntity
  8
LC-002-002-----0
  6
CONTINUOUS
 62
             7
100
AcDbCircle
 10
95.49684924010548
 20
136.39050767338901
 40
1.00000000000051
100
AcDbArc
 50
-90.00005799991205
 51
0.0
  0
ARC
  5
1A4
100
AcDbEntity
  8
LC-002-002-----0
  6
CONTINUOUS
 62
             7
100
AcDbCircle
 10
92.49684924010548
 20
136.39050767338901
 40
1.0
100
AcDbArc
 50
180.0
 51
-90.00005799991205
  0
ARC
  5
1A3
100
AcDbEntity
  8
LC-002-002-----0
  6
CONTINUOUS
 62
             7
100
AcDbCircle
 10
92.49684924010548
 20
139.10202965330879
 40
1.0
100
AcDbArc
 50
90.0
 51
180.0
  0
ARC
  5
1A2
100
AcDbEntity
  8
LC-002-002-----0
  6
CONTINUOUS
 62
             7
100
AcDbCircle
 10
95.49684924010548
 20
139.10202965330879
 40
1.00000000000352
100
AcDbArc
 50
0.00015200005373
 51
90.0
  0
ARC
  5
1A1
100
AcDbEntity
  8
LC-002-002-----0
  6
CONTINUOUS
 62
             7
100
AcDbCircle
 10
98.49684924010548
 20
138.46868165330571
 40
1.9999999999988
100
AcDbArc
 50
100.3398910000404
 51
180.0
  0
ARC
  5
1A0
100
AcDbEntity
  8
LC-002-002-----0
  6
CONTINUOUS
 62
             7
100
AcDbCircle
 10
74.51216924010772
 20
136.86027567338439
 40
2.0
100
AcDbArc
 50
180.0
 51
-106.72685999991744
  0
ARC
  5
19F
100
AcDbEntity
  8
LC-002-002-----0
  6
CONTINUOUS
 62
             7
100
AcDbCircle
 10
93.99450924010638
 20
201.6966051554727
 40
69.7001561908813
100
AcDbArc
 50
-106.64675155019384
 51
-73.275064915101
  0
ARC
  5
19E
100
AcDbEntity
  8
LC-002-002-----0
  6
CONTINUOUS
 62
             7
100
AcDbCircle
 10
74.51195224010702
 20
137.0240166733883
 40
2.00000000000042
100
AcDbArc
 50
-179.99996299987478
 51
-100.33991199995982
  0
ARC
  5
19D
100
AcDbEntity
  8
LC-002-002-----0
  6
CONTINUOUS
 62
             7
100
AcDbCircle
 10
74.51216924010772
 20
138.63226065330579
 40
2.00000000000281
100
AcDbArc
 50
106.72680100014976
 51
180.0
  0
ARC
  5
19C
100
AcDbEntity
  8
LC-002-002-----0
  6
CONTINUOUS
 62
             7
100
AcDbCircle
 10
93.99450924010638
 20
73.80442790908177
 40
69.69201988818841
100
AcDbArc
 50
73.27321753473431
 51
106.7268005347386
  0
ARC
  5
19B
100
AcDbEntity
  8
LC-002-002-----0
  6
CONTINUOUS
 62
             7
100
AcDbCircle
 10
74.51195124010668
 20
138.4688436533097
 40
1.99999999999822
100
AcDbArc
 50
100.34000299989556
 51
-179.99996299987478
  0
ARC
  5
19A
100
AcDbEntity
  8
LC-002-002-----0
  6
CONTINUOUS
 62
             7
100
AcDbCircle
 10
82.00426724010653
 20
178.08914458373599
 40
43.74301730391275
100
AcDbArc
 50
-100.33986011731037
 51
-79.65992711731118
  0
ARC
  5
199
100
AcDbEntity
  8
LC-002-002-----0
  6
CONTINUOUS
 62
             7
100
AcDbCircle
 10
89.49663224010477
 20
137.02402567339141
 40
2.00000000000017
100
AcDbArc
 50
-79.6599950000564
 51
0.00003699991269
  0
ARC
  5
198
100
AcDbEntity
  8
LC-002-002-----0
  6
CONTINUOUS
 62
             7
100
AcDbCircle
 10
89.49663124010807
 20
138.46885265330539
 40
2.00000000000042
100
AcDbArc
 50
0.00003700012521
 51
79.6601650001105
  0
ARC
  5
197
100
AcDbEntity
  8
LC-002-002-----0
  6
CONTINUOUS
 62
             7
100
AcDbCircle
 10
82.00431624010493
 20
97.40370207085556
 40
43.74303960783368
100
AcDbArc
 50
79.660162084075
 51
100.33992508408166
  0
ARC
  5
196
100
AcDbEntity
  8
LC-002-002-----0
  6
CONTINUOUS
 62
             7
100
AcDbCircle
 10
113.476849240105
 20
136.86027567338439
 40
2.00000000000096
100
AcDbArc
 50
-73.2730469998352
 51
0.0
  0
ARC
  5
195
100
AcDbEntity
  8
LC-002-002-----0
  6
CONTINUOUS
 62
             7
100
AcDbCircle
 10
113.476849240105
 20
138.63226065330579
 40
2.0
100
AcDbArc
 50
0.0
 51
73.27321800015129
  0
ARC
  5
194
100
AcDbEntity
  8
LC-002-002-----0
  6
CONTINUOUS
 62
             7
100
AcDbCircle
 10
113.476849240105
 20
137.0238556733847
 40
2.00000000000041
100
AcDbArc
 50
-79.65995700000688
 51
0.0
  0
ARC
  5
193
100
AcDbEntity
  8
LC-002-002-----0
  6
CONTINUOUS
 62
             7
100
AcDbCircle
 10
105.98684924010711
 20
178.0761655998312
 40
43.72999239886961
100
AcDbArc
 50
-100.33994718957662
 51
-79.660107189569
  0
ARC
  5
192
100
AcDbEntity
  8
LC-002-002-----0
  6
CONTINUOUS
 62
             7
100
AcDbCircle
 10
113.476849240105
 20
138.46868165330571
 40
2.0
100
AcDbArc
 50
0.0
 51
79.66012800003463
  0
ARC
  5
191
100
AcDbEntity
  8
LC-002-002-----0
  6
CONTINUOUS
 62
             7
100
AcDbCircle
 10
105.98684924010711
 20
97.4163640284159
 40
43.72999997229524
100
AcDbArc
 50
79.66010899999178
 51
100.33989100000836
  0
ARC
  5
190
100
AcDbEntity
  8
LC-002-002-----0
  6
CONTINUOUS
 62
             7
100
AcDbCircle
 10
98.49684924010548
 20
137.0238556733847
 40
2.0
100
AcDbArc
 50
180.0
 51
-100.33994900003532
  0
ARC
  5
18F
100
AcDbEntity
  8
LC-002-002-----0
  6
CONTINUOUS
 62
             7
100
AcDbCircle
 10
206.49684884607851
 20
137.0238556733847
 40
2.0
100
AcDbArc
 50
180.0
 51
-100.33994900003613
  0
ARC
  5
18E
100
AcDbEntity
  8
LC-002-002-----0
  6
CONTINUOUS
 62
             7
100
AcDbCircle
 10
213.98684884608011
 20
97.4163640284159
 40
43.72999997229524
100
AcDbArc
 50
79.66010899999179
 51
100.33989100000836
  0
ARC
  5
18D
100
AcDbEntity
  8
LC-002-002-----0
  6
CONTINUOUS
 62
             7
100
AcDbCircle
 10
221.47684884607801
 20
138.46868165330571
 40
2.0
100
AcDbArc
 50
0.0
 51
79.66012800003544
  0
ARC
  5
18C
100
AcDbEntity
  8
LC-002-002-----0
  6
CONTINUOUS
 62
             7
100
AcDbCircle
 10
213.98684884608011
 20
178.0761655998312
 40
43.72999239886959
100
AcDbArc
 50
-100.33994718957655
 51
-79.66010718956903
  0
ARC
  5
18B
100
AcDbEntity
  8
LC-002-002-----0
  6
CONTINUOUS
 62
             7
100
AcDbCircle
 10
221.47684884607801
 20
137.0238556733847
 40
2.00000000000041
100
AcDbArc
 50
-79.65995700000768
 51
0.0
  0
ARC
  5
18A
100
AcDbEntity
  8
LC-002-002-----0
  6
CONTINUOUS
 62
             7
100
AcDbCircle
 10
221.47684884607801
 20
138.63226065330579
 40
2.0
100
AcDbArc
 50
0.0
 51
73.27321800015207
  0
ARC
  5
189
100
AcDbEntity
  8
LC-002-002-----0
  6
CONTINUOUS
 62
             7
100
AcDbCircle
 10
221.47684884607801
 20
136.86027567338439
 40
2.00000000000095
100
AcDbArc
 50
-73.2730469998356
 51
0.0
  0
ARC
  5
188
100
AcDbEntity
  8
LC-002-002-----0
  6
CONTINUOUS
 62
             7
100
AcDbCircle
 10
190.0043158460779
 20
97.40370207085556
 40
43.74303960783369
100
AcDbArc
 50
79.66016208407493
 51
100.33992508408154
  0
ARC
  5
187
100
AcDbEntity
  8
LC-002-002-----0
  6
CONTINUOUS
 62
             7
100
AcDbCircle
 10
197.4966308460811
 20
138.46885265330539
 40
2.00000000000042
100
AcDbArc
 50
0.00003700012521
 51
79.6601650001105
  0
ARC
  5
186
100
AcDbEntity
  8
LC-002-002-----0
  6
CONTINUOUS
 62
             7
100
AcDbCircle
 10
197.4966318460778
 20
137.02402567339141
 40
2.00000000000016
100
AcDbArc
 50
-79.65999500005719
 51
0.00003699991269
  0
ARC
  5
185
100
AcDbEntity
  8
LC-002-002-----0
  6
CONTINUOUS
 62
             7
100
AcDbCircle
 10
190.0042668460795
 20
178.08914458373599
 40
43.74301730391275
100
AcDbArc
 50
-100.33986011731037
 51
-79.65992711731123
  0
ARC
  5
184
100
AcDbEntity
  8
LC-002-002-----0
  6
CONTINUOUS
 62
             7
100
AcDbCircle
 10
182.51195084607971
 20
138.4688436533097
 40
1.99999999999822
100
AcDbArc
 50
100.34000299989556
 51
-179.99996299987478
  0
ARC
  5
183
100
AcDbEntity
  8
LC-002-002-----0
  6
CONTINUOUS
 62
             7
100
AcDbCircle
 10
201.99450884607941
 20
73.80442790908177
 40
69.6920198881884
100
AcDbArc
 50
73.27321753473436
 51
106.72680053473863
  0
ARC
  5
182
100
AcDbEntity
  8
LC-002-002-----0
  6
CONTINUOUS
 62
             7
100
AcDbCircle
 10
182.5121688460807
 20
138.63226065330579
 40
2.0000000000028
100
AcDbArc
 50
106.726801000149
 51
180.0
  0
ARC
  5
181
100
AcDbEntity
  8
LC-002-002-----0
  6
CONTINUOUS
 62
             7
100
AcDbCircle
 10
182.51195184608
 20
137.0240166733883
 40
2.00000000000042
100
AcDbArc
 50
-179.99996299987478
 51
-100.33991199995982
  0
ARC
  5
180
100
AcDbEntity
  8
LC-002-002-----0
  6
CONTINUOUS
 62
             7
100
AcDbCircle
 10
201.99450884607941
 20
201.6966051554727
 40
69.70015619088132
100
AcDbArc
 50
-106.64675155019387
 51
-73.275064915101
  0
ARC
  5
17F
100
AcDbEntity
  8
LC-002-002-----0
  6
CONTINUOUS
 62
             7
100
AcDbCircle
 10
182.5121688460807
 20
136.86027567338439
 40
2.0
100
AcDbArc
 50
180.0
 51
-106.72685999991666
  0
ARC
  5
17E
100
AcDbEntity
  8
LC-002-002-----0
  6
CONTINUOUS
 62
             7
100
AcDbCircle
 10
206.49684884607851
 20
138.46868165330571
 40
1.99999999999879
100
AcDbArc
 50
100.33989100003961
 51
180.0
  0
ARC
  5
17D
100
AcDbEntity
  8
LC-002-002-----0
  6
CONTINUOUS
 62
             7
100
AcDbCircle
 10
203.49684884607851
 20
139.10202965330879
 40
1.00000000000352
100
AcDbArc
 50
0.00015200005373
 51
90.0
  0
ARC
  5
17C
100
AcDbEntity
  8
LC-002-002-----0
  6
CONTINUOUS
 62
             7
100
AcDbCircle
 10
200.49684884607851
 20
139.10202965330879
 40
1.0
100
AcDbArc
 50
90.0
 51
180.0
  0
ARC
  5
17B
100
AcDbEntity
  8
LC-002-002-----0
  6
CONTINUOUS
 62
             7
100
AcDbCircle
 10
200.49684884607851
 20
136.39050767338901
 40
1.0
100
AcDbArc
 50
180.0
 51
-90.00005799991041
  0
ARC
  5
17A
100
AcDbEntity
  8
LC-002-002-----0
  6
CONTINUOUS
 62
             7
100
AcDbCircle
 10
203.49684884607851
 20
136.39050767338901
 40
1.00000000000051
100
AcDbArc
 50
-90.00005799991041
 51
0.0
  0
ARC
  5
179
100
AcDbEntity
  8
LC-005-002-RND-0
  6
CONTINUOUS
 62
             7
100
AcDbCircle
 10
211.4965982905909
 20
103.99217276104081
 40
0.5
100
AcDbArc
 50
-90.0
 51
0.0
  0
ARC
  5
178
100
AcDbEntity
  8
LC-005-002-RND-0
  6
CONTINUOUS
 62
             7
100
AcDbCircle
 10
192.4965982905909
 20
103.99217276104081
 40
0.5
100
AcDbArc
 50
180.0
 51
-90.0
  0
ARC
  5
177
100
AcDbEntity
  8
LC-005-002-RND-0
  6
CONTINUOUS
 62
             7
100
AcDbCircle
 10
211.4965982905909
 20
110.99217276104081
 40
0.5
100
AcDbArc
 50
0.0
 51
90.0
  0
ARC
  5
176
100
AcDbEntity
  8
LC-005-002-RND-0
  6
CONTINUOUS
 62
             7
100
AcDbCircle
 10
192.4965982905909
 20
110.99217276104081
 40
0.5
100
AcDbArc
 50
90.0
 51
180.0
  0
ARC
  5
175
100
AcDbEntity
  8
LC-005-002-RND-0
  6
CONTINUOUS
 62
             7
100
AcDbCircle
 10
211.4965982905909
 20
102.99217276104081
 40
0.5
100
AcDbArc
 50
0.0
 51
90.0
  0
ARC
  5
174
100
AcDbEntity
  8
LC-005-002-RND-0
  6
CONTINUOUS
 62
             7
100
AcDbCircle
 10
192.4965982905909
 20
102.99217276104081
 40
0.5
100
AcDbArc
 50
90.0
 51
180.0
  0
ARC
  5
173
100
AcDbEntity
  8
LC-005-002-RND-0
  6
CONTINUOUS
 62
             7
100
AcDbCircle
 10
192.4965982905909
 20
96.53937276104165
 40
0.5
100
AcDbArc
 50
180.0
 51
-90.0
  0
ARC
  5
172
100
AcDbEntity
  8
LC-005-002-RND-0
  6
CONTINUOUS
 62
             7
100
AcDbCircle
 10
211.4965982905909
 20
96.53937276104165
 40
0.5
100
AcDbArc
 50
-90.0
 51
0.0
  0
ARC
  5
171
100
AcDbEntity
  8
LC-005-002-----0
  6
CONTINUOUS
 62
             7
100
AcDbCircle
 10
93.27347300000002
 20
240.49233946595371
 40
3.0
100
AcDbArc
 50
90.0
 51
179.99984799999243
  0
ARC
  5
170
100
AcDbEntity
  8
LC-005-002-----0
  6
CONTINUOUS
 62
             7
100
AcDbCircle
 10
111.773473
 20
240.49233946595371
 40
3.0
100
AcDbArc
 50
0.0
 51
90.0
  0
ARC
  5
16F
100
AcDbEntity
  8
LC-005-002-----0
  6
CONTINUOUS
 62
             7
100
AcDbCircle
 10
102.273473
 20
222.99233846595379
 40
2.0
100
AcDbArc
 50
90.0
 51
179.99984800000325
  0
ARC
  5
16E
100
AcDbEntity
  8
LC-005-002-----0
  6
CONTINUOUS
 62
             7
100
AcDbCircle
 10
98.27347300000002
 20
207.99233846595379
 40
2.00000000000012
100
AcDbArc
 50
-89.99994199999514
 51
0.0
  0
ARC
  5
16D
100
AcDbEntity
  8
LC-005-002-----0
  6
CONTINUOUS
 62
             7
100
AcDbCircle
 10
92.27347300000002
 20
207.99233846595379
 40
1.99999999999999
100
AcDbArc
 50
179.99984800000325
 51
-90.0
  0
ARC
  5
16C
100
AcDbEntity
  8
LC-005-002-----0
  6
CONTINUOUS
 62
             7
100
AcDbCircle
 10
117.773473
 20
228.49233846595379
 40
3.00000000000003
100
AcDbArc
 50
-59.99988300000049
 51
179.99988799998994
  0
ARC
  5
16B
100
AcDbEntity
  8
LC-005-002-----0
  6
CONTINUOUS
 62
             7
100
AcDbCircle
 10
117.773473
 20
236.49233846595351
 40
3.0
100
AcDbArc
 50
180.0
 51
-89.99994199999595
  0
ARC
  5
16A
100
AcDbEntity
  8
LC-005-002-----0
  6
CONTINUOUS
 62
             7
100
AcDbCircle
 10
117.773473
 20
220.49233946595371
 40
3.0
100
AcDbArc
 50
90.0
 51
180.0
  0
ARC
  5
169
100
AcDbEntity
  8
LC-005-002-----0
  6
CONTINUOUS
 62
             7
100
AcDbCircle
 10
117.77347125467099
 20
228.4923384659526
 40
4.99999999999911
100
AcDbArc
 50
-89.99998000000288
 51
90.00002000000625
  0
ARC
  5
168
100
AcDbEntity
  8
LC-007-002-RND-0
  6
CONTINUOUS
 62
             7
100
AcDbCircle
 10
117.773473
 20
124.99233946595371
 40
0.5
100
AcDbArc
 50
0.0
 51
90.0
  0
ARC
  5
167
100
AcDbEntity
  8
LC-007-002-RND-0
  6
CONTINUOUS
 62
             7
100
AcDbCircle
 10
119.273473
 20
119.49233946595371
 40
1.0
100
AcDbArc
 50
180.0
 51
-90.0
  0
LINE
  5
166
100
AcDbEntity
  8
LC-004-002-----0
  6
CONTINUOUS
 62
             7
100
AcDbLine
 10
297.49704099999872
 20
38.49772676104016
 11
236.5099100000007
 21
38.49612976103794
  0
LINE
  5
165
100
AcDbEntity
  8
LC-004-002-----0
  6
CONTINUOUS
 62
             7
100
AcDbLine
 10
297.49704099999872
 20
38.49772676104016
 11
297.49704099999872
 21
-71.5031232389602
  0
LINE
  5
164
100
AcDbEntity
  8
LC-004-002-----0
  6
CONTINUOUS
 62
             7
100
AcDbLine
 10
301.9967570000008
 20
37.2920317610396
 11
301.9967570000008
 21
-70.22493223895896
  0
LINE
  5
163
100
AcDbEntity
  8
LC-004-002-----0
  6
CONTINUOUS
 62
             7
100
AcDbLine
 10
297.49704099999872
 20
38.49772676104016
 11
301.9967570000008
 21
37.2920317610396
  0
LINE
  5
162
100
AcDbEntity
  8
LC-004-002-----0
  6
CONTINUOUS
 62
             7
100
AcDbLine
 10
297.49704199999911
 20
-71.5031232389602
 11
301.9967570000008
 21
-70.22493223895896
  0
LINE
  5
161
100
AcDbEntity
  8
LC-004-002-----0
  6
CONTINUOUS
 62
             7
100
AcDbLine
 10
234.59630299999839
 20
-71.50330823896098
 11
297.49704199999911
 21
-71.5031232389602
  0
LINE
  5
160
100
AcDbEntity
  8
LC-004-002-----0
  6
CONTINUOUS
 62
             7
100
AcDbLine
 10
60.71275500000047
 20
-71.59082423896058
 11
57.6479419999996
 21
103.49217276104081
  0
LINE
  5
15F
100
AcDbEntity
  8
LC-004-002-----0
  6
CONTINUOUS
 62
             7
100
AcDbLine
 10
92.49305768461967
 20
96.03937276104165
 11
92.49305768461967
 21
74.86383312658921
  0
LINE
  5
15E
100
AcDbEntity
  8
LC-004-002-----0
  6
CONTINUOUS
 62
             7
100
AcDbLine
 10
84.49659868462153
 20
96.03937276104165
 11
103.4965986846215
 21
96.03937276104165
  0
LINE
  5
15D
100
AcDbEntity
  8
LC-004-002-----0
  6
CONTINUOUS
 62
             7
100
AcDbLine
 10
83.99659868462153
 20
102.99217276104081
 11
83.99659868462153
 21
96.53937276104165
  0
LINE
  5
15C
100
AcDbEntity
  8
LC-004-002-----0
  6
CONTINUOUS
 62
             7
100
AcDbLine
 10
103.9965986846215
 20
96.53937276104165
 11
103.9965986846215
 21
102.99217276104081
  0
LINE
  5
15B
100
AcDbEntity
  8
LC-004-002-----0
  6
CONTINUOUS
 62
             7
100
AcDbLine
 10
55.65037099999972
 20
103.49217276104081
 11
239.65093500000151
 21
103.49217276104081
  0
LINE
  5
15A
100
AcDbEntity
  8
LC-004-002-----0
  6
CONTINUOUS
 62
             7
100
AcDbLine
 10
103.4965986846215
 20
111.49216576103839
 11
103.4965986846215
 21
132.64718756762059
  0
LINE
  5
159
100
AcDbEntity
  8
LC-004-002-----0
  6
CONTINUOUS
 62
             7
100
AcDbLine
 10
84.49692268462208
 20
111.4921787610392
 11
103.4965986846215
 21
111.49216576103839
  0
LINE
  5
158
100
AcDbEntity
  8
LC-004-002-----0
  6
CONTINUOUS
 62
             7
100
AcDbLine
 10
84.49690968462132
 20
111.4921787610392
 11
84.49692291072246
 21
132.64656803058
  0
LINE
  5
157
100
AcDbEntity
  8
LC-004-002-----0
  6
CONTINUOUS
 62
             7
100
AcDbLine
 10
58.15037099999972
 20
118.49217276104081
 11
84.49691468461937
 21
118.49217276104081
  0
LINE
  5
156
100
AcDbEntity
  8
LC-004-002-----0
  6
CONTINUOUS
 62
             7
100
AcDbLine
 10
103.4965986846215
 20
118.49217276104081
 11
192.4969142951399
 21
118.49217276104081
  0
LINE
  5
155
100
AcDbEntity
  8
LC-004-002-----0
  6
CONTINUOUS
 62
             7
100
AcDbLine
 10
211.49659829514201
 20
118.49217276104081
 11
237.0809350000018
 21
118.49217276104081
  0
LINE
  5
154
100
AcDbEntity
  8
LC-004-002-----0
  6
CONTINUOUS
 62
             7
100
AcDbLine
 10
55.15037099999972
 20
115.49217276104081
 11
55.15037099999972
 21
103.99217276104081
  0
LINE
  5
153
100
AcDbEntity
  8
LC-004-002-----0
  6
CONTINUOUS
 62
             7
100
AcDbLine
 10
240.15093500000151
 20
115.49217276104081
 11
240.15093500000151
 21
103.99217276104081
  0
LINE
  5
152
100
AcDbEntity
  8
LC-004-002-----0
  6
CONTINUOUS
 62
             7
100
AcDbLine
 10
95.49305768461967
 20
96.03937276104165
 11
95.49305768461967
 21
74.86383312658921
  0
LINE
  5
151
100
AcDbEntity
  8
LC-004-002-----0
  6
CONTINUOUS
 62
             7
100
AcDbLine
 10
92.49305768461967
 20
74.86383312658921
 11
95.49305768461967
 21
74.86383312658921
  0
LINE
  5
150
100
AcDbEntity
  8
LC-004-002-----0
  6
CONTINUOUS
 62
             7
100
AcDbLine
 10
91.7298609999998
 20
-71.50330823896098
 11
234.59630299999839
 21
-71.50330823896098
  0
LINE
  5
14F
100
AcDbEntity
  8
LC-004-002-----0
  6
CONTINUOUS
 62
             7
100
AcDbLine
 10
65.71255799999926
 20
-76.50355223895991
 11
90.7298609999998
 21
-76.50355223895991
  0
LINE
  5
14E
100
AcDbEntity
  8
LC-004-002-----0
  6
CONTINUOUS
 62
             7
100
AcDbLine
 10
91.2298609999998
 20
5.86368676103933
 11
91.2298609999998
 21
-76.00355223895991
  0
LINE
  5
14D
100
AcDbEntity
  8
LC-004-002-----0
  6
CONTINUOUS
 62
             7
100
AcDbLine
 10
234.59630299999839
 20
-71.50330823896098
 11
237.64931399999841
 21
103.49217276104081
  0
LINE
  5
14C
100
AcDbEntity
  8
LC-004-002-----0
  6
CONTINUOUS
 62
             7
100
AcDbLine
 10
84.49659868462153
 20
111.49217276104081
 11
103.4965986846215
 21
111.49217276104081
  0
LINE
  5
14B
100
AcDbEntity
  8
LC-004-002-----0
  6
CONTINUOUS
 62
             7
100
AcDbLine
 10
103.9965986846215
 20
103.99217276104081
 11
103.9965986846215
 21
110.99217276104081
  0
LINE
  5
14A
100
AcDbEntity
  8
LC-004-002-----0
  6
CONTINUOUS
 62
             7
100
AcDbLine
 10
83.99659868462153
 20
103.99217276104081
 11
83.99659868462153
 21
110.99217276104081
  0
LINE
  5
149
100
AcDbEntity
  8
LC-004-002-----0
  6
CONTINUOUS
 62
             7
100
AcDbLine
 10
0.37942000000112
 20
-59.28137423895993
 11
3.50000599999839
 21
-59.50000423895932
  0
LINE
  5
148
100
AcDbEntity
  8
LC-004-002-----0
  6
CONTINUOUS
 62
             7
100
AcDbLine
 10
0.46231099999932
 20
59.28717276103902
 11
3.5
 21
59.49999576104068
  0
LINE
  5
147
100
AcDbEntity
  8
LC-008-100-D03-0
  6
CONTINUOUS
 62
             7
100
AcDbLine
 10
41.76325999999972
 20
59.44644576104014
 11
23.76325999999972
 21
59.44644676104048
  0
LINE
  5
146
100
AcDbEntity
  8
LC-004-002-----0
  6
CONTINUOUS
 62
             7
100
AcDbLine
 10
41.76325999999972
 20
59.44644676104048
 11
41.76325999999972
 21
60.94644576104014
  0
LINE
  5
145
100
AcDbEntity
  8
LC-004-002-----0
  6
CONTINUOUS
 62
             7
100
AcDbLine
 10
44.76325999999972
 20
59.44644676104048
 11
44.76325999999972
 21
60.94644576104014
  0
LINE
  5
144
100
AcDbEntity
  8
LC-004-002-----0
  6
CONTINUOUS
 62
             7
100
AcDbLine
 10
41.76326600000175
 20
-59.4464512389614
 11
41.76326600000175
 21
-60.9464512389614
  0
LINE
  5
143
100
AcDbEntity
  8
LC-004-002-----0
  6
CONTINUOUS
 62
             7
100
AcDbLine
 10
44.76326600000175
 20
-59.4464512389614
 11
44.76326600000175
 21
-60.94645023896106
  0
LINE
  5
142
100
AcDbEntity
  8
LC-008-100-D03-0
  6
CONTINUOUS
 62
             7
100
AcDbLine
 10
41.76326600000175
 20
-59.44644923896072
 11
23.76325999999972
 21
-59.44644923896072
  0
LINE
  5
141
100
AcDbEntity
  8
LC-004-002-----0
  6
CONTINUOUS
 62
             7
100
AcDbLine
 10
60.96263499999986
 20
-72.91901623896143
 11
21.31348699999944
 21
-63.69668223895957
  0
LINE
  5
140
100
AcDbEntity
  8
LC-008-100-D03-0
  6
CONTINUOUS
 62
             7
100
AcDbLine
 10
20.29915800000163
 20
-65.45355223896064
 11
23.76325999999972
 21
-59.4535512389603
  0
LINE
  5
13F
100
AcDbEntity
  8
LC-008-100-D03-0
  6
CONTINUOUS
 62
             7
100
AcDbLine
 10
20.29915800000163
 20
-65.45355223896064
 11
8.210364999999
 21
-64.82000623895971
  0
LINE
  5
13E
100
AcDbEntity
  8
LC-008-100-D03-0
  6
CONTINUOUS
 62
             7
100
AcDbLine
 10
3.5
 20
-59.85631723895955
 11
3.5
 21
-59.50000423895932
  0
LINE
  5
13D
100
AcDbEntity
  8
LC-008-100-D03-0
  6
CONTINUOUS
 62
             7
100
AcDbLine
 10
20.29915800000163
 20
65.44644776104082
 11
8.20707000000039
 21
64.81272876103952
  0
LINE
  5
13C
100
AcDbEntity
  8
LC-008-100-D03-0
  6
CONTINUOUS
 62
             7
100
AcDbLine
 10
20.29915800000163
 20
65.44644776104082
 11
23.76325999999972
 21
59.44644676104048
  0
LINE
  5
13B
100
AcDbEntity
  8
LC-008-100-D03-0
  6
CONTINUOUS
 62
             7
100
AcDbLine
 10
0.0
 20
58.79133876103782
 11
0.0
 21
56.19410276104003
  0
LINE
  5
13A
100
AcDbEntity
  8
LC-008-100-D03-0
  6
CONTINUOUS
 62
             7
100
AcDbLine
 10
3.5
 20
59.84921376104006
 11
3.5
 21
59.49999576104068
  0
LINE
  5
139
100
AcDbEntity
  8
LC-008-100-D03-0
  6
CONTINUOUS
 62
             7
100
AcDbLine
 10
60.72747000000163
 20
-59.44644923896072
 11
44.76326600000175
 21
-59.44644923896072
  0
LINE
  5
138
100
AcDbEntity
  8
LC-008-100-D03-0
  6
CONTINUOUS
 62
             7
100
AcDbLine
 10
58.42549100000178
 20
59.4464447610398
 11
44.76325999999972
 21
59.44644576104014
  0
LINE
  5
137
100
AcDbEntity
  8
LC-008-100-D03-0
  6
CONTINUOUS
 62
             7
100
AcDbLine
 10
0.0
 20
56.19410276104003
 11
0.0
 21
-58.79844323896128
  0
LINE
  5
136
100
AcDbEntity
  8
LC-009-005-----0
  6
CONTINUOUS
 62
             2
100
AcDbLine
 10
20.09345200000098
 20
-65.44277223896012
 11
20.59488399999827
 21
-64.94133923895885
  0
LINE
  5
135
100
AcDbEntity
  8
LC-004-002-----0
  6
CONTINUOUS
 62
             7
100
AcDbLine
 10
3.5
 20
59.49999576104068
 11
3.5
 21
-59.85631723895955
  0
LINE
  5
134
100
AcDbEntity
  8
LC-004-002-----0
  6
CONTINUOUS
 62
             7
100
AcDbLine
 10
20.29915800000163
 20
65.44644776104082
 11
20.29915800000163
 21
-65.44277223896012
  0
LINE
  5
133
100
AcDbEntity
  8
LC-004-002-----0
  6
CONTINUOUS
 62
             7
100
AcDbLine
 10
41.76326600000175
 20
-59.44644923896072
 11
41.76326600000175
 21
59.44644576104014
  0
LINE
  5
132
100
AcDbEntity
  8
LC-004-002-----0
  6
CONTINUOUS
 62
             7
100
AcDbLine
 10
44.76326600000175
 20
-59.44644923896072
 11
44.76326600000175
 21
59.44644576104014
  0
LINE
  5
131
100
AcDbEntity
  8
1
  6
CONTINUOUS
 62
             7
100
AcDbLine
 10
23.76325999999972
 20
-59.4535512389603
 11
23.76325999999972
 21
59.44644676104048
  0
LINE
  5
130
100
AcDbEntity
  8
1
  6
DOT_CENTER
 62
             2
100
AcDbLine
 10
-6.0
 20
-55.00355223895991
 11
-3.0
 21
-55.00355223895991
  0
LINE
  5
12F
100
AcDbEntity
  8
1
  6
DOT_CENTER
 62
             2
100
AcDbLine
 10
-6.0
 20
54.99644776104009
 11
-3.0
 21
54.99644776104009
  0
LINE
  5
12E
100
AcDbEntity
  8
LC-002-002-----0
  6
CONTINUOUS
 62
             7
100
AcDbLine
 10
92.49684924010548
 20
135.39050767338901
 11
95.49684924010548
 21
135.39050767338901
  0
LINE
  5
12D
100
AcDbEntity
  8
LC-002-002-----0
  6
CONTINUOUS
 62
             7
100
AcDbLine
 10
96.49684924010548
 20
136.39050767338901
 11
96.49684924010548
 21
139.10202965330879
  0
LINE
  5
12C
100
AcDbEntity
  8
LC-002-002-----0
  6
CONTINUOUS
 62
             7
100
AcDbLine
 10
91.49684924010548
 20
139.10202965330879
 11
91.49684924010548
 21
136.39050767338901
  0
LINE
  5
12B
100
AcDbEntity
  8
LC-002-002-----0
  6
CONTINUOUS
 62
             7
100
AcDbLine
 10
95.49684924010548
 20
140.10202965330879
 11
92.49684924010548
 21
140.10202965330879
  0
LINE
  5
12A
100
AcDbEntity
  8
LC-002-002-----0
  6
CONTINUOUS
 62
             7
100
AcDbLine
 10
72.51216924010772
 20
138.63226065330579
 11
72.51216924010772
 21
136.86027567338439
  0
LINE
  5
129
100
AcDbEntity
  8
LC-002-002-----0
  6
CONTINUOUS
 62
             7
100
AcDbLine
 10
115.476849240105
 20
138.63226065330579
 11
115.476849240105
 21
136.86027567338439
  0
LINE
  5
128
100
AcDbEntity
  8
1
  6
DOT_CENTER
 62
             2
100
AcDbLine
 10
99.84138841399148
 20
143.49644776104009
 11
86.84138841399148
 21
143.49644776104009
  0
LINE
  5
127
100
AcDbEntity
  8
LC-002-002-----0
  6
CONTINUOUS
 62
             7
100
AcDbLine
 10
223.47684884607801
 20
138.63226065330579
 11
223.47684884607801
 21
136.86027567338439
  0
LINE
  5
126
100
AcDbEntity
  8
LC-002-002-----0
  6
CONTINUOUS
 62
             7
100
AcDbLine
 10
180.5121688460807
 20
138.63226065330579
 11
180.5121688460807
 21
136.86027567338439
  0
LINE
  5
125
100
AcDbEntity
  8
LC-002-002-----0
  6
CONTINUOUS
 62
             7
100
AcDbLine
 10
203.49684884607851
 20
140.10202965330879
 11
200.49684884607851
 21
140.10202965330879
  0
LINE
  5
124
100
AcDbEntity
  8
LC-002-002-----0
  6
CONTINUOUS
 62
             7
100
AcDbLine
 10
199.49684884607851
 20
139.10202965330879
 11
199.49684884607851
 21
136.39050767338901
  0
LINE
  5
123
100
AcDbEntity
  8
LC-002-002-----0
  6
CONTINUOUS
 62
             7
100
AcDbLine
 10
204.49684884607851
 20
136.39050767338901
 11
204.49684884607851
 21
139.10202965330879
  0
LINE
  5
122
100
AcDbEntity
  8
LC-002-002-----0
  6
CONTINUOUS
 62
             7
100
AcDbLine
 10
200.49684884607851
 20
135.39050767338901
 11
203.49684884607851
 21
135.39050767338901
  0
LINE
  5
121
100
AcDbEntity
  8
LC-004-002-----0
  6
CONTINUOUS
 62
             7
100
AcDbLine
 10
191.9965982905909
 20
103.99217276104081
 11
191.9965982905909
 21
110.99217276104081
  0
LINE
  5
120
100
AcDbEntity
  8
LC-004-002-----0
  6
CONTINUOUS
 62
             7
100
AcDbLine
 10
211.9965982905909
 20
103.99217276104081
 11
211.9965982905909
 21
110.99217276104081
  0
LINE
  5
11F
100
AcDbEntity
  8
LC-004-002-----0
  6
CONTINUOUS
 62
             7
100
AcDbLine
 10
192.4965982905909
 20
111.49217276104081
 11
211.4965982905909
 21
111.49217276104081
  0
LINE
  5
11E
100
AcDbEntity
  8
LC-004-002-----0
  6
CONTINUOUS
 62
             7
100
AcDbLine
 10
200.4930572905927
 20
74.86383312658921
 11
203.4930572905927
 21
74.86383312658921
  0
LINE
  5
11D
100
AcDbEntity
  8
LC-004-002-----0
  6
CONTINUOUS
 62
             7
100
AcDbLine
 10
203.4930572905927
 20
96.03937276104165
 11
203.4930572905927
 21
74.86383312658921
  0
LINE
  5
11C
100
AcDbEntity
  8
LC-004-002-----0
  6
CONTINUOUS
 62
             7
100
AcDbLine
 10
192.49690929059429
 20
111.4921787610392
 11
192.49692251669549
 21
132.64656803058
  0
LINE
  5
11B
100
AcDbEntity
  8
LC-004-002-----0
  6
CONTINUOUS
 62
             7
100
AcDbLine
 10
192.49692229059141
 20
111.4921787610392
 11
211.4965982905909
 21
111.49216576103839
  0
LINE
  5
11A
100
AcDbEntity
  8
LC-004-002-----0
  6
CONTINUOUS
 62
             7
100
AcDbLine
 10
211.4965982905909
 20
111.49216576103839
 11
211.4965982905909
 21
132.64718756762059
  0
LINE
  5
119
100
AcDbEntity
  8
LC-004-002-----0
  6
CONTINUOUS
 62
             7
100
AcDbLine
 10
211.9965982905909
 20
96.53937276104165
 11
211.9965982905909
 21
102.99217276104081
  0
LINE
  5
118
100
AcDbEntity
  8
LC-004-002-----0
  6
CONTINUOUS
 62
             7
100
AcDbLine
 10
191.9965982905909
 20
102.99217276104081
 11
191.9965982905909
 21
96.53937276104165
  0
LINE
  5
117
100
AcDbEntity
  8
LC-004-002-----0
  6
CONTINUOUS
 62
             7
100
AcDbLine
 10
192.4965982905909
 20
96.03937276104165
 11
211.4965982905909
 21
96.03937276104165
  0
LINE
  5
116
100
AcDbEntity
  8
LC-004-002-----0
  6
CONTINUOUS
 62
             7
100
AcDbLine
 10
200.4930572905927
 20
96.03937276104165
 11
200.4930572905927
 21
74.86383312658921
  0
LINE
  5
115
100
AcDbEntity
  8
LC-005-002-----0
  6
CONTINUOUS
 62
             7
100
AcDbLine
 10
112.273473
 20
224.99233846595379
 11
104.273473
 21
224.99233846595379
  0
LINE
  5
114
100
AcDbEntity
  8
LC-005-002-----0
  6
CONTINUOUS
 62
             7
100
AcDbLine
 10
104.273473
 20
224.99233846595379
 11
104.273473
 21
222.99233846595379
  0
LINE
  5
113
100
AcDbEntity
  8
LC-005-002-----0
  6
CONTINUOUS
 62
             7
100
AcDbLine
 10
114.773473
 20
222.99233846595379
 11
100.773473
 21
222.99233846595379
  0
LINE
  5
112
100
AcDbEntity
  8
LC-005-002-----0
  6
CONTINUOUS
 62
             7
100
AcDbLine
 10
112.273473
 20
222.99233846595379
 11
112.273473
 21
224.99233846595379
  0
LINE
  5
111
100
AcDbEntity
  8
LC-005-002-----0
  6
DASHED
 62
             2
100
AcDbLine
 10
104.273473
 20
130.49233946595371
 11
104.273473
 21
132.75855559606131
  0
LINE
  5
110
100
AcDbEntity
  8
LC-005-002-----0
  6
DASHED
 62
             2
100
AcDbLine
 10
112.273473
 20
130.49233946595371
 11
112.273473
 21
134.43598326645389
  0
LINE
  5
10F
100
AcDbEntity
  8
LC-005-002-----0
  6
CONTINUOUS
 62
             7
100
AcDbLine
 10
114.773473
 20
224.99233846595379
 11
112.273473
 21
224.99233846595379
  0
LINE
  5
10E
100
AcDbEntity
  8
LC-005-002-----0
  6
CONTINUOUS
 62
             7
100
AcDbLine
 10
93.27347300000002
 20
243.49233946595371
 11
111.773473
 21
243.49233946595371
  0
LINE
  5
10D
100
AcDbEntity
  8
LC-005-002-----0
  6
CONTINUOUS
 62
             7
100
AcDbLine
 10
102.273473
 20
224.99233846595379
 11
104.273473
 21
224.99233846595379
  0
LINE
  5
10C
100
AcDbEntity
  8
LC-005-002-----0
  6
CONTINUOUS
 62
             7
100
AcDbLine
 10
100.273473
 20
222.99233846595379
 11
100.273473
 21
207.99233846595379
  0
LINE
  5
10B
100
AcDbEntity
  8
LC-005-002-----0
  6
CONTINUOUS
 62
             7
100
AcDbLine
 10
98.27347300000002
 20
205.99233846595351
 11
92.27347300000002
 21
205.99233846595351
  0
LINE
  5
10A
100
AcDbEntity
  8
LC-005-002-----0
  6
CONTINUOUS
 62
             7
100
AcDbLine
 10
90.27347300000002
 20
207.99233846595379
 11
90.27347300000002
 21
240.49233946595371
  0
LINE
  5
109
100
AcDbEntity
  8
LC-005-002-----0
  6
CONTINUOUS
 62
             7
100
AcDbLine
 10
119.273473
 20
225.8942624659536
 11
120.273473
 21
224.16221146595359
  0
LINE
  5
108
100
AcDbEntity
  8
LC-005-002-----0
  6
CONTINUOUS
 62
             7
100
AcDbLine
 10
114.773473
 20
228.49233846595379
 11
114.773473
 21
224.99233846595379
  0
LINE
  5
107
100
AcDbEntity
  8
LC-005-002-----0
  6
DOT_CENTER
 62
             2
100
AcDbLine
 10
117.773475
 20
231.49233846595351
 11
117.773475
 21
225.99233846595379
  0
LINE
  5
106
100
AcDbEntity
  8
LC-005-002-----0
  6
DOT_CENTER
 62
             2
100
AcDbLine
 10
114.773473
 20
228.49233846595379
 11
120.773473
 21
228.49233846595379
  0
LINE
  5
105
100
AcDbEntity
  8
LC-005-002-----0
  6
CONTINUOUS
 62
             7
100
AcDbLine
 10
114.773473
 20
240.49233946595371
 11
114.773473
 21
236.49233846595351
  0
LINE
  5
104
100
AcDbEntity
  8
LC-005-002-----0
  6
DOT_CENTER
 62
             2
100
AcDbLine
 10
108.273473
 20
111.99233946595371
 11
108.273473
 21
224.99233846595379
  0
LINE
  5
103
100
AcDbEntity
  8
LC-005-002-----0
  6
CONTINUOUS
 62
             7
100
AcDbLine
 10
114.773473
 20
130.49233946595371
 11
114.773473
 21
135.33752591545439
  0
LINE
  5
102
100
AcDbEntity
  8
LC-005-002-----0
  6
CONTINUOUS
 62
             7
100
AcDbLine
 10
100.773473
 20
222.99233846595379
 11
100.773473
 21
143.16596830747361
  0
LINE
  5
101
100
AcDbEntity
  8
LC-005-002-----0
  6
CONTINUOUS
 62
             7
100
AcDbLine
 10
112.773473
 20
130.49233946595371
 11
114.773473
 21
130.49233946595371
  0
LINE
  5
100
100
AcDbEntity
  8
LC-005-002-----0
  6
CONTINUOUS
 62
             7
100
AcDbLine
 10
103.4965986846215
 20
125.49233946595371
 11
117.1734730000001
 21
125.49233946595371
  0
LINE
  5
FF
100
AcDbEntity
  8
LC-005-002-----0
  6
CONTINUOUS
 62
             7
100
AcDbLine
 10
117.773473
 20
125.49233946595371
 11
117.1734730000001
 21
125.49233946595371
  0
LINE
  5
FE
100
AcDbEntity
  8
LC-005-002-----0
  6
CONTINUOUS
 62
             7
100
AcDbLine
 10
118.273473
 20
124.99233946595371
 11
118.273473
 21
119.49233946595371
  0
LINE
  5
FD
100
AcDbEntity
  8
LC-005-002-----0
  6
CONTINUOUS
 62
             7
100
AcDbLine
 10
112.273473
 20
125.49233946595371
 11
112.273473
 21
130.48665346595371
  0
LINE
  5
FC
100
AcDbEntity
  8
LC-005-002-----0
  6
CONTINUOUS
 62
             7
100
AcDbLine
 10
104.273473
 20
130.49233946595371
 11
104.273473
 21
125.49233946595371
  0
LINE
  5
FB
100
AcDbEntity
  8
LC-005-002-----0
  6
CONTINUOUS
 62
             7
100
AcDbLine
 10
103.4965986846215
 20
130.49233946595371
 11
112.773473
 21
130.49233946595371
  0
LINE
  5
FA
100
AcDbEntity
  8
LC-005-002-----0
  6
DASHED
 62
             2
100
AcDbLine
 10
104.273473
 20
142.7342512087138
 11
104.273473
 21
222.99233846595379
  0
LINE
  5
F9
100
AcDbEntity
  8
LC-005-002-----0
  6
DASHED
 62
             2
100
AcDbLine
 10
112.273473
 20
141.05661835638389
 11
112.273473
 21
222.99233846595379
  0
LINE
  5
F8
100
AcDbEntity
  8
LC-005-002-----0
  6
CONTINUOUS
 62
             7
100
AcDbLine
 10
114.773473
 20
140.1550104112394
 11
114.773473
 21
222.99233846595379
  0
LINE
  5
F7
100
AcDbEntity
  8
1
  6
PHANTOM
 62
             2
100
AcDbLine
 10
303.66142844519709
 20
-16.50260847556007
 11
230.6688453929201
 21
-16.50367150282642
  0
LINE
  5
F6
100
AcDbEntity
  8
1
  6
PHANTOM
 62
             2
100
AcDbLine
 10
93.99674822414045
 20
92.43250370192612
 11
93.99676498010037
 21
146.03289496720939
  0
LINE
  5
F5
100
AcDbEntity
  8
1
  6
PHANTOM
 62
             2
100
AcDbLine
 10
248.66819847338419
 20
-0.00000690745532
 11
-7.8675303645742
 21
0.00000021854265
  0
LINE
  5
F4
100
AcDbEntity
  8
1
  6
PHANTOM
 62
             2
100
AcDbLine
 10
201.99674756830021
 20
91.59499899943103
 11
201.99676452061871
 21
145.8235189519215
  0
POINT
  5
F3
100
AcDbEntity
  8
1
 62
             3
 60
             1
100
AcDbPoint
 10
1661.5968931592899
 20
699.52970262885674
  0
POINT
  5
F2
100
AcDbEntity
  8
1
 62
             3
 60
             1
100
AcDbPoint
 10
1661.5968931592899
 20
1043.0195230322231
  0
POINT
  5
F1
100
AcDbEntity
  8
1
 62
             3
 60
             1
100
AcDbPoint
 10
1661.5968931592899
 20
871.27461283053981
  0
POINT
  5
F0
100
AcDbEntity
  8
LC-001-003-----0
 62
             7
100
AcDbPoint
 10
55.15037099999972
 20
115.49217276104081
  0
POINT
  5
EF
100
AcDbEntity
  8
LC-001-003-----0
 62
             7
100
AcDbPoint
 10
240.15093500000151
 20
115.49217276104081
  0
POINT
  5
EE
100
AcDbEntity
  8
LC-001-003-----0
 62
             7
100
AcDbPoint
 10
0.0
 20
-55.45355223896064
  0
POINT
  5
ED
100
AcDbEntity
  8
LC-001-003-----0
 62
             7
100
AcDbPoint
 10
301.9967570000008
 20
-70.22493223895896
  0
POINT
  5
EC
100
AcDbEntity
  8
LC-001-003-----0
 62
             7
100
AcDbPoint
 10
59.46319500000027
 20
-0.00355223895991
  0
POINT
  5
EB
100
AcDbEntity
  8
LC-001-003-----0
 62
             7
100
AcDbPoint
 10
297.48069599999872
 20
-71.50244823896088
  0
POINT
  5
EA
100
AcDbEntity
  8
LC-001-003-----0
 62
             7
100
AcDbPoint
 10
297.49704099999872
 20
38.49772676104016
  0
POINT
  5
E9
100
AcDbEntity
  8
LC-001-003-----0
 62
             7
100
AcDbPoint
 10
0.46231099999932
 20
59.28717276103902
  0
POINT
  5
E8
100
AcDbEntity
  8
LC-001-003-----0
 62
             7
100
AcDbPoint
 10
0.37942000000112
 20
-59.28137423895993
  0
POINT
  5
E7
100
AcDbEntity
  8
LC-001-003-----0
 62
             7
100
AcDbPoint
 10
235.55309399999899
 20
-16.50432023896161
  0
ENDBLK
  5
1BE
100
AcDbEntity
  8
0
100
AcDbBlockEnd
  0
BLOCK
  5
1C1
100
AcDbEntity
  8
0
100
AcDbBlockBegin
  2
*D2
 70
             1
 10
0.0
 20
0.0
 30
0.0
  3
*D2
  1

  0
LINE
  5
1C2
100
AcDbEntity
  8
0
  6
CONTINUOUS
 62
             4
100
AcDbLine
 10
623.11599952927133
 20
-93.86479489735638
 11
383.11599952927128
 21
-93.86479489735638
  0
LINE
  5
1C3
100
AcDbEntity
  8
0
  6
CONTINUOUS
 62
             4
100
AcDbLine
 10
383.11599952927128
 20
136.86027533896024
 11
383.11599952927128
 21
-95.86479489735638
  0
LINE
  5
1C4
100
AcDbEntity
  8
0
  6
CONTINUOUS
 62
             4
100
AcDbLine
 10
623.11599952927133
 20
136.86027533896024
 11
623.11599952927133
 21
-95.86479489735638
  0
SOLID
  5
1C5
100
AcDbEntity
  8
0
 62
             4
100
AcDbTrace
 10
611.11599952927133
 20
-95.44462486840513
 11
611.11599952927133
 21
-92.28496492630762
 12
623.11599952927133
 22
-93.86479489735638
 13
623.11599952927133
 23
-93.86479489735638
  0
SOLID
  5
1C6
100
AcDbEntity
  8
0
 62
             4
100
AcDbTrace
 10
395.11599952927128
 20
-92.28496492630762
 11
395.11599952927128
 21
-95.44462486840513
 12
383.11599952927128
 22
-93.86479489735638
 13
383.11599952927128
 23
-93.86479489735638
  0
MTEXT
  5
1C8
100
AcDbEntity
  8
0
 62
             1
100
AcDbMText
 10
437.41641262320633
 20
-91.86479489735638
 30
0.0
 40
12.0
 41
0.0
 71
             7
 72
             1
  1
240
  7
CONVERTER_1
 11
0.99999999999706
 21
0.00000242406841
 31
0.0
  0
ENDBLK
  5
1C9
100
AcDbEntity
  8
0
100
AcDbBlockEnd
  0
BLOCK
  5
1CD
100
AcDbEntity
  8
0
100
AcDbBlockBegin
  2
*D3
 70
             1
 10
0.0
 20
0.0
 30
0.0
  3
*D3
  1

  0
LINE
  5
1CE
100
AcDbEntity
  8
0
  6
CONTINUOUS
 62
             4
100
AcDbLine
 10
0.0
 20
-93.86479129020995
 11
301.99675700000091
 21
-93.86479129020995
  0
LINE
  5
1CF
100
AcDbEntity
  8
0
  6
CONTINUOUS
 62
             4
100
AcDbLine
 10
0.0
 20
-58.79844323896128
 11
0.0
 21
-95.86479129020995
  0
LINE
  5
1D0
100
AcDbEntity
  8
0
  6
CONTINUOUS
 62
             4
100
AcDbLine
 10
301.99675700000091
 20
-70.22493223895896
 11
301.99675700000091
 21
-95.86479129020995
  0
SOLID
  5
1D1
100
AcDbEntity
  8
0
 62
             4
100
AcDbTrace
 10
12.0
 20
-92.2849613191612
 11
12.0
 21
-95.4446212612587
 12
0.0
 22
-93.86479129020995
 13
0.0
 23
-93.86479129020995
  0
SOLID
  5
1D2
100
AcDbEntity
  8
0
 62
             4
100
AcDbTrace
 10
289.99675700000091
 20
-95.4446212612587
 11
289.99675700000091
 21
-92.2849613191612
 12
301.99675700000091
 22
-93.86479129020995
 13
301.99675700000091
 23
-93.86479129020995
  0
MTEXT
  5
1D3
100
AcDbEntity
  8
0
 62
             1
100
AcDbMText
 10
146.5796215689096
 20
-91.86479129020995
 30
0.0
 40
12.0
 41
0.0
 71
             7
 72
             1
  1
302
  7
CONVERTER_1
 11
0.99999999999706
 21
0.00000242406841
 31
0.0
  0
ENDBLK
  5
1D4
100
AcDbEntity
  8
0
100
AcDbBlockEnd
  0
BLOCK
  5
1D8
100
AcDbEntity
  8
0
100
AcDbBlockBegin
  2
*D4
 70
             1
 10
0.0
 20
0.0
 30
0.0
  3
*D4
  1

  0
LINE
  5
1D9
100
AcDbEntity
  8
0
  6
CONTINUOUS
 62
             4
100
AcDbLine
 10
268.54485415988654
 20
-40.50367150282646
 11
268.54485415988654
 21
-16.50367150282642
  0
LINE
  5
1DA
100
AcDbEntity
  8
0
  6
CONTINUOUS
 62
             4
100
AcDbLine
 10
268.54485415988654
 20
-16.50367150282642
 11
268.54485415988654
 21
-0.00000690745532
  0
LINE
  5
1DB
100
AcDbEntity
  8
0
  6
CONTINUOUS
 62
             4
100
AcDbLine
 10
268.54485415988654
 20
-0.00000690745532
 11
268.54485415988654
 21
78.30528981006074
  0
LINE
  5
1DC
100
AcDbEntity
  8
0
  6
CONTINUOUS
 62
             4
100
AcDbLine
 10
230.6688453929201
 20
-16.50367150282642
 11
270.54485415988654
 21
-16.50367150282642
  0
LINE
  5
1DD
100
AcDbEntity
  8
0
  6
CONTINUOUS
 62
             4
100
AcDbLine
 10
248.66819847338419
 20
-0.00000690745532
 11
270.54485415988654
 21
-0.00000690745532
  0
SOLID
  5
1DE
100
AcDbEntity
  8
0
 62
             4
100
AcDbTrace
 10
270.12468413093529
 20
-28.50367150282642
 11
266.96502418883779
 21
-28.50367150282642
 12
268.54485415988654
 22
-16.50367150282642
 13
268.54485415988654
 23
-16.50367150282642
  0
SOLID
  5
1DF
100
AcDbEntity
  8
0
 62
             4
100
AcDbTrace
 10
266.96502418883779
 20
11.99999309254468
 11
270.12468413093529
 21
11.99999309254468
 12
268.54485415988654
 22
-0.00000690745532
 13
268.54485415988654
 23
-0.00000690745532
  0
MTEXT
  5
1E0
100
AcDbEntity
  8
0
 62
             1
100
AcDbMText
 10
265.34485415988649
 20
48.90528981006074
 30
0.0
 40
12.0
 41
0.0
 71
             7
 72
             1
  1
16,5
  7
CONVERTER_1
 11
0.0
 21
1.0
 31
0.0
  0
ENDBLK
  5
1E1
100
AcDbEntity
  8
0
100
AcDbBlockEnd
  0
BLOCK
  5
1E5
100
AcDbEntity
  8
0
100
AcDbBlockBegin
  2
*D5
 70
             1
 10
0.0
 20
0.0
 30
0.0
  3
*D5
  1

  0
LINE
  5
1E6
100
AcDbEntity
  8
0
  6
CONTINUOUS
 62
             4
100
AcDbLine
 10
324.14965411169499
 20
-71.5031232389602
 11
324.14965411169499
 21
38.49772676104016
  0
LINE
  5
1E7
100
AcDbEntity
  8
0
  6
CONTINUOUS
 62
             4
100
AcDbLine
 10
297.49704199999911
 20
-71.5031232389602
 11
326.14965411169499
 21
-71.5031232389602
  0
LINE
  5
1E8
100
AcDbEntity
  8
0
  6
CONTINUOUS
 62
             4
100
AcDbLine
 10
297.49704099999872
 20
38.49772676104016
 11
326.14965411169499
 21
38.49772676104016
  0
SOLID
  5
1E9
100
AcDbEntity
  8
0
 62
             4
100
AcDbTrace
 10
322.56982414064623
 20
-59.5031232389602
 11
325.72948408274374
 21
-59.5031232389602
 12
324.14965411169499
 22
-71.5031232389602
 13
324.14965411169499
 23
-71.5031232389602
  0
SOLID
  5
1EA
100
AcDbEntity
  8
0
 62
             4
100
AcDbTrace
 10
325.72948408274374
 20
26.49772676104016
 11
322.56982414064623
 21
26.49772676104016
 12
324.14965411169499
 22
38.49772676104016
 13
324.14965411169499
 23
38.49772676104016
  0
MTEXT
  5
1EB
100
AcDbEntity
  8
0
 62
             1
100
AcDbMText
 10
322.14965411169499
 20
-33.13666989141032
 30
0.0
 40
12.0
 41
0.0
 71
             7
 72
             1
  1
\C1;DN\C1;110
  7
CONVERTER_1
 11
0.0
 21
1.0
 31
0.0
  0
ENDBLK
  5
1EC
100
AcDbEntity
  8
0
100
AcDbBlockEnd
  0
BLOCK
  5
1F0
100
AcDbEntity
  8
0
100
AcDbBlockBegin
  2
*D6
 70
             1
 10
0.0
 20
0.0
 30
0.0
  3
*D6
  1

  0
LINE
  5
1F1
100
AcDbEntity
  8
0
  6
CONTINUOUS
 62
             4
100
AcDbLine
 10
240.15093500000148
 20
162.20060423475411
 11
55.15037099999971
 21
162.20060423475411
  0
LINE
  5
1F2
100
AcDbEntity
  8
0
  6
CONTINUOUS
 62
             4
100
AcDbLine
 10
240.15093500000148
 20
103.99217276104078
 11
240.15093500000148
 21
164.20060423475411
  0
LINE
  5
1F3
100
AcDbEntity
  8
0
  6
CONTINUOUS
 62
             4
100
AcDbLine
 10
55.15037099999971
 20
103.99217276104078
 11
55.15037099999971
 21
164.20060423475411
  0
SOLID
  5
1F4
100
AcDbEntity
  8
0
 62
             4
100
AcDbTrace
 10
228.15093500000148
 20
160.62077426370536
 11
228.15093500000148
 21
163.78043420580286
 12
240.15093500000148
 22
162.20060423475411
 13
240.15093500000148
 23
162.20060423475411
  0
SOLID
  5
1F5
100
AcDbEntity
  8
0
 62
             4
100
AcDbTrace
 10
67.15037099999971
 20
163.78043420580286
 11
67.15037099999971
 21
160.62077426370536
 12
55.15037099999971
 22
162.20060423475411
 13
55.15037099999971
 23
162.20060423475411
  0
MTEXT
  5
1F6
100
AcDbEntity
  8
0
 62
             1
100
AcDbMText
 10
143.65668686961311
 20
164.20060423475411
 30
0.0
 40
12.0
 41
0.0
 71
             7
 72
             1
  1
185
  7
CONVERTER_1
 11
0.99999999999706
 21
0.00000242406841
 31
0.0
  0
ENDBLK
  5
1F7
100
AcDbEntity
  8
0
100
AcDbBlockEnd
  0
BLOCK
  5
1FB
100
AcDbEntity
  8
0
100
AcDbBlockBegin
  2
*D7
 70
             1
 10
0.0
 20
0.0
 30
0.0
  3
*D7
  1

  0
LINE
  5
1FC
100
AcDbEntity
  8
0
  6
CONTINUOUS
 62
             4
100
AcDbLine
 10
-16.00000312874645
 20
54.9964477610401
 11
-16.00000312874645
 21
-55.00355223895991
  0
LINE
  5
1FD
100
AcDbEntity
  8
0
  6
CONTINUOUS
 62
             4
100
AcDbLine
 10
-6.0
 20
54.9964477610401
 11
-18.00000312874645
 21
54.9964477610401
  0
LINE
  5
1FE
100
AcDbEntity
  8
0
  6
CONTINUOUS
 62
             4
100
AcDbLine
 10
-6.0
 20
-55.00355223895991
 11
-18.00000312874645
 21
-55.00355223895991
  0
SOLID
  5
1FF
100
AcDbEntity
  8
0
 62
             4
100
AcDbTrace
 10
-14.4201731576977
 20
42.9964477610401
 11
-17.5798330997952
 21
42.9964477610401
 12
-16.00000312874645
 22
54.9964477610401
 13
-16.00000312874645
 23
54.9964477610401
  0
SOLID
  5
200
100
AcDbEntity
  8
0
 62
             4
100
AcDbTrace
 10
-17.5798330997952
 20
-43.00355223895991
 11
-14.4201731576977
 21
-43.00355223895991
 12
-16.00000312874645
 22
-55.00355223895991
 13
-16.00000312874645
 23
-55.00355223895991
  0
MTEXT
  5
201
100
AcDbEntity
  8
0
 62
             1
100
AcDbMText
 10
-18.00000312874645
 20
-18.60094449094256
 30
0.0
 40
12.0
 41
0.0
 71
             7
 72
             1
  1
\C1;DN\C1;110
  7
CONVERTER_1
 11
0.0
 21
1.0
 31
0.0
  0
ENDBLK
  5
202
100
AcDbEntity
  8
0
100
AcDbBlockEnd
  0
BLOCK
  5
206
100
AcDbEntity
  8
0
100
AcDbBlockBegin
  2
*D8
 70
             1
 10
0.0
 20
0.0
 30
0.0
  3
*D8
  1

  0
LINE
  5
207
100
AcDbEntity
  8
0
  6
CONTINUOUS
 62
             4
100
AcDbLine
 10
-37.30535398729779
 20
-76.50355223895997
 11
-37.30535398729779
 21
243.49233946595373
  0
LINE
  5
208
100
AcDbEntity
  8
0
  6
CONTINUOUS
 62
             4
100
AcDbLine
 10
65.71255799999931
 20
-76.50355223895997
 11
-39.30535398729779
 21
-76.50355223895997
  0
LINE
  5
209
100
AcDbEntity
  8
0
  6
CONTINUOUS
 62
             4
100
AcDbLine
 10
93.273473
 20
243.49233946595373
 11
-39.30535398729779
 21
243.49233946595373
  0
SOLID
  5
20A
100
AcDbEntity
  8
0
 62
             4
100
AcDbTrace
 10
-38.88518395834655
 20
-64.50355223895997
 11
-35.72552401624904
 21
-64.50355223895997
 12
-37.30535398729779
 22
-76.50355223895997
 13
-37.30535398729779
 23
-76.50355223895997
  0
SOLID
  5
20B
100
AcDbEntity
  8
0
 62
             4
100
AcDbTrace
 10
-35.72552401624905
 20
231.49233946595373
 11
-38.88518395834655
 21
231.49233946595373
 12
-37.30535398729779
 22
243.49233946595373
 13
-37.30535398729779
 23
243.49233946595373
  0
MTEXT
  5
20C
100
AcDbEntity
  8
0
 62
             1
100
AcDbMText
 10
-39.30535398729779
 20
50.45721105125114
 30
0.0
 40
12.0
 41
0.0
 71
             7
 72
             1
  1
\C1;220-\C1;320
  7
CONVERTER_1
 11
0.0
 21
1.0
 31
0.0
  0
ENDBLK
  5
20D
100
AcDbEntity
  8
0
100
AcDbBlockEnd
  0
ENDSEC
  0
SECTION
  2
ENTITIES
  0
DIMENSION
  5
20F
100
AcDbEntity
  8
1
100
AcDbDimension
  2
*D8
 10
-37.30535398729779
 20
-76.50355223895997
 11
-45.30535398729779
 21
82.01721105125114
 31
0.0
 53
89.99999840844933
  1
<>
  3
ME10_DIM_6
100
AcDbAlignedDimension
 13
93.27347300000002
 23
243.49233946595371
 14
65.71255799999926
 24
-76.50355223895991
 50
89.99999840844933
100
AcDbRotatedDimension
  0
DIMENSION
  5
204
100
AcDbEntity
  8
1
100
AcDbDimension
  2
*D7
 10
-16.00000312874645
 20
54.9964477610401
 11
-24.00000312874645
 21
-1.32094449094256
 31
0.0
 53
269.99999840844936
  1
<>
  3
ME10_DIM_5
100
AcDbAlignedDimension
 13
-6.0
 23
-55.00355223895991
 14
-6.0
 24
54.99644776104009
 50
269.99999840844936
100
AcDbRotatedDimension
  0
DIMENSION
  5
1F9
100
AcDbEntity
  8
1
100
AcDbDimension
  2
*D6
 10
240.15093500000148
 20
162.20060423475411
 11
156.25668686961311
 21
170.20060423475411
 31
0.0
 53
179.99999840844933
  1
<>
  3
ME10_DIM_4
100
AcDbAlignedDimension
 13
55.15037099999972
 23
103.99217276104081
 14
240.15093500000151
 24
103.99217276104081
 50
179.99999840844933
100
AcDbRotatedDimension
  0
DIMENSION
  5
1EE
100
AcDbEntity
  8
1
100
AcDbDimension
  2
*D5
 10
324.14965411169499
 20
-71.5031232389602
 11
316.14965411169499
 21
-15.85666989141032
 31
0.0
 53
89.99999840844933
  1
<>
  3
ME10_DIM_3
100
AcDbAlignedDimension
 13
297.49704099999872
 23
38.49772676104016
 14
297.49704199999911
 24
-71.5031232389602
 50
89.99999840844933
100
AcDbRotatedDimension
  0
DIMENSION
  5
1E3
100
AcDbEntity
  8
1
100
AcDbDimension
  2
*D4
 10
268.54485415988654
 20
-16.50367150282642
 11
259.94485415988652
 21
63.60528981006074
 31
0.0
 53
89.99999840844933
  1
<>
  3
ME10_DIM_2
100
AcDbAlignedDimension
 13
248.66819847338419
 23
-0.00000690745532
 14
230.6688453929201
 24
-16.50367150282642
 50
89.99999840844933
100
AcDbRotatedDimension
  0
DIMENSION
  5
1D6
100
AcDbEntity
  8
1
100
AcDbDimension
  2
*D3
 10
0.0
 20
-93.86479129020995
 11
160.97962156890961
 21
-85.86479129020995
 31
0.0
 53
359.9999984084493
  1
<>
  3
ME10_DIM_1
100
AcDbAlignedDimension
 13
301.9967570000008
 23
-70.22493223895896
 14
0.0
 24
-58.79844323896128
 50
359.9999984084493
100
AcDbRotatedDimension
  0
DIMENSION
  5
1CB
100
AcDbEntity
  8
1
100
AcDbDimension
  2
*D2
 10
623.11599952927133
 20
-93.86479489735638
 11
451.8164126232063
 21
-85.86479489735638
 31
0.0
 53
0.00013888888889
  1
<>
  3
ME10_DIM_0
100
AcDbAlignedDimension
 13
383.11599952927128
 23
136.86027533896021
 14
623.11599952927122
 24
136.86027533896021
100
AcDbRotatedDimension
  0
INSERT
  5
35
100
AcDbEntity
  8
0
100
AcDbBlockReference
  2
HL_710_1_R_CKSTAUVERSCS__1
 10
1070.7463091592899
 20
306.7382037205731
  0
INSERT
  5
36
100
AcDbEntity
  8
0
100
AcDbBlockReference
  2
HL_710_1_R_CKSTAUVERSCS__2
 10
1147.7463091592899
 20
306.73820372148981
  0
ENDSEC
  0
SECTION
  2
OBJECTS
  0
DICTIONARY
  5
19
100
AcDbDictionary
  3
ACAD_GROUP
350
1A
  3
ACAD_MLINESTYLE
350
1B
  0
DICTIONARY
  5
1A
102
{ACAD_REACTORS
330
19
102
}
100
AcDbDictionary
  0
DICTIONARY
  5
1B
102
{ACAD_REACTORS
330
19
102
}
100
AcDbDictionary
  3
STANDARD
350
1C
  0
MLINESTYLE
  5
1C
102
{ACAD_REACTORS
330
1B
102
}
100
AcDbMlineStyle
  2
STANDARD
 70
             0
  3

 62
             0
 51
90.0
 52
90.0
 71
             2
 49
0.5
 62
           256
  6
BYLAYER
 49
-0.5
 62
           256
  6
BYLAYER
  0
ENDSEC
  0
EOF
