  0
SECTION
  2
HEADER
  9
$ACADVER
  1
AC1014
  9
$ACADMAINTVER
 70
             0
  9
$DWGCODEPAGE
  3
ANSI_1252
  9
$INSBASE
 10
0.0
 20
0.0
 30
0.0
  9
$EXTMIN
 10
-49.85688996306889
 20
-96.30425631705512
 30
0.0
  9
$EXTMAX
 10
609.65245466835768
 20
171.69291361470511
 30
0.0
  9
$LIMMIN
 10
0.0
 20
0.0
  9
$LIMMAX
 10
0.0
 20
0.0
  9
$ORTHOMODE
 70
             0
  9
$REGENMODE
 70
             1
  9
$FILLMODE
 70
             1
  9
$QTEXTMODE
 70
             0
  9
$MIRRTEXT
 70
             1
  9
$DRAGMODE
 70
             2
  9
$LTSCALE
 40
1.0
  9
$OSMODE
 70
             0
  9
$ATTMODE
 70
             1
  9
$TEXTSIZE
 40
0.2
  9
$TRACEWID
 40
0.05
  9
$TEXTSTYLE
  7
STANDARD
  9
$CLAYER
  8
0
  9
$CELTYPE
  6
CONTINUOUS
  9
$CECOLOR
 62
           256
  9
$CELTSCALE
 40
1.0
  9
$DELOBJ
 70
             1
  9
$DISPSILH
 70
             0
  9
$DIMSCALE
 40
1.0
  9
$DIMASZ
 40
0.18
  9
$DIMEXO
 40
0.0625
  9
$DIMDLI
 40
0.38
  9
$DIMRND
 40
0.0
  9
$DIMDLE
 40
0.0
  9
$DIMEXE
 40
0.18
  9
$DIMTP
 40
0.0
  9
$DIMTM
 40
0.0
  9
$DIMTXT
 40
0.18
  9
$DIMCEN
 40
0.09
  9
$DIMTSZ
 40
0.0
  9
$DIMTOL
 70
             0
  9
$DIMLIM
 70
             0
  9
$DIMTIH
 70
             1
  9
$DIMTOH
 70
             1
  9
$DIMSE1
 70
             0
  9
$DIMSE2
 70
             0
  9
$DIMTAD
 70
             0
  9
$DIMZIN
 70
             0
  9
$DIMBLK
  1

  9
$DIMASO
 70
             1
  9
$DIMSHO
 70
             1
  9
$DIMPOST
  1

  9
$DIMAPOST
  1

  9
$DIMALT
 70
             0
  9
$DIMALTD
 70
             2
  9
$DIMALTF
 40
25.4
  9
$DIMLFAC
 40
1.0
  9
$DIMTOFL
 70
             0
  9
$DIMTVP
 40
0.0
  9
$DIMTIX
 70
             0
  9
$DIMSOXD
 70
             0
  9
$DIMSAH
 70
             0
  9
$DIMBLK1
  1

  9
$DIMBLK2
  1

  9
$DIMSTYLE
  2
STANDARD
  9
$DIMCLRD
 70
             0
  9
$DIMCLRE
 70
             0
  9
$DIMCLRT
 70
             0
  9
$DIMTFAC
 40
1.0
  9
$DIMGAP
 40
0.09
  9
$DIMJUST
 70
             0
  9
$DIMSD1
 70
             0
  9
$DIMSD2
 70
             0
  9
$DIMTOLJ
 70
             1
  9
$DIMTZIN
 70
             0
  9
$DIMALTZ
 70
             0
  9
$DIMALTTZ
 70
             0
  9
$DIMFIT
 70
             3
  9
$DIMUPT
 70
             0
  9
$DIMUNIT
 70
             2
  9
$DIMDEC
 70
             4
  9
$DIMTDEC
 70
             4
  9
$DIMALTU
 70
             2
  9
$DIMALTTD
 70
             2
  9
$DIMTXSTY
  7
STANDARD
  9
$DIMAUNIT
 70
             0
  9
$LUNITS
 70
             2
  9
$LUPREC
 70
             4
  9
$SKETCHINC
 40
0.1
  9
$FILLETRAD
 40
0.0
  9
$AUNITS
 70
             0
  9
$AUPREC
 70
             0
  9
$MENU
  1
acad
  9
$ELEVATION
 40
0.0
  9
$PELEVATION
 40
0.0
  9
$THICKNESS
 40
0.0
  9
$LIMCHECK
 70
             0
  9
$BLIPMODE
 70
             1
  9
$CHAMFERA
 40
0.0
  9
$CHAMFERB
 40
0.0
  9
$CHAMFERC
 40
0.0
  9
$CHAMFERD
 40
0.0
  9
$SKPOLY
 70
             0
  9
$TDCREATE
 40
0.000000000
  9
$TDUPDATE
 40
0.000000000
  9
$TDINDWG
 40
0.0000000000
  9
$TDUSRTIMER
 40
0.0000000000
  9
$USRTIMER
 70
             1
  9
$ANGBASE
 50
0.0
  9
$ANGDIR
 70
             0
  9
$PDMODE
 70
             0
  9
$PDSIZE
 40
0.0
  9
$PLINEWID
 40
0.0
  9
$COORDS
 70
             0
  9
$SPLFRAME
 70
             0
  9
$SPLINETYPE
 70
             6
  9
$SPLINESEGS
 70
             8
  9
$ATTDIA
 70
             0
  9
$ATTREQ
 70
             1
  9
$HANDLING
 70
             1
  9
$HANDSEED
  5
198
  9
$SURFTAB1
 70
             6
  9
$SURFTAB2
 70
             6
  9
$SURFTYPE
 70
             6
  9
$SURFU
 70
             6
  9
$SURFV
 70
             6
  9
$UCSNAME
  2

  9
$UCSORG
 10
0.0
 20
0.0
 30
0.0
  9
$UCSXDIR
 10
1.0
 20
0.0
 30
0.0
  9
$UCSYDIR
 10
0.0
 20
1.0
 30
0.0
  9
$PUCSNAME
  2

  9
$PUCSORG
 10
0.0
 20
0.0
 30
0.0
  9
$PUCSXDIR
 10
1.0
 20
0.0
 30
0.0
  9
$PUCSYDIR
 10
0.0
 20
1.0
 30
0.0
  9
$USERI1
 70
             0
  9
$USERI2
 70
             0
  9
$USERI3
 70
             0
  9
$USERI4
 70
             0
  9
$USERI5
 70
             0
  9
$USERR1
 40
12.01
  9
$USERR2
 40
0.0
  9
$USERR3
 40
0.0
  9
$USERR4
 40
0.0
  9
$USERR5
 40
0.0
  9
$WORLDVIEW
 70
             1
  9
$SHADEDGE
 70
             3
  9
$SHADEDIF
 70
            70
  9
$TILEMODE
 70
             1
  9
$MAXACTVP
 70
            16
  9
$PINSBASE
 10
0.0
 20
0.0
 30
0.0
  9
$PLIMCHECK
 70
             0
  9
$PEXTMIN
 10
1.00000000000000E+20
 20
1.00000000000000E+20
 30
1.00000000000000E+20
  9
$PEXTMAX
 10
-1.00000000000000E+20
 20
-1.00000000000000E+20
 30
-1.00000000000000E+20
  9
$PLIMMIN
 10
0.0
 20
0.0
  9
$PLIMMAX
 10
12.0
 20
9.0
  9
$UNITMODE
 70
             0
  9
$VISRETAIN
 70
             0
  9
$PLINEGEN
 70
             1
  9
$PSLTSCALE
 70
             0
  9
$TREEDEPTH
 70
          3020
  9
$PICKSTYLE
 70
             1
  9
$CMLSTYLE
  2
STANDARD
  9
$CMLJUST
 70
             0
  9
$CMLSCALE
 40
1.0
  9
$PROXYGRAPHICS
 70
             0
  9
$MEASUREMENT
 70
             1
  0
ENDSEC
  0
SECTION
  2
CLASSES
  0
CLASS
  1
LWPOLYLINE
  2
AcDbPolyline
  3
"AutoCAD"
 90
        0
280
             0
281
             1
  0
CLASS
  1
IMAGE
  2
AcDbRasterImage
  3
ISM
 90
      127
280
             0
281
             1
  0
CLASS
  1
OLE2FRAME
  2
AcDbOle2Frame
  3
""
 90
        0
280
             0
281
             1
  0
CLASS
  1
HATCH
  2
AcDbHatch
  3
"ACAD_SEDONA"
 90
        0
280
             0
281
             1
  0
CLASS
  1
DICTIONARYVAR
  2
AcDbDictionaryVar
  3
"AutoCAD"
 90
        0
280
             0
281
             0
  0
CLASS
  1
RASTERVARIABLES
  2
AcDbRasterVariables
  3
ISM
 90
        0
280
             0
281
             0
  0
CLASS
  1
IMAGEDEF
  2
AcDbRasterImageDef
  3
ISM
 90
        0
280
             0
281
             0
  0
CLASS
  1
IMAGEDEF_REACTOR
  2
AcDbRasterImageDefReactor
  3
ISM
 90
        1
280
             0
281
             0
  0
CLASS
  1
IDBUFFER
  2
AcDbIdBuffer
  3
"Acad"
 90
        0
280
             0
281
             0
  0
CLASS
  1
SPATIAL_FILTER
  2
AcDbSpatialFilter
  3
"Acad"
 90
        0
280
             0
281
             0
  0
CLASS
  1
XRECORD
  2
AcDbXrecord
  3
"<Built In>"
 90
        0
280
             0
281
             0
  0
CLASS
  1
SORTENTSTABLE
  2
AcDbSortentsTable
  3
"AutoCAD"
 90
        0
280
             0
281
             0
  0
CLASS
  1
LAYER_INDEX
  2
AcDbLayerIndex
  3
"Acad"
 90
        0
280
             0
281
             0
  0
CLASS
  1
SPATIAL_INDEX
  2
AcDbSpatialIndex
  3
"Acad"
 90
        0
280
             0
281
             0
  0
CLASS
  1
OBJECT_PTR
  2
CAseDLPNTableRecord
  3
"ASE-LPNTableRecord"
 90
        1
280
             0
281
             0
  0
CLASS
  1
LAYOUT
  2
AcDbLayout
  3
"AutoCAD 2000"
 90
        0
280
             0
281
             0
  0
CLASS
  1
PLOTSETTINGS
  2
AcDbPlotSettings
  3
"AutoCAD 2000"
 90
        0
280
             0
281
             0
  0
CLASS
  1
ACDBDICTIONARYWDFLT
  2
AcDbDictionaryWithDefault
  3
"AutoCAD 2000"
 90
        0
280
             0
281
             0
  0
CLASS
  1
ACDBPLACEHOLDER
  2
AcDbPlaceHolder
  3
"AutoCAD 2000"
 90
        0
280
             0
281
             0
  0
ENDSEC
  0
SECTION
  2
TABLES
  0
TABLE
  2
VPORT
  5
7
100
AcDbSymbolTable
 70
             1
  0
VPORT
  5
15
100
AcDbSymbolTableRecord
100
AcDbViewportTableRecord
  2
*ACTIVE
 70
             0
 10
0.0
 20
0.0
 11
1.0
 21
1.0
 12
279.89778235264441
 22
37.69432864882499
 13
0.0
 23
0.0
 14
1.0
 24
1.0
 15
0.0
 25
0.0
 16
0.0
 26
0.0
 36
1.0
 17
0.0
 27
0.0
 37
0.0
 40
452.65488166346398
 41
1.60267857142857
 42
50.0
 43
0.0
 44
0.0
 50
0.0
 51
0.0
 71
             0
 72
           100
 73
             1
 74
             1
 75
             0
 76
             0
 77
             0
 78
             0
  0
ENDTAB
  0
TABLE
  2
LTYPE
  5
4
100
AcDbSymbolTable
 70
            10
  0
LTYPE
  5
11
100
AcDbSymbolTableRecord
100
AcDbLinetypeTableRecord
  2
BYBLOCK
 70
            64
  3

 72
            65
 73
             0
 40
0.0
  0
LTYPE
  5
12
100
AcDbSymbolTableRecord
100
AcDbLinetypeTableRecord
  2
BYLAYER
 70
            64
  3

 72
            65
 73
             0
 40
0.0
  0
LTYPE
  5
13
100
AcDbSymbolTableRecord
100
AcDbLinetypeTableRecord
  2
CONTINUOUS
 70
            64
  3
Solid line
 72
            65
 73
             0
 40
0.0
  0
LTYPE
  5
1D
100
AcDbSymbolTableRecord
100
AcDbLinetypeTableRecord
  2
DASHED
 70
            64
  3
Dashed
 72
            65
 73
             2
 40
15.0
 49
7.0
 74
             0
 49
-8.0
 74
             0
  0
LTYPE
  5
1E
100
AcDbSymbolTableRecord
100
AcDbLinetypeTableRecord
  2
DOTTED
 70
            64
  3
Dotted
 72
            65
 73
             2
 40
1.0
 49
0.0
 74
             0
 49
-1.0
 74
             0
  0
LTYPE
  5
1F
100
AcDbSymbolTableRecord
100
AcDbLinetypeTableRecord
  2
DOT_CENTER
 70
            64
  3
Dot_Center
 72
            65
 73
             4
 40
14.0
 49
12.0
 74
             0
 49
-1.0
 74
             0
 49
0.0
 74
             0
 49
-1.0
 74
             0
  0
LTYPE
  5
20
100
AcDbSymbolTableRecord
100
AcDbLinetypeTableRecord
  2
LONG_DASHED
 70
            64
  3
Long_Dashed
 72
            65
 73
             2
 40
15.0
 49
10.0
 74
             0
 49
-5.0
 74
             0
  0
LTYPE
  5
21
100
AcDbSymbolTableRecord
100
AcDbLinetypeTableRecord
  2
DASH_CENTER
 70
            64
  3
Dash_Center
 72
            65
 73
             4
 40
14.0
 49
11.0
 74
             0
 49
-1.0
 74
             0
 49
1.0
 74
             0
 49
-1.0
 74
             0
  0
LTYPE
  5
22
100
AcDbSymbolTableRecord
100
AcDbLinetypeTableRecord
  2
PHANTOM
 70
            64
  3
Phantom
 72
            65
 73
             6
 40
13.0
 49
10.0
 74
             0
 49
-1.0
 74
             0
 49
0.0
 74
             0
 49
-1.0
 74
             0
 49
0.0
 74
             0
 49
-1.0
 74
             0
  0
LTYPE
  5
23
100
AcDbSymbolTableRecord
100
AcDbLinetypeTableRecord
  2
CENTER_DASH_DASH
 70
            64
  3
Center_Dash_Dash
 72
            65
 73
             6
 40
14.0
 49
9.0
 74
             0
 49
-1.0
 74
             0
 49
1.0
 74
             0
 49
-1.0
 74
             0
 49
1.0
 74
             0
 49
-1.0
 74
             0
  0
ENDTAB
  0
TABLE
  2
LAYER
  5
2
100
AcDbSymbolTable
 70
            10
  0
LAYER
  5
14
100
AcDbSymbolTableRecord
100
AcDbLayerTableRecord
  2
0
 70
             0
 62
             7
  6
CONTINUOUS
  0
LAYER
  5
24
100
AcDbSymbolTableRecord
100
AcDbLayerTableRecord
  2
1
 70
             0
 62
             7
  6
CONTINUOUS
  0
LAYER
  5
25
100
AcDbSymbolTableRecord
100
AcDbLayerTableRecord
  2
LC-001-003-----0
 70
             0
 62
             7
  6
CONTINUOUS
  0
LAYER
  5
26
100
AcDbSymbolTableRecord
100
AcDbLayerTableRecord
  2
LC-002-002-----0
 70
             0
 62
             7
  6
CONTINUOUS
  0
LAYER
  5
27
100
AcDbSymbolTableRecord
100
AcDbLayerTableRecord
  2
LC-003-100-D03-0
 70
             0
 62
             7
  6
CONTINUOUS
  0
LAYER
  5
28
100
AcDbSymbolTableRecord
100
AcDbLayerTableRecord
  2
LC-004-002-----0
 70
             0
 62
             7
  6
CONTINUOUS
  0
LAYER
  5
29
100
AcDbSymbolTableRecord
100
AcDbLayerTableRecord
  2
LC-005-002-RND-0
 70
             0
 62
             7
  6
CONTINUOUS
  0
LAYER
  5
2A
100
AcDbSymbolTableRecord
100
AcDbLayerTableRecord
  2
LC-008-100-D03-0
 70
             0
 62
             7
  6
CONTINUOUS
  0
LAYER
  5
2B
100
AcDbSymbolTableRecord
100
AcDbLayerTableRecord
  2
LC-009-002-RND-0
 70
             0
 62
             7
  6
CONTINUOUS
  0
LAYER
  5
2C
100
AcDbSymbolTableRecord
100
AcDbLayerTableRecord
  2
LC-009-005-----0
 70
             0
 62
             7
  6
CONTINUOUS
  0
ENDTAB
  0
TABLE
  2
STYLE
  5
3
100
AcDbSymbolTable
 70
             2
  0
STYLE
  5
17
100
AcDbSymbolTableRecord
100
AcDbTextStyleTableRecord
  2
STANDARD
 70
             0
 40
0.0
 41
1.0
 50
0.0
 71
             0
 42
0.0
  3
txt
  4

  0
STYLE
  5
14E
100
AcDbSymbolTableRecord
100
AcDbTextStyleTableRecord
  2
CONVERTER_1
 70
             0
 40
0.0
 41
0.9
 50
0.0
 71
             0
 42
0.0
  3
txt.shx
  4

  0
ENDTAB
  0
TABLE
  2
VIEW
  5
5
100
AcDbSymbolTable
 70
             0
  0
ENDTAB
  0
TABLE
  2
UCS
  5
6
100
AcDbSymbolTable
 70
             0
  0
ENDTAB
  0
TABLE
  2
APPID
  5
8
100
AcDbSymbolTable
 70
             1
  0
APPID
  5
16
100
AcDbSymbolTableRecord
100
AcDbRegAppTableRecord
  2
ACAD
 70
             0
  0
ENDTAB
  0
TABLE
  2
DIMSTYLE
  5
9
100
AcDbSymbolTable
 70
             8
  0
DIMSTYLE
105
18
100
AcDbSymbolTableRecord
100
AcDbDimStyleTableRecord
  2
STANDARD
 70
             0
  3

  4

  5

  6

  7

 40
1.0
 41
0.18
 42
0.0625
 43
0.38
 44
0.18
 45
0.0
 46
0.0
 47
0.0
 48
0.0
 71
             0
 72
             0
 73
             1
 74
             1
 75
             0
 76
             0
 77
             0
 78
             0
140
0.18
141
0.09
142
0.0
143
25.4
144
1.0
145
0.0
146
1.0
147
0.09
170
             0
171
             2
172
             0
173
             0
174
             0
175
             0
176
             0
177
             0
178
             0
270
             2
271
             4
272
             4
273
             2
274
             2
275
             0
280
             0
281
             0
282
             0
283
             1
284
             0
285
             0
286
             0
287
             3
288
             0
340
17
  0
DIMSTYLE
105
151
100
AcDbSymbolTableRecord
100
AcDbDimStyleTableRecord
  2
ME10_DIM_0
 70
             0
  3

  4

  5

  6

  7

 40
1.0
 41
12.0
 42
0.0
 43
0.38
 44
2.0
 45
0.0
 46
0.0
 47
0.0
 48
0.0
 71
             0
 72
             0
 73
             0
 74
             0
 75
             0
 76
             0
 77
             1
 78
             8
140
12.0
141
0.09
142
0.0
143
25.4
144
1.0
145
0.0
146
1.0
147
0.625
170
             0
171
             2
172
             1
173
             1
174
             0
175
             0
176
             4
177
             4
178
             1
270
             2
271
             2
272
             4
273
             2
274
             2
275
             0
280
             0
281
             0
282
             0
283
             1
284
             0
285
             0
286
             0
287
             3
288
             0
340
14E
  0
DIMSTYLE
105
15E
100
AcDbSymbolTableRecord
100
AcDbDimStyleTableRecord
  2
ME10_DIM_1
 70
             0
  3

  4

  5

  6

  7

 40
1.0
 41
12.0
 42
0.0
 43
0.38
 44
2.0
 45
0.0
 46
0.0
 47
0.0
 48
0.0
 71
             0
 72
             0
 73
             0
 74
             0
 75
             0
 76
             0
 77
             1
 78
             8
140
12.0
141
0.09
142
0.0
143
25.4
144
1.0
145
0.0
146
1.0
147
0.625
170
             0
171
             2
172
             1
173
             1
174
             0
175
             0
176
             4
177
             4
178
             1
270
             2
271
             2
272
             4
273
             2
274
             2
275
             0
280
             0
281
             0
282
             0
283
             1
284
             0
285
             0
286
             0
287
             3
288
             0
340
14E
  0
DIMSTYLE
105
169
100
AcDbSymbolTableRecord
100
AcDbDimStyleTableRecord
  2
ME10_DIM_2
 70
             0
  3

  4

  5

  6

  7

 40
1.0
 41
12.0
 42
0.0
 43
0.38
 44
2.0
 45
0.0
 46
0.0
 47
0.0
 48
0.0
 71
             0
 72
             0
 73
             0
 74
             0
 75
             0
 76
             0
 77
             1
 78
             8
140
12.0
141
0.09
142
0.0
143
25.4
144
1.0
145
0.0
146
1.0
147
0.625
170
             0
171
             2
172
             1
173
             1
174
             0
175
             0
176
             4
177
             4
178
             1
270
             2
271
             2
272
             4
273
             2
274
             2
275
             0
280
             0
281
             0
282
             0
283
             1
284
             0
285
             0
286
             0
287
             3
288
             0
340
14E
  0
DIMSTYLE
105
174
100
AcDbSymbolTableRecord
100
AcDbDimStyleTableRecord
  2
ME10_DIM_3
 70
             0
  3
DN<>
  4

  5

  6

  7

 40
1.0
 41
12.0
 42
0.0
 43
0.38
 44
2.0
 45
0.0
 46
0.0
 47
0.0
 48
0.0
 71
             0
 72
             0
 73
             0
 74
             0
 75
             0
 76
             0
 77
             1
 78
             8
140
12.0
141
0.09
142
0.0
143
25.4
144
1.0
145
0.0
146
1.0
147
0.625
170
             0
171
             2
172
             1
173
             1
174
             0
175
             0
176
             4
177
             4
178
             1
270
             2
271
             2
272
             4
273
             2
274
             2
275
             0
280
             0
281
             0
282
             0
283
             1
284
             0
285
             0
286
             0
287
             3
288
             0
340
14E
  0
DIMSTYLE
105
17F
100
AcDbSymbolTableRecord
100
AcDbDimStyleTableRecord
  2
ME10_DIM_4
 70
             0
  3
DN<>
  4

  5

  6

  7

 40
1.0
 41
12.0
 42
0.0
 43
0.38
 44
2.0
 45
0.0
 46
0.0
 47
0.0
 48
0.0
 71
             0
 72
             0
 73
             0
 74
             0
 75
             0
 76
             0
 77
             1
 78
             8
140
12.0
141
0.09
142
0.0
143
25.4
144
1.0
145
0.0
146
1.0
147
0.625
170
             0
171
             2
172
             1
173
             1
174
             0
175
             0
176
             4
177
             4
178
             1
270
             2
271
             2
272
             4
273
             2
274
             2
275
             0
280
             0
281
             0
282
             0
283
             1
284
             0
285
             0
286
             0
287
             3
288
             0
340
14E
  0
DIMSTYLE
105
18A
100
AcDbSymbolTableRecord
100
AcDbDimStyleTableRecord
  2
ME10_DIM_5
 70
             0
  3

  4

  5

  6

  7

 40
1.0
 41
12.0
 42
0.0
 43
0.38
 44
2.0
 45
0.0
 46
0.0
 47
0.0
 48
0.0
 71
             0
 72
             0
 73
             0
 74
             0
 75
             0
 76
             0
 77
             1
 78
             8
140
12.0
141
0.09
142
0.0
143
25.4
144
1.0
145
0.0
146
1.0
147
0.625
170
             0
171
             2
172
             1
173
             1
174
             0
175
             0
176
             4
177
             4
178
             1
270
             2
271
             2
272
             4
273
             2
274
             2
275
             0
280
             0
281
             0
282
             0
283
             1
284
             0
285
             0
286
             0
287
             3
288
             0
340
14E
  0
DIMSTYLE
105
195
100
AcDbSymbolTableRecord
100
AcDbDimStyleTableRecord
  2
ME10_DIM_6
 70
             0
  3

  4

  5

  6

  7

 40
1.0
 41
12.0
 42
0.0
 43
0.38
 44
2.0
 45
0.0
 46
0.0
 47
0.0
 48
0.0
 71
             0
 72
             0
 73
             0
 74
             0
 75
             0
 76
             0
 77
             1
 78
             8
140
12.0
141
0.09
142
0.0
143
25.4
144
1.0
145
0.0
146
1.0
147
0.625
170
             0
171
             2
172
             1
173
             1
174
             0
175
             0
176
             4
177
             4
178
             1
270
             2
271
             2
272
             4
273
             2
274
             2
275
             0
280
             0
281
             0
282
             0
283
             1
284
             0
285
             0
286
             0
287
             3
288
             0
340
14E
  0
ENDTAB
  0
TABLE
  2
BLOCK_RECORD
  5
1
100
AcDbSymbolTable
 70
             9
  0
BLOCK_RECORD
  5
A
100
AcDbSymbolTableRecord
100
AcDbBlockTableRecord
  2
*MODEL_SPACE
  0
BLOCK_RECORD
  5
B
100
AcDbSymbolTableRecord
100
AcDbBlockTableRecord
  2
*PAPER_SPACE
  0
BLOCK_RECORD
  5
2D
100
AcDbSymbolTableRecord
100
AcDbBlockTableRecord
  2
HL_710_R_CKSTAUVERSCHLS__1
  0
BLOCK_RECORD
  5
2F
100
AcDbSymbolTableRecord
100
AcDbBlockTableRecord
  2
HL_710_R_CKSTAUVERSCHLS__2
  0
BLOCK_RECORD
  5
147
100
AcDbSymbolTableRecord
100
AcDbBlockTableRecord
  2
*D2
  0
BLOCK_RECORD
  5
153
100
AcDbSymbolTableRecord
100
AcDbBlockTableRecord
  2
*D3
  0
BLOCK_RECORD
  5
160
100
AcDbSymbolTableRecord
100
AcDbBlockTableRecord
  2
*D4
  0
BLOCK_RECORD
  5
16B
100
AcDbSymbolTableRecord
100
AcDbBlockTableRecord
  2
*D5
  0
BLOCK_RECORD
  5
176
100
AcDbSymbolTableRecord
100
AcDbBlockTableRecord
  2
*D6
  0
BLOCK_RECORD
  5
181
100
AcDbSymbolTableRecord
100
AcDbBlockTableRecord
  2
*D7
  0
BLOCK_RECORD
  5
18C
100
AcDbSymbolTableRecord
100
AcDbBlockTableRecord
  2
*D8
  0
ENDTAB
  0
ENDSEC
  0
SECTION
  2
BLOCKS
  0
BLOCK
  5
D
100
AcDbEntity
  8
0
100
AcDbBlockBegin
  2
*MODEL_SPACE
 70
             0
 10
0.0
 20
0.0
 30
0.0
  3
*MODEL_SPACE
  1

  0
ENDBLK
  5
E
100
AcDbEntity
  8
0
100
AcDbBlockEnd
  0
BLOCK
  5
F
100
AcDbEntity
 67
             1
  8
0
100
AcDbBlockBegin
  2
*PAPER_SPACE
 70
             0
 10
0.0
 20
0.0
 30
0.0
  3
*PAPER_SPACE
  1

  0
ENDBLK
  5
10
100
AcDbEntity
 67
             1
  8
0
100
AcDbBlockEnd
  0
BLOCK
  5
2E
100
AcDbEntity
  8
0
100
AcDbBlockBegin
  2
HL_710_R_CKSTAUVERSCHLS__1
 70
             0
 10
-6.0
 20
-76.50355223895951
 30
0.0
  3
HL_710_R_CKSTAUVERSCHLS__1
  1

  0
ARC
  5
DD
100
AcDbEntity
  8
LC-005-002-RND-0
  6
CONTINUOUS
 62
             7
100
AcDbCircle
 10
65.712558
 20
-71.50355223895951
 40
5.00000000000003
100
AcDbArc
 50
-179.00000000000475
 51
-90.0
  0
ARC
  5
DC
100
AcDbEntity
  8
LC-005-002-RND-0
  6
CONTINUOUS
 62
             7
100
AcDbCircle
 10
55.65037100000001
 20
103.99217276104049
 40
0.5
100
AcDbArc
 50
180.0
 51
-90.0
  0
ARC
  5
DB
100
AcDbEntity
  8
LC-005-002-RND-0
  6
CONTINUOUS
 62
             7
100
AcDbCircle
 10
58.15037100000001
 20
115.49217276104049
 40
3.0
100
AcDbArc
 50
90.0
 51
180.0
  0
ARC
  5
DA
100
AcDbEntity
  8
LC-005-002-RND-0
  6
CONTINUOUS
 62
             7
100
AcDbCircle
 10
237.150935
 20
115.49217276104049
 40
3.0
100
AcDbArc
 50
0.0
 51
90.0
  0
ARC
  5
D9
100
AcDbEntity
  8
LC-005-002-RND-0
  6
CONTINUOUS
 62
             7
100
AcDbCircle
 10
239.650935
 20
103.99217276104049
 40
0.5
100
AcDbArc
 50
-90.0
 51
0.0
  0
ARC
  5
D8
100
AcDbEntity
  8
LC-005-002-RND-0
  6
CONTINUOUS
 62
             7
100
AcDbCircle
 10
91.729861
 20
-72.00330823895951
 40
0.5
100
AcDbArc
 50
90.0
 51
180.0
  0
ARC
  5
D7
100
AcDbEntity
  8
LC-005-002-RND-0
  6
CONTINUOUS
 62
             7
100
AcDbCircle
 10
90.729861
 20
-76.00355223895951
 40
0.5
100
AcDbArc
 50
-90.0
 51
0.0
  0
ARC
  5
D6
100
AcDbEntity
  8
LC-005-002-RND-0
  6
CONTINUOUS
 62
             7
100
AcDbCircle
 10
103.15065300000001
 20
96.53937276104138
 40
0.5
100
AcDbArc
 50
-90.0
 51
0.0
  0
ARC
  5
D5
100
AcDbEntity
  8
LC-005-002-RND-0
  6
CONTINUOUS
 62
             7
100
AcDbCircle
 10
84.15065300000001
 20
96.53937276104138
 40
0.5
100
AcDbArc
 50
180.0
 51
-90.0
  0
ARC
  5
D4
100
AcDbEntity
  8
LC-005-002-RND-0
  6
CONTINUOUS
 62
             7
100
AcDbCircle
 10
84.15065300000001
 20
102.99217276104049
 40
0.5
100
AcDbArc
 50
90.0
 51
180.0
  0
ARC
  5
D3
100
AcDbEntity
  8
LC-005-002-RND-0
  6
CONTINUOUS
 62
             7
100
AcDbCircle
 10
103.15065300000001
 20
102.99217276104049
 40
0.5
100
AcDbArc
 50
0.0
 51
90.0
  0
ARC
  5
D2
100
AcDbEntity
  8
LC-005-002-RND-0
  6
CONTINUOUS
 62
             7
100
AcDbCircle
 10
84.15065300000001
 20
110.99217276104049
 40
0.5
100
AcDbArc
 50
90.0
 51
180.0
  0
ARC
  5
D1
100
AcDbEntity
  8
LC-005-002-RND-0
  6
CONTINUOUS
 62
             7
100
AcDbCircle
 10
103.15065300000001
 20
110.99217276104049
 40
0.5
100
AcDbArc
 50
0.0
 51
90.0
  0
ARC
  5
D0
100
AcDbEntity
  8
LC-005-002-RND-0
  6
CONTINUOUS
 62
             7
100
AcDbCircle
 10
84.15065300000001
 20
103.99217276104049
 40
0.5
100
AcDbArc
 50
180.0
 51
-90.0
  0
ARC
  5
CF
100
AcDbEntity
  8
LC-005-002-RND-0
  6
CONTINUOUS
 62
             7
100
AcDbCircle
 10
103.15065300000001
 20
103.99217276104049
 40
0.5
100
AcDbArc
 50
-90.0
 51
0.0
  0
ARC
  5
CE
100
AcDbEntity
  8
LC-004-002-----0
  6
CONTINUOUS
 62
             7
100
AcDbCircle
 10
43.26326
 20
60.94644576104048
 40
1.5
100
AcDbArc
 50
0.0
 51
180.0
  0
ARC
  5
CD
100
AcDbEntity
  8
LC-004-002-----0
  6
CONTINUOUS
 62
             7
100
AcDbCircle
 10
43.26326599999999
 20
-60.94645023895953
 40
1.50000000000001
100
AcDbArc
 50
-179.99999399998697
 51
0.00000600001466
  0
ARC
  5
CC
100
AcDbEntity
  8
LC-008-100-D03-0
  6
CONTINUOUS
 62
             7
100
AcDbCircle
 10
8.47050100000001
 20
-59.85631723895949
 40
4.97050100000001
100
AcDbArc
 50
180.0
 51
-92.99999500000132
  0
ARC
  5
CB
100
AcDbEntity
  8
LC-008-100-D03-0
  6
CONTINUOUS
 62
             7
100
AcDbCircle
 10
0.49705
 20
-58.79844323895952
 40
0.49705
100
AcDbArc
 50
180.0
 51
-103.6892210000476
  0
ARC
  5
CA
100
AcDbEntity
  8
LC-008-100-D03-0
  6
CONTINUOUS
 62
             7
100
AcDbCircle
 10
0.49705
 20
58.79133876104049
 40
0.4970499999995
100
AcDbArc
 50
94.00763499999559
 51
180.0
  0
ARC
  5
C9
100
AcDbEntity
  8
LC-008-100-D03-0
  6
CONTINUOUS
 62
             7
100
AcDbCircle
 10
8.47050100000001
 20
59.84921376104052
 40
4.97050099999971
100
AcDbArc
 50
92.99999500000136
 51
180.0
  0
ARC
  5
C8
100
AcDbEntity
  8
LC-002-002-----0
  6
CONTINUOUS
 62
             7
100
AcDbCircle
 10
95.15090355548517
 20
136.39050767339091
 40
1.00000000000051
100
AcDbArc
 50
-90.00005799990878
 51
0.0
  0
ARC
  5
C7
100
AcDbEntity
  8
LC-002-002-----0
  6
CONTINUOUS
 62
             7
100
AcDbCircle
 10
92.15090355548517
 20
136.39050767339091
 40
1.0
100
AcDbArc
 50
180.0
 51
-90.00005799990878
  0
ARC
  5
C6
100
AcDbEntity
  8
LC-002-002-----0
  6
CONTINUOUS
 62
             7
100
AcDbCircle
 10
92.15090355548517
 20
139.1020296533114
 40
1.0
100
AcDbArc
 50
90.0
 51
180.0
  0
ARC
  5
C5
100
AcDbEntity
  8
LC-002-002-----0
  6
CONTINUOUS
 62
             7
100
AcDbCircle
 10
95.15090355548517
 20
139.1020296533114
 40
1.00000000000352
100
AcDbArc
 50
0.00015200005373
 51
90.0
  0
ARC
  5
C4
100
AcDbEntity
  8
LC-002-002-----0
  6
CONTINUOUS
 62
             7
100
AcDbCircle
 10
98.15090355548517
 20
138.46868165330841
 40
1.99999999999868
100
AcDbArc
 50
100.3398910000394
 51
180.0
  0
ARC
  5
C3
100
AcDbEntity
  8
LC-002-002-----0
  6
CONTINUOUS
 62
             7
100
AcDbCircle
 10
74.16622355548742
 20
136.86027567338621
 40
2.0
100
AcDbArc
 50
180.0
 51
-106.72685999991813
  0
ARC
  5
C2
100
AcDbEntity
  8
LC-002-002-----0
  6
CONTINUOUS
 62
             7
100
AcDbCircle
 10
93.64856355548608
 20
201.69660515547449
 40
69.7001561908814
100
AcDbArc
 50
-106.64675155019385
 51
-73.27506491510096
  0
ARC
  5
C1
100
AcDbEntity
  8
LC-002-002-----0
  6
CONTINUOUS
 62
             7
100
AcDbCircle
 10
74.16600655548672
 20
137.02401667339021
 40
2.00000000000042
100
AcDbArc
 50
-179.99996299987478
 51
-100.33991199995982
  0
ARC
  5
C0
100
AcDbEntity
  8
LC-002-002-----0
  6
CONTINUOUS
 62
             7
100
AcDbCircle
 10
74.16622355548742
 20
138.63226065330841
 40
2.00000000000281
100
AcDbArc
 50
106.72680100014976
 51
180.0
  0
ARC
  5
BF
100
AcDbEntity
  8
LC-002-002-----0
  6
CONTINUOUS
 62
             7
100
AcDbCircle
 10
93.64856355548608
 20
73.80442790908444
 40
69.69201988818836
100
AcDbArc
 50
73.2732175347343
 51
106.72680053473859
  0
ARC
  5
BE
100
AcDbEntity
  8
LC-002-002-----0
  6
CONTINUOUS
 62
             7
100
AcDbCircle
 10
74.16600555548638
 20
138.46884365331229
 40
1.99999999999832
100
AcDbArc
 50
100.34000299989337
 51
-179.99996299987561
  0
ARC
  5
BD
100
AcDbEntity
  8
LC-002-002-----0
  6
CONTINUOUS
 62
             7
100
AcDbCircle
 10
81.65832155548617
 20
178.08914458373781
 40
43.74301730391266
100
AcDbArc
 50
-100.33986011731032
 51
-79.65992711731117
  0
ARC
  5
BC
100
AcDbEntity
  8
LC-002-002-----0
  6
CONTINUOUS
 62
             7
100
AcDbCircle
 10
89.15068655548447
 20
137.02402567339311
 40
1.99999999999997
100
AcDbArc
 50
-79.65999500005536
 51
0.00003699991839
  0
ARC
  5
BB
100
AcDbEntity
  8
LC-002-002-----0
  6
CONTINUOUS
 62
             7
100
AcDbCircle
 10
89.15068555548777
 20
138.46885265330801
 40
2.00000000000042
100
AcDbArc
 50
0.00003700012439
 51
79.6601650001105
  0
ARC
  5
BA
100
AcDbEntity
  8
LC-002-002-----0
  6
CONTINUOUS
 62
             7
100
AcDbCircle
 10
81.65837055548457
 20
97.40370207085817
 40
43.74303960783369
100
AcDbArc
 50
79.66016208407493
 51
100.33992508408151
  0
ARC
  5
B9
100
AcDbEntity
  8
LC-002-002-----0
  6
CONTINUOUS
 62
             7
100
AcDbCircle
 10
113.13090355548469
 20
136.86027567338621
 40
2.00000000000098
100
AcDbArc
 50
-73.27304699983543
 51
0.0
  0
ARC
  5
B8
100
AcDbEntity
  8
LC-002-002-----0
  6
CONTINUOUS
 62
             7
100
AcDbCircle
 10
113.13090355548469
 20
138.63226065330841
 40
2.0
100
AcDbArc
 50
0.0
 51
73.27321800015105
  0
ARC
  5
B7
100
AcDbEntity
  8
LC-002-002-----0
  6
CONTINUOUS
 62
             7
100
AcDbCircle
 10
113.13090355548469
 20
137.02385567338661
 40
2.00000000000052
100
AcDbArc
 50
-79.65995700000747
 51
0.0
  0
ARC
  5
B6
100
AcDbEntity
  8
LC-002-002-----0
  6
CONTINUOUS
 62
             7
100
AcDbCircle
 10
105.6409035554868
 20
178.0761655998331
 40
43.72999239886971
100
AcDbArc
 50
-100.33994718957652
 51
-79.66010718956891
  0
ARC
  5
B5
100
AcDbEntity
  8
LC-002-002-----0
  6
CONTINUOUS
 62
             7
100
AcDbCircle
 10
113.13090355548469
 20
138.46868165330841
 40
2.0
100
AcDbArc
 50
0.0
 51
79.66012800003405
  0
ARC
  5
B4
100
AcDbEntity
  8
LC-002-002-----0
  6
CONTINUOUS
 62
             7
100
AcDbCircle
 10
105.6409035554868
 20
97.41636402841851
 40
43.72999997229523
100
AcDbArc
 50
79.66010899999164
 51
100.33989100000835
  0
ARC
  5
B3
100
AcDbEntity
  8
LC-002-002-----0
  6
CONTINUOUS
 62
             7
100
AcDbCircle
 10
98.15090355548517
 20
137.02385567338661
 40
2.0
100
AcDbArc
 50
180.0
 51
-100.33994900003532
  0
ARC
  5
B2
100
AcDbEntity
  8
LC-002-002-----0
  6
CONTINUOUS
 62
             7
100
AcDbCircle
 10
206.15090355093631
 20
137.02385567338661
 40
2.0
100
AcDbArc
 50
180.0
 51
-100.33994900003373
  0
ARC
  5
B1
100
AcDbEntity
  8
LC-002-002-----0
  6
CONTINUOUS
 62
             7
100
AcDbCircle
 10
213.64090355093791
 20
97.41636402841851
 40
43.72999997229525
100
AcDbArc
 50
79.66010899999149
 51
100.33989100000827
  0
ARC
  5
B0
100
AcDbEntity
  8
LC-002-002-----0
  6
CONTINUOUS
 62
             7
100
AcDbCircle
 10
221.13090355093581
 20
138.46868165330841
 40
2.0
100
AcDbArc
 50
0.0
 51
79.66012800003165
  0
ARC
  5
AF
100
AcDbEntity
  8
LC-002-002-----0
  6
CONTINUOUS
 62
             7
100
AcDbCircle
 10
213.64090355093791
 20
178.0761655998331
 40
43.72999239886969
100
AcDbArc
 50
-100.33994718957642
 51
-79.66010718956876
  0
ARC
  5
AE
100
AcDbEntity
  8
LC-002-002-----0
  6
CONTINUOUS
 62
             7
100
AcDbCircle
 10
221.13090355093581
 20
137.02385567338661
 40
2.00000000000054
100
AcDbArc
 50
-79.65995700000508
 51
0.0
  0
ARC
  5
AD
100
AcDbEntity
  8
LC-002-002-----0
  6
CONTINUOUS
 62
             7
100
AcDbCircle
 10
221.13090355093581
 20
138.63226065330841
 40
2.0
100
AcDbArc
 50
0.0
 51
73.2732180001487
  0
ARC
  5
AC
100
AcDbEntity
  8
LC-002-002-----0
  6
CONTINUOUS
 62
             7
100
AcDbCircle
 10
221.13090355093581
 20
136.86027567338621
 40
2.00000000000098
100
AcDbArc
 50
-73.27304699983583
 51
0.0
  0
ARC
  5
AB
100
AcDbEntity
  8
LC-002-002-----0
  6
CONTINUOUS
 62
             7
100
AcDbCircle
 10
189.6583705509357
 20
97.40370207085817
 40
43.74303960783369
100
AcDbArc
 50
79.66016208407493
 51
100.33992508408144
  0
ARC
  5
AA
100
AcDbEntity
  8
LC-002-002-----0
  6
CONTINUOUS
 62
             7
100
AcDbCircle
 10
197.1506855509389
 20
138.46885265330801
 40
2.00000000000042
100
AcDbArc
 50
0.00003700012439
 51
79.6601650001105
  0
ARC
  5
A9
100
AcDbEntity
  8
LC-002-002-----0
  6
CONTINUOUS
 62
             7
100
AcDbCircle
 10
197.1506865509356
 20
137.02402567339311
 40
1.99999999999999
100
AcDbArc
 50
-79.65999500005297
 51
0.00003699991839
  0
ARC
  5
A8
100
AcDbEntity
  8
LC-002-002-----0
  6
CONTINUOUS
 62
             7
100
AcDbCircle
 10
189.6583215509373
 20
178.08914458373781
 40
43.74301730391264
100
AcDbArc
 50
-100.33986011731024
 51
-79.65992711731117
  0
ARC
  5
A7
100
AcDbEntity
  8
LC-002-002-----0
  6
CONTINUOUS
 62
             7
100
AcDbCircle
 10
182.16600555093751
 20
138.46884365331229
 40
1.99999999999831
100
AcDbArc
 50
100.34000299989177
 51
-179.99996299987561
  0
ARC
  5
A6
100
AcDbEntity
  8
LC-002-002-----0
  6
CONTINUOUS
 62
             7
100
AcDbCircle
 10
201.64856355093721
 20
73.80442790908444
 40
69.69201988818837
100
AcDbArc
 50
73.27321753473424
 51
106.72680053473854
  0
ARC
  5
A5
100
AcDbEntity
  8
LC-002-002-----0
  6
CONTINUOUS
 62
             7
100
AcDbCircle
 10
182.16622355093861
 20
138.63226065330841
 40
2.0000000000028
100
AcDbArc
 50
106.726801000149
 51
180.0
  0
ARC
  5
A4
100
AcDbEntity
  8
LC-002-002-----0
  6
CONTINUOUS
 62
             7
100
AcDbCircle
 10
182.16600655093791
 20
137.02401667339021
 40
2.00000000000042
100
AcDbArc
 50
-179.99996299987478
 51
-100.33991199995982
  0
ARC
  5
A3
100
AcDbEntity
  8
LC-002-002-----0
  6
CONTINUOUS
 62
             7
100
AcDbCircle
 10
201.64856355093721
 20
201.69660515547449
 40
69.7001561908814
100
AcDbArc
 50
-106.64675155019385
 51
-73.27506491510091
  0
ARC
  5
A2
100
AcDbEntity
  8
LC-002-002-----0
  6
CONTINUOUS
 62
             7
100
AcDbCircle
 10
182.16622355093861
 20
136.86027567338621
 40
2.0
100
AcDbArc
 50
180.0
 51
-106.72685999991813
  0
ARC
  5
A1
100
AcDbEntity
  8
LC-002-002-----0
  6
CONTINUOUS
 62
             7
100
AcDbCircle
 10
206.15090355093631
 20
138.46868165330841
 40
1.99999999999867
100
AcDbArc
 50
100.3398910000378
 51
180.0
  0
ARC
  5
A0
100
AcDbEntity
  8
LC-002-002-----0
  6
CONTINUOUS
 62
             7
100
AcDbCircle
 10
203.15090355093631
 20
139.1020296533114
 40
1.00000000000352
100
AcDbArc
 50
0.00015200005373
 51
90.0
  0
ARC
  5
9F
100
AcDbEntity
  8
LC-002-002-----0
  6
CONTINUOUS
 62
             7
100
AcDbCircle
 10
200.15090355093631
 20
139.1020296533114
 40
1.0
100
AcDbArc
 50
90.0
 51
180.0
  0
ARC
  5
9E
100
AcDbEntity
  8
LC-002-002-----0
  6
CONTINUOUS
 62
             7
100
AcDbCircle
 10
200.15090355093631
 20
136.39050767339091
 40
1.0
100
AcDbArc
 50
180.0
 51
-90.00005799990552
  0
ARC
  5
9D
100
AcDbEntity
  8
LC-002-002-----0
  6
CONTINUOUS
 62
             7
100
AcDbCircle
 10
203.15090355093631
 20
136.39050767339091
 40
1.00000000000051
100
AcDbArc
 50
-90.00005799990552
 51
0.0
  0
ARC
  5
9C
100
AcDbEntity
  8
LC-005-002-RND-0
  6
CONTINUOUS
 62
             7
100
AcDbCircle
 10
211.1506529954512
 20
103.99217276104049
 40
0.5
100
AcDbArc
 50
-90.0
 51
0.0
  0
ARC
  5
9B
100
AcDbEntity
  8
LC-005-002-RND-0
  6
CONTINUOUS
 62
             7
100
AcDbCircle
 10
192.1506529954512
 20
103.99217276104049
 40
0.5
100
AcDbArc
 50
180.0
 51
-90.0
  0
ARC
  5
9A
100
AcDbEntity
  8
LC-005-002-RND-0
  6
CONTINUOUS
 62
             7
100
AcDbCircle
 10
211.1506529954512
 20
110.99217276104049
 40
0.5
100
AcDbArc
 50
0.0
 51
90.0
  0
ARC
  5
99
100
AcDbEntity
  8
LC-005-002-RND-0
  6
CONTINUOUS
 62
             7
100
AcDbCircle
 10
192.1506529954512
 20
110.99217276104049
 40
0.5
100
AcDbArc
 50
90.0
 51
180.0
  0
ARC
  5
98
100
AcDbEntity
  8
LC-005-002-RND-0
  6
CONTINUOUS
 62
             7
100
AcDbCircle
 10
211.1506529954512
 20
102.99217276104049
 40
0.5
100
AcDbArc
 50
0.0
 51
90.0
  0
ARC
  5
97
100
AcDbEntity
  8
LC-005-002-RND-0
  6
CONTINUOUS
 62
             7
100
AcDbCircle
 10
192.1506529954512
 20
102.99217276104049
 40
0.5
100
AcDbArc
 50
90.0
 51
180.0
  0
ARC
  5
96
100
AcDbEntity
  8
LC-005-002-RND-0
  6
CONTINUOUS
 62
             7
100
AcDbCircle
 10
192.1506529954512
 20
96.53937276104138
 40
0.5
100
AcDbArc
 50
180.0
 51
-90.0
  0
ARC
  5
95
100
AcDbEntity
  8
LC-005-002-RND-0
  6
CONTINUOUS
 62
             7
100
AcDbCircle
 10
211.1506529954512
 20
96.53937276104138
 40
0.5
100
AcDbArc
 50
-90.0
 51
0.0
  0
LINE
  5
94
100
AcDbEntity
  8
LC-004-002-----0
  6
CONTINUOUS
 62
             7
100
AcDbLine
 10
297.49704100000002
 20
38.4977267610405
 11
236.50990999999999
 21
38.49612976104049
  0
LINE
  5
93
100
AcDbEntity
  8
LC-004-002-----0
  6
CONTINUOUS
 62
             7
100
AcDbLine
 10
297.49704100000002
 20
38.4977267610405
 11
297.49704100000002
 21
-71.50312323895952
  0
LINE
  5
92
100
AcDbEntity
  8
LC-004-002-----0
  6
CONTINUOUS
 62
             7
100
AcDbLine
 10
301.996757
 20
37.29203176104051
 11
301.996757
 21
-70.22493223895953
  0
LINE
  5
91
100
AcDbEntity
  8
LC-004-002-----0
  6
CONTINUOUS
 62
             7
100
AcDbLine
 10
297.49704100000002
 20
38.4977267610405
 11
301.996757
 21
37.29203176104051
  0
LINE
  5
90
100
AcDbEntity
  8
LC-004-002-----0
  6
CONTINUOUS
 62
             7
100
AcDbLine
 10
297.49704200000002
 20
-71.50312323895952
 11
301.996757
 21
-70.22493223895953
  0
LINE
  5
8F
100
AcDbEntity
  8
LC-004-002-----0
  6
CONTINUOUS
 62
             7
100
AcDbLine
 10
234.59630300000001
 20
-71.50330823895951
 11
297.49704200000002
 21
-71.50312323895952
  0
LINE
  5
8E
100
AcDbEntity
  8
LC-004-002-----0
  6
CONTINUOUS
 62
             7
100
AcDbLine
 10
60.71275499999999
 20
-71.5908242389595
 11
57.64794199999999
 21
103.49217276104049
  0
LINE
  5
8D
100
AcDbEntity
  8
LC-004-002-----0
  6
CONTINUOUS
 62
             7
100
AcDbLine
 10
92.14711199999999
 20
96.03937276104138
 11
92.14711199999999
 21
74.86383312658894
  0
LINE
  5
8C
100
AcDbEntity
  8
LC-004-002-----0
  6
CONTINUOUS
 62
             7
100
AcDbLine
 10
84.15065300000001
 20
96.03937276104138
 11
103.15065300000001
 21
96.03937276104138
  0
LINE
  5
8B
100
AcDbEntity
  8
LC-004-002-----0
  6
CONTINUOUS
 62
             7
100
AcDbLine
 10
83.65065300000001
 20
102.99217276104049
 11
83.65065300000001
 21
96.53937276104138
  0
LINE
  5
8A
100
AcDbEntity
  8
LC-004-002-----0
  6
CONTINUOUS
 62
             7
100
AcDbLine
 10
103.65065300000001
 20
96.53937276104138
 11
103.65065300000001
 21
102.99217276104049
  0
LINE
  5
89
100
AcDbEntity
  8
LC-004-002-----0
  6
CONTINUOUS
 62
             7
100
AcDbLine
 10
55.65037100000001
 20
103.49217276104049
 11
239.650935
 21
103.49217276104049
  0
LINE
  5
88
100
AcDbEntity
  8
LC-004-002-----0
  6
CONTINUOUS
 62
             7
100
AcDbLine
 10
103.15065300000001
 20
111.4921657610405
 11
103.15065300000001
 21
132.64718756762281
  0
LINE
  5
87
100
AcDbEntity
  8
LC-004-002-----0
  6
CONTINUOUS
 62
             7
100
AcDbLine
 10
84.15097700000001
 20
111.49217876104051
 11
103.15065300000001
 21
111.4921657610405
  0
LINE
  5
86
100
AcDbEntity
  8
LC-004-002-----0
  6
CONTINUOUS
 62
             7
100
AcDbLine
 10
84.15096399999999
 20
111.49217876104051
 11
84.15097722610214
 21
132.6465680305825
  0
LINE
  5
85
100
AcDbEntity
  8
LC-004-002-----0
  6
CONTINUOUS
 62
             7
100
AcDbLine
 10
58.15037100000001
 20
118.49217276104049
 11
84.150969
 21
118.49217276104049
  0
LINE
  5
84
100
AcDbEntity
  8
LC-004-002-----0
  6
CONTINUOUS
 62
             7
100
AcDbLine
 10
103.15065300000001
 20
118.49217276104049
 11
192.150969
 21
118.49217276104049
  0
LINE
  5
83
100
AcDbEntity
  8
LC-004-002-----0
  6
CONTINUOUS
 62
             7
100
AcDbLine
 10
211.15065300000001
 20
118.49217276104049
 11
237.08093500000001
 21
118.49217276104049
  0
LINE
  5
82
100
AcDbEntity
  8
LC-004-002-----0
  6
CONTINUOUS
 62
             7
100
AcDbLine
 10
55.15037100000001
 20
115.49217276104049
 11
55.15037100000001
 21
103.99217276104049
  0
LINE
  5
81
100
AcDbEntity
  8
LC-004-002-----0
  6
CONTINUOUS
 62
             7
100
AcDbLine
 10
240.150935
 20
115.49217276104049
 11
240.150935
 21
103.99217276104049
  0
LINE
  5
80
100
AcDbEntity
  8
LC-004-002-----0
  6
CONTINUOUS
 62
             7
100
AcDbLine
 10
95.14711199999999
 20
96.03937276104138
 11
95.14711199999999
 21
74.86383312658894
  0
LINE
  5
7F
100
AcDbEntity
  8
LC-004-002-----0
  6
CONTINUOUS
 62
             7
100
AcDbLine
 10
92.14711199999999
 20
74.86383312658894
 11
95.14711199999999
 21
74.86383312658894
  0
LINE
  5
7E
100
AcDbEntity
  8
LC-004-002-----0
  6
CONTINUOUS
 62
             7
100
AcDbLine
 10
91.729861
 20
-71.50330823895951
 11
234.59630300000001
 21
-71.50330823895951
  0
LINE
  5
7D
100
AcDbEntity
  8
LC-004-002-----0
  6
CONTINUOUS
 62
             7
100
AcDbLine
 10
65.712558
 20
-76.50355223895951
 11
90.729861
 21
-76.50355223895951
  0
LINE
  5
7C
100
AcDbEntity
  8
LC-004-002-----0
  6
CONTINUOUS
 62
             7
100
AcDbLine
 10
91.229861
 20
5.86368676104053
 11
91.229861
 21
-76.00355223895951
  0
LINE
  5
7B
100
AcDbEntity
  8
LC-004-002-----0
  6
CONTINUOUS
 62
             7
100
AcDbLine
 10
234.59630300000001
 20
-71.50330823895951
 11
237.649314
 21
103.49217276104049
  0
LINE
  5
7A
100
AcDbEntity
  8
LC-004-002-----0
  6
CONTINUOUS
 62
             7
100
AcDbLine
 10
84.15065300000001
 20
111.49217276104049
 11
103.15065300000001
 21
111.49217276104049
  0
LINE
  5
79
100
AcDbEntity
  8
LC-004-002-----0
  6
CONTINUOUS
 62
             7
100
AcDbLine
 10
103.65065300000001
 20
103.99217276104049
 11
103.65065300000001
 21
110.99217276104049
  0
LINE
  5
78
100
AcDbEntity
  8
LC-004-002-----0
  6
CONTINUOUS
 62
             7
100
AcDbLine
 10
83.65065300000001
 20
103.99217276104049
 11
83.65065300000001
 21
110.99217276104049
  0
LINE
  5
77
100
AcDbEntity
  8
LC-004-002-----0
  6
CONTINUOUS
 62
             7
100
AcDbLine
 10
0.37942000000001
 20
-59.28137423895953
 11
3.50000600000001
 21
-59.50000423895949
  0
LINE
  5
76
100
AcDbEntity
  8
LC-004-002-----0
  6
CONTINUOUS
 62
             7
100
AcDbLine
 10
0.462311
 20
59.2871727610405
 11
3.5
 21
59.49999576104051
  0
LINE
  5
75
100
AcDbEntity
  8
LC-008-100-D03-0
  6
CONTINUOUS
 62
             7
100
AcDbLine
 10
41.76326
 20
59.44644576104048
 11
23.76326
 21
59.44644676104048
  0
LINE
  5
74
100
AcDbEntity
  8
LC-004-002-----0
  6
CONTINUOUS
 62
             7
100
AcDbLine
 10
41.76326
 20
59.44644676104048
 11
41.76326
 21
60.94644576104048
  0
LINE
  5
73
100
AcDbEntity
  8
LC-004-002-----0
  6
CONTINUOUS
 62
             7
100
AcDbLine
 10
44.76326
 20
59.44644676104048
 11
44.76326
 21
60.94644576104048
  0
LINE
  5
72
100
AcDbEntity
  8
LC-004-002-----0
  6
CONTINUOUS
 62
             7
100
AcDbLine
 10
41.76326599999999
 20
-59.44645123895953
 11
41.76326599999999
 21
-60.94645123895953
  0
LINE
  5
71
100
AcDbEntity
  8
LC-004-002-----0
  6
CONTINUOUS
 62
             7
100
AcDbLine
 10
44.76326599999999
 20
-59.44645123895953
 11
44.76326599999999
 21
-60.94645023895953
  0
LINE
  5
70
100
AcDbEntity
  8
LC-008-100-D03-0
  6
CONTINUOUS
 62
             7
100
AcDbLine
 10
41.76326599999999
 20
-59.44644923895947
 11
23.76326
 21
-59.44644923895947
  0
LINE
  5
6F
100
AcDbEntity
  8
LC-004-002-----0
  6
CONTINUOUS
 62
             7
100
AcDbLine
 10
60.96263500000001
 20
-72.9190162389595
 11
21.31348700000001
 21
-63.69668223895951
  0
LINE
  5
6E
100
AcDbEntity
  8
LC-008-100-D03-0
  6
CONTINUOUS
 62
             7
100
AcDbLine
 10
20.29915800000001
 20
-65.4535522389595
 11
23.76326
 21
-59.45355123895951
  0
LINE
  5
6D
100
AcDbEntity
  8
LC-008-100-D03-0
  6
CONTINUOUS
 62
             7
100
AcDbLine
 10
20.29915800000001
 20
-65.4535522389595
 11
8.210365
 21
-64.82000623895948
  0
LINE
  5
6C
100
AcDbEntity
  8
LC-008-100-D03-0
  6
CONTINUOUS
 62
             7
100
AcDbLine
 10
3.5
 20
-59.85631723895949
 11
3.5
 21
-59.50000423895949
  0
LINE
  5
6B
100
AcDbEntity
  8
LC-008-100-D03-0
  6
CONTINUOUS
 62
             7
100
AcDbLine
 10
20.29915800000001
 20
65.44644776104047
 11
8.20706999999999
 21
64.81272876104049
  0
LINE
  5
6A
100
AcDbEntity
  8
LC-008-100-D03-0
  6
CONTINUOUS
 62
             7
100
AcDbLine
 10
20.29915800000001
 20
65.44644776104047
 11
23.76326
 21
59.44644676104048
  0
LINE
  5
69
100
AcDbEntity
  8
LC-008-100-D03-0
  6
CONTINUOUS
 62
             7
100
AcDbLine
 10
0.0
 20
58.79133876104049
 11
0.0
 21
56.19410276104048
  0
LINE
  5
68
100
AcDbEntity
  8
LC-008-100-D03-0
  6
CONTINUOUS
 62
             7
100
AcDbLine
 10
3.5
 20
59.84921376104052
 11
3.5
 21
59.49999576104051
  0
LINE
  5
67
100
AcDbEntity
  8
LC-008-100-D03-0
  6
CONTINUOUS
 62
             7
100
AcDbLine
 10
60.72747000000001
 20
-59.44644923895947
 11
44.76326599999999
 21
-59.44644923895947
  0
LINE
  5
66
100
AcDbEntity
  8
LC-008-100-D03-0
  6
CONTINUOUS
 62
             7
100
AcDbLine
 10
58.42549099999999
 20
59.44644476104048
 11
44.76326
 21
59.44644576104048
  0
LINE
  5
65
100
AcDbEntity
  8
LC-008-100-D03-0
  6
CONTINUOUS
 62
             7
100
AcDbLine
 10
0.0
 20
56.19410276104048
 11
0.0
 21
-58.79844323895952
  0
LINE
  5
64
100
AcDbEntity
  8
LC-009-005-----0
  6
CONTINUOUS
 62
             2
100
AcDbLine
 10
20.09345200000001
 20
-65.44277223895949
 11
20.59488400000001
 21
-64.94133923895953
  0
LINE
  5
63
100
AcDbEntity
  8
LC-004-002-----0
  6
CONTINUOUS
 62
             7
100
AcDbLine
 10
3.5
 20
59.49999576104051
 11
3.5
 21
-59.85631723895949
  0
LINE
  5
62
100
AcDbEntity
  8
LC-004-002-----0
  6
CONTINUOUS
 62
             7
100
AcDbLine
 10
20.29915800000001
 20
65.44644776104047
 11
20.29915800000001
 21
-65.44277223895949
  0
LINE
  5
61
100
AcDbEntity
  8
LC-004-002-----0
  6
CONTINUOUS
 62
             7
100
AcDbLine
 10
41.76326599999999
 20
-59.44644923895947
 11
41.76326599999999
 21
59.44644576104048
  0
LINE
  5
60
100
AcDbEntity
  8
LC-004-002-----0
  6
CONTINUOUS
 62
             7
100
AcDbLine
 10
44.76326599999999
 20
-59.44644923895947
 11
44.76326599999999
 21
59.44644576104048
  0
LINE
  5
5F
100
AcDbEntity
  8
1
  6
CONTINUOUS
 62
             7
100
AcDbLine
 10
23.76326
 20
-59.45355123895951
 11
23.76326
 21
59.44644676104048
  0
LINE
  5
5E
100
AcDbEntity
  8
1
  6
PHANTOM
 62
             2
100
AcDbLine
 10
66.24831860715949
 20
-0.00000184023105
 11
-2.66894513257961
 21
0.00000007413735
  0
LINE
  5
5D
100
AcDbEntity
  8
1
  6
PHANTOM
 62
             2
100
AcDbLine
 10
303.66142844519538
 20
-16.50260847555791
 11
230.66884539292161
 21
-16.50367150282716
  0
LINE
  5
5C
100
AcDbEntity
  8
1
  6
PHANTOM
 62
             2
100
AcDbLine
 10
93.65079579288035
 20
70.8342658408063
 11
93.65081874429919
 21
144.2532128622444
  0
LINE
  5
5B
100
AcDbEntity
  8
1
  6
DOT_CENTER
 62
             2
100
AcDbLine
 10
-6.0
 20
-55.00355223895951
 11
-3.0
 21
-55.00355223895951
  0
LINE
  5
5A
100
AcDbEntity
  8
1
  6
DOT_CENTER
 62
             2
100
AcDbLine
 10
-6.0
 20
54.99644776104049
 11
-3.0
 21
54.99644776104049
  0
LINE
  5
59
100
AcDbEntity
  8
LC-002-002-----0
  6
CONTINUOUS
 62
             7
100
AcDbLine
 10
92.15090355548517
 20
135.39050767339091
 11
95.15090355548517
 21
135.39050767339091
  0
LINE
  5
58
100
AcDbEntity
  8
LC-002-002-----0
  6
CONTINUOUS
 62
             7
100
AcDbLine
 10
96.15090355548517
 20
136.39050767339091
 11
96.15090355548517
 21
139.1020296533114
  0
LINE
  5
57
100
AcDbEntity
  8
LC-002-002-----0
  6
CONTINUOUS
 62
             7
100
AcDbLine
 10
91.15090355548517
 20
139.1020296533114
 11
91.15090355548517
 21
136.39050767339091
  0
LINE
  5
56
100
AcDbEntity
  8
LC-002-002-----0
  6
CONTINUOUS
 62
             7
100
AcDbLine
 10
95.15090355548517
 20
140.1020296533114
 11
92.15090355548517
 21
140.1020296533114
  0
LINE
  5
55
100
AcDbEntity
  8
LC-002-002-----0
  6
CONTINUOUS
 62
             7
100
AcDbLine
 10
72.16622355548742
 20
138.63226065330841
 11
72.16622355548742
 21
136.86027567338621
  0
LINE
  5
54
100
AcDbEntity
  8
LC-002-002-----0
  6
CONTINUOUS
 62
             7
100
AcDbLine
 10
115.13090355548469
 20
138.63226065330841
 11
115.13090355548469
 21
136.86027567338621
  0
LINE
  5
53
100
AcDbEntity
  8
1
  6
DOT_CENTER
 62
             2
100
AcDbLine
 10
99.49544272937197
 20
143.49644776104051
 11
86.49544272937197
 21
143.49644776104051
  0
LINE
  5
52
100
AcDbEntity
  8
1
  6
DOT_CENTER
 62
             2
100
AcDbLine
 10
207.49544272482311
 20
143.49644776104051
 11
194.49544272482311
 21
143.49644776104051
  0
LINE
  5
51
100
AcDbEntity
  8
LC-002-002-----0
  6
CONTINUOUS
 62
             7
100
AcDbLine
 10
223.13090355093581
 20
138.63226065330841
 11
223.13090355093581
 21
136.86027567338621
  0
LINE
  5
50
100
AcDbEntity
  8
LC-002-002-----0
  6
CONTINUOUS
 62
             7
100
AcDbLine
 10
180.16622355093861
 20
138.63226065330841
 11
180.16622355093861
 21
136.86027567338621
  0
LINE
  5
4F
100
AcDbEntity
  8
LC-002-002-----0
  6
CONTINUOUS
 62
             7
100
AcDbLine
 10
203.15090355093631
 20
140.1020296533114
 11
200.15090355093631
 21
140.1020296533114
  0
LINE
  5
4E
100
AcDbEntity
  8
LC-002-002-----0
  6
CONTINUOUS
 62
             7
100
AcDbLine
 10
199.15090355093631
 20
139.1020296533114
 11
199.15090355093631
 21
136.39050767339091
  0
LINE
  5
4D
100
AcDbEntity
  8
LC-002-002-----0
  6
CONTINUOUS
 62
             7
100
AcDbLine
 10
204.15090355093631
 20
136.39050767339091
 11
204.15090355093631
 21
139.1020296533114
  0
LINE
  5
4C
100
AcDbEntity
  8
LC-002-002-----0
  6
CONTINUOUS
 62
             7
100
AcDbLine
 10
200.15090355093631
 20
135.39050767339091
 11
203.15090355093631
 21
135.39050767339091
  0
LINE
  5
4B
100
AcDbEntity
  8
LC-004-002-----0
  6
CONTINUOUS
 62
             7
100
AcDbLine
 10
191.6506529954512
 20
103.99217276104049
 11
191.6506529954512
 21
110.99217276104049
  0
LINE
  5
4A
100
AcDbEntity
  8
LC-004-002-----0
  6
CONTINUOUS
 62
             7
100
AcDbLine
 10
211.6506529954512
 20
103.99217276104049
 11
211.6506529954512
 21
110.99217276104049
  0
LINE
  5
49
100
AcDbEntity
  8
LC-004-002-----0
  6
CONTINUOUS
 62
             7
100
AcDbLine
 10
192.1506529954512
 20
111.49217276104049
 11
211.1506529954512
 21
111.49217276104049
  0
LINE
  5
48
100
AcDbEntity
  8
LC-004-002-----0
  6
CONTINUOUS
 62
             7
100
AcDbLine
 10
200.14711199545121
 20
74.86383312658894
 11
203.14711199545121
 21
74.86383312658894
  0
LINE
  5
47
100
AcDbEntity
  8
LC-004-002-----0
  6
CONTINUOUS
 62
             7
100
AcDbLine
 10
203.14711199545121
 20
96.03937276104138
 11
203.14711199545121
 21
74.86383312658894
  0
LINE
  5
46
100
AcDbEntity
  8
LC-004-002-----0
  6
CONTINUOUS
 62
             7
100
AcDbLine
 10
192.15096399545121
 20
111.49217876104051
 11
192.15097722155329
 21
132.6465680305825
  0
LINE
  5
45
100
AcDbEntity
  8
LC-004-002-----0
  6
CONTINUOUS
 62
             7
100
AcDbLine
 10
192.1509769954512
 20
111.49217876104051
 11
211.1506529954512
 21
111.4921657610405
  0
LINE
  5
44
100
AcDbEntity
  8
LC-004-002-----0
  6
CONTINUOUS
 62
             7
100
AcDbLine
 10
211.1506529954512
 20
111.4921657610405
 11
211.1506529954512
 21
132.64718756762281
  0
LINE
  5
43
100
AcDbEntity
  8
LC-004-002-----0
  6
CONTINUOUS
 62
             7
100
AcDbLine
 10
211.6506529954512
 20
96.53937276104138
 11
211.6506529954512
 21
102.99217276104049
  0
LINE
  5
42
100
AcDbEntity
  8
LC-004-002-----0
  6
CONTINUOUS
 62
             7
100
AcDbLine
 10
191.6506529954512
 20
102.99217276104049
 11
191.6506529954512
 21
96.53937276104138
  0
LINE
  5
41
100
AcDbEntity
  8
LC-004-002-----0
  6
CONTINUOUS
 62
             7
100
AcDbLine
 10
192.1506529954512
 20
96.03937276104138
 11
211.1506529954512
 21
96.03937276104138
  0
LINE
  5
40
100
AcDbEntity
  8
LC-004-002-----0
  6
CONTINUOUS
 62
             7
100
AcDbLine
 10
200.14711199545121
 20
96.03937276104138
 11
200.14711199545121
 21
74.86383312658894
  0
LINE
  5
3F
100
AcDbEntity
  8
1
  6
PHANTOM
 62
             2
100
AcDbLine
 10
201.65079578833149
 20
70.8342658408063
 11
201.65081873975041
 21
144.2532128622444
  0
POINT
  5
3E
100
AcDbEntity
  8
LC-001-003-----0
 62
             7
100
AcDbPoint
 10
55.15037100000001
 20
115.49217276104049
  0
POINT
  5
3D
100
AcDbEntity
  8
LC-001-003-----0
 62
             7
100
AcDbPoint
 10
240.150935
 20
115.49217276104049
  0
POINT
  5
3C
100
AcDbEntity
  8
LC-001-003-----0
 62
             7
100
AcDbPoint
 10
0.0
 20
-55.4535522389595
  0
POINT
  5
3B
100
AcDbEntity
  8
LC-001-003-----0
 62
             7
100
AcDbPoint
 10
301.996757
 20
-70.22493223895953
  0
POINT
  5
3A
100
AcDbEntity
  8
LC-001-003-----0
 62
             7
100
AcDbPoint
 10
59.46319500000001
 20
-0.00355223895951
  0
POINT
  5
39
100
AcDbEntity
  8
LC-001-003-----0
 62
             7
100
AcDbPoint
 10
297.48069600000002
 20
-71.50244823895952
  0
POINT
  5
38
100
AcDbEntity
  8
LC-001-003-----0
 62
             7
100
AcDbPoint
 10
297.49704100000002
 20
38.4977267610405
  0
POINT
  5
37
100
AcDbEntity
  8
LC-001-003-----0
 62
             7
100
AcDbPoint
 10
0.462311
 20
59.2871727610405
  0
POINT
  5
36
100
AcDbEntity
  8
LC-001-003-----0
 62
             7
100
AcDbPoint
 10
0.37942000000001
 20
-59.28137423895953
  0
POINT
  5
35
100
AcDbEntity
  8
LC-001-003-----0
 62
             7
100
AcDbPoint
 10
235.55309399999999
 20
-16.50432023895951
  0
ENDBLK
  5
DE
100
AcDbEntity
  8
0
100
AcDbBlockEnd
  0
BLOCK
  5
30
100
AcDbEntity
  8
0
100
AcDbBlockBegin
  2
HL_710_R_CKSTAUVERSCHLS__2
 70
             0
 10
1049.1646544426189
 20
-86.1660847331099
 30
0.0
  3
HL_710_R_CKSTAUVERSCHLS__2
  1

  0
XLINE
  5
144
100
AcDbEntity
  8
1
  6
DOT_CENTER
 62
             3
 60
             1
100
AcDbXline
 10
1563.0152384426181
 20
478.37032437593882
 30
0.0
 11
1.0
 21
0.0
 31
0.0
  0
XLINE
  5
143
100
AcDbEntity
  8
1
  6
DOT_CENTER
 62
             3
 60
             1
100
AcDbXline
 10
1563.0152384426181
 20
478.37032437593882
 30
0.0
 11
0.0
 21
1.0
 31
0.0
  0
CIRCLE
  5
142
100
AcDbEntity
  8
1
  6
CONTINUOUS
 62
             7
100
AcDbCircle
 10
489.65234729837903
 20
-0.00000090508766
 40
55.19999956235552
  0
CIRCLE
  5
141
100
AcDbEntity
  8
LC-002-002-----0
  6
CONTINUOUS
 62
             7
100
AcDbCircle
 10
489.65234729837903
 20
-0.00000090508766
 40
64.75
  0
CIRCLE
  5
140
100
AcDbEntity
  8
LC-002-002-----0
  6
CONTINUOUS
 62
             7
100
AcDbCircle
 10
489.65234729837903
 20
-0.00000090508766
 40
59.44999999999709
  0
ARC
  5
13F
100
AcDbEntity
  8
LC-009-002-RND-0
  6
CONTINUOUS
 62
             7
100
AcDbCircle
 10
404.6024162983777
 20
115.4921723912172
 40
3.0
100
AcDbArc
 50
90.0
 51
180.0
  0
ARC
  5
13E
100
AcDbEntity
  8
LC-009-002-RND-0
  6
CONTINUOUS
 62
             7
100
AcDbCircle
 10
399.6024162983777
 20
113.4921723912172
 40
2.0
100
AcDbArc
 50
-90.0
 51
0.0
  0
ARC
  5
13D
100
AcDbEntity
  8
LC-003-100-D03-0
  6
CONTINUOUS
 62
             7
100
AcDbCircle
 10
381.69307629837931
 20
96.53642276104947
 40
0.49705000000171
100
AcDbArc
 50
180.0
 51
-90.0
  0
ARC
  5
13C
100
AcDbEntity
  8
LC-009-002-RND-0
  6
CONTINUOUS
 62
             7
100
AcDbCircle
 10
381.65374829837668
 20
110.9921723912172
 40
0.5
100
AcDbArc
 50
90.0
 51
180.0
  0
ARC
  5
13B
100
AcDbEntity
  8
LC-009-002-RND-0
  6
CONTINUOUS
 62
             7
100
AcDbCircle
 10
381.65374829837668
 20
103.9921723912172
 40
0.5
100
AcDbArc
 50
180.0
 51
-90.0
  0
ARC
  5
13A
100
AcDbEntity
  8
LC-009-002-RND-0
  6
CONTINUOUS
 62
             7
100
AcDbCircle
 10
597.65094629837768
 20
103.9921723912172
 40
0.5
100
AcDbArc
 50
-90.0
 51
0.0
  0
ARC
  5
139
100
AcDbEntity
  8
LC-009-002-RND-0
  6
CONTINUOUS
 62
             7
100
AcDbCircle
 10
597.65094629837768
 20
110.9921723912172
 40
0.5
100
AcDbArc
 50
0.0
 51
90.0
  0
ARC
  5
138
100
AcDbEntity
  8
LC-003-100-D03-0
  6
CONTINUOUS
 62
             7
100
AcDbCircle
 10
489.65234729837903
 20
4.98925100064079
 40
81.49280299999586
100
AcDbArc
 50
-178.72632026524084
 51
-2.45566879744839
  0
ARC
  5
137
100
AcDbEntity
  8
LC-003-100-D03-0
  6
CONTINUOUS
 62
             7
100
AcDbCircle
 10
597.61161829837874
 20
96.53642276104947
 40
0.4970500000054
100
AcDbArc
 50
-90.0
 51
0.0
  0
ARC
  5
136
100
AcDbEntity
  8
LC-009-002-RND-0
  6
CONTINUOUS
 62
             7
100
AcDbCircle
 10
579.70227829837677
 20
113.4921723912172
 40
2.0
100
AcDbArc
 50
180.0
 51
-90.0
  0
ARC
  5
135
100
AcDbEntity
  8
LC-009-002-RND-0
  6
CONTINUOUS
 62
             7
100
AcDbCircle
 10
574.70227829837677
 20
115.4921723912172
 40
3.0
100
AcDbArc
 50
0.0
 51
90.0
  0
ARC
  5
134
100
AcDbEntity
  8
1
  6
CONTINUOUS
 62
             7
100
AcDbCircle
 10
489.65234729837903
 20
-16.11708490509992
 40
51.99999999999991
100
AcDbArc
 50
-2.84786933517753
 51
-177.15213066482249
  0
ARC
  5
133
100
AcDbEntity
  8
LC-002-002-----0
  6
CONTINUOUS
 62
             7
100
AcDbCircle
 10
586.66755666835888
 20
136.3905076773022
 40
1.0
100
AcDbArc
 50
180.0
 51
-89.99994200008796
  0
ARC
  5
132
100
AcDbEntity
  8
LC-002-002-----0
  6
CONTINUOUS
 62
             7
100
AcDbCircle
 10
589.66755666835888
 20
136.3905076773022
 40
1.00000000000051
100
AcDbArc
 50
-89.99994200008796
 51
0.0
  0
ARC
  5
131
100
AcDbEntity
  8
LC-002-002-----0
  6
CONTINUOUS
 62
             7
100
AcDbCircle
 10
589.66755666835888
 20
139.1020298889176
 40
1.0
100
AcDbArc
 50
0.0
 51
90.0
  0
ARC
  5
130
100
AcDbEntity
  8
LC-002-002-----0
  6
CONTINUOUS
 62
             7
100
AcDbCircle
 10
586.66755666835888
 20
139.1020298889176
 40
1.0
100
AcDbArc
 50
90.0
 51
179.99984799993976
  0
ARC
  5
12F
100
AcDbEntity
  8
LC-002-002-----0
  6
CONTINUOUS
 62
             7
100
AcDbCircle
 10
583.66755666835888
 20
138.4686818889146
 40
2.0
100
AcDbArc
 50
0.0
 51
79.66010899985649
  0
ARC
  5
12E
100
AcDbEntity
  8
LC-002-002-----0
  6
CONTINUOUS
 62
             7
100
AcDbCircle
 10
607.65223666836027
 20
136.86027567729761
 40
1.99999999999639
100
AcDbArc
 50
-73.27314000008187
 51
0.0
  0
ARC
  5
12D
100
AcDbEntity
  8
LC-002-002-----0
  6
CONTINUOUS
 62
             7
100
AcDbCircle
 10
607.65245366835734
 20
137.0240166773016
 40
1.99999999999896
100
AcDbArc
 50
-79.66008799993823
 51
-0.00003700012521
  0
ARC
  5
12C
100
AcDbEntity
  8
LC-002-002-----0
  6
CONTINUOUS
 62
             7
100
AcDbCircle
 10
607.65223666836027
 20
138.6322608889146
 40
2.0
100
AcDbArc
 50
0.0
 51
73.27319899995005
  0
ARC
  5
12B
100
AcDbEntity
  8
LC-002-002-----0
  6
CONTINUOUS
 62
             7
100
AcDbCircle
 10
588.16989666835798
 20
73.8044281446906
 40
69.69201988818982
100
AcDbArc
 50
73.27319946525853
 51
106.72678246526277
  0
ARC
  5
12A
100
AcDbEntity
  8
LC-002-002-----0
  6
CONTINUOUS
 62
             7
100
AcDbCircle
 10
607.65245466835768
 20
138.46884388891851
 40
2.00000000000042
100
AcDbArc
 50
-0.00003700012521
 51
79.65999700010489
  0
ARC
  5
129
100
AcDbEntity
  8
LC-002-002-----0
  6
CONTINUOUS
 62
             7
100
AcDbCircle
 10
600.16013866835783
 20
178.0891445876492
 40
43.7430173039084
100
AcDbArc
 50
-100.34007288268884
 51
-79.66013988268965
  0
ARC
  5
128
100
AcDbEntity
  8
LC-002-002-----0
  6
CONTINUOUS
 62
             7
100
AcDbCircle
 10
592.66777366835959
 20
137.02402567730459
 40
2.00000000000042
100
AcDbArc
 50
179.99996300008405
 51
-100.34000499994376
  0
ARC
  5
127
100
AcDbEntity
  8
LC-002-002-----0
  6
CONTINUOUS
 62
             7
100
AcDbCircle
 10
592.66777466835993
 20
138.46885288891431
 40
2.00000000000414
100
AcDbArc
 50
100.3398349998895
 51
179.99996299987887
  0
ARC
  5
126
100
AcDbEntity
  8
LC-002-002-----0
  6
CONTINUOUS
 62
             7
100
AcDbCircle
 10
600.16008966835943
 20
97.4037023064644
 40
43.74303960783047
100
AcDbArc
 50
79.66007491591834
 51
100.33983791592031
  0
ARC
  5
125
100
AcDbEntity
  8
LC-002-002-----0
  6
CONTINUOUS
 62
             7
100
AcDbCircle
 10
568.68755666835932
 20
136.86027567729761
 40
2.0
100
AcDbArc
 50
180.0
 51
-106.72695300016285
  0
ARC
  5
124
100
AcDbEntity
  8
LC-002-002-----0
  6
CONTINUOUS
 62
             7
100
AcDbCircle
 10
568.68755666835932
 20
138.6322608889146
 40
2.00000000000282
100
AcDbArc
 50
106.72678199984568
 51
180.0
  0
ARC
  5
123
100
AcDbEntity
  8
LC-002-002-----0
  6
CONTINUOUS
 62
             7
100
AcDbCircle
 10
568.68755666835932
 20
137.023855677298
 40
2.0
100
AcDbArc
 50
180.0
 51
-100.34004299999231
  0
ARC
  5
122
100
AcDbEntity
  8
LC-002-002-----0
  6
CONTINUOUS
 62
             7
100
AcDbCircle
 10
576.17755666835728
 20
178.07616560374441
 40
43.72999239886436
100
AcDbArc
 50
-100.33989281042641
 51
-79.66005281042342
  0
ARC
  5
121
100
AcDbEntity
  8
LC-002-002-----0
  6
CONTINUOUS
 62
             7
100
AcDbCircle
 10
568.68755666835932
 20
138.4686818889146
 40
1.99999999999993
100
AcDbArc
 50
100.33987199996517
 51
180.0
  0
ARC
  5
120
100
AcDbEntity
  8
LC-002-002-----0
  6
CONTINUOUS
 62
             7
100
AcDbCircle
 10
576.17755666835728
 20
97.41636426402474
 40
43.72999997229523
100
AcDbArc
 50
79.66010899999168
 51
100.33989100000365
  0
ARC
  5
11F
100
AcDbEntity
  8
LC-002-002-----0
  6
CONTINUOUS
 62
             7
100
AcDbCircle
 10
583.66755666835888
 20
137.023855677298
 40
1.99999999999583
100
AcDbArc
 50
-79.66005099996512
 51
0.0
  0
ARC
  5
11E
100
AcDbEntity
  8
LC-002-002-----0
  6
CONTINUOUS
 62
             7
100
AcDbCircle
 10
588.16989666835798
 20
201.69660515938591
 40
69.70015619087994
100
AcDbArc
 50
-106.724935084899
 51
-73.35324844980617
  0
ARC
  5
11D
100
AcDbEntity
  8
LC-002-002-----0
  6
CONTINUOUS
 62
             7
100
AcDbCircle
 10
395.63691666835803
 20
137.023855677298
 40
2.0
100
AcDbArc
 50
180.0
 51
-100.33994900003329
  0
ARC
  5
11C
100
AcDbEntity
  8
LC-002-002-----0
  6
CONTINUOUS
 62
             7
100
AcDbCircle
 10
403.12691666835963
 20
97.4163989288696
 40
43.72999997229525
100
AcDbArc
 50
79.66010899999168
 51
100.33989100000825
  0
ARC
  5
11B
100
AcDbEntity
  8
LC-002-002-----0
  6
CONTINUOUS
 62
             7
100
AcDbCircle
 10
410.61691666835759
 20
138.46871655375941
 40
2.0
100
AcDbArc
 50
0.0
 51
79.66012800003384
  0
ARC
  5
11A
100
AcDbEntity
  8
LC-002-002-----0
  6
CONTINUOUS
 62
             7
100
AcDbCircle
 10
403.12691666835963
 20
178.07616560374441
 40
43.7299923988696
100
AcDbArc
 50
-100.33994718957658
 51
-79.66010718956892
  0
ARC
  5
119
100
AcDbEntity
  8
LC-002-002-----0
  6
CONTINUOUS
 62
             7
100
AcDbCircle
 10
410.61691666835759
 20
137.023855677298
 40
2.00000000000042
100
AcDbArc
 50
-79.6599570000061
 51
0.0
  0
ARC
  5
118
100
AcDbEntity
  8
LC-002-002-----0
  6
CONTINUOUS
 62
             7
100
AcDbCircle
 10
410.61691666835759
 20
138.63229555375949
 40
2.0
100
AcDbArc
 50
0.0
 51
73.27321800015363
  0
ARC
  5
117
100
AcDbEntity
  8
LC-002-002-----0
  6
CONTINUOUS
 62
             7
100
AcDbCircle
 10
410.61691666835759
 20
136.86027567729761
 40
2.00000000000094
100
AcDbArc
 50
-73.27304699983715
 51
0.0
  0
ARC
  5
116
100
AcDbEntity
  8
LC-002-002-----0
  6
CONTINUOUS
 62
             7
100
AcDbCircle
 10
379.14438366835748
 20
97.40373697130926
 40
43.74303960783368
100
AcDbArc
 50
79.660162084075
 51
100.33992508408166
  0
ARC
  5
115
100
AcDbEntity
  8
LC-002-002-----0
  6
CONTINUOUS
 62
             7
100
AcDbCircle
 10
386.63669866836062
 20
138.46888755375909
 40
2.00000000000042
100
AcDbArc
 50
0.00003700012521
 51
79.66016500011209
  0
ARC
  5
114
100
AcDbEntity
  8
LC-002-002-----0
  6
CONTINUOUS
 62
             7
100
AcDbCircle
 10
386.63669966835732
 20
137.02402567730459
 40
2.00000000000013
100
AcDbArc
 50
-79.65999500005785
 51
0.00003699991595
  0
ARC
  5
113
100
AcDbEntity
  8
LC-002-002-----0
  6
CONTINUOUS
 62
             7
100
AcDbCircle
 10
379.14433466835908
 20
178.0891445876492
 40
43.74301730391277
100
AcDbArc
 50
-100.33986011731029
 51
-79.65992711731117
  0
ARC
  5
112
100
AcDbEntity
  8
LC-002-002-----0
  6
CONTINUOUS
 62
             7
100
AcDbCircle
 10
371.65201866835918
 20
138.4688785537634
 40
1.99999999999821
100
AcDbArc
 50
100.34000299989395
 51
-179.99996299987478
  0
ARC
  5
111
100
AcDbEntity
  8
LC-002-002-----0
  6
CONTINUOUS
 62
             7
100
AcDbCircle
 10
391.13457666835887
 20
73.80446280953547
 40
69.69201988818843
100
AcDbArc
 50
73.2732175347343
 51
106.72680053473852
  0
ARC
  5
110
100
AcDbEntity
  8
LC-002-002-----0
  6
CONTINUOUS
 62
             7
100
AcDbCircle
 10
371.65223666836027
 20
138.63229555375949
 40
2.00000000000283
100
AcDbArc
 50
106.72680100015131
 51
180.0
  0
ARC
  5
10F
100
AcDbEntity
  8
LC-002-002-----0
  6
CONTINUOUS
 62
             7
100
AcDbCircle
 10
371.65201966835963
 20
137.0240166773016
 40
2.00000000000042
100
AcDbArc
 50
-179.99996299987478
 51
-100.33991199995924
  0
ARC
  5
10E
100
AcDbEntity
  8
LC-002-002-----0
  6
CONTINUOUS
 62
             7
100
AcDbCircle
 10
391.13457666835887
 20
201.69660515938591
 40
69.70015619088132
100
AcDbArc
 50
-106.64675155019378
 51
-73.27506491510096
  0
ARC
  5
10D
100
AcDbEntity
  8
LC-002-002-----0
  6
CONTINUOUS
 62
             7
100
AcDbCircle
 10
371.65223666836027
 20
136.86027567729761
 40
2.0
100
AcDbArc
 50
180.0
 51
-106.72685999991658
  0
ARC
  5
10C
100
AcDbEntity
  8
LC-002-002-----0
  6
CONTINUOUS
 62
             7
100
AcDbCircle
 10
395.63691666835803
 20
138.46871655375941
 40
1.9999999999988
100
AcDbArc
 50
100.3398910000404
 51
180.0
  0
ARC
  5
10B
100
AcDbEntity
  8
LC-002-002-----0
  6
CONTINUOUS
 62
             7
100
AcDbCircle
 10
392.63691666835803
 20
139.10206455376249
 40
1.00000000000352
100
AcDbArc
 50
0.00015200005373
 51
90.0
  0
ARC
  5
10A
100
AcDbEntity
  8
LC-002-002-----0
  6
CONTINUOUS
 62
             7
100
AcDbCircle
 10
389.63691666835803
 20
139.10206455376249
 40
1.0
100
AcDbArc
 50
90.0
 51
180.0
  0
ARC
  5
109
100
AcDbEntity
  8
LC-002-002-----0
  6
CONTINUOUS
 62
             7
100
AcDbCircle
 10
389.63691666835803
 20
136.3905076773022
 40
1.0
100
AcDbArc
 50
180.0
 51
-90.00005799991205
  0
ARC
  5
108
100
AcDbEntity
  8
LC-002-002-----0
  6
CONTINUOUS
 62
             7
100
AcDbCircle
 10
392.63691666835803
 20
136.3905076773022
 40
1.00000000000051
100
AcDbArc
 50
-90.00005799991205
 51
0.0
  0
LINE
  5
107
100
AcDbEntity
  8
LC-002-002-----0
  6
CONTINUOUS
 62
             7
100
AcDbLine
 10
401.6024162983777
 20
103.4921723912172
 11
401.6024162983777
 21
115.4921723912172
  0
LINE
  5
106
100
AcDbEntity
  8
LC-003-100-D03-0
  6
CONTINUOUS
 62
             7
100
AcDbLine
 10
381.1960262983776
 20
96.53642276104947
 11
381.1960262983776
 21
103.4921723912172
  0
LINE
  5
105
100
AcDbEntity
  8
LC-003-100-D03-0
  6
CONTINUOUS
 62
             7
100
AcDbLine
 10
405.17279654482257
 20
96.03937276104406
 11
381.69307629837931
 21
96.03937276104406
  0
LINE
  5
104
100
AcDbEntity
  8
LC-003-100-D03-0
  6
CONTINUOUS
 62
             7
100
AcDbLine
 10
405.86217822306941
 20
74.36383275676562
 11
381.69307629837931
 21
96.03937276104406
  0
LINE
  5
103
100
AcDbEntity
  8
LC-002-002-----0
  6
CONTINUOUS
 62
             7
100
AcDbLine
 10
381.65374829837668
 20
111.4921723912172
 11
399.6024162983777
 21
111.4921723912172
  0
LINE
  5
102
100
AcDbEntity
  8
LC-002-002-----0
  6
CONTINUOUS
 62
             7
100
AcDbLine
 10
381.15374829837668
 20
110.9921723912172
 11
381.15374829837668
 21
103.9921723912172
  0
LINE
  5
101
100
AcDbEntity
  8
LC-002-002-----0
  6
CONTINUOUS
 62
             7
100
AcDbLine
 10
400.63702729837678
 20
132.64723727627421
 11
400.63702729837678
 21
111.78057077907719
  0
LINE
  5
100
100
AcDbEntity
  8
LC-002-002-----0
  6
CONTINUOUS
 62
             7
100
AcDbLine
 10
381.63681339039249
 20
132.64659237337179
 11
381.63682429837718
 21
111.4923393912228
  0
LINE
  5
FF
100
AcDbEntity
  8
LC-002-002-----0
  6
CONTINUOUS
 62
             7
100
AcDbLine
 10
597.66787029837724
 20
111.4923393912228
 11
597.66788120637648
 21
132.64662280784029
  0
LINE
  5
FE
100
AcDbEntity
  8
LC-002-002-----0
  6
CONTINUOUS
 62
             7
100
AcDbLine
 10
578.66766729837764
 20
111.78057077907719
 11
578.66766729837764
 21
132.64720682722469
  0
LINE
  5
FD
100
AcDbEntity
  8
LC-002-002-----0
  6
CONTINUOUS
 62
             7
100
AcDbLine
 10
598.15094629837768
 20
103.9921723912172
 11
598.15094629837768
 21
110.9921723912172
  0
LINE
  5
FC
100
AcDbEntity
  8
LC-002-002-----0
  6
CONTINUOUS
 62
             7
100
AcDbLine
 10
579.70227829837677
 20
111.4921723912172
 11
597.65094629837768
 21
111.4921723912172
  0
LINE
  5
FB
100
AcDbEntity
  8
LC-003-100-D03-0
  6
CONTINUOUS
 62
             7
100
AcDbLine
 10
597.61161829837874
 20
96.03937276104406
 11
573.44251606038597
 21
74.36383248227284
  0
LINE
  5
FA
100
AcDbEntity
  8
LC-003-100-D03-0
  6
CONTINUOUS
 62
             7
100
AcDbLine
 10
597.61161829837874
 20
96.03937276104406
 11
574.13189796883671
 21
96.03937276104406
  0
LINE
  5
F9
100
AcDbEntity
  8
LC-003-100-D03-0
  6
CONTINUOUS
 62
             7
100
AcDbLine
 10
489.65234729837903
 20
103.4921723912172
 11
381.1960262983776
 21
103.4921723912172
  0
LINE
  5
F8
100
AcDbEntity
  8
LC-003-100-D03-0
  6
CONTINUOUS
 62
             7
100
AcDbLine
 10
598.10866829837687
 20
103.4921723912172
 11
598.10866829837687
 21
96.53642276104947
  0
LINE
  5
F7
100
AcDbEntity
  8
LC-002-002-----0
  6
CONTINUOUS
 62
             7
100
AcDbLine
 10
577.70227829837677
 20
115.4921723912172
 11
577.70227829837677
 21
103.4921723912172
  0
LINE
  5
F6
100
AcDbEntity
  8
LC-002-002-----0
  6
CONTINUOUS
 62
             7
100
AcDbLine
 10
404.60241529837731
 20
118.4921723912172
 11
574.63227829837706
 21
118.4921723912172
  0
LINE
  5
F5
100
AcDbEntity
  8
LC-002-002-----0
  6
CONTINUOUS
 62
             7
100
AcDbLine
 10
381.65374829837668
 20
103.4921723912172
 11
597.65094629837768
 21
103.4921723912172
  0
LINE
  5
F4
100
AcDbEntity
  8
LC-002-002-----0
  6
CONTINUOUS
 62
             7
100
AcDbLine
 10
574.39080595725318
 20
103.4921723912172
 11
571.07031317295696
 21
1.4975789596152
  0
LINE
  5
F3
100
AcDbEntity
  8
LC-003-100-D03-0
  6
CONTINUOUS
 62
             7
100
AcDbLine
 10
489.65234729837903
 20
103.4921723912172
 11
598.10866829837687
 21
103.4921723912172
  0
LINE
  5
F2
100
AcDbEntity
  8
LC-002-002-----0
  6
CONTINUOUS
 62
             7
100
AcDbLine
 10
404.91388863950118
 20
103.4921723912172
 11
408.17967906446938
 21
3.17782293322452
  0
LINE
  5
F1
100
AcDbEntity
  8
1
  6
PHANTOM
 62
             2
100
AcDbLine
 10
560.87734729837757
 20
-0.00000090508766
 11
418.42734729837679
 21
-0.00000090508766
  0
LINE
  5
F0
100
AcDbEntity
  8
1
  6
PHANTOM
 62
             2
100
AcDbLine
 10
489.65234729837903
 20
124.9545890212554
 11
489.65234729837903
 21
-96.30425631705512
  0
LINE
  5
EF
100
AcDbEntity
  8
1
  6
PHANTOM
 62
             2
100
AcDbLine
 10
391.1369172309569
 20
144.66712745570621
 11
391.136928971835
 21
99.12809620957486
  0
LINE
  5
EE
100
AcDbEntity
  8
1
  6
PHANTOM
 62
             2
100
AcDbLine
 10
588.16776578174904
 20
99.81080378608894
 11
588.16777792678477
 21
146.91743034052851
  0
LINE
  5
ED
100
AcDbEntity
  8
LC-002-002-----0
  6
CONTINUOUS
 62
             7
100
AcDbLine
 10
586.66755666835888
 20
135.3905076773022
 11
589.66755666835888
 21
135.3905076773022
  0
LINE
  5
EC
100
AcDbEntity
  8
LC-002-002-----0
  6
CONTINUOUS
 62
             7
100
AcDbLine
 10
585.66755666835888
 20
139.1020298889176
 11
585.66755666835888
 21
136.3905076773022
  0
LINE
  5
EB
100
AcDbEntity
  8
LC-002-002-----0
  6
CONTINUOUS
 62
             7
100
AcDbLine
 10
590.66755666835888
 20
136.3905076773022
 11
590.66755666835888
 21
139.1020298889176
  0
LINE
  5
EA
100
AcDbEntity
  8
LC-002-002-----0
  6
CONTINUOUS
 62
             7
100
AcDbLine
 10
589.66755666835888
 20
140.1020298889176
 11
586.66755666835888
 21
140.1020298889176
  0
LINE
  5
E9
100
AcDbEntity
  8
LC-002-002-----0
  6
CONTINUOUS
 62
             7
100
AcDbLine
 10
609.65223666836027
 20
136.86027567729761
 11
609.65223666836027
 21
138.6322608889146
  0
LINE
  5
E8
100
AcDbEntity
  8
LC-002-002-----0
  6
CONTINUOUS
 62
             7
100
AcDbLine
 10
566.68755666835932
 20
136.86027567729761
 11
566.68755666835932
 21
138.6322608889146
  0
LINE
  5
E7
100
AcDbEntity
  8
LC-002-002-----0
  6
CONTINUOUS
 62
             7
100
AcDbLine
 10
412.61691666835759
 20
138.63229555375949
 11
412.61691666835759
 21
136.86027567729761
  0
LINE
  5
E6
100
AcDbEntity
  8
LC-002-002-----0
  6
CONTINUOUS
 62
             7
100
AcDbLine
 10
369.65223666836027
 20
138.63229555375949
 11
369.65223666836027
 21
136.86027567729761
  0
LINE
  5
E5
100
AcDbEntity
  8
LC-002-002-----0
  6
CONTINUOUS
 62
             7
100
AcDbLine
 10
392.63691666835803
 20
140.10206455376249
 11
389.63691666835803
 21
140.10206455376249
  0
LINE
  5
E4
100
AcDbEntity
  8
LC-002-002-----0
  6
CONTINUOUS
 62
             7
100
AcDbLine
 10
388.63691666835803
 20
139.10206455376249
 11
388.63691666835803
 21
136.3905076773022
  0
LINE
  5
E3
100
AcDbEntity
  8
LC-002-002-----0
  6
CONTINUOUS
 62
             7
100
AcDbLine
 10
393.63691666835803
 20
136.3905076773022
 11
393.63691666835803
 21
139.10206455376249
  0
LINE
  5
E2
100
AcDbEntity
  8
LC-002-002-----0
  6
CONTINUOUS
 62
             7
100
AcDbLine
 10
389.63691666835803
 20
135.3905076773022
 11
392.63691666835803
 21
135.3905076773022
  0
POINT
  5
E1
100
AcDbEntity
  8
1
 62
             3
 60
             1
100
AcDbPoint
 10
1563.0152384426181
 20
306.62541417425172
  0
POINT
  5
E0
100
AcDbEntity
  8
1
 62
             3
 60
             1
100
AcDbPoint
 10
1563.0152384426181
 20
650.11523457762235
  0
POINT
  5
DF
100
AcDbEntity
  8
1
 62
             3
 60
             1
100
AcDbPoint
 10
1563.0152384426181
 20
478.37032437593882
  0
ENDBLK
  5
145
100
AcDbEntity
  8
0
100
AcDbBlockEnd
  0
BLOCK
  5
148
100
AcDbEntity
  8
0
100
AcDbBlockBegin
  2
*D2
 70
             1
 10
0.0
 20
0.0
 30
0.0
  3
*D2
  1

  0
LINE
  5
149
100
AcDbEntity
  8
0
  6
CONTINUOUS
 62
             4
100
AcDbLine
 10
-35.85689341965316
 20
-76.5035494175859
 11
-35.85688730854217
 21
143.49645115971629
  0
LINE
  5
14A
100
AcDbEntity
  8
0
  6
CONTINUOUS
 62
             4
100
AcDbLine
 10
86.495442729372
 20
143.49644776104051
 11
-37.85688730854217
 21
143.49645121527183
  0
LINE
  5
14B
100
AcDbEntity
  8
0
  6
CONTINUOUS
 62
             4
100
AcDbLine
 10
65.712558
 20
-76.50355223895949
 11
-37.85689341965316
 21
-76.50354936203038
  0
SOLID
  5
14C
100
AcDbEntity
  8
0
 62
             4
100
AcDbTrace
 10
-37.43672305736855
 20
-64.50354937370173
 11
-34.27706311527106
 21
-64.50354946147007
 12
-35.85689341965316
 22
-76.5035494175859
 13
-35.85689341965316
 23
-76.5035494175859
  0
SOLID
  5
14D
100
AcDbEntity
  8
0
 62
             4
100
AcDbTrace
 10
-34.27705767082679
 20
131.49645111583212
 11
-37.43671761292428
 21
131.49645120360046
 12
-35.85688730854217
 22
143.49645115971629
 13
-35.85688730854217
 23
143.49645115971629
  0
MTEXT
  5
14F
100
AcDbEntity
  8
0
 62
             1
100
AcDbMText
 10
-37.8568899630689
 20
47.93348670286535
 30
0.0
 40
12.0
 41
0.0
 71
             7
 72
             1
  1
220
  7
CONVERTER_1
 11
0.00000002777778
 21
1.0
 31
0.0
  0
ENDBLK
  5
150
100
AcDbEntity
  8
0
100
AcDbBlockEnd
  0
BLOCK
  5
154
100
AcDbEntity
  8
0
100
AcDbBlockBegin
  2
*D3
 70
             1
 10
0.0
 20
0.0
 30
0.0
  3
*D3
  1

  0
LINE
  5
155
100
AcDbEntity
  8
0
  6
CONTINUOUS
 62
             4
100
AcDbLine
 10
263.15653958572392
 20
73.78808111125144
 11
263.15653753605483
 21
-0.00000730990369
  0
LINE
  5
156
100
AcDbEntity
  8
0
  6
CONTINUOUS
 62
             4
100
AcDbLine
 10
263.15653753605483
 20
-0.00000730990369
 11
263.1565370776197
 21
-16.50367240526302
  0
LINE
  5
157
100
AcDbEntity
  8
0
  6
CONTINUOUS
 62
             4
100
AcDbLine
 10
263.1565370776197
 20
-16.50367240526302
 11
263.15653641095304
 21
-40.503672405263
  0
LINE
  5
158
100
AcDbEntity
  8
0
  6
CONTINUOUS
 62
             4
100
AcDbLine
 10
66.24831860715949
 20
-0.00000184023105
 11
265.15653753605483
 21
-0.00000736545924
  0
LINE
  5
159
100
AcDbEntity
  8
0
  6
CONTINUOUS
 62
             4
100
AcDbLine
 10
230.66884539292161
 20
-16.50367150282716
 11
265.1565370776197
 21
-16.50367246081858
  0
SOLID
  5
15A
100
AcDbEntity
  8
0
 62
             4
100
AcDbTrace
 10
261.57670789833952
 20
11.99999273398049
 11
264.73636784043703
 21
11.99999264621213
 12
263.15653753605483
 22
-0.00000730990369
 13
263.15653753605483
 23
-0.00000730990369
  0
SOLID
  5
15B
100
AcDbEntity
  8
0
 62
             4
100
AcDbTrace
 10
264.73636671533501
 20
-28.5036724491472
 11
261.5767067732375
 21
-28.50367236137883
 12
263.1565370776197
 22
-16.50367240526302
 13
263.1565370776197
 23
-16.50367240526302
  0
MTEXT
  5
15C
100
AcDbEntity
  8
0
 62
             1
100
AcDbMText
 10
259.95653876905726
 20
44.38808120014035
 30
0.0
 40
12.0
 41
0.0
 71
             7
 72
             1
  1
16,5
  7
CONVERTER_1
 11
0.00000002777778
 21
1.0
 31
0.0
  0
ENDBLK
  5
15D
100
AcDbEntity
  8
0
100
AcDbBlockEnd
  0
BLOCK
  5
161
100
AcDbEntity
  8
0
100
AcDbBlockBegin
  2
*D4
 70
             1
 10
0.0
 20
0.0
 30
0.0
  3
*D4
  1

  0
LINE
  5
162
100
AcDbEntity
  8
0
  6
CONTINUOUS
 62
             4
100
AcDbLine
 10
55.15037217224285
 20
157.69291581596275
 11
240.15093617224275
 21
157.69291067705831
  0
LINE
  5
163
100
AcDbEntity
  8
0
  6
CONTINUOUS
 62
             4
100
AcDbLine
 10
240.15093500000003
 20
115.49217276104052
 11
240.1509362277983
 21
159.69291067705831
  0
LINE
  5
164
100
AcDbEntity
  8
0
  6
CONTINUOUS
 62
             4
100
AcDbLine
 10
55.15037100000004
 20
115.49217276104052
 11
55.15037222779841
 21
159.69291581596275
  0
SOLID
  5
165
100
AcDbEntity
  8
0
 62
             4
100
AcDbTrace
 10
67.15037221612703
 20
159.27274545367806
 11
67.15037212835867
 21
156.11308551158055
 12
55.15037217224285
 22
157.69291581596275
 13
55.15037217224285
 23
157.69291581596275
  0
SOLID
  5
166
100
AcDbEntity
  8
0
 62
             4
100
AcDbTrace
 10
228.15093612835858
 20
156.113081039343
 11
228.15093621612692
 21
159.27274098144051
 12
240.15093617224275
 22
157.69291067705831
 13
240.15093617224275
 23
157.69291067705831
  0
MTEXT
  5
167
100
AcDbEntity
  8
0
 62
             1
100
AcDbMText
 10
134.39564890673174
 20
159.69291361470511
 30
0.0
 40
12.0
 41
0.0
 71
             7
 72
             1
  1
185
  7
CONVERTER_1
 11
0.99999999999706
 21
0.00000242406841
 31
0.0
  0
ENDBLK
  5
168
100
AcDbEntity
  8
0
100
AcDbBlockEnd
  0
BLOCK
  5
16C
100
AcDbEntity
  8
0
100
AcDbBlockBegin
  2
*D5
 70
             1
 10
0.0
 20
0.0
 30
0.0
  3
*D5
  1

  0
LINE
  5
16D
100
AcDbEntity
  8
0
  6
CONTINUOUS
 62
             4
100
AcDbLine
 10
-15.99999999999999
 20
54.99644803881827
 11
-16.00000305555549
 21
-55.00355196118165
  0
LINE
  5
16E
100
AcDbEntity
  8
0
  6
CONTINUOUS
 62
             4
100
AcDbLine
 10
-6.0
 20
54.99644776104049
 11
-17.99999999999999
 21
54.99644809437382
  0
LINE
  5
16F
100
AcDbEntity
  8
0
  6
CONTINUOUS
 62
             4
100
AcDbLine
 10
-6.0
 20
-55.00355223895951
 11
-18.00000305555549
 21
-55.0035519056261
  0
SOLID
  5
170
100
AcDbEntity
  8
0
 62
             4
100
AcDbTrace
 10
-14.42017036228457
 20
42.99644799493412
 11
-17.57983030438206
 21
42.99644808270244
 12
-15.99999999999999
 22
54.99644803881827
 13
-15.99999999999999
 23
54.99644803881827
  0
SOLID
  5
171
100
AcDbEntity
  8
0
 62
             4
100
AcDbTrace
 10
-17.57983269327092
 20
-43.00355191729749
 11
-14.42017275117342
 21
-43.00355200506581
 12
-16.00000305555549
 22
-55.00355196118165
 13
-16.00000305555549
 23
-55.00355196118165
  0
MTEXT
  5
172
100
AcDbEntity
  8
0
 62
             1
100
AcDbMText
 10
-18.00000195876445
 20
-15.51907397539206
 30
0.0
 40
12.0
 41
0.0
 71
             7
 72
             1
  1
\C1;DN\C1;110
  7
CONVERTER_1
 11
0.00000002777778
 21
1.0
 31
0.0
  0
ENDBLK
  5
173
100
AcDbEntity
  8
0
100
AcDbBlockEnd
  0
BLOCK
  5
177
100
AcDbEntity
  8
0
100
AcDbBlockBegin
  2
*D6
 70
             1
 10
0.0
 20
0.0
 30
0.0
  3
*D6
  1

  0
LINE
  5
178
100
AcDbEntity
  8
0
  6
CONTINUOUS
 62
             4
100
AcDbLine
 10
321.205859859138
 20
38.49772610246221
 11
321.2058568035589
 21
-71.50312389753769
  0
LINE
  5
179
100
AcDbEntity
  8
0
  6
CONTINUOUS
 62
             4
100
AcDbLine
 10
297.49704100000002
 20
38.4977267610405
 11
323.205859859138
 21
38.49772604690665
  0
LINE
  5
17A
100
AcDbEntity
  8
0
  6
CONTINUOUS
 62
             4
100
AcDbLine
 10
297.49704200000002
 20
-71.50312323895952
 11
323.2058568035589
 21
-71.50312395309325
  0
SOLID
  5
17B
100
AcDbEntity
  8
0
 62
             4
100
AcDbTrace
 10
322.78568949685331
 20
26.49772605857803
 11
319.6260295547558
 21
26.4977261463464
 12
321.205859859138
 22
38.49772610246221
 13
321.205859859138
 23
38.49772610246221
  0
SOLID
  5
17C
100
AcDbEntity
  8
0
 62
             4
100
AcDbTrace
 10
319.6260271658436
 20
-59.50312385365351
 11
322.7856871079411
 21
-59.50312394142188
 12
321.2058568035589
 22
-71.50312389753769
 13
321.2058568035589
 23
-71.50312389753769
  0
MTEXT
  5
17D
100
AcDbEntity
  8
0
 62
             1
100
AcDbMText
 10
319.20585783453441
 20
-34.38800477875365
 30
0.0
 40
12.0
 41
0.0
 71
             7
 72
             1
  1
\C1;DN\C1;110
  7
CONVERTER_1
 11
0.00000002777778
 21
1.0
 31
0.0
  0
ENDBLK
  5
17E
100
AcDbEntity
  8
0
100
AcDbBlockEnd
  0
BLOCK
  5
182
100
AcDbEntity
  8
0
100
AcDbBlockBegin
  2
*D7
 70
             1
 10
0.0
 20
0.0
 30
0.0
  3
*D7
  1

  0
LINE
  5
183
100
AcDbEntity
  8
0
  6
CONTINUOUS
 62
             4
100
AcDbLine
 10
301.99710488979395
 20
-94.11272458953097
 11
0.000514363485
 21
-94.11712271599157
  0
LINE
  5
184
100
AcDbEntity
  8
0
  6
CONTINUOUS
 62
             4
100
AcDbLine
 10
301.996757
 20
-70.22493223895953
 11
301.99713401678798
 21
-96.11272458931887
  0
LINE
  5
185
100
AcDbEntity
  8
0
  6
CONTINUOUS
 62
             4
100
AcDbLine
 10
0.0
 20
-58.79844323895952
 11
0.00054349047912
 21
-96.11712271577947
  0
SOLID
  5
186
100
AcDbEntity
  8
0
 62
             4
100
AcDbTrace
 10
289.99712789891566
 20
-95.69272932237691
 11
289.99708188321739
 21
-92.53306938061449
 12
301.99710488979395
 22
-94.11272458953097
 13
301.99710488979395
 23
-94.11272458953097
  0
SOLID
  5
187
100
AcDbEntity
  8
0
 62
             4
100
AcDbTrace
 10
12.00049135436328
 20
-92.53711798314564
 11
12.00053737006156
 21
-95.69677792490805
 12
0.000514363485
 22
-94.11712271599157
 13
0.000514363485
 23
-94.11712271599157
  0
MTEXT
  5
188
100
AcDbEntity
  8
0
 62
             1
100
AcDbMText
 10
145.41378026405559
 20
-92.11500499010792
 30
0.0
 40
12.0
 41
0.0
 71
             7
 72
             1
  1
302
  7
CONVERTER_1
 11
0.99999999989395
 21
0.00001456349707
 31
0.0
  0
ENDBLK
  5
189
100
AcDbEntity
  8
0
100
AcDbBlockEnd
  0
BLOCK
  5
18D
100
AcDbEntity
  8
0
100
AcDbBlockBegin
  2
*D8
 70
             1
 10
0.0
 20
0.0
 30
0.0
  3
*D8
  1

  0
LINE
  5
18E
100
AcDbEntity
  8
0
  6
CONTINUOUS
 62
             4
100
AcDbLine
 10
609.65245466835768
 20
-94.11104303882534
 11
369.65223666836033
 21
-94.11104303882534
  0
LINE
  5
18F
100
AcDbEntity
  8
0
  6
CONTINUOUS
 62
             4
100
AcDbLine
 10
609.65245466835768
 20
138.46884259737055
 11
609.65245466835768
 21
-96.11104303882534
  0
LINE
  5
190
100
AcDbEntity
  8
0
  6
CONTINUOUS
 62
             4
100
AcDbLine
 10
369.65223666836033
 20
138.63229555375943
 11
369.65223666836033
 21
-96.11104303882534
  0
SOLID
  5
191
100
AcDbEntity
  8
0
 62
             4
100
AcDbTrace
 10
597.65245466835768
 20
-95.6908730098741
 11
597.65245466835768
 21
-92.53121306777659
 12
609.65245466835768
 22
-94.11104303882534
 13
609.65245466835768
 23
-94.11104303882534
  0
SOLID
  5
192
100
AcDbEntity
  8
0
 62
             4
100
AcDbTrace
 10
381.65223666836033
 20
-92.53121306777659
 11
381.65223666836033
 21
-95.6908730098741
 12
369.65223666836033
 22
-94.11104303882534
 13
369.65223666836033
 23
-94.11104303882534
  0
MTEXT
  5
193
100
AcDbEntity
  8
0
 62
             1
100
AcDbMText
 10
428.71150588436905
 20
-92.11104303882534
 30
0.0
 40
12.0
 41
0.0
 71
             7
 72
             1
  1
240
  7
CONVERTER_1
 11
0.99999999999706
 21
0.00000242406841
 31
0.0
  0
ENDBLK
  5
194
100
AcDbEntity
  8
0
100
AcDbBlockEnd
  0
ENDSEC
  0
SECTION
  2
ENTITIES
  0
DIMENSION
  5
196
100
AcDbEntity
  8
1
100
AcDbDimension
  2
*D8
 10
609.65245466835768
 20
-94.11104303882534
 11
443.11150588436902
 21
-86.11104303882534
 31
0.0
 53
0.00013888888889
  1
<>
  3
ME10_DIM_6
100
AcDbAlignedDimension
 13
369.65223666836027
 23
138.63229555375949
 14
609.65245466835768
 24
138.4688425973705
100
AcDbRotatedDimension
  0
DIMENSION
  5
18B
100
AcDbEntity
  8
1
100
AcDbDimension
  2
*D7
 10
301.99710488979395
 20
-94.11272458953097
 11
159.8136928815461
 21
-86.11479527638646
 31
0.0
 53
0.00083442691687
  1
<>
  3
ME10_DIM_5
100
AcDbAlignedDimension
 13
0.0
 23
-58.79844323895952
 14
301.996757
 24
-70.22493223895953
 50
0.00083442691687
100
AcDbRotatedDimension
  0
DIMENSION
  5
180
100
AcDbEntity
  8
1
100
AcDbDimension
  2
*D6
 10
321.205859859138
 20
38.49772610246221
 11
313.2058583145344
 21
-17.108004612087
 31
0.0
 53
89.99999840845061
  1
<>
  3
ME10_DIM_4
100
AcDbAlignedDimension
 13
297.49704200000002
 23
-71.50312323895952
 14
297.49704100000002
 24
38.4977267610405
 50
89.99999840845061
100
AcDbRotatedDimension
  0
DIMENSION
  5
175
100
AcDbEntity
  8
1
100
AcDbDimension
  2
*D5
 10
-15.99999999999999
 20
54.99644803881827
 11
-24.00000147876446
 21
1.7609261912746
 31
0.0
 53
89.99999840845061
  1
<>
  3
ME10_DIM_3
100
AcDbAlignedDimension
 13
-6.0
 23
-55.00355223895951
 14
-6.0
 24
54.99644776104049
 50
89.99999840845061
100
AcDbRotatedDimension
  0
DIMENSION
  5
16A
100
AcDbEntity
  8
1
100
AcDbDimension
  2
*D4
 10
55.15037217224285
 20
157.69291581596275
 11
146.9956490733984
 21
165.69291326470511
 31
0.0
 53
0.00013888888889
  1
<>
  3
ME10_DIM_2
100
AcDbAlignedDimension
 13
240.150935
 23
115.49217276104049
 14
55.15037100000001
 24
115.49217276104049
 50
-0.0000015915494
100
AcDbRotatedDimension
  0
DIMENSION
  5
15F
100
AcDbEntity
  8
1
100
AcDbDimension
  2
*D3
 10
263.15653753605483
 20
-0.00000730990369
 11
254.55653917739059
 21
59.08808135014034
 31
0.0
 53
89.99999840845061
  1
<>
  3
ME10_DIM_1
100
AcDbAlignedDimension
 13
230.66884539292161
 23
-16.50367150282716
 14
66.24831860715949
 24
-0.00000184023105
 50
89.99999840845061
100
AcDbRotatedDimension
  0
DIMENSION
  5
152
100
AcDbEntity
  8
1
100
AcDbDimension
  2
*D2
 10
-35.85689341965316
 20
-76.5035494175859
 11
-43.8568895630689
 21
62.333486869532
 31
0.0
 53
89.99999840845061
  1
<>
  3
ME10_DIM_0
100
AcDbAlignedDimension
 13
86.49544272937197
 23
143.49644776104051
 14
65.712558
 24
-76.50355223895951
 50
89.99999840845061
100
AcDbRotatedDimension
  0
INSERT
  5
33
100
AcDbEntity
  8
1
100
AcDbBlockReference
  2
HL_710_R_CKSTAUVERSCHLS__1
 10
-6.0
 20
-76.50355223895951
  0
INSERT
  5
34
100
AcDbEntity
  8
0
100
AcDbBlockReference
  2
HL_710_R_CKSTAUVERSCHLS__2
 10
1049.1646544426189
 20
-86.1660847331099
  0
ENDSEC
  0
SECTION
  2
OBJECTS
  0
DICTIONARY
  5
19
100
AcDbDictionary
  3
ACAD_GROUP
350
1A
  3
ACAD_MLINESTYLE
350
1B
  0
DICTIONARY
  5
1A
102
{ACAD_REACTORS
330
19
102
}
100
AcDbDictionary
  0
DICTIONARY
  5
1B
102
{ACAD_REACTORS
330
19
102
}
100
AcDbDictionary
  3
STANDARD
350
1C
  0
MLINESTYLE
  5
1C
102
{ACAD_REACTORS
330
1B
102
}
100
AcDbMlineStyle
  2
STANDARD
 70
             0
  3

 62
             0
 51
90.0
 52
90.0
 71
             2
 49
0.5
 62
           256
  6
BYLAYER
 49
-0.5
 62
           256
  6
BYLAYER
  0
ENDSEC
  0
EOF
