  0
SECTION
  2
HEADER
  9
$ACADVER
  1
AC1014
  9
$ACADMAINTVER
 70
             0
  9
$DWGCODEPAGE
  3
ANSI_1252
  9
$INSBASE
 10
0.0
 20
0.0
 30
0.0
  9
$EXTMIN
 10
-35.53938409087938
 20
-132.43924270803299
 30
0.0
  9
$EXTMAX
 10
560.69712567765509
 20
221.47023953505001
 30
0.0
  9
$LIMMIN
 10
0.0
 20
0.0
  9
$LIMMAX
 10
0.0
 20
0.0
  9
$ORTHOMODE
 70
             0
  9
$REGENMODE
 70
             1
  9
$FILLMODE
 70
             1
  9
$QTEXTMODE
 70
             0
  9
$MIRRTEXT
 70
             1
  9
$DRAGMODE
 70
             2
  9
$LTSCALE
 40
1.0
  9
$OSMODE
 70
             0
  9
$ATTMODE
 70
             1
  9
$TEXTSIZE
 40
0.2
  9
$TRACEWID
 40
0.05
  9
$TEXTSTYLE
  7
STANDARD
  9
$CLAYER
  8
0
  9
$CELTYPE
  6
CONTINUOUS
  9
$CECOLOR
 62
           256
  9
$CELTSCALE
 40
1.0
  9
$DELOBJ
 70
             1
  9
$DISPSILH
 70
             0
  9
$DIMSCALE
 40
1.0
  9
$DIMASZ
 40
0.18
  9
$DIMEXO
 40
0.0625
  9
$DIMDLI
 40
0.38
  9
$DIMRND
 40
0.0
  9
$DIMDLE
 40
0.0
  9
$DIMEXE
 40
0.18
  9
$DIMTP
 40
0.0
  9
$DIMTM
 40
0.0
  9
$DIMTXT
 40
0.18
  9
$DIMCEN
 40
0.09
  9
$DIMTSZ
 40
0.0
  9
$DIMTOL
 70
             0
  9
$DIMLIM
 70
             0
  9
$DIMTIH
 70
             1
  9
$DIMTOH
 70
             1
  9
$DIMSE1
 70
             0
  9
$DIMSE2
 70
             0
  9
$DIMTAD
 70
             0
  9
$DIMZIN
 70
             0
  9
$DIMBLK
  1

  9
$DIMASO
 70
             1
  9
$DIMSHO
 70
             1
  9
$DIMPOST
  1

  9
$DIMAPOST
  1

  9
$DIMALT
 70
             0
  9
$DIMALTD
 70
             2
  9
$DIMALTF
 40
25.4
  9
$DIMLFAC
 40
1.0
  9
$DIMTOFL
 70
             0
  9
$DIMTVP
 40
0.0
  9
$DIMTIX
 70
             0
  9
$DIMSOXD
 70
             0
  9
$DIMSAH
 70
             0
  9
$DIMBLK1
  1

  9
$DIMBLK2
  1

  9
$DIMSTYLE
  2
STANDARD
  9
$DIMCLRD
 70
             0
  9
$DIMCLRE
 70
             0
  9
$DIMCLRT
 70
             0
  9
$DIMTFAC
 40
1.0
  9
$DIMGAP
 40
0.09
  9
$DIMJUST
 70
             0
  9
$DIMSD1
 70
             0
  9
$DIMSD2
 70
             0
  9
$DIMTOLJ
 70
             1
  9
$DIMTZIN
 70
             0
  9
$DIMALTZ
 70
             0
  9
$DIMALTTZ
 70
             0
  9
$DIMFIT
 70
             3
  9
$DIMUPT
 70
             0
  9
$DIMUNIT
 70
             2
  9
$DIMDEC
 70
             4
  9
$DIMTDEC
 70
             4
  9
$DIMALTU
 70
             2
  9
$DIMALTTD
 70
             2
  9
$DIMTXSTY
  7
STANDARD
  9
$DIMAUNIT
 70
             0
  9
$LUNITS
 70
             2
  9
$LUPREC
 70
             4
  9
$SKETCHINC
 40
0.1
  9
$FILLETRAD
 40
0.0
  9
$AUNITS
 70
             0
  9
$AUPREC
 70
             0
  9
$MENU
  1
acad
  9
$ELEVATION
 40
0.0
  9
$PELEVATION
 40
0.0
  9
$THICKNESS
 40
0.0
  9
$LIMCHECK
 70
             0
  9
$BLIPMODE
 70
             1
  9
$CHAMFERA
 40
0.0
  9
$CHAMFERB
 40
0.0
  9
$CHAMFERC
 40
0.0
  9
$CHAMFERD
 40
0.0
  9
$SKPOLY
 70
             0
  9
$TDCREATE
 40
0.000000000
  9
$TDUPDATE
 40
0.000000000
  9
$TDINDWG
 40
0.0000000000
  9
$TDUSRTIMER
 40
0.0000000000
  9
$USRTIMER
 70
             1
  9
$ANGBASE
 50
0.0
  9
$ANGDIR
 70
             0
  9
$PDMODE
 70
             0
  9
$PDSIZE
 40
0.0
  9
$PLINEWID
 40
0.0
  9
$COORDS
 70
             0
  9
$SPLFRAME
 70
             0
  9
$SPLINETYPE
 70
             6
  9
$SPLINESEGS
 70
             8
  9
$ATTDIA
 70
             0
  9
$ATTREQ
 70
             1
  9
$HANDLING
 70
             1
  9
$HANDSEED
  5
242
  9
$SURFTAB1
 70
             6
  9
$SURFTAB2
 70
             6
  9
$SURFTYPE
 70
             6
  9
$SURFU
 70
             6
  9
$SURFV
 70
             6
  9
$UCSNAME
  2

  9
$UCSORG
 10
0.0
 20
0.0
 30
0.0
  9
$UCSXDIR
 10
1.0
 20
0.0
 30
0.0
  9
$UCSYDIR
 10
0.0
 20
1.0
 30
0.0
  9
$PUCSNAME
  2

  9
$PUCSORG
 10
0.0
 20
0.0
 30
0.0
  9
$PUCSXDIR
 10
1.0
 20
0.0
 30
0.0
  9
$PUCSYDIR
 10
0.0
 20
1.0
 30
0.0
  9
$USERI1
 70
             0
  9
$USERI2
 70
             0
  9
$USERI3
 70
             0
  9
$USERI4
 70
             0
  9
$USERI5
 70
             0
  9
$USERR1
 40
12.01
  9
$USERR2
 40
0.0
  9
$USERR3
 40
0.0
  9
$USERR4
 40
0.0
  9
$USERR5
 40
0.0
  9
$WORLDVIEW
 70
             1
  9
$SHADEDGE
 70
             3
  9
$SHADEDIF
 70
            70
  9
$TILEMODE
 70
             1
  9
$MAXACTVP
 70
            16
  9
$PINSBASE
 10
0.0
 20
0.0
 30
0.0
  9
$PLIMCHECK
 70
             0
  9
$PEXTMIN
 10
1.00000000000000E+20
 20
1.00000000000000E+20
 30
1.00000000000000E+20
  9
$PEXTMAX
 10
-1.00000000000000E+20
 20
-1.00000000000000E+20
 30
-1.00000000000000E+20
  9
$PLIMMIN
 10
0.0
 20
0.0
  9
$PLIMMAX
 10
12.0
 20
9.0
  9
$UNITMODE
 70
             0
  9
$VISRETAIN
 70
             0
  9
$PLINEGEN
 70
             1
  9
$PSLTSCALE
 70
             0
  9
$TREEDEPTH
 70
          3020
  9
$PICKSTYLE
 70
             1
  9
$CMLSTYLE
  2
STANDARD
  9
$CMLJUST
 70
             0
  9
$CMLSCALE
 40
1.0
  9
$PROXYGRAPHICS
 70
             0
  9
$MEASUREMENT
 70
             1
  0
ENDSEC
  0
SECTION
  2
CLASSES
  0
CLASS
  1
LWPOLYLINE
  2
AcDbPolyline
  3
"AutoCAD"
 90
        0
280
             0
281
             1
  0
CLASS
  1
IMAGE
  2
AcDbRasterImage
  3
ISM
 90
      127
280
             0
281
             1
  0
CLASS
  1
OLE2FRAME
  2
AcDbOle2Frame
  3
""
 90
        0
280
             0
281
             1
  0
CLASS
  1
HATCH
  2
AcDbHatch
  3
"ACAD_SEDONA"
 90
        0
280
             0
281
             1
  0
CLASS
  1
DICTIONARYVAR
  2
AcDbDictionaryVar
  3
"AutoCAD"
 90
        0
280
             0
281
             0
  0
CLASS
  1
RASTERVARIABLES
  2
AcDbRasterVariables
  3
ISM
 90
        0
280
             0
281
             0
  0
CLASS
  1
IMAGEDEF
  2
AcDbRasterImageDef
  3
ISM
 90
        0
280
             0
281
             0
  0
CLASS
  1
IMAGEDEF_REACTOR
  2
AcDbRasterImageDefReactor
  3
ISM
 90
        1
280
             0
281
             0
  0
CLASS
  1
IDBUFFER
  2
AcDbIdBuffer
  3
"Acad"
 90
        0
280
             0
281
             0
  0
CLASS
  1
SPATIAL_FILTER
  2
AcDbSpatialFilter
  3
"Acad"
 90
        0
280
             0
281
             0
  0
CLASS
  1
XRECORD
  2
AcDbXrecord
  3
"<Built In>"
 90
        0
280
             0
281
             0
  0
CLASS
  1
SORTENTSTABLE
  2
AcDbSortentsTable
  3
"AutoCAD"
 90
        0
280
             0
281
             0
  0
CLASS
  1
LAYER_INDEX
  2
AcDbLayerIndex
  3
"Acad"
 90
        0
280
             0
281
             0
  0
CLASS
  1
SPATIAL_INDEX
  2
AcDbSpatialIndex
  3
"Acad"
 90
        0
280
             0
281
             0
  0
CLASS
  1
OBJECT_PTR
  2
CAseDLPNTableRecord
  3
"ASE-LPNTableRecord"
 90
        1
280
             0
281
             0
  0
CLASS
  1
LAYOUT
  2
AcDbLayout
  3
"AutoCAD 2000"
 90
        0
280
             0
281
             0
  0
CLASS
  1
PLOTSETTINGS
  2
AcDbPlotSettings
  3
"AutoCAD 2000"
 90
        0
280
             0
281
             0
  0
CLASS
  1
ACDBDICTIONARYWDFLT
  2
AcDbDictionaryWithDefault
  3
"AutoCAD 2000"
 90
        0
280
             0
281
             0
  0
CLASS
  1
ACDBPLACEHOLDER
  2
AcDbPlaceHolder
  3
"AutoCAD 2000"
 90
        0
280
             0
281
             0
  0
ENDSEC
  0
SECTION
  2
TABLES
  0
TABLE
  2
VPORT
  5
7
100
AcDbSymbolTable
 70
             1
  0
VPORT
  5
15
100
AcDbSymbolTableRecord
100
AcDbViewportTableRecord
  2
*ACTIVE
 70
             0
 10
0.0
 20
0.0
 11
1.0
 21
1.0
 12
262.57887079338786
 22
44.51549841350851
 13
0.0
 23
0.0
 14
1.0
 24
1.0
 15
0.0
 25
0.0
 16
0.0
 26
0.0
 36
1.0
 17
0.0
 27
0.0
 37
0.0
 40
409.22750976871021
 41
1.60267857142857
 42
50.0
 43
0.0
 44
0.0
 50
0.0
 51
0.0
 71
             0
 72
           100
 73
             1
 74
             1
 75
             0
 76
             0
 77
             0
 78
             0
  0
ENDTAB
  0
TABLE
  2
LTYPE
  5
4
100
AcDbSymbolTable
 70
            11
  0
LTYPE
  5
11
100
AcDbSymbolTableRecord
100
AcDbLinetypeTableRecord
  2
BYBLOCK
 70
            64
  3

 72
            65
 73
             0
 40
0.0
  0
LTYPE
  5
12
100
AcDbSymbolTableRecord
100
AcDbLinetypeTableRecord
  2
BYLAYER
 70
            64
  3

 72
            65
 73
             0
 40
0.0
  0
LTYPE
  5
13
100
AcDbSymbolTableRecord
100
AcDbLinetypeTableRecord
  2
CONTINUOUS
 70
            64
  3
Solid line
 72
            65
 73
             0
 40
0.0
  0
LTYPE
  5
1D
100
AcDbSymbolTableRecord
100
AcDbLinetypeTableRecord
  2
DASHED
 70
            64
  3
Dashed
 72
            65
 73
             2
 40
15.0
 49
7.0
 74
             0
 49
-8.0
 74
             0
  0
LTYPE
  5
1E
100
AcDbSymbolTableRecord
100
AcDbLinetypeTableRecord
  2
DOTTED
 70
            64
  3
Dotted
 72
            65
 73
             2
 40
1.0
 49
0.0
 74
             0
 49
-1.0
 74
             0
  0
LTYPE
  5
1F
100
AcDbSymbolTableRecord
100
AcDbLinetypeTableRecord
  2
DOT_CENTER
 70
            64
  3
Dot_Center
 72
            65
 73
             4
 40
14.0
 49
12.0
 74
             0
 49
-1.0
 74
             0
 49
0.0
 74
             0
 49
-1.0
 74
             0
  0
LTYPE
  5
20
100
AcDbSymbolTableRecord
100
AcDbLinetypeTableRecord
  2
LONG_DASHED
 70
            64
  3
Long_Dashed
 72
            65
 73
             2
 40
15.0
 49
10.0
 74
             0
 49
-5.0
 74
             0
  0
LTYPE
  5
21
100
AcDbSymbolTableRecord
100
AcDbLinetypeTableRecord
  2
DASH_CENTER
 70
            64
  3
Dash_Center
 72
            65
 73
             4
 40
14.0
 49
11.0
 74
             0
 49
-1.0
 74
             0
 49
1.0
 74
             0
 49
-1.0
 74
             0
  0
LTYPE
  5
22
100
AcDbSymbolTableRecord
100
AcDbLinetypeTableRecord
  2
PHANTOM
 70
            64
  3
Phantom
 72
            65
 73
             6
 40
13.0
 49
10.0
 74
             0
 49
-1.0
 74
             0
 49
0.0
 74
             0
 49
-1.0
 74
             0
 49
0.0
 74
             0
 49
-1.0
 74
             0
  0
LTYPE
  5
23
100
AcDbSymbolTableRecord
100
AcDbLinetypeTableRecord
  2
CENTER_DASH_DASH
 70
            64
  3
Center_Dash_Dash
 72
            65
 73
             6
 40
14.0
 49
9.0
 74
             0
 49
-1.0
 74
             0
 49
1.0
 74
             0
 49
-1.0
 74
             0
 49
1.0
 74
             0
 49
-1.0
 74
             0
  0
LTYPE
  5
24
100
AcDbSymbolTableRecord
100
AcDbLinetypeTableRecord
  2
DASHDOT
 70
            64
  3
DASHDOT
 72
            65
 73
             4
 40
16.0
 49
10.0
 74
             0
 49
-3.0
 74
             0
 49
0.0
 74
             0
 49
-3.0
 74
             0
  0
ENDTAB
  0
TABLE
  2
LAYER
  5
2
100
AcDbSymbolTable
 70
             8
  0
LAYER
  5
14
100
AcDbSymbolTableRecord
100
AcDbLayerTableRecord
  2
0
 70
             0
 62
             7
  6
CONTINUOUS
  0
LAYER
  5
25
100
AcDbSymbolTableRecord
100
AcDbLayerTableRecord
  2
1
 70
             0
 62
             7
  6
CONTINUOUS
  0
LAYER
  5
26
100
AcDbSymbolTableRecord
100
AcDbLayerTableRecord
  2
LC-001-002-----0
 70
             0
 62
             7
  6
CONTINUOUS
  0
LAYER
  5
27
100
AcDbSymbolTableRecord
100
AcDbLayerTableRecord
  2
LC-002-002-RND-0
 70
             0
 62
             7
  6
CONTINUOUS
  0
LAYER
  5
28
100
AcDbSymbolTableRecord
100
AcDbLayerTableRecord
  2
LC-003-100-D03-0
 70
             0
 62
             7
  6
CONTINUOUS
  0
LAYER
  5
29
100
AcDbSymbolTableRecord
100
AcDbLayerTableRecord
  2
LC-004-003-----0
 70
             0
 62
             7
  6
CONTINUOUS
  0
LAYER
  5
2A
100
AcDbSymbolTableRecord
100
AcDbLayerTableRecord
  2
LC-007-007-KH--0
 70
             0
 62
             7
  6
CONTINUOUS
  0
LAYER
  5
2B
100
AcDbSymbolTableRecord
100
AcDbLayerTableRecord
  2
LC-008-001-----0
 70
             0
 62
             7
  6
CONTINUOUS
  0
ENDTAB
  0
TABLE
  2
STYLE
  5
3
100
AcDbSymbolTable
 70
             2
  0
STYLE
  5
17
100
AcDbSymbolTableRecord
100
AcDbTextStyleTableRecord
  2
STANDARD
 70
             0
 40
0.0
 41
1.0
 50
0.0
 71
             0
 42
0.0
  3
txt
  4

  0
STYLE
  5
205
100
AcDbSymbolTableRecord
100
AcDbTextStyleTableRecord
  2
CONVERTER_1
 70
             0
 40
0.0
 41
0.9
 50
0.0
 71
             0
 42
0.0
  3
txt.shx
  4

  0
ENDTAB
  0
TABLE
  2
VIEW
  5
5
100
AcDbSymbolTable
 70
             0
  0
ENDTAB
  0
TABLE
  2
UCS
  5
6
100
AcDbSymbolTable
 70
             0
  0
ENDTAB
  0
TABLE
  2
APPID
  5
8
100
AcDbSymbolTable
 70
             1
  0
APPID
  5
16
100
AcDbSymbolTableRecord
100
AcDbRegAppTableRecord
  2
ACAD
 70
             0
  0
ENDTAB
  0
TABLE
  2
DIMSTYLE
  5
9
100
AcDbSymbolTable
 70
             7
  0
DIMSTYLE
105
18
100
AcDbSymbolTableRecord
100
AcDbDimStyleTableRecord
  2
STANDARD
 70
             0
  3

  4

  5

  6

  7

 40
1.0
 41
0.18
 42
0.0625
 43
0.38
 44
0.18
 45
0.0
 46
0.0
 47
0.0
 48
0.0
 71
             0
 72
             0
 73
             1
 74
             1
 75
             0
 76
             0
 77
             0
 78
             0
140
0.18
141
0.09
142
0.0
143
25.4
144
1.0
145
0.0
146
1.0
147
0.09
170
             0
171
             2
172
             0
173
             0
174
             0
175
             0
176
             0
177
             0
178
             0
270
             2
271
             4
272
             4
273
             2
274
             2
275
             0
280
             0
281
             0
282
             0
283
             1
284
             0
285
             0
286
             0
287
             3
288
             0
340
17
  0
DIMSTYLE
105
208
100
AcDbSymbolTableRecord
100
AcDbDimStyleTableRecord
  2
ME10_DIM_0
 70
             0
  3

  4

  5

  6

  7

 40
1.0
 41
15.0
 42
0.0
 43
0.38
 44
2.0
 45
0.0
 46
0.0
 47
0.0
 48
0.0
 71
             0
 72
             0
 73
             0
 74
             0
 75
             0
 76
             0
 77
             1
 78
             8
140
15.0
141
0.09
142
0.0
143
25.4
144
1.0
145
0.0
146
1.0
147
0.625
170
             0
171
             2
172
             1
173
             1
174
             0
175
             0
176
             4
177
             4
178
             1
270
             2
271
             2
272
             4
273
             2
274
             2
275
             0
280
             0
281
             0
282
             0
283
             1
284
             0
285
             0
286
             0
287
             3
288
             0
340
205
  0
DIMSTYLE
105
213
100
AcDbSymbolTableRecord
100
AcDbDimStyleTableRecord
  2
ME10_DIM_1
 70
             0
  3

  4

  5

  6

  7

 40
1.0
 41
15.0
 42
0.0
 43
0.38
 44
2.0
 45
0.0
 46
0.0
 47
0.0
 48
0.0
 71
             0
 72
             0
 73
             0
 74
             0
 75
             0
 76
             0
 77
             1
 78
             8
140
15.0
141
0.09
142
0.0
143
25.4
144
1.0
145
0.0
146
1.0
147
0.625
170
             0
171
             2
172
             1
173
             1
174
             0
175
             0
176
             4
177
             4
178
             1
270
             2
271
             2
272
             4
273
             2
274
             2
275
             0
280
             0
281
             0
282
             0
283
             1
284
             0
285
             0
286
             0
287
             3
288
             0
340
205
  0
DIMSTYLE
105
21E
100
AcDbSymbolTableRecord
100
AcDbDimStyleTableRecord
  2
ME10_DIM_2
 70
             0
  3

  4

  5

  6

  7

 40
1.0
 41
15.0
 42
0.0
 43
0.38
 44
2.0
 45
0.0
 46
0.0
 47
0.0
 48
0.0
 71
             0
 72
             0
 73
             0
 74
             0
 75
             0
 76
             0
 77
             1
 78
             8
140
15.0
141
0.09
142
0.0
143
25.4
144
1.0
145
0.0
146
1.0
147
0.625
170
             0
171
             2
172
             1
173
             1
174
             0
175
             0
176
             4
177
             4
178
             1
270
             2
271
             2
272
             4
273
             2
274
             2
275
             0
280
             0
281
             0
282
             0
283
             1
284
             0
285
             0
286
             0
287
             3
288
             0
340
205
  0
DIMSTYLE
105
229
100
AcDbSymbolTableRecord
100
AcDbDimStyleTableRecord
  2
ME10_DIM_3
 70
             0
  3
220-<>
  4

  5

  6

  7

 40
1.0
 41
15.0
 42
0.0
 43
0.38
 44
2.0
 45
0.0
 46
0.0
 47
0.0
 48
0.0
 71
             0
 72
             0
 73
             0
 74
             0
 75
             0
 76
             0
 77
             1
 78
             8
140
15.0
141
0.09
142
0.0
143
25.4
144
1.0
145
0.0
146
1.0
147
0.625
170
             0
171
             2
172
             1
173
             1
174
             0
175
             0
176
             4
177
             4
178
             1
270
             2
271
             2
272
             4
273
             2
274
             2
275
             0
280
             0
281
             0
282
             0
283
             1
284
             0
285
             0
286
             0
287
             3
288
             0
340
205
  0
DIMSTYLE
105
234
100
AcDbSymbolTableRecord
100
AcDbDimStyleTableRecord
  2
ME10_DIM_4
 70
             0
  3
DN<>
  4

  5

  6

  7

 40
1.0
 41
15.0
 42
0.0
 43
0.38
 44
2.0
 45
0.0
 46
0.0
 47
0.0
 48
0.0
 71
             0
 72
             0
 73
             0
 74
             0
 75
             0
 76
             0
 77
             1
 78
             8
140
15.0
141
0.09
142
0.0
143
25.4
144
1.0
145
0.0
146
1.0
147
0.625
170
             0
171
             2
172
             1
173
             1
174
             0
175
             0
176
             4
177
             4
178
             1
270
             2
271
             2
272
             4
273
             2
274
             2
275
             0
280
             0
281
             0
282
             0
283
             1
284
             0
285
             0
286
             0
287
             3
288
             0
340
205
  0
DIMSTYLE
105
23F
100
AcDbSymbolTableRecord
100
AcDbDimStyleTableRecord
  2
ME10_DIM_5
 70
             0
  3
DN<>
  4

  5

  6

  7

 40
1.0
 41
15.0
 42
0.0
 43
0.38
 44
2.0
 45
0.0
 46
0.0
 47
0.0
 48
0.0
 71
             0
 72
             0
 73
             0
 74
             0
 75
             0
 76
             0
 77
             1
 78
             8
140
15.0
141
0.09
142
0.0
143
25.4
144
1.0
145
0.0
146
1.0
147
0.625
170
             0
171
             2
172
             1
173
             1
174
             0
175
             0
176
             4
177
             4
178
             1
270
             2
271
             2
272
             4
273
             2
274
             2
275
             0
280
             0
281
             0
282
             0
283
             1
284
             0
285
             0
286
             0
287
             3
288
             0
340
205
  0
ENDTAB
  0
TABLE
  2
BLOCK_RECORD
  5
1
100
AcDbSymbolTable
 70
             7
  0
BLOCK_RECORD
  5
A
100
AcDbSymbolTableRecord
100
AcDbBlockTableRecord
  2
*MODEL_SPACE
  0
BLOCK_RECORD
  5
B
100
AcDbSymbolTableRecord
100
AcDbBlockTableRecord
  2
*PAPER_SPACE
  0
BLOCK_RECORD
  5
2C
100
AcDbSymbolTableRecord
100
AcDbBlockTableRecord
  2
HL_712_2_R_CKSTAUVERSCS__1
  0
BLOCK_RECORD
  5
1FC
100
AcDbSymbolTableRecord
100
AcDbBlockTableRecord
  2
*D1
  0
BLOCK_RECORD
  5
20A
100
AcDbSymbolTableRecord
100
AcDbBlockTableRecord
  2
*D2
  0
BLOCK_RECORD
  5
215
100
AcDbSymbolTableRecord
100
AcDbBlockTableRecord
  2
*D3
  0
BLOCK_RECORD
  5
220
100
AcDbSymbolTableRecord
100
AcDbBlockTableRecord
  2
*D4
  0
BLOCK_RECORD
  5
22B
100
AcDbSymbolTableRecord
100
AcDbBlockTableRecord
  2
*D5
  0
BLOCK_RECORD
  5
236
100
AcDbSymbolTableRecord
100
AcDbBlockTableRecord
  2
*D6
  0
ENDTAB
  0
ENDSEC
  0
SECTION
  2
BLOCKS
  0
BLOCK
  5
D
100
AcDbEntity
  8
0
100
AcDbBlockBegin
  2
*MODEL_SPACE
 70
             0
 10
0.0
 20
0.0
 30
0.0
  3
*MODEL_SPACE
  1

  0
ENDBLK
  5
E
100
AcDbEntity
  8
0
100
AcDbBlockEnd
  0
BLOCK
  5
F
100
AcDbEntity
 67
             1
  8
0
100
AcDbBlockBegin
  2
*PAPER_SPACE
 70
             0
 10
0.0
 20
0.0
 30
0.0
  3
*PAPER_SPACE
  1

  0
ENDBLK
  5
10
100
AcDbEntity
 67
             1
  8
0
100
AcDbBlockEnd
  0
BLOCK
  5
2D
100
AcDbEntity
  8
0
100
AcDbBlockBegin
  2
HL_712_2_R_CKSTAUVERSCS__1
 70
             0
 10
-208.97248900000011
 20
-910.56579575326498
 30
0.0
  3
HL_712_2_R_CKSTAUVERSCS__1
  1

  0
ARC
  5
1F9
100
AcDbEntity
  8
LC-001-002-----0
  6
CONTINUOUS
 62
             7
100
AcDbCircle
 10
231.78367199999991
 20
-89.71412646494991
 40
0.91137099999979
100
AcDbArc
 50
-169.5624999999819
 51
-104.13472999997329
  0
ARC
  5
1F8
100
AcDbEntity
  8
LC-001-002-----0
  6
CONTINUOUS
 62
             7
100
AcDbCircle
 10
235.60416399999991
 20
-88.23060046494993
 40
4.99660300000028
100
AcDbArc
 50
179.00893999999613
 51
-160.73421600000484
  0
ARC
  5
1F7
100
AcDbEntity
  8
LC-001-002-----0
  6
CONTINUOUS
 62
             7
100
AcDbCircle
 10
235.60420899999991
 20
-88.05773946494992
 40
4.99664699999992
100
AcDbArc
 50
160.73449500000277
 51
-179.00878399999579
  0
ARC
  5
1F6
100
AcDbEntity
  8
LC-001-002-----0
  6
CONTINUOUS
 62
             7
100
AcDbCircle
 10
231.7836889999999
 20
-86.57422346494991
 40
0.91139400000038
100
AcDbArc
 50
104.1360020000225
 51
169.562613000022
  0
ARC
  5
1F5
100
AcDbEntity
  8
LC-001-002-----0
  6
CONTINUOUS
 62
             7
100
AcDbCircle
 10
231.69612199999989
 20
-85.1939154649499
 40
0.5145430000001
100
AcDbArc
 50
-166.17509200003914
 51
-105.21274700000177
  0
ARC
  5
1F4
100
AcDbEntity
  8
LC-001-002-----0
  6
CONTINUOUS
 62
             7
100
AcDbCircle
 10
235.60233899999989
 20
-83.4598534649499
 40
4.78121800000018
100
AcDbArc
 50
-170.45043999999402
 51
-157.14515900000166
  0
ARC
  5
1F3
100
AcDbEntity
  8
LC-001-002-----0
  6
CONTINUOUS
 62
             7
100
AcDbCircle
 10
249.8870179999999
 20
-80.97882846494997
 40
19.27970400000038
100
AcDbArc
 50
179.41787600000032
 51
-170.222183999999
  0
ARC
  5
1F2
100
AcDbEntity
  8
LC-001-002-----0
  6
CONTINUOUS
 62
             7
100
AcDbCircle
 10
249.8870179999999
 20
-80.58707246494998
 40
19.27970400000029
100
AcDbArc
 50
170.222183999999
 51
-179.41787600000032
  0
ARC
  5
1F1
100
AcDbEntity
  8
LC-001-002-----0
  6
CONTINUOUS
 62
             7
100
AcDbCircle
 10
235.60233899999989
 20
-78.10604746494994
 40
4.78121799999963
100
AcDbArc
 50
157.14515900000291
 51
170.45043999999402
  0
ARC
  5
1F0
100
AcDbEntity
  8
LC-001-002-----0
  6
CONTINUOUS
 62
             7
100
AcDbCircle
 10
231.69612199999989
 20
-76.37198546494994
 40
0.51454299999957
100
AcDbArc
 50
105.21274700000509
 51
166.17509200005142
  0
ARC
  5
1EF
100
AcDbEntity
  8
LC-001-002-----0
  6
CONTINUOUS
 62
             7
100
AcDbCircle
 10
231.7836879999999
 20
-74.99167746495004
 40
0.91139399999949
100
AcDbArc
 50
-169.56260500001773
 51
-104.13599800000171
  0
ARC
  5
1EE
100
AcDbEntity
  8
LC-001-002-----0
  6
CONTINUOUS
 62
             7
100
AcDbCircle
 10
235.60420799999989
 20
-73.50816146495004
 40
4.99664600000045
100
AcDbArc
 50
179.00879000000236
 51
-160.73448899999804
  0
ARC
  5
1ED
100
AcDbEntity
  8
LC-001-002-----0
  6
CONTINUOUS
 62
             7
100
AcDbCircle
 10
235.60416599999991
 20
-73.33530146494991
 40
4.99660499999993
100
AcDbArc
 50
160.73422999999593
 51
-179.0089360000004
  0
ARC
  5
1EC
100
AcDbEntity
  8
LC-001-002-----0
  6
CONTINUOUS
 62
             7
100
AcDbCircle
 10
231.78367299999991
 20
-71.85177546494992
 40
0.91137300000035
100
AcDbArc
 50
104.1348159999684
 51
169.56250000002689
  0
ARC
  5
1EB
100
AcDbEntity
  8
LC-001-002-----0
  6
CONTINUOUS
 62
             7
100
AcDbCircle
 10
236.43292899999989
 20
-86.57422346494991
 40
0.91139399999993
100
AcDbArc
 50
10.43738699997801
 51
75.86399799997578
  0
ARC
  5
1EA
100
AcDbEntity
  8
LC-001-002-----0
  6
CONTINUOUS
 62
             7
100
AcDbCircle
 10
232.6124089999999
 20
-88.05773946494992
 40
4.99664699999981
100
AcDbArc
 50
-0.99121600000423
 51
19.26550499999725
  0
ARC
  5
1E9
100
AcDbEntity
  8
LC-001-002-----0
  6
CONTINUOUS
 62
             7
100
AcDbCircle
 10
232.6124539999999
 20
-88.23060046494993
 40
4.99660299999997
100
AcDbArc
 50
-19.26578399999483
 51
0.99106000000385
  0
ARC
  5
1E8
100
AcDbEntity
  8
LC-001-002-----0
  6
CONTINUOUS
 62
             7
100
AcDbCircle
 10
236.4329459999999
 20
-89.71412646494991
 40
0.91137100000005
100
AcDbArc
 50
-75.86527000002671
 51
-10.43750000001716
  0
ARC
  5
1E7
100
AcDbEntity
  8
LC-001-002-----0
  6
CONTINUOUS
 62
             7
100
AcDbCircle
 10
236.52049599999989
 20
-76.37198546494994
 40
0.5145430000001
100
AcDbArc
 50
13.82490799994783
 51
74.78725299999185
  0
ARC
  5
1E6
100
AcDbEntity
  8
LC-001-002-----0
  6
CONTINUOUS
 62
             7
100
AcDbCircle
 10
232.6142789999999
 20
-78.10604746494994
 40
4.78121800000018
100
AcDbArc
 50
9.549560000006
 51
22.85484099999709
  0
ARC
  5
1E5
100
AcDbEntity
  8
LC-001-002-----0
  6
CONTINUOUS
 62
             7
100
AcDbCircle
 10
218.32959999999991
 20
-80.58707246494998
 40
19.27970400000035
100
AcDbArc
 50
-0.58212399999969
 51
9.77781600000094
  0
ARC
  5
1E4
100
AcDbEntity
  8
LC-001-002-----0
  6
CONTINUOUS
 62
             7
100
AcDbCircle
 10
218.32959999999991
 20
-80.97882846494997
 40
19.27970400000037
100
AcDbArc
 50
-9.77781600000094
 51
0.58212399999969
  0
ARC
  5
1E3
100
AcDbEntity
  8
LC-001-002-----0
  6
CONTINUOUS
 62
             7
100
AcDbCircle
 10
232.6142789999999
 20
-83.4598534649499
 40
4.78121799999967
100
AcDbArc
 50
-22.85484099999835
 51
-9.549560000006
  0
ARC
  5
1E2
100
AcDbEntity
  8
LC-001-002-----0
  6
CONTINUOUS
 62
             7
100
AcDbCircle
 10
236.52049599999989
 20
-85.1939154649499
 40
0.51454299999969
100
AcDbArc
 50
-74.78725299999518
 51
-13.82490799996012
  0
ARC
  5
1E1
100
AcDbEntity
  8
LC-001-002-----0
  6
CONTINUOUS
 62
             7
100
AcDbCircle
 10
236.4329449999999
 20
-71.85177546494992
 40
0.91137299999953
100
AcDbArc
 50
10.4374999999731
 51
75.8651840000316
  0
ARC
  5
1E0
100
AcDbEntity
  8
LC-001-002-----0
  6
CONTINUOUS
 62
             7
100
AcDbCircle
 10
232.61245099999991
 20
-73.33530146494991
 40
4.99660500000003
100
AcDbArc
 50
-0.9910639999996
 51
19.26577000000406
  0
ARC
  5
1DF
100
AcDbEntity
  8
LC-001-002-----0
  6
CONTINUOUS
 62
             7
100
AcDbCircle
 10
232.6124099999999
 20
-73.50816146495004
 40
4.99664600000036
100
AcDbArc
 50
-19.26551100000197
 51
0.99120999999762
  0
ARC
  5
1DE
100
AcDbEntity
  8
LC-001-002-----0
  6
CONTINUOUS
 62
             7
100
AcDbCircle
 10
236.43292899999989
 20
-74.99167746495004
 40
0.91139400000001
100
AcDbArc
 50
-75.86400199999656
 51
-10.43739499998197
  0
ARC
  5
1DD
100
AcDbEntity
  8
LC-001-002-----0
  6
CONTINUOUS
 62
             7
100
AcDbCircle
 10
260.90168899999992
 20
-76.37198546494994
 40
0.51454300000018
100
AcDbArc
 50
13.82490799994556
 51
74.7872529999827
  0
ARC
  5
1DC
100
AcDbEntity
  8
LC-001-002-----0
  6
CONTINUOUS
 62
             7
100
AcDbCircle
 10
256.995473
 20
-78.10604746494994
 40
4.78121800000007
100
AcDbArc
 50
9.54956000000623
 51
22.85484099999722
  0
ARC
  5
1DB
100
AcDbEntity
  8
LC-001-002-----0
  6
CONTINUOUS
 62
             7
100
AcDbCircle
 10
242.71079399999991
 20
-80.58707246494998
 40
19.27970400000038
100
AcDbArc
 50
-0.58212399999969
 51
9.77781600000089
  0
ARC
  5
1DA
100
AcDbEntity
  8
LC-001-002-----0
  6
CONTINUOUS
 62
             7
100
AcDbCircle
 10
242.71079399999991
 20
-80.97882846494997
 40
19.27970400000049
100
AcDbArc
 50
-9.77781600000089
 51
0.58212399999969
  0
ARC
  5
1D9
100
AcDbEntity
  8
LC-001-002-----0
  6
CONTINUOUS
 62
             7
100
AcDbCircle
 10
256.995473
 20
-83.4598534649499
 40
4.78121799999964
100
AcDbArc
 50
-22.85484099999848
 51
-9.54956000000623
  0
ARC
  5
1D8
100
AcDbEntity
  8
LC-001-002-----0
  6
CONTINUOUS
 62
             7
100
AcDbCircle
 10
260.90168899999992
 20
-85.1939154649499
 40
0.51454299999971
100
AcDbArc
 50
-74.78725299998601
 51
-13.82490799995785
  0
ARC
  5
1D7
100
AcDbEntity
  8
LC-001-002-----0
  6
CONTINUOUS
 62
             7
100
AcDbCircle
 10
260.81413900000001
 20
-71.85177546494992
 40
0.91137299999939
100
AcDbArc
 50
10.43749999997472
 51
75.86518400003681
  0
ARC
  5
1D6
100
AcDbEntity
  8
LC-001-002-----0
  6
CONTINUOUS
 62
             7
100
AcDbCircle
 10
256.9936449999999
 20
-73.33530146494991
 40
4.99660500000017
100
AcDbArc
 50
-0.99106399999957
 51
19.26577000000416
  0
ARC
  5
1D5
100
AcDbEntity
  8
LC-001-002-----0
  6
CONTINUOUS
 62
             7
100
AcDbCircle
 10
256.99360399999989
 20
-73.50816146495004
 40
4.99664600000036
100
AcDbArc
 50
-19.26551100000197
 51
0.99120999999762
  0
ARC
  5
1D4
100
AcDbEntity
  8
LC-001-002-----0
  6
CONTINUOUS
 62
             7
100
AcDbCircle
 10
260.81412299999988
 20
-74.99167746495004
 40
0.91139400000004
100
AcDbArc
 50
-75.86400199998963
 51
-10.43739499998165
  0
ARC
  5
1D3
100
AcDbEntity
  8
LC-001-002-----0
  6
CONTINUOUS
 62
             7
100
AcDbCircle
 10
231.78367199999991
 20
39.28859053505005
 40
0.91137099999979
100
AcDbArc
 50
-169.5624999999819
 51
-104.13472999997242
  0
ARC
  5
1D2
100
AcDbEntity
  8
LC-001-002-----0
  6
CONTINUOUS
 62
             7
100
AcDbCircle
 10
235.60416399999991
 20
40.77211653505003
 40
4.99660300000028
100
AcDbArc
 50
179.00893999999613
 51
-160.73421600000549
  0
ARC
  5
1D1
100
AcDbEntity
  8
LC-001-002-----0
  6
CONTINUOUS
 62
             7
100
AcDbCircle
 10
235.60420899999991
 20
40.94497653505005
 40
4.99664699999993
100
AcDbArc
 50
160.73449500000223
 51
-179.00878399999567
  0
ARC
  5
1D0
100
AcDbEntity
  8
LC-001-002-----0
  6
CONTINUOUS
 62
             7
100
AcDbCircle
 10
231.7836889999999
 20
42.42849253505005
 40
0.9113940000005
100
AcDbArc
 50
104.13600200002053
 51
169.56261300001847
  0
ARC
  5
1CF
100
AcDbEntity
  8
LC-001-002-----0
  6
CONTINUOUS
 62
             7
100
AcDbCircle
 10
231.69612199999989
 20
43.80880053505001
 40
0.51454300000007
100
AcDbArc
 50
-166.17509200005065
 51
-105.21274700000345
  0
ARC
  5
1CE
100
AcDbEntity
  8
LC-001-002-----0
  6
CONTINUOUS
 62
             7
100
AcDbCircle
 10
235.60233899999989
 20
45.54286253505006
 40
4.78121800000018
100
AcDbArc
 50
-170.45043999999402
 51
-157.14515900000228
  0
ARC
  5
1CD
100
AcDbEntity
  8
LC-001-002-----0
  6
CONTINUOUS
 62
             7
100
AcDbCircle
 10
249.8870179999999
 20
48.02388753505005
 40
19.27970400000038
100
AcDbArc
 50
179.41787600000032
 51
-170.22218399999923
  0
ARC
  5
1CC
100
AcDbEntity
  8
LC-001-002-----0
  6
CONTINUOUS
 62
             7
100
AcDbCircle
 10
249.8870179999999
 20
48.41564353505004
 40
19.27970400000028
100
AcDbArc
 50
170.2221839999992
 51
-179.41787600000032
  0
ARC
  5
1CB
100
AcDbEntity
  8
LC-001-002-----0
  6
CONTINUOUS
 62
             7
100
AcDbCircle
 10
235.60233899999989
 20
50.89666853505003
 40
4.78121799999965
100
AcDbArc
 50
157.14515900000228
 51
170.45043999999476
  0
ARC
  5
1CA
100
AcDbEntity
  8
LC-001-002-----0
  6
CONTINUOUS
 62
             7
100
AcDbCircle
 10
231.69612199999989
 20
52.63073053505002
 40
0.51454299999969
100
AcDbArc
 50
105.21274700000157
 51
166.17509200004605
  0
ARC
  5
1C9
100
AcDbEntity
  8
LC-001-002-----0
  6
CONTINUOUS
 62
             7
100
AcDbCircle
 10
231.7836879999999
 20
54.01103953505003
 40
0.91139399999951
100
AcDbArc
 50
-169.56260500001071
 51
-104.13599800000084
  0
ARC
  5
1C8
100
AcDbEntity
  8
LC-001-002-----0
  6
CONTINUOUS
 62
             7
100
AcDbCircle
 10
235.60420799999989
 20
55.49455453505004
 40
4.99664600000045
100
AcDbArc
 50
179.00879000000305
 51
-160.73448899999681
  0
ARC
  5
1C7
100
AcDbEntity
  8
LC-001-002-----0
  6
CONTINUOUS
 62
             7
100
AcDbCircle
 10
235.60416599999991
 20
55.66741553505005
 40
4.99660499999995
100
AcDbArc
 50
160.73422999999525
 51
-179.00893600000114
  0
ARC
  5
1C6
100
AcDbEntity
  8
LC-001-002-----0
  6
CONTINUOUS
 62
             7
100
AcDbCircle
 10
231.78367299999991
 20
57.15094053505004
 40
0.91137300000035
100
AcDbArc
 50
104.1348159999683
 51
169.56249999996365
  0
ARC
  5
1C5
100
AcDbEntity
  8
LC-001-002-----0
  6
CONTINUOUS
 62
             7
100
AcDbCircle
 10
260.81412299999988
 20
42.42849253505005
 40
0.91139399999997
100
AcDbArc
 50
10.4373869999812
 51
75.86399799997948
  0
ARC
  5
1C4
100
AcDbEntity
  8
LC-001-002-----0
  6
CONTINUOUS
 62
             7
100
AcDbCircle
 10
256.99360299999989
 20
40.94497653505005
 40
4.99664699999981
100
AcDbArc
 50
-0.99121600000431
 51
19.26550499999768
  0
ARC
  5
1C3
100
AcDbEntity
  8
LC-001-002-----0
  6
CONTINUOUS
 62
             7
100
AcDbCircle
 10
256.9936469999999
 20
40.77211653505003
 40
4.99660300000006
100
AcDbArc
 50
-19.26578399999379
 51
0.99106000000385
  0
ARC
  5
1C2
100
AcDbEntity
  8
LC-001-002-----0
  6
CONTINUOUS
 62
             7
100
AcDbCircle
 10
260.81414000000001
 20
39.28859053505005
 40
0.91137100000008
100
AcDbArc
 50
-75.86527000003278
 51
-10.43750000001846
  0
ARC
  5
1C1
100
AcDbEntity
  8
LC-001-002-----0
  6
CONTINUOUS
 62
             7
100
AcDbCircle
 10
260.90168899999992
 20
52.63073053505002
 40
0.51454300000019
100
AcDbArc
 50
13.82490799995093
 51
74.78725299998622
  0
ARC
  5
1C0
100
AcDbEntity
  8
LC-001-002-----0
  6
CONTINUOUS
 62
             7
100
AcDbCircle
 10
256.995473
 20
50.89666853505003
 40
4.78121800000006
100
AcDbArc
 50
9.54956000000547
 51
22.85484099999785
  0
ARC
  5
1BF
100
AcDbEntity
  8
LC-001-002-----0
  6
CONTINUOUS
 62
             7
100
AcDbCircle
 10
242.71079399999991
 20
48.41564353505004
 40
19.27970400000038
100
AcDbArc
 50
-0.58212399999969
 51
9.77781600000072
  0
ARC
  5
1BE
100
AcDbEntity
  8
LC-001-002-----0
  6
CONTINUOUS
 62
             7
100
AcDbCircle
 10
242.71079399999991
 20
48.02388753505005
 40
19.27970400000048
100
AcDbArc
 50
-9.7778160000007
 51
0.58212399999969
  0
ARC
  5
1BD
100
AcDbEntity
  8
LC-001-002-----0
  6
CONTINUOUS
 62
             7
100
AcDbCircle
 10
256.995473
 20
45.54286253505006
 40
4.78121799999962
100
AcDbArc
 50
-22.85484099999785
 51
-9.54956000000623
  0
ARC
  5
1BC
100
AcDbEntity
  8
LC-001-002-----0
  6
CONTINUOUS
 62
             7
100
AcDbCircle
 10
260.90168899999992
 20
43.80880053505001
 40
0.51454299999966
100
AcDbArc
 50
-74.78725299998436
 51
-13.82490799994632
  0
ARC
  5
1BB
100
AcDbEntity
  8
LC-001-002-----0
  6
CONTINUOUS
 62
             7
100
AcDbCircle
 10
260.81413900000001
 20
57.15094053505004
 40
0.91137299999958
100
AcDbArc
 50
10.43750000003798
 51
75.86518400003692
  0
ARC
  5
1BA
100
AcDbEntity
  8
LC-001-002-----0
  6
CONTINUOUS
 62
             7
100
AcDbCircle
 10
256.9936449999999
 20
55.66741553505005
 40
4.99660500000017
100
AcDbArc
 50
-0.99106399999883
 51
19.26577000000486
  0
ARC
  5
1B9
100
AcDbEntity
  8
LC-001-002-----0
  6
CONTINUOUS
 62
             7
100
AcDbCircle
 10
256.99360399999989
 20
55.49455453505004
 40
4.9966460000004
100
AcDbArc
 50
-19.2655110000032
 51
0.99120999999697
  0
ARC
  5
1B8
100
AcDbEntity
  8
LC-001-002-----0
  6
CONTINUOUS
 62
             7
100
AcDbCircle
 10
260.81412299999988
 20
54.01103953505003
 40
0.9113940000001
100
AcDbArc
 50
-75.86400199999051
 51
-10.43739499998867
  0
ARC
  5
1B7
100
AcDbEntity
  8
LC-001-002-----0
  6
CONTINUOUS
 62
             7
100
AcDbCircle
 10
236.43292899999989
 20
42.42849253505005
 40
0.91139399999994
100
AcDbArc
 50
10.43738699998153
 51
75.86399799997774
  0
ARC
  5
1B6
100
AcDbEntity
  8
LC-001-002-----0
  6
CONTINUOUS
 62
             7
100
AcDbCircle
 10
232.6124089999999
 20
40.94497653505005
 40
4.99664699999981
100
AcDbArc
 50
-0.99121600000431
 51
19.26550499999779
  0
ARC
  5
1B5
100
AcDbEntity
  8
LC-001-002-----0
  6
CONTINUOUS
 62
             7
100
AcDbCircle
 10
232.6124539999999
 20
40.77211653505003
 40
4.99660299999995
100
AcDbArc
 50
-19.26578399999422
 51
0.99106000000385
  0
ARC
  5
1B4
100
AcDbEntity
  8
LC-001-002-----0
  6
CONTINUOUS
 62
             7
100
AcDbCircle
 10
236.4329459999999
 20
39.28859053505005
 40
0.9113710000001
100
AcDbArc
 50
-75.86527000002759
 51
-10.43750000001716
  0
ARC
  5
1B3
100
AcDbEntity
  8
LC-001-002-----0
  6
CONTINUOUS
 62
             7
100
AcDbCircle
 10
236.4329449999999
 20
57.15094053505004
 40
0.91137299999972
100
AcDbArc
 50
10.43750000003637
 51
75.86518400003172
  0
ARC
  5
1B2
100
AcDbEntity
  8
LC-001-002-----0
  6
CONTINUOUS
 62
             7
100
AcDbCircle
 10
232.61245099999991
 20
55.66741553505005
 40
4.99660500000003
100
AcDbArc
 50
-0.99106399999886
 51
19.26577000000475
  0
ARC
  5
1B1
100
AcDbEntity
  8
LC-001-002-----0
  6
CONTINUOUS
 62
             7
100
AcDbCircle
 10
232.6124099999999
 20
55.49455453505004
 40
4.9966460000004
100
AcDbArc
 50
-19.2655110000032
 51
0.99120999999697
  0
ARC
  5
1B0
100
AcDbEntity
  8
LC-001-002-----0
  6
CONTINUOUS
 62
             7
100
AcDbCircle
 10
236.43292899999989
 20
54.01103953505003
 40
0.91139400000007
100
AcDbArc
 50
-75.86400199999744
 51
-10.437394999989
  0
ARC
  5
1AF
100
AcDbEntity
  8
LC-001-002-----0
  6
CONTINUOUS
 62
             7
100
AcDbCircle
 10
260.81412299999988
 20
-86.57422346494991
 40
0.91139399999996
100
AcDbArc
 50
10.43738699997769
 51
75.86399799997751
  0
ARC
  5
1AE
100
AcDbEntity
  8
LC-001-002-----0
  6
CONTINUOUS
 62
             7
100
AcDbCircle
 10
256.99360299999989
 20
-88.05773946494992
 40
4.99664699999981
100
AcDbArc
 50
-0.99121600000423
 51
19.26550499999714
  0
ARC
  5
1AD
100
AcDbEntity
  8
LC-001-002-----0
  6
CONTINUOUS
 62
             7
100
AcDbCircle
 10
256.9936469999999
 20
-88.23060046494993
 40
4.99660300000008
100
AcDbArc
 50
-19.2657839999944
 51
0.99106000000385
  0
ARC
  5
1AC
100
AcDbEntity
  8
LC-001-002-----0
  6
CONTINUOUS
 62
             7
100
AcDbCircle
 10
260.81414000000001
 20
-89.71412646494991
 40
0.91137100000003
100
AcDbArc
 50
-75.86527000003191
 51
-10.43750000001846
  0
ARC
  5
1AB
100
AcDbEntity
  8
LC-002-002-RND-0
  6
CONTINUOUS
 62
             7
100
AcDbCircle
 10
405.75403599999999
 20
82.46280653505005
 40
0.5
100
AcDbArc
 50
-90.0
 51
0.0
  0
ARC
  5
1AA
100
AcDbEntity
  8
LC-002-002-RND-0
  6
CONTINUOUS
 62
             7
100
AcDbCircle
 10
386.75403599999999
 20
82.46280653505005
 40
0.5
100
AcDbArc
 50
180.0
 51
-90.0
  0
ARC
  5
1A9
100
AcDbEntity
  8
LC-002-002-RND-0
  6
CONTINUOUS
 62
             7
100
AcDbCircle
 10
297.75403599999993
 20
82.46280653505005
 40
0.5
100
AcDbArc
 50
-90.0
 51
0.0
  0
ARC
  5
1A8
100
AcDbEntity
  8
LC-002-002-RND-0
  6
CONTINUOUS
 62
             7
100
AcDbCircle
 10
278.75403599999993
 20
82.46280653505005
 40
0.5
100
AcDbArc
 50
180.0
 51
-90.0
  0
ARC
  5
1A7
100
AcDbEntity
  8
LC-002-002-RND-0
  6
CONTINUOUS
 62
             7
100
AcDbCircle
 10
405.75403599999999
 20
89.46280653505005
 40
0.5
100
AcDbArc
 50
0.0
 51
90.0
  0
ARC
  5
1A6
100
AcDbEntity
  8
LC-002-002-RND-0
  6
CONTINUOUS
 62
             7
100
AcDbCircle
 10
386.75403599999999
 20
89.46280653505005
 40
0.5
100
AcDbArc
 50
90.0
 51
180.0
  0
ARC
  5
1A5
100
AcDbEntity
  8
LC-002-002-RND-0
  6
CONTINUOUS
 62
             7
100
AcDbCircle
 10
297.75403599999993
 20
89.46280653505005
 40
0.5
100
AcDbArc
 50
0.0
 51
90.0
  0
ARC
  5
1A4
100
AcDbEntity
  8
LC-002-002-RND-0
  6
CONTINUOUS
 62
             7
100
AcDbCircle
 10
278.75403599999993
 20
89.46280653505005
 40
0.5
100
AcDbArc
 50
90.0
 51
180.0
  0
ARC
  5
1A3
100
AcDbEntity
  8
LC-002-002-RND-0
  6
CONTINUOUS
 62
             7
100
AcDbCircle
 10
435.73525399999971
 20
82.46280653505005
 40
0.5
100
AcDbArc
 50
-90.0
 51
0.0
  0
ARC
  5
1A2
100
AcDbEntity
  8
LC-002-002-RND-0
  6
CONTINUOUS
 62
             7
100
AcDbCircle
 10
433.23525399999971
 20
93.96280653505005
 40
3.0
100
AcDbArc
 50
0.0
 51
90.0
  0
ARC
  5
1A1
100
AcDbEntity
  8
LC-002-002-RND-0
  6
CONTINUOUS
 62
             7
100
AcDbCircle
 10
310.82874900000002
 20
103.46280653505011
 40
0.5
100
AcDbArc
 50
0.0
 51
90.0
  0
ARC
  5
1A0
100
AcDbEntity
  8
LC-002-002-RND-0
  6
CONTINUOUS
 62
             7
100
AcDbCircle
 10
312.32874900000002
 20
97.96280653505005
 40
1.0
100
AcDbArc
 50
180.0
 51
-90.0
  0
ARC
  5
19F
100
AcDbEntity
  8
LC-002-002-RND-0
  6
CONTINUOUS
 62
             7
100
AcDbCircle
 10
251.0987539999999
 20
93.96280653505005
 40
3.0
100
AcDbArc
 50
90.0
 51
180.0
  0
ARC
  5
19E
100
AcDbEntity
  8
LC-002-002-RND-0
  6
CONTINUOUS
 62
             7
100
AcDbCircle
 10
248.5987539999999
 20
82.46280653505005
 40
0.5
100
AcDbArc
 50
180.0
 51
-90.0
  0
ARC
  5
19D
100
AcDbEntity
  8
LC-001-002-----0
  6
CONTINUOUS
 62
             7
100
AcDbCircle
 10
277.3208489999999
 20
95.84643453505004
 40
24.35759899999957
100
AcDbArc
 50
69.74267600000032
 51
113.12581499999975
  0
ARC
  5
19C
100
AcDbEntity
  8
LC-001-002-----0
  6
CONTINUOUS
 62
             7
100
AcDbCircle
 10
307.75403599999999
 20
114.66680953505011
 40
1.0
100
AcDbArc
 50
-69.99986699999123
 51
0.0
  0
ARC
  5
19B
100
AcDbEntity
  8
LC-002-002-RND-0
  6
CONTINUOUS
 62
             7
100
AcDbCircle
 10
247.7989059999999
 20
-80.49864346494996
 40
0.5
100
AcDbArc
 50
90.0
 51
180.0
  0
ARC
  5
19A
100
AcDbEntity
  8
LC-002-002-RND-0
  6
CONTINUOUS
 62
             7
100
AcDbCircle
 10
247.7989059999999
 20
44.21967053505006
 40
0.5
100
AcDbArc
 50
180.0
 51
-90.0
  0
ARC
  5
199
100
AcDbEntity
  8
LC-001-002-----0
  6
CONTINUOUS
 62
             7
100
AcDbCircle
 10
268.75436499999989
 20
118.24676953505001
 40
1.00000000000037
100
AcDbArc
 50
108.72563699997875
 51
179.99996299998472
  0
ARC
  5
198
100
AcDbEntity
  8
LC-001-002-----0
  6
CONTINUOUS
 62
             7
100
AcDbCircle
 10
268.7543629999999
 20
114.66669953505
 40
1.00000000000021
100
AcDbArc
 50
179.99996299998961
 51
-110.00011399998823
  0
ARC
  5
197
100
AcDbEntity
  8
LC-002-002-RND-0
  6
CONTINUOUS
 62
             7
100
AcDbCircle
 10
216.10163099999991
 20
97.21217353505006
 40
0.5
100
AcDbArc
 50
-90.0
 51
0.0
  0
ARC
  5
196
100
AcDbEntity
  8
LC-002-002-RND-0
  6
CONTINUOUS
 62
             7
100
AcDbCircle
 10
254.7402129999999
 20
-90.28295046494998
 40
0.50000000000024
100
AcDbArc
 50
1.01670200001848
 51
90.0
  0
ARC
  5
195
100
AcDbEntity
  8
LC-002-002-RND-0
  6
CONTINUOUS
 62
             7
100
AcDbCircle
 10
249.4895019999999
 20
-79.49864346494996
 40
0.5
100
AcDbArc
 50
-90.0
 51
0.0
  0
ARC
  5
194
100
AcDbEntity
  8
LC-002-002-RND-0
  6
CONTINUOUS
 62
             7
100
AcDbCircle
 10
249.4895019999999
 20
43.21967053505006
 40
0.5
100
AcDbArc
 50
0.0
 51
90.0
  0
ARC
  5
193
100
AcDbEntity
  8
LC-002-002-RND-0
  6
CONTINUOUS
 62
             7
100
AcDbCircle
 10
405.75403599999999
 20
81.46280653505005
 40
0.5
100
AcDbArc
 50
0.0
 51
90.0
  0
ARC
  5
192
100
AcDbEntity
  8
LC-002-002-RND-0
  6
CONTINUOUS
 62
             7
100
AcDbCircle
 10
386.75403599999999
 20
81.46280653505005
 40
0.5
100
AcDbArc
 50
90.0
 51
180.0
  0
ARC
  5
191
100
AcDbEntity
  8
LC-002-002-RND-0
  6
CONTINUOUS
 62
             7
100
AcDbCircle
 10
297.75403599999993
 20
81.46280653505005
 40
0.5
100
AcDbArc
 50
0.0
 51
90.0
  0
ARC
  5
190
100
AcDbEntity
  8
LC-002-002-RND-0
  6
CONTINUOUS
 62
             7
100
AcDbCircle
 10
278.75403599999993
 20
81.46280653505005
 40
0.5
100
AcDbArc
 50
90.0
 51
180.0
  0
ARC
  5
18F
100
AcDbEntity
  8
LC-002-002-RND-0
  6
CONTINUOUS
 62
             7
100
AcDbCircle
 10
197.10163099999991
 20
97.21217353505006
 40
0.5
100
AcDbArc
 50
180.0
 51
-90.0
  0
ARC
  5
18E
100
AcDbEntity
  8
LC-002-002-RND-0
  6
CONTINUOUS
 62
             7
100
AcDbCircle
 10
386.75403599999999
 20
74.46280653505005
 40
0.5
100
AcDbArc
 50
180.0
 51
-90.0
  0
ARC
  5
18D
100
AcDbEntity
  8
LC-002-002-RND-0
  6
CONTINUOUS
 62
             7
100
AcDbCircle
 10
108.1016309999999
 20
97.21217353505006
 40
0.5
100
AcDbArc
 50
-90.0
 51
0.0
  0
ARC
  5
18C
100
AcDbEntity
  8
LC-002-002-RND-0
  6
CONTINUOUS
 62
             7
100
AcDbCircle
 10
405.75403599999999
 20
74.46280653505005
 40
0.5
100
AcDbArc
 50
-90.0
 51
0.0
  0
ARC
  5
18B
100
AcDbEntity
  8
LC-002-002-RND-0
  6
CONTINUOUS
 62
             7
100
AcDbCircle
 10
278.75403599999993
 20
74.46280653505005
 40
0.5
100
AcDbArc
 50
180.0
 51
-90.0
  0
ARC
  5
18A
100
AcDbEntity
  8
LC-002-002-RND-0
  6
CONTINUOUS
 62
             7
100
AcDbCircle
 10
297.75403599999993
 20
74.46280653505005
 40
0.5
100
AcDbArc
 50
-90.0
 51
0.0
  0
ARC
  5
189
100
AcDbEntity
  8
LC-001-002-----0
  6
CONTINUOUS
 62
             7
100
AcDbCircle
 10
299.18753800000002
 20
95.84654953505003
 40
24.35759900000021
100
AcDbArc
 50
66.87414800000126
 51
110.2572870000009
  0
ARC
  5
188
100
AcDbEntity
  8
LC-001-002-----0
  6
CONTINUOUS
 62
             7
100
AcDbCircle
 10
307.75403599999999
 20
118.25029353505001
 40
1.0
100
AcDbArc
 50
0.0
 51
71.28469999999025
  0
ARC
  5
187
100
AcDbEntity
  8
LC-002-002-RND-0
  6
CONTINUOUS
 62
             7
100
AcDbCircle
 10
254.4895019999999
 20
-48.61096246495004
 40
0.5
100
AcDbArc
 50
0.0
 51
90.0
  0
ARC
  5
186
100
AcDbEntity
  8
LC-002-002-RND-0
  6
CONTINUOUS
 62
             7
100
AcDbCircle
 10
244.09890599999989
 20
-88.04743546495001
 40
0.5
100
AcDbArc
 50
180.0
 51
-90.0
  0
ARC
  5
185
100
AcDbEntity
  8
LC-002-002-RND-0
  6
CONTINUOUS
 62
             7
100
AcDbCircle
 10
244.09890599999989
 20
40.45256453505004
 40
0.5
100
AcDbArc
 50
90.0
 51
180.0
  0
ARC
  5
184
100
AcDbEntity
  8
LC-002-002-RND-0
  6
CONTINUOUS
 62
             7
100
AcDbCircle
 10
247.7989059999999
 20
-89.28295046494998
 40
0.5
100
AcDbArc
 50
180.0
 51
-90.0
  0
ARC
  5
183
100
AcDbEntity
  8
LC-002-002-RND-0
  6
CONTINUOUS
 62
             7
100
AcDbCircle
 10
247.7989059999999
 20
-72.28295046494998
 40
0.5
100
AcDbArc
 50
90.0
 51
180.0
  0
ARC
  5
182
100
AcDbEntity
  8
LC-002-002-RND-0
  6
CONTINUOUS
 62
             7
100
AcDbCircle
 10
249.4895019999999
 20
-71.28295046494998
 40
0.5
100
AcDbArc
 50
-90.0
 51
0.0
  0
ARC
  5
181
100
AcDbEntity
  8
LC-002-002-RND-0
  6
CONTINUOUS
 62
             7
100
AcDbCircle
 10
254.4895019999999
 20
9.02071553505004
 40
0.5
100
AcDbArc
 50
-90.0
 51
0.0
  0
ARC
  5
180
100
AcDbEntity
  8
LC-002-002-RND-0
  6
CONTINUOUS
 62
             7
100
AcDbCircle
 10
247.7989059999999
 20
39.71976553505004
 40
0.5
100
AcDbArc
 50
180.0
 51
-90.0
  0
ARC
  5
17F
100
AcDbEntity
  8
LC-002-002-RND-0
  6
CONTINUOUS
 62
             7
100
AcDbCircle
 10
249.4895019999999
 20
38.71976553505004
 40
0.5
100
AcDbArc
 50
0.0
 51
90.0
  0
ARC
  5
17E
100
AcDbEntity
  8
LC-002-002-RND-0
  6
CONTINUOUS
 62
             7
100
AcDbCircle
 10
254.4895019999999
 20
56.71976553505004
 40
0.5
100
AcDbArc
 50
0.0
 51
90.0
  0
ARC
  5
17D
100
AcDbEntity
  8
LC-002-002-RND-0
  6
CONTINUOUS
 62
             7
100
AcDbCircle
 10
247.7989059999999
 20
56.71976553505004
 40
0.5
100
AcDbArc
 50
90.0
 51
180.0
  0
ARC
  5
17C
100
AcDbEntity
  8
LC-002-002-RND-0
  6
CONTINUOUS
 62
             7
100
AcDbCircle
 10
285.32970199999988
 20
-98.03291846494994
 40
0.5
100
AcDbArc
 50
-90.0
 51
0.0
  0
ARC
  5
17B
100
AcDbEntity
  8
LC-001-002-----0
  6
CONTINUOUS
 62
             7
100
AcDbCircle
 10
299.18498199999988
 20
137.0766315350501
 40
24.3575989999996
100
AcDbArc
 50
-110.25759100000114
 51
-66.86761100000103
  0
ARC
  5
17A
100
AcDbEntity
  8
LC-002-002-RND-0
  6
CONTINUOUS
 62
             7
100
AcDbCircle
 10
260.29875399999992
 20
-93.53291846494994
 40
5.00000000000015
100
AcDbArc
 50
-179.00558100000103
 51
-90.0
  0
ARC
  5
179
100
AcDbEntity
  8
LC-002-002-RND-0
  6
CONTINUOUS
 62
             7
100
AcDbCircle
 10
89.10163099999991
 20
97.21217353505006
 40
0.5
100
AcDbArc
 50
180.0
 51
-90.0
  0
ARC
  5
178
100
AcDbEntity
  8
LC-002-002-RND-0
  6
CONTINUOUS
 62
             7
100
AcDbCircle
 10
216.10163099999991
 20
104.2121735350501
 40
0.5
100
AcDbArc
 50
0.0
 51
90.0
  0
ARC
  5
177
100
AcDbEntity
  8
LC-002-002-RND-0
  6
CONTINUOUS
 62
             7
100
AcDbCircle
 10
197.10163099999991
 20
104.2121735350501
 40
0.5
100
AcDbArc
 50
90.0
 51
180.0
  0
ARC
  5
176
100
AcDbEntity
  8
LC-002-002-RND-0
  6
CONTINUOUS
 62
             7
100
AcDbCircle
 10
108.1016309999999
 20
104.2121735350501
 40
0.5
100
AcDbArc
 50
0.0
 51
90.0
  0
ARC
  5
175
100
AcDbEntity
  8
LC-002-002-RND-0
  6
CONTINUOUS
 62
             7
100
AcDbCircle
 10
89.10163099999991
 20
104.2121735350501
 40
0.5
100
AcDbArc
 50
90.0
 51
180.0
  0
ARC
  5
174
100
AcDbEntity
  8
LC-001-002-----0
  6
CONTINUOUS
 62
             7
100
AcDbCircle
 10
296.32874900000002
 20
198.47023953505001
 40
2.0
100
AcDbArc
 50
90.0
 51
180.0
  0
ARC
  5
173
100
AcDbEntity
  8
LC-001-002-----0
  6
CONTINUOUS
 62
             7
100
AcDbCircle
 10
310.32874900000002
 20
203.65667653505
 40
2.99999999999974
100
AcDbArc
 50
-85.00000000000087
 51
-11.59448800000185
  0
ARC
  5
172
100
AcDbEntity
  8
LC-001-002-----0
  6
CONTINUOUS
 62
             7
100
AcDbCircle
 10
308.82874900000002
 20
202.97023953505001
 40
0.5
100
AcDbArc
 50
-90.0
 51
0.0
  0
ARC
  5
171
100
AcDbEntity
  8
LC-001-002-----0
  6
CONTINUOUS
 62
             7
100
AcDbCircle
 10
296.32874900000002
 20
200.47023953505001
 40
2.0
100
AcDbArc
 50
90.0
 51
180.0
  0
ARC
  5
170
100
AcDbEntity
  8
LC-001-002-----0
  6
CONTINUOUS
 62
             7
100
AcDbCircle
 10
277.32343100000003
 20
137.07651653504999
 40
24.35759900000043
100
AcDbArc
 50
-113.13242600000039
 51
-69.74244699999959
  0
ARC
  5
16F
100
AcDbEntity
  8
LC-001-002-----0
  6
CONTINUOUS
 62
             7
100
AcDbCircle
 10
311.32874900000002
 20
206.47023953505001
 40
2.5
100
AcDbArc
 50
180.0
 51
-55.8366849999959
  0
ARC
  5
16E
100
AcDbEntity
  8
LC-001-002-----0
  6
CONTINUOUS
 62
             7
100
AcDbCircle
 10
288.25940100000003
 20
60.70647853505005
 40
61.75632799999969
100
AcDbArc
 50
71.28470100000006
 51
108.72565599999989
  0
ARC
  5
16D
100
AcDbEntity
  8
LC-001-002-----0
  6
CONTINUOUS
 62
             7
100
AcDbCircle
 10
306.32874900000002
 20
108.64285653505
 40
1.99999999999949
100
AcDbArc
 50
-94.99999999999291
 51
0.0
  0
ARC
  5
16C
100
AcDbEntity
  8
LC-001-002-----0
  6
CONTINUOUS
 62
             7
100
AcDbCircle
 10
311.32874900000002
 20
206.47023953505001
 40
2.49999999999967
100
AcDbArc
 50
-55.8366849999959
 51
180.0
  0
ARC
  5
16B
100
AcDbEntity
  8
LC-001-002-----0
  6
CONTINUOUS
 62
             7
100
AcDbCircle
 10
311.32874900000002
 20
206.47023953505001
 40
4.00000000000003
100
AcDbArc
 50
-56.43861999999598
 51
85.90395600000439
  0
ARC
  5
16A
100
AcDbEntity
  8
LC-001-002-----0
  6
CONTINUOUS
 62
             7
100
AcDbCircle
 10
306.82874900000002
 20
204.97023953505001
 40
2.0
100
AcDbArc
 50
-90.0
 51
0.0
  0
ARC
  5
169
100
AcDbEntity
  8
LC-001-002-----0
  6
CONTINUOUS
 62
             7
100
AcDbCircle
 10
295.82874900000002
 20
200.97023953505001
 40
2.0
100
AcDbArc
 50
90.0
 51
180.0
  0
ARC
  5
168
100
AcDbEntity
  8
LC-001-002-----0
  6
CONTINUOUS
 62
             7
100
AcDbCircle
 10
291.82874900000002
 20
185.97023953505001
 40
2.0
100
AcDbArc
 50
-90.0
 51
0.0
  0
ARC
  5
167
100
AcDbEntity
  8
LC-001-002-----0
  6
CONTINUOUS
 62
             7
100
AcDbCircle
 10
285.82874900000002
 20
185.97023953505001
 40
2.0
100
AcDbArc
 50
180.0
 51
-90.0
  0
ARC
  5
166
100
AcDbEntity
  8
LC-001-002-----0
  6
CONTINUOUS
 62
             7
100
AcDbCircle
 10
285.82874900000002
 20
219.47023953505001
 40
2.0
100
AcDbArc
 50
90.0
 51
180.0
  0
ARC
  5
165
100
AcDbEntity
  8
LC-001-002-----0
  6
CONTINUOUS
 62
             7
100
AcDbCircle
 10
306.82874900000002
 20
219.47023953505001
 40
2.0
100
AcDbArc
 50
0.0
 51
90.0
  0
ARC
  5
164
100
AcDbEntity
  8
LC-001-002-----0
  6
CONTINUOUS
 62
             7
100
AcDbCircle
 10
313.26365399999992
 20
203.5537105350501
 40
0.50000000000007
100
AcDbArc
 50
-150.04420200005868
 51
-56.43862000001759
  0
ARC
  5
163
100
AcDbEntity
  8
LC-001-002-----0
  6
CONTINUOUS
 62
             7
100
AcDbCircle
 10
313.01341000000002
 20
203.98791853505
 40
0.50000000000031
100
AcDbArc
 50
124.16331500000484
 51
-150.04420200005868
  0
ARC
  5
162
100
AcDbEntity
  8
LC-001-002-----0
  6
CONTINUOUS
 62
             7
100
AcDbCircle
 10
311.82874900000002
 20
213.45235953505011
 40
3.0
100
AcDbArc
 50
180.0
 51
-94.09604399999232
  0
ARC
  5
161
100
AcDbEntity
  8
LC-001-002-----0
  6
CONTINUOUS
 62
             7
100
AcDbCircle
 10
385.3208489999999
 20
95.84643453505004
 40
24.35759899999957
100
AcDbArc
 50
69.74267600000032
 51
113.12581499999962
  0
ARC
  5
160
100
AcDbEntity
  8
LC-001-002-----0
  6
CONTINUOUS
 62
             7
100
AcDbCircle
 10
415.75403599999999
 20
114.66680953505011
 40
1.0
100
AcDbArc
 50
-69.99986699999123
 51
0.0
  0
ARC
  5
15F
100
AcDbEntity
  8
LC-002-002-RND-0
  6
CONTINUOUS
 62
             7
100
AcDbCircle
 10
246.7989059999999
 20
44.21967053505006
 40
0.5
100
AcDbArc
 50
-90.0
 51
0.0
  0
ARC
  5
15E
100
AcDbEntity
  8
LC-002-002-RND-0
  6
CONTINUOUS
 62
             7
100
AcDbCircle
 10
242.42203499999991
 20
57.71976553505004
 40
0.49999999999968
100
AcDbArc
 50
179.00335300003289
 51
-90.0
  0
ARC
  5
15D
100
AcDbEntity
  8
LC-002-002-RND-0
  6
CONTINUOUS
 62
             7
100
AcDbCircle
 10
245.10830899999991
 20
43.21967053505006
 40
0.5
100
AcDbArc
 50
90.0
 51
180.0
  0
ARC
  5
15C
100
AcDbEntity
  8
LC-002-002-RND-0
  6
CONTINUOUS
 62
             7
100
AcDbCircle
 10
246.7989059999999
 20
-89.28285546494999
 40
0.5
100
AcDbArc
 50
-90.0
 51
0.0
  0
ARC
  5
15B
100
AcDbEntity
  8
LC-002-002-RND-0
  6
CONTINUOUS
 62
             7
100
AcDbCircle
 10
240.10830899999991
 20
-89.28285546494999
 40
0.5
100
AcDbArc
 50
180.0
 51
-90.0
  0
ARC
  5
15A
100
AcDbEntity
  8
LC-002-002-RND-0
  6
CONTINUOUS
 62
             7
100
AcDbCircle
 10
240.10830899999991
 20
-32.41484046494998
 40
0.5
100
AcDbArc
 50
90.0
 51
180.0
  0
ARC
  5
159
100
AcDbEntity
  8
LC-002-002-RND-0
  6
CONTINUOUS
 62
             7
100
AcDbCircle
 10
216.10163099999991
 20
96.21217353505006
 40
0.5
100
AcDbArc
 50
0.0
 51
90.0
  0
ARC
  5
158
100
AcDbEntity
  8
LC-002-002-RND-0
  6
CONTINUOUS
 62
             7
100
AcDbCircle
 10
197.10163099999991
 20
96.21217353505006
 40
0.5
100
AcDbArc
 50
90.0
 51
180.0
  0
ARC
  5
157
100
AcDbEntity
  8
LC-002-002-RND-0
  6
CONTINUOUS
 62
             7
100
AcDbCircle
 10
108.1016309999999
 20
96.21217353505006
 40
0.5
100
AcDbArc
 50
0.0
 51
90.0
  0
ARC
  5
156
100
AcDbEntity
  8
LC-002-002-RND-0
  6
CONTINUOUS
 62
             7
100
AcDbCircle
 10
89.10163099999991
 20
96.21217353505006
 40
0.5
100
AcDbArc
 50
90.0
 51
180.0
  0
ARC
  5
155
100
AcDbEntity
  8
LC-002-002-RND-0
  6
CONTINUOUS
 62
             7
100
AcDbCircle
 10
197.10163099999991
 20
89.21217353505006
 40
0.5
100
AcDbArc
 50
180.0
 51
-90.0
  0
ARC
  5
154
100
AcDbEntity
  8
LC-002-002-RND-0
  6
CONTINUOUS
 62
             7
100
AcDbCircle
 10
216.10163099999991
 20
89.21217353505006
 40
0.5
100
AcDbArc
 50
-90.0
 51
0.0
  0
ARC
  5
153
100
AcDbEntity
  8
LC-002-002-RND-0
  6
CONTINUOUS
 62
             7
100
AcDbCircle
 10
89.10163099999991
 20
89.21217353505006
 40
0.5
100
AcDbArc
 50
180.0
 51
-90.0
  0
ARC
  5
152
100
AcDbEntity
  8
LC-002-002-RND-0
  6
CONTINUOUS
 62
             7
100
AcDbCircle
 10
108.1016309999999
 20
89.21217353505006
 40
0.5
100
AcDbArc
 50
-90.0
 51
0.0
  0
ARC
  5
151
100
AcDbEntity
  8
LC-001-002-----0
  6
CONTINUOUS
 62
             7
100
AcDbCircle
 10
376.75436500000001
 20
118.24676953505001
 40
1.00000000000037
100
AcDbArc
 50
108.72563699997875
 51
179.99996299998472
  0
ARC
  5
150
100
AcDbEntity
  8
LC-001-002-----0
  6
CONTINUOUS
 62
             7
100
AcDbCircle
 10
376.75436300000001
 20
114.66669953505
 40
1.00000000000021
100
AcDbArc
 50
179.99996299998961
 51
-110.00011399999129
  0
ARC
  5
14F
100
AcDbEntity
  8
LC-002-002-RND-0
  6
CONTINUOUS
 62
             7
100
AcDbCircle
 10
240.10830899999991
 20
7.91618053505005
 40
0.5
100
AcDbArc
 50
180.0
 51
-90.0
  0
ARC
  5
14E
100
AcDbEntity
  8
LC-002-002-RND-0
  6
CONTINUOUS
 62
             7
100
AcDbCircle
 10
246.7989059999999
 20
56.71976553505004
 40
0.5
100
AcDbArc
 50
0.0
 51
90.0
  0
ARC
  5
14D
100
AcDbEntity
  8
LC-002-002-RND-0
  6
CONTINUOUS
 62
             7
100
AcDbCircle
 10
240.10830899999991
 20
56.71976553505004
 40
0.5
100
AcDbArc
 50
90.0
 51
180.0
  0
ARC
  5
14C
100
AcDbEntity
  8
LC-002-002-RND-0
  6
CONTINUOUS
 62
             7
100
AcDbCircle
 10
95.68083899999991
 20
-83.28355146494994
 40
0.5
100
AcDbArc
 50
-90.0
 51
0.0
  0
ARC
  5
14B
100
AcDbEntity
  8
LC-002-002-RND-0
  6
CONTINUOUS
 62
             7
100
AcDbCircle
 10
96.68083899999991
 20
-79.28330746494999
 40
0.5
100
AcDbArc
 50
90.0
 51
180.0
  0
ARC
  5
14A
100
AcDbEntity
  8
LC-001-002-----0
  6
CONTINUOUS
 62
             7
100
AcDbCircle
 10
407.18753800000002
 20
95.84654953505003
 40
24.35759900000021
100
AcDbArc
 50
66.87414800000126
 51
110.2572870000009
  0
ARC
  5
149
100
AcDbEntity
  8
LC-003-100-D03-0
  6
CONTINUOUS
 62
             7
100
AcDbCircle
 10
8.47050100000001
 20
67.59921253505002
 40
4.97050099999971
100
AcDbArc
 50
92.99999500000136
 51
180.0
  0
ARC
  5
148
100
AcDbEntity
  8
LC-003-100-D03-0
  6
CONTINUOUS
 62
             7
100
AcDbCircle
 10
-0.50295
 20
66.54133753504999
 40
0.49705000000029
100
AcDbArc
 50
93.00000000004758
 51
180.0
  0
ARC
  5
147
100
AcDbEntity
  8
LC-001-002-----0
  6
CONTINUOUS
 62
             7
100
AcDbCircle
 10
415.75403599999999
 20
118.25029353505001
 40
1.0
100
AcDbArc
 50
0.0
 51
71.28469999999025
  0
ARC
  5
146
100
AcDbEntity
  8
LC-003-100-D03-0
  6
CONTINUOUS
 62
             7
100
AcDbCircle
 10
-0.50295
 20
-66.54844046494998
 40
0.49705
100
AcDbArc
 50
180.0
 51
-93.00000000004758
  0
ARC
  5
145
100
AcDbEntity
  8
LC-001-002-----0
  6
CONTINUOUS
 62
             7
100
AcDbCircle
 10
407.18498199999988
 20
137.0766315350501
 40
24.3575989999996
100
AcDbArc
 50
-110.25759100000114
 51
-66.86761100000103
  0
ARC
  5
144
100
AcDbEntity
  8
LC-002-002-RND-0
  6
CONTINUOUS
 62
             7
100
AcDbCircle
 10
246.25691299999991
 20
97.21217353505006
 40
0.5
100
AcDbArc
 50
-90.0
 51
0.0
  0
ARC
  5
143
100
AcDbEntity
  8
LC-002-002-RND-0
  6
CONTINUOUS
 62
             7
100
AcDbCircle
 10
243.75691299999991
 20
108.7121735350501
 40
3.0
100
AcDbArc
 50
0.0
 51
90.0
  0
ARC
  5
142
100
AcDbEntity
  8
LC-001-002-----0
  6
CONTINUOUS
 62
             7
100
AcDbCircle
 10
385.32343100000003
 20
137.07651653504999
 40
24.35759900000048
100
AcDbArc
 50
-113.13242600000063
 51
-69.74244699999959
  0
ARC
  5
141
100
AcDbEntity
  8
LC-001-002-----0
  6
CONTINUOUS
 62
             7
100
AcDbCircle
 10
195.66844399999991
 20
110.59580153505
 40
24.3575989999996
100
AcDbArc
 50
69.74267600000034
 51
113.12581499999979
  0
ARC
  5
140
100
AcDbEntity
  8
LC-001-002-----0
  6
CONTINUOUS
 62
             7
100
AcDbCircle
 10
226.10163099999991
 20
129.41617553505
 40
0.9999999999999
100
AcDbArc
 50
-69.9998669999908
 51
0.0
  0
ARC
  5
13F
100
AcDbEntity
  8
LC-001-002-----0
  6
CONTINUOUS
 62
             7
100
AcDbCircle
 10
187.1019609999999
 20
132.99613553505
 40
1.00000000000037
100
AcDbArc
 50
108.72563699997875
 51
179.99996299998389
  0
ARC
  5
13E
100
AcDbEntity
  8
LC-001-002-----0
  6
CONTINUOUS
 62
             7
100
AcDbCircle
 10
187.10195799999991
 20
129.41606553505011
 40
1.00000000000021
100
AcDbArc
 50
179.99996299999529
 51
-110.0001139999878
  0
ARC
  5
13D
100
AcDbEntity
  8
LC-001-002-----0
  6
CONTINUOUS
 62
             7
100
AcDbCircle
 10
396.25940100000003
 20
60.70647853505005
 40
61.75632799999969
100
AcDbArc
 50
71.28470100000006
 51
108.72565599999989
  0
ARC
  5
13C
100
AcDbEntity
  8
LC-001-002-----0
  6
CONTINUOUS
 62
             7
100
AcDbCircle
 10
217.535133
 20
110.59591653504999
 40
24.3575990000002
100
AcDbArc
 50
66.87414800000147
 51
110.2572870000006
  0
ARC
  5
13B
100
AcDbEntity
  8
LC-001-002-----0
  6
CONTINUOUS
 62
             7
100
AcDbCircle
 10
226.10163099999991
 20
132.99965953505
 40
1.0
100
AcDbArc
 50
0.0
 51
71.28469999999334
  0
ARC
  5
13A
100
AcDbEntity
  8
LC-001-002-----0
  6
CONTINUOUS
 62
             7
100
AcDbCircle
 10
217.53257799999989
 20
151.8259985350501
 40
24.35759899999972
100
AcDbArc
 50
-110.25759100000113
 51
-66.86761100000089
  0
ARC
  5
139
100
AcDbEntity
  8
LC-001-002-----0
  6
CONTINUOUS
 62
             7
100
AcDbCircle
 10
195.6710269999999
 20
151.82588253505
 40
24.35759900000045
100
AcDbArc
 50
-113.13242600000031
 51
-69.74244699999935
  0
ARC
  5
138
100
AcDbEntity
  8
LC-001-002-----0
  6
CONTINUOUS
 62
             7
100
AcDbCircle
 10
206.6069959999999
 20
75.45584453505006
 40
61.75632799999972
100
AcDbArc
 50
71.28470099999991
 51
108.72565599999977
  0
ARC
  5
137
100
AcDbEntity
  8
LC-001-002-----0
  6
CONTINUOUS
 62
             7
100
AcDbCircle
 10
87.66844399999994
 20
110.59580153505
 40
24.3575989999996
100
AcDbArc
 50
69.74267600000034
 51
113.12581499999985
  0
ARC
  5
136
100
AcDbEntity
  8
LC-001-002-----0
  6
CONTINUOUS
 62
             7
100
AcDbCircle
 10
118.1016309999999
 20
129.41617553505
 40
0.99999999999991
100
AcDbArc
 50
-69.99986699998927
 51
0.0
  0
ARC
  5
135
100
AcDbEntity
  8
LC-001-002-----0
  6
CONTINUOUS
 62
             7
100
AcDbCircle
 10
79.10196099999993
 20
132.99613553505
 40
1.00000000000037
100
AcDbArc
 50
108.72563699997875
 51
179.99996299998389
  0
ARC
  5
134
100
AcDbEntity
  8
LC-001-002-----0
  6
CONTINUOUS
 62
             7
100
AcDbCircle
 10
79.10195799999994
 20
129.41606553505011
 40
1.00000000000021
100
AcDbArc
 50
179.99996299999529
 51
-110.00011399998934
  0
ARC
  5
133
100
AcDbEntity
  8
LC-001-002-----0
  6
CONTINUOUS
 62
             7
100
AcDbCircle
 10
109.535133
 20
110.59591653504999
 40
24.3575990000002
100
AcDbArc
 50
66.87414800000143
 51
110.2572870000006
  0
ARC
  5
132
100
AcDbEntity
  8
LC-001-002-----0
  6
CONTINUOUS
 62
             7
100
AcDbCircle
 10
118.1016309999999
 20
132.99965953505
 40
1.0
100
AcDbArc
 50
0.0
 51
71.28469999999257
  0
ARC
  5
131
100
AcDbEntity
  8
LC-002-002-RND-0
  6
CONTINUOUS
 62
             7
100
AcDbCircle
 10
61.23490300000005
 20
108.7121735350501
 40
3.0
100
AcDbArc
 50
90.0
 51
180.0
  0
ARC
  5
130
100
AcDbEntity
  8
LC-002-002-RND-0
  6
CONTINUOUS
 62
             7
100
AcDbCircle
 10
58.73490300000005
 20
97.21217353505006
 40
0.50000000000001
100
AcDbArc
 50
180.0
 51
-90.0
  0
ARC
  5
12F
100
AcDbEntity
  8
LC-003-100-D03-0
  6
CONTINUOUS
 62
             7
100
AcDbCircle
 10
8.47050100000001
 20
-67.60631446494995
 40
4.97050100000001
100
AcDbArc
 50
180.0
 51
-92.99999500000129
  0
ARC
  5
12E
100
AcDbEntity
  8
LC-002-002-RND-0
  6
CONTINUOUS
 62
             7
100
AcDbCircle
 10
70.66353599999994
 20
-78.78355146494994
 40
5.00000000000006
100
AcDbArc
 50
-179.00000000000477
 51
-90.0
  0
ARC
  5
12D
100
AcDbEntity
  8
LC-001-002-----0
  6
CONTINUOUS
 62
             7
100
AcDbCircle
 10
109.5325779999999
 20
151.8259985350501
 40
24.35759899999972
100
AcDbArc
 50
-110.25759100000114
 51
-66.86761100000095
  0
ARC
  5
12C
100
AcDbEntity
  8
LC-001-002-----0
  6
CONTINUOUS
 62
             7
100
AcDbCircle
 10
87.6710269999999
 20
151.82588253505
 40
24.35759900000044
100
AcDbArc
 50
-113.13242600000024
 51
-69.74244699999935
  0
ARC
  5
12B
100
AcDbEntity
  8
LC-001-002-----0
  6
CONTINUOUS
 62
             7
100
AcDbCircle
 10
98.6069959999999
 20
75.45584453505006
 40
61.75632799999972
100
AcDbArc
 50
71.28470099999991
 51
108.72565599999974
  0
LINE
  5
12A
100
AcDbEntity
  8
1
  6
DOT_CENTER
 62
             2
100
AcDbLine
 10
-7.0
 20
-62.49999999571014
 11
-4.0
 21
-62.49999999571014
  0
LINE
  5
129
100
AcDbEntity
  8
1
  6
DOT_CENTER
 62
             2
100
AcDbLine
 10
-7.0
 20
62.50000000428986
 11
-4.0
 21
62.50000000428986
  0
LINE
  5
128
100
AcDbEntity
  8
1
  6
PHANTOM
 62
             2
100
AcDbLine
 10
288.25418453527448
 20
68.53839756874561
 11
288.2542031033006
 21
125.67078477975279
  0
LINE
  5
127
100
AcDbEntity
  8
1
  6
PHANTOM
 62
             2
100
AcDbLine
 10
396.25418505717039
 20
70.14023674788638
 11
396.25420301782952
 21
125.40380291035579
  0
LINE
  5
126
100
AcDbEntity
  8
1
  6
PHANTOM
 62
             2
100
AcDbLine
 10
206.60177994512179
 20
84.55682013498785
 11
206.60179781901559
 21
139.55341601434711
  0
LINE
  5
125
100
AcDbEntity
  8
1
  6
PHANTOM
 62
             2
100
AcDbLine
 10
98.60177968482307
 20
83.75590091565584
 11
98.60179799254883
 21
140.08736469619521
  0
LINE
  5
124
100
AcDbEntity
  8
1
  6
PHANTOM
 62
             2
100
AcDbLine
 10
423.49850684392209
 20
-31.00328991553108
 11
510.71685579217092
 21
-31.00352841994594
  0
LINE
  5
123
100
AcDbEntity
  8
1
  6
PHANTOM
 62
             2
100
AcDbLine
 10
72.21960260592475
 20
-0.00000005163588
 11
-6.69868475483675
 21
0.0000000047894
  0
LINE
  5
122
100
AcDbEntity
  8
LC-001-002-----0
  6
CONTINUOUS
 62
             7
100
AcDbLine
 10
308.32874900000002
 20
113.8484545350501
 11
308.32874900000002
 21
108.64285653505
  0
LINE
  5
121
100
AcDbEntity
  8
LC-001-002-----0
  6
CONTINUOUS
 62
             7
100
AcDbLine
 10
405.75403599999999
 20
96.96280653505005
 11
433.16525399999978
 21
96.96280653505005
  0
LINE
  5
120
100
AcDbEntity
  8
LC-001-002-----0
  6
CONTINUOUS
 62
             7
100
AcDbLine
 10
297.75403599999993
 20
96.96280653505005
 11
386.75435099999999
 21
96.96280653505005
  0
LINE
  5
11F
100
AcDbEntity
  8
LC-001-002-----0
  6
CONTINUOUS
 62
             7
100
AcDbLine
 10
216.10163099999991
 20
111.7121735350501
 11
243.68691299999989
 21
111.7121735350501
  0
LINE
  5
11E
100
AcDbEntity
  8
LC-001-002-----0
  6
CONTINUOUS
 62
             7
100
AcDbLine
 10
108.1016309999999
 20
111.7121735350501
 11
197.10194699999991
 21
111.7121735350501
  0
LINE
  5
11D
100
AcDbEntity
  8
LC-001-002-----0
  6
CONTINUOUS
 62
             7
100
AcDbLine
 10
239.60830899999991
 20
-89.28295046494998
 11
237.60830899999991
 21
-89.28295046494998
  0
LINE
  5
11C
100
AcDbEntity
  8
LC-001-002-----0
  6
CONTINUOUS
 62
             7
100
AcDbLine
 10
239.60830899999991
 20
-72.28295046494998
 11
237.60830899999991
 21
-72.28295046494998
  0
LINE
  5
11B
100
AcDbEntity
  8
LC-001-002-----0
  6
CONTINUOUS
 62
             7
100
AcDbLine
 10
236.65552199999991
 20
-85.69042746494995
 11
231.56110399999989
 21
-85.69042746494995
  0
LINE
  5
11A
100
AcDbEntity
  8
LC-001-002-----0
  6
CONTINUOUS
 62
             7
100
AcDbLine
 10
236.65552199999991
 20
-75.87547346494989
 11
231.56110399999989
 21
-75.87547346494989
  0
LINE
  5
119
100
AcDbEntity
  8
LC-001-002-----0
  6
CONTINUOUS
 62
             7
100
AcDbLine
 10
231.56110399999989
 20
-90.59790546494992
 11
236.6555139999999
 21
-90.59790546494992
  0
LINE
  5
118
100
AcDbEntity
  8
LC-001-002-----0
  6
CONTINUOUS
 62
             7
100
AcDbLine
 10
231.5611109999999
 20
-70.96799546495004
 11
236.6555139999999
 21
-70.96799546495004
  0
LINE
  5
117
100
AcDbEntity
  8
LC-001-002-----0
  6
CONTINUOUS
 62
             7
100
AcDbLine
 10
237.60830899999991
 20
-88.14418746494994
 11
237.60830899999991
 21
-73.42173446494996
  0
LINE
  5
116
100
AcDbEntity
  8
LC-001-002-----0
  6
CONTINUOUS
 62
             7
100
AcDbLine
 10
230.60830899999991
 20
-88.14426046494998
 11
230.60830899999991
 21
-73.42179546495004
  0
LINE
  5
115
100
AcDbEntity
  8
LC-001-002-----0
  6
CONTINUOUS
 62
             7
100
AcDbLine
 10
230.60830899999991
 20
-84.78295046494998
 11
225.9895019999999
 21
-84.78295046494998
  0
LINE
  5
114
100
AcDbEntity
  8
LC-001-002-----0
  6
CONTINUOUS
 62
             7
100
AcDbLine
 10
261.03671600000001
 20
-85.69042746494995
 11
254.9895019999999
 21
-85.69042746494995
  0
LINE
  5
113
100
AcDbEntity
  8
LC-001-002-----0
  6
CONTINUOUS
 62
             7
100
AcDbLine
 10
261.03671600000001
 20
-75.87547346494989
 11
254.9895019999999
 21
-75.87547346494989
  0
LINE
  5
112
100
AcDbEntity
  8
LC-001-002-----0
  6
CONTINUOUS
 62
             7
100
AcDbLine
 10
254.9895019999999
 20
-90.59790546494992
 11
261.03670699999992
 21
-90.59790546494992
  0
LINE
  5
111
100
AcDbEntity
  8
LC-001-002-----0
  6
CONTINUOUS
 62
             7
100
AcDbLine
 10
254.9895019999999
 20
-70.96799546495004
 11
261.03670699999992
 21
-70.96799546495004
  0
LINE
  5
110
100
AcDbEntity
  8
LC-001-002-----0
  6
CONTINUOUS
 62
             7
100
AcDbLine
 10
261.9895019999999
 20
-88.14418746494994
 11
261.9895019999999
 21
-73.42173446494996
  0
LINE
  5
10F
100
AcDbEntity
  8
LC-001-002-----0
  6
CONTINUOUS
 62
             7
100
AcDbLine
 10
254.9895019999999
 20
-90.59790546494992
 11
254.9895019999999
 21
-70.96799546495004
  0
LINE
  5
10E
100
AcDbEntity
  8
LC-001-002-----0
  6
CONTINUOUS
 62
             7
100
AcDbLine
 10
225.9895019999999
 20
-76.78295046494998
 11
225.9895019999999
 21
-84.78295046494998
  0
LINE
  5
10D
100
AcDbEntity
  8
LC-001-002-----0
  6
CONTINUOUS
 62
             7
100
AcDbLine
 10
225.9895019999999
 20
-84.78295046494998
 11
224.9895019999999
 21
-83.78295046494998
  0
LINE
  5
10C
100
AcDbEntity
  8
LC-001-002-----0
  6
CONTINUOUS
 62
             7
100
AcDbLine
 10
225.9895019999999
 20
-76.78295046494998
 11
224.9895019999999
 21
-77.78295046494998
  0
LINE
  5
10B
100
AcDbEntity
  8
LC-001-002-----0
  6
CONTINUOUS
 62
             7
100
AcDbLine
 10
224.9895019999999
 20
-83.78295046494998
 11
224.9895019999999
 21
-77.78295046494998
  0
LINE
  5
10A
100
AcDbEntity
  8
LC-001-002-----0
  6
CONTINUOUS
 62
             7
100
AcDbLine
 10
230.60830899999991
 20
-76.78295046494998
 11
225.9895019999999
 21
-76.78295046494998
  0
LINE
  5
109
100
AcDbEntity
  8
LC-004-003-----0
  6
CONTINUOUS
 62
             2
100
AcDbLine
 10
224.9895019999999
 20
-83.78295046494998
 11
230.60830899999991
 21
-83.78295046494998
  0
LINE
  5
108
100
AcDbEntity
  8
LC-001-002-----0
  6
CONTINUOUS
 62
             7
100
AcDbLine
 10
230.60830899999991
 20
52.21976553505004
 11
225.9895019999999
 21
52.21976553505004
  0
LINE
  5
107
100
AcDbEntity
  8
LC-004-003-----0
  6
CONTINUOUS
 62
             2
100
AcDbLine
 10
224.9895019999999
 20
-77.78295046494998
 11
230.60830899999991
 21
-77.78295046494998
  0
LINE
  5
106
100
AcDbEntity
  8
LC-001-002-----0
  6
CONTINUOUS
 62
             7
100
AcDbLine
 10
261.03671600000001
 20
43.31228853505002
 11
254.9895019999999
 21
43.31228853505002
  0
LINE
  5
105
100
AcDbEntity
  8
LC-001-002-----0
  6
CONTINUOUS
 62
             7
100
AcDbLine
 10
261.03671600000001
 20
53.12724353505001
 11
254.9895019999999
 21
53.12724353505001
  0
LINE
  5
104
100
AcDbEntity
  8
LC-001-002-----0
  6
CONTINUOUS
 62
             7
100
AcDbLine
 10
236.65552199999991
 20
43.31228853505002
 11
231.56110399999989
 21
43.31228853505002
  0
LINE
  5
103
100
AcDbEntity
  8
LC-001-002-----0
  6
CONTINUOUS
 62
             7
100
AcDbLine
 10
236.65552199999991
 20
53.12724353505001
 11
231.56110399999989
 21
53.12724353505001
  0
LINE
  5
102
100
AcDbEntity
  8
LC-001-002-----0
  6
CONTINUOUS
 62
             7
100
AcDbLine
 10
231.56110399999989
 20
38.40481153505004
 11
236.6555139999999
 21
38.40481153505004
  0
LINE
  5
101
100
AcDbEntity
  8
LC-001-002-----0
  6
CONTINUOUS
 62
             7
100
AcDbLine
 10
231.5611109999999
 20
58.03472053505004
 11
236.6555139999999
 21
58.03472053505004
  0
LINE
  5
100
100
AcDbEntity
  8
LC-001-002-----0
  6
CONTINUOUS
 62
             7
100
AcDbLine
 10
237.60830899999991
 20
40.85852853505003
 11
237.60830899999991
 21
55.58098153505006
  0
LINE
  5
FF
100
AcDbEntity
  8
LC-001-002-----0
  6
CONTINUOUS
 62
             7
100
AcDbLine
 10
230.60830899999991
 20
40.85845553505004
 11
230.60830899999991
 21
55.58092053505004
  0
LINE
  5
FE
100
AcDbEntity
  8
LC-001-002-----0
  6
CONTINUOUS
 62
             7
100
AcDbLine
 10
254.9895019999999
 20
38.40481153505004
 11
261.03670699999992
 21
38.40481153505004
  0
LINE
  5
FD
100
AcDbEntity
  8
LC-001-002-----0
  6
CONTINUOUS
 62
             7
100
AcDbLine
 10
254.9895019999999
 20
58.03472053505004
 11
261.03670699999992
 21
58.03472053505004
  0
LINE
  5
FC
100
AcDbEntity
  8
LC-001-002-----0
  6
CONTINUOUS
 62
             7
100
AcDbLine
 10
261.9895019999999
 20
40.85852853505003
 11
261.9895019999999
 21
55.58098153505006
  0
LINE
  5
FB
100
AcDbEntity
  8
LC-001-002-----0
  6
CONTINUOUS
 62
             7
100
AcDbLine
 10
254.9895019999999
 20
38.40481153505004
 11
254.9895019999999
 21
58.03472053505004
  0
LINE
  5
FA
100
AcDbEntity
  8
LC-001-002-----0
  6
CONTINUOUS
 62
             7
100
AcDbLine
 10
225.9895019999999
 20
52.21976553505004
 11
225.9895019999999
 21
44.21976553505004
  0
LINE
  5
F9
100
AcDbEntity
  8
LC-001-002-----0
  6
CONTINUOUS
 62
             7
100
AcDbLine
 10
225.9895019999999
 20
44.21976553505004
 11
224.9895019999999
 21
45.21976553505004
  0
LINE
  5
F8
100
AcDbEntity
  8
LC-001-002-----0
  6
CONTINUOUS
 62
             7
100
AcDbLine
 10
225.9895019999999
 20
52.21976553505004
 11
224.9895019999999
 21
51.21976553505004
  0
LINE
  5
F7
100
AcDbEntity
  8
LC-001-002-----0
  6
CONTINUOUS
 62
             7
100
AcDbLine
 10
224.9895019999999
 20
45.21976553505004
 11
224.9895019999999
 21
51.21976553505004
  0
LINE
  5
F6
100
AcDbEntity
  8
LC-004-003-----0
  6
CONTINUOUS
 62
             2
100
AcDbLine
 10
224.9895019999999
 20
51.21976553505004
 11
230.60830899999991
 21
51.21976553505004
  0
LINE
  5
F5
100
AcDbEntity
  8
LC-004-003-----0
  6
CONTINUOUS
 62
             2
100
AcDbLine
 10
224.9895019999999
 20
45.21976553505004
 11
230.60830899999991
 21
45.21976553505004
  0
LINE
  5
F4
100
AcDbEntity
  8
LC-001-002-----0
  6
CONTINUOUS
 62
             7
100
AcDbLine
 10
239.60830899999991
 20
39.71976553505004
 11
237.60830899999991
 21
39.71976553505004
  0
LINE
  5
F3
100
AcDbEntity
  8
LC-001-002-----0
  6
CONTINUOUS
 62
             7
100
AcDbLine
 10
386.25403599999999
 20
82.46280653505005
 11
386.25403599999999
 21
89.46280653505005
  0
LINE
  5
F2
100
AcDbEntity
  8
LC-001-002-----0
  6
CONTINUOUS
 62
             7
100
AcDbLine
 10
406.25403599999999
 20
82.46280653505005
 11
406.25403599999999
 21
89.46280653505005
  0
LINE
  5
F1
100
AcDbEntity
  8
LC-001-002-----0
  6
CONTINUOUS
 62
             7
100
AcDbLine
 10
278.25403599999993
 20
82.46280653505005
 11
278.25403599999993
 21
89.46280653505005
  0
LINE
  5
F0
100
AcDbEntity
  8
LC-001-002-----0
  6
CONTINUOUS
 62
             7
100
AcDbLine
 10
298.25403599999993
 20
82.46280653505005
 11
298.25403599999993
 21
89.46280653505005
  0
LINE
  5
EF
100
AcDbEntity
  8
LC-001-002-----0
  6
CONTINUOUS
 62
             7
100
AcDbLine
 10
386.75403599999999
 20
89.96280653505005
 11
405.75403599999999
 21
89.96280653505005
  0
LINE
  5
EE
100
AcDbEntity
  8
LC-001-002-----0
  6
CONTINUOUS
 62
             7
100
AcDbLine
 10
278.75403599999993
 20
89.96280653505005
 11
297.75403599999993
 21
89.96280653505005
  0
LINE
  5
ED
100
AcDbEntity
  8
LC-001-002-----0
  6
CONTINUOUS
 62
             7
100
AcDbLine
 10
436.23525399999971
 20
93.96280653505005
 11
436.23525399999971
 21
82.46280653505005
  0
LINE
  5
EC
100
AcDbEntity
  8
LC-001-002-----0
  6
CONTINUOUS
 62
             7
100
AcDbLine
 10
248.0987539999999
 20
93.96280653505005
 11
248.0987539999999
 21
82.46280653505005
  0
LINE
  5
EB
100
AcDbEntity
  8
LC-001-002-----0
  6
CONTINUOUS
 62
             7
100
AcDbLine
 10
251.0987539999999
 20
96.96280653505005
 11
278.75435099999987
 21
96.96280653505005
  0
LINE
  5
EA
100
AcDbEntity
  8
LC-001-002-----0
  6
CONTINUOUS
 62
             7
100
AcDbLine
 10
311.32874900000002
 20
103.46280653505011
 11
311.32874900000002
 21
97.96280653505005
  0
LINE
  5
E9
100
AcDbEntity
  8
LC-001-002-----0
  6
CONTINUOUS
 62
             7
100
AcDbLine
 10
310.82874900000002
 20
103.96280653505011
 11
310.22874899999988
 21
103.96280653505011
  0
LINE
  5
E8
100
AcDbEntity
  8
LC-001-002-----0
  6
CONTINUOUS
 62
             7
100
AcDbLine
 10
297.75403599999993
 20
103.96280653505011
 11
310.22874899999988
 21
103.96280653505011
  0
LINE
  5
E7
100
AcDbEntity
  8
LC-001-002-----0
  6
CONTINUOUS
 62
             7
100
AcDbLine
 10
248.5987539999999
 20
81.96280653505005
 11
435.73525399999971
 21
81.96280653505005
  0
LINE
  5
E6
100
AcDbEntity
  8
LC-001-002-----0
  6
CONTINUOUS
 62
             7
100
AcDbLine
 10
278.75434699999988
 20
89.96281353505003
 11
278.75436000000002
 21
109.96281353505
  0
LINE
  5
E5
100
AcDbEntity
  8
LC-001-002-----0
  6
CONTINUOUS
 62
             7
100
AcDbLine
 10
308.75403599999999
 20
114.66680953505011
 11
308.75403599999999
 21
118.25029353505001
  0
LINE
  5
E4
100
AcDbEntity
  8
LC-001-002-----0
  6
CONTINUOUS
 62
             7
100
AcDbLine
 10
278.75436000000002
 20
89.96281353505003
 11
297.75403599999993
 21
89.96280053505001
  0
LINE
  5
E3
100
AcDbEntity
  8
LC-001-002-----0
  6
CONTINUOUS
 62
             7
100
AcDbLine
 10
297.75403599999993
 20
89.96280053505001
 11
297.75403599999993
 21
109.96292953504999
  0
LINE
  5
E2
100
AcDbEntity
  8
LC-001-002-----0
  6
CONTINUOUS
 62
             7
100
AcDbLine
 10
278.75436000000002
 20
109.96281353505
 11
288.25436000000002
 21
109.96280653505011
  0
LINE
  5
E1
100
AcDbEntity
  8
LC-001-002-----0
  6
CONTINUOUS
 62
             7
100
AcDbLine
 10
278.75436000000002
 20
109.96281353505
 11
268.41234200000002
 21
113.72700753505011
  0
LINE
  5
E0
100
AcDbEntity
  8
LC-001-002-----0
  6
CONTINUOUS
 62
             7
100
AcDbLine
 10
297.75403599999993
 20
109.96292953504999
 11
288.25403599999993
 21
109.96292953504999
  0
LINE
  5
DF
100
AcDbEntity
  8
LC-001-002-----0
  6
CONTINUOUS
 62
             7
100
AcDbLine
 10
247.7989059999999
 20
-79.99864346494996
 11
249.4895019999999
 21
-79.99864346494996
  0
LINE
  5
DE
100
AcDbEntity
  8
LC-001-002-----0
  6
CONTINUOUS
 62
             7
100
AcDbLine
 10
247.7989059999999
 20
43.71967053505006
 11
249.4895019999999
 21
43.71967053505006
  0
LINE
  5
DD
100
AcDbEntity
  8
LC-001-002-----0
  6
CONTINUOUS
 62
             7
100
AcDbLine
 10
297.75403599999993
 20
109.96292953504999
 11
308.09605599999992
 21
113.72711653505
  0
LINE
  5
DC
100
AcDbEntity
  8
LC-001-002-----0
  6
CONTINUOUS
 62
             7
100
AcDbLine
 10
290.75436300000001
 20
114.22699253505
 11
290.75436500000001
 21
118.6974365350501
  0
LINE
  5
DB
100
AcDbEntity
  8
LC-001-002-----0
  6
CONTINUOUS
 62
             7
100
AcDbLine
 10
254.7402129999999
 20
-89.78295046494998
 11
247.7989059999999
 21
-89.78295046494998
  0
LINE
  5
DA
100
AcDbEntity
  8
LC-001-002-----0
  6
CONTINUOUS
 62
             7
100
AcDbLine
 10
247.2989059999999
 20
-72.28295046494998
 11
247.2989059999999
 21
-89.28295046494998
  0
LINE
  5
D9
100
AcDbEntity
  8
LC-001-002-----0
  6
CONTINUOUS
 62
             7
100
AcDbLine
 10
243.59890599999989
 20
-88.04743546495001
 11
243.59890599999989
 21
40.45256453505004
  0
LINE
  5
D8
100
AcDbEntity
  8
LC-001-002-----0
  6
CONTINUOUS
 62
             7
100
AcDbLine
 10
247.2989059999999
 20
-88.54743546495001
 11
244.09890599999989
 21
-88.54743546495001
  0
LINE
  5
D7
100
AcDbEntity
  8
LC-001-002-----0
  6
CONTINUOUS
 62
             7
100
AcDbLine
 10
247.2989059999999
 20
40.95256453505004
 11
244.09890599999989
 21
40.95256453505004
  0
LINE
  5
D6
100
AcDbEntity
  8
LC-001-002-----0
  6
CONTINUOUS
 62
             7
100
AcDbLine
 10
247.7989059999999
 20
-71.78295046494998
 11
249.4895019999999
 21
-71.78295046494998
  0
LINE
  5
D5
100
AcDbEntity
  8
LC-001-002-----0
  6
CONTINUOUS
 62
             7
100
AcDbLine
 10
249.9895019999999
 20
8.52071553505004
 11
254.4895019999999
 21
8.52071553505004
  0
LINE
  5
D4
100
AcDbEntity
  8
LC-001-002-----0
  6
CONTINUOUS
 62
             7
100
AcDbLine
 10
247.7989059999999
 20
57.21976553505004
 11
254.4895019999999
 21
57.21976553505004
  0
LINE
  5
D3
100
AcDbEntity
  8
LC-001-002-----0
  6
CONTINUOUS
 62
             7
100
AcDbLine
 10
254.9895019999999
 20
9.02071553505004
 11
254.9895019999999
 21
56.71976553505004
  0
LINE
  5
D2
100
AcDbEntity
  8
LC-001-002-----0
  6
CONTINUOUS
 62
             7
100
AcDbLine
 10
249.9895019999999
 20
-79.49864346494996
 11
249.9895019999999
 21
43.37957553505004
  0
LINE
  5
D1
100
AcDbEntity
  8
LC-001-002-----0
  6
CONTINUOUS
 62
             7
100
AcDbLine
 10
254.4895019999999
 20
-48.11096246495004
 11
249.9895019999999
 21
-48.11096246495004
  0
LINE
  5
D0
100
AcDbEntity
  8
LC-001-002-----0
  6
CONTINUOUS
 62
             7
100
AcDbLine
 10
254.9895019999999
 20
-89.84952846495003
 11
254.9895019999999
 21
-48.61096246495004
  0
LINE
  5
CF
100
AcDbEntity
  8
LC-001-002-----0
  6
CONTINUOUS
 62
             7
100
AcDbLine
 10
239.60830899999991
 20
56.71976553505004
 11
237.60830899999991
 21
56.71976553505004
  0
LINE
  5
CE
100
AcDbEntity
  8
LC-001-002-----0
  6
CONTINUOUS
 62
             7
100
AcDbLine
 10
255.29950799999989
 20
-93.61969346494993
 11
255.2401339999999
 21
-90.27407846494998
  0
LINE
  5
CD
100
AcDbEntity
  8
LC-001-002-----0
  6
CONTINUOUS
 62
             7
100
AcDbLine
 10
429.19615099999987
 20
-93.53225046495004
 11
431.109759
 21
1.46718753505002
  0
LINE
  5
CC
100
AcDbEntity
  8
LC-001-002-----0
  6
CONTINUOUS
 62
             7
100
AcDbLine
 10
285.82970199999988
 20
-15.66567846494991
 11
285.82970199999988
 21
-93.53267546494999
  0
LINE
  5
CB
100
AcDbEntity
  8
LC-001-002-----0
  6
CONTINUOUS
 62
             7
100
AcDbLine
 10
260.29875399999992
 20
-98.53291846494994
 11
285.32970199999988
 21
-98.53291846494994
  0
LINE
  5
CA
100
AcDbEntity
  8
LC-001-002-----0
  6
CONTINUOUS
 62
             7
100
AcDbLine
 10
290.75436500000001
 20
118.6974365350501
 11
285.75436500000001
 21
118.69743953505009
  0
LINE
  5
C9
100
AcDbEntity
  8
LC-001-002-----0
  6
CONTINUOUS
 62
             7
100
AcDbLine
 10
285.75436300000001
 20
114.22699553504999
 11
285.75436500000001
 21
118.69743953505009
  0
LINE
  5
C8
100
AcDbEntity
  8
LC-001-002-----0
  6
CONTINUOUS
 62
             7
100
AcDbLine
 10
290.75436300000001
 20
114.22699253505
 11
285.77470399999987
 21
114.22699553504999
  0
LINE
  5
C7
100
AcDbEntity
  8
LC-001-002-----0
  6
CONTINUOUS
 62
             7
100
AcDbLine
 10
285.82970199999988
 20
-93.53267546494999
 11
429.19615099999987
 21
-93.53225046495004
  0
LINE
  5
C6
100
AcDbEntity
  8
LC-001-002-----0
  6
CONTINUOUS
 62
             7
100
AcDbLine
 10
247.7989059999999
 20
39.21976553505004
 11
249.4895019999999
 21
39.21976553505004
  0
LINE
  5
C5
100
AcDbEntity
  8
LC-008-001-----0
  6
CONTINUOUS
 62
             7
100
AcDbLine
 10
429.36837100000002
 20
-93.50249746495001
 11
499.03205200000008
 21
-93.50287846494996
  0
LINE
  5
C4
100
AcDbEntity
  8
LC-003-100-D03-0
  6
CONTINUOUS
 62
             7
100
AcDbLine
 10
431.54221199999989
 20
31.49588553505004
 11
499.0334749999999
 21
31.49588553505004
  0
LINE
  5
C3
100
AcDbEntity
  8
LC-001-002-----0
  6
CONTINUOUS
 62
             7
100
AcDbLine
 10
397.750494
 20
49.83535553505004
 11
394.750494
 21
49.83535553505004
  0
LINE
  5
C2
100
AcDbEntity
  8
LC-001-002-----0
  6
CONTINUOUS
 62
             7
100
AcDbLine
 10
286.750494
 20
49.83535553505004
 11
289.750494
 21
49.83535553505004
  0
LINE
  5
C1
100
AcDbEntity
  8
LC-001-002-----0
  6
CONTINUOUS
 62
             7
100
AcDbLine
 10
394.750494
 20
73.96280653505005
 11
394.750494
 21
49.83535553505004
  0
LINE
  5
C0
100
AcDbEntity
  8
LC-001-002-----0
  6
CONTINUOUS
 62
             7
100
AcDbLine
 10
397.750494
 20
73.96280653505005
 11
397.750494
 21
49.83535553505004
  0
LINE
  5
BF
100
AcDbEntity
  8
LC-001-002-----0
  6
CONTINUOUS
 62
             7
100
AcDbLine
 10
289.750494
 20
73.96280653505005
 11
289.750494
 21
49.83535553505004
  0
LINE
  5
BE
100
AcDbEntity
  8
LC-001-002-----0
  6
CONTINUOUS
 62
             7
100
AcDbLine
 10
406.25403599999999
 20
74.46280653505005
 11
406.25403599999999
 21
81.46280653505005
  0
LINE
  5
BD
100
AcDbEntity
  8
LC-001-002-----0
  6
CONTINUOUS
 62
             7
100
AcDbLine
 10
386.25403599999999
 20
81.46280653505005
 11
386.25403599999999
 21
74.46280653505005
  0
LINE
  5
BC
100
AcDbEntity
  8
LC-001-002-----0
  6
CONTINUOUS
 62
             7
100
AcDbLine
 10
298.25403599999993
 20
74.46280653505005
 11
298.25403599999993
 21
81.46280653505005
  0
LINE
  5
BB
100
AcDbEntity
  8
LC-001-002-----0
  6
CONTINUOUS
 62
             7
100
AcDbLine
 10
278.25403599999993
 20
81.46280653505005
 11
278.25403599999993
 21
74.46280653505005
  0
LINE
  5
BA
100
AcDbEntity
  8
LC-001-002-----0
  6
CONTINUOUS
 62
             7
100
AcDbLine
 10
386.75403599999999
 20
73.96280653505005
 11
405.75403599999999
 21
73.96280653505005
  0
LINE
  5
B9
100
AcDbEntity
  8
LC-001-002-----0
  6
CONTINUOUS
 62
             7
100
AcDbLine
 10
278.75403599999993
 20
73.96280653505005
 11
297.75403599999993
 21
73.96280653505005
  0
LINE
  5
B8
100
AcDbEntity
  8
LC-001-002-----0
  6
CONTINUOUS
 62
             7
100
AcDbLine
 10
286.750494
 20
73.96280653505005
 11
286.750494
 21
49.83535553505004
  0
LINE
  5
B7
100
AcDbEntity
  8
LC-003-100-D03-0
  6
CONTINUOUS
 62
             7
100
AcDbLine
 10
499.03205200000008
 20
-93.50287846494996
 11
504.00397599999991
 21
-92.17065546494996
  0
LINE
  5
B6
100
AcDbEntity
  8
LC-001-002-----0
  6
CONTINUOUS
 62
             7
100
AcDbLine
 10
247.2989059999999
 20
39.71976553505004
 11
247.2989059999999
 21
56.71976553505004
  0
LINE
  5
B5
100
AcDbEntity
  8
LC-001-002-----0
  6
CONTINUOUS
 62
             7
100
AcDbLine
 10
196.60163099999991
 20
97.21217353505006
 11
196.60163099999991
 21
104.2121735350501
  0
LINE
  5
B4
100
AcDbEntity
  8
LC-001-002-----0
  6
CONTINUOUS
 62
             7
100
AcDbLine
 10
216.60163099999991
 20
97.21217353505006
 11
216.60163099999991
 21
104.2121735350501
  0
LINE
  5
B3
100
AcDbEntity
  8
LC-001-002-----0
  6
CONTINUOUS
 62
             7
100
AcDbLine
 10
88.60163099999991
 20
97.21217353505006
 11
88.60163099999991
 21
104.2121735350501
  0
LINE
  5
B2
100
AcDbEntity
  8
LC-001-002-----0
  6
CONTINUOUS
 62
             7
100
AcDbLine
 10
108.6016309999999
 20
97.21217353505006
 11
108.6016309999999
 21
104.2121735350501
  0
LINE
  5
B1
100
AcDbEntity
  8
LC-001-002-----0
  6
CONTINUOUS
 62
             7
100
AcDbLine
 10
197.10163099999991
 20
104.7121735350501
 11
216.10163099999991
 21
104.7121735350501
  0
LINE
  5
B0
100
AcDbEntity
  8
LC-001-002-----0
  6
CONTINUOUS
 62
             7
100
AcDbLine
 10
308.32874900000002
 20
200.47023953505001
 11
308.32874900000002
 21
119.19741853505001
  0
LINE
  5
AF
100
AcDbEntity
  8
LC-001-002-----0
  6
CONTINUOUS
 62
             7
100
AcDbLine
 10
309.32874900000002
 20
204.97023953505001
 11
309.32874900000002
 21
202.97023953505001
  0
LINE
  5
AE
100
AcDbEntity
  8
LC-001-002-----0
  6
CONTINUOUS
 62
             7
100
AcDbLine
 10
308.32874900000002
 20
200.47023953505001
 11
310.590216
 21
200.66809153505011
  0
LINE
  5
AD
100
AcDbEntity
  8
LC-001-002-----0
  6
CONTINUOUS
 62
             7
100
AcDbLine
 10
267.7543629999999
 20
114.66670053505
 11
267.75436499999989
 21
118.24676953505001
  0
LINE
  5
AC
100
AcDbEntity
  8
LC-001-002-----0
  6
CONTINUOUS
 62
             7
100
AcDbLine
 10
306.15443699999997
 20
106.65046653505
 11
297.75403599999993
 21
107.38540653505
  0
LINE
  5
AB
100
AcDbEntity
  8
LC-001-002-----0
  6
CONTINUOUS
 62
             7
100
AcDbLine
 10
308.32874900000002
 20
200.47023953505001
 11
296.32874900000002
 21
200.47023953505001
  0
LINE
  5
AA
100
AcDbEntity
  8
LC-001-002-----0
  6
CONTINUOUS
 62
             7
100
AcDbLine
 10
308.82874900000002
 20
202.47023953505001
 11
296.32874900000002
 21
202.47023953505001
  0
LINE
  5
A9
100
AcDbEntity
  8
LC-001-002-----0
  6
CONTINUOUS
 62
             7
100
AcDbLine
 10
294.32874900000002
 20
200.47023953505001
 11
294.32874900000002
 21
122.16383853505
  0
LINE
  5
A8
100
AcDbEntity
  8
LC-003-100-D03-0
  6
CONTINUOUS
 62
             7
100
AcDbLine
 10
499.0334749999999
 20
31.49588553505004
 11
504.00397599999991
 21
30.16404353505004
  0
LINE
  5
A7
100
AcDbEntity
  8
LC-001-002-----0
  6
CONTINUOUS
 62
             7
100
AcDbLine
 10
386.754347
 20
89.96281353505003
 11
386.75436000000002
 21
109.96281353505
  0
LINE
  5
A6
100
AcDbEntity
  8
LC-001-002-----0
  6
CONTINUOUS
 62
             7
100
AcDbLine
 10
312.58020399999992
 20
203.73825253505001
 11
312.83044799999999
 21
203.30404453505
  0
LINE
  5
A5
100
AcDbEntity
  8
LC-001-002-----0
  6
CONTINUOUS
 62
             7
100
AcDbLine
 10
252.6812929999999
 20
57.21976553505004
 11
252.25181199999989
 21
81.96280653505005
  0
LINE
  5
A4
100
AcDbEntity
  8
LC-001-002-----0
  6
CONTINUOUS
 62
             7
100
AcDbLine
 10
308.82874900000002
 20
206.47023953505001
 11
308.82874900000002
 21
204.97023953505001
  0
LINE
  5
A3
100
AcDbEntity
  8
LC-001-002-----0
  6
CONTINUOUS
 62
             7
100
AcDbLine
 10
283.82874900000002
 20
185.97023953505001
 11
283.82874900000002
 21
219.47023953505001
  0
LINE
  5
A2
100
AcDbEntity
  8
LC-001-002-----0
  6
CONTINUOUS
 62
             7
100
AcDbLine
 10
291.82874900000002
 20
183.97023953505001
 11
285.82874900000002
 21
183.97023953505001
  0
LINE
  5
A1
100
AcDbEntity
  8
LC-001-002-----0
  6
CONTINUOUS
 62
             7
100
AcDbLine
 10
293.82874900000002
 20
200.97023953505001
 11
293.82874900000002
 21
185.97023953505001
  0
LINE
  5
A0
100
AcDbEntity
  8
LC-001-002-----0
  6
CONTINUOUS
 62
             7
100
AcDbLine
 10
306.82874900000002
 20
202.97023953505001
 11
295.82874900000002
 21
202.97023953505001
  0
LINE
  5
9F
100
AcDbEntity
  8
LC-001-002-----0
  6
CONTINUOUS
 62
             7
100
AcDbLine
 10
308.82874900000002
 20
219.47023953505001
 11
308.82874900000002
 21
213.45235953505011
  0
LINE
  5
9E
100
AcDbEntity
  8
LC-001-002-----0
  6
CONTINUOUS
 62
             7
100
AcDbLine
 10
285.82874900000002
 20
221.47023953505001
 11
306.82874900000002
 21
221.47023953505001
  0
LINE
  5
9D
100
AcDbEntity
  8
LC-001-002-----0
  6
CONTINUOUS
 62
             7
100
AcDbLine
 10
89.10163099999991
 20
104.7121735350501
 11
108.1016309999999
 21
104.7121735350501
  0
LINE
  5
9C
100
AcDbEntity
  8
LC-001-002-----0
  6
CONTINUOUS
 62
             7
100
AcDbLine
 10
416.75403599999999
 20
114.66680953505011
 11
416.75403599999999
 21
118.25029353505001
  0
LINE
  5
9B
100
AcDbEntity
  8
LC-001-002-----0
  6
CONTINUOUS
 62
             7
100
AcDbLine
 10
386.75436000000002
 20
89.96281353505003
 11
405.75403599999999
 21
89.96280053505001
  0
LINE
  5
9A
100
AcDbEntity
  8
LC-003-100-D03-0
  6
CONTINUOUS
 62
             7
100
AcDbLine
 10
504.00397599999991
 20
-92.17065546494996
 11
504.00397599999991
 21
30.16404353505004
  0
LINE
  5
99
100
AcDbEntity
  8
LC-001-002-----0
  6
CONTINUOUS
 62
             7
100
AcDbLine
 10
499.0334749999999
 20
31.49588553505004
 11
499.0334749999999
 21
-93.50287846494996
  0
LINE
  5
98
100
AcDbEntity
  8
LC-003-100-D03-0
  6
CONTINUOUS
 62
             7
100
AcDbLine
 10
65.45611799999992
 20
-67.19644546494999
 11
23.76326
 21
-67.19644646494987
  0
LINE
  5
97
100
AcDbEntity
  8
LC-007-007-KH--0
  6
DASHDOT
 62
             7
100
AcDbLine
 10
247.2989059999999
 20
-79.99854846494998
 11
247.2989059999999
 21
-80.15854846494995
  0
LINE
  5
96
100
AcDbEntity
  8
LC-001-002-----0
  6
CONTINUOUS
 62
             7
100
AcDbLine
 10
245.10830899999991
 20
43.71967053505006
 11
246.7989059999999
 21
43.71967053505006
  0
LINE
  5
95
100
AcDbEntity
  8
LC-001-002-----0
  6
DASHDOT
 62
             2
100
AcDbLine
 10
301.32874900000002
 20
200.47023953505001
 11
301.32874900000002
 21
96.96280653505005
  0
LINE
  5
94
100
AcDbEntity
  8
LC-001-002-----0
  6
CONTINUOUS
 62
             7
100
AcDbLine
 10
247.2989059999999
 20
-72.28285546494999
 11
247.2989059999999
 21
-89.28285546494999
  0
LINE
  5
93
100
AcDbEntity
  8
LC-001-002-----0
  6
CONTINUOUS
 62
             7
100
AcDbLine
 10
247.2989059999999
 20
39.71976553505004
 11
247.2989059999999
 21
56.71976553505004
  0
LINE
  5
92
100
AcDbEntity
  8
LC-001-002-----0
  6
CONTINUOUS
 62
             7
100
AcDbLine
 10
405.75403599999999
 20
89.96280053505001
 11
405.75403599999999
 21
109.96292953504999
  0
LINE
  5
91
100
AcDbEntity
  8
LC-001-002-----0
  6
CONTINUOUS
 62
             7
100
AcDbLine
 10
386.75436000000002
 20
109.96281353505
 11
396.25436000000002
 21
109.96280653505011
  0
LINE
  5
90
100
AcDbEntity
  8
LC-001-002-----0
  6
CONTINUOUS
 62
             7
100
AcDbLine
 10
230.60830899999991
 20
44.21976553505004
 11
225.9895019999999
 21
44.21976553505004
  0
LINE
  5
8F
100
AcDbEntity
  8
LC-001-002-----0
  6
CONTINUOUS
 62
             7
100
AcDbLine
 10
244.60830899999991
 20
43.21967053505006
 11
244.60830899999991
 21
40.95256453505004
  0
LINE
  5
8E
100
AcDbEntity
  8
LC-001-002-----0
  6
CONTINUOUS
 62
             7
100
AcDbLine
 10
243.59890599999989
 20
-31.91484046494998
 11
240.10830899999991
 21
-31.91484046494998
  0
LINE
  5
8D
100
AcDbEntity
  8
LC-001-002-----0
  6
CONTINUOUS
 62
             7
100
AcDbLine
 10
239.60830899999991
 20
7.91618053505005
 11
239.60830899999991
 21
56.71976553505004
  0
LINE
  5
8C
100
AcDbEntity
  8
LC-001-002-----0
  6
CONTINUOUS
 62
             7
100
AcDbLine
 10
243.59890599999989
 20
7.41618053505005
 11
240.10830899999991
 21
7.41618053505005
  0
LINE
  5
8B
100
AcDbEntity
  8
LC-001-002-----0
  6
CONTINUOUS
 62
             7
100
AcDbLine
 10
386.75436000000002
 20
109.96281353505
 11
376.41234199999991
 21
113.72700753505011
  0
LINE
  5
8A
100
AcDbEntity
  8
LC-001-002-----0
  6
CONTINUOUS
 62
             7
100
AcDbLine
 10
241.92211099999989
 20
57.72846253505003
 11
242.60029199999991
 21
96.71217353505006
  0
LINE
  5
89
100
AcDbEntity
  8
LC-001-002-----0
  6
CONTINUOUS
 62
             7
100
AcDbLine
 10
240.10830899999991
 20
57.21976553505004
 11
246.7989059999999
 21
57.21976553505004
  0
LINE
  5
88
100
AcDbEntity
  8
LC-001-002-----0
  6
CONTINUOUS
 62
             7
100
AcDbLine
 10
240.10830899999991
 20
-89.78285546494999
 11
246.7989059999999
 21
-89.78285546494999
  0
LINE
  5
87
100
AcDbEntity
  8
LC-001-002-----0
  6
CONTINUOUS
 62
             7
100
AcDbLine
 10
239.60830899999991
 20
-32.41484046494998
 11
239.60830899999991
 21
-89.28285546494999
  0
LINE
  5
86
100
AcDbEntity
  8
LC-001-002-----0
  6
CONTINUOUS
 62
             7
100
AcDbLine
 10
96.18083899999991
 20
-0.9163124649499
 11
96.18083899999991
 21
-83.28355146494994
  0
LINE
  5
85
100
AcDbEntity
  8
LC-001-002-----0
  6
CONTINUOUS
 62
             7
100
AcDbLine
 10
70.66353599999994
 20
-83.78355146494994
 11
95.68083899999991
 21
-83.78355146494994
  0
LINE
  5
84
100
AcDbEntity
  8
LC-003-100-D03-0
  6
CONTINUOUS
 62
             7
100
AcDbLine
 10
63.11027899999991
 20
67.19644453505003
 11
23.76326
 21
67.19644553505003
  0
LINE
  5
83
100
AcDbEntity
  8
LC-001-002-----0
  6
CONTINUOUS
 62
             7
100
AcDbLine
 10
23.76326
 20
67.19644553505003
 11
23.76326
 21
-67.20354846495002
  0
LINE
  5
82
100
AcDbEntity
  8
LC-001-002-----0
  6
CONTINUOUS
 62
             7
100
AcDbLine
 10
96.68083899999991
 20
-78.78330746494999
 11
224.9895019999999
 21
-78.78330746494999
  0
LINE
  5
81
100
AcDbEntity
  8
LC-001-002-----0
  6
CONTINUOUS
 62
             7
100
AcDbLine
 10
20.29915800000001
 20
73.19644653505003
 11
20.29915800000001
 21
-73.20354946495002
  0
LINE
  5
80
100
AcDbEntity
  8
LC-001-002-----0
  6
CONTINUOUS
 62
             7
100
AcDbLine
 10
3.5
 20
67.19644753505003
 11
3.5
 21
-67.20355046495001
  0
LINE
  5
7F
100
AcDbEntity
  8
LC-003-100-D03-0
  6
CONTINUOUS
 62
             7
100
AcDbLine
 10
-1.0
 20
63.94410153504998
 11
-1.0
 21
-63.95120446495002
  0
LINE
  5
7E
100
AcDbEntity
  8
LC-001-002-----0
  6
CONTINUOUS
 62
             7
100
AcDbLine
 10
405.75403599999999
 20
109.96292953504999
 11
396.25403599999999
 21
109.96292953504999
  0
LINE
  5
7D
100
AcDbEntity
  8
LC-001-002-----0
  6
CONTINUOUS
 62
             7
100
AcDbLine
 10
405.75403599999999
 20
109.96292953504999
 11
416.09605599999992
 21
113.72711653505
  0
LINE
  5
7C
100
AcDbEntity
  8
LC-003-100-D03-0
  6
CONTINUOUS
 62
             7
100
AcDbLine
 10
3.5
 20
67.19644753505003
 11
-0.528963
 21
67.03770653505002
  0
LINE
  5
7B
100
AcDbEntity
  8
LC-003-100-D03-0
  6
CONTINUOUS
 62
             7
100
AcDbLine
 10
3.5
 20
67.59921253505002
 11
3.5
 21
67.19644753505003
  0
LINE
  5
7A
100
AcDbEntity
  8
LC-001-002-----0
  6
CONTINUOUS
 62
             7
100
AcDbLine
 10
208.0980899999999
 20
63.27949953505004
 11
205.0980899999999
 21
63.27949953505004
  0
LINE
  5
79
100
AcDbEntity
  8
LC-003-100-D03-0
  6
CONTINUOUS
 62
             7
100
AcDbLine
 10
-1.0
 20
66.54133753504999
 11
-1.0
 21
63.94410153504998
  0
LINE
  5
78
100
AcDbEntity
  8
LC-001-002-----0
  6
CONTINUOUS
 62
             7
100
AcDbLine
 10
97.09808999999993
 20
63.27949953505004
 11
100.0980899999999
 21
63.27949953505004
  0
LINE
  5
77
100
AcDbEntity
  8
LC-003-100-D03-0
  6
CONTINUOUS
 62
             7
100
AcDbLine
 10
20.29915800000001
 20
73.19644653505003
 11
23.76326
 21
67.19644553505003
  0
LINE
  5
76
100
AcDbEntity
  8
LC-001-002-----0
  6
CONTINUOUS
 62
             7
100
AcDbLine
 10
205.0980899999999
 20
88.71217353505006
 11
205.0980899999999
 21
63.27949953505004
  0
LINE
  5
75
100
AcDbEntity
  8
LC-003-100-D03-0
  6
CONTINUOUS
 62
             7
100
AcDbLine
 10
20.29915800000001
 20
73.19644653505003
 11
8.210365
 21
72.56290053505001
  0
LINE
  5
74
100
AcDbEntity
  8
LC-001-002-----0
  6
CONTINUOUS
 62
             7
100
AcDbLine
 10
398.75436300000001
 20
114.22699253505
 11
398.75436500000001
 21
118.6974365350501
  0
LINE
  5
73
100
AcDbEntity
  8
LC-003-100-D03-0
  6
CONTINUOUS
 62
             7
100
AcDbLine
 10
3.5
 20
-67.60631446494995
 11
3.5
 21
-67.20355046495001
  0
LINE
  5
72
100
AcDbEntity
  8
LC-001-002-----0
  6
CONTINUOUS
 62
             7
100
AcDbLine
 10
208.0980899999999
 20
88.71217353505006
 11
208.0980899999999
 21
63.27949953505004
  0
LINE
  5
71
100
AcDbEntity
  8
LC-001-002-----0
  6
CONTINUOUS
 62
             7
100
AcDbLine
 10
100.0980899999999
 20
88.71217353505006
 11
100.0980899999999
 21
63.27949953505004
  0
LINE
  5
70
100
AcDbEntity
  8
LC-001-002-----0
  6
CONTINUOUS
 62
             7
100
AcDbLine
 10
216.60163099999991
 20
89.21217353505006
 11
216.60163099999991
 21
96.21217353505006
  0
LINE
  5
6F
100
AcDbEntity
  8
LC-001-002-----0
  6
CONTINUOUS
 62
             7
100
AcDbLine
 10
196.60163099999991
 20
96.21217353505006
 11
196.60163099999991
 21
89.21217353505006
  0
LINE
  5
6E
100
AcDbEntity
  8
LC-001-002-----0
  6
CONTINUOUS
 62
             7
100
AcDbLine
 10
398.75436500000001
 20
118.6974365350501
 11
393.75436500000001
 21
118.69743953505009
  0
LINE
  5
6D
100
AcDbEntity
  8
LC-001-002-----0
  6
CONTINUOUS
 62
             7
100
AcDbLine
 10
393.75436300000001
 20
114.22699553504999
 11
393.75436500000001
 21
118.69743953505009
  0
LINE
  5
6C
100
AcDbEntity
  8
LC-001-002-----0
  6
CONTINUOUS
 62
             7
100
AcDbLine
 10
398.75436300000001
 20
114.22699253505
 11
393.77470399999999
 21
114.22699553504999
  0
LINE
  5
6B
100
AcDbEntity
  8
LC-001-002-----0
  6
DASHDOT
 62
             2
100
AcDbLine
 10
224.9895019999999
 20
48.21976553505004
 11
261.9895019999999
 21
48.21976553505004
  0
LINE
  5
6A
100
AcDbEntity
  8
LC-001-002-----0
  6
CONTINUOUS
 62
             7
100
AcDbLine
 10
246.75691299999991
 20
108.7121735350501
 11
246.75691299999991
 21
97.21217353505006
  0
LINE
  5
69
100
AcDbEntity
  8
LC-001-002-----0
  6
CONTINUOUS
 62
             7
100
AcDbLine
 10
58.23490300000005
 20
108.7121735350501
 11
58.23490300000004
 21
97.21217353505006
  0
LINE
  5
68
100
AcDbEntity
  8
LC-001-002-----0
  6
CONTINUOUS
 62
             7
100
AcDbLine
 10
61.23490300000005
 20
111.7121735350501
 11
89.10194699999991
 21
111.7121735350501
  0
LINE
  5
67
100
AcDbEntity
  8
LC-001-002-----0
  6
CONTINUOUS
 62
             7
100
AcDbLine
 10
285.82970199999988
 20
-94.03267346494999
 11
285.82970199999988
 21
-98.03291846494994
  0
LINE
  5
66
100
AcDbEntity
  8
LC-001-002-----0
  6
CONTINUOUS
 62
             7
100
AcDbLine
 10
431.109759
 20
1.46718753505002
 11
432.24915499999992
 21
81.96280653505005
  0
LINE
  5
65
100
AcDbEntity
  8
LC-001-002-----0
  6
CONTINUOUS
 62
             7
100
AcDbLine
 10
285.82970199999988
 20
-94.03267346494999
 11
285.82970199999988
 21
-98.03291846494994
  0
LINE
  5
64
100
AcDbEntity
  8
LC-001-002-----0
  6
CONTINUOUS
 62
             7
100
AcDbLine
 10
197.10194199999989
 20
104.71217953505
 11
197.101955
 21
124.71217953505
  0
LINE
  5
63
100
AcDbEntity
  8
LC-003-100-D03-0
  6
CONTINUOUS
 62
             7
100
AcDbLine
 10
3.5
 20
-67.20355046495001
 11
-0.528963
 21
-67.04480946495005
  0
LINE
  5
62
100
AcDbEntity
  8
LC-001-002-----0
  6
CONTINUOUS
 62
             7
100
AcDbLine
 10
375.75436300000001
 20
114.66670053505
 11
375.75436500000001
 21
118.24676953505001
  0
LINE
  5
61
100
AcDbEntity
  8
LC-001-002-----0
  6
CONTINUOUS
 62
             7
100
AcDbLine
 10
227.10163099999991
 20
129.41617553505
 11
227.10163099999991
 21
132.99965953505
  0
LINE
  5
60
100
AcDbEntity
  8
LC-001-002-----0
  6
CONTINUOUS
 62
             7
100
AcDbLine
 10
197.101955
 20
104.71217953505
 11
216.10163099999991
 21
104.71216653505
  0
LINE
  5
5F
100
AcDbEntity
  8
LC-001-002-----0
  6
CONTINUOUS
 62
             7
100
AcDbLine
 10
216.10163099999991
 20
104.71216653505
 11
216.10163099999991
 21
124.7122955350501
  0
LINE
  5
5E
100
AcDbEntity
  8
LC-001-002-----0
  6
CONTINUOUS
 62
             7
100
AcDbLine
 10
197.101955
 20
124.71217953505
 11
206.601955
 21
124.7121735350501
  0
LINE
  5
5D
100
AcDbEntity
  8
LC-001-002-----0
  6
CONTINUOUS
 62
             7
100
AcDbLine
 10
197.101955
 20
124.71217953505
 11
186.75993699999989
 21
128.47637353504999
  0
LINE
  5
5C
100
AcDbEntity
  8
LC-001-002-----0
  6
CONTINUOUS
 62
             7
100
AcDbLine
 10
216.10163099999991
 20
124.7122955350501
 11
206.60163099999991
 21
124.7122955350501
  0
LINE
  5
5B
100
AcDbEntity
  8
LC-001-002-----0
  6
CONTINUOUS
 62
             7
100
AcDbLine
 10
216.10163099999991
 20
124.7122955350501
 11
226.4436509999999
 21
128.47648253505011
  0
LINE
  5
5A
100
AcDbEntity
  8
LC-001-002-----0
  6
CONTINUOUS
 62
             7
100
AcDbLine
 10
209.10195799999991
 20
128.97635853505011
 11
209.1019609999999
 21
133.44680253505001
  0
LINE
  5
59
100
AcDbEntity
  8
LC-001-002-----0
  6
CONTINUOUS
 62
             7
100
AcDbLine
 10
209.1019609999999
 20
133.44680253505001
 11
204.1019609999999
 21
133.44680553505009
  0
LINE
  5
58
100
AcDbEntity
  8
LC-001-002-----0
  6
CONTINUOUS
 62
             7
100
AcDbLine
 10
204.10195799999991
 20
128.97636253504999
 11
204.1019609999999
 21
133.44680553505009
  0
LINE
  5
57
100
AcDbEntity
  8
LC-001-002-----0
  6
CONTINUOUS
 62
             7
100
AcDbLine
 10
209.10195799999991
 20
128.97635853505011
 11
204.12229999999991
 21
128.97636253504999
  0
LINE
  5
56
100
AcDbEntity
  8
LC-001-002-----0
  6
CONTINUOUS
 62
             7
100
AcDbLine
 10
186.10195799999991
 20
129.41606653505011
 11
186.1019609999999
 21
132.99613653505
  0
LINE
  5
55
100
AcDbEntity
  8
LC-001-002-----0
  6
CONTINUOUS
 62
             7
100
AcDbLine
 10
89.10194199999992
 20
104.71217953505
 11
89.10195499999995
 21
124.71217953505
  0
LINE
  5
54
100
AcDbEntity
  8
LC-001-002-----0
  6
CONTINUOUS
 62
             7
100
AcDbLine
 10
119.1016309999999
 20
129.41617553505
 11
119.1016309999999
 21
132.99965953505
  0
LINE
  5
53
100
AcDbEntity
  8
LC-001-002-----0
  6
CONTINUOUS
 62
             7
100
AcDbLine
 10
89.10195499999995
 20
104.71217953505
 11
108.1016309999999
 21
104.71216653505
  0
LINE
  5
52
100
AcDbEntity
  8
LC-001-002-----0
  6
CONTINUOUS
 62
             7
100
AcDbLine
 10
108.1016309999999
 20
104.71216653505
 11
108.1016309999999
 21
124.7122955350501
  0
LINE
  5
51
100
AcDbEntity
  8
LC-001-002-----0
  6
CONTINUOUS
 62
             7
100
AcDbLine
 10
89.10195499999995
 20
124.71217953505
 11
98.60195499999995
 21
124.7121735350501
  0
LINE
  5
50
100
AcDbEntity
  8
LC-001-002-----0
  6
CONTINUOUS
 62
             7
100
AcDbLine
 10
89.10195499999995
 20
124.71217953505
 11
78.75993699999989
 21
128.47637353504999
  0
LINE
  5
4F
100
AcDbEntity
  8
LC-001-002-----0
  6
CONTINUOUS
 62
             7
100
AcDbLine
 10
108.1016309999999
 20
124.7122955350501
 11
98.60163099999991
 21
124.7122955350501
  0
LINE
  5
4E
100
AcDbEntity
  8
LC-001-002-----0
  6
CONTINUOUS
 62
             7
100
AcDbLine
 10
108.1016309999999
 20
124.7122955350501
 11
118.4436509999999
 21
128.47648253505011
  0
LINE
  5
4D
100
AcDbEntity
  8
LC-001-002-----0
  6
CONTINUOUS
 62
             7
100
AcDbLine
 10
101.1019579999999
 20
128.97635853505011
 11
101.1019609999999
 21
133.44680253505001
  0
LINE
  5
4C
100
AcDbEntity
  8
LC-001-002-----0
  6
CONTINUOUS
 62
             7
100
AcDbLine
 10
101.1019609999999
 20
133.44680253505001
 11
96.10196099999993
 21
133.44680553505009
  0
LINE
  5
4B
100
AcDbEntity
  8
LC-001-002-----0
  6
CONTINUOUS
 62
             7
100
AcDbLine
 10
96.10195799999994
 20
128.97636253504999
 11
96.10196099999993
 21
133.44680553505009
  0
LINE
  5
4A
100
AcDbEntity
  8
LC-003-100-D03-0
  6
CONTINUOUS
 62
             7
100
AcDbLine
 10
-1.0
 20
-66.54844046494998
 11
-1.0
 21
-63.95120446495002
  0
LINE
  5
49
100
AcDbEntity
  8
LC-001-002-----0
  6
CONTINUOUS
 62
             7
100
AcDbLine
 10
58.73490300000005
 20
96.71217353505006
 11
246.25691299999991
 21
96.71217353505006
  0
LINE
  5
48
100
AcDbEntity
  8
LC-001-002-----0
  6
CONTINUOUS
 62
             7
100
AcDbLine
 10
305.32874900000002
 20
103.96280653505011
 11
305.32874900000002
 21
106.72270553505
  0
LINE
  5
47
100
AcDbEntity
  8
LC-001-002-----0
  6
CONTINUOUS
 62
             7
100
AcDbLine
 10
108.6016309999999
 20
89.21217353505006
 11
108.6016309999999
 21
96.21217353505006
  0
LINE
  5
46
100
AcDbEntity
  8
LC-001-002-----0
  6
CONTINUOUS
 62
             7
100
AcDbLine
 10
88.60163099999991
 20
96.21217353505006
 11
88.60163099999991
 21
89.21217353505006
  0
LINE
  5
45
100
AcDbEntity
  8
LC-003-100-D03-0
  6
CONTINUOUS
 62
             7
100
AcDbLine
 10
20.29915800000001
 20
-73.20354946495002
 11
8.210365
 21
-72.57000346494999
  0
LINE
  5
44
100
AcDbEntity
  8
LC-003-100-D03-0
  6
CONTINUOUS
 62
             7
100
AcDbLine
 10
20.29915800000001
 20
-73.20354946495002
 11
23.76326
 21
-67.20354846495002
  0
LINE
  5
43
100
AcDbEntity
  8
LC-001-002-----0
  6
CONTINUOUS
 62
             7
100
AcDbLine
 10
197.10163099999991
 20
88.71217353505006
 11
216.10163099999991
 21
88.71217353505006
  0
LINE
  5
42
100
AcDbEntity
  8
LC-001-002-----0
  6
CONTINUOUS
 62
             7
100
AcDbLine
 10
89.10163099999991
 20
88.71217353505006
 11
108.1016309999999
 21
88.71217353505006
  0
LINE
  5
41
100
AcDbEntity
  8
LC-001-002-----0
  6
CONTINUOUS
 62
             7
100
AcDbLine
 10
97.09808999999993
 20
88.71217353505006
 11
97.09808999999993
 21
63.27949953505004
  0
LINE
  5
40
100
AcDbEntity
  8
LC-001-002-----0
  6
CONTINUOUS
 62
             7
100
AcDbLine
 10
65.66373299999989
 20
-78.87082346495004
 11
62.59891999999994
 21
96.71217353505006
  0
LINE
  5
3F
100
AcDbEntity
  8
LC-001-002-----0
  6
DASHDOT
 62
             2
100
AcDbLine
 10
224.9895019999999
 20
-80.78285546494999
 11
261.9895019999999
 21
-80.78285546494999
  0
LINE
  5
3E
100
AcDbEntity
  8
LC-001-002-----0
  6
CONTINUOUS
 62
             7
100
AcDbLine
 10
101.1019579999999
 20
128.97635853505011
 11
96.12229999999991
 21
128.97636253504999
  0
LINE
  5
3D
100
AcDbEntity
  8
LC-001-002-----0
  6
CONTINUOUS
 62
             7
100
AcDbLine
 10
78.10195799999994
 20
129.41606653505011
 11
78.10196099999993
 21
132.99613653505
  0
POINT
  5
3C
100
AcDbEntity
  8
LC-004-003-----0
 62
             7
100
AcDbPoint
 10
285.32970199999988
 20
-98.53291846494994
  0
POINT
  5
3B
100
AcDbEntity
  8
LC-004-003-----0
 62
             7
100
AcDbPoint
 10
306.82874900000002
 20
221.47023953505001
  0
POINT
  5
3A
100
AcDbEntity
  8
LC-004-003-----0
 62
             7
100
AcDbPoint
 10
504.00397599999991
 20
-92.17065546494996
  0
POINT
  5
39
100
AcDbEntity
  8
LC-004-003-----0
 62
             7
100
AcDbPoint
 10
-1.0
 20
-66.54844046494998
  0
POINT
  5
38
100
AcDbEntity
  8
LC-004-003-----0
 62
             7
100
AcDbPoint
 10
430.1531159999999
 20
-31.02326646494998
  0
POINT
  5
37
100
AcDbEntity
  8
LC-004-003-----0
 62
             7
100
AcDbPoint
 10
64.2832599999999
 20
-0.00355146494996
  0
POINT
  5
36
100
AcDbEntity
  8
LC-004-003-----0
 62
             7
100
AcDbPoint
 10
436.23525399999971
 20
93.96280653505005
  0
POINT
  5
35
100
AcDbEntity
  8
LC-004-003-----0
 62
             7
100
AcDbPoint
 10
58.23490300000005
 20
108.7121735350501
  0
POINT
  5
34
100
AcDbEntity
  8
LC-004-003-----0
 62
             7
100
AcDbPoint
 10
499.03205200000008
 20
-93.50287846494996
  0
POINT
  5
33
100
AcDbEntity
  8
LC-004-003-----0
 62
             7
100
AcDbPoint
 10
499.0334749999999
 20
31.49588553505004
  0
POINT
  5
32
100
AcDbEntity
  8
LC-004-003-----0
 62
             7
100
AcDbPoint
 10
-0.528963
 20
-67.04480946495005
  0
POINT
  5
31
100
AcDbEntity
  8
LC-004-003-----0
 62
             7
100
AcDbPoint
 10
-0.528963
 20
67.03770653505002
  0
ENDBLK
  5
1FA
100
AcDbEntity
  8
0
100
AcDbBlockEnd
  0
BLOCK
  5
1FD
100
AcDbEntity
  8
0
100
AcDbBlockBegin
  2
*D1
 70
             1
 10
0.0
 20
0.0
 30
0.0
  3
*D1
  1

  0
LINE
  5
1FE
100
AcDbEntity
  8
0
  6
CONTINUOUS
 62
             4
100
AcDbLine
 10
471.08184918153819
 20
-31.0032899495524
 11
471.08184916008867
 21
-61.00328994955238
  0
LINE
  5
1FF
100
AcDbEntity
  8
0
  6
CONTINUOUS
 62
             4
100
AcDbLine
 10
471.08184920370502
 20
-0.00000033681583
 11
471.08184918153819
 21
-31.0032899495524
  0
LINE
  5
200
100
AcDbEntity
  8
0
  6
CONTINUOUS
 62
             4
100
AcDbLine
 10
471.08184925230654
 20
67.97569858497498
 11
471.08184920370502
 21
-0.00000033681583
  0
LINE
  5
201
100
AcDbEntity
  8
0
  6
CONTINUOUS
 62
             4
100
AcDbLine
 10
423.49850684392209
 20
-31.00328991553108
 11
473.08184918153819
 21
-31.00328995098236
  0
LINE
  5
202
100
AcDbEntity
  8
0
  6
CONTINUOUS
 62
             4
100
AcDbLine
 10
72.21960260592482
 20
-0.00000005163588
 11
473.08184920370502
 21
-0.0000003382458
  0
SOLID
  5
203
100
AcDbEntity
  8
0
 62
             4
100
AcDbTrace
 10
469.10706175061875
 20
14.9999996645961
 11
473.05663667824058
 21
14.99999966177224
 12
471.08184920370502
 22
-0.00000033681583
 13
471.08184920370502
 23
-0.00000033681583
  0
SOLID
  5
204
100
AcDbEntity
  8
0
 62
             4
100
AcDbTrace
 10
473.05663663462445
 20
-46.00328995096433
 11
469.10706170700263
 21
-46.00328994814048
 12
471.08184918153819
 22
-31.0032899495524
 13
471.08184918153819
 23
-31.0032899495524
  0
MTEXT
  5
206
100
AcDbEntity
  8
0
 62
             1
100
AcDbMText
 10
469.08184923943685
 20
49.97569858640495
 30
0.0
 40
15.0
 41
0.0
 71
             7
 72
             1
  1
31
  7
CONVERTER_1
 11
0.0
 21
1.0
 31
0.0
  0
ENDBLK
  5
207
100
AcDbEntity
  8
0
100
AcDbBlockEnd
  0
BLOCK
  5
20B
100
AcDbEntity
  8
0
100
AcDbBlockBegin
  2
*D2
 70
             1
 10
0.0
 20
0.0
 30
0.0
  3
*D2
  1

  0
LINE
  5
20C
100
AcDbEntity
  8
0
  6
CONTINUOUS
 62
             4
100
AcDbLine
 10
-1.0000000475379
 20
-130.43924234696345
 11
504.0039759726385
 21
-130.43924270803299
  0
LINE
  5
20D
100
AcDbEntity
  8
0
  6
CONTINUOUS
 62
             4
100
AcDbLine
 10
504.00397599999985
 20
-92.17065546494993
 11
504.00397597120855
 21
-132.43924270803299
  0
LINE
  5
20E
100
AcDbEntity
  8
0
  6
CONTINUOUS
 62
             4
100
AcDbLine
 10
-1.0
 20
-63.95120446494999
 11
-1.00000004896791
 21
-132.43924234696345
  0
SOLID
  5
20F
100
AcDbEntity
  8
0
 62
             4
100
AcDbTrace
 10
13.99999995387403
 20
-128.46445489387716
 11
13.99999995105018
 21
-132.41402982149904
 12
-1.0000000475379
 22
-130.43924234696345
 13
-1.0000000475379
 23
-130.43924234696345
  0
SOLID
  5
210
100
AcDbEntity
  8
0
 62
             4
100
AcDbTrace
 10
489.00397597122657
 20
-132.41403016111929
 11
489.00397597405043
 21
-128.4644552334974
 12
504.0039759726385
 22
-130.43924270803299
 13
504.0039759726385
 23
-130.43924270803299
  0
MTEXT
  5
211
100
AcDbEntity
  8
0
 62
             1
100
AcDbMText
 10
229.9436961740881
 20
-128.4392425249541
 30
0.0
 40
15.0
 41
0.0
 71
             7
 72
             1
  1
505
  7
CONVERTER_1
 11
0.99999999999706
 21
0.00000242406841
 31
0.0
  0
ENDBLK
  5
212
100
AcDbEntity
  8
0
100
AcDbBlockEnd
  0
BLOCK
  5
216
100
AcDbEntity
  8
0
100
AcDbBlockBegin
  2
*D3
 70
             1
 10
0.0
 20
0.0
 30
0.0
  3
*D3
  1

  0
LINE
  5
217
100
AcDbEntity
  8
0
  6
CONTINUOUS
 62
             4
100
AcDbLine
 10
436.2352540492289
 20
162.81637379937106
 11
58.23490303868368
 21
162.81637406963509
  0
LINE
  5
218
100
AcDbEntity
  8
0
  6
CONTINUOUS
 62
             4
100
AcDbLine
 10
436.23525399999983
 20
93.96280653505008
 11
436.2352540506588
 21
164.81637379937106
  0
LINE
  5
219
100
AcDbEntity
  8
0
  6
CONTINUOUS
 62
             4
100
AcDbLine
 10
58.23490300000009
 20
108.71217353505008
 11
58.23490304011369
 21
164.81637406963509
  0
SOLID
  5
21A
100
AcDbEntity
  8
0
 62
             4
100
AcDbTrace
 10
421.23525404781697
 20
160.84158634628477
 11
421.23525405064083
 21
164.79116127390665
 12
436.2352540492289
 22
162.81637379937106
 13
436.2352540492289
 23
162.81637379937106
  0
SOLID
  5
21B
100
AcDbEntity
  8
0
 62
             4
100
AcDbTrace
 10
73.23490304009562
 20
164.79116152272138
 11
73.23490303727175
 21
160.8415865950995
 12
58.23490303868368
 22
162.81637406963509
 13
58.23490303868368
 23
162.81637406963509
  0
MTEXT
  5
21C
100
AcDbEntity
  8
0
 62
             1
100
AcDbMText
 10
204.5137856487919
 20
164.8163739521784
 30
0.0
 40
15.0
 41
0.0
 71
             7
 72
             1
  1
378
  7
CONVERTER_1
 11
0.99999999999706
 21
0.00000242406841
 31
0.0
  0
ENDBLK
  5
21D
100
AcDbEntity
  8
0
100
AcDbBlockEnd
  0
BLOCK
  5
221
100
AcDbEntity
  8
0
100
AcDbBlockBegin
  2
*D4
 70
             1
 10
0.0
 20
0.0
 30
0.0
  3
*D4
  1

  0
LINE
  5
222
100
AcDbEntity
  8
0
  6
CONTINUOUS
 62
             4
100
AcDbLine
 10
558.69625060725343
 20
-98.53373445288347
 11
558.6971256776626
 21
221.46955078411025
  0
LINE
  5
223
100
AcDbEntity
  8
0
  6
CONTINUOUS
 62
             4
100
AcDbLine
 10
306.82874900000002
 20
221.47023953505004
 11
560.69712567765509
 21
221.46954531497636
  0
LINE
  5
224
100
AcDbEntity
  8
0
  6
CONTINUOUS
 62
             4
100
AcDbLine
 10
260.29875399999986
 20
-98.53291846494994
 11
560.69625060724593
 21
-98.53373992201736
  0
SOLID
  5
225
100
AcDbEntity
  8
0
 62
             4
100
AcDbTrace
 10
556.7215041619537
 20
-83.53372905275109
 11
560.67107908956075
 21
-83.53373985312803
 12
558.69625060725343
 22
-98.53373445288347
 13
558.69625060725343
 23
-98.53373445288347
  0
SOLID
  5
226
100
AcDbEntity
  8
0
 62
             4
100
AcDbTrace
 10
560.67187212296233
 20
206.46954538397787
 11
556.72229719535528
 21
206.46955618435481
 12
558.6971256776626
 22
221.46955078411025
 13
558.6971256776626
 23
221.46955078411025
  0
MTEXT
  5
227
100
AcDbEntity
  8
0
 62
             1
100
AcDbMText
 10
556.69657652029889
 20
20.64895824630759
 30
0.0
 40
15.0
 41
0.0
 71
             7
 72
             1
  1
\C1;220-\C1;320
  7
CONVERTER_1
 11
0.00000273456695
 21
0.99999999999626
 31
0.0
  0
ENDBLK
  5
228
100
AcDbEntity
  8
0
100
AcDbBlockEnd
  0
BLOCK
  5
22C
100
AcDbEntity
  8
0
100
AcDbBlockBegin
  2
*D5
 70
             1
 10
0.0
 20
0.0
 30
0.0
  3
*D5
  1

  0
LINE
  5
22D
100
AcDbEntity
  8
0
  6
CONTINUOUS
 62
             4
100
AcDbLine
 10
531.61517750137921
 20
31.49579643820306
 11
531.61483568388974
 21
-93.5029675647535
  0
LINE
  5
22E
100
AcDbEntity
  8
0
  6
CONTINUOUS
 62
             4
100
AcDbLine
 10
499.03205200000008
 20
-93.50287846494996
 11
533.61483568388223
 21
-93.50297303388742
  0
LINE
  5
22F
100
AcDbEntity
  8
0
  6
CONTINUOUS
 62
             4
100
AcDbLine
 10
499.0334749999999
 20
31.49588553505004
 11
533.6151775013717
 21
31.49579096906915
  0
SOLID
  5
230
100
AcDbEntity
  8
0
 62
             4
100
AcDbTrace
 10
533.58992394667894
 20
16.49579103807067
 11
529.64034901907189
 21
16.49580183844762
 12
531.61517750137921
 22
31.49579643820306
 13
531.61517750137921
 23
31.49579643820306
  0
SOLID
  5
231
100
AcDbEntity
  8
0
 62
             4
100
AcDbTrace
 10
529.64008923859001
 20
-78.50296216462112
 11
533.58966416619705
 21
-78.50297296499807
 12
531.61483568388974
 22
-93.5029675647535
 13
531.61483568388974
 23
-93.5029675647535
  0
MTEXT
  5
232
100
AcDbEntity
  8
0
 62
             1
100
AcDbMText
 10
529.61494783888395
 20
-52.48916038942652
 30
0.0
 40
15.0
 41
0.0
 71
             7
 72
             1
  1
\C1;DN\C1;125
  7
CONVERTER_1
 11
0.00000273456695
 21
0.99999999999626
 31
0.0
  0
ENDBLK
  5
233
100
AcDbEntity
  8
0
100
AcDbBlockEnd
  0
BLOCK
  5
237
100
AcDbEntity
  8
0
100
AcDbBlockBegin
  2
*D6
 70
             1
 10
0.0
 20
0.0
 30
0.0
  3
*D6
  1

  0
LINE
  5
238
100
AcDbEntity
  8
0
  6
CONTINUOUS
 62
             4
100
AcDbLine
 10
-18.53938402112988
 20
62.50000001254033
 11
-18.53938411050282
 21
-62.49999998745967
  0
LINE
  5
239
100
AcDbEntity
  8
0
  6
CONTINUOUS
 62
             4
100
AcDbLine
 10
-7.0
 20
-62.49999999571014
 11
-20.53938411050282
 21
-62.49999998602971
  0
LINE
  5
23A
100
AcDbEntity
  8
0
  6
CONTINUOUS
 62
             4
100
AcDbLine
 10
-7.0
 20
62.50000000428986
 11
-20.53938402112988
 21
62.50000001397029
  0
SOLID
  5
23B
100
AcDbEntity
  8
0
 62
             4
100
AcDbTrace
 10
-16.5645965680437
 20
47.50000001112839
 11
-20.51417149566557
 21
47.50000001395227
 12
-18.53938402112988
 22
62.50000001254033
 13
-18.53938402112988
 23
62.50000001254033
  0
SOLID
  5
23C
100
AcDbEntity
  8
0
 62
             4
100
AcDbTrace
 10
-20.51417156358901
 20
-47.49999998604773
 11
-16.56459663596713
 21
-47.49999998887161
 12
-18.53938411050282
 22
-62.49999998745967
 13
-18.53938411050282
 23
-62.49999998745967
  0
MTEXT
  5
23D
100
AcDbEntity
  8
0
 62
             1
100
AcDbMText
 10
-20.53938406728492
 20
-26.65399551780637
 30
0.0
 40
15.0
 41
0.0
 71
             7
 72
             1
  1
\C1;DN\C1;125
  7
CONVERTER_1
 11
0.0
 21
1.0
 31
0.0
  0
ENDBLK
  5
23E
100
AcDbEntity
  8
0
100
AcDbBlockEnd
  0
ENDSEC
  0
SECTION
  2
ENTITIES
  0
DIMENSION
  5
240
100
AcDbEntity
  8
1
100
AcDbDimension
  2
*D6
 10
-18.53938402112988
 20
62.50000001254033
 11
-28.03938406782116
 21
-2.80399551244399
 31
0.0
 53
89.99999995903445
  1
<>
  3
ME10_DIM_5
100
AcDbAlignedDimension
 13
-7.0
 23
-62.49999999571014
 14
-7.0
 24
62.50000000428986
 50
89.99999995903445
100
AcDbRotatedDimension
  0
DIMENSION
  5
235
100
AcDbEntity
  8
1
100
AcDbDimension
  2
*D5
 10
531.61517750137921
 20
31.49579643820306
 11
522.11501305833394
 21
-28.63913988026354
 31
0.0
 53
89.99984332085471
  1
<>
  3
ME10_DIM_4
100
AcDbAlignedDimension
 13
499.03205200000008
 23
-93.50287846494996
 14
499.0334749999999
 24
31.49588553505004
 50
89.99984332085471
100
AcDbRotatedDimension
  0
DIMENSION
  5
22A
100
AcDbEntity
  8
1
100
AcDbDimension
  2
*D4
 10
558.69625060725343
 20
-98.53373445288347
 11
549.19668439899328
 21
60.09897875541225
 31
0.0
 53
89.99984332085471
  1
<>
  3
ME10_DIM_3
100
AcDbAlignedDimension
 13
306.82874900000002
 23
221.47023953505001
 14
260.29875399999992
 24
-98.53291846494994
 50
89.99984332085471
100
AcDbRotatedDimension
  0
DIMENSION
  5
21F
100
AcDbEntity
  8
1
100
AcDbDimension
  2
*D3
 10
436.2352540492289
 20
162.81637379937106
 11
222.5137856487919
 21
172.3163739521784
 31
0.0
 53
0.00013888888889
  1
<>
  3
ME10_DIM_2
100
AcDbAlignedDimension
 13
58.23490300000005
 23
108.7121735350501
 14
436.23525399999971
 24
93.96280653505005
100
AcDbRotatedDimension
  0
DIMENSION
  5
214
100
AcDbEntity
  8
1
100
AcDbDimension
  2
*D2
 10
-1.0000000475379
 20
-130.43924234696345
 11
247.9436961740881
 21
-120.9392425249541
 31
0.0
 53
0.00013888888889
  1
<>
  3
ME10_DIM_1
100
AcDbAlignedDimension
 13
504.00397599999991
 23
-92.17065546494996
 14
-1.0
 24
-63.95120446495002
100
AcDbRotatedDimension
  0
DIMENSION
  5
209
100
AcDbEntity
  8
1
100
AcDbDimension
  2
*D1
 10
471.08184920370502
 20
-0.00000033681583
 11
461.58184924587169
 21
58.97569859176732
 31
0.0
 53
89.99999995903445
  1
<>
  3
ME10_DIM_0
100
AcDbAlignedDimension
 13
423.49850684392209
 23
-31.00328991553108
 14
72.21960260592475
 24
-0.00000005163588
 50
89.99999995903445
100
AcDbRotatedDimension
  0
INSERT
  5
30
100
AcDbEntity
  8
0
100
AcDbBlockReference
  2
HL_712_2_R_CKSTAUVERSCS__1
 10
-208.97248900000011
 20
-910.56579575326498
  0
ENDSEC
  0
SECTION
  2
OBJECTS
  0
DICTIONARY
  5
19
100
AcDbDictionary
  3
ACAD_GROUP
350
1A
  3
ACAD_MLINESTYLE
350
1B
  0
DICTIONARY
  5
1A
102
{ACAD_REACTORS
330
19
102
}
100
AcDbDictionary
  0
DICTIONARY
  5
1B
102
{ACAD_REACTORS
330
19
102
}
100
AcDbDictionary
  3
STANDARD
350
1C
  0
MLINESTYLE
  5
1C
102
{ACAD_REACTORS
330
1B
102
}
100
AcDbMlineStyle
  2
STANDARD
 70
             0
  3

 62
             0
 51
90.0
 52
90.0
 71
             2
 49
0.5
 62
           256
  6
BYLAYER
 49
-0.5
 62
           256
  6
BYLAYER
  0
ENDSEC
  0
EOF
