  0
SECTION
  2
HEADER
  9
$ACADVER
  1
AC1014
  9
$ACADMAINTVER
 70
             0
  9
$DWGCODEPAGE
  3
ANSI_1252
  9
$INSBASE
 10
0.0
 20
0.0
 30
0.0
  9
$EXTMIN
 10
-28.0
 20
-99.09940799999993
 30
0.0
  9
$EXTMAX
 10
287.75030400000003
 20
194.212229632072
 30
0.0
  9
$LIMMIN
 10
0.0
 20
0.0
  9
$LIMMAX
 10
0.0
 20
0.0
  9
$ORTHOMODE
 70
             0
  9
$REGENMODE
 70
             1
  9
$FILLMODE
 70
             1
  9
$QTEXTMODE
 70
             0
  9
$MIRRTEXT
 70
             1
  9
$DRAGMODE
 70
             2
  9
$LTSCALE
 40
1.0
  9
$OSMODE
 70
             0
  9
$ATTMODE
 70
             1
  9
$TEXTSIZE
 40
0.2
  9
$TRACEWID
 40
0.05
  9
$TEXTSTYLE
  7
STANDARD
  9
$CLAYER
  8
0
  9
$CELTYPE
  6
CONTINUOUS
  9
$CECOLOR
 62
           256
  9
$CELTSCALE
 40
1.0
  9
$DELOBJ
 70
             1
  9
$DISPSILH
 70
             0
  9
$DIMSCALE
 40
1.0
  9
$DIMASZ
 40
0.18
  9
$DIMEXO
 40
0.0625
  9
$DIMDLI
 40
0.38
  9
$DIMRND
 40
0.0
  9
$DIMDLE
 40
0.0
  9
$DIMEXE
 40
0.18
  9
$DIMTP
 40
0.0
  9
$DIMTM
 40
0.0
  9
$DIMTXT
 40
0.18
  9
$DIMCEN
 40
0.09
  9
$DIMTSZ
 40
0.0
  9
$DIMTOL
 70
             0
  9
$DIMLIM
 70
             0
  9
$DIMTIH
 70
             1
  9
$DIMTOH
 70
             1
  9
$DIMSE1
 70
             0
  9
$DIMSE2
 70
             0
  9
$DIMTAD
 70
             0
  9
$DIMZIN
 70
             0
  9
$DIMBLK
  1

  9
$DIMASO
 70
             1
  9
$DIMSHO
 70
             1
  9
$DIMPOST
  1

  9
$DIMAPOST
  1

  9
$DIMALT
 70
             0
  9
$DIMALTD
 70
             2
  9
$DIMALTF
 40
25.4
  9
$DIMLFAC
 40
1.0
  9
$DIMTOFL
 70
             0
  9
$DIMTVP
 40
0.0
  9
$DIMTIX
 70
             0
  9
$DIMSOXD
 70
             0
  9
$DIMSAH
 70
             0
  9
$DIMBLK1
  1

  9
$DIMBLK2
  1

  9
$DIMSTYLE
  2
STANDARD
  9
$DIMCLRD
 70
             0
  9
$DIMCLRE
 70
             0
  9
$DIMCLRT
 70
             0
  9
$DIMTFAC
 40
1.0
  9
$DIMGAP
 40
0.09
  9
$DIMJUST
 70
             0
  9
$DIMSD1
 70
             0
  9
$DIMSD2
 70
             0
  9
$DIMTOLJ
 70
             1
  9
$DIMTZIN
 70
             0
  9
$DIMALTZ
 70
             0
  9
$DIMALTTZ
 70
             0
  9
$DIMFIT
 70
             3
  9
$DIMUPT
 70
             0
  9
$DIMUNIT
 70
             2
  9
$DIMDEC
 70
             4
  9
$DIMTDEC
 70
             4
  9
$DIMALTU
 70
             2
  9
$DIMALTTD
 70
             2
  9
$DIMTXSTY
  7
STANDARD
  9
$DIMAUNIT
 70
             0
  9
$LUNITS
 70
             2
  9
$LUPREC
 70
             4
  9
$SKETCHINC
 40
0.1
  9
$FILLETRAD
 40
0.0
  9
$AUNITS
 70
             0
  9
$AUPREC
 70
             0
  9
$MENU
  1
acad
  9
$ELEVATION
 40
0.0
  9
$PELEVATION
 40
0.0
  9
$THICKNESS
 40
0.0
  9
$LIMCHECK
 70
             0
  9
$BLIPMODE
 70
             1
  9
$CHAMFERA
 40
0.0
  9
$CHAMFERB
 40
0.0
  9
$CHAMFERC
 40
0.0
  9
$CHAMFERD
 40
0.0
  9
$SKPOLY
 70
             0
  9
$TDCREATE
 40
0.000000000
  9
$TDUPDATE
 40
0.000000000
  9
$TDINDWG
 40
0.0000000000
  9
$TDUSRTIMER
 40
0.0000000000
  9
$USRTIMER
 70
             1
  9
$ANGBASE
 50
0.0
  9
$ANGDIR
 70
             0
  9
$PDMODE
 70
             0
  9
$PDSIZE
 40
0.0
  9
$PLINEWID
 40
0.0
  9
$COORDS
 70
             0
  9
$SPLFRAME
 70
             0
  9
$SPLINETYPE
 70
             6
  9
$SPLINESEGS
 70
             8
  9
$ATTDIA
 70
             0
  9
$ATTREQ
 70
             1
  9
$HANDLING
 70
             1
  9
$HANDSEED
  5
D6
  9
$SURFTAB1
 70
             6
  9
$SURFTAB2
 70
             6
  9
$SURFTYPE
 70
             6
  9
$SURFU
 70
             6
  9
$SURFV
 70
             6
  9
$UCSNAME
  2

  9
$UCSORG
 10
0.0
 20
0.0
 30
0.0
  9
$UCSXDIR
 10
1.0
 20
0.0
 30
0.0
  9
$UCSYDIR
 10
0.0
 20
1.0
 30
0.0
  9
$PUCSNAME
  2

  9
$PUCSORG
 10
0.0
 20
0.0
 30
0.0
  9
$PUCSXDIR
 10
1.0
 20
0.0
 30
0.0
  9
$PUCSYDIR
 10
0.0
 20
1.0
 30
0.0
  9
$USERI1
 70
             0
  9
$USERI2
 70
             0
  9
$USERI3
 70
             0
  9
$USERI4
 70
             0
  9
$USERI5
 70
             0
  9
$USERR1
 40
12.01
  9
$USERR2
 40
0.0
  9
$USERR3
 40
0.0
  9
$USERR4
 40
0.0
  9
$USERR5
 40
0.0
  9
$WORLDVIEW
 70
             1
  9
$SHADEDGE
 70
             3
  9
$SHADEDIF
 70
            70
  9
$TILEMODE
 70
             1
  9
$MAXACTVP
 70
            16
  9
$PINSBASE
 10
0.0
 20
0.0
 30
0.0
  9
$PLIMCHECK
 70
             0
  9
$PEXTMIN
 10
1.00000000000000E+20
 20
1.00000000000000E+20
 30
1.00000000000000E+20
  9
$PEXTMAX
 10
-1.00000000000000E+20
 20
-1.00000000000000E+20
 30
-1.00000000000000E+20
  9
$PLIMMIN
 10
0.0
 20
0.0
  9
$PLIMMAX
 10
12.0
 20
9.0
  9
$UNITMODE
 70
             0
  9
$VISRETAIN
 70
             0
  9
$PLINEGEN
 70
             1
  9
$PSLTSCALE
 70
             0
  9
$TREEDEPTH
 70
          3020
  9
$PICKSTYLE
 70
             1
  9
$CMLSTYLE
  2
STANDARD
  9
$CMLJUST
 70
             0
  9
$CMLSCALE
 40
1.0
  9
$PROXYGRAPHICS
 70
             0
  9
$MEASUREMENT
 70
             1
  0
ENDSEC
  0
SECTION
  2
CLASSES
  0
CLASS
  1
LWPOLYLINE
  2
AcDbPolyline
  3
"AutoCAD"
 90
        0
280
             0
281
             1
  0
CLASS
  1
IMAGE
  2
AcDbRasterImage
  3
ISM
 90
      127
280
             0
281
             1
  0
CLASS
  1
OLE2FRAME
  2
AcDbOle2Frame
  3
""
 90
        0
280
             0
281
             1
  0
CLASS
  1
HATCH
  2
AcDbHatch
  3
"ACAD_SEDONA"
 90
        0
280
             0
281
             1
  0
CLASS
  1
DICTIONARYVAR
  2
AcDbDictionaryVar
  3
"AutoCAD"
 90
        0
280
             0
281
             0
  0
CLASS
  1
RASTERVARIABLES
  2
AcDbRasterVariables
  3
ISM
 90
        0
280
             0
281
             0
  0
CLASS
  1
IMAGEDEF
  2
AcDbRasterImageDef
  3
ISM
 90
        0
280
             0
281
             0
  0
CLASS
  1
IMAGEDEF_REACTOR
  2
AcDbRasterImageDefReactor
  3
ISM
 90
        1
280
             0
281
             0
  0
CLASS
  1
IDBUFFER
  2
AcDbIdBuffer
  3
"Acad"
 90
        0
280
             0
281
             0
  0
CLASS
  1
SPATIAL_FILTER
  2
AcDbSpatialFilter
  3
"Acad"
 90
        0
280
             0
281
             0
  0
CLASS
  1
XRECORD
  2
AcDbXrecord
  3
"<Built In>"
 90
        0
280
             0
281
             0
  0
CLASS
  1
SORTENTSTABLE
  2
AcDbSortentsTable
  3
"AutoCAD"
 90
        0
280
             0
281
             0
  0
CLASS
  1
LAYER_INDEX
  2
AcDbLayerIndex
  3
"Acad"
 90
        0
280
             0
281
             0
  0
CLASS
  1
SPATIAL_INDEX
  2
AcDbSpatialIndex
  3
"Acad"
 90
        0
280
             0
281
             0
  0
CLASS
  1
OBJECT_PTR
  2
CAseDLPNTableRecord
  3
"ASE-LPNTableRecord"
 90
        1
280
             0
281
             0
  0
CLASS
  1
LAYOUT
  2
AcDbLayout
  3
"AutoCAD 2000"
 90
        0
280
             0
281
             0
  0
CLASS
  1
PLOTSETTINGS
  2
AcDbPlotSettings
  3
"AutoCAD 2000"
 90
        0
280
             0
281
             0
  0
CLASS
  1
ACDBDICTIONARYWDFLT
  2
AcDbDictionaryWithDefault
  3
"AutoCAD 2000"
 90
        0
280
             0
281
             0
  0
CLASS
  1
ACDBPLACEHOLDER
  2
AcDbPlaceHolder
  3
"AutoCAD 2000"
 90
        0
280
             0
281
             0
  0
ENDSEC
  0
SECTION
  2
TABLES
  0
TABLE
  2
VPORT
  5
7
100
AcDbSymbolTable
 70
             1
  0
VPORT
  5
15
100
AcDbSymbolTableRecord
100
AcDbViewportTableRecord
  2
*ACTIVE
 70
             0
 10
0.0
 20
0.0
 11
1.0
 21
1.0
 12
129.87515200000001
 22
47.55641081603604
 13
0.0
 23
0.0
 14
1.0
 24
1.0
 15
0.0
 25
0.0
 16
0.0
 26
0.0
 36
1.0
 17
0.0
 27
0.0
 37
0.0
 40
322.64280139527909
 41
1.60267857142857
 42
50.0
 43
0.0
 44
0.0
 50
0.0
 51
0.0
 71
             0
 72
           100
 73
             1
 74
             1
 75
             0
 76
             0
 77
             0
 78
             0
  0
ENDTAB
  0
TABLE
  2
LTYPE
  5
4
100
AcDbSymbolTable
 70
            11
  0
LTYPE
  5
11
100
AcDbSymbolTableRecord
100
AcDbLinetypeTableRecord
  2
BYBLOCK
 70
            64
  3

 72
            65
 73
             0
 40
0.0
  0
LTYPE
  5
12
100
AcDbSymbolTableRecord
100
AcDbLinetypeTableRecord
  2
BYLAYER
 70
            64
  3

 72
            65
 73
             0
 40
0.0
  0
LTYPE
  5
13
100
AcDbSymbolTableRecord
100
AcDbLinetypeTableRecord
  2
CONTINUOUS
 70
            64
  3
Solid line
 72
            65
 73
             0
 40
0.0
  0
LTYPE
  5
1D
100
AcDbSymbolTableRecord
100
AcDbLinetypeTableRecord
  2
DASHED
 70
            64
  3
Dashed
 72
            65
 73
             2
 40
15.0
 49
7.0
 74
             0
 49
-8.0
 74
             0
  0
LTYPE
  5
1E
100
AcDbSymbolTableRecord
100
AcDbLinetypeTableRecord
  2
DOTTED
 70
            64
  3
Dotted
 72
            65
 73
             2
 40
1.0
 49
0.0
 74
             0
 49
-1.0
 74
             0
  0
LTYPE
  5
1F
100
AcDbSymbolTableRecord
100
AcDbLinetypeTableRecord
  2
DOT_CENTER
 70
            64
  3
Dot_Center
 72
            65
 73
             4
 40
14.0
 49
12.0
 74
             0
 49
-1.0
 74
             0
 49
0.0
 74
             0
 49
-1.0
 74
             0
  0
LTYPE
  5
20
100
AcDbSymbolTableRecord
100
AcDbLinetypeTableRecord
  2
LONG_DASHED
 70
            64
  3
Long_Dashed
 72
            65
 73
             2
 40
15.0
 49
10.0
 74
             0
 49
-5.0
 74
             0
  0
LTYPE
  5
21
100
AcDbSymbolTableRecord
100
AcDbLinetypeTableRecord
  2
DASH_CENTER
 70
            64
  3
Dash_Center
 72
            65
 73
             4
 40
14.0
 49
11.0
 74
             0
 49
-1.0
 74
             0
 49
1.0
 74
             0
 49
-1.0
 74
             0
  0
LTYPE
  5
22
100
AcDbSymbolTableRecord
100
AcDbLinetypeTableRecord
  2
PHANTOM
 70
            64
  3
Phantom
 72
            65
 73
             6
 40
13.0
 49
10.0
 74
             0
 49
-1.0
 74
             0
 49
0.0
 74
             0
 49
-1.0
 74
             0
 49
0.0
 74
             0
 49
-1.0
 74
             0
  0
LTYPE
  5
23
100
AcDbSymbolTableRecord
100
AcDbLinetypeTableRecord
  2
CENTER_DASH_DASH
 70
            64
  3
Center_Dash_Dash
 72
            65
 73
             6
 40
14.0
 49
9.0
 74
             0
 49
-1.0
 74
             0
 49
1.0
 74
             0
 49
-1.0
 74
             0
 49
1.0
 74
             0
 49
-1.0
 74
             0
  0
LTYPE
  5
24
100
AcDbSymbolTableRecord
100
AcDbLinetypeTableRecord
  2
DASHDOT
 70
            64
  3
DASHDOT
 72
            65
 73
             4
 40
16.0
 49
10.0
 74
             0
 49
-3.0
 74
             0
 49
0.0
 74
             0
 49
-3.0
 74
             0
  0
ENDTAB
  0
TABLE
  2
LAYER
  5
2
100
AcDbSymbolTable
 70
             7
  0
LAYER
  5
14
100
AcDbSymbolTableRecord
100
AcDbLayerTableRecord
  2
0
 70
             0
 62
             7
  6
CONTINUOUS
  0
LAYER
  5
25
100
AcDbSymbolTableRecord
100
AcDbLayerTableRecord
  2
1
 70
             0
 62
             7
  6
CONTINUOUS
  0
LAYER
  5
26
100
AcDbSymbolTableRecord
100
AcDbLayerTableRecord
  2
LC-002-002-----0
 70
             0
 62
             7
  6
CONTINUOUS
  0
LAYER
  5
27
100
AcDbSymbolTableRecord
100
AcDbLayerTableRecord
  2
LC-003-002-----0
 70
             0
 62
             7
  6
CONTINUOUS
  0
LAYER
  5
28
100
AcDbSymbolTableRecord
100
AcDbLayerTableRecord
  2
LC-004-002-RND-0
 70
             0
 62
             7
  6
CONTINUOUS
  0
LAYER
  5
29
100
AcDbSymbolTableRecord
100
AcDbLayerTableRecord
  2
LC-005-005-----0
 70
             0
 62
             7
  6
CONTINUOUS
  0
LAYER
  5
2A
100
AcDbSymbolTableRecord
100
AcDbLayerTableRecord
  2
LC-007-003-----0
 70
             0
 62
             7
  6
CONTINUOUS
  0
ENDTAB
  0
TABLE
  2
STYLE
  5
3
100
AcDbSymbolTable
 70
             2
  0
STYLE
  5
17
100
AcDbSymbolTableRecord
100
AcDbTextStyleTableRecord
  2
STANDARD
 70
             0
 40
0.0
 41
1.0
 50
0.0
 71
             0
 42
0.0
  3
txt
  4

  0
STYLE
  5
AF
100
AcDbSymbolTableRecord
100
AcDbTextStyleTableRecord
  2
CONVERTER_1
 70
             0
 40
0.0
 41
0.9
 50
0.0
 71
             0
 42
0.0
  3
txt.shx
  4

  0
ENDTAB
  0
TABLE
  2
VIEW
  5
5
100
AcDbSymbolTable
 70
             0
  0
ENDTAB
  0
TABLE
  2
UCS
  5
6
100
AcDbSymbolTable
 70
             0
  0
ENDTAB
  0
TABLE
  2
APPID
  5
8
100
AcDbSymbolTable
 70
             1
  0
APPID
  5
16
100
AcDbSymbolTableRecord
100
AcDbRegAppTableRecord
  2
ACAD
 70
             0
  0
ENDTAB
  0
TABLE
  2
DIMSTYLE
  5
9
100
AcDbSymbolTable
 70
             5
  0
DIMSTYLE
105
18
100
AcDbSymbolTableRecord
100
AcDbDimStyleTableRecord
  2
STANDARD
 70
             0
  3

  4

  5

  6

  7

 40
1.0
 41
0.18
 42
0.0625
 43
0.38
 44
0.18
 45
0.0
 46
0.0
 47
0.0
 48
0.0
 71
             0
 72
             0
 73
             1
 74
             1
 75
             0
 76
             0
 77
             0
 78
             0
140
0.18
141
0.09
142
0.0
143
25.4
144
1.0
145
0.0
146
1.0
147
0.09
170
             0
171
             2
172
             0
173
             0
174
             0
175
             0
176
             0
177
             0
178
             0
270
             2
271
             4
272
             4
273
             2
274
             2
275
             0
280
             0
281
             0
282
             0
283
             1
284
             0
285
             0
286
             0
287
             3
288
             0
340
17
  0
DIMSTYLE
105
B2
100
AcDbSymbolTableRecord
100
AcDbDimStyleTableRecord
  2
ME10_DIM_0
 70
             0
  3

  4

  5

  6

  7

 40
1.0
 41
12.0
 42
0.0
 43
0.38
 44
2.0
 45
0.0
 46
0.0
 47
0.0
 48
0.0
 71
             0
 72
             0
 73
             0
 74
             0
 75
             0
 76
             0
 77
             1
 78
             8
140
12.0
141
0.09
142
0.0
143
25.4
144
1.0
145
0.0
146
1.0
147
0.625
170
             0
171
             2
172
             1
173
             1
174
             0
175
             0
176
             4
177
             4
178
             1
270
             2
271
             2
272
             4
273
             2
274
             2
275
             0
280
             0
281
             0
282
             0
283
             1
284
             0
285
             0
286
             0
287
             3
288
             0
340
AF
  0
DIMSTYLE
105
BD
100
AcDbSymbolTableRecord
100
AcDbDimStyleTableRecord
  2
ME10_DIM_1
 70
             0
  3
DN<>
  4

  5

  6

  7

 40
1.0
 41
12.0
 42
0.0
 43
0.38
 44
2.0
 45
0.0
 46
0.0
 47
0.0
 48
0.0
 71
             0
 72
             0
 73
             0
 74
             0
 75
             0
 76
             0
 77
             1
 78
             8
140
12.0
141
0.09
142
0.0
143
25.4
144
1.0
145
0.0
146
1.0
147
0.625
170
             0
171
             2
172
             1
173
             1
174
             0
175
             0
176
             4
177
             4
178
             1
270
             2
271
             2
272
             4
273
             2
274
             2
275
             0
280
             0
281
             0
282
             0
283
             1
284
             0
285
             0
286
             0
287
             3
288
             0
340
AF
  0
DIMSTYLE
105
C8
100
AcDbSymbolTableRecord
100
AcDbDimStyleTableRecord
  2
ME10_DIM_2
 70
             0
  3

  4

  5

  6

  7

 40
1.0
 41
12.0
 42
0.0
 43
0.38
 44
2.0
 45
0.0
 46
0.0
 47
0.0
 48
0.0
 71
             0
 72
             0
 73
             0
 74
             0
 75
             0
 76
             0
 77
             1
 78
             8
140
12.0
141
0.09
142
0.0
143
25.4
144
1.0
145
0.0
146
1.0
147
0.625
170
             0
171
             2
172
             1
173
             1
174
             0
175
             0
176
             4
177
             4
178
             1
270
             2
271
             2
272
             4
273
             2
274
             2
275
             0
280
             0
281
             0
282
             0
283
             1
284
             0
285
             0
286
             0
287
             3
288
             0
340
AF
  0
DIMSTYLE
105
D3
100
AcDbSymbolTableRecord
100
AcDbDimStyleTableRecord
  2
ME10_DIM_3
 70
             0
  3

  4

  5

  6

  7

 40
1.0
 41
12.0
 42
0.0
 43
0.38
 44
2.0
 45
0.0
 46
0.0
 47
0.0
 48
0.0
 71
             0
 72
             0
 73
             0
 74
             0
 75
             0
 76
             0
 77
             1
 78
             8
140
12.0
141
0.09
142
0.0
143
25.4
144
1.0
145
0.0
146
1.0
147
0.625
170
             0
171
             2
172
             1
173
             1
174
             0
175
             0
176
             4
177
             4
178
             1
270
             2
271
             2
272
             4
273
             2
274
             2
275
             0
280
             0
281
             0
282
             0
283
             1
284
             0
285
             0
286
             0
287
             3
288
             0
340
AF
  0
ENDTAB
  0
TABLE
  2
BLOCK_RECORD
  5
1
100
AcDbSymbolTable
 70
             5
  0
BLOCK_RECORD
  5
A
100
AcDbSymbolTableRecord
100
AcDbBlockTableRecord
  2
*MODEL_SPACE
  0
BLOCK_RECORD
  5
B
100
AcDbSymbolTableRecord
100
AcDbBlockTableRecord
  2
*PAPER_SPACE
  0
BLOCK_RECORD
  5
2B
100
AcDbSymbolTableRecord
100
AcDbBlockTableRecord
  2
HL_715_0_FROSCHKLAPPE__1
  0
BLOCK_RECORD
  5
A8
100
AcDbSymbolTableRecord
100
AcDbBlockTableRecord
  2
*D1
  0
BLOCK_RECORD
  5
B4
100
AcDbSymbolTableRecord
100
AcDbBlockTableRecord
  2
*D2
  0
BLOCK_RECORD
  5
BF
100
AcDbSymbolTableRecord
100
AcDbBlockTableRecord
  2
*D3
  0
BLOCK_RECORD
  5
CA
100
AcDbSymbolTableRecord
100
AcDbBlockTableRecord
  2
*D4
  0
ENDTAB
  0
ENDSEC
  0
SECTION
  2
BLOCKS
  0
BLOCK
  5
D
100
AcDbEntity
  8
0
100
AcDbBlockBegin
  2
*MODEL_SPACE
 70
             0
 10
0.0
 20
0.0
 30
0.0
  3
*MODEL_SPACE
  1

  0
ENDBLK
  5
E
100
AcDbEntity
  8
0
100
AcDbBlockEnd
  0
BLOCK
  5
F
100
AcDbEntity
 67
             1
  8
0
100
AcDbBlockBegin
  2
*PAPER_SPACE
 70
             0
 10
0.0
 20
0.0
 30
0.0
  3
*PAPER_SPACE
  1

  0
ENDBLK
  5
10
100
AcDbEntity
 67
             1
  8
0
100
AcDbBlockEnd
  0
BLOCK
  5
2C
100
AcDbEntity
  8
0
100
AcDbBlockBegin
  2
HL_715_0_FROSCHKLAPPE__1
 70
             0
 10
-629.33158210810109
 20
-1315.153287757428
 30
0.0
  3
HL_715_0_FROSCHKLAPPE__1
  1

  0
ARC
  5
A5
100
AcDbEntity
  8
LC-004-002-RND-0
  6
CONTINUOUS
 62
             7
100
AcDbCircle
 10
13.0
 20
-89.5
 40
4.0
100
AcDbArc
 50
180.0
 51
-90.0
  0
ARC
  5
A4
100
AcDbEntity
  8
LC-004-002-RND-0
  6
CONTINUOUS
 62
             7
100
AcDbCircle
 10
25.0
 20
-89.5
 40
4.0
100
AcDbArc
 50
-90.0
 51
0.0
  0
ARC
  5
A3
100
AcDbEntity
  8
LC-004-002-RND-0
  6
CONTINUOUS
 62
             7
100
AcDbCircle
 10
13.0
 20
89.5
 40
4.0
100
AcDbArc
 50
90.0
 51
180.0
  0
ARC
  5
A2
100
AcDbEntity
  8
LC-004-002-RND-0
  6
CONTINUOUS
 62
             7
100
AcDbCircle
 10
25.0
 20
89.5
 40
4.00000000000001
100
AcDbArc
 50
0.0
 51
90.0
  0
ARC
  5
A1
100
AcDbEntity
  8
LC-004-002-RND-0
  6
CONTINUOUS
 62
             7
100
AcDbCircle
 10
127.1992080000001
 20
-95.099244
 40
4.00000000000051
100
AcDbArc
 50
-89.99965999996884
 51
0.0
  0
ARC
  5
A0
100
AcDbEntity
  8
LC-004-002-RND-0
  6
CONTINUOUS
 62
             7
100
AcDbCircle
 10
131.69920800000011
 20
-94.60000500000001
 40
0.50000000000015
100
AcDbArc
 50
89.99995499990753
 51
180.0
  0
ARC
  5
9F
100
AcDbEntity
  8
LC-004-002-RND-0
  6
CONTINUOUS
 62
             7
100
AcDbCircle
 10
96.64554500000003
 20
-95.09940799999993
 40
4.00000000000051
100
AcDbArc
 50
-179.00027299999411
 51
-89.99967699999941
  0
ARC
  5
9E
100
AcDbEntity
  8
LC-004-002-RND-0
  6
CONTINUOUS
 62
             7
100
AcDbCircle
 10
88.64349000000004
 20
117.39963399999991
 40
3.5
100
AcDbArc
 50
90.0
 51
177.99999999999619
  0
ARC
  5
9D
100
AcDbEntity
  8
LC-004-002-RND-0
  6
CONTINUOUS
 62
             7
100
AcDbCircle
 10
99.93217500000003
 20
123.89963399999991
 40
2.0
100
AcDbArc
 50
90.0
 51
180.0
  0
ARC
  5
9C
100
AcDbEntity
  8
LC-004-002-RND-0
  6
CONTINUOUS
 62
             7
100
AcDbCircle
 10
137.49981
 20
95.39963399999999
 40
0.5
100
AcDbArc
 50
-90.0
 51
0.0
  0
ARC
  5
9B
100
AcDbEntity
  8
LC-004-002-RND-0
  6
CONTINUOUS
 62
             7
100
AcDbCircle
 10
118.49981
 20
95.39963399999999
 40
0.5
100
AcDbArc
 50
180.0
 51
-90.0
  0
ARC
  5
9A
100
AcDbEntity
  8
LC-004-002-RND-0
  6
CONTINUOUS
 62
             7
100
AcDbCircle
 10
118.49981
 20
102.39963400000001
 40
0.5
100
AcDbArc
 50
90.0
 51
180.0
  0
ARC
  5
99
100
AcDbEntity
  8
LC-004-002-RND-0
  6
CONTINUOUS
 62
             7
100
AcDbCircle
 10
137.49981
 20
102.39963400000001
 40
0.5
100
AcDbArc
 50
0.0
 51
90.0
  0
ARC
  5
98
100
AcDbEntity
  8
LC-004-002-RND-0
  6
CONTINUOUS
 62
             7
100
AcDbCircle
 10
118.49981
 20
110.39963400000001
 40
0.5
100
AcDbArc
 50
90.0
 51
180.0
  0
ARC
  5
97
100
AcDbEntity
  8
LC-004-002-RND-0
  6
CONTINUOUS
 62
             7
100
AcDbCircle
 10
137.49981
 20
110.39963400000001
 40
0.5
100
AcDbArc
 50
0.0
 51
90.0
  0
ARC
  5
96
100
AcDbEntity
  8
LC-004-002-RND-0
  6
CONTINUOUS
 62
             7
100
AcDbCircle
 10
118.49981
 20
103.39963400000001
 40
0.5
100
AcDbArc
 50
180.0
 51
-90.0
  0
ARC
  5
95
100
AcDbEntity
  8
LC-004-002-RND-0
  6
CONTINUOUS
 62
             7
100
AcDbCircle
 10
137.49981
 20
103.39963400000001
 40
0.5
100
AcDbArc
 50
-90.0
 51
0.0
  0
ARC
  5
94
100
AcDbEntity
  8
LC-003-002-----0
  6
CONTINUOUS
 62
             7
100
AcDbCircle
 10
128.00517500000001
 20
83.14330499999997
 40
61.7563279999988
100
AcDbArc
 50
71.2847010000027
 51
108.72565599999977
  0
ARC
  5
93
100
AcDbEntity
  8
LC-003-002-----0
  6
CONTINUOUS
 62
             7
100
AcDbCircle
 10
117.06920599999999
 20
159.51334299999991
 40
24.35759900000042
100
AcDbArc
 50
-113.13242600000011
 51
-69.74244700000816
  0
ARC
  5
92
100
AcDbEntity
  8
LC-003-002-----0
  6
CONTINUOUS
 62
             7
100
AcDbCircle
 10
138.930757
 20
159.5134589999999
 40
24.35759899999913
100
AcDbArc
 50
-110.25759099999136
 51
-66.86761099998988
  0
ARC
  5
91
100
AcDbEntity
  8
LC-003-002-----0
  6
CONTINUOUS
 62
             7
100
AcDbCircle
 10
147.49980999999991
 20
140.68711999999999
 40
1.0
100
AcDbArc
 50
0.0
 51
71.28470000020099
  0
ARC
  5
90
100
AcDbEntity
  8
LC-003-002-----0
  6
CONTINUOUS
 62
             7
100
AcDbCircle
 10
138.933312
 20
118.2833769999999
 40
24.35759899999861
100
AcDbArc
 50
66.87414800000953
 51
110.25728699999841
  0
ARC
  5
8F
100
AcDbEntity
  8
LC-003-002-----0
  6
CONTINUOUS
 62
             7
100
AcDbCircle
 10
108.500137
 20
137.1035259999999
 40
1.00000000000021
100
AcDbArc
 50
179.9999629999904
 51
-110.00011399998705
  0
ARC
  5
8E
100
AcDbEntity
  8
LC-003-002-----0
  6
CONTINUOUS
 62
             7
100
AcDbCircle
 10
108.50014
 20
140.68359599999991
 40
1.00000000000029
100
AcDbArc
 50
108.72563699997953
 51
179.9999629999904
  0
ARC
  5
8D
100
AcDbEntity
  8
LC-003-002-----0
  6
CONTINUOUS
 62
             7
100
AcDbCircle
 10
147.49980999999991
 20
137.10363599999999
 40
0.99999999999925
100
AcDbArc
 50
-69.99986700009332
 51
0.0
  0
ARC
  5
8C
100
AcDbEntity
  8
LC-003-002-----0
  6
CONTINUOUS
 62
             7
100
AcDbCircle
 10
117.06662300000011
 20
118.2832609999999
 40
24.35759899999923
100
AcDbArc
 50
69.74267600000279
 51
113.12581500000009
  0
ARC
  5
8B
100
AcDbEntity
  8
LC-002-002-----0
  6
CONTINUOUS
 62
             7
100
AcDbCircle
 10
-334.9990719999999
 20
21.345685
 40
500.00000000000006
100
AcDbArc
 50
-13.34955860716099
 51
0.0
  0
ARC
  5
8A
100
AcDbEntity
  8
LC-004-002-RND-0
  6
DASHED
 62
             7
100
AcDbCircle
 10
201.98472300000009
 20
99.35266000000001
 40
0.49999999999632
100
AcDbArc
 50
3.00011799996897
 51
93.0001179994992
  0
ARC
  5
89
100
AcDbEntity
  8
LC-004-002-RND-0
  6
DASHED
 62
             7
100
AcDbCircle
 10
201.9716469999999
 20
99.35197500000004
 40
1.49999999999935
100
AcDbArc
 50
3.00011799998732
 51
93.0001170000242
  0
ARC
  5
88
100
AcDbEntity
  8
LC-004-002-RND-0
  6
DASHED
 62
             7
100
AcDbCircle
 10
204.0797499999999
 20
97.59186599999998
 40
1.49999999999907
100
AcDbArc
 50
-176.99988200001212
 51
-99.57178000010212
  0
ARC
  5
87
100
AcDbEntity
  8
LC-004-002-RND-0
  6
DASHED
 62
             7
100
AcDbCircle
 10
282.91923600000001
 20
54.53901399999995
 40
3.0000000000027
100
AcDbArc
 50
178.00000000001131
 51
-101.99999999994107
  0
ARC
  5
86
100
AcDbEntity
  8
LC-004-002-RND-0
  6
DASHED
 62
             7
100
AcDbCircle
 10
282.91923600000001
 20
54.53901399999995
 40
4.0000000000037
100
AcDbArc
 50
178.00000000000148
 51
-101.99999999998772
  0
ARC
  5
85
100
AcDbEntity
  8
LC-004-002-RND-0
  6
DASHED
 62
             7
100
AcDbCircle
 10
275.38392299999992
 20
67.985546
 40
4.0000000000037
100
AcDbArc
 50
-1.99999999999854
 51
62.54489600002746
  0
ARC
  5
84
100
AcDbEntity
  8
LC-004-002-RND-0
  6
DASHED
 62
             7
100
AcDbCircle
 10
285.86725899999988
 20
51.35654099999999
 40
1.500000000001
100
AcDbArc
 50
-102.00000000012139
 51
-12.00000000001688
  0
ARC
  5
83
100
AcDbEntity
  8
LC-004-002-RND-0
  6
DASHED
 62
             7
100
AcDbCircle
 10
162.42583500000009
 20
-149.42068699999999
 40
250.00000000000244
100
AcDbArc
 50
62.54489599999907
 51
80.33978100000078
  0
ARC
  5
82
100
AcDbEntity
  8
LC-004-002-RND-0
  6
DASHED
 62
             7
100
AcDbCircle
 10
275.38392299999992
 20
67.985546
 40
5.00000000000467
100
AcDbArc
 50
-1.99999999999266
 51
62.54489600002685
  0
ARC
  5
81
100
AcDbEntity
  8
LC-004-002-RND-0
  6
DASHED
 62
             7
100
AcDbCircle
 10
184.574095
 20
99.94223099999999
 40
1.49999999999905
100
AcDbArc
 50
3.00011699999144
 51
159.42193899998983
  0
ARC
  5
80
100
AcDbEntity
  8
LC-004-002-RND-0
  6
DASHED
 62
             7
100
AcDbCircle
 10
182.23361000000011
 20
100.820939
 40
1.00000000000037
100
AcDbArc
 50
-86.99988299997516
 51
-20.57806099999429
  0
ARC
  5
7F
100
AcDbEntity
  8
LC-004-002-RND-0
  6
DASHED
 62
             7
100
AcDbCircle
 10
285.86725899999988
 20
51.35654099999999
 40
0.50000000000031
100
AcDbArc
 50
-102.00000000010857
 51
-11.99999999993772
  0
ARC
  5
7E
100
AcDbEntity
  8
LC-004-002-RND-0
  6
DASHED
 62
             7
100
AcDbCircle
 10
162.42583500000009
 20
-149.42068699999999
 40
248.99999999999818
100
AcDbArc
 50
62.54489600000103
 51
80.42821999999971
  0
ARC
  5
7D
100
AcDbEntity
  8
LC-004-002-RND-0
  6
DASHED
 62
             7
100
AcDbCircle
 10
204.5448770000001
 20
98.02018699999996
 40
1.00000000000306
100
AcDbArc
 50
-176.99988200000362
 51
-99.66021899972463
  0
LINE
  5
7C
100
AcDbEntity
  8
LC-003-002-----0
  6
CONTINUOUS
 62
             7
100
AcDbLine
 10
0.0
 20
81.0
 11
0.0
 21
-81.0
  0
LINE
  5
7B
100
AcDbEntity
  8
LC-003-002-----0
  6
CONTINUOUS
 62
             7
100
AcDbLine
 10
92.46433500000006
 20
-84.75
 11
29.00000000000001
 21
-84.75
  0
LINE
  5
7A
100
AcDbEntity
  8
LC-003-002-----0
  6
CONTINUOUS
 62
             7
100
AcDbLine
 10
9.0
 20
89.5
 11
9.0
 21
-85.0
  0
LINE
  5
79
100
AcDbEntity
  8
LC-003-002-----0
  6
CONTINUOUS
 62
             7
100
AcDbLine
 10
9.0
 20
-89.5
 11
9.0
 21
-85.0
  0
LINE
  5
78
100
AcDbEntity
  8
LC-003-002-----0
  6
CONTINUOUS
 62
             7
100
AcDbLine
 10
131.19920800000011
 20
-94.60000500000001
 11
131.19920800000011
 21
-95.099244
  0
LINE
  5
77
100
AcDbEntity
  8
LC-003-002-----0
  6
CONTINUOUS
 62
             7
100
AcDbLine
 10
131.69920900000011
 20
-94.10000600000001
 11
151.49069036809971
 21
-94.10002133431999
  0
LINE
  5
76
100
AcDbEntity
  8
LC-003-002-----0
  6
CONTINUOUS
 62
             7
100
AcDbLine
 10
96.64556699999997
 20
-99.09940799999993
 11
127.207454
 21
-99.09923600000002
  0
LINE
  5
75
100
AcDbEntity
  8
LC-003-002-----0
  6
CONTINUOUS
 62
             7
100
AcDbLine
 10
29.00000000000001
 20
-84.75
 11
29.00000000000001
 21
89.5
  0
LINE
  5
74
100
AcDbEntity
  8
LC-003-002-----0
  6
CONTINUOUS
 62
             7
100
AcDbLine
 10
29.00000000000001
 20
-84.75
 11
29.00000000000001
 21
-89.5
  0
LINE
  5
73
100
AcDbEntity
  8
LC-003-002-----0
  6
CONTINUOUS
 62
             7
100
AcDbLine
 10
0.0
 20
-85.0
 11
0.0
 21
-81.0
  0
LINE
  5
72
100
AcDbEntity
  8
LC-003-002-----0
  6
CONTINUOUS
 62
             7
100
AcDbLine
 10
25.0
 20
-93.5
 11
13.0
 21
-93.5
  0
LINE
  5
71
100
AcDbEntity
  8
LC-003-002-----0
  6
CONTINUOUS
 62
             7
100
AcDbLine
 10
92.46433500000006
 20
-84.75
 11
92.64615399999997
 21
-95.16919799999994
  0
LINE
  5
70
100
AcDbEntity
  8
LC-003-002-----0
  6
CONTINUOUS
 62
             7
100
AcDbLine
 10
25.0
 20
93.5
 11
13.0
 21
93.5
  0
LINE
  5
6F
100
AcDbEntity
  8
LC-003-002-----0
  6
CONTINUOUS
 62
             7
100
AcDbLine
 10
89.53833700000001
 20
84.75
 11
29.00000000000001
 21
84.75
  0
LINE
  5
6E
100
AcDbEntity
  8
LC-003-002-----0
  6
CONTINUOUS
 62
             7
100
AcDbLine
 10
9.0
 20
-85.0
 11
0.0
 21
-85.0
  0
LINE
  5
6D
100
AcDbEntity
  8
LC-003-002-----0
  6
CONTINUOUS
 62
             7
100
AcDbLine
 10
0.0
 20
85.0
 11
0.0
 21
81.0
  0
LINE
  5
6C
100
AcDbEntity
  8
LC-003-002-----0
  6
CONTINUOUS
 62
             7
100
AcDbLine
 10
9.0
 20
85.0
 11
0.0
 21
85.0
  0
LINE
  5
6B
100
AcDbEntity
  8
LC-003-002-----0
  6
CONTINUOUS
 62
             7
100
AcDbLine
 10
89.18979200000007
 20
102.89963
 11
92.46433500000006
 21
-84.75
  0
LINE
  5
6A
100
AcDbEntity
  8
LC-005-005-----0
  6
DASHDOT
 62
             2
100
AcDbLine
 10
127.99981
 20
69.46695999999997
 11
127.99981
 21
144.89963399999991
  0
LINE
  5
69
100
AcDbEntity
  8
LC-004-002-RND-0
  6
CONTINUOUS
 62
             7
100
AcDbLine
 10
87.99736899999999
 20
102.89963400000001
 11
165.0009280000001
 21
102.89963400000001
  0
LINE
  5
68
100
AcDbEntity
  8
LC-004-002-RND-0
  6
CONTINUOUS
 62
             7
100
AcDbLine
 10
87.99736899999999
 20
102.89963400000001
 11
84.99738700000006
 21
102.89963400000001
  0
LINE
  5
67
100
AcDbEntity
  8
LC-004-002-RND-0
  6
CONTINUOUS
 62
             7
100
AcDbLine
 10
97.93217500000003
 20
120.89963399999991
 11
97.93217500000003
 21
123.89963399999991
  0
LINE
  5
66
100
AcDbEntity
  8
LC-004-002-RND-0
  6
CONTINUOUS
 62
             7
100
AcDbLine
 10
84.99738700000006
 20
102.89963400000001
 11
85.14562199999999
 21
117.5217819999999
  0
LINE
  5
65
100
AcDbEntity
  8
LC-003-002-----0
  6
CONTINUOUS
 62
             7
100
AcDbLine
 10
131.69920900000011
 20
-94.10000500000001
 11
131.69920900000011
 21
-3.09999900000002
  0
LINE
  5
64
100
AcDbEntity
  8
LC-003-002-----0
  6
CONTINUOUS
 62
             7
100
AcDbLine
 10
126.496269
 20
94.89963399999999
 11
126.496269
 21
69.46695999999997
  0
LINE
  5
63
100
AcDbEntity
  8
LC-003-002-----0
  6
CONTINUOUS
 62
             7
100
AcDbLine
 10
118.49981
 20
94.89963399999999
 11
137.49981
 21
94.89963399999999
  0
LINE
  5
62
100
AcDbEntity
  8
LC-003-002-----0
  6
CONTINUOUS
 62
             7
100
AcDbLine
 10
117.99981
 20
102.39963400000001
 11
117.99981
 21
95.39963399999999
  0
LINE
  5
61
100
AcDbEntity
  8
LC-003-002-----0
  6
CONTINUOUS
 62
             7
100
AcDbLine
 10
137.99981
 20
95.39963399999999
 11
137.99981
 21
102.39963400000001
  0
LINE
  5
60
100
AcDbEntity
  8
LC-003-002-----0
  6
CONTINUOUS
 62
             7
100
AcDbLine
 10
118.500134
 20
110.89964000000001
 11
137.49981
 21
110.899627
  0
LINE
  5
5F
100
AcDbEntity
  8
LC-003-002-----0
  6
CONTINUOUS
 62
             7
100
AcDbLine
 10
129.49626900000001
 20
94.89963399999999
 11
129.49626900000001
 21
69.46695999999997
  0
LINE
  5
5E
100
AcDbEntity
  8
LC-003-002-----0
  6
CONTINUOUS
 62
             7
100
AcDbLine
 10
126.496269
 20
69.46695999999997
 11
129.49626900000001
 21
69.46695999999997
  0
LINE
  5
5D
100
AcDbEntity
  8
LC-003-002-----0
  6
CONTINUOUS
 62
             7
100
AcDbLine
 10
118.49981
 20
110.89963400000001
 11
137.49981
 21
110.89963400000001
  0
LINE
  5
5C
100
AcDbEntity
  8
LC-003-002-----0
  6
CONTINUOUS
 62
             7
100
AcDbLine
 10
137.99981
 20
103.39963400000001
 11
137.99981
 21
110.39963400000001
  0
LINE
  5
5B
100
AcDbEntity
  8
LC-003-002-----0
  6
CONTINUOUS
 62
             7
100
AcDbLine
 10
117.99981
 20
103.39963400000001
 11
117.99981
 21
110.39963400000001
  0
LINE
  5
5A
100
AcDbEntity
  8
LC-003-002-----0
  6
CONTINUOUS
 62
             7
100
AcDbLine
 10
107.500137
 20
137.1035269999999
 11
107.50014
 21
140.68359599999991
  0
LINE
  5
59
100
AcDbEntity
  8
LC-003-002-----0
  6
CONTINUOUS
 62
             7
100
AcDbLine
 10
130.500137
 20
136.6638189999999
 11
125.52047899999999
 21
136.66382299999989
  0
LINE
  5
58
100
AcDbEntity
  8
LC-003-002-----0
  6
CONTINUOUS
 62
             7
100
AcDbLine
 10
125.500137
 20
136.66382299999989
 11
125.50014
 21
141.13426599999991
  0
LINE
  5
57
100
AcDbEntity
  8
LC-003-002-----0
  6
CONTINUOUS
 62
             7
100
AcDbLine
 10
130.50013999999999
 20
141.13426299999989
 11
125.50014
 21
141.13426599999991
  0
LINE
  5
56
100
AcDbEntity
  8
LC-003-002-----0
  6
CONTINUOUS
 62
             7
100
AcDbLine
 10
130.500137
 20
136.6638189999999
 11
130.50013999999999
 21
141.13426299999989
  0
LINE
  5
55
100
AcDbEntity
  8
LC-003-002-----0
  6
CONTINUOUS
 62
             7
100
AcDbLine
 10
137.49981
 20
132.39975599999991
 11
147.8418310000001
 21
136.1639429999999
  0
LINE
  5
54
100
AcDbEntity
  8
LC-003-002-----0
  6
CONTINUOUS
 62
             7
100
AcDbLine
 10
137.49981
 20
132.39975599999991
 11
127.99981
 21
132.39975599999991
  0
LINE
  5
53
100
AcDbEntity
  8
LC-003-002-----0
  6
CONTINUOUS
 62
             7
100
AcDbLine
 10
118.500134
 20
132.39963999999989
 11
108.1581170000001
 21
136.16383399999989
  0
LINE
  5
52
100
AcDbEntity
  8
LC-003-002-----0
  6
CONTINUOUS
 62
             7
100
AcDbLine
 10
118.500134
 20
132.39963999999989
 11
128.000134
 21
132.39963399999991
  0
LINE
  5
51
100
AcDbEntity
  8
LC-003-002-----0
  6
CONTINUOUS
 62
             7
100
AcDbLine
 10
137.49981
 20
110.899627
 11
137.49981
 21
132.39975599999991
  0
LINE
  5
50
100
AcDbEntity
  8
LC-003-002-----0
  6
CONTINUOUS
 62
             7
100
AcDbLine
 10
148.49980999999991
 20
137.10363599999999
 11
148.49980999999991
 21
140.68711999999999
  0
LINE
  5
4F
100
AcDbEntity
  8
LC-003-002-----0
  6
CONTINUOUS
 62
             7
100
AcDbLine
 10
118.50012099999999
 20
110.89964000000001
 11
118.500134
 21
132.39963999999989
  0
LINE
  5
4E
100
AcDbEntity
  8
LC-004-002-RND-0
  6
CONTINUOUS
 62
             7
100
AcDbLine
 10
118.50013
 20
125.89963399999991
 11
99.93217500000003
 21
125.89963399999991
  0
LINE
  5
4D
100
AcDbEntity
  8
LC-004-002-RND-0
  6
CONTINUOUS
 62
             7
100
AcDbLine
 10
118.50012700000001
 20
120.89963399999991
 11
88.64349000000004
 21
120.89963399999991
  0
LINE
  5
4C
100
AcDbEntity
  8
LC-004-002-RND-0
  6
CONTINUOUS
 62
             7
100
AcDbLine
 10
165.0009280000001
 20
125.89963399999991
 11
137.49981
 21
125.89963399999991
  0
LINE
  5
4B
100
AcDbEntity
  8
1
  6
CONTINUOUS
 62
             3
100
AcDbLine
 10
13.0
 20
-89.5
 11
13.0
 21
89.5
  0
LINE
  5
4A
100
AcDbEntity
  8
1
  6
CONTINUOUS
 62
             3
100
AcDbLine
 10
25.0
 20
89.5
 11
25.0
 21
-89.5
  0
LINE
  5
49
100
AcDbEntity
  8
1
  6
PHANTOM
 62
             2
100
AcDbLine
 10
97.9846717244529
 20
0.0
 11
-4.46143071512851
 21
0.0
  0
LINE
  5
48
100
AcDbEntity
  8
1
  6
DOT_CENTER
 62
             2
100
AcDbLine
 10
-6.0
 20
80.0
 11
-3.0
 21
80.0
  0
LINE
  5
47
100
AcDbEntity
  8
1
  6
DOT_CENTER
 62
             2
100
AcDbLine
 10
-6.0
 20
-80.0
 11
-3.0
 21
-80.0
  0
LINE
  5
46
100
AcDbEntity
  8
LC-002-002-----0
  6
CONTINUOUS
 62
             7
100
AcDbLine
 10
165.0009280000001
 20
21.345685
 11
165.0009280000001
 21
102.89963400000001
  0
LINE
  5
45
100
AcDbEntity
  8
1
  6
CONTINUOUS
 62
             7
100
AcDbLine
 10
165.0009280000001
 20
125.89963399999991
 11
165.0009280000001
 21
120.89963399999991
  0
LINE
  5
44
100
AcDbEntity
  8
LC-004-002-RND-0
  6
DASHED
 62
             7
100
AcDbLine
 10
278.92167300000011
 20
54.67861200000004
 11
279.38148699999988
 21
67.84594800000002
  0
LINE
  5
43
100
AcDbEntity
  8
LC-004-002-RND-0
  6
DASHED
 62
             7
100
AcDbLine
 10
285.55539099999987
 20
49.88932
 11
282.08758999999992
 21
50.62642400000004
  0
LINE
  5
42
100
AcDbEntity
  8
LC-004-002-RND-0
  6
DASHED
 62
             7
100
AcDbLine
 10
287.33447999999999
 20
51.04467399999999
 11
287.75030400000003
 21
53.00096900000006
  0
LINE
  5
41
100
AcDbEntity
  8
LC-004-002-RND-0
  6
DASHED
 62
             7
100
AcDbLine
 10
286.77215600000011
 20
53.20888100000002
 11
287.75030400000003
 21
53.00096900000006
  0
LINE
  5
40
100
AcDbEntity
  8
LC-004-002-RND-0
  6
DASHED
 62
             7
100
AcDbLine
 10
279.921064
 20
54.64371300000005
 11
280.38087700000011
 21
67.81104900000003
  0
LINE
  5
3F
100
AcDbEntity
  8
LC-004-002-RND-0
  6
DASHED
 62
             7
100
AcDbLine
 10
286.35633300000001
 20
51.25258599999995
 11
286.77215600000011
 21
53.20888100000002
  0
LINE
  5
3E
100
AcDbEntity
  8
LC-004-002-RND-0
  6
DASHED
 62
             7
100
AcDbLine
 10
285.76330300000001
 20
50.86746800000003
 11
282.29550100000012
 21
51.60457199999996
  0
LINE
  5
3D
100
AcDbEntity
  8
LC-004-002-RND-0
  6
DASHED
 62
             7
100
AcDbLine
 10
203.54624799999991
 20
97.967849
 11
203.46959100000009
 21
99.43048199999998
  0
LINE
  5
3C
100
AcDbEntity
  8
LC-004-002-RND-0
  6
DASHED
 62
             7
100
AcDbLine
 10
202.581806
 20
97.51335900000004
 11
202.484037
 21
99.378829
  0
LINE
  5
3B
100
AcDbEntity
  8
LC-004-002-RND-0
  6
DASHED
 62
             7
100
AcDbLine
 10
201.89313999999999
 20
100.849919
 11
186.0720400000001
 21
100.02073800000009
  0
LINE
  5
3A
100
AcDbEntity
  8
LC-004-002-RND-0
  6
DASHED
 62
             7
100
AcDbLine
 10
201.95855400000011
 20
99.85197500000004
 11
165.0009280000001
 21
97.91503140728457
  0
LINE
  5
39
100
AcDbEntity
  8
LC-004-002-RND-0
  6
DASHED
 62
             7
100
AcDbLine
 10
182.28594799999999
 20
99.82230900000002
 11
165.0009280000001
 21
98.91640410852472
  0
LINE
  5
38
100
AcDbEntity
  8
1
  6
DASHED
 62
             7
100
AcDbLine
 10
165.0009280000001
 20
75.5139622828126
 11
165.0009280000001
 21
97.91503140728457
  0
LINE
  5
37
100
AcDbEntity
  8
LC-004-002-RND-0
  6
DASHED
 62
             7
100
AcDbLine
 10
165.0009280000001
 20
75.5139622828126
 11
282.08758999999992
 21
50.62642400000004
  0
LINE
  5
36
100
AcDbEntity
  8
1
  6
DASHED
 62
             7
100
AcDbLine
 10
165.0009280000001
 20
97.91503140728457
 11
165.0009280000001
 21
98.91640410852472
  0
LINE
  5
35
100
AcDbEntity
  8
LC-004-002-RND-0
  6
CONTINUOUS
 62
             7
100
AcDbLine
 10
165.0009280000001
 20
120.89963399999991
 11
137.49981
 21
120.89963399999991
  0
LINE
  5
34
100
AcDbEntity
  8
1
  6
CONTINUOUS
 62
             7
100
AcDbLine
 10
165.0009280000001
 20
120.89963399999991
 11
165.0009280000001
 21
102.89963400000001
  0
POINT
  5
33
100
AcDbEntity
  8
LC-007-003-----0
 62
             7
100
AcDbPoint
 10
0.0
 20
-81.0
  0
POINT
  5
32
100
AcDbEntity
  8
LC-007-003-----0
 62
             7
100
AcDbPoint
 10
84.99738700000006
 20
102.89963400000001
  0
POINT
  5
31
100
AcDbEntity
  8
LC-007-003-----0
 62
             7
100
AcDbPoint
 10
0.0
 20
85.0
  0
POINT
  5
30
100
AcDbEntity
  8
LC-007-003-----0
 62
             7
100
AcDbPoint
 10
0.0
 20
-83.0
  0
ENDBLK
  5
A6
100
AcDbEntity
  8
0
100
AcDbBlockEnd
  0
BLOCK
  5
A9
100
AcDbEntity
  8
0
100
AcDbBlockBegin
  2
*D1
 70
             1
 10
0.0
 20
0.0
 30
0.0
  3
*D1
  1

  0
LINE
  5
AA
100
AcDbEntity
  8
0
  6
CONTINUOUS
 62
             4
100
AcDbLine
 10
217.273107723013
 20
-99.09923600000001
 11
217.273107723013
 21
125.89963399999989
  0
LINE
  5
AB
100
AcDbEntity
  8
0
  6
CONTINUOUS
 62
             4
100
AcDbLine
 10
165.0009280000001
 20
125.89963399999989
 11
219.273107723013
 21
125.89963399999989
  0
LINE
  5
AC
100
AcDbEntity
  8
0
  6
CONTINUOUS
 62
             4
100
AcDbLine
 10
127.20745399999998
 20
-99.09923600000001
 11
219.273107723013
 21
-99.09923600000001
  0
SOLID
  5
AD
100
AcDbEntity
  8
0
 62
             4
100
AcDbTrace
 10
215.69327775196425
 20
-87.09923600000001
 11
218.85293769406175
 21
-87.09923600000001
 12
217.273107723013
 22
-99.09923600000001
 13
217.273107723013
 23
-99.09923600000001
  0
SOLID
  5
AE
100
AcDbEntity
  8
0
 62
             4
100
AcDbTrace
 10
218.85293769406175
 20
113.89963399999989
 11
215.69327775196425
 21
113.89963399999989
 12
217.273107723013
 22
125.89963399999989
 13
217.273107723013
 23
125.89963399999989
  0
MTEXT
  5
B0
100
AcDbEntity
  8
0
 62
             1
100
AcDbMText
 10
215.273107723013
 20
5.7413958404914
 30
0.0
 40
12.0
 41
0.0
 71
             7
 72
             1
  1
225
  7
CONVERTER_1
 11
0.0
 21
1.0
 31
0.0
  0
ENDBLK
  5
B1
100
AcDbEntity
  8
0
100
AcDbBlockEnd
  0
BLOCK
  5
B5
100
AcDbEntity
  8
0
100
AcDbBlockBegin
  2
*D2
 70
             1
 10
0.0
 20
0.0
 30
0.0
  3
*D2
  1

  0
LINE
  5
B6
100
AcDbEntity
  8
0
  6
CONTINUOUS
 62
             4
100
AcDbLine
 10
-14.0
 20
80.0
 11
-14.0
 21
-80.0
  0
LINE
  5
B7
100
AcDbEntity
  8
0
  6
CONTINUOUS
 62
             4
100
AcDbLine
 10
-6.0
 20
-80.0
 11
-16.0
 21
-80.0
  0
LINE
  5
B8
100
AcDbEntity
  8
0
  6
CONTINUOUS
 62
             4
100
AcDbLine
 10
-6.0
 20
80.0
 11
-16.0
 21
80.0
  0
SOLID
  5
B9
100
AcDbEntity
  8
0
 62
             4
100
AcDbTrace
 10
-12.42017002895125
 20
68.0
 11
-15.57982997104875
 21
68.0
 12
-14.0
 22
80.0
 13
-14.0
 23
80.0
  0
SOLID
  5
BA
100
AcDbEntity
  8
0
 62
             4
100
AcDbTrace
 10
-15.57982997104875
 20
-68.0
 11
-12.42017002895125
 21
-68.0
 12
-14.0
 22
-80.0
 13
-14.0
 23
-80.0
  0
MTEXT
  5
BB
100
AcDbEntity
  8
0
 62
             1
100
AcDbMText
 10
-16.0
 20
-23.65722085092303
 30
0.0
 40
12.0
 41
0.0
 71
             7
 72
             1
  1
\C1;DN\C1;160
  7
CONVERTER_1
 11
0.0
 21
1.0
 31
0.0
  0
ENDBLK
  5
BC
100
AcDbEntity
  8
0
100
AcDbBlockEnd
  0
BLOCK
  5
C0
100
AcDbEntity
  8
0
100
AcDbBlockBegin
  2
*D3
 70
             1
 10
0.0
 20
0.0
 30
0.0
  3
*D3
  1

  0
LINE
  5
C1
100
AcDbEntity
  8
0
  6
CONTINUOUS
 62
             4
100
AcDbLine
 10
165.0009280000001
 20
159.474871089049
 11
84.99738700000006
 21
159.474871089049
  0
LINE
  5
C2
100
AcDbEntity
  8
0
  6
CONTINUOUS
 62
             4
100
AcDbLine
 10
84.99738700000006
 20
102.89963399999999
 11
84.99738700000006
 21
161.474871089049
  0
LINE
  5
C3
100
AcDbEntity
  8
0
  6
CONTINUOUS
 62
             4
100
AcDbLine
 10
165.0009280000001
 20
125.89963399999991
 11
165.0009280000001
 21
161.474871089049
  0
SOLID
  5
C4
100
AcDbEntity
  8
0
 62
             4
100
AcDbTrace
 10
153.0009280000001
 20
157.89504111800025
 11
153.0009280000001
 21
161.05470106009776
 12
165.0009280000001
 22
159.474871089049
 13
165.0009280000001
 23
159.474871089049
  0
SOLID
  5
C5
100
AcDbEntity
  8
0
 62
             4
100
AcDbTrace
 10
96.99738700000006
 20
161.05470106009776
 11
96.99738700000006
 21
157.89504111800025
 12
84.99738700000006
 22
159.474871089049
 13
84.99738700000006
 23
159.474871089049
  0
MTEXT
  5
C6
100
AcDbEntity
  8
0
 62
             1
100
AcDbMText
 10
116.236532325903
 20
161.474871089049
 30
0.0
 40
12.0
 41
0.0
 71
             7
 72
             1
  1
80
  7
CONVERTER_1
 11
0.99999999999706
 21
0.00000242406841
 31
0.0
  0
ENDBLK
  5
C7
100
AcDbEntity
  8
0
100
AcDbBlockEnd
  0
BLOCK
  5
CB
100
AcDbEntity
  8
0
100
AcDbBlockBegin
  2
*D4
 70
             1
 10
0.0
 20
0.0
 30
0.0
  3
*D4
  1

  0
LINE
  5
CC
100
AcDbEntity
  8
0
  6
CONTINUOUS
 62
             4
100
AcDbLine
 10
165.0009280000001
 20
180.212229632072
 11
0.0
 21
180.212229632072
  0
LINE
  5
CD
100
AcDbEntity
  8
0
  6
CONTINUOUS
 62
             4
100
AcDbLine
 10
0.0
 20
81.0
 11
0.0
 21
182.212229632072
  0
LINE
  5
CE
100
AcDbEntity
  8
0
  6
CONTINUOUS
 62
             4
100
AcDbLine
 10
165.0009280000001
 20
125.89963399999991
 11
165.0009280000001
 21
182.212229632072
  0
SOLID
  5
CF
100
AcDbEntity
  8
0
 62
             4
100
AcDbTrace
 10
153.0009280000001
 20
178.63239966102324
 11
153.0009280000001
 21
181.79205960312075
 12
165.0009280000001
 22
180.212229632072
 13
165.0009280000001
 23
180.212229632072
  0
SOLID
  5
D0
100
AcDbEntity
  8
0
 62
             4
100
AcDbTrace
 10
12.0
 20
181.79205960312075
 11
12.0
 21
178.63239966102324
 12
0.0
 22
180.212229632072
 13
0.0
 23
180.212229632072
  0
MTEXT
  5
D1
100
AcDbEntity
  8
0
 62
             1
100
AcDbMText
 10
61.3388559300051
 20
182.212229632072
 30
0.0
 40
12.0
 41
0.0
 71
             7
 72
             1
  1
165
  7
CONVERTER_1
 11
0.99999999999706
 21
0.00000242406841
 31
0.0
  0
ENDBLK
  5
D2
100
AcDbEntity
  8
0
100
AcDbBlockEnd
  0
ENDSEC
  0
SECTION
  2
ENTITIES
  0
DIMENSION
  5
D4
100
AcDbEntity
  8
1
100
AcDbDimension
  2
*D4
 10
165.0009280000001
 20
180.212229632072
 11
73.9388559300051
 21
188.212229632072
 31
0.0
 53
0.00013888888889
  1
<>
  3
ME10_DIM_3
100
AcDbAlignedDimension
 13
0.0
 23
81.0
 14
165.0009280000001
 24
125.89963399999991
100
AcDbRotatedDimension
  0
DIMENSION
  5
C9
100
AcDbEntity
  8
1
100
AcDbDimension
  2
*D3
 10
165.0009280000001
 20
159.474871089049
 11
125.236532325903
 21
167.474871089049
 31
0.0
 53
0.00013888888889
  1
<>
  3
ME10_DIM_2
100
AcDbAlignedDimension
 13
84.99738700000006
 23
102.89963400000001
 14
165.0009280000001
 24
125.89963399999991
100
AcDbRotatedDimension
  0
DIMENSION
  5
BE
100
AcDbEntity
  8
1
100
AcDbDimension
  2
*D2
 10
-14.0
 20
80.0
 11
-22.0
 21
-4.57722085092303
 31
0.0
 53
90.0
  1
<>
  3
ME10_DIM_1
100
AcDbAlignedDimension
 13
-6.0
 23
-80.0
 14
-6.0
 24
80.0
 50
90.0
100
AcDbRotatedDimension
  0
DIMENSION
  5
B3
100
AcDbEntity
  8
1
100
AcDbDimension
  2
*D1
 10
217.273107723013
 20
-99.09923600000001
 11
209.273107723013
 21
20.1413958404914
 31
0.0
 53
90.0
  1
<>
  3
ME10_DIM_0
100
AcDbAlignedDimension
 13
165.0009280000001
 23
125.89963399999991
 14
127.207454
 24
-99.09923600000002
 50
90.0
100
AcDbRotatedDimension
  0
INSERT
  5
2F
100
AcDbEntity
  8
0
100
AcDbBlockReference
  2
HL_715_0_FROSCHKLAPPE__1
 10
-629.33158210810109
 20
-1315.153287757428
  0
ENDSEC
  0
SECTION
  2
OBJECTS
  0
DICTIONARY
  5
19
100
AcDbDictionary
  3
ACAD_GROUP
350
1A
  3
ACAD_MLINESTYLE
350
1B
  0
DICTIONARY
  5
1A
102
{ACAD_REACTORS
330
19
102
}
100
AcDbDictionary
  0
DICTIONARY
  5
1B
102
{ACAD_REACTORS
330
19
102
}
100
AcDbDictionary
  3
STANDARD
350
1C
  0
MLINESTYLE
  5
1C
102
{ACAD_REACTORS
330
1B
102
}
100
AcDbMlineStyle
  2
STANDARD
 70
             0
  3

 62
             0
 51
90.0
 52
90.0
 71
             2
 49
0.5
 62
           256
  6
BYLAYER
 49
-0.5
 62
           256
  6
BYLAYER
  0
ENDSEC
  0
EOF
