  0
SECTION
  2
HEADER
  9
$ACADVER
  1
AC1014
  9
$ACADMAINTVER
 70
             0
  9
$DWGCODEPAGE
  3
ANSI_1252
  9
$INSBASE
 10
0.0
 20
0.0
 30
0.0
  9
$EXTMIN
 10
-30.0
 20
-142.69201719066211
 30
0.0
  9
$EXTMAX
 10
1014.33040283757
 20
293.67654194556502
 30
0.0
  9
$LIMMIN
 10
0.0
 20
0.0
  9
$LIMMAX
 10
0.0
 20
0.0
  9
$ORTHOMODE
 70
             0
  9
$REGENMODE
 70
             1
  9
$FILLMODE
 70
             1
  9
$QTEXTMODE
 70
             0
  9
$MIRRTEXT
 70
             1
  9
$DRAGMODE
 70
             2
  9
$LTSCALE
 40
1.0
  9
$OSMODE
 70
             0
  9
$ATTMODE
 70
             1
  9
$TEXTSIZE
 40
0.2
  9
$TRACEWID
 40
0.05
  9
$TEXTSTYLE
  7
STANDARD
  9
$CLAYER
  8
0
  9
$CELTYPE
  6
CONTINUOUS
  9
$CECOLOR
 62
           256
  9
$CELTSCALE
 40
1.0
  9
$DELOBJ
 70
             1
  9
$DISPSILH
 70
             0
  9
$DIMSCALE
 40
1.0
  9
$DIMASZ
 40
0.18
  9
$DIMEXO
 40
0.0625
  9
$DIMDLI
 40
0.38
  9
$DIMRND
 40
0.0
  9
$DIMDLE
 40
0.0
  9
$DIMEXE
 40
0.18
  9
$DIMTP
 40
0.0
  9
$DIMTM
 40
0.0
  9
$DIMTXT
 40
0.18
  9
$DIMCEN
 40
0.09
  9
$DIMTSZ
 40
0.0
  9
$DIMTOL
 70
             0
  9
$DIMLIM
 70
             0
  9
$DIMTIH
 70
             1
  9
$DIMTOH
 70
             1
  9
$DIMSE1
 70
             0
  9
$DIMSE2
 70
             0
  9
$DIMTAD
 70
             0
  9
$DIMZIN
 70
             0
  9
$DIMBLK
  1

  9
$DIMASO
 70
             1
  9
$DIMSHO
 70
             1
  9
$DIMPOST
  1

  9
$DIMAPOST
  1

  9
$DIMALT
 70
             0
  9
$DIMALTD
 70
             2
  9
$DIMALTF
 40
25.4
  9
$DIMLFAC
 40
1.0
  9
$DIMTOFL
 70
             0
  9
$DIMTVP
 40
0.0
  9
$DIMTIX
 70
             0
  9
$DIMSOXD
 70
             0
  9
$DIMSAH
 70
             0
  9
$DIMBLK1
  1

  9
$DIMBLK2
  1

  9
$DIMSTYLE
  2
STANDARD
  9
$DIMCLRD
 70
             0
  9
$DIMCLRE
 70
             0
  9
$DIMCLRT
 70
             0
  9
$DIMTFAC
 40
1.0
  9
$DIMGAP
 40
0.09
  9
$DIMJUST
 70
             0
  9
$DIMSD1
 70
             0
  9
$DIMSD2
 70
             0
  9
$DIMTOLJ
 70
             1
  9
$DIMTZIN
 70
             0
  9
$DIMALTZ
 70
             0
  9
$DIMALTTZ
 70
             0
  9
$DIMFIT
 70
             3
  9
$DIMUPT
 70
             0
  9
$DIMUNIT
 70
             2
  9
$DIMDEC
 70
             4
  9
$DIMTDEC
 70
             4
  9
$DIMALTU
 70
             2
  9
$DIMALTTD
 70
             2
  9
$DIMTXSTY
  7
STANDARD
  9
$DIMAUNIT
 70
             0
  9
$LUNITS
 70
             2
  9
$LUPREC
 70
             4
  9
$SKETCHINC
 40
0.1
  9
$FILLETRAD
 40
0.0
  9
$AUNITS
 70
             0
  9
$AUPREC
 70
             0
  9
$MENU
  1
acad
  9
$ELEVATION
 40
0.0
  9
$PELEVATION
 40
0.0
  9
$THICKNESS
 40
0.0
  9
$LIMCHECK
 70
             0
  9
$BLIPMODE
 70
             1
  9
$CHAMFERA
 40
0.0
  9
$CHAMFERB
 40
0.0
  9
$CHAMFERC
 40
0.0
  9
$CHAMFERD
 40
0.0
  9
$SKPOLY
 70
             0
  9
$TDCREATE
 40
0.000000000
  9
$TDUPDATE
 40
0.000000000
  9
$TDINDWG
 40
0.0000000000
  9
$TDUSRTIMER
 40
0.0000000000
  9
$USRTIMER
 70
             1
  9
$ANGBASE
 50
0.0
  9
$ANGDIR
 70
             0
  9
$PDMODE
 70
             0
  9
$PDSIZE
 40
0.0
  9
$PLINEWID
 40
0.0
  9
$COORDS
 70
             0
  9
$SPLFRAME
 70
             0
  9
$SPLINETYPE
 70
             6
  9
$SPLINESEGS
 70
             8
  9
$ATTDIA
 70
             0
  9
$ATTREQ
 70
             1
  9
$HANDLING
 70
             1
  9
$HANDSEED
  5
3DF
  9
$SURFTAB1
 70
             6
  9
$SURFTAB2
 70
             6
  9
$SURFTYPE
 70
             6
  9
$SURFU
 70
             6
  9
$SURFV
 70
             6
  9
$UCSNAME
  2

  9
$UCSORG
 10
0.0
 20
0.0
 30
0.0
  9
$UCSXDIR
 10
1.0
 20
0.0
 30
0.0
  9
$UCSYDIR
 10
0.0
 20
1.0
 30
0.0
  9
$PUCSNAME
  2

  9
$PUCSORG
 10
0.0
 20
0.0
 30
0.0
  9
$PUCSXDIR
 10
1.0
 20
0.0
 30
0.0
  9
$PUCSYDIR
 10
0.0
 20
1.0
 30
0.0
  9
$USERI1
 70
             0
  9
$USERI2
 70
             0
  9
$USERI3
 70
             0
  9
$USERI4
 70
             0
  9
$USERI5
 70
             0
  9
$USERR1
 40
12.01
  9
$USERR2
 40
0.0
  9
$USERR3
 40
0.0
  9
$USERR4
 40
0.0
  9
$USERR5
 40
0.0
  9
$WORLDVIEW
 70
             1
  9
$SHADEDGE
 70
             3
  9
$SHADEDIF
 70
            70
  9
$TILEMODE
 70
             1
  9
$MAXACTVP
 70
            16
  9
$PINSBASE
 10
0.0
 20
0.0
 30
0.0
  9
$PLIMCHECK
 70
             0
  9
$PEXTMIN
 10
1.00000000000000E+20
 20
1.00000000000000E+20
 30
1.00000000000000E+20
  9
$PEXTMAX
 10
-1.00000000000000E+20
 20
-1.00000000000000E+20
 30
-1.00000000000000E+20
  9
$PLIMMIN
 10
0.0
 20
0.0
  9
$PLIMMAX
 10
12.0
 20
9.0
  9
$UNITMODE
 70
             0
  9
$VISRETAIN
 70
             0
  9
$PLINEGEN
 70
             1
  9
$PSLTSCALE
 70
             0
  9
$TREEDEPTH
 70
          3020
  9
$PICKSTYLE
 70
             1
  9
$CMLSTYLE
  2
STANDARD
  9
$CMLJUST
 70
             0
  9
$CMLSCALE
 40
1.0
  9
$PROXYGRAPHICS
 70
             0
  9
$MEASUREMENT
 70
             1
  0
ENDSEC
  0
SECTION
  2
CLASSES
  0
CLASS
  1
LWPOLYLINE
  2
AcDbPolyline
  3
"AutoCAD"
 90
        0
280
             0
281
             1
  0
CLASS
  1
IMAGE
  2
AcDbRasterImage
  3
ISM
 90
      127
280
             0
281
             1
  0
CLASS
  1
OLE2FRAME
  2
AcDbOle2Frame
  3
""
 90
        0
280
             0
281
             1
  0
CLASS
  1
HATCH
  2
AcDbHatch
  3
"ACAD_SEDONA"
 90
        0
280
             0
281
             1
  0
CLASS
  1
DICTIONARYVAR
  2
AcDbDictionaryVar
  3
"AutoCAD"
 90
        0
280
             0
281
             0
  0
CLASS
  1
RASTERVARIABLES
  2
AcDbRasterVariables
  3
ISM
 90
        0
280
             0
281
             0
  0
CLASS
  1
IMAGEDEF
  2
AcDbRasterImageDef
  3
ISM
 90
        0
280
             0
281
             0
  0
CLASS
  1
IMAGEDEF_REACTOR
  2
AcDbRasterImageDefReactor
  3
ISM
 90
        1
280
             0
281
             0
  0
CLASS
  1
IDBUFFER
  2
AcDbIdBuffer
  3
"Acad"
 90
        0
280
             0
281
             0
  0
CLASS
  1
SPATIAL_FILTER
  2
AcDbSpatialFilter
  3
"Acad"
 90
        0
280
             0
281
             0
  0
CLASS
  1
XRECORD
  2
AcDbXrecord
  3
"<Built In>"
 90
        0
280
             0
281
             0
  0
CLASS
  1
SORTENTSTABLE
  2
AcDbSortentsTable
  3
"AutoCAD"
 90
        0
280
             0
281
             0
  0
CLASS
  1
LAYER_INDEX
  2
AcDbLayerIndex
  3
"Acad"
 90
        0
280
             0
281
             0
  0
CLASS
  1
SPATIAL_INDEX
  2
AcDbSpatialIndex
  3
"Acad"
 90
        0
280
             0
281
             0
  0
CLASS
  1
OBJECT_PTR
  2
CAseDLPNTableRecord
  3
"ASE-LPNTableRecord"
 90
        1
280
             0
281
             0
  0
CLASS
  1
LAYOUT
  2
AcDbLayout
  3
"AutoCAD 2000"
 90
        0
280
             0
281
             0
  0
CLASS
  1
PLOTSETTINGS
  2
AcDbPlotSettings
  3
"AutoCAD 2000"
 90
        0
280
             0
281
             0
  0
CLASS
  1
ACDBDICTIONARYWDFLT
  2
AcDbDictionaryWithDefault
  3
"AutoCAD 2000"
 90
        0
280
             0
281
             0
  0
CLASS
  1
ACDBPLACEHOLDER
  2
AcDbPlaceHolder
  3
"AutoCAD 2000"
 90
        0
280
             0
281
             0
  0
ENDSEC
  0
SECTION
  2
TABLES
  0
TABLE
  2
VPORT
  5
7
100
AcDbSymbolTable
 70
             1
  0
VPORT
  5
15
100
AcDbSymbolTableRecord
100
AcDbViewportTableRecord
  2
*ACTIVE
 70
             0
 10
0.0
 20
0.0
 11
1.0
 21
1.0
 12
492.16520141878499
 22
75.49226237745145
 13
0.0
 23
0.0
 14
1.0
 24
1.0
 15
0.0
 25
0.0
 16
0.0
 26
0.0
 36
1.0
 17
0.0
 27
0.0
 37
0.0
 40
716.77719013698436
 41
1.60267857142857
 42
50.0
 43
0.0
 44
0.0
 50
0.0
 51
0.0
 71
             0
 72
           100
 73
             1
 74
             1
 75
             0
 76
             0
 77
             0
 78
             0
  0
ENDTAB
  0
TABLE
  2
LTYPE
  5
4
100
AcDbSymbolTable
 70
            11
  0
LTYPE
  5
11
100
AcDbSymbolTableRecord
100
AcDbLinetypeTableRecord
  2
BYBLOCK
 70
            64
  3

 72
            65
 73
             0
 40
0.0
  0
LTYPE
  5
12
100
AcDbSymbolTableRecord
100
AcDbLinetypeTableRecord
  2
BYLAYER
 70
            64
  3

 72
            65
 73
             0
 40
0.0
  0
LTYPE
  5
13
100
AcDbSymbolTableRecord
100
AcDbLinetypeTableRecord
  2
CONTINUOUS
 70
            64
  3
Solid line
 72
            65
 73
             0
 40
0.0
  0
LTYPE
  5
1D
100
AcDbSymbolTableRecord
100
AcDbLinetypeTableRecord
  2
DASHED
 70
            64
  3
Dashed
 72
            65
 73
             2
 40
15.0
 49
7.0
 74
             0
 49
-8.0
 74
             0
  0
LTYPE
  5
1E
100
AcDbSymbolTableRecord
100
AcDbLinetypeTableRecord
  2
DOTTED
 70
            64
  3
Dotted
 72
            65
 73
             2
 40
1.0
 49
0.0
 74
             0
 49
-1.0
 74
             0
  0
LTYPE
  5
1F
100
AcDbSymbolTableRecord
100
AcDbLinetypeTableRecord
  2
DOT_CENTER
 70
            64
  3
Dot_Center
 72
            65
 73
             4
 40
14.0
 49
12.0
 74
             0
 49
-1.0
 74
             0
 49
0.0
 74
             0
 49
-1.0
 74
             0
  0
LTYPE
  5
20
100
AcDbSymbolTableRecord
100
AcDbLinetypeTableRecord
  2
LONG_DASHED
 70
            64
  3
Long_Dashed
 72
            65
 73
             2
 40
15.0
 49
10.0
 74
             0
 49
-5.0
 74
             0
  0
LTYPE
  5
21
100
AcDbSymbolTableRecord
100
AcDbLinetypeTableRecord
  2
DASH_CENTER
 70
            64
  3
Dash_Center
 72
            65
 73
             4
 40
14.0
 49
11.0
 74
             0
 49
-1.0
 74
             0
 49
1.0
 74
             0
 49
-1.0
 74
             0
  0
LTYPE
  5
22
100
AcDbSymbolTableRecord
100
AcDbLinetypeTableRecord
  2
PHANTOM
 70
            64
  3
Phantom
 72
            65
 73
             6
 40
13.0
 49
10.0
 74
             0
 49
-1.0
 74
             0
 49
0.0
 74
             0
 49
-1.0
 74
             0
 49
0.0
 74
             0
 49
-1.0
 74
             0
  0
LTYPE
  5
23
100
AcDbSymbolTableRecord
100
AcDbLinetypeTableRecord
  2
CENTER_DASH_DASH
 70
            64
  3
Center_Dash_Dash
 72
            65
 73
             6
 40
14.0
 49
9.0
 74
             0
 49
-1.0
 74
             0
 49
1.0
 74
             0
 49
-1.0
 74
             0
 49
1.0
 74
             0
 49
-1.0
 74
             0
  0
LTYPE
  5
24
100
AcDbSymbolTableRecord
100
AcDbLinetypeTableRecord
  2
DASHDOT
 70
            64
  3
DASHDOT
 72
            65
 73
             4
 40
16.0
 49
10.0
 74
             0
 49
-3.0
 74
             0
 49
0.0
 74
             0
 49
-3.0
 74
             0
  0
ENDTAB
  0
TABLE
  2
LAYER
  5
2
100
AcDbSymbolTable
 70
            10
  0
LAYER
  5
14
100
AcDbSymbolTableRecord
100
AcDbLayerTableRecord
  2
0
 70
             0
 62
             7
  6
CONTINUOUS
  0
LAYER
  5
25
100
AcDbSymbolTableRecord
100
AcDbLayerTableRecord
  2
1
 70
             0
 62
             7
  6
CONTINUOUS
  0
LAYER
  5
26
100
AcDbSymbolTableRecord
100
AcDbLayerTableRecord
  2
LC-001-002-RND-0
 70
             0
 62
             7
  6
CONTINUOUS
  0
LAYER
  5
27
100
AcDbSymbolTableRecord
100
AcDbLayerTableRecord
  2
LC-002-005-----0
 70
             0
 62
             7
  6
CONTINUOUS
  0
LAYER
  5
28
100
AcDbSymbolTableRecord
100
AcDbLayerTableRecord
  2
LC-003-002-----0
 70
             0
 62
             7
  6
CONTINUOUS
  0
LAYER
  5
29
100
AcDbSymbolTableRecord
100
AcDbLayerTableRecord
  2
LC-005-003-----0
 70
             0
 62
             7
  6
CONTINUOUS
  0
LAYER
  5
2A
100
AcDbSymbolTableRecord
100
AcDbLayerTableRecord
  2
LC-007-002-----0
 70
             0
 62
             7
  6
CONTINUOUS
  0
LAYER
  5
2B
100
AcDbSymbolTableRecord
100
AcDbLayerTableRecord
  2
LC-009-006-MLN-0
 70
             0
 62
             7
  6
CONTINUOUS
  0
LAYER
  5
2C
100
AcDbSymbolTableRecord
100
AcDbLayerTableRecord
  2
LC-012-002-RND-0
 70
             0
 62
             7
  6
CONTINUOUS
  0
LAYER
  5
2D
100
AcDbSymbolTableRecord
100
AcDbLayerTableRecord
  2
LC-022-006-MLN-0
 70
             0
 62
             7
  6
CONTINUOUS
  0
ENDTAB
  0
TABLE
  2
STYLE
  5
3
100
AcDbSymbolTable
 70
             2
  0
STYLE
  5
17
100
AcDbSymbolTableRecord
100
AcDbTextStyleTableRecord
  2
STANDARD
 70
             0
 40
0.0
 41
1.0
 50
0.0
 71
             0
 42
0.0
  3
txt
  4

  0
STYLE
  5
38A
100
AcDbSymbolTableRecord
100
AcDbTextStyleTableRecord
  2
CONVERTER_1
 70
             0
 40
0.0
 41
0.9
 50
0.0
 71
             0
 42
0.0
  3
txt.shx
  4

  0
ENDTAB
  0
TABLE
  2
VIEW
  5
5
100
AcDbSymbolTable
 70
             0
  0
ENDTAB
  0
TABLE
  2
UCS
  5
6
100
AcDbSymbolTable
 70
             0
  0
ENDTAB
  0
TABLE
  2
APPID
  5
8
100
AcDbSymbolTable
 70
             1
  0
APPID
  5
16
100
AcDbSymbolTableRecord
100
AcDbRegAppTableRecord
  2
ACAD
 70
             0
  0
ENDTAB
  0
TABLE
  2
DIMSTYLE
  5
9
100
AcDbSymbolTable
 70
             9
  0
DIMSTYLE
105
18
100
AcDbSymbolTableRecord
100
AcDbDimStyleTableRecord
  2
STANDARD
 70
             0
  3

  4

  5

  6

  7

 40
1.0
 41
0.18
 42
0.0625
 43
0.38
 44
0.18
 45
0.0
 46
0.0
 47
0.0
 48
0.0
 71
             0
 72
             0
 73
             1
 74
             1
 75
             0
 76
             0
 77
             0
 78
             0
140
0.18
141
0.09
142
0.0
143
25.4
144
1.0
145
0.0
146
1.0
147
0.09
170
             0
171
             2
172
             0
173
             0
174
             0
175
             0
176
             0
177
             0
178
             0
270
             2
271
             4
272
             4
273
             2
274
             2
275
             0
280
             0
281
             0
282
             0
283
             1
284
             0
285
             0
286
             0
287
             3
288
             0
340
17
  0
DIMSTYLE
105
38D
100
AcDbSymbolTableRecord
100
AcDbDimStyleTableRecord
  2
ME10_DIM_0
 70
             0
  3
DN<>
  4

  5

  6

  7

 40
1.0
 41
12.0
 42
0.0
 43
0.38
 44
2.0
 45
0.0
 46
0.0
 47
0.0
 48
0.0
 71
             0
 72
             0
 73
             0
 74
             0
 75
             0
 76
             0
 77
             1
 78
             8
140
12.0
141
0.09
142
0.0
143
25.4
144
1.0
145
0.0
146
1.0
147
0.625
170
             0
171
             2
172
             1
173
             1
174
             0
175
             0
176
             4
177
             4
178
             1
270
             2
271
             2
272
             4
273
             2
274
             2
275
             0
280
             0
281
             0
282
             0
283
             1
284
             0
285
             0
286
             0
287
             3
288
             0
340
38A
  0
DIMSTYLE
105
398
100
AcDbSymbolTableRecord
100
AcDbDimStyleTableRecord
  2
ME10_DIM_1
 70
             0
  3

  4

  5

  6

  7

 40
1.0
 41
12.0
 42
0.0
 43
0.38
 44
2.0
 45
0.0
 46
0.0
 47
0.0
 48
0.0
 71
             0
 72
             0
 73
             0
 74
             0
 75
             0
 76
             0
 77
             1
 78
             8
140
12.0
141
0.09
142
0.0
143
25.4
144
1.0
145
0.0
146
1.0
147
0.625
170
             0
171
             2
172
             1
173
             1
174
             0
175
             0
176
             4
177
             4
178
             1
270
             2
271
             2
272
             4
273
             2
274
             2
275
             0
280
             0
281
             0
282
             0
283
             1
284
             0
285
             0
286
             0
287
             3
288
             0
340
38A
  0
DIMSTYLE
105
3A3
100
AcDbSymbolTableRecord
100
AcDbDimStyleTableRecord
  2
ME10_DIM_2
 70
             0
  3
DN<>
  4

  5

  6

  7

 40
1.0
 41
12.0
 42
0.0
 43
0.38
 44
2.0
 45
0.0
 46
0.0
 47
0.0
 48
0.0
 71
             0
 72
             0
 73
             0
 74
             0
 75
             0
 76
             0
 77
             1
 78
             8
140
12.0
141
0.09
142
0.0
143
25.4
144
1.0
145
0.0
146
1.0
147
0.625
170
             0
171
             2
172
             1
173
             1
174
             0
175
             0
176
             4
177
             4
178
             1
270
             2
271
             2
272
             4
273
             2
274
             2
275
             0
280
             0
281
             0
282
             0
283
             1
284
             0
285
             0
286
             0
287
             3
288
             0
340
38A
  0
DIMSTYLE
105
3AE
100
AcDbSymbolTableRecord
100
AcDbDimStyleTableRecord
  2
ME10_DIM_3
 70
             0
  3

  4

  5

  6

  7

 40
1.0
 41
12.0
 42
0.0
 43
0.38
 44
2.0
 45
0.0
 46
0.0
 47
0.0
 48
0.0
 71
             0
 72
             0
 73
             0
 74
             0
 75
             0
 76
             0
 77
             1
 78
             8
140
12.0
141
0.09
142
0.0
143
25.4
144
1.0
145
0.0
146
1.0
147
0.625
170
             0
171
             2
172
             1
173
             1
174
             0
175
             0
176
             4
177
             4
178
             1
270
             2
271
             2
272
             4
273
             2
274
             2
275
             0
280
             0
281
             0
282
             0
283
             1
284
             0
285
             0
286
             0
287
             3
288
             0
340
38A
  0
DIMSTYLE
105
3BB
100
AcDbSymbolTableRecord
100
AcDbDimStyleTableRecord
  2
ME10_DIM_4
 70
             0
  3

  4

  5

  6

  7

 40
1.0
 41
12.0
 42
0.0
 43
0.38
 44
2.0
 45
0.0
 46
0.0
 47
0.0
 48
0.0
 71
             0
 72
             0
 73
             0
 74
             0
 75
             0
 76
             0
 77
             1
 78
             8
140
12.0
141
0.09
142
0.0
143
25.4
144
1.0
145
0.0
146
1.0
147
0.625
170
             0
171
             2
172
             1
173
             1
174
             0
175
             0
176
             4
177
             4
178
             1
270
             2
271
             2
272
             4
273
             2
274
             2
275
             0
280
             0
281
             0
282
             0
283
             1
284
             0
285
             0
286
             0
287
             3
288
             0
340
38A
  0
DIMSTYLE
105
3C6
100
AcDbSymbolTableRecord
100
AcDbDimStyleTableRecord
  2
ME10_DIM_5
 70
             0
  3

  4

  5

  6

  7

 40
1.0
 41
12.0
 42
0.0
 43
0.38
 44
2.0
 45
0.0
 46
0.0
 47
0.0
 48
0.0
 71
             0
 72
             0
 73
             0
 74
             0
 75
             0
 76
             0
 77
             1
 78
             8
140
12.0
141
0.09
142
0.0
143
25.4
144
1.0
145
0.0
146
1.0
147
0.625
170
             0
171
             2
172
             1
173
             1
174
             0
175
             0
176
             4
177
             4
178
             1
270
             2
271
             2
272
             4
273
             2
274
             2
275
             0
280
             0
281
             0
282
             0
283
             1
284
             0
285
             0
286
             0
287
             3
288
             0
340
38A
  0
DIMSTYLE
105
3D1
100
AcDbSymbolTableRecord
100
AcDbDimStyleTableRecord
  2
ME10_DIM_6
 70
             0
  3
265-<>
  4

  5

  6

  7

 40
1.0
 41
12.0
 42
0.0
 43
0.38
 44
2.0
 45
0.0
 46
0.0
 47
0.0
 48
0.0
 71
             0
 72
             0
 73
             0
 74
             0
 75
             0
 76
             0
 77
             1
 78
             8
140
12.0
141
0.09
142
0.0
143
25.4
144
1.0
145
0.0
146
1.0
147
0.625
170
             0
171
             2
172
             1
173
             1
174
             0
175
             0
176
             4
177
             4
178
             1
270
             2
271
             2
272
             4
273
             2
274
             2
275
             0
280
             0
281
             0
282
             0
283
             1
284
             0
285
             0
286
             0
287
             3
288
             0
340
38A
  0
DIMSTYLE
105
3DC
100
AcDbSymbolTableRecord
100
AcDbDimStyleTableRecord
  2
ME10_DIM_7
 70
             0
  3

  4

  5

  6

  7

 40
1.0
 41
12.0
 42
0.0
 43
0.38
 44
2.0
 45
0.0
 46
0.0
 47
0.0
 48
0.0
 71
             0
 72
             0
 73
             0
 74
             0
 75
             0
 76
             0
 77
             1
 78
             8
140
12.0
141
0.09
142
0.0
143
25.4
144
1.0
145
0.0
146
1.0
147
0.625
170
             0
171
             2
172
             1
173
             1
174
             0
175
             0
176
             4
177
             4
178
             1
270
             2
271
             2
272
             4
273
             2
274
             2
275
             0
280
             0
281
             0
282
             0
283
             1
284
             0
285
             0
286
             0
287
             3
288
             0
340
38A
  0
ENDTAB
  0
TABLE
  2
BLOCK_RECORD
  5
1
100
AcDbSymbolTable
 70
            12
  0
BLOCK_RECORD
  5
A
100
AcDbSymbolTableRecord
100
AcDbBlockTableRecord
  2
*MODEL_SPACE
  0
BLOCK_RECORD
  5
B
100
AcDbSymbolTableRecord
100
AcDbBlockTableRecord
  2
*PAPER_SPACE
  0
BLOCK_RECORD
  5
2E
100
AcDbSymbolTableRecord
100
AcDbBlockTableRecord
  2
HL_715_2EPC_R_CKSTAUVES__1
  0
BLOCK_RECORD
  5
30
100
AcDbSymbolTableRecord
100
AcDbBlockTableRecord
  2
HL_715_2_R_CKSTAUVERSCLUSS
  0
BLOCK_RECORD
  5
32
100
AcDbSymbolTableRecord
100
AcDbBlockTableRecord
  2
HL_715_2EPC_R_CKSTAUVES__2
  0
BLOCK_RECORD
  5
35
100
AcDbSymbolTableRecord
100
AcDbBlockTableRecord
  2
HL_715_2EPC_R_CKSTAUVES__3
  0
BLOCK_RECORD
  5
383
100
AcDbSymbolTableRecord
100
AcDbBlockTableRecord
  2
*D4
  0
BLOCK_RECORD
  5
38F
100
AcDbSymbolTableRecord
100
AcDbBlockTableRecord
  2
*D5
  0
BLOCK_RECORD
  5
39A
100
AcDbSymbolTableRecord
100
AcDbBlockTableRecord
  2
*D6
  0
BLOCK_RECORD
  5
3A5
100
AcDbSymbolTableRecord
100
AcDbBlockTableRecord
  2
*D7
  0
BLOCK_RECORD
  5
3B0
100
AcDbSymbolTableRecord
100
AcDbBlockTableRecord
  2
*D8
  0
BLOCK_RECORD
  5
3BD
100
AcDbSymbolTableRecord
100
AcDbBlockTableRecord
  2
*D9
  0
BLOCK_RECORD
  5
3C8
100
AcDbSymbolTableRecord
100
AcDbBlockTableRecord
  2
*D10
  0
BLOCK_RECORD
  5
3D3
100
AcDbSymbolTableRecord
100
AcDbBlockTableRecord
  2
*D11
  0
ENDTAB
  0
ENDSEC
  0
SECTION
  2
BLOCKS
  0
BLOCK
  5
D
100
AcDbEntity
  8
0
100
AcDbBlockBegin
  2
*MODEL_SPACE
 70
             0
 10
0.0
 20
0.0
 30
0.0
  3
*MODEL_SPACE
  1

  0
ENDBLK
  5
E
100
AcDbEntity
  8
0
100
AcDbBlockEnd
  0
BLOCK
  5
F
100
AcDbEntity
 67
             1
  8
0
100
AcDbBlockBegin
  2
*PAPER_SPACE
 70
             0
 10
0.0
 20
0.0
 30
0.0
  3
*PAPER_SPACE
  1

  0
ENDBLK
  5
10
100
AcDbEntity
 67
             1
  8
0
100
AcDbBlockEnd
  0
BLOCK
  5
2F
100
AcDbEntity
  8
0
100
AcDbBlockBegin
  2
HL_715_2EPC_R_CKSTAUVES__1
 70
             0
 10
290.3628768364901
 20
77.99056650000003
 30
0.0
  3
HL_715_2EPC_R_CKSTAUVES__1
  1

  0
CIRCLE
  5
26C
100
AcDbEntity
  8
LC-001-002-RND-0
  6
CONTINUOUS
 62
             7
100
AcDbCircle
 10
375.70907799999998
 20
229.50000800000001
 40
2.5
  0
ARC
  5
26B
100
AcDbEntity
  8
LC-003-002-----0
  6
CONTINUOUS
 62
             1
100
AcDbCircle
 10
313.41153700000001
 20
-102.3967199999999
 40
0.5145429999997
100
AcDbArc
 50
-74.78725299998561
 51
-13.82490799996092
  0
ARC
  5
26A
100
AcDbEntity
  8
LC-003-002-----0
  6
CONTINUOUS
 62
             1
100
AcDbCircle
 10
309.50532099999998
 20
-100.66265799999989
 40
4.78121799999971
100
AcDbArc
 50
-22.85484099999869
 51
-9.54956000000667
  0
ARC
  5
269
100
AcDbEntity
  8
LC-003-002-----0
  6
CONTINUOUS
 62
             1
100
AcDbCircle
 10
295.22064200000011
 20
-98.18163299999999
 40
19.27970400000027
100
AcDbArc
 50
-9.77781600000113
 51
0.5821239999997
  0
ARC
  5
268
100
AcDbEntity
  8
LC-003-002-----0
  6
CONTINUOUS
 62
             1
100
AcDbCircle
 10
295.22064200000011
 20
-97.789877
 40
19.27970400000027
100
AcDbArc
 50
-0.5821239999997
 51
9.777816000001
  0
ARC
  5
267
100
AcDbEntity
  8
LC-003-002-----0
  6
CONTINUOUS
 62
             1
100
AcDbCircle
 10
309.50532099999998
 20
-95.30885200000007
 40
4.78121800000018
100
AcDbArc
 50
9.549560000006
 51
22.85484099999821
  0
ARC
  5
266
100
AcDbEntity
  8
LC-003-002-----0
  6
CONTINUOUS
 62
             1
100
AcDbCircle
 10
313.41153700000001
 20
-93.57479000000008
 40
0.51454300000021
100
AcDbArc
 50
13.82490799995785
 51
74.78725299998601
  0
ARC
  5
265
100
AcDbEntity
  8
LC-003-002-----0
  6
CONTINUOUS
 62
             1
100
AcDbCircle
 10
313.32397099999997
 20
-92.19448200000007
 40
0.91139400000004
100
AcDbArc
 50
-75.86400199998963
 51
-10.43739499998165
  0
ARC
  5
264
100
AcDbEntity
  8
LC-003-002-----0
  6
CONTINUOUS
 62
             1
100
AcDbCircle
 10
309.50345199999998
 20
-90.71096600000006
 40
4.9966460000004
100
AcDbArc
 50
-19.2655110000032
 51
0.99120999999761
  0
ARC
  5
263
100
AcDbEntity
  8
LC-003-002-----0
  6
CONTINUOUS
 62
             1
100
AcDbCircle
 10
309.50349299999999
 20
-90.53810500000004
 40
4.99660500000017
100
AcDbArc
 50
-0.99106399999826
 51
19.26577000000518
  0
ARC
  5
262
100
AcDbEntity
  8
LC-003-002-----0
  6
CONTINUOUS
 62
             1
100
AcDbCircle
 10
313.3239870000001
 20
-89.05457999999995
 40
0.91137299999961
100
AcDbArc
 50
10.43750000003031
 51
75.86518400003507
  0
ARC
  5
261
100
AcDbEntity
  8
LC-003-002-----0
  6
CONTINUOUS
 62
             1
100
AcDbCircle
 10
313.32398799999999
 20
-106.91693000000009
 40
0.91137100000008
100
AcDbArc
 50
-75.86527000002542
 51
-10.43750000000926
  0
ARC
  5
260
100
AcDbEntity
  8
LC-003-002-----0
  6
CONTINUOUS
 62
             1
100
AcDbCircle
 10
309.50349499999999
 20
-105.4334040000001
 40
4.99660299999993
100
AcDbArc
 50
-19.26578399999345
 51
0.99106000000353
  0
ARC
  5
25F
100
AcDbEntity
  8
LC-003-002-----0
  6
CONTINUOUS
 62
             1
100
AcDbCircle
 10
309.50345099999998
 20
-105.260544
 40
4.99664699999981
100
AcDbArc
 50
-0.99121600000439
 51
19.26550499999668
  0
ARC
  5
25E
100
AcDbEntity
  8
LC-003-002-----0
  6
CONTINUOUS
 62
             1
100
AcDbCircle
 10
313.32397099999997
 20
-103.777028
 40
0.91139399999997
100
AcDbArc
 50
10.43738699998208
 51
75.86399799997579
  0
ARC
  5
25D
100
AcDbEntity
  8
LC-003-002-----0
  6
CONTINUOUS
 62
             1
100
AcDbCircle
 10
278.67473000000001
 20
-103.7771230000001
 40
0.91139400000068
100
AcDbArc
 50
104.13600200001768
 51
169.56261300001177
  0
ARC
  5
25C
100
AcDbEntity
  8
LC-003-002-----0
  6
CONTINUOUS
 62
             1
100
AcDbCircle
 10
282.49525
 20
-105.2606390000001
 40
4.99664699999994
100
AcDbArc
 50
160.73449500000095
 51
-179.00878399999561
  0
ARC
  5
25B
100
AcDbEntity
  8
LC-003-002-----0
  6
CONTINUOUS
 62
             1
100
AcDbCircle
 10
282.495206
 20
-105.433499
 40
4.99660300000037
100
AcDbArc
 50
179.00893999999647
 51
-160.73421600000549
  0
ARC
  5
25A
100
AcDbEntity
  8
LC-003-002-----0
  6
CONTINUOUS
 62
             1
100
AcDbCircle
 10
278.67471300000011
 20
-106.917025
 40
0.91137099999998
100
AcDbArc
 50
-169.5624999999859
 51
-104.13472999997653
  0
ARC
  5
259
100
AcDbEntity
  8
LC-003-002-----0
  6
CONTINUOUS
 62
             1
100
AcDbCircle
 10
278.58716299999998
 20
-93.57488499999995
 40
0.51454299999965
100
AcDbArc
 50
105.21274699998956
 51
166.17509200005142
  0
ARC
  5
258
100
AcDbEntity
  8
LC-003-002-----0
  6
CONTINUOUS
 62
             1
100
AcDbCircle
 10
282.49338
 20
-95.30894699999995
 40
4.78121799999965
100
AcDbArc
 50
157.14515900000305
 51
170.45043999999533
  0
ARC
  5
257
100
AcDbEntity
  8
LC-003-002-----0
  6
CONTINUOUS
 62
             1
100
AcDbCircle
 10
296.77805899999998
 20
-97.78997199999999
 40
19.27970400000035
100
AcDbArc
 50
170.2221839999994
 51
-179.41787600000032
  0
ARC
  5
256
100
AcDbEntity
  8
LC-003-002-----0
  6
CONTINUOUS
 62
             1
100
AcDbCircle
 10
296.77805899999998
 20
-98.18172799999998
 40
19.27970400000038
100
AcDbArc
 50
179.41787600000032
 51
-170.22218399999952
  0
ARC
  5
255
100
AcDbEntity
  8
LC-003-002-----0
  6
CONTINUOUS
 62
             1
100
AcDbCircle
 10
282.49338
 20
-100.662753
 40
4.78121800000017
100
AcDbArc
 50
-170.4504399999945
 51
-157.14515900000242
  0
ARC
  5
254
100
AcDbEntity
  8
LC-003-002-----0
  6
CONTINUOUS
 62
             1
100
AcDbCircle
 10
278.58716299999998
 20
-102.396815
 40
0.51454300000008
100
AcDbArc
 50
-166.17509200004682
 51
-105.21274699998997
  0
ARC
  5
253
100
AcDbEntity
  8
LC-003-002-----0
  6
CONTINUOUS
 62
             1
100
AcDbCircle
 10
278.67471400000011
 20
-89.05467500000005
 40
0.91137300000048
100
AcDbArc
 50
104.13481599997185
 51
169.56249999995759
  0
ARC
  5
252
100
AcDbEntity
  8
LC-003-002-----0
  6
CONTINUOUS
 62
             1
100
AcDbCircle
 10
282.49520799999999
 20
-90.53819999999992
 40
4.99660499999991
100
AcDbArc
 50
160.73422999999585
 51
-179.0089360000004
  0
ARC
  5
251
100
AcDbEntity
  8
LC-003-002-----0
  6
CONTINUOUS
 62
             1
100
AcDbCircle
 10
282.495249
 20
-90.71106099999993
 40
4.99664600000045
100
AcDbArc
 50
179.0087900000037
 51
-160.73448899999681
  0
ARC
  5
250
100
AcDbEntity
  8
LC-003-002-----0
  6
CONTINUOUS
 62
             1
100
AcDbCircle
 10
278.67473000000001
 20
-92.19457699999994
 40
0.91139399999951
100
AcDbArc
 50
-169.56260500001071
 51
-104.13599800000169
  0
ARC
  5
24F
100
AcDbEntity
  8
LC-003-002-----0
  6
CONTINUOUS
 62
             1
100
AcDbCircle
 10
283.32398799999999
 20
-106.917025
 40
0.91137100000018
100
AcDbArc
 50
-75.86527000002694
 51
-10.43750000001541
  0
ARC
  5
24E
100
AcDbEntity
  8
LC-003-002-----0
  6
CONTINUOUS
 62
             1
100
AcDbCircle
 10
279.50349499999999
 20
-105.433499
 40
4.99660299999996
100
AcDbArc
 50
-19.26578399999452
 51
0.99106000000353
  0
ARC
  5
24D
100
AcDbEntity
  8
LC-003-002-----0
  6
CONTINUOUS
 62
             1
100
AcDbCircle
 10
279.50345099999998
 20
-105.2606390000001
 40
4.99664699999981
100
AcDbArc
 50
-0.99121600000439
 51
19.26550499999883
  0
ARC
  5
24C
100
AcDbEntity
  8
LC-003-002-----0
  6
CONTINUOUS
 62
             1
100
AcDbCircle
 10
283.32397099999997
 20
-103.7771230000001
 40
0.91139399999999
100
AcDbArc
 50
10.43738699998823
 51
75.86399799997885
  0
ARC
  5
24B
100
AcDbEntity
  8
LC-003-002-----0
  6
CONTINUOUS
 62
             1
100
AcDbCircle
 10
283.41153700000001
 20
-102.396815
 40
0.5145429999997
100
AcDbArc
 50
-74.78725299998561
 51
-13.82490799995017
  0
ARC
  5
24A
100
AcDbEntity
  8
LC-003-002-----0
  6
CONTINUOUS
 62
             1
100
AcDbCircle
 10
279.50532099999998
 20
-100.662753
 40
4.78121799999967
100
AcDbArc
 50
-22.85484099999759
 51
-9.5495600000055
  0
ARC
  5
249
100
AcDbEntity
  8
LC-003-002-----0
  6
CONTINUOUS
 62
             1
100
AcDbCircle
 10
265.22064200000011
 20
-98.18172799999998
 40
19.27970400000023
100
AcDbArc
 50
-9.77781600000055
 51
0.5821239999997
  0
ARC
  5
248
100
AcDbEntity
  8
LC-003-002-----0
  6
CONTINUOUS
 62
             1
100
AcDbCircle
 10
265.22064200000011
 20
-97.78997199999999
 40
19.27970400000027
100
AcDbArc
 50
-0.5821239999997
 51
9.77781600000067
  0
ARC
  5
247
100
AcDbEntity
  8
LC-003-002-----0
  6
CONTINUOUS
 62
             1
100
AcDbCircle
 10
279.50532099999998
 20
-95.30894699999995
 40
4.78121800000016
100
AcDbArc
 50
9.54956000000466
 51
22.85484099999696
  0
ARC
  5
246
100
AcDbEntity
  8
LC-003-002-----0
  6
CONTINUOUS
 62
             1
100
AcDbCircle
 10
283.41153700000001
 20
-93.57488499999995
 40
0.51454300000018
100
AcDbArc
 50
13.82490799994556
 51
74.78725299998601
  0
ARC
  5
245
100
AcDbEntity
  8
LC-003-002-----0
  6
CONTINUOUS
 62
             1
100
AcDbCircle
 10
283.32397099999997
 20
-92.19457699999994
 40
0.91139400000015
100
AcDbArc
 50
-75.86400199999139
 51
-10.43739499998867
  0
ARC
  5
244
100
AcDbEntity
  8
LC-003-002-----0
  6
CONTINUOUS
 62
             1
100
AcDbCircle
 10
279.50345199999998
 20
-90.71106099999993
 40
4.9966460000004
100
AcDbArc
 50
-19.2655110000032
 51
0.99120999999631
  0
ARC
  5
243
100
AcDbEntity
  8
LC-003-002-----0
  6
CONTINUOUS
 62
             1
100
AcDbCircle
 10
279.50349299999999
 20
-90.53819999999992
 40
4.99660500000017
100
AcDbArc
 50
-0.99106399999957
 51
19.26577000000395
  0
ARC
  5
242
100
AcDbEntity
  8
LC-003-002-----0
  6
CONTINUOUS
 62
             1
100
AcDbCircle
 10
283.3239870000001
 20
-89.05467500000005
 40
0.91137299999966
100
AcDbArc
 50
10.43750000004437
 51
75.86518400003855
  0
ARC
  5
241
100
AcDbEntity
  8
LC-003-002-----0
  6
CONTINUOUS
 62
             1
100
AcDbCircle
 10
278.67473000000001
 20
63.68420900000005
 40
0.91139400000049
100
AcDbArc
 50
104.13600200002075
 51
169.56261300002188
  0
ARC
  5
240
100
AcDbEntity
  8
LC-003-002-----0
  6
CONTINUOUS
 62
             1
100
AcDbCircle
 10
282.49525
 20
62.20069400000004
 40
4.99664699999989
100
AcDbArc
 50
160.73449500000265
 51
-179.00878399999579
  0
ARC
  5
23F
100
AcDbEntity
  8
LC-003-002-----0
  6
CONTINUOUS
 62
             1
100
AcDbCircle
 10
282.495206
 20
62.02783300000003
 40
4.99660300000037
100
AcDbArc
 50
179.00893999999616
 51
-160.73421600000509
  0
ARC
  5
23E
100
AcDbEntity
  8
LC-003-002-----0
  6
CONTINUOUS
 62
             1
100
AcDbCircle
 10
278.67471300000011
 20
60.54430700000005
 40
0.91137099999999
100
AcDbArc
 50
-169.56249999998283
 51
-104.13472999997663
  0
ARC
  5
23D
100
AcDbEntity
  8
LC-003-002-----0
  6
CONTINUOUS
 62
             1
100
AcDbCircle
 10
278.58716299999998
 20
73.88644700000002
 40
0.51454299999965
100
AcDbArc
 50
105.21274699998956
 51
166.17509200005142
  0
ARC
  5
23C
100
AcDbEntity
  8
LC-003-002-----0
  6
CONTINUOUS
 62
             1
100
AcDbCircle
 10
282.49338
 20
72.15238600000002
 40
4.78121799999965
100
AcDbArc
 50
157.14515900000305
 51
170.45043999999533
  0
ARC
  5
23B
100
AcDbEntity
  8
LC-003-002-----0
  6
CONTINUOUS
 62
             1
100
AcDbCircle
 10
296.77805899999998
 20
69.67135999999998
 40
19.27970400000037
100
AcDbArc
 50
170.22218399999906
 51
-179.41787600000032
  0
ARC
  5
23A
100
AcDbEntity
  8
LC-003-002-----0
  6
CONTINUOUS
 62
             1
100
AcDbCircle
 10
296.77805899999998
 20
69.27960499999999
 40
19.27970400000038
100
AcDbArc
 50
179.41787600000032
 51
-170.2221839999994
  0
ARC
  5
239
100
AcDbEntity
  8
LC-003-002-----0
  6
CONTINUOUS
 62
             1
100
AcDbCircle
 10
282.49338
 20
66.79857899999995
 40
4.78121800000016
100
AcDbArc
 50
-170.45043999999533
 51
-157.14515900000305
  0
ARC
  5
238
100
AcDbEntity
  8
LC-003-002-----0
  6
CONTINUOUS
 62
             1
100
AcDbCircle
 10
278.58716299999998
 20
65.06451799999995
 40
0.51454300000007
100
AcDbArc
 50
-166.17509200005142
 51
-105.21274699999287
  0
ARC
  5
237
100
AcDbEntity
  8
LC-003-002-----0
  6
CONTINUOUS
 62
             1
100
AcDbCircle
 10
278.67471400000011
 20
78.40665700000004
 40
0.91137300000037
100
AcDbArc
 50
104.1348159999736
 51
169.56250000002785
  0
ARC
  5
236
100
AcDbEntity
  8
LC-003-002-----0
  6
CONTINUOUS
 62
             1
100
AcDbCircle
 10
282.49520799999999
 20
76.92313200000005
 40
4.99660499999991
100
AcDbArc
 50
160.73422999999585
 51
-179.0089360000004
  0
ARC
  5
235
100
AcDbEntity
  8
LC-003-002-----0
  6
CONTINUOUS
 62
             1
100
AcDbCircle
 10
282.495249
 20
76.75027100000004
 40
4.99664600000045
100
AcDbArc
 50
179.0087900000037
 51
-160.73448899999681
  0
ARC
  5
234
100
AcDbEntity
  8
LC-003-002-----0
  6
CONTINUOUS
 62
             1
100
AcDbCircle
 10
278.67473000000001
 20
75.26675600000003
 40
0.91139399999951
100
AcDbArc
 50
-169.56260500001071
 51
-104.13599800000169
  0
ARC
  5
233
100
AcDbEntity
  8
LC-003-002-----0
  6
CONTINUOUS
 62
             1
100
AcDbCircle
 10
283.32398799999999
 20
60.54430700000005
 40
0.91137100000017
100
AcDbArc
 50
-75.86527000002684
 51
-10.43750000001848
  0
ARC
  5
232
100
AcDbEntity
  8
LC-003-002-----0
  6
CONTINUOUS
 62
             1
100
AcDbCircle
 10
279.50349499999999
 20
62.02783300000003
 40
4.99660299999997
100
AcDbArc
 50
-19.26578399999491
 51
0.99106000000385
  0
ARC
  5
231
100
AcDbEntity
  8
LC-003-002-----0
  6
CONTINUOUS
 62
             1
100
AcDbCircle
 10
279.50345099999998
 20
62.20069400000004
 40
4.99664699999981
100
AcDbArc
 50
-0.99121600000423
 51
19.26550499999714
  0
ARC
  5
230
100
AcDbEntity
  8
LC-003-002-----0
  6
CONTINUOUS
 62
             1
100
AcDbCircle
 10
283.32397099999997
 20
63.68420900000005
 40
0.91139399999996
100
AcDbArc
 50
10.43738699997813
 51
75.86399799997579
  0
ARC
  5
22F
100
AcDbEntity
  8
LC-003-002-----0
  6
CONTINUOUS
 62
             1
100
AcDbCircle
 10
283.32397099999997
 20
75.26675600000003
 40
0.91139400000015
100
AcDbArc
 50
-75.86400199999139
 51
-10.43739499998867
  0
ARC
  5
22E
100
AcDbEntity
  8
LC-003-002-----0
  6
CONTINUOUS
 62
             1
100
AcDbCircle
 10
279.50345199999998
 20
76.75027100000004
 40
4.9966460000004
100
AcDbArc
 50
-19.2655110000032
 51
0.99120999999631
  0
ARC
  5
22D
100
AcDbEntity
  8
LC-003-002-----0
  6
CONTINUOUS
 62
             1
100
AcDbCircle
 10
279.50349299999999
 20
76.92313200000005
 40
4.99660500000017
100
AcDbArc
 50
-0.99106399999957
 51
19.26577000000395
  0
ARC
  5
22C
100
AcDbEntity
  8
LC-003-002-----0
  6
CONTINUOUS
 62
             1
100
AcDbCircle
 10
283.3239870000001
 20
78.40665700000004
 40
0.91137299999945
100
AcDbArc
 50
10.43749999997408
 51
75.86518400003681
  0
ARC
  5
22B
100
AcDbEntity
  8
LC-003-002-----0
  6
CONTINUOUS
 62
             1
100
AcDbCircle
 10
313.32398799999999
 20
60.54430700000005
 40
0.91137100000017
100
AcDbArc
 50
-75.86527000002684
 51
-10.43750000001848
  0
ARC
  5
22A
100
AcDbEntity
  8
LC-003-002-----0
  6
CONTINUOUS
 62
             1
100
AcDbCircle
 10
309.50349499999999
 20
62.02783300000003
 40
4.99660299999997
100
AcDbArc
 50
-19.26578399999491
 51
0.99106000000385
  0
ARC
  5
229
100
AcDbEntity
  8
LC-003-002-----0
  6
CONTINUOUS
 62
             1
100
AcDbCircle
 10
309.50345099999998
 20
62.20069400000004
 40
4.99664699999981
100
AcDbArc
 50
-0.99121600000423
 51
19.26550499999714
  0
ARC
  5
228
100
AcDbEntity
  8
LC-003-002-----0
  6
CONTINUOUS
 62
             1
100
AcDbCircle
 10
313.32397099999997
 20
63.68420900000005
 40
0.91139399999996
100
AcDbArc
 50
10.43738699997813
 51
75.86399799997579
  0
ARC
  5
227
100
AcDbEntity
  8
LC-003-002-----0
  6
CONTINUOUS
 62
             1
100
AcDbCircle
 10
313.41153700000001
 20
65.06451799999995
 40
0.5145429999996
100
AcDbArc
 50
-74.7872529999827
 51
-13.82490799994556
  0
ARC
  5
226
100
AcDbEntity
  8
LC-003-002-----0
  6
CONTINUOUS
 62
             1
100
AcDbCircle
 10
309.50532099999998
 20
66.79857899999995
 40
4.78121799999965
100
AcDbArc
 50
-22.85484099999696
 51
-9.54956000000466
  0
ARC
  5
225
100
AcDbEntity
  8
LC-003-002-----0
  6
CONTINUOUS
 62
             1
100
AcDbCircle
 10
295.22064200000011
 20
69.27960499999999
 40
19.27970400000024
100
AcDbArc
 50
-9.77781600000067
 51
0.5821239999997
  0
ARC
  5
224
100
AcDbEntity
  8
LC-003-002-----0
  6
CONTINUOUS
 62
             1
100
AcDbCircle
 10
295.22064200000011
 20
69.67135999999998
 40
19.27970400000027
100
AcDbArc
 50
-0.5821239999997
 51
9.777816000001
  0
ARC
  5
223
100
AcDbEntity
  8
LC-003-002-----0
  6
CONTINUOUS
 62
             1
100
AcDbCircle
 10
309.50532099999998
 20
72.15238600000002
 40
4.78121800000016
100
AcDbArc
 50
9.54956000000466
 51
22.85484099999696
  0
ARC
  5
222
100
AcDbEntity
  8
LC-003-002-----0
  6
CONTINUOUS
 62
             1
100
AcDbCircle
 10
313.41153700000001
 20
73.88644700000002
 40
0.51454300000018
100
AcDbArc
 50
13.82490799994556
 51
74.78725299998601
  0
ARC
  5
221
100
AcDbEntity
  8
LC-003-002-----0
  6
CONTINUOUS
 62
             1
100
AcDbCircle
 10
313.32397099999997
 20
75.26675600000003
 40
0.91139400000015
100
AcDbArc
 50
-75.86400199999139
 51
-10.43739499998867
  0
ARC
  5
220
100
AcDbEntity
  8
LC-003-002-----0
  6
CONTINUOUS
 62
             1
100
AcDbCircle
 10
309.50345199999998
 20
76.75027100000004
 40
4.9966460000004
100
AcDbArc
 50
-19.2655110000032
 51
0.99120999999631
  0
ARC
  5
21F
100
AcDbEntity
  8
LC-003-002-----0
  6
CONTINUOUS
 62
             1
100
AcDbCircle
 10
309.50349299999999
 20
76.92313200000005
 40
4.99660500000017
100
AcDbArc
 50
-0.99106399999957
 51
19.26577000000395
  0
ARC
  5
21E
100
AcDbEntity
  8
LC-003-002-----0
  6
CONTINUOUS
 62
             1
100
AcDbCircle
 10
313.3239870000001
 20
78.40665700000004
 40
0.91137299999945
100
AcDbArc
 50
10.43749999997408
 51
75.86518400003681
  0
ARC
  5
21D
100
AcDbEntity
  8
LC-001-002-RND-0
  6
CONTINUOUS
 62
             7
100
AcDbCircle
 10
500.578866
 20
-104.4997520000001
 40
1.00000000000031
100
AcDbArc
 50
-90.0000449999915
 51
-0.99972699999895
  0
ARC
  5
21C
100
AcDbEntity
  8
LC-001-002-RND-0
  6
CONTINUOUS
 62
             7
100
AcDbCircle
 10
309.45531299999999
 20
-106.4990330000001
 40
3.99999999999985
100
AcDbArc
 50
-119.34549599999362
 51
-89.9996769999986
  0
ARC
  5
21B
100
AcDbEntity
  8
LC-001-002-RND-0
  6
CONTINUOUS
 62
             7
100
AcDbCircle
 10
340.00897600000002
 20
-106.498869
 40
4.00000000000042
100
AcDbArc
 50
-89.99965999999753
 51
0.0
  0
ARC
  5
21A
100
AcDbEntity
  8
LC-001-002-RND-0
  6
CONTINUOUS
 62
             7
100
AcDbCircle
 10
344.50897600000002
 20
-105.99963
 40
0.50000000000015
100
AcDbArc
 50
89.9999550000085
 51
180.0
  0
ARC
  5
219
100
AcDbEntity
  8
LC-001-002-RND-0
  6
CONTINUOUS
 62
             7
100
AcDbCircle
 10
126.009208
 20
-96.55837800000002
 40
4.00000000000041
100
AcDbArc
 50
-89.99965999999753
 51
0.0
  0
ARC
  5
218
100
AcDbEntity
  8
LC-001-002-RND-0
  6
CONTINUOUS
 62
             7
100
AcDbCircle
 10
130.509208
 20
-96.05913899999992
 40
0.50000000000015
100
AcDbArc
 50
89.9999550000085
 51
180.0
  0
ARC
  5
217
100
AcDbEntity
  8
LC-001-002-RND-0
  6
CONTINUOUS
 62
             7
100
AcDbCircle
 10
95.45554499999997
 20
-96.55854199999995
 40
4.00000000000045
100
AcDbArc
 50
-179.00027299999411
 51
-89.9996769999986
  0
ARC
  5
216
100
AcDbEntity
  8
LC-001-002-RND-0
  6
CONTINUOUS
 62
             7
100
AcDbCircle
 10
23.0
 20
-87.49999999999994
 40
6.0
100
AcDbArc
 50
-90.0
 51
0.0
  0
ARC
  5
215
100
AcDbEntity
  8
LC-001-002-RND-0
  6
CONTINUOUS
 62
             7
100
AcDbCircle
 10
15.0
 20
-87.49999999999994
 40
6.0
100
AcDbArc
 50
180.0
 51
-90.0
  0
ARC
  5
214
100
AcDbEntity
  8
LC-001-002-RND-0
  6
CONTINUOUS
 62
             7
100
AcDbCircle
 10
23.0
 20
87.49999999999994
 40
6.0
100
AcDbArc
 50
0.0
 51
90.0
  0
ARC
  5
213
100
AcDbEntity
  8
LC-001-002-RND-0
  6
CONTINUOUS
 62
             7
100
AcDbCircle
 10
15.0
 20
87.49999999999994
 40
6.0
100
AcDbArc
 50
90.0
 51
180.0
  0
ARC
  5
212
100
AcDbEntity
  8
LC-001-002-RND-0
  6
CONTINUOUS
 62
             7
100
AcDbCircle
 10
505.23557599999998
 20
104.50000800000009
 40
3.50000000000021
100
AcDbArc
 50
2.00000000000237
 51
90.0
  0
ARC
  5
211
100
AcDbEntity
  8
LC-001-002-RND-0
  6
CONTINUOUS
 62
             7
100
AcDbCircle
 10
301.76325800000001
 20
104.50000800000009
 40
3.5
100
AcDbArc
 50
90.0
 51
177.99999999999761
  0
ARC
  5
210
100
AcDbEntity
  8
LC-001-002-RND-0
  6
CONTINUOUS
 62
             7
100
AcDbCircle
 10
355.70907799999998
 20
118.00000800000009
 40
1.0
100
AcDbArc
 50
90.0
 51
180.0
  0
ARC
  5
20F
100
AcDbEntity
  8
LC-001-002-RND-0
  6
CONTINUOUS
 62
             7
100
AcDbCircle
 10
375.70907799999998
 20
118.00000800000009
 40
1.0
100
AcDbArc
 50
0.0
 51
90.0
  0
ARC
  5
20E
100
AcDbEntity
  8
LC-001-002-RND-0
  6
CONTINUOUS
 62
             7
100
AcDbCircle
 10
311.94842307691499
 20
112.000010076915
 40
3.16228028728118
100
AcDbArc
 50
108.43497262259416
 51
-161.56502737740584
  0
ARC
  5
20D
100
AcDbEntity
  8
LC-001-002-RND-0
  6
CONTINUOUS
 62
             7
100
AcDbCircle
 10
494.86244592308509
 20
112.000010076915
 40
3.16228028728127
100
AcDbArc
 50
-18.43497262259416
 51
71.56502737740333
  0
ARC
  5
20C
100
AcDbEntity
  8
LC-003-002-----0
  6
CONTINUOUS
 62
             7
100
AcDbCircle
 10
340.49957899999998
 20
128.250168
 40
1.0
100
AcDbArc
 50
180.0
 51
-89.99994199999676
  0
ARC
  5
20B
100
AcDbEntity
  8
LC-003-002-----0
  6
CONTINUOUS
 62
             7
100
AcDbCircle
 10
343.49957899999998
 20
128.250168
 40
0.99999999999952
100
AcDbArc
 50
-89.99994199999676
 51
0.0
  0
ARC
  5
20A
100
AcDbEntity
  8
LC-003-002-----0
  6
CONTINUOUS
 62
             7
100
AcDbCircle
 10
343.49957899999998
 20
131.250168
 40
1.0
100
AcDbArc
 50
0.0
 51
90.0
  0
ARC
  5
209
100
AcDbEntity
  8
LC-003-002-----0
  6
CONTINUOUS
 62
             7
100
AcDbCircle
 10
340.49957899999998
 20
131.250168
 40
1.0
100
AcDbArc
 50
90.0
 51
179.99984800002119
  0
ARC
  5
208
100
AcDbEntity
  8
LC-003-002-----0
  6
CONTINUOUS
 62
             7
100
AcDbCircle
 10
337.49957899999998
 20
130.6168210000001
 40
2.0
100
AcDbArc
 50
0.0
 51
79.66010899999414
  0
ARC
  5
207
100
AcDbEntity
  8
LC-003-002-----0
  6
CONTINUOUS
 62
             7
100
AcDbCircle
 10
341.99957899999998
 20
190.2790150000001
 40
66.27884599999982
100
AcDbArc
 50
-106.72695300000012
 51
-75.39745699999962
  0
ARC
  5
206
100
AcDbEntity
  8
LC-003-002-----0
  6
CONTINUOUS
 62
             7
100
AcDbCircle
 10
341.99957899999998
 20
69.22132200000003
 40
66.27884599999963
100
AcDbArc
 50
75.39747100000018
 51
106.72678199999963
  0
ARC
  5
205
100
AcDbEntity
  8
LC-003-002-----0
  6
CONTINUOUS
 62
             7
100
AcDbCircle
 10
353.49982100000011
 20
167.25033500000009
 40
40.99999999999987
100
AcDbArc
 50
-100.34008000000091
 51
-82.70025200000008
  0
ARC
  5
204
100
AcDbEntity
  8
LC-003-002-----0
  6
CONTINUOUS
 62
             7
100
AcDbCircle
 10
346.499796
 20
128.88368700000009
 40
2.00000000000042
100
AcDbArc
 50
179.99996299998961
 51
-100.34000499998746
  0
ARC
  5
203
100
AcDbEntity
  8
LC-003-002-----0
  6
CONTINUOUS
 62
             7
100
AcDbCircle
 10
346.499797
 20
130.61699100000001
 40
1.99999999999981
100
AcDbArc
 50
100.33983500000815
 51
179.9999629999904
  0
ARC
  5
202
100
AcDbEntity
  8
LC-003-002-----0
  6
CONTINUOUS
 62
             7
100
AcDbCircle
 10
353.49977200000001
 20
92.25033499999999
 40
41.00000000000007
100
AcDbArc
 50
82.70020299999962
 51
100.33983500000073
  0
ARC
  5
201
100
AcDbEntity
  8
LC-003-002-----0
  6
CONTINUOUS
 62
             7
100
AcDbCircle
 10
323.49957899999998
 20
128.7199370000001
 40
2.0
100
AcDbArc
 50
180.0
 51
-106.72695299998364
  0
ARC
  5
200
100
AcDbEntity
  8
LC-003-002-----0
  6
CONTINUOUS
 62
             7
100
AcDbCircle
 10
323.49957899999998
 20
130.78039999999999
 40
2.00000000000035
100
AcDbArc
 50
106.72678199999787
 51
180.0
  0
ARC
  5
1FF
100
AcDbEntity
  8
LC-003-002-----0
  6
CONTINUOUS
 62
             7
100
AcDbCircle
 10
323.49957899999998
 20
128.88351599999999
 40
2.0
100
AcDbArc
 50
180.0
 51
-100.34004300000142
  0
ARC
  5
1FE
100
AcDbEntity
  8
LC-003-002-----0
  6
CONTINUOUS
 62
             7
100
AcDbCircle
 10
330.49957899999998
 20
167.250168
 40
41.00000000000016
100
AcDbArc
 50
-100.33989100000042
 51
-79.66005099999941
  0
ARC
  5
1FD
100
AcDbEntity
  8
LC-003-002-----0
  6
CONTINUOUS
 62
             7
100
AcDbCircle
 10
323.49957899999998
 20
130.6168210000001
 40
1.99999999999942
100
AcDbArc
 50
100.3398719999943
 51
180.0
  0
ARC
  5
1FC
100
AcDbEntity
  8
LC-003-002-----0
  6
CONTINUOUS
 62
             7
100
AcDbCircle
 10
330.49957899999998
 20
92.25016799999996
 40
41.00000000000024
100
AcDbArc
 50
79.66010899999937
 51
100.33989100000041
  0
ARC
  5
1FB
100
AcDbEntity
  8
LC-003-002-----0
  6
CONTINUOUS
 62
             7
100
AcDbCircle
 10
337.49957899999998
 20
128.88351599999999
 40
2.00000000000016
100
AcDbArc
 50
-79.66005100000102
 51
0.0
  0
ARC
  5
1FA
100
AcDbEntity
  8
LC-001-002-RND-0
  6
CONTINUOUS
 62
             7
100
AcDbCircle
 10
463.49958800000002
 20
128.25118399999999
 40
1.0
100
AcDbArc
 50
180.0
 51
-89.99994200000002
  0
ARC
  5
1F9
100
AcDbEntity
  8
LC-001-002-RND-0
  6
CONTINUOUS
 62
             7
100
AcDbCircle
 10
466.49958800000002
 20
128.25118399999999
 40
0.9999999999994
100
AcDbArc
 50
-89.99994200000002
 51
0.0
  0
ARC
  5
1F8
100
AcDbEntity
  8
LC-001-002-RND-0
  6
CONTINUOUS
 62
             7
100
AcDbCircle
 10
466.49958800000002
 20
131.25118399999999
 40
1.0
100
AcDbArc
 50
0.0
 51
90.0
  0
ARC
  5
1F7
100
AcDbEntity
  8
LC-001-002-RND-0
  6
CONTINUOUS
 62
             7
100
AcDbCircle
 10
463.49958800000002
 20
131.25118399999999
 40
1.0
100
AcDbArc
 50
90.0
 51
179.99984800002608
  0
ARC
  5
1F6
100
AcDbEntity
  8
LC-001-002-RND-0
  6
CONTINUOUS
 62
             7
100
AcDbCircle
 10
460.49958800000002
 20
130.61783700000009
 40
2.0
100
AcDbArc
 50
0.0
 51
79.66010899999414
  0
ARC
  5
1F5
100
AcDbEntity
  8
LC-001-002-RND-0
  6
CONTINUOUS
 62
             7
100
AcDbCircle
 10
483.49958800000002
 20
128.72095300000009
 40
2.00000000000039
100
AcDbArc
 50
-73.27313999999731
 51
0.0
  0
ARC
  5
1F4
100
AcDbEntity
  8
LC-001-002-RND-0
  6
CONTINUOUS
 62
             7
100
AcDbCircle
 10
464.99958800000002
 20
190.28003100000009
 40
66.27884599999992
100
AcDbArc
 50
-106.72695300000019
 51
-73.27319900000029
  0
ARC
  5
1F3
100
AcDbEntity
  8
LC-001-002-RND-0
  6
CONTINUOUS
 62
             7
100
AcDbCircle
 10
483.49980499999998
 20
128.884694
 40
1.99999999999981
100
AcDbArc
 50
-79.66008799999237
 51
-0.0000370000104
  0
ARC
  5
1F2
100
AcDbEntity
  8
LC-001-002-RND-0
  6
CONTINUOUS
 62
             7
100
AcDbCircle
 10
483.49958800000002
 20
130.78141599999989
 40
2.0
100
AcDbArc
 50
0.0
 51
73.27319899999394
  0
ARC
  5
1F1
100
AcDbEntity
  8
LC-001-002-RND-0
  6
CONTINUOUS
 62
             7
100
AcDbCircle
 10
464.99958800000002
 20
69.22233799999997
 40
66.27884599999945
100
AcDbArc
 50
73.27319900000026
 51
106.7267819999997
  0
ARC
  5
1F0
100
AcDbEntity
  8
LC-001-002-RND-0
  6
CONTINUOUS
 62
             7
100
AcDbCircle
 10
483.49980599999998
 20
130.61799799999989
 40
2.00000000000042
100
AcDbArc
 50
-0.00003700000714
 51
79.65999700000268
  0
ARC
  5
1EF
100
AcDbEntity
  8
LC-001-002-RND-0
  6
CONTINUOUS
 62
             7
100
AcDbCircle
 10
476.49982999999997
 20
167.25135100000011
 40
40.99999999999986
100
AcDbArc
 50
-100.34008000000067
 51
-79.66014699999941
  0
ARC
  5
1EE
100
AcDbEntity
  8
LC-001-002-RND-0
  6
CONTINUOUS
 62
             7
100
AcDbCircle
 10
469.49980499999998
 20
128.88470299999989
 40
2.00000000000042
100
AcDbArc
 50
179.99996299998961
 51
-100.34000499998848
  0
ARC
  5
1ED
100
AcDbEntity
  8
LC-001-002-RND-0
  6
CONTINUOUS
 62
             7
100
AcDbCircle
 10
469.49980599999998
 20
130.61800699999989
 40
1.99999999999993
100
AcDbArc
 50
100.33983500000755
 51
179.99996299998389
  0
ARC
  5
1EC
100
AcDbEntity
  8
LC-001-002-RND-0
  6
CONTINUOUS
 62
             7
100
AcDbCircle
 10
476.49978099999998
 20
92.25135100000004
 40
40.99999999999998
100
AcDbArc
 50
79.66007200000028
 51
100.33983499999933
  0
ARC
  5
1EB
100
AcDbEntity
  8
LC-001-002-RND-0
  6
CONTINUOUS
 62
             7
100
AcDbCircle
 10
446.49958800000002
 20
128.72095300000009
 40
2.0
100
AcDbArc
 50
180.0
 51
-106.72695299998459
  0
ARC
  5
1EA
100
AcDbEntity
  8
LC-001-002-RND-0
  6
CONTINUOUS
 62
             7
100
AcDbCircle
 10
446.49958800000002
 20
130.78141599999989
 40
2.00000000000044
100
AcDbArc
 50
106.72678199999716
 51
180.0
  0
ARC
  5
1E9
100
AcDbEntity
  8
LC-001-002-RND-0
  6
CONTINUOUS
 62
             7
100
AcDbCircle
 10
446.49958800000002
 20
128.88453199999989
 40
2.0
100
AcDbArc
 50
180.0
 51
-100.34004300000238
  0
ARC
  5
1E8
100
AcDbEntity
  8
LC-001-002-RND-0
  6
CONTINUOUS
 62
             7
100
AcDbCircle
 10
453.49958800000002
 20
167.25118399999999
 40
41.00000000000028
100
AcDbArc
 50
-100.33989100000062
 51
-79.66005099999941
  0
ARC
  5
1E7
100
AcDbEntity
  8
LC-001-002-RND-0
  6
CONTINUOUS
 62
             7
100
AcDbCircle
 10
446.49958800000002
 20
130.61783700000009
 40
2.00000000000032
100
AcDbArc
 50
100.33987199998961
 51
180.0
  0
ARC
  5
1E6
100
AcDbEntity
  8
LC-001-002-RND-0
  6
CONTINUOUS
 62
             7
100
AcDbCircle
 10
453.49958800000002
 20
92.25118400000001
 40
41.00000000000037
100
AcDbArc
 50
79.66010899999948
 51
100.33989100000059
  0
ARC
  5
1E5
100
AcDbEntity
  8
LC-001-002-RND-0
  6
CONTINUOUS
 62
             7
100
AcDbCircle
 10
460.49958800000002
 20
128.88453199999989
 40
2.00000000000015
100
AcDbArc
 50
-79.66005100000263
 51
0.0
  0
ARC
  5
1E4
100
AcDbEntity
  8
LC-001-002-RND-0
  6
CONTINUOUS
 62
             7
100
AcDbCircle
 10
355.70907799999998
 20
211.278808
 40
1.0
100
AcDbArc
 50
90.0
 51
180.0
  0
ARC
  5
1E3
100
AcDbEntity
  8
LC-001-002-RND-0
  6
CONTINUOUS
 62
             7
100
AcDbCircle
 10
376.20907799999998
 20
236.4821280000001
 40
3.0
100
AcDbArc
 50
180.0
 51
-94.09604399999016
  0
ARC
  5
1E2
100
AcDbEntity
  8
LC-001-002-RND-0
  6
CONTINUOUS
 62
             7
100
AcDbCircle
 10
377.64398299999999
 20
226.5834790000001
 40
0.4999999999997
100
AcDbArc
 50
-89.55486999996113
 51
-56.43862000001759
  0
ARC
  5
1E1
100
AcDbEntity
  8
LC-001-002-RND-0
  6
CONTINUOUS
 62
             7
100
AcDbCircle
 10
371.20907799999998
 20
242.50000800000001
 40
2.0
100
AcDbArc
 50
0.0
 51
90.0
  0
ARC
  5
1E0
100
AcDbEntity
  8
LC-001-002-RND-0
  6
CONTINUOUS
 62
             7
100
AcDbCircle
 10
350.20907799999998
 20
242.50000800000001
 40
2.0
100
AcDbArc
 50
90.0
 51
180.0
  0
ARC
  5
1DF
100
AcDbEntity
  8
LC-001-002-RND-0
  6
CONTINUOUS
 62
             7
100
AcDbCircle
 10
350.20907799999998
 20
209.00000800000001
 40
2.0
100
AcDbArc
 50
180.0
 51
-90.0
  0
ARC
  5
1DE
100
AcDbEntity
  8
LC-001-002-RND-0
  6
CONTINUOUS
 62
             7
100
AcDbCircle
 10
360.20907799999998
 20
224.00000800000001
 40
2.0
100
AcDbArc
 50
90.0
 51
180.0
  0
ARC
  5
1DD
100
AcDbEntity
  8
LC-001-002-RND-0
  6
CONTINUOUS
 62
             7
100
AcDbCircle
 10
371.20907799999998
 20
228.00000800000001
 40
2.0
100
AcDbArc
 50
-90.0
 51
0.0
  0
ARC
  5
1DC
100
AcDbEntity
  8
LC-001-002-RND-0
  6
CONTINUOUS
 62
             7
100
AcDbCircle
 10
375.70907799999998
 20
229.50000800000001
 40
4.0000000000001
100
AcDbArc
 50
-56.43861999999462
 51
85.90395600000358
  0
ARC
  5
1DB
100
AcDbEntity
  8
LC-001-002-RND-0
  6
CONTINUOUS
 62
             7
100
AcDbCircle
 10
375.70907799999998
 20
229.50000800000001
 40
2.50000000000049
100
AcDbArc
 50
-39.1482619999964
 51
180.0
  0
ARC
  5
1DA
100
AcDbEntity
  8
LC-001-002-RND-0
  6
CONTINUOUS
 62
             7
100
AcDbCircle
 10
360.709293
 20
125.682592
 40
1.99999999999983
100
AcDbArc
 50
-179.99987399999171
 51
-89.99987399999253
  0
ARC
  5
1D9
100
AcDbEntity
  8
LC-001-002-RND-0
  6
CONTINUOUS
 62
             7
100
AcDbCircle
 10
370.709293
 20
125.682614
 40
1.99999999999983
100
AcDbArc
 50
-89.99987399999253
 51
0.00012600000543
  0
ARC
  5
1D8
100
AcDbEntity
  8
LC-001-002-RND-0
  6
CONTINUOUS
 62
             7
100
AcDbCircle
 10
360.709091
 20
223.49997500000001
 40
1.99999999999983
100
AcDbArc
 50
90.00012600000747
 51
-179.99987399999171
  0
ARC
  5
1D7
100
AcDbEntity
  8
LC-001-002-RND-0
  6
CONTINUOUS
 62
             7
100
AcDbCircle
 10
373.20908500000002
 20
226.00000300000011
 40
0.50000000000021
100
AcDbArc
 50
-89.99987400003812
 51
0.00012599993908
  0
ARC
  5
1D6
100
AcDbEntity
  8
LC-001-002-RND-0
  6
CONTINUOUS
 62
             7
100
AcDbCircle
 10
374.70908400000002
 20
226.68644299999991
 40
3.00000000000037
100
AcDbArc
 50
-84.99987400000097
 51
-11.59436199999057
  0
ARC
  5
1D5
100
AcDbEntity
  8
LC-001-002-RND-0
  6
CONTINUOUS
 62
             7
100
AcDbCircle
 10
360.70909499999999
 20
221.49997500000001
 40
1.99999999999983
100
AcDbArc
 50
90.00012600000747
 51
-179.99987399999171
  0
ARC
  5
1D4
100
AcDbEntity
  8
LC-001-002-RND-0
  6
CONTINUOUS
 62
             7
100
AcDbCircle
 10
275.86268000000001
 20
120.9404999999999
 40
2.0
100
AcDbArc
 50
0.0
 51
90.0
  0
ARC
  5
1D3
100
AcDbEntity
  8
LC-001-002-RND-0
  6
CONTINUOUS
 62
             7
100
AcDbCircle
 10
87.76348999999999
 20
114.4404999999999
 40
3.5
100
AcDbArc
 50
90.0
 51
177.99999999999434
  0
ARC
  5
1D2
100
AcDbEntity
  8
LC-001-002-RND-0
  6
CONTINUOUS
 62
             7
100
AcDbCircle
 10
291.23580800000002
 20
114.4404999999999
 40
3.50000000000027
100
AcDbArc
 50
2.00000000000559
 51
90.0
  0
ARC
  5
1D1
100
AcDbEntity
  8
LC-001-002-RND-0
  6
CONTINUOUS
 62
             7
100
AcDbCircle
 10
99.93217499999997
 20
120.9404999999999
 40
2.0
100
AcDbArc
 50
90.0
 51
180.0
  0
ARC
  5
1D0
100
AcDbEntity
  8
LC-003-002-----0
  6
CONTINUOUS
 62
             7
100
AcDbCircle
 10
126.49981099999999
 20
138.19066000000001
 40
1.0
100
AcDbArc
 50
180.0
 51
-89.99994199999759
  0
ARC
  5
1CF
100
AcDbEntity
  8
LC-003-002-----0
  6
CONTINUOUS
 62
             7
100
AcDbCircle
 10
129.49981099999999
 20
138.19066000000001
 40
0.99999999999943
100
AcDbArc
 50
-89.9999419999984
 51
0.0
  0
ARC
  5
1CE
100
AcDbEntity
  8
LC-003-002-----0
  6
CONTINUOUS
 62
             7
100
AcDbCircle
 10
129.49981099999999
 20
141.19066000000001
 40
1.0
100
AcDbArc
 50
0.0
 51
90.0
  0
ARC
  5
1CD
100
AcDbEntity
  8
LC-003-002-----0
  6
CONTINUOUS
 62
             7
100
AcDbCircle
 10
126.49981099999999
 20
141.19066000000001
 40
1.0
100
AcDbArc
 50
90.0
 51
179.99984800002119
  0
ARC
  5
1CC
100
AcDbEntity
  8
LC-003-002-----0
  6
CONTINUOUS
 62
             7
100
AcDbCircle
 10
123.49981099999999
 20
140.557312
 40
2.0
100
AcDbArc
 50
0.0
 51
79.66010899999414
  0
ARC
  5
1CB
100
AcDbEntity
  8
LC-003-002-----0
  6
CONTINUOUS
 62
             7
100
AcDbCircle
 10
146.49981099999999
 20
138.660428
 40
2.00000000000039
100
AcDbArc
 50
-73.27313999999731
 51
0.0
  0
ARC
  5
1CA
100
AcDbEntity
  8
LC-003-002-----0
  6
CONTINUOUS
 62
             7
100
AcDbCircle
 10
127.99981099999999
 20
200.219506
 40
66.27884599999973
100
AcDbArc
 50
-106.72695300000024
 51
-73.2731990000005
  0
ARC
  5
1C9
100
AcDbEntity
  8
LC-003-002-----0
  6
CONTINUOUS
 62
             7
100
AcDbCircle
 10
146.50002799999999
 20
138.82416900000001
 40
1.99999999999982
100
AcDbArc
 50
-79.66008799999322
 51
-0.00003700000796
  0
ARC
  5
1C8
100
AcDbEntity
  8
LC-003-002-----0
  6
CONTINUOUS
 62
             7
100
AcDbCircle
 10
146.49981099999999
 20
140.72089199999991
 40
2.0
100
AcDbArc
 50
0.0
 51
73.27319899999333
  0
ARC
  5
1C7
100
AcDbEntity
  8
LC-003-002-----0
  6
CONTINUOUS
 62
             7
100
AcDbCircle
 10
127.99981099999999
 20
79.16181399999998
 40
66.27884599999953
100
AcDbArc
 50
73.27319900000028
 51
106.72678199999963
  0
ARC
  5
1C6
100
AcDbEntity
  8
LC-003-002-----0
  6
CONTINUOUS
 62
             7
100
AcDbCircle
 10
146.50002900000001
 20
140.5574740000001
 40
2.00000000000042
100
AcDbArc
 50
-0.00003700001284
 51
79.65999700000268
  0
ARC
  5
1C5
100
AcDbEntity
  8
LC-003-002-----0
  6
CONTINUOUS
 62
             7
100
AcDbCircle
 10
139.50005300000001
 20
177.1908260000001
 40
40.99999999999977
100
AcDbArc
 50
-100.34008000000078
 51
-79.66014699999948
  0
ARC
  5
1C4
100
AcDbEntity
  8
LC-003-002-----0
  6
CONTINUOUS
 62
             7
100
AcDbCircle
 10
132.50002799999999
 20
138.8241780000001
 40
2.00000000000042
100
AcDbArc
 50
179.99996299999529
 51
-100.34000499998687
  0
ARC
  5
1C3
100
AcDbEntity
  8
LC-003-002-----0
  6
CONTINUOUS
 62
             7
100
AcDbCircle
 10
132.50002900000001
 20
140.55748299999991
 40
1.99999999999981
100
AcDbArc
 50
100.33983500000815
 51
179.99996299998716
  0
ARC
  5
1C2
100
AcDbEntity
  8
LC-003-002-----0
  6
CONTINUOUS
 62
             7
100
AcDbCircle
 10
139.50000399999999
 20
102.190826
 40
40.99999999999999
100
AcDbArc
 50
79.66007200000044
 51
100.3398350000007
  0
ARC
  5
1C1
100
AcDbEntity
  8
LC-003-002-----0
  6
CONTINUOUS
 62
             7
100
AcDbCircle
 10
109.49981099999999
 20
138.660428
 40
2.0
100
AcDbArc
 50
180.0
 51
-106.72695299998529
  0
ARC
  5
1C0
100
AcDbEntity
  8
LC-003-002-----0
  6
CONTINUOUS
 62
             7
100
AcDbCircle
 10
109.49981099999999
 20
140.72089199999991
 40
2.00000000000033
100
AcDbArc
 50
106.72678199999811
 51
180.0
  0
ARC
  5
1BF
100
AcDbEntity
  8
LC-003-002-----0
  6
CONTINUOUS
 62
             7
100
AcDbCircle
 10
109.49981099999999
 20
138.82400799999991
 40
2.0
100
AcDbArc
 50
180.0
 51
-100.34004300000197
  0
ARC
  5
1BE
100
AcDbEntity
  8
LC-003-002-----0
  6
CONTINUOUS
 62
             7
100
AcDbCircle
 10
116.49981099999999
 20
177.19066000000001
 40
41.00000000000019
100
AcDbArc
 50
-100.33989100000058
 51
-79.66005099999941
  0
ARC
  5
1BD
100
AcDbEntity
  8
LC-003-002-----0
  6
CONTINUOUS
 62
             7
100
AcDbCircle
 10
109.49981099999999
 20
140.557312
 40
1.99999999999934
100
AcDbArc
 50
100.33987199999473
 51
180.0
  0
ARC
  5
1BC
100
AcDbEntity
  8
LC-003-002-----0
  6
CONTINUOUS
 62
             7
100
AcDbCircle
 10
116.49981099999999
 20
102.19066000000009
 40
41.00000000000028
100
AcDbArc
 50
79.66010899999942
 51
100.33989100000056
  0
ARC
  5
1BB
100
AcDbEntity
  8
LC-003-002-----0
  6
CONTINUOUS
 62
             7
100
AcDbCircle
 10
123.49981099999999
 20
138.82400799999991
 40
2.00000000000027
100
AcDbArc
 50
-79.66005100000201
 51
0.0
  0
ARC
  5
1BA
100
AcDbEntity
  8
LC-003-002-----0
  6
CONTINUOUS
 62
             7
100
AcDbCircle
 10
249.49982000000011
 20
138.191676
 40
1.0
100
AcDbArc
 50
180.0
 51
-89.99994200000491
  0
ARC
  5
1B9
100
AcDbEntity
  8
LC-003-002-----0
  6
CONTINUOUS
 62
             7
100
AcDbCircle
 10
252.49982000000011
 20
138.191676
 40
0.9999999999996
100
AcDbArc
 50
-89.99994200000491
 51
0.0
  0
ARC
  5
1B8
100
AcDbEntity
  8
LC-003-002-----0
  6
CONTINUOUS
 62
             7
100
AcDbCircle
 10
252.49982000000011
 20
141.191676
 40
1.0
100
AcDbArc
 50
0.0
 51
90.0
  0
ARC
  5
1B7
100
AcDbEntity
  8
LC-003-002-----0
  6
CONTINUOUS
 62
             7
100
AcDbCircle
 10
249.49982000000011
 20
141.191676
 40
1.0
100
AcDbArc
 50
90.0
 51
179.99984800002119
  0
ARC
  5
1B6
100
AcDbEntity
  8
LC-003-002-----0
  6
CONTINUOUS
 62
             7
100
AcDbCircle
 10
246.49982000000011
 20
140.5583280000001
 40
2.0
100
AcDbArc
 50
0.0
 51
79.66010899999733
  0
ARC
  5
1B5
100
AcDbEntity
  8
LC-003-002-----0
  6
CONTINUOUS
 62
             7
100
AcDbCircle
 10
269.49982000000011
 20
138.6614440000001
 40
2.0000000000005
100
AcDbArc
 50
-73.27313999999824
 51
0.0
  0
ARC
  5
1B4
100
AcDbEntity
  8
LC-003-002-----0
  6
CONTINUOUS
 62
             7
100
AcDbCircle
 10
250.99982000000011
 20
200.2205220000001
 40
66.27884599999987
100
AcDbArc
 50
-106.72695300000031
 51
-73.27319899999975
  0
ARC
  5
1B3
100
AcDbEntity
  8
LC-003-002-----0
  6
CONTINUOUS
 62
             7
100
AcDbCircle
 10
269.50003700000002
 20
138.82518499999989
 40
1.9999999999999
100
AcDbArc
 50
-79.66008799999447
 51
-0.00003700000959
  0
ARC
  5
1B2
100
AcDbEntity
  8
LC-003-002-----0
  6
CONTINUOUS
 62
             7
100
AcDbCircle
 10
269.49982000000011
 20
140.72190800000001
 40
2.0
100
AcDbArc
 50
0.0
 51
73.27319899999385
  0
ARC
  5
1B1
100
AcDbEntity
  8
LC-003-002-----0
  6
CONTINUOUS
 62
             7
100
AcDbCircle
 10
250.99982000000011
 20
79.16283000000003
 40
66.27884600000068
100
AcDbArc
 50
73.27319899999976
 51
106.72678199999973
  0
ARC
  5
1B0
100
AcDbEntity
  8
LC-003-002-----0
  6
CONTINUOUS
 62
             7
100
AcDbCircle
 10
269.50003800000002
 20
140.55849000000009
 40
2.00000000000042
100
AcDbArc
 50
-0.00003700001284
 51
79.65999700000326
  0
ARC
  5
1AF
100
AcDbEntity
  8
LC-003-002-----0
  6
CONTINUOUS
 62
             7
100
AcDbCircle
 10
262.50006200000001
 20
177.19184200000009
 40
40.99999999999996
100
AcDbArc
 50
-100.34008000000073
 51
-79.66014699999944
  0
ARC
  5
1AE
100
AcDbEntity
  8
LC-003-002-----0
  6
CONTINUOUS
 62
             7
100
AcDbCircle
 10
255.50003699999999
 20
138.8251940000001
 40
2.00000000000042
100
AcDbArc
 50
179.99996299998961
 51
-100.34000499998746
  0
ARC
  5
1AD
100
AcDbEntity
  8
LC-003-002-----0
  6
CONTINUOUS
 62
             7
100
AcDbCircle
 10
255.50003799999999
 20
140.55849900000001
 40
1.99999999999981
100
AcDbArc
 50
100.33983500000815
 51
179.9999629999904
  0
ARC
  5
1AC
100
AcDbEntity
  8
LC-003-002-----0
  6
CONTINUOUS
 62
             7
100
AcDbCircle
 10
262.50001300000002
 20
102.19184200000009
 40
40.9999999999998
100
AcDbArc
 50
79.66007200000048
 51
100.3398349999994
  0
ARC
  5
1AB
100
AcDbEntity
  8
LC-003-002-----0
  6
CONTINUOUS
 62
             7
100
AcDbCircle
 10
232.49982000000011
 20
138.6614440000001
 40
2.0
100
AcDbArc
 50
180.0
 51
-106.72695299998605
  0
ARC
  5
1AA
100
AcDbEntity
  8
LC-003-002-----0
  6
CONTINUOUS
 62
             7
100
AcDbCircle
 10
232.49982000000011
 20
140.72190800000001
 40
2.00000000000036
100
AcDbArc
 50
106.72678200000122
 51
180.0
  0
ARC
  5
1A9
100
AcDbEntity
  8
LC-003-002-----0
  6
CONTINUOUS
 62
             7
100
AcDbCircle
 10
232.49982000000011
 20
138.82502400000001
 40
2.0
100
AcDbArc
 50
180.0
 51
-100.34004300000078
  0
ARC
  5
1A8
100
AcDbEntity
  8
LC-003-002-----0
  6
CONTINUOUS
 62
             7
100
AcDbCircle
 10
239.49982000000011
 20
177.191676
 40
41.00000000000021
100
AcDbArc
 50
-100.33989100000076
 51
-79.66005099999943
  0
ARC
  5
1A7
100
AcDbEntity
  8
LC-003-002-----0
  6
CONTINUOUS
 62
             7
100
AcDbCircle
 10
232.49982000000011
 20
140.5583280000001
 40
1.99999999999944
100
AcDbArc
 50
100.3398719999975
 51
180.0
  0
ARC
  5
1A6
100
AcDbEntity
  8
LC-003-002-----0
  6
CONTINUOUS
 62
             7
100
AcDbCircle
 10
239.49982000000011
 20
102.1916759999999
 40
41.00000000000027
100
AcDbArc
 50
79.66010899999958
 51
100.33989100000073
  0
ARC
  5
1A5
100
AcDbEntity
  8
LC-003-002-----0
  6
CONTINUOUS
 62
             7
100
AcDbCircle
 10
246.49982000000011
 20
138.82502400000001
 40
2.00000000000025
100
AcDbArc
 50
-79.66005100000561
 51
0.0
  0
ARC
  5
1A4
100
AcDbEntity
  8
LC-001-002-RND-0
  6
CONTINUOUS
 62
             7
100
AcDbCircle
 10
137.49981099999999
 20
93.94049999999997
 40
0.5
100
AcDbArc
 50
-90.0
 51
0.0
  0
ARC
  5
1A3
100
AcDbEntity
  8
LC-001-002-RND-0
  6
CONTINUOUS
 62
             7
100
AcDbCircle
 10
118.49981099999999
 20
93.94049999999997
 40
0.5
100
AcDbArc
 50
180.0
 51
-90.0
  0
ARC
  5
1A2
100
AcDbEntity
  8
LC-001-002-RND-0
  6
CONTINUOUS
 62
             7
100
AcDbCircle
 10
118.49981099999999
 20
100.9404999999999
 40
0.5
100
AcDbArc
 50
90.0
 51
180.0
  0
ARC
  5
1A1
100
AcDbEntity
  8
LC-001-002-RND-0
  6
CONTINUOUS
 62
             7
100
AcDbCircle
 10
137.49981099999999
 20
100.9404999999999
 40
0.5
100
AcDbArc
 50
0.0
 51
90.0
  0
ARC
  5
1A0
100
AcDbEntity
  8
LC-001-002-RND-0
  6
CONTINUOUS
 62
             7
100
AcDbCircle
 10
118.49981099999999
 20
108.9404999999999
 40
0.5
100
AcDbArc
 50
90.0
 51
180.0
  0
ARC
  5
19F
100
AcDbEntity
  8
LC-001-002-RND-0
  6
CONTINUOUS
 62
             7
100
AcDbCircle
 10
137.49981099999999
 20
108.9404999999999
 40
0.5
100
AcDbArc
 50
0.0
 51
90.0
  0
ARC
  5
19E
100
AcDbEntity
  8
LC-001-002-RND-0
  6
CONTINUOUS
 62
             7
100
AcDbCircle
 10
118.49981099999999
 20
101.9404999999999
 40
0.5
100
AcDbArc
 50
180.0
 51
-90.0
  0
ARC
  5
19D
100
AcDbEntity
  8
LC-001-002-RND-0
  6
CONTINUOUS
 62
             7
100
AcDbCircle
 10
137.49981099999999
 20
101.9404999999999
 40
0.5
100
AcDbArc
 50
-90.0
 51
0.0
  0
LINE
  5
19C
100
AcDbEntity
  8
LC-003-002-----0
  6
CONTINUOUS
 62
             7
100
AcDbLine
 10
107.697822226572
 20
137.80785950469109
 11
107.691815077649
 21
137.805355428995
  0
ARC
  5
19B
100
AcDbEntity
  8
LC-001-002-RND-0
  6
CONTINUOUS
 62
             7
100
AcDbCircle
 10
295.99934999999999
 20
77.22548199999999
 40
1.0
100
AcDbArc
 50
0.0
 51
90.0
  0
ARC
  5
19A
100
AcDbEntity
  8
LC-001-002-RND-0
  6
CONTINUOUS
 62
             7
100
AcDbCircle
 10
291.99934999999999
 20
78.97548199999999
 40
1.0
100
AcDbArc
 50
0.0
 51
90.0
  0
ARC
  5
199
100
AcDbEntity
  8
LC-001-002-RND-0
  6
CONTINUOUS
 62
             7
100
AcDbCircle
 10
295.99934999999999
 20
61.72548199999999
 40
1.0
100
AcDbArc
 50
-90.0
 51
0.0
  0
ARC
  5
198
100
AcDbEntity
  8
LC-001-002-RND-0
  6
CONTINUOUS
 62
             7
100
AcDbCircle
 10
295.99934999999999
 20
-90.235755
 40
1.0
100
AcDbArc
 50
0.0
 51
90.0
  0
ARC
  5
197
100
AcDbEntity
  8
LC-001-002-RND-0
  6
CONTINUOUS
 62
             7
100
AcDbCircle
 10
295.99934999999999
 20
-105.735755
 40
1.0
100
AcDbArc
 50
-90.0
 51
0.0
  0
ARC
  5
196
100
AcDbEntity
  8
LC-001-002-RND-0
  6
CONTINUOUS
 62
             7
100
AcDbCircle
 10
291.99934999999999
 20
-108.98575700000001
 40
1.0
100
AcDbArc
 50
-90.0
 51
0.0
  0
ARC
  5
195
100
AcDbEntity
  8
LC-001-002-RND-0
  6
CONTINUOUS
 62
             7
100
AcDbCircle
 10
301.99934999999999
 20
-108.985755
 40
1.0
100
AcDbArc
 50
180.0
 51
-90.0
  0
ARC
  5
194
100
AcDbEntity
  8
LC-001-002-RND-0
  6
CONTINUOUS
 62
             7
100
AcDbCircle
 10
301.99934999999999
 20
78.97250200000001
 40
1.0
100
AcDbArc
 50
90.0
 51
180.0
  0
ARC
  5
193
100
AcDbEntity
  8
LC-001-002-RND-0
  6
CONTINUOUS
 62
             7
100
AcDbCircle
 10
297.99934999999999
 20
61.72548199999999
 40
1.0
100
AcDbArc
 50
180.0
 51
-90.0
  0
ARC
  5
192
100
AcDbEntity
  8
LC-001-002-RND-0
  6
CONTINUOUS
 62
             7
100
AcDbCircle
 10
297.99934999999999
 20
77.22548199999999
 40
1.0
100
AcDbArc
 50
90.0
 51
180.0
  0
ARC
  5
191
100
AcDbEntity
  8
LC-001-002-RND-0
  6
CONTINUOUS
 62
             7
100
AcDbCircle
 10
297.99934999999999
 20
-105.735755
 40
1.0
100
AcDbArc
 50
180.0
 51
-90.0
  0
ARC
  5
190
100
AcDbEntity
  8
LC-001-002-RND-0
  6
CONTINUOUS
 62
             7
100
AcDbCircle
 10
297.99934999999999
 20
-90.235755
 40
1.0
100
AcDbArc
 50
90.0
 51
180.0
  0
ARC
  5
18F
100
AcDbEntity
  8
LC-001-002-RND-0
  6
CONTINUOUS
 62
             7
100
AcDbCircle
 10
260.49982000000011
 20
93.94151600000002
 40
0.5
100
AcDbArc
 50
-90.0
 51
0.0
  0
ARC
  5
18E
100
AcDbEntity
  8
LC-001-002-RND-0
  6
CONTINUOUS
 62
             7
100
AcDbCircle
 10
241.49982000000011
 20
93.94151600000002
 40
0.5
100
AcDbArc
 50
180.0
 51
-90.0
  0
ARC
  5
18D
100
AcDbEntity
  8
LC-001-002-RND-0
  6
CONTINUOUS
 62
             7
100
AcDbCircle
 10
241.49982000000011
 20
100.94151600000011
 40
0.5
100
AcDbArc
 50
90.0
 51
180.0
  0
ARC
  5
18C
100
AcDbEntity
  8
LC-001-002-RND-0
  6
CONTINUOUS
 62
             7
100
AcDbCircle
 10
260.49982000000011
 20
100.94151600000011
 40
0.5
100
AcDbArc
 50
0.0
 51
90.0
  0
ARC
  5
18B
100
AcDbEntity
  8
LC-001-002-RND-0
  6
CONTINUOUS
 62
             7
100
AcDbCircle
 10
241.49982000000011
 20
108.94151600000011
 40
0.5
100
AcDbArc
 50
90.0
 51
180.0
  0
ARC
  5
18A
100
AcDbEntity
  8
LC-001-002-RND-0
  6
CONTINUOUS
 62
             7
100
AcDbCircle
 10
260.49982000000011
 20
108.94151600000011
 40
0.5
100
AcDbArc
 50
0.0
 51
90.0
  0
ARC
  5
189
100
AcDbEntity
  8
LC-001-002-RND-0
  6
CONTINUOUS
 62
             7
100
AcDbCircle
 10
241.49982000000011
 20
101.94151600000011
 40
0.5
100
AcDbArc
 50
180.0
 51
-90.0
  0
ARC
  5
188
100
AcDbEntity
  8
LC-001-002-RND-0
  6
CONTINUOUS
 62
             7
100
AcDbCircle
 10
260.49982000000011
 20
101.94151600000011
 40
0.5
100
AcDbArc
 50
-90.0
 51
0.0
  0
ARC
  5
187
100
AcDbEntity
  8
LC-001-002-RND-0
  6
CONTINUOUS
 62
             7
100
AcDbCircle
 10
351.49957899999998
 20
84.00000800000002
 40
0.5
100
AcDbArc
 50
-90.0
 51
0.0
  0
ARC
  5
186
100
AcDbEntity
  8
LC-001-002-RND-0
  6
CONTINUOUS
 62
             7
100
AcDbCircle
 10
332.49957899999998
 20
84.00000800000002
 40
0.5
100
AcDbArc
 50
180.0
 51
-90.0
  0
ARC
  5
185
100
AcDbEntity
  8
LC-001-002-RND-0
  6
CONTINUOUS
 62
             7
100
AcDbCircle
 10
332.49957899999998
 20
91.00000800000002
 40
0.5
100
AcDbArc
 50
90.0
 51
180.0
  0
ARC
  5
184
100
AcDbEntity
  8
LC-001-002-RND-0
  6
CONTINUOUS
 62
             7
100
AcDbCircle
 10
351.49957899999998
 20
91.00000800000002
 40
0.5
100
AcDbArc
 50
0.0
 51
90.0
  0
ARC
  5
183
100
AcDbEntity
  8
LC-001-002-RND-0
  6
CONTINUOUS
 62
             7
100
AcDbCircle
 10
332.49957899999998
 20
99.00000800000005
 40
0.5
100
AcDbArc
 50
90.0
 51
180.0
  0
ARC
  5
182
100
AcDbEntity
  8
LC-001-002-RND-0
  6
CONTINUOUS
 62
             7
100
AcDbCircle
 10
351.49957899999998
 20
99.00000800000005
 40
0.5
100
AcDbArc
 50
0.0
 51
90.0
  0
ARC
  5
181
100
AcDbEntity
  8
LC-001-002-RND-0
  6
CONTINUOUS
 62
             7
100
AcDbCircle
 10
332.49957899999998
 20
92.00000800000002
 40
0.5
100
AcDbArc
 50
180.0
 51
-90.0
  0
ARC
  5
180
100
AcDbEntity
  8
LC-001-002-RND-0
  6
CONTINUOUS
 62
             7
100
AcDbCircle
 10
351.49957899999998
 20
92.00000800000002
 40
0.5
100
AcDbArc
 50
-90.0
 51
0.0
  0
ARC
  5
17F
100
AcDbEntity
  8
LC-001-002-RND-0
  6
CONTINUOUS
 62
             7
100
AcDbCircle
 10
474.49958800000002
 20
84.00102399999996
 40
0.5
100
AcDbArc
 50
-90.0
 51
0.0
  0
ARC
  5
17E
100
AcDbEntity
  8
LC-001-002-RND-0
  6
CONTINUOUS
 62
             7
100
AcDbCircle
 10
455.49958800000002
 20
84.00102399999996
 40
0.5
100
AcDbArc
 50
180.0
 51
-90.0
  0
ARC
  5
17D
100
AcDbEntity
  8
LC-001-002-RND-0
  6
CONTINUOUS
 62
             7
100
AcDbCircle
 10
455.49958800000002
 20
91.00102399999996
 40
0.5
100
AcDbArc
 50
90.0
 51
180.0
  0
ARC
  5
17C
100
AcDbEntity
  8
LC-001-002-RND-0
  6
CONTINUOUS
 62
             7
100
AcDbCircle
 10
474.49958800000002
 20
91.00102399999996
 40
0.5
100
AcDbArc
 50
0.0
 51
90.0
  0
ARC
  5
17B
100
AcDbEntity
  8
LC-001-002-RND-0
  6
CONTINUOUS
 62
             7
100
AcDbCircle
 10
455.49958800000002
 20
99.00102399999994
 40
0.5
100
AcDbArc
 50
90.0
 51
180.0
  0
ARC
  5
17A
100
AcDbEntity
  8
LC-001-002-RND-0
  6
CONTINUOUS
 62
             7
100
AcDbCircle
 10
474.49958800000002
 20
99.00102399999994
 40
0.5
100
AcDbArc
 50
0.0
 51
90.0
  0
ARC
  5
179
100
AcDbEntity
  8
LC-001-002-RND-0
  6
CONTINUOUS
 62
             7
100
AcDbCircle
 10
455.49958800000002
 20
92.00102399999996
 40
0.5
100
AcDbArc
 50
180.0
 51
-90.0
  0
ARC
  5
178
100
AcDbEntity
  8
LC-001-002-RND-0
  6
CONTINUOUS
 62
             7
100
AcDbCircle
 10
474.49958800000002
 20
92.00102399999996
 40
0.5
100
AcDbArc
 50
-90.0
 51
0.0
  0
ARC
  5
177
100
AcDbEntity
  8
LC-003-002-----0
  6
CONTINUOUS
 62
             7
100
AcDbCircle
 10
280.64742700000011
 20
129.895432
 40
1.0
100
AcDbArc
 50
0.0
 51
90.0
  0
ARC
  5
176
100
AcDbEntity
  8
LC-003-002-----0
  6
CONTINUOUS
 62
             7
100
AcDbCircle
 10
114.854664
 20
242.940166
 40
5.0
100
AcDbArc
 50
90.0
 51
179.00000000000475
  0
ARC
  5
175
100
AcDbEntity
  8
LC-003-002-----0
  6
CONTINUOUS
 62
             7
100
AcDbCircle
 10
165.68268800000001
 20
242.940166
 40
5.00000000000005
100
AcDbArc
 50
1.00000100000468
 51
90.0
  0
ARC
  5
174
100
AcDbEntity
  8
LC-003-002-----0
  6
CONTINUOUS
 62
             7
100
AcDbCircle
 10
132.89742100000001
 20
256.50016599999998
 40
3.0
100
AcDbArc
 50
90.0
 51
180.0
  0
ARC
  5
173
100
AcDbEntity
  8
LC-003-002-----0
  6
CONTINUOUS
 62
             7
100
AcDbCircle
 10
154.89742100000001
 20
256.50016599999998
 40
3.0
100
AcDbArc
 50
0.0
 51
90.0
  0
ARC
  5
172
100
AcDbEntity
  8
LC-003-002-----0
  6
CONTINUOUS
 62
             7
100
AcDbCircle
 10
95.14742799999999
 20
129.895432
 40
1.0
100
AcDbArc
 50
90.0
 51
180.0
  0
ARC
  5
171
100
AcDbEntity
  8
LC-003-002-----0
  6
CONTINUOUS
 62
             7
100
AcDbCircle
 10
261.41162200000002
 20
215.940168
 40
4.99999999999983
100
AcDbArc
 50
1.00038700000246
 51
90.0
  0
ARC
  5
170
100
AcDbEntity
  8
LC-003-002-----0
  6
CONTINUOUS
 62
             7
100
AcDbCircle
 10
239.89742100000001
 20
230.440168
 40
3.0
100
AcDbArc
 50
90.0
 51
180.0
  0
ARC
  5
16F
100
AcDbEntity
  8
LC-003-002-----0
  6
CONTINUOUS
 62
             7
100
AcDbCircle
 10
245.89742100000001
 20
230.440168
 40
3.0
100
AcDbArc
 50
0.0
 51
90.0
  0
ARC
  5
16E
100
AcDbEntity
  8
LC-003-002-----0
  6
CONTINUOUS
 62
             7
100
AcDbCircle
 10
242.89742100000001
 20
222.815168
 40
6.62499999999967
100
AcDbArc
 50
58.1092079999959
 51
121.8907920000043
  0
ARC
  5
16D
100
AcDbEntity
  8
LC-003-002-----0
  6
CONTINUOUS
 62
             7
100
AcDbCircle
 10
237.64742100000001
 20
227.408918
 40
2.03125000000037
100
AcDbArc
 50
30.51023699999411
 51
149.48976300000629
  0
ARC
  5
16C
100
AcDbEntity
  8
LC-003-002-----0
  6
CONTINUOUS
 62
             7
100
AcDbCircle
 10
248.14742100000001
 20
227.408918
 40
2.03125000000037
100
AcDbArc
 50
30.51023699999411
 51
149.48976300000629
  0
ARC
  5
16B
100
AcDbEntity
  8
LC-003-002-----0
  6
CONTINUOUS
 62
             7
100
AcDbCircle
 10
249.89742100000001
 20
233.440168
 40
10.0
100
AcDbArc
 50
90.0
 51
180.0
  0
ARC
  5
16A
100
AcDbEntity
  8
LC-003-002-----0
  6
CONTINUOUS
 62
             7
100
AcDbCircle
 10
249.89742100000001
 20
233.440168
 40
4.0
100
AcDbArc
 50
90.0
 51
180.0
  0
ARC
  5
169
100
AcDbEntity
  8
LC-003-002-----0
  6
CONTINUOUS
 62
             7
100
AcDbCircle
 10
281.630379
 20
223.440168
 40
20.0
100
AcDbArc
 50
0.0
 51
90.0
  0
ARC
  5
168
100
AcDbEntity
  8
LC-003-002-----0
  6
CONTINUOUS
 62
             7
100
AcDbCircle
 10
281.630379
 20
223.440168
 40
14.0
100
AcDbArc
 50
0.0
 51
90.0
  0
ARC
  5
167
100
AcDbEntity
  8
LC-003-002-----0
  6
DASHDOT
 62
             2
100
AcDbCircle
 10
249.89742100000001
 20
233.440168
 40
7.0
100
AcDbArc
 50
90.0
 51
180.0
  0
ARC
  5
166
100
AcDbEntity
  8
LC-003-002-----0
  6
DASHDOT
 62
             2
100
AcDbCircle
 10
281.630379
 20
223.440168
 40
17.0
100
AcDbArc
 50
0.0
 51
90.0
  0
LINE
  5
165
100
AcDbEntity
  8
1
  6
DOT_CENTER
 62
             2
100
AcDbLine
 10
-6.0
 20
80.0
 11
-3.0
 21
80.0
  0
LINE
  5
164
100
AcDbEntity
  8
1
  6
DOT_CENTER
 62
             2
100
AcDbLine
 10
-6.0
 20
-80.0
 11
-3.0
 21
-80.0
  0
LINE
  5
163
100
AcDbEntity
  8
1
  6
PHANTOM
 62
             2
100
AcDbLine
 10
496.07958823198538
 20
-22.99959753668382
 11
593.02665331264564
 21
-22.99958812349806
  0
LINE
  5
162
100
AcDbEntity
  8
1
  6
PHANTOM
 62
             2
100
AcDbLine
 10
91.30157300000002
 20
0.0
 11
-6.52374498771673
 21
0.0
  0
LINE
  5
161
100
AcDbEntity
  8
LC-001-002-RND-0
  6
CONTINUOUS
 62
             7
100
AcDbLine
 10
583.99944600000003
 20
57.00040299999998
 11
589.99944600000003
 21
55.39270800000006
  0
LINE
  5
160
100
AcDbEntity
  8
LC-001-002-RND-0
  6
CONTINUOUS
 62
             7
100
AcDbLine
 10
583.99944600000003
 20
-102.99959699999999
 11
589.99944600000003
 21
-101.391902
  0
LINE
  5
15F
100
AcDbEntity
  8
LC-001-002-RND-0
  6
CONTINUOUS
 62
             7
100
AcDbLine
 10
589.99944600000003
 20
-101.391902
 11
589.99944600000003
 21
-98.99959699999995
  0
LINE
  5
15E
100
AcDbEntity
  8
LC-001-002-RND-0
  6
CONTINUOUS
 62
             7
100
AcDbLine
 10
504.400735
 20
57.00040299999998
 11
583.99944600000003
 21
57.00040299999998
  0
LINE
  5
15D
100
AcDbEntity
  8
LC-001-002-RND-0
  6
CONTINUOUS
 62
             7
100
AcDbLine
 10
344.00897600000002
 20
-105.99963
 11
344.00897600000002
 21
-106.498869
  0
LINE
  5
15C
100
AcDbEntity
  8
LC-001-002-RND-0
  6
CONTINUOUS
 62
             7
100
AcDbLine
 10
344.50897700000002
 20
-105.49963099999999
 11
500.57886500000001
 21
-105.4997520000001
  0
LINE
  5
15B
100
AcDbEntity
  8
LC-001-002-RND-0
  6
CONTINUOUS
 62
             7
100
AcDbLine
 10
309.4553350000001
 20
-110.4990330000001
 11
340.017222
 21
-110.49886100000001
  0
LINE
  5
15A
100
AcDbEntity
  8
LC-001-002-RND-0
  6
CONTINUOUS
 62
             7
100
AcDbLine
 10
504.99929100000003
 20
91.50100300000001
 11
501.60519699999998
 21
-102.999567
  0
LINE
  5
159
100
AcDbEntity
  8
LC-001-002-RND-0
  6
CONTINUOUS
 62
             7
100
AcDbLine
 10
501.60519599999998
 20
-102.99959699999999
 11
501.5787140000001
 21
-104.5171990000001
  0
LINE
  5
158
100
AcDbEntity
  8
LC-001-002-RND-0
  6
CONTINUOUS
 62
             7
100
AcDbLine
 10
589.99944600000003
 20
55.39270800000006
 11
589.99944600000003
 21
-98.99982399999995
  0
LINE
  5
157
100
AcDbEntity
  8
LC-001-002-RND-0
  6
CONTINUOUS
 62
             7
100
AcDbLine
 10
501.60694100000001
 20
-102.99959699999999
 11
583.99950600000011
 21
-102.99958100000001
  0
LINE
  5
156
100
AcDbEntity
  8
LC-001-002-RND-0
  6
CONTINUOUS
 62
             7
100
AcDbLine
 10
301.99955999999997
 20
91.50000500000003
 11
302.20071899999999
 21
79.97250200000001
  0
LINE
  5
155
100
AcDbEntity
  8
LC-001-002-RND-0
  6
CONTINUOUS
 62
             7
100
AcDbLine
 10
0.0
 20
84.99999999999994
 11
0.0
 21
-84.99999999999994
  0
LINE
  5
154
100
AcDbEntity
  8
LC-001-002-RND-0
  6
CONTINUOUS
 62
             7
100
AcDbLine
 10
91.30157300000002
 20
-84.74999999999989
 11
29.0
 21
-84.74999999999994
  0
LINE
  5
153
100
AcDbEntity
  8
LC-001-002-RND-0
  6
CONTINUOUS
 62
             7
100
AcDbLine
 10
9.0
 20
87.49999999999994
 11
9.0
 21
84.99999999999994
  0
LINE
  5
152
100
AcDbEntity
  8
LC-001-002-RND-0
  6
CONTINUOUS
 62
             7
100
AcDbLine
 10
9.0
 20
-87.49999999999994
 11
9.0
 21
-84.99999999999994
  0
LINE
  5
151
100
AcDbEntity
  8
LC-001-002-RND-0
  6
CONTINUOUS
 62
             7
100
AcDbLine
 10
130.009208
 20
-96.05913899999992
 11
130.009208
 21
-96.55837800000002
  0
LINE
  5
150
100
AcDbEntity
  8
LC-001-002-RND-0
  6
CONTINUOUS
 62
             7
100
AcDbLine
 10
95.45556699999997
 20
-100.558542
 11
126.017454
 21
-100.558369
  0
LINE
  5
14F
100
AcDbEntity
  8
LC-001-002-RND-0
  6
CONTINUOUS
 62
             7
100
AcDbLine
 10
29.0
 20
84.74999999999994
 11
29.0
 21
87.49999999999994
  0
LINE
  5
14E
100
AcDbEntity
  8
LC-001-002-RND-0
  6
CONTINUOUS
 62
             7
100
AcDbLine
 10
290.99952300000001
 20
101.44149400000001
 11
290.62493499999999
 21
79.97548199999999
  0
LINE
  5
14D
100
AcDbEntity
  8
LC-001-002-RND-0
  6
CONTINUOUS
 62
             7
100
AcDbLine
 10
29.0
 20
-84.74999999999994
 11
29.0
 21
-87.49999999999994
  0
LINE
  5
14C
100
AcDbEntity
  8
LC-001-002-RND-0
  6
CONTINUOUS
 62
             7
100
AcDbLine
 10
23.0
 20
-93.49999999999994
 11
15.0
 21
-93.49999999999994
  0
LINE
  5
14B
100
AcDbEntity
  8
LC-001-002-RND-0
  6
CONTINUOUS
 62
             7
100
AcDbLine
 10
91.30157300000002
 20
-87.76999999999994
 11
91.45615400000003
 21
-96.62833199999996
  0
LINE
  5
14A
100
AcDbEntity
  8
LC-001-002-RND-0
  6
CONTINUOUS
 62
             7
100
AcDbLine
 10
23.0
 20
93.49999999999994
 11
15.0
 21
93.49999999999994
  0
LINE
  5
149
100
AcDbEntity
  8
LC-001-002-RND-0
  6
CONTINUOUS
 62
             7
100
AcDbLine
 10
88.34833700000002
 20
84.74999999999994
 11
29.0
 21
84.74999999999994
  0
LINE
  5
148
100
AcDbEntity
  8
LC-001-002-RND-0
  6
CONTINUOUS
 62
             7
100
AcDbLine
 10
9.0
 20
-84.99999999999994
 11
0.0
 21
-84.99999999999994
  0
LINE
  5
147
100
AcDbEntity
  8
LC-001-002-RND-0
  6
CONTINUOUS
 62
             7
100
AcDbLine
 10
290.71769
 20
85.29089700000002
 11
292.99934999999999
 21
85.29089700000002
  0
LINE
  5
146
100
AcDbEntity
  8
LC-001-002-RND-0
  6
CONTINUOUS
 62
             7
100
AcDbLine
 10
292.99934999999999
 20
85.29089700000002
 11
292.99934999999999
 21
81.04089600000002
  0
LINE
  5
145
100
AcDbEntity
  8
LC-001-002-RND-0
  6
CONTINUOUS
 62
             7
100
AcDbLine
 10
9.0
 20
84.99999999999994
 11
0.0
 21
84.99999999999994
  0
LINE
  5
144
100
AcDbEntity
  8
LC-001-002-RND-0
  6
CONTINUOUS
 62
             7
100
AcDbLine
 10
87.99979200000001
 20
101.440496
 11
91.30157300000002
 21
-87.76999999999994
  0
LINE
  5
143
100
AcDbEntity
  8
LC-001-002-RND-0
  6
CONTINUOUS
 62
             7
100
AcDbLine
 10
130.509209
 20
-95.55914000000003
 11
271.88054399999999
 21
-95.55924899999998
  0
LINE
  5
142
100
AcDbEntity
  8
LC-001-002-RND-0
  6
CONTINUOUS
 62
             7
100
AcDbLine
 10
286.49934999999999
 20
-95.55925900000007
 11
286.49934999999999
 21
-109.98575700000001
  0
LINE
  5
141
100
AcDbEntity
  8
LC-001-002-RND-0
  6
CONTINUOUS
 62
             7
100
AcDbLine
 10
292.99934999999999
 20
-106.959104
 11
292.99934999999999
 21
-107.424863
  0
LINE
  5
140
100
AcDbEntity
  8
LC-001-002-RND-0
  6
CONTINUOUS
 62
             7
100
AcDbLine
 10
509.00167900000002
 20
91.50000800000002
 11
508.73344400000002
 21
104.622156
  0
LINE
  5
13F
100
AcDbEntity
  8
LC-001-002-RND-0
  6
CONTINUOUS
 62
             7
100
AcDbLine
 10
506.1742200000001
 20
91.50000800000002
 11
508.98421900000011
 21
91.50000800000002
  0
LINE
  5
13E
100
AcDbEntity
  8
LC-001-002-RND-0
  6
CONTINUOUS
 62
             7
100
AcDbLine
 10
354.70907799999998
 20
115.0000121538298
 11
354.70907799999998
 21
118.00000800000009
  0
LINE
  5
13D
100
AcDbEntity
  8
LC-001-002-RND-0
  6
CONTINUOUS
 62
             7
100
AcDbLine
 10
376.70907799999998
 20
115.0000121538298
 11
376.70907799999998
 21
118.00000800000009
  0
LINE
  5
13C
100
AcDbEntity
  8
LC-001-002-RND-0
  6
CONTINUOUS
 62
             7
100
AcDbLine
 10
375.70907799999998
 20
119.00000800000009
 11
355.70907799999998
 21
119.00000800000009
  0
LINE
  5
13B
100
AcDbEntity
  8
LC-001-002-RND-0
  6
CONTINUOUS
 62
             7
100
AcDbLine
 10
497.86244799999997
 20
108.00000800000009
 11
474.49979100000002
 21
108.00000800000009
  0
LINE
  5
13A
100
AcDbEntity
  8
LC-001-002-RND-0
  6
CONTINUOUS
 62
             7
100
AcDbLine
 10
376.70907799999998
 20
115.0000121538298
 11
351.49978499999997
 21
115.0000121538298
  0
LINE
  5
139
100
AcDbEntity
  8
LC-001-002-RND-0
  6
CONTINUOUS
 62
             7
100
AcDbLine
 10
495.86244800000009
 20
115.0000121538297
 11
474.49979500000001
 21
115.0000121538298
  0
LINE
  5
138
100
AcDbEntity
  8
LC-001-002-RND-0
  6
CONTINUOUS
 62
             7
100
AcDbLine
 10
455.49958800000002
 20
115.0000121538298
 11
376.70907799999998
 21
115.0000121538298
  0
LINE
  5
137
100
AcDbEntity
  8
LC-001-002-RND-0
  6
CONTINUOUS
 62
             7
100
AcDbLine
 10
506.1742200000001
 20
91.50000800000002
 11
297.82461500000011
 21
91.50000800000002
  0
LINE
  5
136
100
AcDbEntity
  8
LC-001-002-RND-0
  6
CONTINUOUS
 62
             7
100
AcDbLine
 10
497.86244799999997
 20
108.00000800000009
 11
497.86244799999997
 21
111.00000800000009
  0
LINE
  5
135
100
AcDbEntity
  8
LC-001-002-RND-0
  6
CONTINUOUS
 62
             7
100
AcDbLine
 10
497.86244799999997
 20
108.00000800000009
 11
505.23557599999998
 21
108.00000800000009
  0
LINE
  5
134
100
AcDbEntity
  8
LC-001-002-RND-0
  6
CONTINUOUS
 62
             7
100
AcDbLine
 10
308.94842100000011
 20
108.00000800000009
 11
308.94842100000011
 21
111.00000800000009
  0
LINE
  5
133
100
AcDbEntity
  8
LC-001-002-RND-0
  6
CONTINUOUS
 62
             7
100
AcDbLine
 10
297.80715500000002
 20
91.50000800000002
 11
298.26539000000002
 21
104.622156
  0
LINE
  5
132
100
AcDbEntity
  8
LC-003-002-----0
  6
CONTINUOUS
 62
             7
100
AcDbLine
 10
340.49957899999998
 20
127.250168
 11
343.49957899999998
 21
127.250168
  0
LINE
  5
131
100
AcDbEntity
  8
LC-003-002-----0
  6
CONTINUOUS
 62
             7
100
AcDbLine
 10
339.49957899999998
 20
131.250168
 11
339.49957899999998
 21
128.250168
  0
LINE
  5
130
100
AcDbEntity
  8
LC-003-002-----0
  6
CONTINUOUS
 62
             7
100
AcDbLine
 10
344.49957899999998
 20
128.250168
 11
344.49957899999998
 21
131.250168
  0
LINE
  5
12F
100
AcDbEntity
  8
LC-003-002-----0
  6
CONTINUOUS
 62
             7
100
AcDbLine
 10
343.49957899999998
 20
132.250168
 11
340.49957899999998
 21
132.250168
  0
LINE
  5
12E
100
AcDbEntity
  8
LC-003-002-----0
  6
CONTINUOUS
 62
             7
100
AcDbLine
 10
351.49977700000011
 20
99.50000200000005
 11
351.49979300000001
 21
124.68470500000009
  0
LINE
  5
12D
100
AcDbEntity
  8
LC-003-002-----0
  6
CONTINUOUS
 62
             7
100
AcDbLine
 10
321.49957899999998
 20
128.7199370000001
 11
321.49957899999998
 21
130.78039999999999
  0
LINE
  5
12C
100
AcDbEntity
  8
LC-003-002-----0
  6
CONTINUOUS
 62
             7
100
AcDbLine
 10
332.49957899999998
 20
99.50001400000005
 11
332.49957899999998
 21
124.68453700000011
  0
LINE
  5
12B
100
AcDbEntity
  8
LC-002-005-----0
  6
DASHDOT
 62
             2
100
AcDbLine
 10
341.99957899999998
 20
58.06733400000001
 11
341.99957899999998
 21
135.500168
  0
LINE
  5
12A
100
AcDbEntity
  8
LC-001-002-RND-0
  6
CONTINUOUS
 62
             7
100
AcDbLine
 10
463.49958800000002
 20
127.25118399999999
 11
466.49958800000002
 21
127.25118399999999
  0
LINE
  5
129
100
AcDbEntity
  8
LC-001-002-RND-0
  6
CONTINUOUS
 62
             7
100
AcDbLine
 10
462.49958800000002
 20
131.25118399999999
 11
462.49958800000002
 21
128.25118399999999
  0
LINE
  5
128
100
AcDbEntity
  8
LC-001-002-RND-0
  6
CONTINUOUS
 62
             7
100
AcDbLine
 10
467.49958800000002
 20
128.25118399999999
 11
467.49958800000002
 21
131.25118399999999
  0
LINE
  5
127
100
AcDbEntity
  8
LC-001-002-RND-0
  6
CONTINUOUS
 62
             7
100
AcDbLine
 10
466.49958800000002
 20
132.25118399999999
 11
463.49958800000002
 21
132.25118399999999
  0
LINE
  5
126
100
AcDbEntity
  8
LC-001-002-RND-0
  6
CONTINUOUS
 62
             7
100
AcDbLine
 10
485.49958800000002
 20
128.72095300000009
 11
485.49958800000002
 21
130.78141599999989
  0
LINE
  5
125
100
AcDbEntity
  8
LC-001-002-RND-0
  6
CONTINUOUS
 62
             7
100
AcDbLine
 10
474.49978599999997
 20
99.50102399999994
 11
474.49980199999999
 21
124.6857209999999
  0
LINE
  5
124
100
AcDbEntity
  8
LC-001-002-RND-0
  6
CONTINUOUS
 62
             7
100
AcDbLine
 10
444.49958800000002
 20
128.72095300000009
 11
444.49958800000002
 21
130.78141599999989
  0
LINE
  5
123
100
AcDbEntity
  8
LC-001-002-RND-0
  6
CONTINUOUS
 62
             7
100
AcDbLine
 10
455.49958800000002
 20
99.50103000000004
 11
455.49958800000002
 21
124.6855529999999
  0
LINE
  5
122
100
AcDbEntity
  8
LC-002-005-----0
  6
DASHDOT
 62
             2
100
AcDbLine
 10
464.99958800000002
 20
58.06835000000006
 11
464.99958800000002
 21
124.00118400000009
  0
LINE
  5
121
100
AcDbEntity
  8
LC-001-002-RND-0
  6
CONTINUOUS
 62
             7
100
AcDbLine
 10
354.70907799999998
 20
207.00000800000001
 11
354.70907799999998
 21
211.278808
  0
LINE
  5
120
100
AcDbEntity
  8
LC-001-002-RND-0
  6
CONTINUOUS
 62
             7
100
AcDbLine
 10
358.20907799999998
 20
212.278808
 11
355.70907799999998
 21
212.278808
  0
LINE
  5
11F
100
AcDbEntity
  8
LC-001-002-RND-0
  6
CONTINUOUS
 62
             7
100
AcDbLine
 10
350.20907799999998
 20
244.50000800000001
 11
371.20907799999998
 21
244.50000800000001
  0
LINE
  5
11E
100
AcDbEntity
  8
LC-001-002-RND-0
  6
CONTINUOUS
 62
             7
100
AcDbLine
 10
373.20907799999998
 20
242.50000800000001
 11
373.20907799999998
 21
236.4821280000001
  0
LINE
  5
11D
100
AcDbEntity
  8
LC-001-002-RND-0
  6
CONTINUOUS
 62
             7
100
AcDbLine
 10
371.20907799999998
 20
226.00000800000001
 11
369.70907799999998
 21
226.00000800000001
  0
LINE
  5
11C
100
AcDbEntity
  8
LC-001-002-RND-0
  6
CONTINUOUS
 62
             7
100
AcDbLine
 10
358.20907799999998
 20
224.00000800000001
 11
358.20907799999998
 21
212.278808
  0
LINE
  5
11B
100
AcDbEntity
  8
LC-001-002-RND-0
  6
CONTINUOUS
 62
             7
100
AcDbLine
 10
354.70907799999998
 20
207.00000800000001
 11
350.20907799999998
 21
207.00000800000001
  0
LINE
  5
11A
100
AcDbEntity
  8
LC-001-002-RND-0
  6
CONTINUOUS
 62
             7
100
AcDbLine
 10
348.20907799999998
 20
209.00000800000001
 11
348.20907799999998
 21
242.50000800000001
  0
LINE
  5
119
100
AcDbEntity
  8
LC-001-002-RND-0
  6
CONTINUOUS
 62
             7
100
AcDbLine
 10
373.20907799999998
 20
229.50000800000001
 11
373.20907799999998
 21
228.00000800000001
  0
LINE
  5
118
100
AcDbEntity
  8
LC-001-002-RND-0
  6
CONTINUOUS
 62
             7
100
AcDbLine
 10
360.20907799999998
 20
226.00000800000001
 11
369.70907799999998
 21
226.00000800000001
  0
LINE
  5
117
100
AcDbEntity
  8
LC-001-002-RND-0
  6
CONTINUOUS
 62
             7
100
AcDbLine
 10
361.709091
 20
223.49997699999989
 11
360.709091
 21
223.49997500000001
  0
LINE
  5
116
100
AcDbEntity
  8
LC-001-002-RND-0
  6
CONTINUOUS
 62
             7
100
AcDbLine
 10
361.70908600000001
 20
225.49997699999989
 11
360.70908600000001
 21
225.49997500000001
  0
LINE
  5
115
100
AcDbEntity
  8
LC-001-002-RND-0
  6
CONTINUOUS
 62
             7
100
AcDbLine
 10
358.709091
 20
223.4999710000001
 11
358.709293
 21
125.6825880000001
  0
LINE
  5
114
100
AcDbEntity
  8
LC-001-002-RND-0
  6
CONTINUOUS
 62
             7
100
AcDbLine
 10
373.20908600000001
 20
225.50000300000011
 11
360.70908600000001
 21
225.49997500000001
  0
LINE
  5
113
100
AcDbEntity
  8
LC-001-002-RND-0
  6
CONTINUOUS
 62
             7
100
AcDbLine
 10
372.709091
 20
223.50000200000011
 11
361.709091
 21
223.49997699999989
  0
LINE
  5
112
100
AcDbEntity
  8
LC-001-002-RND-0
  6
CONTINUOUS
 62
             7
100
AcDbLine
 10
372.709091
 20
223.50000200000011
 11
374.97055799999998
 21
223.69785900000011
  0
LINE
  5
111
100
AcDbEntity
  8
LC-001-002-RND-0
  6
CONTINUOUS
 62
             7
100
AcDbLine
 10
373.70908100000003
 20
228.0000040000001
 11
373.70908500000002
 21
226.0000040000001
  0
LINE
  5
110
100
AcDbEntity
  8
LC-001-002-RND-0
  6
CONTINUOUS
 62
             7
100
AcDbLine
 10
372.709091
 20
223.50000200000011
 11
372.709293
 21
125.682619
  0
LINE
  5
10F
100
AcDbEntity
  8
LC-001-002-RND-0
  6
CONTINUOUS
 62
             7
100
AcDbLine
 10
377.64786900000001
 20
226.08349799999999
 11
377.64786500000002
 21
227.921685
  0
LINE
  5
10E
100
AcDbEntity
  8
LC-001-002-RND-0
  6
CONTINUOUS
 62
             7
100
AcDbLine
 10
370.70929700000011
 20
123.6826139999999
 11
360.70929700000011
 21
123.682592
  0
LINE
  5
10D
100
AcDbEntity
  8
LC-001-002-RND-0
  6
CONTINUOUS
 62
             7
100
AcDbLine
 10
295.191911
 20
101.4404999999999
 11
294.733676
 21
114.5626480000001
  0
LINE
  5
10C
100
AcDbEntity
  8
LC-001-002-RND-0
  6
CONTINUOUS
 62
             7
100
AcDbLine
 10
292.19192900000002
 20
101.4404999999999
 11
295.17445099999998
 21
101.4404999999999
  0
LINE
  5
10B
100
AcDbEntity
  8
LC-001-002-RND-0
  6
CONTINUOUS
 62
             7
100
AcDbLine
 10
277.86268000000001
 20
117.9404999999999
 11
260.500023
 21
117.9404999999999
  0
LINE
  5
10A
100
AcDbEntity
  8
LC-001-002-RND-0
  6
CONTINUOUS
 62
             7
100
AcDbLine
 10
275.86268000000001
 20
122.9404999999999
 11
260.50002699999999
 21
122.9404999999999
  0
LINE
  5
109
100
AcDbEntity
  8
LC-001-002-RND-0
  6
CONTINUOUS
 62
             7
100
AcDbLine
 10
241.49982000000011
 20
122.9404999999999
 11
137.50001700000001
 21
122.9404999999999
  0
LINE
  5
108
100
AcDbEntity
  8
LC-001-002-RND-0
  6
CONTINUOUS
 62
             7
100
AcDbLine
 10
118.49981099999999
 20
122.9404999999999
 11
99.93217499999997
 21
122.9404999999999
  0
LINE
  5
107
100
AcDbEntity
  8
LC-001-002-RND-0
  6
CONTINUOUS
 62
             7
100
AcDbLine
 10
292.19192900000002
 20
101.4404999999999
 11
83.997387
 21
101.4404999999999
  0
LINE
  5
106
100
AcDbEntity
  8
LC-001-002-RND-0
  6
CONTINUOUS
 62
             7
100
AcDbLine
 10
277.86268000000001
 20
117.9404999999999
 11
277.86268000000001
 21
120.9404999999999
  0
LINE
  5
105
100
AcDbEntity
  8
LC-001-002-RND-0
  6
CONTINUOUS
 62
             7
100
AcDbLine
 10
277.86268000000001
 20
117.9404999999999
 11
291.23580800000002
 21
117.9404999999999
  0
LINE
  5
104
100
AcDbEntity
  8
LC-001-002-RND-0
  6
CONTINUOUS
 62
             7
100
AcDbLine
 10
97.93217499999997
 20
117.9404999999999
 11
97.93217499999997
 21
120.9404999999999
  0
LINE
  5
103
100
AcDbEntity
  8
LC-001-002-RND-0
  6
CONTINUOUS
 62
             7
100
AcDbLine
 10
83.997387
 20
101.4404999999999
 11
84.26562200000001
 21
114.5626480000001
  0
LINE
  5
102
100
AcDbEntity
  8
LC-003-002-----0
  6
CONTINUOUS
 62
             7
100
AcDbLine
 10
126.49981099999999
 20
137.19066000000001
 11
129.49981099999999
 21
137.19066000000001
  0
LINE
  5
101
100
AcDbEntity
  8
LC-003-002-----0
  6
CONTINUOUS
 62
             7
100
AcDbLine
 10
125.49981099999999
 20
141.19066000000001
 11
125.49981099999999
 21
138.19066000000001
  0
LINE
  5
100
100
AcDbEntity
  8
LC-003-002-----0
  6
CONTINUOUS
 62
             7
100
AcDbLine
 10
130.49981099999999
 20
138.19066000000001
 11
130.49981099999999
 21
141.19066000000001
  0
LINE
  5
FF
100
AcDbEntity
  8
LC-003-002-----0
  6
CONTINUOUS
 62
             7
100
AcDbLine
 10
129.49981099999999
 20
142.19066000000001
 11
126.49981099999999
 21
142.19066000000001
  0
LINE
  5
FE
100
AcDbEntity
  8
LC-003-002-----0
  6
CONTINUOUS
 62
             7
100
AcDbLine
 10
148.49981099999999
 20
138.660428
 11
148.49981099999999
 21
140.72089199999991
  0
LINE
  5
FD
100
AcDbEntity
  8
LC-003-002-----0
  6
CONTINUOUS
 62
             7
100
AcDbLine
 10
137.50001399999999
 20
117.940827
 11
137.50002499999999
 21
134.6251960000001
  0
LINE
  5
FC
100
AcDbEntity
  8
LC-003-002-----0
  6
CONTINUOUS
 62
             7
100
AcDbLine
 10
107.49981099999999
 20
138.660428
 11
107.49981099999999
 21
140.72089199999991
  0
LINE
  5
FB
100
AcDbEntity
  8
LC-003-002-----0
  6
CONTINUOUS
 62
             7
100
AcDbLine
 10
118.49981099999999
 20
117.94066000000009
 11
118.49981099999999
 21
134.6250289999999
  0
LINE
  5
FA
100
AcDbEntity
  8
LC-002-005-----0
  6
DASHDOT
 62
             2
100
AcDbLine
 10
127.99981099999999
 20
117.94066000000009
 11
127.99981099999999
 21
145.44066000000001
  0
LINE
  5
F9
100
AcDbEntity
  8
LC-003-002-----0
  6
CONTINUOUS
 62
             5
100
AcDbLine
 10
118.49981099999999
 20
117.94066000000009
 11
118.50012700000001
 21
117.94066000000009
  0
LINE
  5
F8
100
AcDbEntity
  8
LC-003-002-----0
  6
CONTINUOUS
 62
             7
100
AcDbLine
 10
249.49982000000011
 20
137.191676
 11
252.49982000000011
 21
137.191676
  0
LINE
  5
F7
100
AcDbEntity
  8
LC-003-002-----0
  6
CONTINUOUS
 62
             7
100
AcDbLine
 10
248.49982000000011
 20
141.191676
 11
248.49982000000011
 21
138.191676
  0
LINE
  5
F6
100
AcDbEntity
  8
LC-003-002-----0
  6
CONTINUOUS
 62
             7
100
AcDbLine
 10
253.49982000000011
 20
138.191676
 11
253.49982000000011
 21
141.191676
  0
LINE
  5
F5
100
AcDbEntity
  8
LC-003-002-----0
  6
CONTINUOUS
 62
             7
100
AcDbLine
 10
252.49982000000011
 20
142.191676
 11
249.49982000000011
 21
142.191676
  0
LINE
  5
F4
100
AcDbEntity
  8
LC-003-002-----0
  6
CONTINUOUS
 62
             7
100
AcDbLine
 10
271.49982000000011
 20
138.6614440000001
 11
271.49982000000011
 21
140.72190800000001
  0
LINE
  5
F3
100
AcDbEntity
  8
LC-003-002-----0
  6
CONTINUOUS
 62
             7
100
AcDbLine
 10
260.50001800000001
 20
109.44151600000011
 11
260.50003400000003
 21
134.62621200000009
  0
LINE
  5
F2
100
AcDbEntity
  8
LC-003-002-----0
  6
CONTINUOUS
 62
             7
100
AcDbLine
 10
230.49982000000011
 20
138.6614440000001
 11
230.49982000000011
 21
140.72190800000001
  0
LINE
  5
F1
100
AcDbEntity
  8
LC-003-002-----0
  6
CONTINUOUS
 62
             7
100
AcDbLine
 10
241.49982000000011
 20
109.44152200000011
 11
241.49982000000011
 21
134.626045
  0
LINE
  5
F0
100
AcDbEntity
  8
LC-002-005-----0
  6
DASHDOT
 62
             2
100
AcDbLine
 10
250.99982000000011
 20
68.008842
 11
250.99982000000011
 21
145.441676
  0
LINE
  5
EF
100
AcDbEntity
  8
LC-003-002-----0
  6
CONTINUOUS
 62
             7
100
AcDbLine
 10
130.509209
 20
-95.55913899999992
 11
130.509209
 21
-3.02000000000005
  0
LINE
  5
EE
100
AcDbEntity
  8
LC-003-002-----0
  6
CONTINUOUS
 62
             7
100
AcDbLine
 10
9.0
 20
84.99999999999994
 11
9.0
 21
-87.49999999999994
  0
LINE
  5
ED
100
AcDbEntity
  8
LC-003-002-----0
  6
CONTINUOUS
 62
             7
100
AcDbLine
 10
29.0
 20
84.74999999999994
 11
29.0
 21
-84.74999999999994
  0
LINE
  5
EC
100
AcDbEntity
  8
LC-002-005-----0
  6
DASHDOT
 62
             2
100
AcDbLine
 10
127.99981099999999
 20
68.00782599999995
 11
127.99981099999999
 21
117.94066000000009
  0
LINE
  5
EB
100
AcDbEntity
  8
LC-003-002-----0
  6
CONTINUOUS
 62
             7
100
AcDbLine
 10
126.496269
 20
93.44049999999997
 11
126.496269
 21
68.00782599999995
  0
LINE
  5
EA
100
AcDbEntity
  8
LC-003-002-----0
  6
CONTINUOUS
 62
             7
100
AcDbLine
 10
118.49981099999999
 20
93.44049999999997
 11
137.49981099999999
 21
93.44049999999997
  0
LINE
  5
E9
100
AcDbEntity
  8
LC-003-002-----0
  6
CONTINUOUS
 62
             7
100
AcDbLine
 10
117.99981099999999
 20
100.9404999999999
 11
117.99981099999999
 21
93.94049999999997
  0
LINE
  5
E8
100
AcDbEntity
  8
LC-003-002-----0
  6
CONTINUOUS
 62
             7
100
AcDbLine
 10
137.99981099999999
 20
93.94049999999997
 11
137.99981099999999
 21
100.9404999999999
  0
LINE
  5
E7
100
AcDbEntity
  8
LC-003-002-----0
  6
CONTINUOUS
 62
             7
100
AcDbLine
 10
118.500135
 20
109.4405059999999
 11
137.49981099999999
 21
109.440493
  0
LINE
  5
E6
100
AcDbEntity
  8
LC-003-002-----0
  6
CONTINUOUS
 62
             7
100
AcDbLine
 10
129.49626900000001
 20
93.44049999999997
 11
129.49626900000001
 21
68.00782599999995
  0
LINE
  5
E5
100
AcDbEntity
  8
LC-003-002-----0
  6
CONTINUOUS
 62
             7
100
AcDbLine
 10
126.496269
 20
68.00782599999995
 11
129.49626900000001
 21
68.00782599999995
  0
LINE
  5
E4
100
AcDbEntity
  8
LC-003-002-----0
  6
CONTINUOUS
 62
             7
100
AcDbLine
 10
118.49981099999999
 20
109.4404999999999
 11
137.49981099999999
 21
109.4404999999999
  0
LINE
  5
E3
100
AcDbEntity
  8
LC-003-002-----0
  6
CONTINUOUS
 62
             7
100
AcDbLine
 10
137.99981099999999
 20
101.9404999999999
 11
137.99981099999999
 21
108.9404999999999
  0
LINE
  5
E2
100
AcDbEntity
  8
LC-003-002-----0
  6
CONTINUOUS
 62
             7
100
AcDbLine
 10
117.99981099999999
 20
101.9404999999999
 11
117.99981099999999
 21
108.9404999999999
  0
LINE
  5
E1
100
AcDbEntity
  8
LC-003-002-----0
  6
CONTINUOUS
 62
             7
100
AcDbLine
 10
137.49981099999999
 20
109.440493
 11
137.49981099999999
 21
117.94066000000009
  0
LINE
  5
E0
100
AcDbEntity
  8
LC-003-002-----0
  6
CONTINUOUS
 62
             7
100
AcDbLine
 10
118.50012099999999
 20
109.4405059999999
 11
118.50012700000001
 21
117.94066000000009
  0
LINE
  5
DF
100
AcDbEntity
  8
LC-003-002-----0
  6
CONTINUOUS
 62
             5
100
AcDbLine
 10
137.50001399999999
 20
117.94066000000009
 11
137.50001399999999
 21
117.94066000000009
  0
LINE
  5
DE
100
AcDbEntity
  8
LC-003-002-----0
  6
CONTINUOUS
 62
             5
100
AcDbLine
 10
137.49981099999999
 20
117.94066000000009
 11
137.50001399999999
 21
117.94066000000009
  0
LINE
  5
DD
100
AcDbEntity
  8
LC-001-002-RND-0
  6
CONTINUOUS
 62
             7
100
AcDbLine
 10
118.50012700000001
 20
117.9404999999999
 11
87.76348999999999
 21
117.9404999999999
  0
LINE
  5
DC
100
AcDbEntity
  8
LC-003-002-----0
  6
CONTINUOUS
 62
             7
100
AcDbLine
 10
286.49934999999999
 20
79.97548199999999
 11
286.49934999999999
 21
-97.12015300000003
  0
LINE
  5
DB
100
AcDbEntity
  8
LC-003-002-----0
  6
CONTINUOUS
 62
             7
100
AcDbLine
 10
292.99934999999999
 20
78.97548199999999
 11
292.99934999999999
 21
-108.98575700000001
  0
LINE
  5
DA
100
AcDbEntity
  8
LC-003-002-----0
  6
CONTINUOUS
 62
             7
100
AcDbLine
 10
292.99934999999999
 20
78.22548199999999
 11
295.99934999999999
 21
78.22548199999999
  0
LINE
  5
D9
100
AcDbEntity
  8
LC-003-002-----0
  6
CONTINUOUS
 62
             7
100
AcDbLine
 10
296.99934999999999
 20
77.22548199999999
 11
296.99934999999999
 21
61.72548199999999
  0
LINE
  5
D8
100
AcDbEntity
  8
LC-003-002-----0
  6
CONTINUOUS
 62
             7
100
AcDbLine
 10
292.99934999999999
 20
83.73000300000005
 11
292.99934999999999
 21
78.97548199999999
  0
LINE
  5
D7
100
AcDbEntity
  8
LC-003-002-----0
  6
CONTINUOUS
 62
             7
100
AcDbLine
 10
286.49934999999999
 20
79.97548199999999
 11
291.99934999999999
 21
79.97548199999999
  0
LINE
  5
D6
100
AcDbEntity
  8
LC-003-002-----0
  6
CONTINUOUS
 62
             7
100
AcDbLine
 10
292.99934999999999
 20
60.72548199999999
 11
295.99934999999999
 21
60.72548199999999
  0
LINE
  5
D5
100
AcDbEntity
  8
LC-003-002-----0
  6
CONTINUOUS
 62
             7
100
AcDbLine
 10
292.99934999999999
 20
-89.235755
 11
295.99934999999999
 21
-89.235755
  0
LINE
  5
D4
100
AcDbEntity
  8
LC-003-002-----0
  6
CONTINUOUS
 62
             7
100
AcDbLine
 10
292.99934999999999
 20
-106.735755
 11
295.99934999999999
 21
-106.735755
  0
LINE
  5
D3
100
AcDbEntity
  8
LC-003-002-----0
  6
CONTINUOUS
 62
             7
100
AcDbLine
 10
296.99934999999999
 20
-90.235755
 11
296.99934999999999
 21
-105.735755
  0
LINE
  5
D2
100
AcDbEntity
  8
LC-003-002-----0
  6
CONTINUOUS
 62
             7
100
AcDbLine
 10
286.49934999999999
 20
-109.98575700000001
 11
291.99934999999999
 21
-109.98575700000001
  0
LINE
  5
D1
100
AcDbEntity
  8
LC-003-002-----0
  6
CONTINUOUS
 62
             7
100
AcDbLine
 10
307.49934999999999
 20
79.97250200000001
 11
307.49934999999999
 21
-110.02749799999999
  0
LINE
  5
D0
100
AcDbEntity
  8
LC-003-002-----0
  6
CONTINUOUS
 62
             7
100
AcDbLine
 10
307.49934999999999
 20
79.97250200000001
 11
301.99934999999999
 21
79.97250200000001
  0
LINE
  5
CF
100
AcDbEntity
  8
LC-003-002-----0
  6
CONTINUOUS
 62
             7
100
AcDbLine
 10
307.49934999999999
 20
-109.985755
 11
301.99934999999999
 21
-109.985755
  0
LINE
  5
CE
100
AcDbEntity
  8
LC-003-002-----0
  6
CONTINUOUS
 62
             7
100
AcDbLine
 10
300.99934999999999
 20
78.97250200000001
 11
300.99934999999999
 21
-108.985755
  0
LINE
  5
CD
100
AcDbEntity
  8
LC-009-006-MLN-0
  6
DASHDOT
 62
             2
100
AcDbLine
 10
276.49934999999999
 20
69.47548199999999
 11
317.49934999999999
 21
69.47548199999999
  0
LINE
  5
CC
100
AcDbEntity
  8
LC-009-006-MLN-0
  6
DASHDOT
 62
             2
100
AcDbLine
 10
317.49934999999999
 20
-97.985755
 11
276.49934999999999
 21
-97.985755
  0
LINE
  5
CB
100
AcDbEntity
  8
LC-003-002-----0
  6
CONTINUOUS
 62
             7
100
AcDbLine
 10
296.99934999999999
 20
77.22548199999999
 11
296.99934999999999
 21
61.72548199999999
  0
LINE
  5
CA
100
AcDbEntity
  8
LC-003-002-----0
  6
CONTINUOUS
 62
             7
100
AcDbLine
 10
300.99934999999999
 20
60.72548199999999
 11
297.99934999999999
 21
60.72548199999999
  0
LINE
  5
C9
100
AcDbEntity
  8
LC-003-002-----0
  6
CONTINUOUS
 62
             7
100
AcDbLine
 10
300.99934999999999
 20
78.22548199999999
 11
297.99934999999999
 21
78.22548199999999
  0
LINE
  5
C8
100
AcDbEntity
  8
LC-003-002-----0
  6
CONTINUOUS
 62
             7
100
AcDbLine
 10
300.99934999999999
 20
-89.235755
 11
297.99934999999999
 21
-89.235755
  0
LINE
  5
C7
100
AcDbEntity
  8
LC-003-002-----0
  6
CONTINUOUS
 62
             7
100
AcDbLine
 10
300.99934999999999
 20
-106.735755
 11
297.99934999999999
 21
-106.735755
  0
LINE
  5
C6
100
AcDbEntity
  8
LC-003-002-----0
  6
CONTINUOUS
 62
             7
100
AcDbLine
 10
296.99934999999999
 20
-90.235755
 11
296.99934999999999
 21
-105.735755
  0
LINE
  5
C5
100
AcDbEntity
  8
LC-003-002-----0
  6
CONTINUOUS
 62
             7
100
AcDbLine
 10
307.49934999999999
 20
59.66052800000005
 11
307.49934999999999
 21
79.29043700000004
  0
LINE
  5
C4
100
AcDbEntity
  8
LC-003-002-----0
  6
CONTINUOUS
 62
             7
100
AcDbLine
 10
314.49934999999999
 20
62.11424600000002
 11
314.49934999999999
 21
76.836698
  0
LINE
  5
C3
100
AcDbEntity
  8
LC-003-002-----0
  6
CONTINUOUS
 62
             7
100
AcDbLine
 10
307.49934999999999
 20
79.29043700000004
 11
313.54655600000001
 21
79.29043700000004
  0
LINE
  5
C2
100
AcDbEntity
  8
LC-003-002-----0
  6
CONTINUOUS
 62
             7
100
AcDbLine
 10
307.49934999999999
 20
59.66052800000005
 11
313.54655600000001
 21
59.66052800000005
  0
LINE
  5
C1
100
AcDbEntity
  8
LC-003-002-----0
  6
CONTINUOUS
 62
             7
100
AcDbLine
 10
313.5465640000001
 20
74.38295999999995
 11
307.49934999999999
 21
74.38295999999995
  0
LINE
  5
C0
100
AcDbEntity
  8
LC-003-002-----0
  6
CONTINUOUS
 62
             7
100
AcDbLine
 10
313.5465640000001
 20
64.56800500000001
 11
307.49934999999999
 21
64.56800500000001
  0
LINE
  5
BF
100
AcDbEntity
  8
LC-003-002-----0
  6
CONTINUOUS
 62
             7
100
AcDbLine
 10
277.49934999999999
 20
65.47548199999999
 11
272.88054399999999
 21
65.47548199999999
  0
LINE
  5
BE
100
AcDbEntity
  8
LC-003-002-----0
  6
CONTINUOUS
 62
             7
100
AcDbLine
 10
286.49934999999999
 20
77.97548199999999
 11
284.49934999999999
 21
77.97548199999999
  0
LINE
  5
BD
100
AcDbEntity
  8
LC-003-002-----0
  6
CONTINUOUS
 62
             7
100
AcDbLine
 10
286.49934999999999
 20
60.97548199999999
 11
284.49934999999999
 21
60.97548199999999
  0
LINE
  5
BC
100
AcDbEntity
  8
LC-005-003-----0
  6
CONTINUOUS
 62
             2
100
AcDbLine
 10
271.88054399999999
 20
66.47548199999999
 11
277.49934999999999
 21
66.47548199999999
  0
LINE
  5
BB
100
AcDbEntity
  8
LC-005-003-----0
  6
CONTINUOUS
 62
             2
100
AcDbLine
 10
271.88054399999999
 20
72.47548199999999
 11
277.49934999999999
 21
72.47548199999999
  0
LINE
  5
BA
100
AcDbEntity
  8
LC-003-002-----0
  6
CONTINUOUS
 62
             7
100
AcDbLine
 10
271.88054399999999
 20
66.47548199999999
 11
271.88054399999999
 21
72.47548199999999
  0
LINE
  5
B9
100
AcDbEntity
  8
LC-003-002-----0
  6
CONTINUOUS
 62
             7
100
AcDbLine
 10
272.88054399999999
 20
73.47548199999999
 11
271.88054399999999
 21
72.47548199999999
  0
LINE
  5
B8
100
AcDbEntity
  8
LC-003-002-----0
  6
CONTINUOUS
 62
             7
100
AcDbLine
 10
272.88054399999999
 20
65.47548199999999
 11
271.88054399999999
 21
66.47548199999999
  0
LINE
  5
B7
100
AcDbEntity
  8
LC-003-002-----0
  6
CONTINUOUS
 62
             7
100
AcDbLine
 10
272.88054399999999
 20
73.47548199999999
 11
272.88054399999999
 21
65.47548199999999
  0
LINE
  5
B6
100
AcDbEntity
  8
LC-003-002-----0
  6
CONTINUOUS
 62
             7
100
AcDbLine
 10
277.49934999999999
 20
62.11417199999998
 11
277.49934999999999
 21
76.83663700000004
  0
LINE
  5
B5
100
AcDbEntity
  8
LC-003-002-----0
  6
CONTINUOUS
 62
             7
100
AcDbLine
 10
284.49934999999999
 20
62.11424600000002
 11
284.49934999999999
 21
76.836698
  0
LINE
  5
B4
100
AcDbEntity
  8
LC-003-002-----0
  6
CONTINUOUS
 62
             7
100
AcDbLine
 10
278.45215300000001
 20
79.29043700000004
 11
283.54655600000001
 21
79.29043700000004
  0
LINE
  5
B3
100
AcDbEntity
  8
LC-003-002-----0
  6
CONTINUOUS
 62
             7
100
AcDbLine
 10
278.45214499999997
 20
59.66052800000005
 11
283.54655600000001
 21
59.66052800000005
  0
LINE
  5
B2
100
AcDbEntity
  8
LC-003-002-----0
  6
CONTINUOUS
 62
             7
100
AcDbLine
 10
283.5465640000001
 20
74.38295999999995
 11
278.45214499999997
 21
74.38295999999995
  0
LINE
  5
B1
100
AcDbEntity
  8
LC-003-002-----0
  6
CONTINUOUS
 62
             7
100
AcDbLine
 10
283.5465640000001
 20
64.56800500000001
 11
278.45214499999997
 21
64.56800500000001
  0
LINE
  5
B0
100
AcDbEntity
  8
LC-003-002-----0
  6
CONTINUOUS
 62
             7
100
AcDbLine
 10
277.49934999999999
 20
73.47548199999999
 11
272.88054399999999
 21
73.47548199999999
  0
LINE
  5
AF
100
AcDbEntity
  8
LC-005-003-----0
  6
CONTINUOUS
 62
             2
100
AcDbLine
 10
271.88054399999999
 20
-94.98584999999999
 11
277.49934999999999
 21
-94.98584999999999
  0
LINE
  5
AE
100
AcDbEntity
  8
LC-005-003-----0
  6
CONTINUOUS
 62
             2
100
AcDbLine
 10
271.88054399999999
 20
-100.98585
 11
277.49934999999999
 21
-100.98585
  0
LINE
  5
AD
100
AcDbEntity
  8
LC-003-002-----0
  6
CONTINUOUS
 62
             7
100
AcDbLine
 10
277.49934999999999
 20
-93.98584999999999
 11
272.88054399999999
 21
-93.98584999999999
  0
LINE
  5
AC
100
AcDbEntity
  8
LC-003-002-----0
  6
CONTINUOUS
 62
             7
100
AcDbLine
 10
271.88054399999999
 20
-100.98585
 11
271.88054399999999
 21
-94.98584999999999
  0
LINE
  5
AB
100
AcDbEntity
  8
LC-003-002-----0
  6
CONTINUOUS
 62
             7
100
AcDbLine
 10
272.88054399999999
 20
-93.98584999999999
 11
271.88054399999999
 21
-94.98584999999999
  0
LINE
  5
AA
100
AcDbEntity
  8
LC-003-002-----0
  6
CONTINUOUS
 62
             7
100
AcDbLine
 10
272.88054399999999
 20
-101.98585
 11
271.88054399999999
 21
-100.98585
  0
LINE
  5
A9
100
AcDbEntity
  8
LC-003-002-----0
  6
CONTINUOUS
 62
             7
100
AcDbLine
 10
272.88054399999999
 20
-93.98584999999999
 11
272.88054399999999
 21
-101.98585
  0
LINE
  5
A8
100
AcDbEntity
  8
LC-003-002-----0
  6
CONTINUOUS
 62
             7
100
AcDbLine
 10
277.49934999999999
 20
-101.98585
 11
272.88054399999999
 21
-101.98585
  0
LINE
  5
A7
100
AcDbEntity
  8
LC-003-002-----0
  6
CONTINUOUS
 62
             7
100
AcDbLine
 10
277.49934999999999
 20
-105.34716
 11
277.49934999999999
 21
-90.62469499999993
  0
LINE
  5
A6
100
AcDbEntity
  8
LC-003-002-----0
  6
CONTINUOUS
 62
             7
100
AcDbLine
 10
284.49934999999999
 20
-105.3470870000001
 11
284.49934999999999
 21
-90.62463399999997
  0
LINE
  5
A5
100
AcDbEntity
  8
LC-003-002-----0
  6
CONTINUOUS
 62
             7
100
AcDbLine
 10
278.45215300000001
 20
-88.17089499999993
 11
283.54655600000001
 21
-88.17089499999993
  0
LINE
  5
A4
100
AcDbEntity
  8
LC-003-002-----0
  6
CONTINUOUS
 62
             7
100
AcDbLine
 10
278.45214499999997
 20
-107.800804
 11
283.54655600000001
 21
-107.800804
  0
LINE
  5
A3
100
AcDbEntity
  8
LC-003-002-----0
  6
CONTINUOUS
 62
             7
100
AcDbLine
 10
283.5465640000001
 20
-93.07837300000001
 11
278.45214499999997
 21
-93.07837300000001
  0
LINE
  5
A2
100
AcDbEntity
  8
LC-003-002-----0
  6
CONTINUOUS
 62
             7
100
AcDbLine
 10
283.5465640000001
 20
-102.893327
 11
278.45214499999997
 21
-102.893327
  0
LINE
  5
A1
100
AcDbEntity
  8
LC-003-002-----0
  6
CONTINUOUS
 62
             7
100
AcDbLine
 10
286.49934999999999
 20
-89.48584999999999
 11
284.49934999999999
 21
-89.48584999999999
  0
LINE
  5
A0
100
AcDbEntity
  8
LC-003-002-----0
  6
CONTINUOUS
 62
             7
100
AcDbLine
 10
286.49934999999999
 20
-106.48585
 11
284.49934999999999
 21
-106.48585
  0
LINE
  5
9F
100
AcDbEntity
  8
LC-003-002-----0
  6
CONTINUOUS
 62
             7
100
AcDbLine
 10
307.49934999999999
 20
-107.8007090000001
 11
307.49934999999999
 21
-88.17080000000006
  0
LINE
  5
9E
100
AcDbEntity
  8
LC-003-002-----0
  6
CONTINUOUS
 62
             7
100
AcDbLine
 10
314.49934999999999
 20
-105.346992
 11
314.49934999999999
 21
-90.62453899999998
  0
LINE
  5
9D
100
AcDbEntity
  8
LC-003-002-----0
  6
CONTINUOUS
 62
             7
100
AcDbLine
 10
307.49934999999999
 20
-88.17080000000006
 11
313.54655600000001
 21
-88.17080000000006
  0
LINE
  5
9C
100
AcDbEntity
  8
LC-003-002-----0
  6
CONTINUOUS
 62
             7
100
AcDbLine
 10
307.49934999999999
 20
-107.8007090000001
 11
313.54655600000001
 21
-107.8007090000001
  0
LINE
  5
9B
100
AcDbEntity
  8
LC-003-002-----0
  6
CONTINUOUS
 62
             7
100
AcDbLine
 10
313.5465640000001
 20
-93.07827700000003
 11
307.49934999999999
 21
-93.07827700000003
  0
LINE
  5
9A
100
AcDbEntity
  8
LC-003-002-----0
  6
CONTINUOUS
 62
             7
100
AcDbLine
 10
313.5465640000001
 20
-102.893232
 11
307.49934999999999
 21
-102.893232
  0
LINE
  5
99
100
AcDbEntity
  8
LC-003-002-----0
  6
CONTINUOUS
 62
             7
100
AcDbLine
 10
344.50897600000002
 20
-105.49963
 11
344.50897600000002
 21
-15.02749799999999
  0
LINE
  5
98
100
AcDbEntity
  8
LC-003-002-----0
  6
CONTINUOUS
 62
             7
100
AcDbLine
 10
249.49627799999999
 20
93.44151600000002
 11
249.49627799999999
 21
68.008842
  0
LINE
  5
97
100
AcDbEntity
  8
LC-003-002-----0
  6
CONTINUOUS
 62
             7
100
AcDbLine
 10
241.49982000000011
 20
93.44151600000002
 11
260.49982000000011
 21
93.44151600000002
  0
LINE
  5
96
100
AcDbEntity
  8
LC-003-002-----0
  6
CONTINUOUS
 62
             7
100
AcDbLine
 10
240.99982000000011
 20
100.94151600000011
 11
240.99982000000011
 21
93.94151600000002
  0
LINE
  5
95
100
AcDbEntity
  8
LC-003-002-----0
  6
CONTINUOUS
 62
             7
100
AcDbLine
 10
260.99982000000011
 20
93.94151600000002
 11
260.99982000000011
 21
100.94151600000011
  0
LINE
  5
94
100
AcDbEntity
  8
LC-003-002-----0
  6
CONTINUOUS
 62
             7
100
AcDbLine
 10
241.50014400000001
 20
109.44152200000011
 11
260.49982000000011
 21
109.4415090000001
  0
LINE
  5
93
100
AcDbEntity
  8
LC-003-002-----0
  6
CONTINUOUS
 62
             7
100
AcDbLine
 10
252.49627799999999
 20
93.44151600000002
 11
252.49627799999999
 21
68.008842
  0
LINE
  5
92
100
AcDbEntity
  8
LC-003-002-----0
  6
CONTINUOUS
 62
             7
100
AcDbLine
 10
249.49627799999999
 20
68.008842
 11
252.49627799999999
 21
68.008842
  0
LINE
  5
91
100
AcDbEntity
  8
LC-003-002-----0
  6
CONTINUOUS
 62
             7
100
AcDbLine
 10
241.49982000000011
 20
109.44151600000011
 11
260.49982000000011
 21
109.44151600000011
  0
LINE
  5
90
100
AcDbEntity
  8
LC-003-002-----0
  6
CONTINUOUS
 62
             7
100
AcDbLine
 10
260.99982000000011
 20
101.94151600000011
 11
260.99982000000011
 21
108.94151600000011
  0
LINE
  5
8F
100
AcDbEntity
  8
LC-003-002-----0
  6
CONTINUOUS
 62
             7
100
AcDbLine
 10
240.99982000000011
 20
101.94151600000011
 11
240.99982000000011
 21
108.94151600000011
  0
LINE
  5
8E
100
AcDbEntity
  8
LC-001-002-RND-0
  6
CONTINUOUS
 62
             7
100
AcDbLine
 10
241.49982000000011
 20
117.9404999999999
 11
137.49981099999999
 21
117.9404999999999
  0
LINE
  5
8D
100
AcDbEntity
  8
LC-003-002-----0
  6
CONTINUOUS
 62
             7
100
AcDbLine
 10
340.49603699999989
 20
83.50000800000002
 11
340.49603699999989
 21
58.06733400000001
  0
LINE
  5
8C
100
AcDbEntity
  8
LC-003-002-----0
  6
CONTINUOUS
 62
             7
100
AcDbLine
 10
332.49957899999998
 20
83.50000800000002
 11
351.49957899999998
 21
83.50000800000002
  0
LINE
  5
8B
100
AcDbEntity
  8
LC-003-002-----0
  6
CONTINUOUS
 62
             7
100
AcDbLine
 10
331.99957899999998
 20
91.00000800000002
 11
331.99957899999998
 21
84.00000800000002
  0
LINE
  5
8A
100
AcDbEntity
  8
LC-003-002-----0
  6
CONTINUOUS
 62
             7
100
AcDbLine
 10
351.99957899999998
 20
84.00000800000002
 11
351.99957899999998
 21
91.00000800000002
  0
LINE
  5
89
100
AcDbEntity
  8
LC-003-002-----0
  6
CONTINUOUS
 62
             7
100
AcDbLine
 10
332.49990300000002
 20
99.50001400000005
 11
351.49957899999998
 21
99.50000200000005
  0
LINE
  5
88
100
AcDbEntity
  8
LC-003-002-----0
  6
CONTINUOUS
 62
             7
100
AcDbLine
 10
343.49603699999989
 20
83.50000800000002
 11
343.49603699999989
 21
58.06733400000001
  0
LINE
  5
87
100
AcDbEntity
  8
LC-003-002-----0
  6
CONTINUOUS
 62
             7
100
AcDbLine
 10
340.49603699999989
 20
58.06733400000001
 11
343.49603699999989
 21
58.06733400000001
  0
LINE
  5
86
100
AcDbEntity
  8
LC-003-002-----0
  6
CONTINUOUS
 62
             7
100
AcDbLine
 10
332.49957899999998
 20
99.50000800000005
 11
351.49957899999998
 21
99.50000800000005
  0
LINE
  5
85
100
AcDbEntity
  8
LC-003-002-----0
  6
CONTINUOUS
 62
             7
100
AcDbLine
 10
351.99957899999998
 20
92.00000800000002
 11
351.99957899999998
 21
99.00000800000005
  0
LINE
  5
84
100
AcDbEntity
  8
LC-003-002-----0
  6
CONTINUOUS
 62
             7
100
AcDbLine
 10
331.99957899999998
 20
92.00000800000002
 11
331.99957899999998
 21
99.00000800000005
  0
LINE
  5
83
100
AcDbEntity
  8
LC-001-002-RND-0
  6
CONTINUOUS
 62
             7
100
AcDbLine
 10
332.49957899999998
 20
108.00000800000009
 11
301.76325800000001
 21
108.00000800000009
  0
LINE
  5
82
100
AcDbEntity
  8
LC-003-002-----0
  6
CONTINUOUS
 62
             7
100
AcDbLine
 10
360.70929700000011
 20
123.682592
 11
360.70929700000011
 21
119.00000800000009
  0
LINE
  5
81
100
AcDbEntity
  8
LC-003-002-----0
  6
CONTINUOUS
 62
             7
100
AcDbLine
 10
370.70929700000011
 20
123.6826139999999
 11
370.70929700000011
 21
119.00000800000009
  0
LINE
  5
80
100
AcDbEntity
  8
LC-003-002-----0
  6
CONTINUOUS
 62
             7
100
AcDbLine
 10
463.49604599999998
 20
83.50102399999996
 11
463.49604599999998
 21
58.06835000000006
  0
LINE
  5
7F
100
AcDbEntity
  8
LC-003-002-----0
  6
CONTINUOUS
 62
             7
100
AcDbLine
 10
455.49958800000002
 20
83.50102399999996
 11
474.49958800000002
 21
83.50102399999996
  0
LINE
  5
7E
100
AcDbEntity
  8
LC-003-002-----0
  6
CONTINUOUS
 62
             7
100
AcDbLine
 10
454.99958800000002
 20
91.00102399999996
 11
454.99958800000002
 21
84.00102399999996
  0
LINE
  5
7D
100
AcDbEntity
  8
LC-003-002-----0
  6
CONTINUOUS
 62
             7
100
AcDbLine
 10
474.99958800000002
 20
84.00102399999996
 11
474.99958800000002
 21
91.00102399999996
  0
LINE
  5
7C
100
AcDbEntity
  8
LC-003-002-----0
  6
CONTINUOUS
 62
             7
100
AcDbLine
 10
455.49991200000011
 20
99.50103000000004
 11
474.49958800000002
 21
99.50101799999995
  0
LINE
  5
7B
100
AcDbEntity
  8
LC-003-002-----0
  6
CONTINUOUS
 62
             7
100
AcDbLine
 10
466.49604599999998
 20
83.50102399999996
 11
466.49604599999998
 21
58.06835000000006
  0
LINE
  5
7A
100
AcDbEntity
  8
LC-003-002-----0
  6
CONTINUOUS
 62
             7
100
AcDbLine
 10
463.49604599999998
 20
58.06835000000006
 11
466.49604599999998
 21
58.06835000000006
  0
LINE
  5
79
100
AcDbEntity
  8
LC-003-002-----0
  6
CONTINUOUS
 62
             7
100
AcDbLine
 10
455.49958800000002
 20
99.50102399999994
 11
474.49958800000002
 21
99.50102399999994
  0
LINE
  5
78
100
AcDbEntity
  8
LC-003-002-----0
  6
CONTINUOUS
 62
             7
100
AcDbLine
 10
474.99958800000002
 20
92.00102399999996
 11
474.99958800000002
 21
99.00102399999994
  0
LINE
  5
77
100
AcDbEntity
  8
LC-003-002-----0
  6
CONTINUOUS
 62
             7
100
AcDbLine
 10
454.99958800000002
 20
92.00102399999996
 11
454.99958800000002
 21
99.00102399999994
  0
LINE
  5
76
100
AcDbEntity
  8
LC-001-002-RND-0
  6
CONTINUOUS
 62
             7
100
AcDbLine
 10
455.49958800000002
 20
108.00000800000009
 11
351.49978199999998
 21
108.00000800000009
  0
LINE
  5
75
100
AcDbEntity
  8
LC-002-005-----0
  6
DASHDOT
 62
             2
100
AcDbLine
 10
464.99958800000002
 20
124.00118400000009
 11
464.99958800000002
 21
135.50118399999999
  0
LINE
  5
74
100
AcDbEntity
  8
LC-003-002-----0
  6
DASHDOT
 62
             2
100
AcDbLine
 10
242.89742100000001
 20
217.43900099999999
 11
242.89742100000001
 21
224.440168
  0
LINE
  5
73
100
AcDbEntity
  8
LC-003-002-----0
  6
CONTINUOUS
 62
             7
100
AcDbLine
 10
232.89742100000001
 20
224.440168
 11
252.89742100000001
 21
224.440168
  0
LINE
  5
72
100
AcDbEntity
  8
LC-003-002-----0
  6
CONTINUOUS
 62
             7
100
AcDbLine
 10
132.89742100000001
 20
259.50016599999998
 11
154.89742100000001
 21
259.50016599999998
  0
LINE
  5
71
100
AcDbEntity
  8
LC-003-002-----0
  6
CONTINUOUS
 62
             7
100
AcDbLine
 10
129.89742100000001
 20
247.940166
 11
129.89742100000001
 21
256.50016599999998
  0
LINE
  5
70
100
AcDbEntity
  8
LC-003-002-----0
  6
CONTINUOUS
 62
             7
100
AcDbLine
 10
157.89742100000001
 20
247.940166
 11
157.89742100000001
 21
256.50016599999998
  0
LINE
  5
6F
100
AcDbEntity
  8
LC-003-002-----0
  6
CONTINUOUS
 62
             7
100
AcDbLine
 10
242.89742100000001
 20
220.940168
 11
261.41162200000002
 21
220.940168
  0
LINE
  5
6E
100
AcDbEntity
  8
LC-003-002-----0
  6
CONTINUOUS
 62
             7
100
AcDbLine
 10
171.06761900000001
 20
220.940168
 11
245.70930899999999
 21
220.940168
  0
LINE
  5
6D
100
AcDbEntity
  8
LC-003-002-----0
  6
CONTINUOUS
 62
             7
100
AcDbLine
 10
252.89742100000001
 20
220.940168
 11
252.89742100000001
 21
224.440168
  0
LINE
  5
6C
100
AcDbEntity
  8
LC-003-002-----0
  6
CONTINUOUS
 62
             7
100
AcDbLine
 10
232.89742100000001
 20
220.940168
 11
232.89742100000001
 21
224.440168
  0
LINE
  5
6B
100
AcDbEntity
  8
LC-003-002-----0
  6
CONTINUOUS
 62
             7
100
AcDbLine
 10
105.647139
 20
130.895432
 11
118.49981099999999
 21
130.895432
  0
LINE
  5
6A
100
AcDbEntity
  8
LC-003-002-----0
  6
CONTINUOUS
 62
             7
100
AcDbLine
 10
94.14742799999999
 20
122.940496
 11
100.147139
 21
122.940496
  0
LINE
  5
69
100
AcDbEntity
  8
LC-003-002-----0
  6
CONTINUOUS
 62
             7
100
AcDbLine
 10
171.06761900000001
 20
220.940168
 11
170.681927
 21
243.02742799999999
  0
LINE
  5
68
100
AcDbEntity
  8
LC-003-002-----0
  6
CONTINUOUS
 62
             7
100
AcDbLine
 10
95.14742799999999
 20
130.895432
 11
105.647139
 21
130.895432
  0
LINE
  5
67
100
AcDbEntity
  8
LC-003-002-----0
  6
CONTINUOUS
 62
             7
100
AcDbLine
 10
94.14742799999999
 20
122.940496
 11
94.14742799999999
 21
129.895432
  0
LINE
  5
66
100
AcDbEntity
  8
LC-003-002-----0
  6
CONTINUOUS
 62
             7
100
AcDbLine
 10
107.89742099999999
 20
130.895432
 11
108.010774
 21
137.38703000000001
  0
LINE
  5
65
100
AcDbEntity
  8
LC-003-002-----0
  6
CONTINUOUS
 62
             7
100
AcDbLine
 10
108.093159
 20
142.105073
 11
109.85542599999999
 21
243.02742799999999
  0
LINE
  5
64
100
AcDbEntity
  8
LC-003-002-----0
  6
CONTINUOUS
 62
             7
100
AcDbLine
 10
114.854664
 20
247.940166
 11
157.89742100000001
 21
247.940166
  0
LINE
  5
63
100
AcDbEntity
  8
LC-003-002-----0
  6
CONTINUOUS
 62
             7
100
AcDbLine
 10
165.68268800000001
 20
247.940166
 11
157.89742100000001
 21
247.940166
  0
LINE
  5
62
100
AcDbEntity
  8
LC-003-002-----0
  6
CONTINUOUS
 62
             7
100
AcDbLine
 10
267.89742100000001
 20
130.895432
 11
267.80610800000011
 21
136.124718
  0
LINE
  5
61
100
AcDbEntity
  8
LC-003-002-----0
  6
CONTINUOUS
 62
             7
100
AcDbLine
 10
267.68415599999997
 20
143.10865400000009
 11
266.41086000000001
 21
216.02746400000009
  0
LINE
  5
60
100
AcDbEntity
  8
LC-003-002-----0
  6
CONTINUOUS
 62
             7
100
AcDbLine
 10
281.64742700000011
 20
122.940496
 11
281.64742700000011
 21
129.895432
  0
LINE
  5
5F
100
AcDbEntity
  8
LC-003-002-----0
  6
CONTINUOUS
 62
             7
100
AcDbLine
 10
280.64742700000011
 20
130.895432
 11
260.50003199999998
 21
130.895432
  0
LINE
  5
5E
100
AcDbEntity
  8
LC-003-002-----0
  6
CONTINUOUS
 62
             7
100
AcDbLine
 10
264.53579500000001
 20
122.940496
 11
281.64742700000011
 21
122.940496
  0
LINE
  5
5D
100
AcDbEntity
  8
LC-003-002-----0
  6
CONTINUOUS
 62
             7
100
AcDbLine
 10
239.89742100000001
 20
233.440168
 11
245.89742100000001
 21
233.440168
  0
LINE
  5
5C
100
AcDbEntity
  8
LC-003-002-----0
  6
CONTINUOUS
 62
             7
100
AcDbLine
 10
249.89742100000001
 20
228.440168
 11
249.89742100000001
 21
224.440168
  0
LINE
  5
5B
100
AcDbEntity
  8
LC-003-002-----0
  6
CONTINUOUS
 62
             7
100
AcDbLine
 10
235.89742100000001
 20
228.440168
 11
235.89742100000001
 21
224.440168
  0
LINE
  5
5A
100
AcDbEntity
  8
LC-003-002-----0
  6
CONTINUOUS
 62
             7
100
AcDbLine
 10
235.89742100000001
 20
224.440168
 11
249.89742100000001
 21
224.440168
  0
LINE
  5
59
100
AcDbEntity
  8
LC-003-002-----0
  6
CONTINUOUS
 62
             7
100
AcDbLine
 10
236.89742100000001
 20
229.440168
 11
248.89742100000001
 21
229.440168
  0
LINE
  5
58
100
AcDbEntity
  8
LC-003-002-----0
  6
CONTINUOUS
 62
             7
100
AcDbLine
 10
236.89742100000001
 20
229.2966349999999
 11
236.89742100000001
 21
230.440168
  0
LINE
  5
57
100
AcDbEntity
  8
LC-003-002-----0
  6
CONTINUOUS
 62
             7
100
AcDbLine
 10
248.89742100000001
 20
229.2966349999999
 11
248.89742100000001
 21
230.440168
  0
LINE
  5
56
100
AcDbEntity
  8
LC-003-002-----0
  6
CONTINUOUS
 62
             7
100
AcDbLine
 10
236.89742100000001
 20
230.440168
 11
248.89742100000001
 21
230.440168
  0
LINE
  5
55
100
AcDbEntity
  8
LC-003-002-----0
  6
CONTINUOUS
 62
             7
100
AcDbLine
 10
246.39742100000001
 20
228.440168
 11
246.39742100000001
 21
224.440168
  0
LINE
  5
54
100
AcDbEntity
  8
LC-003-002-----0
  6
CONTINUOUS
 62
             7
100
AcDbLine
 10
239.39742100000001
 20
228.440168
 11
239.39742100000001
 21
224.440168
  0
LINE
  5
53
100
AcDbEntity
  8
LC-003-002-----0
  6
CONTINUOUS
 62
             7
100
AcDbLine
 10
239.89742100000001
 20
233.440168
 11
245.89742100000001
 21
233.440168
  0
LINE
  5
52
100
AcDbEntity
  8
LC-003-002-----0
  6
CONTINUOUS
 62
             7
100
AcDbLine
 10
235.89742100000001
 20
224.440168
 11
249.89742100000001
 21
224.440168
  0
LINE
  5
51
100
AcDbEntity
  8
LC-003-002-----0
  6
CONTINUOUS
 62
             7
100
AcDbLine
 10
239.89742100000001
 20
233.440168
 11
245.89742100000001
 21
233.440168
  0
LINE
  5
50
100
AcDbEntity
  8
LC-003-002-----0
  6
CONTINUOUS
 62
             7
100
AcDbLine
 10
249.89742100000001
 20
243.440168
 11
281.630379
 21
243.440168
  0
LINE
  5
4F
100
AcDbEntity
  8
LC-003-002-----0
  6
CONTINUOUS
 62
             7
100
AcDbLine
 10
249.89742100000001
 20
237.440168
 11
281.630379
 21
237.440168
  0
LINE
  5
4E
100
AcDbEntity
  8
LC-003-002-----0
  6
CONTINUOUS
 62
             7
100
AcDbLine
 10
301.630379
 20
223.440168
 11
301.630379
 21
213.769868
  0
LINE
  5
4D
100
AcDbEntity
  8
LC-003-002-----0
  6
CONTINUOUS
 62
             7
100
AcDbLine
 10
295.630379
 20
223.440168
 11
295.630379
 21
213.769868
  0
LINE
  5
4C
100
AcDbEntity
  8
LC-003-002-----0
  6
CONTINUOUS
 62
             7
100
AcDbLine
 10
295.630379
 20
213.769868
 11
296.85496899999998
 21
214.66086799999991
  0
LINE
  5
4B
100
AcDbEntity
  8
LC-003-002-----0
  6
CONTINUOUS
 62
             7
100
AcDbLine
 10
296.85496899999998
 20
214.66086799999991
 11
298.92431399999998
 21
213.591668
  0
LINE
  5
4A
100
AcDbEntity
  8
LC-003-002-----0
  6
CONTINUOUS
 62
             7
100
AcDbLine
 10
298.92431399999998
 20
213.591668
 11
300.03857599999998
 21
214.66086799999991
  0
LINE
  5
49
100
AcDbEntity
  8
LC-003-002-----0
  6
CONTINUOUS
 62
             7
100
AcDbLine
 10
300.03857599999998
 20
214.66086799999991
 11
301.630379
 21
213.769868
  0
LINE
  5
48
100
AcDbEntity
  8
LC-003-002-----0
  6
DASHDOT
 62
             2
100
AcDbLine
 10
249.89742100000001
 20
240.440168
 11
281.630379
 21
240.440168
  0
LINE
  5
47
100
AcDbEntity
  8
LC-003-002-----0
  6
DASHDOT
 62
             2
100
AcDbLine
 10
298.630379
 20
223.440168
 11
298.630379
 21
211.7375989999999
  0
LINE
  5
46
100
AcDbEntity
  8
LC-003-002-----0
  6
CONTINUOUS
 62
             7
100
AcDbLine
 10
137.500023
 20
130.895432
 11
241.49982000000011
 21
130.895432
  0
LINE
  5
45
100
AcDbEntity
  8
LC-003-002-----0
  6
CONTINUOUS
 62
             7
100
AcDbLine
 10
583.99944600000003
 20
57.00040299999998
 11
583.99944600000003
 21
-102.99959699999999
  0
LINE
  5
44
100
AcDbEntity
  8
LC-001-002-RND-0
  6
CONTINUOUS
 62
             7
100
AcDbLine
 10
332.49957899999998
 20
115.0000121538298
 11
310.94842100000011
 21
115.0000121538298
  0
POINT
  5
43
100
AcDbEntity
  8
LC-005-003-----0
 62
             7
100
AcDbPoint
 10
583.99946399999999
 20
-102.999578
  0
POINT
  5
42
100
AcDbEntity
  8
LC-005-003-----0
 62
             7
100
AcDbPoint
 10
583.99944600000003
 20
57.00040299999998
  0
POINT
  5
41
100
AcDbEntity
  8
LC-005-003-----0
 62
             7
100
AcDbPoint
 10
340.017222
 20
-110.49886100000001
  0
POINT
  5
40
100
AcDbEntity
  8
LC-005-003-----0
 62
             7
100
AcDbPoint
 10
350.20907799999998
 20
244.50000800000001
  0
POINT
  5
3F
100
AcDbEntity
  8
LC-005-003-----0
 62
             7
100
AcDbPoint
 10
83.997387
 20
101.4404999999999
  0
POINT
  5
3E
100
AcDbEntity
  8
LC-005-003-----0
 62
             7
100
AcDbPoint
 10
509.00167900000002
 20
91.50000800000002
  0
POINT
  5
3D
100
AcDbEntity
  8
LC-005-003-----0
 62
             7
100
AcDbPoint
 10
154.89742100000001
 20
259.50016599999998
  0
POINT
  5
3C
100
AcDbEntity
  8
LC-005-003-----0
 62
             7
100
AcDbPoint
 10
340.00900000000001
 20
-110.498869
  0
ENDBLK
  5
26D
100
AcDbEntity
  8
0
100
AcDbBlockEnd
  0
BLOCK
  5
31
100
AcDbEntity
  8
0
100
AcDbBlockBegin
  2
HL_715_2_R_CKSTAUVERSCLUSS
 70
             0
 10
1727.96028698071
 20
-223.80061015388401
 30
0.0
  3
HL_715_2_R_CKSTAUVERSCLUSS
  1

  0
POINT
  5
26F
100
AcDbEntity
  8
1
 62
             3
 60
             1
100
AcDbPoint
 10
1802.289166163406
 20
-111.4759206041192
  0
POINT
  5
26E
100
AcDbEntity
  8
1
 62
             3
 60
             1
100
AcDbPoint
 10
1928.289166163406
 20
-111.4759206041192
  0
ENDBLK
  5
270
100
AcDbEntity
  8
0
100
AcDbBlockEnd
  0
BLOCK
  5
33
100
AcDbEntity
  8
0
100
AcDbBlockBegin
  2
HL_715_2EPC_R_CKSTAUVES__2
 70
             0
 10
-0.00000000000017
 20
-631.57551928513999
 30
0.0
  3
HL_715_2EPC_R_CKSTAUVES__2
  1

  0
INSERT
  5
34
100
AcDbEntity
  8
1
100
AcDbBlockReference
  2
HL_715_2_R_CKSTAUVERSCLUSS
 10
1727.96028698071
 20
-223.80061015388401
  0
ENDBLK
  5
271
100
AcDbEntity
  8
0
100
AcDbBlockEnd
  0
BLOCK
  5
36
100
AcDbEntity
  8
0
100
AcDbBlockBegin
  2
HL_715_2EPC_R_CKSTAUVES__3
 70
             0
 10
1648.826466645769
 20
752.63175852793574
 30
0.0
  3
HL_715_2EPC_R_CKSTAUVES__3
  1

  0
CIRCLE
  5
380
100
AcDbEntity
  8
LC-007-002-----0
  6
CONTINUOUS
 62
             7
100
AcDbCircle
 10
790.08018483757041
 20
-96.55327690080556
 40
6.5
  0
CIRCLE
  5
37F
100
AcDbEntity
  8
LC-007-002-----0
  6
CONTINUOUS
 62
             7
100
AcDbCircle
 10
763.33018483757041
 20
70.94672309919444
 40
6.5
  0
CIRCLE
  5
37E
100
AcDbEntity
  8
LC-007-002-----0
  6
CONTINUOUS
 62
             7
100
AcDbCircle
 10
990.33018483757041
 20
70.94672309919444
 40
6.5
  0
CIRCLE
  5
37D
100
AcDbEntity
  8
LC-007-002-----0
  6
CONTINUOUS
 62
             7
100
AcDbCircle
 10
963.58018483757041
 20
-96.55327690080556
 40
6.5
  0
CIRCLE
  5
37C
100
AcDbEntity
  8
LC-007-002-----0
  6
CONTINUOUS
 62
             7
100
AcDbCircle
 10
876.83018483757041
 20
-0.26315100000284
 40
82.5
  0
CIRCLE
  5
37B
100
AcDbEntity
  8
LC-007-002-----0
  6
CONTINUOUS
 62
             7
100
AcDbCircle
 10
876.83018483757041
 20
-0.26315100000284
 40
86.5
  0
CIRCLE
  5
37A
100
AcDbEntity
  8
LC-007-002-----0
  6
CONTINUOUS
 62
             7
100
AcDbCircle
 10
876.83018483757041
 20
-0.26315100000284
 40
86.2545629999986
  0
CIRCLE
  5
379
100
AcDbEntity
  8
LC-007-002-----0
  6
CONTINUOUS
 62
             7
100
AcDbCircle
 10
876.83018483757041
 20
-0.26315100000284
 40
92.96188999999868
  0
CIRCLE
  5
378
100
AcDbEntity
  8
LC-007-002-----0
  6
CONTINUOUS
 62
             7
100
AcDbCircle
 10
876.83018483757041
 20
-0.26315100000284
 40
93.74869399999807
  0
CIRCLE
  5
377
100
AcDbEntity
  8
LC-007-002-----0
  6
CONTINUOUS
 62
             7
100
AcDbCircle
 10
876.83018483757041
 20
-3.36312800000087
 40
73.0
  0
CIRCLE
  5
376
100
AcDbEntity
  8
LC-007-002-----0
  6
CONTINUOUS
 62
             7
100
AcDbCircle
 10
876.83018483757041
 20
0.00098900000012
 40
78.62816499999826
  0
CIRCLE
  5
375
100
AcDbEntity
  8
LC-007-002-----0
  6
CONTINUOUS
 62
             7
100
AcDbCircle
 10
876.83018483757041
 20
0.00098900000012
 40
80.23586099999739
  0
ARC
  5
374
100
AcDbEntity
  8
LC-007-002-----0
  6
CONTINUOUS
 62
             7
100
AcDbCircle
 10
876.83018483757041
 20
-10.20224600000074
 40
76.10000099999499
100
AcDbArc
 50
29.27341600000056
 51
90.0
  0
ARC
  5
373
100
AcDbEntity
  8
LC-007-002-----0
  6
CONTINUOUS
 62
             7
100
AcDbCircle
 10
876.83018483757041
 20
-10.20224600000074
 40
76.10000099999525
100
AcDbArc
 50
90.0
 51
150.72658400000077
  0
ARC
  5
372
100
AcDbEntity
  8
LC-007-002-----0
  6
CONTINUOUS
 62
             7
100
AcDbCircle
 10
876.77333783757058
 20
363.36902509919349
 40
319.27007699999791
100
AcDbArc
 50
-98.84541580509283
 51
-89.97988099999897
  0
ARC
  5
371
100
AcDbEntity
  8
LC-007-002-----0
  6
CONTINUOUS
 62
             7
100
AcDbCircle
 10
878.62554783756786
 20
367.44110509919523
 40
323.34682099999924
100
AcDbArc
 50
-90.30834099999824
 51
-81.52199639645113
  0
ARC
  5
370
100
AcDbEntity
  8
LC-012-002-RND-0
  6
CONTINUOUS
 62
             7
100
AcDbCircle
 10
966.40638883756765
 20
120.85096909919631
 40
2.0
100
AcDbArc
 50
0.0
 51
90.0
  0
ARC
  5
36F
100
AcDbEntity
  8
LC-012-002-RND-0
  6
CONTINUOUS
 62
             7
100
AcDbCircle
 10
865.83018483757041
 20
257.35063909919381
 40
3.0
100
AcDbArc
 50
90.0
 51
180.0
  0
ARC
  5
36E
100
AcDbEntity
  8
LC-007-002-----0
  6
CONTINUOUS
 62
             7
100
AcDbCircle
 10
978.55761383756908
 20
114.35096909919631
 40
3.50000000000304
100
AcDbArc
 50
1.99999999997281
 51
90.0
  0
ARC
  5
36D
100
AcDbEntity
  8
LC-012-002-RND-0
  6
CONTINUOUS
 62
             7
100
AcDbCircle
 10
887.83018483757041
 20
257.35063909919381
 40
3.0
100
AcDbArc
 50
0.0
 51
90.0
  0
ARC
  5
36C
100
AcDbEntity
  8
LC-007-002-----0
  6
CONTINUOUS
 62
             7
100
AcDbCircle
 10
775.08529583756899
 20
114.35096909919631
 40
3.5
100
AcDbArc
 50
90.0
 51
178.0000000000272
  0
ARC
  5
36B
100
AcDbEntity
  8
LC-012-002-RND-0
  6
CONTINUOUS
 62
             7
100
AcDbCircle
 10
963.83166883756712
 20
129.8059050991946
 40
1.0
100
AcDbArc
 50
0.0
 51
90.0
  0
ARC
  5
36A
100
AcDbEntity
  8
LC-012-002-RND-0
  6
CONTINUOUS
 62
             7
100
AcDbCircle
 10
789.82870083757007
 20
129.8059050991946
 40
1.0
100
AcDbArc
 50
90.0
 51
180.0
  0
ARC
  5
369
100
AcDbEntity
  8
LC-012-002-RND-0
  6
CONTINUOUS
 62
             7
100
AcDbCircle
 10
809.78669383757006
 20
242.85063909919381
 40
5.0
100
AcDbArc
 50
90.0
 51
178.99999999996251
  0
ARC
  5
368
100
AcDbEntity
  8
LC-012-002-RND-0
  6
CONTINUOUS
 62
             7
100
AcDbCircle
 10
943.87367483757043
 20
242.85063909919381
 40
4.99999999999694
100
AcDbArc
 50
1.00000000003822
 51
90.0
  0
ARC
  5
367
100
AcDbEntity
  8
LC-012-002-RND-0
  6
CONTINUOUS
 62
             7
100
AcDbCircle
 10
966.40638883756765
 20
120.85096909919631
 40
2.0
100
AcDbArc
 50
0.0
 51
90.0
  0
ARC
  5
366
100
AcDbEntity
  8
LC-012-002-RND-0
  6
CONTINUOUS
 62
             7
100
AcDbCircle
 10
787.2539798375692
 20
120.85096909919631
 40
2.0
100
AcDbArc
 50
90.0
 51
180.0
  0
ARC
  5
365
100
AcDbEntity
  8
LC-007-002-----0
  6
CONTINUOUS
 62
             7
100
AcDbCircle
 10
790.08018483757041
 20
-96.55327690080556
 40
7.46074600000014
100
AcDbArc
 50
119.3985129999819
 51
120.60148700005224
  0
ARC
  5
364
100
AcDbEntity
  8
LC-007-002-----0
  6
CONTINUOUS
 62
             7
100
AcDbCircle
 10
790.08018483757041
 20
-96.55327690080556
 40
7.46074600000155
100
AcDbArc
 50
179.39851300000893
 51
-179.39851300000893
  0
ARC
  5
363
100
AcDbEntity
  8
LC-007-002-----0
  6
CONTINUOUS
 62
             7
100
AcDbCircle
 10
790.08018483757041
 20
-96.55327690080556
 40
7.4607459999971
100
AcDbArc
 50
-120.60148699997993
 51
-119.39851299998196
  0
ARC
  5
362
100
AcDbEntity
  8
LC-007-002-----0
  6
CONTINUOUS
 62
             7
100
AcDbCircle
 10
790.08018483757041
 20
-96.55327690080556
 40
7.46074599999834
100
AcDbArc
 50
-60.60148700004238
 51
-59.39851299997198
  0
ARC
  5
361
100
AcDbEntity
  8
LC-007-002-----0
  6
CONTINUOUS
 62
             7
100
AcDbCircle
 10
790.08018483757041
 20
-96.55327690080556
 40
7.46074600000155
100
AcDbArc
 50
-0.60148699999108
 51
0.60148699999108
  0
ARC
  5
360
100
AcDbEntity
  8
LC-007-002-----0
  6
CONTINUOUS
 62
             7
100
AcDbCircle
 10
790.08018483757041
 20
-96.55327690080556
 40
7.46074600000076
100
AcDbArc
 50
59.3985129999718
 51
60.60148700004243
  0
ARC
  5
35F
100
AcDbEntity
  8
LC-007-002-----0
  6
CONTINUOUS
 62
             7
100
AcDbCircle
 10
763.33018483757041
 20
70.94672309919444
 40
7.46074600000014
100
AcDbArc
 50
119.3985129999819
 51
120.60148700005224
  0
ARC
  5
35E
100
AcDbEntity
  8
LC-007-002-----0
  6
CONTINUOUS
 62
             7
100
AcDbCircle
 10
763.33018483757041
 20
70.94672309919444
 40
7.46074600000155
100
AcDbArc
 50
179.39851300000893
 51
-179.39851300000893
  0
ARC
  5
35D
100
AcDbEntity
  8
LC-007-002-----0
  6
CONTINUOUS
 62
             7
100
AcDbCircle
 10
763.33018483757041
 20
70.94672309919444
 40
7.46074599999706
100
AcDbArc
 50
-120.60148699998011
 51
-119.3985129999819
  0
ARC
  5
35C
100
AcDbEntity
  8
LC-007-002-----0
  6
CONTINUOUS
 62
             7
100
AcDbCircle
 10
763.33018483757041
 20
70.94672309919444
 40
7.46074599999836
100
AcDbArc
 50
-60.60148700004243
 51
-59.3985129999718
  0
ARC
  5
35B
100
AcDbEntity
  8
LC-007-002-----0
  6
CONTINUOUS
 62
             7
100
AcDbCircle
 10
763.33018483757041
 20
70.94672309919444
 40
7.46074600000155
100
AcDbArc
 50
-0.60148699999108
 51
0.60148699999108
  0
ARC
  5
35A
100
AcDbEntity
  8
LC-007-002-----0
  6
CONTINUOUS
 62
             7
100
AcDbCircle
 10
763.33018483757041
 20
70.94672309919444
 40
7.46074600000076
100
AcDbArc
 50
59.3985129999718
 51
60.60148700004243
  0
ARC
  5
359
100
AcDbEntity
  8
LC-007-002-----0
  6
CONTINUOUS
 62
             7
100
AcDbCircle
 10
990.33018483757041
 20
70.94672309919444
 40
7.46074600000014
100
AcDbArc
 50
119.3985129999819
 51
120.60148700005224
  0
ARC
  5
358
100
AcDbEntity
  8
LC-007-002-----0
  6
CONTINUOUS
 62
             7
100
AcDbCircle
 10
990.33018483757041
 20
70.94672309919444
 40
7.46074600000155
100
AcDbArc
 50
179.39851300000893
 51
-179.39851300000893
  0
ARC
  5
357
100
AcDbEntity
  8
LC-007-002-----0
  6
CONTINUOUS
 62
             7
100
AcDbCircle
 10
990.33018483757041
 20
70.94672309919444
 40
7.46074599999706
100
AcDbArc
 50
-120.60148699998011
 51
-119.3985129999819
  0
ARC
  5
356
100
AcDbEntity
  8
LC-007-002-----0
  6
CONTINUOUS
 62
             7
100
AcDbCircle
 10
990.33018483757041
 20
70.94672309919444
 40
7.46074599999836
100
AcDbArc
 50
-60.60148700004243
 51
-59.3985129999718
  0
ARC
  5
355
100
AcDbEntity
  8
LC-007-002-----0
  6
CONTINUOUS
 62
             7
100
AcDbCircle
 10
990.33018483757041
 20
70.94672309919444
 40
7.46074600000155
100
AcDbArc
 50
-0.60148699999108
 51
0.60148699999108
  0
ARC
  5
354
100
AcDbEntity
  8
LC-007-002-----0
  6
CONTINUOUS
 62
             7
100
AcDbCircle
 10
990.33018483757041
 20
70.94672309919444
 40
7.46074600000076
100
AcDbArc
 50
59.3985129999718
 51
60.60148700004243
  0
ARC
  5
353
100
AcDbEntity
  8
LC-007-002-----0
  6
CONTINUOUS
 62
             7
100
AcDbCircle
 10
963.58018483757041
 20
-96.55327690080556
 40
7.46074600000014
100
AcDbArc
 50
119.3985129999819
 51
120.60148700005224
  0
ARC
  5
352
100
AcDbEntity
  8
LC-007-002-----0
  6
CONTINUOUS
 62
             7
100
AcDbCircle
 10
963.58018483757041
 20
-96.55327690080556
 40
7.46074600000155
100
AcDbArc
 50
179.39851300000893
 51
-179.39851300000893
  0
ARC
  5
351
100
AcDbEntity
  8
LC-007-002-----0
  6
CONTINUOUS
 62
             7
100
AcDbCircle
 10
963.58018483757041
 20
-96.55327690080556
 40
7.4607459999971
100
AcDbArc
 50
-120.60148699997993
 51
-119.39851299998196
  0
ARC
  5
350
100
AcDbEntity
  8
LC-007-002-----0
  6
CONTINUOUS
 62
             7
100
AcDbCircle
 10
963.58018483757041
 20
-96.55327690080556
 40
7.46074599999834
100
AcDbArc
 50
-60.60148700004238
 51
-59.39851299997198
  0
ARC
  5
34F
100
AcDbEntity
  8
LC-007-002-----0
  6
CONTINUOUS
 62
             7
100
AcDbCircle
 10
963.58018483757041
 20
-96.55327690080556
 40
7.46074600000155
100
AcDbArc
 50
-0.60148699999108
 51
0.60148699999108
  0
ARC
  5
34E
100
AcDbEntity
  8
LC-007-002-----0
  6
CONTINUOUS
 62
             7
100
AcDbCircle
 10
963.58018483757041
 20
-96.55327690080556
 40
7.46074600000076
100
AcDbArc
 50
59.3985129999718
 51
60.60148700004243
  0
ARC
  5
34D
100
AcDbEntity
  8
LC-007-002-----0
  6
CONTINUOUS
 62
             7
100
AcDbCircle
 10
876.83018483757041
 20
0.0
 40
97.80169300000451
100
AcDbArc
 50
-178.03135399999871
 51
-1.99999999999953
  0
ARC
  5
34C
100
AcDbEntity
  8
LC-012-002-RND-0
  6
CONTINUOUS
 62
             7
100
AcDbCircle
 10
750.83018483757041
 20
93.85096909919632
 40
0.5
100
AcDbArc
 50
180.0
 51
-90.0
  0
ARC
  5
34B
100
AcDbEntity
  8
LC-012-002-RND-0
  6
CONTINUOUS
 62
             7
100
AcDbCircle
 10
1002.83018483757
 20
93.85096909919632
 40
0.5
100
AcDbArc
 50
-90.0
 51
0.0
  0
ARC
  5
34A
100
AcDbEntity
  8
LC-007-002-----0
  6
CONTINUOUS
 62
             7
100
AcDbCircle
 10
763.33018483757041
 20
70.94672309919444
 40
10.50000000000177
100
AcDbArc
 50
93.16508499999115
 51
-165.00000000000239
  0
ARC
  5
349
100
AcDbEntity
  8
LC-007-002-----0
  6
CONTINUOUS
 62
             7
100
AcDbCircle
 10
990.33018483757041
 20
70.94672309919444
 40
10.50000000000542
100
AcDbArc
 50
-14.99999999999681
 51
86.83491500000885
  0
ARC
  5
348
100
AcDbEntity
  8
LC-007-002-----0
  6
CONTINUOUS
 62
             7
100
AcDbCircle
 10
963.58018483757041
 20
-96.51451390080509
 40
12.00000000000001
100
AcDbArc
 50
-90.0
 51
-1.91359899999028
  0
ARC
  5
347
100
AcDbEntity
  8
LC-007-002-----0
  6
CONTINUOUS
 62
             7
100
AcDbCircle
 10
790.08018483757041
 20
-96.51451390080509
 40
12.00000000000241
100
AcDbArc
 50
-178.08640099999297
 51
-90.0
  0
ARC
  5
346
100
AcDbEntity
  8
LC-007-002-----0
  6
CONTINUOUS
 62
             7
100
AcDbCircle
 10
758.83018483757041
 20
129.60096909919631
 40
1.0
100
AcDbArc
 50
180.0
 51
-89.99994200008796
  0
ARC
  5
345
100
AcDbEntity
  8
LC-007-002-----0
  6
CONTINUOUS
 62
             7
100
AcDbCircle
 10
761.83018483757041
 20
129.60096909919631
 40
1.00000000000051
100
AcDbArc
 50
-89.99994200008796
 51
0.0
  0
ARC
  5
344
100
AcDbEntity
  8
LC-007-002-----0
  6
CONTINUOUS
 62
             7
100
AcDbCircle
 10
761.83018483757041
 20
132.60096909919631
 40
1.0
100
AcDbArc
 50
0.0
 51
90.0
  0
ARC
  5
343
100
AcDbEntity
  8
LC-007-002-----0
  6
CONTINUOUS
 62
             7
100
AcDbCircle
 10
758.83018483757041
 20
132.60096909919631
 40
1.0
100
AcDbArc
 50
90.0
 51
179.99984800014656
  0
ARC
  5
342
100
AcDbEntity
  8
LC-007-002-----0
  6
CONTINUOUS
 62
             7
100
AcDbCircle
 10
755.83018483757041
 20
131.96762109919331
 40
2.0
100
AcDbArc
 50
0.0
 51
79.66010899997801
  0
ARC
  5
341
100
AcDbEntity
  8
LC-007-002-----0
  6
CONTINUOUS
 62
             7
100
AcDbCircle
 10
779.33018483757041
 20
130.07073709919541
 40
1.99999999999993
100
AcDbArc
 50
-73.27314000011234
 51
0.0
  0
ARC
  5
340
100
AcDbEntity
  8
LC-007-002-----0
  6
CONTINUOUS
 62
             7
100
AcDbCircle
 10
760.33018483757041
 20
193.29356596312971
 40
68.01610445435932
100
AcDbArc
 50
-106.7269510588216
 51
-73.27319705881379
  0
ARC
  5
33F
100
AcDbEntity
  8
LC-007-002-----0
  6
CONTINUOUS
 62
             7
100
AcDbCircle
 10
779.33040183756748
 20
130.23447809919571
 40
2.00000000000251
100
AcDbArc
 50
-79.6600879999568
 51
-0.0000370000218
  0
ARC
  5
33E
100
AcDbEntity
  8
LC-007-002-----0
  6
CONTINUOUS
 62
             7
100
AcDbCircle
 10
779.33018483757041
 20
132.1312010991937
 40
2.0
100
AcDbArc
 50
0.0
 51
73.27319899995005
  0
ARC
  5
33D
100
AcDbEntity
  8
LC-007-002-----0
  6
CONTINUOUS
 62
             7
100
AcDbCircle
 10
760.3301848375703
 20
68.90836322775461
 40
68.01611308073903
100
AcDbArc
 50
73.27319924264477
 51
106.72678224265307
  0
ARC
  5
33C
100
AcDbEntity
  8
LC-007-002-----0
  6
CONTINUOUS
 62
             7
100
AcDbCircle
 10
779.33040283756782
 20
131.96778309919361
 40
2.00000000000042
100
AcDbArc
 50
-0.00003700001936
 51
79.65999700012345
  0
ARC
  5
33B
100
AcDbEntity
  8
LC-007-002-----0
  6
CONTINUOUS
 62
             7
100
AcDbCircle
 10
772.08042683756867
 20
169.97136243718751
 40
42.39284706905337
100
AcDbArc
 50
-100.34007627087016
 51
-79.66014327087405
  0
ARC
  5
33A
100
AcDbEntity
  8
LC-007-002-----0
  6
CONTINUOUS
 62
             7
100
AcDbCircle
 10
764.83040183756748
 20
130.2344880991954
 40
2.00000000000042
100
AcDbArc
 50
179.99996299998145
 51
-100.34000499984123
  0
ARC
  5
339
100
AcDbEntity
  8
LC-007-002-----0
  6
CONTINUOUS
 62
             7
100
AcDbCircle
 10
764.83040283756782
 20
131.96779209919299
 40
2.00000000000062
100
AcDbArc
 50
100.33983499990792
 51
179.99996299998065
  0
ARC
  5
338
100
AcDbEntity
  8
LC-007-002-----0
  6
CONTINUOUS
 62
             7
100
AcDbCircle
 10
772.08037783757015
 20
92.23089624878021
 40
42.39285839451948
100
AcDbArc
 50
79.66007352779852
 51
100.33983652780405
  0
ARC
  5
337
100
AcDbEntity
  8
LC-007-002-----0
  6
CONTINUOUS
 62
             7
100
AcDbCircle
 10
741.33018483757041
 20
130.07073709919541
 40
2.0
100
AcDbArc
 50
180.0
 51
-106.72695300016285
  0
ARC
  5
336
100
AcDbEntity
  8
LC-007-002-----0
  6
CONTINUOUS
 62
             7
100
AcDbCircle
 10
741.33018483757041
 20
132.1312010991937
 40
2.00000000000031
100
AcDbArc
 50
106.72678199997618
 51
180.0
  0
ARC
  5
335
100
AcDbEntity
  8
LC-007-002-----0
  6
CONTINUOUS
 62
             7
100
AcDbCircle
 10
741.33018483757041
 20
130.23431709919569
 40
2.0
100
AcDbArc
 50
180.0
 51
-100.34004299999231
  0
ARC
  5
334
100
AcDbEntity
  8
LC-007-002-----0
  6
CONTINUOUS
 62
             7
100
AcDbCircle
 10
748.58018483757064
 20
169.9712027351373
 40
42.39285326473212
100
AcDbArc
 50
-100.33989195282962
 51
-79.6600519528224
  0
ARC
  5
333
100
AcDbEntity
  8
LC-007-002-----0
  6
CONTINUOUS
 62
             7
100
AcDbCircle
 10
741.33018483757041
 20
131.96762109919331
 40
1.99999999999993
100
AcDbArc
 50
100.33987199996517
 51
180.0
  0
ARC
  5
332
100
AcDbEntity
  8
LC-007-002-----0
  6
CONTINUOUS
 62
             7
100
AcDbCircle
 10
748.58018483757053
 20
92.23073153547465
 40
42.39285712872258
100
AcDbArc
 50
79.66010899999434
 51
100.33989100001082
  0
ARC
  5
331
100
AcDbEntity
  8
LC-007-002-----0
  6
CONTINUOUS
 62
             7
100
AcDbCircle
 10
755.83018483757041
 20
130.23431709919569
 40
2.00000000000225
100
AcDbArc
 50
-79.66005100010462
 51
0.0
  0
ARC
  5
330
100
AcDbEntity
  8
LC-007-002-----0
  6
CONTINUOUS
 62
             7
100
AcDbCircle
 10
991.83018483757041
 20
129.60096909919631
 40
1.0
100
AcDbArc
 50
180.0
 51
-89.99994200008796
  0
ARC
  5
32F
100
AcDbEntity
  8
LC-007-002-----0
  6
CONTINUOUS
 62
             7
100
AcDbCircle
 10
994.83018483757041
 20
129.60096909919631
 40
1.00000000000051
100
AcDbArc
 50
-89.99994200008796
 51
0.0
  0
ARC
  5
32E
100
AcDbEntity
  8
LC-007-002-----0
  6
CONTINUOUS
 62
             7
100
AcDbCircle
 10
994.83018483757041
 20
132.60096909919631
 40
1.0
100
AcDbArc
 50
0.0
 51
90.0
  0
ARC
  5
32D
100
AcDbEntity
  8
LC-007-002-----0
  6
CONTINUOUS
 62
             7
100
AcDbCircle
 10
991.83018483757041
 20
132.60096909919631
 40
1.0
100
AcDbArc
 50
90.0
 51
179.99984800014656
  0
ARC
  5
32C
100
AcDbEntity
  8
LC-007-002-----0
  6
CONTINUOUS
 62
             7
100
AcDbCircle
 10
988.83018483757041
 20
131.96762109919331
 40
2.0
100
AcDbArc
 50
0.0
 51
79.66010899997801
  0
ARC
  5
32B
100
AcDbEntity
  8
LC-007-002-----0
  6
CONTINUOUS
 62
             7
100
AcDbCircle
 10
1012.33018483757
 20
130.07073709919541
 40
1.99999999999993
100
AcDbArc
 50
-73.27314000011234
 51
0.0
  0
ARC
  5
32A
100
AcDbEntity
  8
LC-007-002-----0
  6
CONTINUOUS
 62
             7
100
AcDbCircle
 10
993.33018483757041
 20
193.29356596312971
 40
68.01610445435932
100
AcDbArc
 50
-106.7269510588216
 51
-73.27319705881359
  0
ARC
  5
329
100
AcDbEntity
  8
LC-007-002-----0
  6
CONTINUOUS
 62
             7
100
AcDbCircle
 10
1012.330401837568
 20
130.23447809919571
 40
2.00000000000237
100
AcDbArc
 50
-79.66008799997923
 51
-0.0000370000218
  0
ARC
  5
328
100
AcDbEntity
  8
LC-007-002-----0
  6
CONTINUOUS
 62
             7
100
AcDbCircle
 10
1012.33018483757
 20
132.1312010991937
 40
2.0
100
AcDbArc
 50
0.0
 51
73.27319899994694
  0
ARC
  5
327
100
AcDbEntity
  8
LC-007-002-----0
  6
CONTINUOUS
 62
             7
100
AcDbCircle
 10
993.33018483757041
 20
68.90836322775458
 40
68.01611308073913
100
AcDbArc
 50
73.27319924264458
 51
106.72678224265326
  0
ARC
  5
326
100
AcDbEntity
  8
LC-007-002-----0
  6
CONTINUOUS
 62
             7
100
AcDbCircle
 10
1012.330402837568
 20
131.96778309919361
 40
2.00000000000042
100
AcDbArc
 50
-0.00003700001936
 51
79.65999700012665
  0
ARC
  5
325
100
AcDbEntity
  8
LC-007-002-----0
  6
CONTINUOUS
 62
             7
100
AcDbCircle
 10
1005.080426837569
 20
169.97136243718711
 40
42.39284706905369
100
AcDbArc
 50
-100.34007627087554
 51
-79.66014327087454
  0
ARC
  5
324
100
AcDbEntity
  8
LC-007-002-----0
  6
CONTINUOUS
 62
             7
100
AcDbCircle
 10
997.83040183756748
 20
130.2344880991954
 40
2.00000000000042
100
AcDbArc
 50
179.99996299998145
 51
-100.34000499984123
  0
ARC
  5
323
100
AcDbEntity
  8
LC-007-002-----0
  6
CONTINUOUS
 62
             7
100
AcDbCircle
 10
997.83040283756782
 20
131.96779209919299
 40
2.00000000000062
100
AcDbArc
 50
100.33983499990792
 51
179.99996299998065
  0
ARC
  5
322
100
AcDbEntity
  8
LC-007-002-----0
  6
CONTINUOUS
 62
             7
100
AcDbCircle
 10
1005.08037783757
 20
92.23089624878017
 40
42.39285839451948
100
AcDbArc
 50
79.66007352779883
 51
100.33983652780388
  0
ARC
  5
321
100
AcDbEntity
  8
LC-007-002-----0
  6
CONTINUOUS
 62
             7
100
AcDbCircle
 10
974.33018483757041
 20
130.07073709919541
 40
2.0
100
AcDbArc
 50
180.0
 51
-106.72695300016285
  0
ARC
  5
320
100
AcDbEntity
  8
LC-007-002-----0
  6
CONTINUOUS
 62
             7
100
AcDbCircle
 10
974.33018483757041
 20
132.1312010991937
 40
2.00000000000031
100
AcDbArc
 50
106.72678199997618
 51
180.0
  0
ARC
  5
31F
100
AcDbEntity
  8
LC-007-002-----0
  6
CONTINUOUS
 62
             7
100
AcDbCircle
 10
974.33018483757041
 20
130.23431709919569
 40
2.0
100
AcDbArc
 50
180.0
 51
-100.34004299999231
  0
ARC
  5
31E
100
AcDbEntity
  8
LC-007-002-----0
  6
CONTINUOUS
 62
             7
100
AcDbCircle
 10
981.58018483757064
 20
169.9712027351373
 40
42.39285326473212
100
AcDbArc
 50
-100.33989195282962
 51
-79.6600519528224
  0
ARC
  5
31D
100
AcDbEntity
  8
LC-007-002-----0
  6
CONTINUOUS
 62
             7
100
AcDbCircle
 10
974.33018483757041
 20
131.96762109919331
 40
1.99999999999993
100
AcDbArc
 50
100.33987199996517
 51
180.0
  0
ARC
  5
31C
100
AcDbEntity
  8
LC-007-002-----0
  6
CONTINUOUS
 62
             7
100
AcDbCircle
 10
981.58018483757041
 20
92.23073153547465
 40
42.3928571287226
100
AcDbArc
 50
79.66010899999418
 51
100.33989100001067
  0
ARC
  5
31B
100
AcDbEntity
  8
LC-007-002-----0
  6
CONTINUOUS
 62
             7
100
AcDbCircle
 10
988.83018483757041
 20
130.23431709919569
 40
2.00000000000225
100
AcDbArc
 50
-79.66005100010462
 51
0.0
  0
ARC
  5
31A
100
AcDbEntity
  8
LC-007-002-----0
  6
CONTINUOUS
 62
             7
100
AcDbCircle
 10
876.83018483757041
 20
-12.79733490080578
 40
97.8016930000003
100
AcDbArc
 50
-101.85062299999871
 51
-78.14937700000338
  0
ARC
  5
319
100
AcDbEntity
  8
LC-012-002-RND-0
  6
CONTINUOUS
 62
             7
100
AcDbCircle
 10
750.83018483757041
 20
83.90119209919469
 40
0.5
100
AcDbArc
 50
180.0
 51
-90.0
  0
ARC
  5
318
100
AcDbEntity
  8
LC-012-002-RND-0
  6
CONTINUOUS
 62
             7
100
AcDbCircle
 10
1002.83018483757
 20
83.90119209919469
 40
0.5
100
AcDbArc
 50
-90.0
 51
0.0
  0
ARC
  5
317
100
AcDbEntity
  8
LC-007-002-----0
  6
CONTINUOUS
 62
             7
100
AcDbCircle
 10
963.58018483757041
 20
-96.55327690080556
 40
12.00000000000004
100
AcDbArc
 50
-90.0
 51
-1.91359899999028
  0
ARC
  5
316
100
AcDbEntity
  8
LC-007-002-----0
  6
CONTINUOUS
 62
             7
100
AcDbCircle
 10
763.33018483757041
 20
70.94672309919444
 40
10.50000000000177
100
AcDbArc
 50
93.16508499999115
 51
-165.00000000000239
  0
ARC
  5
315
100
AcDbEntity
  8
LC-007-002-----0
  6
CONTINUOUS
 62
             7
100
AcDbCircle
 10
790.08018483757041
 20
-96.55327690080556
 40
11.99870600000141
100
AcDbArc
 50
-178.08640099999459
 51
-90.0
  0
ARC
  5
314
100
AcDbEntity
  8
LC-007-002-----0
  6
CONTINUOUS
 62
             7
100
AcDbCircle
 10
990.33018483757041
 20
70.94672309919444
 40
10.50000000000542
100
AcDbArc
 50
-14.99999999999681
 51
86.83491500000885
  0
ARC
  5
313
100
AcDbEntity
  8
LC-007-002-----0
  6
CONTINUOUS
 62
             7
100
AcDbCircle
 10
876.83018483757041
 20
-13.312925000002
 40
73.00000000000071
100
AcDbArc
 50
124.57916539591515
 51
172.65361700000113
  0
ARC
  5
312
100
AcDbEntity
  8
LC-007-002-----0
  6
CONTINUOUS
 62
             7
100
AcDbCircle
 10
876.83018483757041
 20
-13.312925000002
 40
72.9999999999976
100
AcDbArc
 50
7.34638300000209
 51
55.11886735901896
  0
ARC
  5
311
100
AcDbEntity
  8
LC-007-002-----0
  6
CONTINUOUS
 62
             7
100
AcDbCircle
 10
876.83018483757041
 20
-20.15203300000212
 40
76.09999999999872
100
AcDbArc
 50
29.27344300000254
 51
60.48292117417961
  0
ARC
  5
310
100
AcDbEntity
  8
LC-007-002-----0
  6
CONTINUOUS
 62
             7
100
AcDbCircle
 10
779.33018483757041
 20
120.1207770991936
 40
1.99999999999637
100
AcDbArc
 50
-73.27314000008175
 51
0.0
  0
ARC
  5
30F
100
AcDbEntity
  8
LC-007-002-----0
  6
CONTINUOUS
 62
             7
100
AcDbCircle
 10
760.08018483757155
 20
185.04952334061929
 40
69.58172061684878
100
AcDbArc
 50
-106.12550265316068
 51
-97.63935565315892
  0
ARC
  5
30E
100
AcDbEntity
  8
LC-007-002-----0
  6
CONTINUOUS
 62
             7
100
AcDbCircle
 10
760.33018483757041
 20
181.67985509919569
 40
66.27884600000294
100
AcDbArc
 50
-81.75901200000013
 51
-79.50514299999981
  0
ARC
  5
30D
100
AcDbEntity
  8
LC-007-002-----0
  6
CONTINUOUS
 62
             7
100
AcDbCircle
 10
760.83018483757041
 20
181.67985509919569
 40
66.2788460000005
100
AcDbArc
 50
-74.37296300000089
 51
-73.27319899999594
  0
ARC
  5
30C
100
AcDbEntity
  8
LC-007-002-----0
  6
CONTINUOUS
 62
             7
100
AcDbCircle
 10
779.33040183756748
 20
120.2845180991939
 40
1.99999999999885
100
AcDbArc
 50
-79.66008799993765
 51
-0.00003700001895
  0
ARC
  5
30B
100
AcDbEntity
  8
LC-007-002-----0
  6
CONTINUOUS
 62
             7
100
AcDbCircle
 10
779.33018483757041
 20
122.18124009919519
 40
2.0
100
AcDbArc
 50
0.0
 51
73.27319899995005
  0
ARC
  5
30A
100
AcDbEntity
  8
LC-007-002-----0
  6
CONTINUOUS
 62
             7
100
AcDbCircle
 10
760.58018483756962
 20
57.04242461482731
 40
69.78355120017471
100
AcDbArc
 50
73.92254595822936
 51
81.91236395823364
  0
ARC
  5
309
100
AcDbEntity
  8
LC-007-002-----0
  6
CONTINUOUS
 62
             7
100
AcDbCircle
 10
760.0801848375711
 20
57.04242056938701
 40
69.78355533647532
100
AcDbArc
 50
98.0876260773079
 51
106.07743507731116
  0
ARC
  5
308
100
AcDbEntity
  8
LC-007-002-----0
  6
CONTINUOUS
 62
             7
100
AcDbCircle
 10
779.33040283756782
 20
122.0178220991951
 40
2.00000000000042
100
AcDbArc
 50
-0.00003700001854
 51
79.65999700010497
  0
ARC
  5
307
100
AcDbEntity
  8
LC-007-002-----0
  6
CONTINUOUS
 62
             7
100
AcDbCircle
 10
771.83042683756867
 20
158.65117509919619
 40
41.00000000000042
100
AcDbArc
 50
-92.79607199999354
 51
-86.25612800000563
  0
ARC
  5
306
100
AcDbEntity
  8
LC-007-002-----0
  6
CONTINUOUS
 62
             7
100
AcDbCircle
 10
772.33042683756867
 20
158.65117509919619
 40
41.00000000000158
100
AcDbArc
 50
-84.3413390000017
 51
-79.66014699999796
  0
ARC
  5
305
100
AcDbEntity
  8
LC-007-002-----0
  6
CONTINUOUS
 62
             7
100
AcDbCircle
 10
772.08037783756947
 20
81.47985515392428
 40
43.18116947989761
100
AcDbArc
 50
79.85085685942168
 51
92.98678185942647
  0
ARC
  5
304
100
AcDbEntity
  8
LC-007-002-----0
  6
CONTINUOUS
 62
             7
100
AcDbCircle
 10
741.33018483757041
 20
120.1207770991936
 40
2.0
100
AcDbArc
 50
180.0
 51
-106.72695300016285
  0
ARC
  5
303
100
AcDbEntity
  8
LC-007-002-----0
  6
CONTINUOUS
 62
             7
100
AcDbCircle
 10
741.33018483757041
 20
122.18124009919519
 40
2.00000000000033
100
AcDbArc
 50
106.72678199997596
 51
180.0
  0
ARC
  5
302
100
AcDbEntity
  8
LC-007-002-----0
  6
CONTINUOUS
 62
             7
100
AcDbCircle
 10
741.33018483757041
 20
120.2843560991936
 40
2.0
100
AcDbArc
 50
180.0
 51
-100.34004299999231
  0
ARC
  5
301
100
AcDbEntity
  8
LC-007-002-----0
  6
CONTINUOUS
 62
             7
100
AcDbCircle
 10
748.58018483757019
 20
160.82233037849349
 40
43.18117088121252
100
AcDbArc
 50
-100.14910769781764
 51
-87.013190697811
  0
ARC
  5
300
100
AcDbEntity
  8
LC-007-002-----0
  6
CONTINUOUS
 62
             7
100
AcDbCircle
 10
741.33018483757041
 20
122.01766109919519
 40
1.99999999999996
100
AcDbArc
 50
100.33987199996501
 51
180.0
  0
ARC
  5
2FF
100
AcDbEntity
  8
LC-007-002-----0
  6
CONTINUOUS
 62
             7
100
AcDbCircle
 10
748.5801848375703
 20
81.47968781989573
 40
43.18117088121286
100
AcDbArc
 50
87.01319069781115
 51
100.1491076978178
  0
ARC
  5
2FE
100
AcDbEntity
  8
LC-007-002-----0
  6
CONTINUOUS
 62
             7
100
AcDbCircle
 10
1012.33018483757
 20
120.1207770991936
 40
1.99999999999637
100
AcDbArc
 50
-73.27314000008175
 51
0.0
  0
ARC
  5
2FD
100
AcDbEntity
  8
LC-007-002-----0
  6
CONTINUOUS
 62
             7
100
AcDbCircle
 10
992.83018483757041
 20
181.67985509919569
 40
66.27884600000374
100
AcDbArc
 50
-106.72695300000274
 51
-105.62703700000215
  0
ARC
  5
2FC
100
AcDbEntity
  8
LC-007-002-----0
  6
CONTINUOUS
 62
             7
100
AcDbCircle
 10
993.33018483757041
 20
181.67985509919569
 40
66.2788460000006
100
AcDbArc
 50
-100.51249799999866
 51
-98.24080600000099
  0
ARC
  5
2FB
100
AcDbEntity
  8
LC-007-002-----0
  6
CONTINUOUS
 62
             7
100
AcDbCircle
 10
993.5801848375711
 20
185.0496564562734
 40
69.5818503409584
100
AcDbArc
 50
-82.36048556725336
 51
-73.87467256724889
  0
ARC
  5
2FA
100
AcDbEntity
  8
LC-007-002-----0
  6
CONTINUOUS
 62
             7
100
AcDbCircle
 10
1012.330401837568
 20
120.2845180991939
 40
1.9999999999987
100
AcDbArc
 50
-79.66008799996007
 51
-0.00003700001895
  0
ARC
  5
2F9
100
AcDbEntity
  8
LC-007-002-----0
  6
CONTINUOUS
 62
             7
100
AcDbCircle
 10
1012.33018483757
 20
122.18124009919519
 40
2.0
100
AcDbArc
 50
0.0
 51
73.27319899994694
  0
ARC
  5
2F8
100
AcDbEntity
  8
LC-007-002-----0
  6
CONTINUOUS
 62
             7
100
AcDbCircle
 10
993.58018483756973
 20
57.04242461482727
 40
69.78355120017481
100
AcDbArc
 50
73.92254595822921
 51
81.91236395823337
  0
ARC
  5
2F7
100
AcDbEntity
  8
LC-007-002-----0
  6
CONTINUOUS
 62
             7
100
AcDbCircle
 10
993.0801848375711
 20
57.04242056938701
 40
69.78355533647532
100
AcDbArc
 50
98.0876260773079
 51
106.07743507731099
  0
ARC
  5
2F6
100
AcDbEntity
  8
LC-007-002-----0
  6
CONTINUOUS
 62
             7
100
AcDbCircle
 10
1012.330402837568
 20
122.0178220991951
 40
2.00000000000042
100
AcDbArc
 50
-0.00003700001854
 51
79.65999700010818
  0
ARC
  5
2F5
100
AcDbEntity
  8
LC-007-002-----0
  6
CONTINUOUS
 62
             7
100
AcDbCircle
 10
1005.080426837569
 20
160.8224950444687
 40
43.1811696586043
100
AcDbArc
 50
-92.98685307062721
 51
-79.85092807062621
  0
ARC
  5
2F4
100
AcDbEntity
  8
LC-007-002-----0
  6
CONTINUOUS
 62
             7
100
AcDbCircle
 10
1005.080377837569
 20
81.47985515392419
 40
43.18116947989771
100
AcDbArc
 50
79.85085685942156
 51
92.98678185942571
  0
ARC
  5
2F3
100
AcDbEntity
  8
LC-007-002-----0
  6
CONTINUOUS
 62
             7
100
AcDbCircle
 10
974.33018483757041
 20
120.1207770991936
 40
2.0
100
AcDbArc
 50
180.0
 51
-106.72695300016285
  0
ARC
  5
2F2
100
AcDbEntity
  8
LC-007-002-----0
  6
CONTINUOUS
 62
             7
100
AcDbCircle
 10
974.33018483757041
 20
122.18124009919519
 40
2.00000000000033
100
AcDbArc
 50
106.72678199997596
 51
180.0
  0
ARC
  5
2F1
100
AcDbEntity
  8
LC-007-002-----0
  6
CONTINUOUS
 62
             7
100
AcDbCircle
 10
974.33018483757041
 20
120.2843560991936
 40
2.0
100
AcDbArc
 50
180.0
 51
-100.34004299999231
  0
ARC
  5
2F0
100
AcDbEntity
  8
LC-007-002-----0
  6
CONTINUOUS
 62
             7
100
AcDbCircle
 10
981.58018483757144
 20
164.77042194281819
 40
47.07262591867473
100
AcDbArc
 50
-99.30229191297286
 51
-94.62341691296118
  0
ARC
  5
2EF
100
AcDbEntity
  8
LC-007-002-----0
  6
CONTINUOUS
 62
             7
100
AcDbCircle
 10
981.83018483757041
 20
158.6510090991946
 40
41.00000000000048
100
AcDbArc
 50
-93.7795269999946
 51
-87.2039740000041
  0
ARC
  5
2EE
100
AcDbEntity
  8
LC-007-002-----0
  6
CONTINUOUS
 62
             7
100
AcDbCircle
 10
974.33018483757041
 20
122.01766109919519
 40
1.99999999999996
100
AcDbArc
 50
100.33987199996501
 51
180.0
  0
ARC
  5
2ED
100
AcDbEntity
  8
LC-007-002-----0
  6
CONTINUOUS
 62
             7
100
AcDbCircle
 10
981.58018483757041
 20
81.47968781989573
 40
43.18117088121286
100
AcDbArc
 50
87.0131906978113
 51
100.14910769781794
  0
ARC
  5
2EC
100
AcDbEntity
  8
LC-007-002-----0
  6
CONTINUOUS
 62
             7
100
AcDbCircle
 10
876.83018483757041
 20
-20.15203300000212
 40
76.10000000000183
100
AcDbArc
 50
119.2243672127973
 51
150.72655699999882
  0
LINE
  5
2EB
100
AcDbEntity
  8
1
  6
PHANTOM
 62
             2
100
AcDbLine
 10
760.33027937911174
 20
88.22425509506904
 11
760.33029627419091
 21
139.4758442450115
  0
LINE
  5
2EA
100
AcDbEntity
  8
1
  6
PHANTOM
 62
             2
100
AcDbLine
 10
993.33027937908628
 20
88.22417828665168
 11
993.33029685180372
 21
141.22804116876841
  0
LINE
  5
2E9
100
AcDbEntity
  8
1
  6
PHANTOM
 62
             2
100
AcDbLine
 10
876.83018483757041
 20
266.12732418330779
 11
876.83018483757041
 21
-107.581862300005
  0
LINE
  5
2E8
100
AcDbEntity
  8
1
  6
PHANTOM
 62
             2
100
AcDbLine
 10
984.41204713757179
 20
0.0
 11
769.2483225375654
 21
0.0
  0
LINE
  5
2E7
100
AcDbEntity
  8
1
  6
PHANTOM
 62
             2
100
AcDbLine
 10
790.08018483757041
 20
-89.4032769008041
 11
790.08018483757041
 21
-103.7032769008034
  0
LINE
  5
2E6
100
AcDbEntity
  8
1
  6
PHANTOM
 62
             2
100
AcDbLine
 10
797.23018483756823
 20
-96.55327690080556
 11
782.93018483756896
 21
-96.55327690080556
  0
LINE
  5
2E5
100
AcDbEntity
  8
1
  6
PHANTOM
 62
             2
100
AcDbLine
 10
763.33018483757041
 20
78.0967230991959
 11
763.33018483757041
 21
63.79672309919299
  0
LINE
  5
2E4
100
AcDbEntity
  8
1
  6
PHANTOM
 62
             2
100
AcDbLine
 10
770.48018483756823
 20
70.94672309919444
 11
756.18018483756896
 21
70.94672309919444
  0
LINE
  5
2E3
100
AcDbEntity
  8
1
  6
PHANTOM
 62
             2
100
AcDbLine
 10
990.33018483757041
 20
78.0967230991959
 11
990.33018483757041
 21
63.79672309919299
  0
LINE
  5
2E2
100
AcDbEntity
  8
1
  6
PHANTOM
 62
             2
100
AcDbLine
 10
997.48018483756823
 20
70.94672309919444
 11
983.18018483756896
 21
70.94672309919444
  0
LINE
  5
2E1
100
AcDbEntity
  8
1
  6
PHANTOM
 62
             2
100
AcDbLine
 10
963.58018483757041
 20
-89.4032769008041
 11
963.58018483757041
 21
-103.7032769008034
  0
LINE
  5
2E0
100
AcDbEntity
  8
1
  6
PHANTOM
 62
             2
100
AcDbLine
 10
970.73018483756823
 20
-96.55327690080556
 11
956.43018483756896
 21
-96.55327690080556
  0
LINE
  5
2DF
100
AcDbEntity
  8
LC-007-002-----0
  6
CONTINUOUS
 62
             7
100
AcDbLine
 10
750.33018483757041
 20
101.35096909919631
 11
750.33018483757041
 21
109.35096909919631
  0
LINE
  5
2DE
100
AcDbEntity
  8
LC-007-002-----0
  6
CONTINUOUS
 62
             7
100
AcDbLine
 10
772.7576048375704
 20
101.35096909919631
 11
750.33018483757041
 21
101.35096909919631
  0
LINE
  5
2DD
100
AcDbEntity
  8
LC-007-002-----0
  6
CONTINUOUS
 62
             7
100
AcDbLine
 10
771.4085578375707
 20
109.35096909919631
 11
769.83038783757002
 21
109.35096909919631
  0
LINE
  5
2DC
100
AcDbEntity
  8
LC-007-002-----0
  6
CONTINUOUS
 62
             7
100
AcDbLine
 10
750.83018483757041
 20
109.35096909919631
 11
750.33018483757041
 21
109.35096909919631
  0
LINE
  5
2DB
100
AcDbEntity
  8
LC-007-002-----0
  6
CONTINUOUS
 62
             7
100
AcDbLine
 10
862.83018483757041
 20
247.85063909919381
 11
862.83018483757041
 21
257.35063909919381
  0
LINE
  5
2DA
100
AcDbEntity
  8
LC-007-002-----0
  6
CONTINUOUS
 62
             7
100
AcDbLine
 10
865.83018483757041
 20
260.35063909919381
 11
887.83018483757041
 21
260.35063909919381
  0
LINE
  5
2D9
100
AcDbEntity
  8
LC-007-002-----0
  6
CONTINUOUS
 62
             7
100
AcDbLine
 10
890.83018483757041
 20
247.85063909919381
 11
890.83018483757041
 21
257.35063909919381
  0
LINE
  5
2D8
100
AcDbEntity
  8
LC-007-002-----0
  6
CONTINUOUS
 62
             7
100
AcDbLine
 10
982.23435083756704
 20
109.35096909919631
 11
983.83018483757041
 21
109.35096909919631
  0
LINE
  5
2D7
100
AcDbEntity
  8
LC-007-002-----0
  6
CONTINUOUS
 62
             7
100
AcDbLine
 10
1002.83038783757
 20
109.35096909919631
 11
1003.33018483757
 21
109.35096909919631
  0
LINE
  5
2D6
100
AcDbEntity
  8
LC-007-002-----0
  6
CONTINUOUS
 62
             7
100
AcDbLine
 10
876.83018483757041
 20
247.85063909919381
 11
943.87367483757043
 21
247.85063909919381
  0
LINE
  5
2D5
100
AcDbEntity
  8
LC-007-002-----0
  6
CONTINUOUS
 62
             7
100
AcDbLine
 10
980.90276483757043
 20
101.35096909919631
 11
1003.33018483757
 21
101.35096909919631
  0
LINE
  5
2D4
100
AcDbEntity
  8
LC-007-002-----0
  6
CONTINUOUS
 62
             7
100
AcDbLine
 10
809.78669383757006
 20
247.85063909919381
 11
876.83018483757041
 21
247.85063909919381
  0
LINE
  5
2D3
100
AcDbEntity
  8
LC-007-002-----0
  6
CONTINUOUS
 62
             7
100
AcDbLine
 10
982.51371683756952
 20
101.35096909919631
 11
982.0554808375673
 21
114.47311709919489
  0
LINE
  5
2D2
100
AcDbEntity
  8
LC-007-002-----0
  6
CONTINUOUS
 62
             7
100
AcDbLine
 10
1003.33018483757
 20
101.35096909919631
 11
1003.33018483757
 21
109.35096909919631
  0
LINE
  5
2D1
100
AcDbEntity
  8
LC-007-002-----0
  6
CONTINUOUS
 62
             7
100
AcDbLine
 10
789.82870083757007
 20
130.8059050991946
 11
876.83018483757041
 21
130.8059050991946
  0
LINE
  5
2D0
100
AcDbEntity
  8
LC-007-002-----0
  6
CONTINUOUS
 62
             7
100
AcDbLine
 10
802.83018483757041
 20
130.8059050991946
 11
804.78745583756972
 21
242.9379010991947
  0
LINE
  5
2CF
100
AcDbEntity
  8
LC-007-002-----0
  6
CONTINUOUS
 62
             7
100
AcDbLine
 10
788.82870083757007
 20
122.85096909919631
 11
788.82870083757007
 21
129.8059050991946
  0
LINE
  5
2CE
100
AcDbEntity
  8
LC-007-002-----0
  6
CONTINUOUS
 62
             7
100
AcDbLine
 10
963.83166883756712
 20
130.8059050991946
 11
876.83018483757041
 21
130.8059050991946
  0
LINE
  5
2CD
100
AcDbEntity
  8
LC-007-002-----0
  6
CONTINUOUS
 62
             7
100
AcDbLine
 10
964.83166883756712
 20
122.85096909919631
 11
964.83166883756712
 21
129.8059050991946
  0
LINE
  5
2CC
100
AcDbEntity
  8
LC-007-002-----0
  6
CONTINUOUS
 62
             7
100
AcDbLine
 10
950.83018483757041
 20
130.8059050991946
 11
948.87291383756747
 21
242.9379010991947
  0
LINE
  5
2CB
100
AcDbEntity
  8
LC-007-002-----0
  6
CONTINUOUS
 62
             7
100
AcDbLine
 10
968.40638883756765
 20
117.85096909919631
 11
968.40638883756765
 21
120.85096909919631
  0
LINE
  5
2CA
100
AcDbEntity
  8
LC-007-002-----0
  6
CONTINUOUS
 62
             7
100
AcDbLine
 10
965.18448483756947
 20
117.85096909919631
 11
775.08529583756899
 21
117.85096909919631
  0
LINE
  5
2C9
100
AcDbEntity
  8
LC-007-002-----0
  6
CONTINUOUS
 62
             7
100
AcDbLine
 10
966.40638883756765
 20
122.85096909919631
 11
787.2539798375692
 21
122.85096909919631
  0
LINE
  5
2C8
100
AcDbEntity
  8
LC-007-002-----0
  6
CONTINUOUS
 62
             7
100
AcDbLine
 10
982.51371683756952
 20
101.35096909919631
 11
771.14665283756767
 21
101.35096909919631
  0
LINE
  5
2C7
100
AcDbEntity
  8
LC-007-002-----0
  6
CONTINUOUS
 62
             7
100
AcDbLine
 10
965.18448483756947
 20
117.85096909919631
 11
978.55761383756908
 21
117.85096909919631
  0
LINE
  5
2C6
100
AcDbEntity
  8
LC-007-002-----0
  6
CONTINUOUS
 62
             7
100
AcDbLine
 10
785.2539798375692
 20
117.85096909919631
 11
785.2539798375692
 21
120.85096909919631
  0
LINE
  5
2C5
100
AcDbEntity
  8
LC-007-002-----0
  6
CONTINUOUS
 62
             7
100
AcDbLine
 10
786.41784483756783
 20
-90.05327690080556
 11
793.74252383756902
 21
-90.05327690080556
  0
LINE
  5
2C4
100
AcDbEntity
  8
LC-007-002-----0
  6
CONTINUOUS
 62
             7
100
AcDbLine
 10
782.61984983757065
 20
-96.47495590080469
 11
786.28218883756927
 21
-90.13159790080643
  0
LINE
  5
2C3
100
AcDbEntity
  8
LC-007-002-----0
  6
CONTINUOUS
 62
             7
100
AcDbLine
 10
786.28218883756927
 20
-102.9749559008047
 11
782.61984983757065
 21
-96.63159790080643
  0
LINE
  5
2C2
100
AcDbEntity
  8
LC-007-002-----0
  6
CONTINUOUS
 62
             7
100
AcDbLine
 10
793.74252383756902
 20
-103.0532769008056
 11
786.41784483756783
 21
-103.0532769008056
  0
LINE
  5
2C1
100
AcDbEntity
  8
LC-007-002-----0
  6
CONTINUOUS
 62
             7
100
AcDbLine
 10
797.54051983757017
 20
-96.63159790080643
 11
793.87817983756759
 21
-102.9749559008047
  0
LINE
  5
2C0
100
AcDbEntity
  8
LC-007-002-----0
  6
CONTINUOUS
 62
             7
100
AcDbLine
 10
793.87817983756759
 20
-90.13159790080643
 11
797.54051983757017
 21
-96.47495590080469
  0
LINE
  5
2BF
100
AcDbEntity
  8
LC-007-002-----0
  6
CONTINUOUS
 62
             7
100
AcDbLine
 10
771.12919183756821
 20
101.35096909919631
 11
771.58742783757043
 21
114.47311709919489
  0
LINE
  5
2BE
100
AcDbEntity
  8
LC-007-002-----0
  6
CONTINUOUS
 62
             7
100
AcDbLine
 10
759.66784483756783
 20
77.44672309919444
 11
766.99252383756902
 21
77.44672309919444
  0
LINE
  5
2BD
100
AcDbEntity
  8
LC-007-002-----0
  6
CONTINUOUS
 62
             7
100
AcDbLine
 10
755.86984983757065
 20
71.02504409919531
 11
759.53218883756927
 21
77.36840209919357
  0
LINE
  5
2BC
100
AcDbEntity
  8
LC-007-002-----0
  6
CONTINUOUS
 62
             7
100
AcDbLine
 10
759.53218883756927
 20
64.52504409919531
 11
755.86984983757065
 21
70.86840209919357
  0
LINE
  5
2BB
100
AcDbEntity
  8
LC-007-002-----0
  6
CONTINUOUS
 62
             7
100
AcDbLine
 10
766.99252383756902
 20
64.44672309919444
 11
759.66784483756783
 21
64.44672309919444
  0
LINE
  5
2BA
100
AcDbEntity
  8
LC-007-002-----0
  6
CONTINUOUS
 62
             7
100
AcDbLine
 10
770.79051983757017
 20
70.86840209919357
 11
767.12817983756759
 21
64.52504409919531
  0
LINE
  5
2B9
100
AcDbEntity
  8
LC-007-002-----0
  6
CONTINUOUS
 62
             7
100
AcDbLine
 10
767.12817983756759
 20
77.36840209919357
 11
770.79051983757017
 21
71.02504409919531
  0
LINE
  5
2B8
100
AcDbEntity
  8
LC-007-002-----0
  6
CONTINUOUS
 62
             7
100
AcDbLine
 10
986.66784483756783
 20
77.44672309919444
 11
993.99252383756902
 21
77.44672309919444
  0
LINE
  5
2B7
100
AcDbEntity
  8
LC-007-002-----0
  6
CONTINUOUS
 62
             7
100
AcDbLine
 10
982.86984983757065
 20
71.02504409919531
 11
986.53218883756927
 21
77.36840209919357
  0
LINE
  5
2B6
100
AcDbEntity
  8
LC-007-002-----0
  6
CONTINUOUS
 62
             7
100
AcDbLine
 10
986.53218883756927
 20
64.52504409919531
 11
982.86984983757065
 21
70.86840209919357
  0
LINE
  5
2B5
100
AcDbEntity
  8
LC-007-002-----0
  6
CONTINUOUS
 62
             7
100
AcDbLine
 10
993.99252383756902
 20
64.44672309919444
 11
986.66784483756783
 21
64.44672309919444
  0
LINE
  5
2B4
100
AcDbEntity
  8
LC-007-002-----0
  6
CONTINUOUS
 62
             7
100
AcDbLine
 10
997.79051983757017
 20
70.86840209919357
 11
994.12817983756759
 21
64.52504409919531
  0
LINE
  5
2B3
100
AcDbEntity
  8
LC-007-002-----0
  6
CONTINUOUS
 62
             7
100
AcDbLine
 10
994.12817983756759
 20
77.36840209919357
 11
997.79051983757017
 21
71.02504409919531
  0
LINE
  5
2B2
100
AcDbEntity
  8
LC-007-002-----0
  6
CONTINUOUS
 62
             7
100
AcDbLine
 10
959.91784483756783
 20
-90.05327690080556
 11
967.24252383756902
 21
-90.05327690080556
  0
LINE
  5
2B1
100
AcDbEntity
  8
LC-007-002-----0
  6
CONTINUOUS
 62
             7
100
AcDbLine
 10
956.11984983757065
 20
-96.47495590080469
 11
959.78218883756927
 21
-90.13159790080643
  0
LINE
  5
2B0
100
AcDbEntity
  8
LC-007-002-----0
  6
CONTINUOUS
 62
             7
100
AcDbLine
 10
959.78218883756927
 20
-102.9749559008047
 11
956.11984983757065
 21
-96.63159790080643
  0
LINE
  5
2AF
100
AcDbEntity
  8
LC-007-002-----0
  6
CONTINUOUS
 62
             7
100
AcDbLine
 10
967.24252383756902
 20
-103.0532769008056
 11
959.91784483756783
 21
-103.0532769008056
  0
LINE
  5
2AE
100
AcDbEntity
  8
LC-007-002-----0
  6
CONTINUOUS
 62
             7
100
AcDbLine
 10
971.04051983757017
 20
-96.63159790080643
 11
967.37817983756759
 21
-102.9749559008047
  0
LINE
  5
2AD
100
AcDbEntity
  8
LC-007-002-----0
  6
CONTINUOUS
 62
             7
100
AcDbLine
 10
967.37817983756759
 20
-90.13159790080643
 11
971.04051983757017
 21
-96.47495590080469
  0
LINE
  5
2AC
100
AcDbEntity
  8
LC-007-002-----0
  6
CONTINUOUS
 62
             7
100
AcDbLine
 10
775.33018483757041
 20
101.35096909919631
 11
776.76793883756909
 21
60.17908709919395
  0
LINE
  5
2AB
100
AcDbEntity
  8
LC-007-002-----0
  6
CONTINUOUS
 62
             7
100
AcDbLine
 10
978.33018483757041
 20
101.35096909919631
 11
977.01536883756853
 21
63.69958209919462
  0
LINE
  5
2AA
100
AcDbEntity
  8
LC-007-002-----0
  6
CONTINUOUS
 62
             7
100
AcDbLine
 10
750.33018483757041
 20
93.85096909919632
 11
750.33018483757041
 21
101.35096909919631
  0
LINE
  5
2A9
100
AcDbEntity
  8
LC-007-002-----0
  6
CONTINUOUS
 62
             7
100
AcDbLine
 10
775.60955083756926
 20
93.35096909919632
 11
750.83018483757041
 21
93.35096909919632
  0
LINE
  5
2A8
100
AcDbEntity
  8
LC-007-002-----0
  6
CONTINUOUS
 62
             7
100
AcDbLine
 10
776.50617583757048
 20
67.67497709919591
 11
767.55906283756849
 21
76.62209009919427
  0
LINE
  5
2A7
100
AcDbEntity
  8
LC-007-002-----0
  6
CONTINUOUS
 62
             7
100
AcDbLine
 10
766.73443083756865
 20
77.44672309919444
 11
750.83018483757041
 21
93.35096909919632
  0
LINE
  5
2A6
100
AcDbEntity
  8
LC-007-002-----0
  6
CONTINUOUS
 62
             7
100
AcDbLine
 10
776.76793883756909
 20
60.17908709919395
 11
779.08620183757012
 21
-6.2072999008047
  0
LINE
  5
2A5
100
AcDbEntity
  8
LC-007-002-----0
  6
CONTINUOUS
 62
             7
100
AcDbLine
 10
977.01536883756853
 20
63.69958209919462
 11
974.57416683757037
 21
-6.2072999008047
  0
LINE
  5
2A4
100
AcDbEntity
  8
LC-007-002-----0
  6
CONTINUOUS
 62
             7
100
AcDbLine
 10
977.15419283757001
 20
67.67497709919591
 11
986.10130583756836
 21
76.62209009919427
  0
LINE
  5
2A3
100
AcDbEntity
  8
LC-007-002-----0
  6
CONTINUOUS
 62
             7
100
AcDbLine
 10
986.92593883756854
 20
77.44672309919444
 11
1002.83018483757
 21
93.35096909919632
  0
LINE
  5
2A2
100
AcDbEntity
  8
LC-007-002-----0
  6
CONTINUOUS
 62
             7
100
AcDbLine
 10
978.05081883756793
 20
93.35096909919632
 11
1002.83018483757
 21
93.35096909919632
  0
LINE
  5
2A1
100
AcDbEntity
  8
LC-007-002-----0
  6
CONTINUOUS
 62
             7
100
AcDbLine
 10
876.83018483757041
 20
101.35096909919631
 11
1003.33018483757
 21
101.35096909919631
  0
LINE
  5
2A0
100
AcDbEntity
  8
LC-007-002-----0
  6
CONTINUOUS
 62
             7
100
AcDbLine
 10
1003.33018483757
 20
93.85096909919632
 11
1003.33018483757
 21
101.35096909919631
  0
LINE
  5
29F
100
AcDbEntity
  8
LC-007-002-----0
  6
CONTINUOUS
 62
             7
100
AcDbLine
 10
753.18796383756853
 20
68.2291230991945
 11
775.33018483757041
 21
-14.4067709008046
  0
LINE
  5
29E
100
AcDbEntity
  8
LC-007-002-----0
  6
CONTINUOUS
 62
             7
100
AcDbLine
 10
1000.472405837569
 20
68.2291230991945
 11
978.33018483757041
 21
-14.4067709008046
  0
LINE
  5
29D
100
AcDbEntity
  8
LC-007-002-----0
  6
CONTINUOUS
 62
             7
100
AcDbLine
 10
975.57349283756776
 20
-96.91522290080646
 11
978.33018483757041
 21
-14.4067709008046
  0
LINE
  5
29C
100
AcDbEntity
  8
LC-007-002-----0
  6
CONTINUOUS
 62
             7
100
AcDbLine
 10
876.83018483757041
 20
-108.5145139008051
 11
963.58018483757041
 21
-108.5145139008051
  0
LINE
  5
29B
100
AcDbEntity
  8
LC-007-002-----0
  6
CONTINUOUS
 62
             7
100
AcDbLine
 10
876.83018483757041
 20
-108.5145139008051
 11
790.08018483757041
 21
-108.5145139008051
  0
LINE
  5
29A
100
AcDbEntity
  8
LC-007-002-----0
  6
CONTINUOUS
 62
             7
100
AcDbLine
 10
778.08687683756943
 20
-96.91522290080646
 11
775.33018483757041
 21
-14.4067709008046
  0
LINE
  5
299
100
AcDbEntity
  8
LC-007-002-----0
  6
CONTINUOUS
 62
             7
100
AcDbLine
 10
758.83018483757041
 20
128.60096909919631
 11
761.83018483757041
 21
128.60096909919631
  0
LINE
  5
298
100
AcDbEntity
  8
LC-007-002-----0
  6
CONTINUOUS
 62
             7
100
AcDbLine
 10
757.83018483757041
 20
132.60096909919631
 11
757.83018483757041
 21
129.60096909919631
  0
LINE
  5
297
100
AcDbEntity
  8
LC-007-002-----0
  6
CONTINUOUS
 62
             7
100
AcDbLine
 10
762.83018483757041
 20
129.60096909919631
 11
762.83018483757041
 21
132.60096909919631
  0
LINE
  5
296
100
AcDbEntity
  8
LC-007-002-----0
  6
CONTINUOUS
 62
             7
100
AcDbLine
 10
761.83018483757041
 20
133.60096909919631
 11
758.83018483757041
 21
133.60096909919631
  0
LINE
  5
295
100
AcDbEntity
  8
LC-007-002-----0
  6
CONTINUOUS
 62
             7
100
AcDbLine
 10
781.33018483757041
 20
130.07073709919541
 11
781.33018483757041
 21
132.1312010991937
  0
LINE
  5
294
100
AcDbEntity
  8
LC-007-002-----0
  6
CONTINUOUS
 62
             7
100
AcDbLine
 10
769.83038783757002
 20
109.3511360991947
 11
769.8303988375701
 21
126.0355050991933
  0
LINE
  5
293
100
AcDbEntity
  8
LC-007-002-----0
  6
CONTINUOUS
 62
             7
100
AcDbLine
 10
739.33018483757041
 20
130.07073709919541
 11
739.33018483757041
 21
132.1312010991937
  0
LINE
  5
292
100
AcDbEntity
  8
LC-007-002-----0
  6
CONTINUOUS
 62
             7
100
AcDbLine
 10
750.83018483757041
 20
109.35096909919631
 11
750.83018483757041
 21
126.035338099195
  0
LINE
  5
291
100
AcDbEntity
  8
LC-007-002-----0
  6
CONTINUOUS
 62
             7
100
AcDbLine
 10
750.83018483757041
 20
109.35096909919631
 11
769.83038783757002
 21
109.35096909919631
  0
LINE
  5
290
100
AcDbEntity
  8
LC-007-002-----0
  6
CONTINUOUS
 62
             7
100
AcDbLine
 10
991.83018483757041
 20
128.60096909919631
 11
994.83018483757041
 21
128.60096909919631
  0
LINE
  5
28F
100
AcDbEntity
  8
LC-007-002-----0
  6
CONTINUOUS
 62
             7
100
AcDbLine
 10
990.83018483757041
 20
132.60096909919631
 11
990.83018483757041
 21
129.60096909919631
  0
LINE
  5
28E
100
AcDbEntity
  8
LC-007-002-----0
  6
CONTINUOUS
 62
             7
100
AcDbLine
 10
995.83018483757041
 20
129.60096909919631
 11
995.83018483757041
 21
132.60096909919631
  0
LINE
  5
28D
100
AcDbEntity
  8
LC-007-002-----0
  6
CONTINUOUS
 62
             7
100
AcDbLine
 10
994.83018483757041
 20
133.60096909919631
 11
991.83018483757041
 21
133.60096909919631
  0
LINE
  5
28C
100
AcDbEntity
  8
LC-007-002-----0
  6
CONTINUOUS
 62
             7
100
AcDbLine
 10
1014.33018483757
 20
130.07073709919541
 11
1014.33018483757
 21
132.1312010991937
  0
LINE
  5
28B
100
AcDbEntity
  8
LC-007-002-----0
  6
CONTINUOUS
 62
             7
100
AcDbLine
 10
1002.83038783757
 20
109.3511360991947
 11
1002.83039883757
 21
126.0355050991933
  0
LINE
  5
28A
100
AcDbEntity
  8
LC-007-002-----0
  6
CONTINUOUS
 62
             7
100
AcDbLine
 10
972.33018483757041
 20
130.07073709919541
 11
972.33018483757041
 21
132.1312010991937
  0
LINE
  5
289
100
AcDbEntity
  8
LC-007-002-----0
  6
CONTINUOUS
 62
             7
100
AcDbLine
 10
983.83018483757041
 20
109.35096909919631
 11
983.83018483757041
 21
126.035338099195
  0
LINE
  5
288
100
AcDbEntity
  8
LC-007-002-----0
  6
CONTINUOUS
 62
             7
100
AcDbLine
 10
983.83018483757041
 20
109.35096909919631
 11
1002.83038783757
 21
109.35096909919631
  0
LINE
  5
287
100
AcDbEntity
  8
LC-007-002-----0
  6
CONTINUOUS
 62
             7
100
AcDbLine
 10
752.78014483756851
 20
91.40100909919458
 11
750.33018483757041
 21
91.40100909919458
  0
LINE
  5
286
100
AcDbEntity
  8
LC-007-002-----0
  6
CONTINUOUS
 62
             7
100
AcDbLine
 10
1000.880223837568
 20
91.40100909919458
 11
1003.33018483757
 21
91.40100909919458
  0
LINE
  5
285
100
AcDbEntity
  8
LC-007-002-----0
  6
CONTINUOUS
 62
             7
100
AcDbLine
 10
750.33018483757041
 20
83.90119209919469
 11
750.33018483757041
 21
91.40119209919469
  0
LINE
  5
284
100
AcDbEntity
  8
LC-007-002-----0
  6
CONTINUOUS
 62
             7
100
AcDbLine
 10
760.77996183756841
 20
83.40119209919469
 11
750.83018483757041
 21
83.40119209919469
  0
LINE
  5
283
100
AcDbEntity
  8
LC-007-002-----0
  6
CONTINUOUS
 62
             7
100
AcDbLine
 10
755.88283283756755
 20
78.34854409919392
 11
750.83018483757041
 21
83.40119209919469
  0
LINE
  5
282
100
AcDbEntity
  8
LC-007-002-----0
  6
CONTINUOUS
 62
             7
100
AcDbLine
 10
997.7775358375693
 20
78.34854409919392
 11
1002.83018483757
 21
83.40119209919469
  0
LINE
  5
281
100
AcDbEntity
  8
LC-007-002-----0
  6
CONTINUOUS
 62
             7
100
AcDbLine
 10
992.88040783756878
 20
83.40119209919469
 11
1002.83018483757
 21
83.40119209919469
  0
LINE
  5
280
100
AcDbEntity
  8
LC-007-002-----0
  6
CONTINUOUS
 62
             7
100
AcDbLine
 10
1003.33018483757
 20
83.90119209919469
 11
1003.33018483757
 21
91.40119209919469
  0
LINE
  5
27F
100
AcDbEntity
  8
LC-007-002-----0
  6
CONTINUOUS
 62
             7
100
AcDbLine
 10
963.58018483757041
 20
-108.5532769008056
 11
876.83018483757041
 21
-108.5532769008056
  0
LINE
  5
27E
100
AcDbEntity
  8
LC-007-002-----0
  6
CONTINUOUS
 62
             7
100
AcDbLine
 10
790.08018483757041
 20
-108.5532769008056
 11
876.83018483757041
 21
-108.5532769008056
  0
LINE
  5
27D
100
AcDbEntity
  8
LC-007-002-----0
  6
CONTINUOUS
 62
             7
100
AcDbLine
 10
778.0881708375673
 20
-96.95394290080692
 11
775.33018483757041
 21
-14.4067709008046
  0
LINE
  5
27C
100
AcDbEntity
  8
LC-007-002-----0
  6
CONTINUOUS
 62
             7
100
AcDbLine
 10
975.57219883756989
 20
-96.95394290080692
 11
975.57349283756776
 21
-96.91522290080646
  0
LINE
  5
27B
100
AcDbEntity
  8
LC-007-002-----0
  6
CONTINUOUS
 62
             7
100
AcDbLine
 10
1000.472405837569
 20
68.2291230991945
 11
978.33018483757041
 21
-14.4067709008046
  0
LINE
  5
27A
100
AcDbEntity
  8
LC-022-006-MLN-0
  6
PHANTOM
 62
             2
100
AcDbLine
 10
780.73018483756823
 20
-22.99959090080627
 11
972.93018483756896
 21
-22.99959090080627
  0
LINE
  5
279
100
AcDbEntity
  8
LC-007-002-----0
  6
CONTINUOUS
 62
             7
100
AcDbLine
 10
781.33018483757041
 20
120.1207770991936
 11
781.33018483757041
 21
122.18124009919519
  0
LINE
  5
278
100
AcDbEntity
  8
LC-007-002-----0
  6
CONTINUOUS
 62
             7
100
AcDbLine
 10
739.33018483757041
 20
120.1207770991936
 11
739.33018483757041
 21
122.18124009919519
  0
LINE
  5
277
100
AcDbEntity
  8
LC-007-002-----0
  6
CONTINUOUS
 62
             7
100
AcDbLine
 10
750.83018483757041
 20
109.35096909919631
 11
750.83018483757041
 21
116.08537709919661
  0
LINE
  5
276
100
AcDbEntity
  8
LC-007-002-----0
  6
CONTINUOUS
 62
             7
100
AcDbLine
 10
1014.33018483757
 20
120.1207770991936
 11
1014.33018483757
 21
122.18124009919519
  0
LINE
  5
275
100
AcDbEntity
  8
LC-007-002-----0
  6
CONTINUOUS
 62
             7
100
AcDbLine
 10
972.33018483757041
 20
120.1207770991936
 11
972.33018483757041
 21
122.18124009919519
  0
LINE
  5
274
100
AcDbEntity
  8
LC-007-002-----0
  6
CONTINUOUS
 62
             7
100
AcDbLine
 10
983.83018483757041
 20
109.35096909919631
 11
983.83018483757041
 21
116.08537709919661
  0
POINT
  5
273
100
AcDbEntity
  8
0
 62
             7
100
AcDbPoint
 10
739.33018483757041
 20
120.1207770991936
  0
POINT
  5
272
100
AcDbEntity
  8
0
 62
             7
100
AcDbPoint
 10
1013.935057837571
 20
118.92730309919391
  0
ENDBLK
  5
381
100
AcDbEntity
  8
0
100
AcDbBlockEnd
  0
BLOCK
  5
384
100
AcDbEntity
  8
0
100
AcDbBlockBegin
  2
*D4
 70
             1
 10
0.0
 20
0.0
 30
0.0
  3
*D4
  1

  0
LINE
  5
385
100
AcDbEntity
  8
0
  6
CONTINUOUS
 62
             4
100
AcDbLine
 10
-16.0
 20
80.0
 11
-16.0
 21
-80.0
  0
LINE
  5
386
100
AcDbEntity
  8
0
  6
CONTINUOUS
 62
             4
100
AcDbLine
 10
-6.0
 20
80.0
 11
-18.0
 21
80.0
  0
LINE
  5
387
100
AcDbEntity
  8
0
  6
CONTINUOUS
 62
             4
100
AcDbLine
 10
-6.0
 20
-80.0
 11
-18.0
 21
-80.0
  0
SOLID
  5
388
100
AcDbEntity
  8
0
 62
             4
100
AcDbTrace
 10
-14.42017002895125
 20
68.0
 11
-17.57982997104875
 21
68.0
 12
-16.0
 22
80.0
 13
-16.0
 23
80.0
  0
SOLID
  5
389
100
AcDbEntity
  8
0
 62
             4
100
AcDbTrace
 10
-17.57982997104875
 20
-68.0
 11
-14.42017002895125
 21
-68.0
 12
-16.0
 22
-80.0
 13
-16.0
 23
-80.0
  0
MTEXT
  5
38B
100
AcDbEntity
  8
0
 62
             1
100
AcDbMText
 10
-18.0
 20
-22.87447104745049
 30
0.0
 40
12.0
 41
0.0
 71
             7
 72
             1
  1
\C1;DN\C1;160
  7
CONVERTER_1
 11
0.0
 21
1.0
 31
0.0
  0
ENDBLK
  5
38C
100
AcDbEntity
  8
0
100
AcDbBlockEnd
  0
BLOCK
  5
390
100
AcDbEntity
  8
0
100
AcDbBlockBegin
  2
*D5
 70
             1
 10
0.0
 20
0.0
 30
0.0
  3
*D5
  1

  0
LINE
  5
391
100
AcDbEntity
  8
0
  6
CONTINUOUS
 62
             4
100
AcDbLine
 10
83.99738699999998
 20
279.67654194556502
 11
509.00167899999997
 21
279.67654194556502
  0
LINE
  5
392
100
AcDbEntity
  8
0
  6
CONTINUOUS
 62
             4
100
AcDbLine
 10
83.99738699999998
 20
101.44050000000001
 11
83.99738699999998
 21
281.67654194556502
  0
LINE
  5
393
100
AcDbEntity
  8
0
  6
CONTINUOUS
 62
             4
100
AcDbLine
 10
509.00167899999997
 20
91.50000800000012
 11
509.00167899999997
 21
281.67654194556502
  0
SOLID
  5
394
100
AcDbEntity
  8
0
 62
             4
100
AcDbTrace
 10
95.99738699999998
 20
281.25637191661377
 11
95.99738699999998
 21
278.09671197451627
 12
83.99738699999998
 22
279.67654194556502
 13
83.99738699999998
 23
279.67654194556502
  0
SOLID
  5
395
100
AcDbEntity
  8
0
 62
             4
100
AcDbTrace
 10
497.00167899999997
 20
278.09671197451627
 11
497.00167899999997
 21
281.25637191661377
 12
509.00167899999997
 22
279.67654194556502
 13
509.00167899999997
 23
279.67654194556502
  0
MTEXT
  5
396
100
AcDbEntity
  8
0
 62
             1
100
AcDbMText
 10
288.46704485520951
 20
281.67654194556502
 30
0.0
 40
12.0
 41
0.0
 71
             7
 72
             1
  1
425
  7
CONVERTER_1
 11
0.99999999999706
 21
0.00000242406841
 31
0.0
  0
ENDBLK
  5
397
100
AcDbEntity
  8
0
100
AcDbBlockEnd
  0
BLOCK
  5
39B
100
AcDbEntity
  8
0
100
AcDbBlockBegin
  2
*D6
 70
             1
 10
0.0
 20
0.0
 30
0.0
  3
*D6
  1

  0
LINE
  5
39C
100
AcDbEntity
  8
0
  6
CONTINUOUS
 62
             4
100
AcDbLine
 10
613.40884211117896
 20
57.00040299999998
 11
613.40884211117896
 21
-102.99958099999999
  0
LINE
  5
39D
100
AcDbEntity
  8
0
  6
CONTINUOUS
 62
             4
100
AcDbLine
 10
583.99944600000003
 20
57.00040299999998
 11
615.40884211117896
 21
57.00040299999998
  0
LINE
  5
39E
100
AcDbEntity
  8
0
  6
CONTINUOUS
 62
             4
100
AcDbLine
 10
583.99950600000011
 20
-102.99958099999999
 11
615.40884211117896
 21
-102.99958099999999
  0
SOLID
  5
39F
100
AcDbEntity
  8
0
 62
             4
100
AcDbTrace
 10
614.98867208222771
 20
45.00040299999998
 11
611.8290121401302
 21
45.00040299999998
 12
613.40884211117896
 22
57.00040299999998
 13
613.40884211117896
 23
57.00040299999998
  0
SOLID
  5
3A0
100
AcDbEntity
  8
0
 62
             4
100
AcDbTrace
 10
611.8290121401302
 20
-90.99958099999999
 11
614.98867208222771
 21
-90.99958099999999
 12
613.40884211117896
 22
-102.99958099999999
 13
613.40884211117896
 23
-102.99958099999999
  0
MTEXT
  5
3A1
100
AcDbEntity
  8
0
 62
             1
100
AcDbMText
 10
611.40884211117896
 20
-36.69950526895575
 30
0.0
 40
12.0
 41
0.0
 71
             7
 72
             1
  1
\C1;DN\C1;160
  7
CONVERTER_1
 11
0.0
 21
1.0
 31
0.0
  0
ENDBLK
  5
3A2
100
AcDbEntity
  8
0
100
AcDbBlockEnd
  0
BLOCK
  5
3A6
100
AcDbEntity
  8
0
100
AcDbBlockBegin
  2
*D7
 70
             1
 10
0.0
 20
0.0
 30
0.0
  3
*D7
  1

  0
LINE
  5
3A7
100
AcDbEntity
  8
0
  6
CONTINUOUS
 62
             4
100
AcDbLine
 10
0.0
 20
-140.69201719066211
 11
589.99944600000003
 21
-140.69201719066211
  0
LINE
  5
3A8
100
AcDbEntity
  8
0
  6
CONTINUOUS
 62
             4
100
AcDbLine
 10
0.0
 20
-85.0
 11
0.0
 21
-142.69201719066211
  0
LINE
  5
3A9
100
AcDbEntity
  8
0
  6
CONTINUOUS
 62
             4
100
AcDbLine
 10
589.99944600000003
 20
-98.999824
 11
589.99944600000003
 21
-142.69201719066211
  0
SOLID
  5
3AA
100
AcDbEntity
  8
0
 62
             4
100
AcDbTrace
 10
12.0
 20
-139.11218721961336
 11
12.0
 21
-142.27184716171087
 12
0.0
 22
-140.69201719066211
 13
0.0
 23
-140.69201719066211
  0
SOLID
  5
3AB
100
AcDbEntity
  8
0
 62
             4
100
AcDbTrace
 10
577.99944600000003
 20
-142.27184716171087
 11
577.99944600000003
 21
-139.11218721961336
 12
589.99944600000003
 22
-140.69201719066211
 13
589.99944600000003
 23
-140.69201719066211
  0
MTEXT
  5
3AC
100
AcDbEntity
  8
0
 62
             1
100
AcDbMText
 10
299.44905983192103
 20
-138.69201719066211
 30
0.0
 40
12.0
 41
0.0
 71
             7
 72
             1
  1
590
  7
CONVERTER_1
 11
0.99999999999706
 21
0.00000242406841
 31
0.0
  0
ENDBLK
  5
3AD
100
AcDbEntity
  8
0
100
AcDbBlockEnd
  0
BLOCK
  5
3B1
100
AcDbEntity
  8
0
100
AcDbBlockBegin
  2
*D8
 70
             1
 10
0.0
 20
0.0
 30
0.0
  3
*D8
  1

  0
LINE
  5
3B2
100
AcDbEntity
  8
0
  6
CONTINUOUS
 62
             4
100
AcDbLine
 10
543.25426314638401
 20
88.55207150667215
 11
543.25426314638401
 21
0.0
  0
LINE
  5
3B3
100
AcDbEntity
  8
0
  6
CONTINUOUS
 62
             4
100
AcDbLine
 10
543.25426314638401
 20
0.0
 11
543.25426314638401
 21
-22.99959753668385
  0
LINE
  5
3B4
100
AcDbEntity
  8
0
  6
CONTINUOUS
 62
             4
100
AcDbLine
 10
543.25426314638401
 20
-22.99959753668385
 11
543.25426314638401
 21
-46.99959753668385
  0
LINE
  5
3B5
100
AcDbEntity
  8
0
  6
CONTINUOUS
 62
             4
100
AcDbLine
 10
91.30157300000002
 20
0.0
 11
545.25426314638401
 21
0.0
  0
LINE
  5
3B6
100
AcDbEntity
  8
0
  6
CONTINUOUS
 62
             4
100
AcDbLine
 10
496.07958823198544
 20
-22.99959753668385
 11
545.25426314638401
 21
-22.99959753668385
  0
SOLID
  5
3B7
100
AcDbEntity
  8
0
 62
             4
100
AcDbTrace
 10
541.67443317533525
 20
12.0
 11
544.83409311743276
 21
12.0
 12
543.25426314638401
 22
0.0
 13
543.25426314638401
 23
0.0
  0
SOLID
  5
3B8
100
AcDbEntity
  8
0
 62
             4
100
AcDbTrace
 10
544.83409311743276
 20
-34.99959753668385
 11
541.67443317533525
 21
-34.99959753668385
 12
543.25426314638401
 22
-22.99959753668385
 13
543.25426314638401
 23
-22.99959753668385
  0
MTEXT
  5
3B9
100
AcDbEntity
  8
0
 62
             1
100
AcDbMText
 10
541.25426314638401
 20
70.55207150667215
 30
0.0
 40
12.0
 41
0.0
 71
             7
 72
             1
  1
23
  7
CONVERTER_1
 11
0.0
 21
1.0
 31
0.0
  0
ENDBLK
  5
3BA
100
AcDbEntity
  8
0
100
AcDbBlockEnd
  0
BLOCK
  5
3BE
100
AcDbEntity
  8
0
100
AcDbBlockBegin
  2
*D9
 70
             1
 10
0.0
 20
0.0
 30
0.0
  3
*D9
  1

  0
LINE
  5
3BF
100
AcDbEntity
  8
0
  6
CONTINUOUS
 62
             4
100
AcDbLine
 10
1014.33018483757
 20
-140.69201719066211
 11
739.33018483757041
 21
-140.69201719066211
  0
LINE
  5
3C0
100
AcDbEntity
  8
0
  6
CONTINUOUS
 62
             4
100
AcDbLine
 10
739.33018483757041
 20
132.13120109919367
 11
739.33018483757041
 21
-142.69201719066211
  0
LINE
  5
3C1
100
AcDbEntity
  8
0
  6
CONTINUOUS
 62
             4
100
AcDbLine
 10
1014.33018483757
 20
132.13120109919367
 11
1014.33018483757
 21
-142.69201719066211
  0
SOLID
  5
3C2
100
AcDbEntity
  8
0
 62
             4
100
AcDbTrace
 10
1002.33018483757
 20
-142.27184716171087
 11
1002.33018483757
 21
-139.11218721961336
 12
1014.33018483757
 22
-140.69201719066211
 13
1014.33018483757
 23
-140.69201719066211
  0
SOLID
  5
3C3
100
AcDbEntity
  8
0
 62
             4
100
AcDbTrace
 10
751.33018483757041
 20
-139.11218721961336
 11
751.33018483757041
 21
-142.27184716171087
 12
739.33018483757041
 22
-140.69201719066211
 13
739.33018483757041
 23
-140.69201719066211
  0
MTEXT
  5
3C4
100
AcDbEntity
  8
0
 62
             1
100
AcDbMText
 10
849.46298362377581
 20
-138.69201719066211
 30
0.0
 40
12.0
 41
0.0
 71
             7
 72
             1
  1
275
  7
CONVERTER_1
 11
0.99999999999706
 21
0.00000242406841
 31
0.0
  0
ENDBLK
  5
3C5
100
AcDbEntity
  8
0
100
AcDbBlockEnd
  0
BLOCK
  5
3C9
100
AcDbEntity
  8
0
100
AcDbBlockBegin
  2
*D10
 70
             1
 10
0.0
 20
0.0
 30
0.0
  3
*D10
  1

  0
LINE
  5
3CA
100
AcDbEntity
  8
0
  6
CONTINUOUS
 62
             4
100
AcDbLine
 10
640.42142766494203
 20
-110.49886099999995
 11
640.42142766494203
 21
244.50000800000007
  0
LINE
  5
3CB
100
AcDbEntity
  8
0
  6
CONTINUOUS
 62
             4
100
AcDbLine
 10
340.017222
 20
-110.49886099999995
 11
642.42142766494203
 21
-110.49886099999995
  0
LINE
  5
3CC
100
AcDbEntity
  8
0
  6
CONTINUOUS
 62
             4
100
AcDbLine
 10
371.20907799999992
 20
244.50000800000007
 11
642.42142766494203
 21
244.50000800000007
  0
SOLID
  5
3CD
100
AcDbEntity
  8
0
 62
             4
100
AcDbTrace
 10
638.84159769389328
 20
-98.49886099999995
 11
642.00125763599078
 21
-98.49886099999995
 12
640.42142766494203
 22
-110.49886099999995
 13
640.42142766494203
 23
-110.49886099999995
  0
SOLID
  5
3CE
100
AcDbEntity
  8
0
 62
             4
100
AcDbTrace
 10
642.00125763599078
 20
232.50000800000007
 11
638.84159769389328
 21
232.50000800000007
 12
640.42142766494203
 22
244.50000800000007
 13
640.42142766494203
 23
244.50000800000007
  0
MTEXT
  5
3CF
100
AcDbEntity
  8
0
 62
             1
100
AcDbMText
 10
638.42142766494203
 20
12.86665064325666
 30
0.0
 40
12.0
 41
0.0
 71
             7
 72
             1
  1
\C1;265-\C1;355
  7
CONVERTER_1
 11
0.0
 21
1.0
 31
0.0
  0
ENDBLK
  5
3D0
100
AcDbEntity
  8
0
100
AcDbBlockEnd
  0
BLOCK
  5
3D4
100
AcDbEntity
  8
0
100
AcDbBlockBegin
  2
*D11
 70
             1
 10
0.0
 20
0.0
 30
0.0
  3
*D11
  1

  0
LINE
  5
3D5
100
AcDbEntity
  8
0
  6
CONTINUOUS
 62
             4
100
AcDbLine
 10
666.95350979655507
 20
-110.49886100000002
 11
666.95350979655507
 21
259.50016599999998
  0
LINE
  5
3D6
100
AcDbEntity
  8
0
  6
CONTINUOUS
 62
             4
100
AcDbLine
 10
340.01722199999995
 20
-110.49886100000002
 11
668.95350979655507
 21
-110.49886100000002
  0
LINE
  5
3D7
100
AcDbEntity
  8
0
  6
CONTINUOUS
 62
             4
100
AcDbLine
 10
154.89742099999995
 20
259.50016599999998
 11
668.95350979655507
 21
259.50016599999998
  0
SOLID
  5
3D8
100
AcDbEntity
  8
0
 62
             4
100
AcDbTrace
 10
665.37367982550631
 20
-98.49886100000002
 11
668.53333976760382
 21
-98.49886100000002
 12
666.95350979655507
 22
-110.49886100000002
 13
666.95350979655507
 23
-110.49886100000002
  0
SOLID
  5
3D9
100
AcDbEntity
  8
0
 62
             4
100
AcDbTrace
 10
668.53333976760382
 20
247.50016599999998
 11
665.37367982550631
 21
247.50016599999998
 12
666.95350979655507
 22
259.50016599999998
 13
666.95350979655507
 23
259.50016599999998
  0
MTEXT
  5
3DA
100
AcDbEntity
  8
0
 62
             1
100
AcDbMText
 10
664.95350979655507
 20
88.45484285238449
 30
0.0
 40
12.0
 41
0.0
 71
             7
 72
             1
  1
370
  7
CONVERTER_1
 11
0.0
 21
1.0
 31
0.0
  0
ENDBLK
  5
3DB
100
AcDbEntity
  8
0
100
AcDbBlockEnd
  0
ENDSEC
  0
SECTION
  2
ENTITIES
  0
DIMENSION
  5
3DD
100
AcDbEntity
  8
1
100
AcDbDimension
  2
*D11
 10
666.95350979655507
 20
-110.49886100000002
 11
658.95350979655507
 21
102.85484285238449
 31
0.0
 53
90.0
  1
<>
  3
ME10_DIM_7
100
AcDbAlignedDimension
 13
154.89742100000001
 23
259.50016599999998
 14
340.017222
 24
-110.49886100000001
 50
90.0
100
AcDbRotatedDimension
  0
DIMENSION
  5
3D2
100
AcDbEntity
  8
1
100
AcDbDimension
  2
*D10
 10
640.42142766494203
 20
-110.49886099999995
 11
632.42142766494203
 21
44.42665064325666
 31
0.0
 53
90.0
  1
<>
  3
ME10_DIM_6
100
AcDbAlignedDimension
 13
371.20907799999998
 23
244.50000800000001
 14
340.017222
 24
-110.49886100000001
 50
90.0
100
AcDbRotatedDimension
  0
DIMENSION
  5
3C7
100
AcDbEntity
  8
1
100
AcDbDimension
  2
*D9
 10
1014.33018483757
 20
-140.69201719066211
 11
863.86298362377579
 21
-132.69201719066211
 31
0.0
 53
0.00013888888889
  1
<>
  3
ME10_DIM_5
100
AcDbAlignedDimension
 13
739.33018483757041
 23
132.1312010991937
 14
1014.33018483757
 24
132.1312010991937
100
AcDbRotatedDimension
  0
DIMENSION
  5
3BC
100
AcDbEntity
  8
1
100
AcDbDimension
  2
*D8
 10
543.25426314638401
 20
0.0
 11
535.25426314638401
 21
79.55207150667215
 31
0.0
 53
90.0
  1
<>
  3
ME10_DIM_4
100
AcDbAlignedDimension
 13
496.07958823198538
 23
-22.99959753668382
 14
91.30157300000002
 24
0.0
 50
90.0
100
AcDbRotatedDimension
  0
DIMENSION
  5
3AF
100
AcDbEntity
  8
1
100
AcDbDimension
  2
*D7
 10
0.0
 20
-140.69201719066211
 11
313.84905983192101
 21
-132.69201719066211
 31
0.0
 53
0.00013888888889
  1
<>
  3
ME10_DIM_3
100
AcDbAlignedDimension
 13
589.99944600000003
 23
-98.99982399999995
 14
0.0
 24
-84.99999999999994
100
AcDbRotatedDimension
  0
DIMENSION
  5
3A4
100
AcDbEntity
  8
1
100
AcDbDimension
  2
*D6
 10
613.40884211117896
 20
57.00040299999998
 11
605.40884211117896
 21
-17.61950526895575
 31
0.0
 53
90.0
  1
<>
  3
ME10_DIM_2
100
AcDbAlignedDimension
 13
583.99950600000011
 23
-102.99958100000001
 14
583.99944600000003
 24
57.00040299999998
 50
90.0
100
AcDbRotatedDimension
  0
DIMENSION
  5
399
100
AcDbEntity
  8
1
100
AcDbDimension
  2
*D5
 10
83.99738699999998
 20
279.67654194556502
 11
302.86704485520949
 21
287.67654194556502
 31
0.0
 53
0.00013888888889
  1
<>
  3
ME10_DIM_1
100
AcDbAlignedDimension
 13
509.00167900000002
 23
91.50000800000002
 14
83.997387
 24
101.4404999999999
100
AcDbRotatedDimension
  0
DIMENSION
  5
38E
100
AcDbEntity
  8
1
100
AcDbDimension
  2
*D4
 10
-16.0
 20
80.0
 11
-24.0
 21
-3.79447104745049
 31
0.0
 53
90.0
  1
<>
  3
ME10_DIM_0
100
AcDbAlignedDimension
 13
-6.0
 23
-80.0
 14
-6.0
 24
80.0
 50
90.0
100
AcDbRotatedDimension
  0
INSERT
  5
39
100
AcDbEntity
  8
0
100
AcDbBlockReference
  2
HL_715_2EPC_R_CKSTAUVES__1
 10
290.3628768364901
 20
77.99056650000003
  0
INSERT
  5
3A
100
AcDbEntity
  8
0
100
AcDbBlockReference
  2
HL_715_2EPC_R_CKSTAUVES__2
 10
-0.00000000000017
 20
-631.57551928513999
  0
INSERT
  5
3B
100
AcDbEntity
  8
1
100
AcDbBlockReference
  2
HL_715_2EPC_R_CKSTAUVES__3
 10
1648.826466645769
 20
752.63175852793574
  0
ENDSEC
  0
SECTION
  2
OBJECTS
  0
DICTIONARY
  5
19
100
AcDbDictionary
  3
ACAD_GROUP
350
1A
  3
ACAD_MLINESTYLE
350
1B
  0
DICTIONARY
  5
1A
102
{ACAD_REACTORS
330
19
102
}
100
AcDbDictionary
  0
DICTIONARY
  5
1B
102
{ACAD_REACTORS
330
19
102
}
100
AcDbDictionary
  3
STANDARD
350
1C
  0
MLINESTYLE
  5
1C
102
{ACAD_REACTORS
330
1B
102
}
100
AcDbMlineStyle
  2
STANDARD
 70
             0
  3

 62
             0
 51
90.0
 52
90.0
 71
             2
 49
0.5
 62
           256
  6
BYLAYER
 49
-0.5
 62
           256
  6
BYLAYER
  0
ENDSEC
  0
EOF
