  0
SECTION
  2
HEADER
  9
$ACADVER
  1
AC1014
  9
$ACADMAINTVER
 70
             0
  9
$DWGCODEPAGE
  3
ANSI_1252
  9
$INSBASE
 10
0.0
 20
0.0
 30
0.0
  9
$EXTMIN
 10
-27.0
 20
-130.544307048169
 30
0.0
  9
$EXTMAX
 10
728.92963155498001
 20
170.1702732979204
 30
0.0
  9
$LIMMIN
 10
0.0
 20
0.0
  9
$LIMMAX
 10
0.0
 20
0.0
  9
$ORTHOMODE
 70
             0
  9
$REGENMODE
 70
             1
  9
$FILLMODE
 70
             1
  9
$QTEXTMODE
 70
             0
  9
$MIRRTEXT
 70
             1
  9
$DRAGMODE
 70
             2
  9
$LTSCALE
 40
1.0
  9
$OSMODE
 70
             0
  9
$ATTMODE
 70
             1
  9
$TEXTSIZE
 40
0.2
  9
$TRACEWID
 40
0.05
  9
$TEXTSTYLE
  7
STANDARD
  9
$CLAYER
  8
0
  9
$CELTYPE
  6
CONTINUOUS
  9
$CECOLOR
 62
           256
  9
$CELTSCALE
 40
1.0
  9
$DELOBJ
 70
             1
  9
$DISPSILH
 70
             0
  9
$DIMSCALE
 40
1.0
  9
$DIMASZ
 40
0.18
  9
$DIMEXO
 40
0.0625
  9
$DIMDLI
 40
0.38
  9
$DIMRND
 40
0.0
  9
$DIMDLE
 40
0.0
  9
$DIMEXE
 40
0.18
  9
$DIMTP
 40
0.0
  9
$DIMTM
 40
0.0
  9
$DIMTXT
 40
0.18
  9
$DIMCEN
 40
0.09
  9
$DIMTSZ
 40
0.0
  9
$DIMTOL
 70
             0
  9
$DIMLIM
 70
             0
  9
$DIMTIH
 70
             1
  9
$DIMTOH
 70
             1
  9
$DIMSE1
 70
             0
  9
$DIMSE2
 70
             0
  9
$DIMTAD
 70
             0
  9
$DIMZIN
 70
             0
  9
$DIMBLK
  1

  9
$DIMASO
 70
             1
  9
$DIMSHO
 70
             1
  9
$DIMPOST
  1

  9
$DIMAPOST
  1

  9
$DIMALT
 70
             0
  9
$DIMALTD
 70
             2
  9
$DIMALTF
 40
25.4
  9
$DIMLFAC
 40
1.0
  9
$DIMTOFL
 70
             0
  9
$DIMTVP
 40
0.0
  9
$DIMTIX
 70
             0
  9
$DIMSOXD
 70
             0
  9
$DIMSAH
 70
             0
  9
$DIMBLK1
  1

  9
$DIMBLK2
  1

  9
$DIMSTYLE
  2
STANDARD
  9
$DIMCLRD
 70
             0
  9
$DIMCLRE
 70
             0
  9
$DIMCLRT
 70
             0
  9
$DIMTFAC
 40
1.0
  9
$DIMGAP
 40
0.09
  9
$DIMJUST
 70
             0
  9
$DIMSD1
 70
             0
  9
$DIMSD2
 70
             0
  9
$DIMTOLJ
 70
             1
  9
$DIMTZIN
 70
             0
  9
$DIMALTZ
 70
             0
  9
$DIMALTTZ
 70
             0
  9
$DIMFIT
 70
             3
  9
$DIMUPT
 70
             0
  9
$DIMUNIT
 70
             2
  9
$DIMDEC
 70
             4
  9
$DIMTDEC
 70
             4
  9
$DIMALTU
 70
             2
  9
$DIMALTTD
 70
             2
  9
$DIMTXSTY
  7
STANDARD
  9
$DIMAUNIT
 70
             0
  9
$LUNITS
 70
             2
  9
$LUPREC
 70
             4
  9
$SKETCHINC
 40
0.1
  9
$FILLETRAD
 40
0.0
  9
$AUNITS
 70
             0
  9
$AUPREC
 70
             0
  9
$MENU
  1
acad
  9
$ELEVATION
 40
0.0
  9
$PELEVATION
 40
0.0
  9
$THICKNESS
 40
0.0
  9
$LIMCHECK
 70
             0
  9
$BLIPMODE
 70
             1
  9
$CHAMFERA
 40
0.0
  9
$CHAMFERB
 40
0.0
  9
$CHAMFERC
 40
0.0
  9
$CHAMFERD
 40
0.0
  9
$SKPOLY
 70
             0
  9
$TDCREATE
 40
0.000000000
  9
$TDUPDATE
 40
0.000000000
  9
$TDINDWG
 40
0.0000000000
  9
$TDUSRTIMER
 40
0.0000000000
  9
$USRTIMER
 70
             1
  9
$ANGBASE
 50
0.0
  9
$ANGDIR
 70
             0
  9
$PDMODE
 70
             0
  9
$PDSIZE
 40
0.0
  9
$PLINEWID
 40
0.0
  9
$COORDS
 70
             0
  9
$SPLFRAME
 70
             0
  9
$SPLINETYPE
 70
             6
  9
$SPLINESEGS
 70
             8
  9
$ATTDIA
 70
             0
  9
$ATTREQ
 70
             1
  9
$HANDLING
 70
             1
  9
$HANDSEED
  5
19F
  9
$SURFTAB1
 70
             6
  9
$SURFTAB2
 70
             6
  9
$SURFTYPE
 70
             6
  9
$SURFU
 70
             6
  9
$SURFV
 70
             6
  9
$UCSNAME
  2

  9
$UCSORG
 10
0.0
 20
0.0
 30
0.0
  9
$UCSXDIR
 10
1.0
 20
0.0
 30
0.0
  9
$UCSYDIR
 10
0.0
 20
1.0
 30
0.0
  9
$PUCSNAME
  2

  9
$PUCSORG
 10
0.0
 20
0.0
 30
0.0
  9
$PUCSXDIR
 10
1.0
 20
0.0
 30
0.0
  9
$PUCSYDIR
 10
0.0
 20
1.0
 30
0.0
  9
$USERI1
 70
             0
  9
$USERI2
 70
             0
  9
$USERI3
 70
             0
  9
$USERI4
 70
             0
  9
$USERI5
 70
             0
  9
$USERR1
 40
12.01
  9
$USERR2
 40
0.0
  9
$USERR3
 40
0.0
  9
$USERR4
 40
0.0
  9
$USERR5
 40
0.0
  9
$WORLDVIEW
 70
             1
  9
$SHADEDGE
 70
             3
  9
$SHADEDIF
 70
            70
  9
$TILEMODE
 70
             1
  9
$MAXACTVP
 70
            16
  9
$PINSBASE
 10
0.0
 20
0.0
 30
0.0
  9
$PLIMCHECK
 70
             0
  9
$PEXTMIN
 10
1.00000000000000E+20
 20
1.00000000000000E+20
 30
1.00000000000000E+20
  9
$PEXTMAX
 10
-1.00000000000000E+20
 20
-1.00000000000000E+20
 30
-1.00000000000000E+20
  9
$PLIMMIN
 10
0.0
 20
0.0
  9
$PLIMMAX
 10
12.0
 20
9.0
  9
$UNITMODE
 70
             0
  9
$VISRETAIN
 70
             0
  9
$PLINEGEN
 70
             1
  9
$PSLTSCALE
 70
             0
  9
$TREEDEPTH
 70
          3020
  9
$PICKSTYLE
 70
             1
  9
$CMLSTYLE
  2
STANDARD
  9
$CMLJUST
 70
             0
  9
$CMLSCALE
 40
1.0
  9
$PROXYGRAPHICS
 70
             0
  9
$MEASUREMENT
 70
             1
  0
ENDSEC
  0
SECTION
  2
CLASSES
  0
CLASS
  1
LWPOLYLINE
  2
AcDbPolyline
  3
"AutoCAD"
 90
        0
280
             0
281
             1
  0
CLASS
  1
IMAGE
  2
AcDbRasterImage
  3
ISM
 90
      127
280
             0
281
             1
  0
CLASS
  1
OLE2FRAME
  2
AcDbOle2Frame
  3
""
 90
        0
280
             0
281
             1
  0
CLASS
  1
HATCH
  2
AcDbHatch
  3
"ACAD_SEDONA"
 90
        0
280
             0
281
             1
  0
CLASS
  1
DICTIONARYVAR
  2
AcDbDictionaryVar
  3
"AutoCAD"
 90
        0
280
             0
281
             0
  0
CLASS
  1
RASTERVARIABLES
  2
AcDbRasterVariables
  3
ISM
 90
        0
280
             0
281
             0
  0
CLASS
  1
IMAGEDEF
  2
AcDbRasterImageDef
  3
ISM
 90
        0
280
             0
281
             0
  0
CLASS
  1
IMAGEDEF_REACTOR
  2
AcDbRasterImageDefReactor
  3
ISM
 90
        1
280
             0
281
             0
  0
CLASS
  1
IDBUFFER
  2
AcDbIdBuffer
  3
"Acad"
 90
        0
280
             0
281
             0
  0
CLASS
  1
SPATIAL_FILTER
  2
AcDbSpatialFilter
  3
"Acad"
 90
        0
280
             0
281
             0
  0
CLASS
  1
XRECORD
  2
AcDbXrecord
  3
"<Built In>"
 90
        0
280
             0
281
             0
  0
CLASS
  1
SORTENTSTABLE
  2
AcDbSortentsTable
  3
"AutoCAD"
 90
        0
280
             0
281
             0
  0
CLASS
  1
LAYER_INDEX
  2
AcDbLayerIndex
  3
"Acad"
 90
        0
280
             0
281
             0
  0
CLASS
  1
SPATIAL_INDEX
  2
AcDbSpatialIndex
  3
"Acad"
 90
        0
280
             0
281
             0
  0
CLASS
  1
OBJECT_PTR
  2
CAseDLPNTableRecord
  3
"ASE-LPNTableRecord"
 90
        1
280
             0
281
             0
  0
CLASS
  1
LAYOUT
  2
AcDbLayout
  3
"AutoCAD 2000"
 90
        0
280
             0
281
             0
  0
CLASS
  1
PLOTSETTINGS
  2
AcDbPlotSettings
  3
"AutoCAD 2000"
 90
        0
280
             0
281
             0
  0
CLASS
  1
ACDBDICTIONARYWDFLT
  2
AcDbDictionaryWithDefault
  3
"AutoCAD 2000"
 90
        0
280
             0
281
             0
  0
CLASS
  1
ACDBPLACEHOLDER
  2
AcDbPlaceHolder
  3
"AutoCAD 2000"
 90
        0
280
             0
281
             0
  0
ENDSEC
  0
SECTION
  2
TABLES
  0
TABLE
  2
VPORT
  5
7
100
AcDbSymbolTable
 70
             1
  0
VPORT
  5
15
100
AcDbSymbolTableRecord
100
AcDbViewportTableRecord
  2
*ACTIVE
 70
             0
 10
0.0
 20
0.0
 11
1.0
 21
1.0
 12
350.96481577749
 22
19.8129831248757
 13
0.0
 23
0.0
 14
1.0
 24
1.0
 15
0.0
 25
0.0
 16
0.0
 26
0.0
 36
1.0
 17
0.0
 27
0.0
 37
0.0
 40
518.83303959651016
 41
1.60267857142857
 42
50.0
 43
0.0
 44
0.0
 50
0.0
 51
0.0
 71
             0
 72
           100
 73
             1
 74
             1
 75
             0
 76
             0
 77
             0
 78
             0
  0
ENDTAB
  0
TABLE
  2
LTYPE
  5
4
100
AcDbSymbolTable
 70
            11
  0
LTYPE
  5
11
100
AcDbSymbolTableRecord
100
AcDbLinetypeTableRecord
  2
BYBLOCK
 70
            64
  3

 72
            65
 73
             0
 40
0.0
  0
LTYPE
  5
12
100
AcDbSymbolTableRecord
100
AcDbLinetypeTableRecord
  2
BYLAYER
 70
            64
  3

 72
            65
 73
             0
 40
0.0
  0
LTYPE
  5
13
100
AcDbSymbolTableRecord
100
AcDbLinetypeTableRecord
  2
CONTINUOUS
 70
            64
  3
Solid line
 72
            65
 73
             0
 40
0.0
  0
LTYPE
  5
1D
100
AcDbSymbolTableRecord
100
AcDbLinetypeTableRecord
  2
DASHED
 70
            64
  3
Dashed
 72
            65
 73
             2
 40
15.0
 49
7.0
 74
             0
 49
-8.0
 74
             0
  0
LTYPE
  5
1E
100
AcDbSymbolTableRecord
100
AcDbLinetypeTableRecord
  2
DOTTED
 70
            64
  3
Dotted
 72
            65
 73
             2
 40
1.0
 49
0.0
 74
             0
 49
-1.0
 74
             0
  0
LTYPE
  5
1F
100
AcDbSymbolTableRecord
100
AcDbLinetypeTableRecord
  2
DOT_CENTER
 70
            64
  3
Dot_Center
 72
            65
 73
             4
 40
14.0
 49
12.0
 74
             0
 49
-1.0
 74
             0
 49
0.0
 74
             0
 49
-1.0
 74
             0
  0
LTYPE
  5
20
100
AcDbSymbolTableRecord
100
AcDbLinetypeTableRecord
  2
LONG_DASHED
 70
            64
  3
Long_Dashed
 72
            65
 73
             2
 40
15.0
 49
10.0
 74
             0
 49
-5.0
 74
             0
  0
LTYPE
  5
21
100
AcDbSymbolTableRecord
100
AcDbLinetypeTableRecord
  2
DASH_CENTER
 70
            64
  3
Dash_Center
 72
            65
 73
             4
 40
14.0
 49
11.0
 74
             0
 49
-1.0
 74
             0
 49
1.0
 74
             0
 49
-1.0
 74
             0
  0
LTYPE
  5
22
100
AcDbSymbolTableRecord
100
AcDbLinetypeTableRecord
  2
PHANTOM
 70
            64
  3
Phantom
 72
            65
 73
             6
 40
13.0
 49
10.0
 74
             0
 49
-1.0
 74
             0
 49
0.0
 74
             0
 49
-1.0
 74
             0
 49
0.0
 74
             0
 49
-1.0
 74
             0
  0
LTYPE
  5
23
100
AcDbSymbolTableRecord
100
AcDbLinetypeTableRecord
  2
CENTER_DASH_DASH
 70
            64
  3
Center_Dash_Dash
 72
            65
 73
             6
 40
14.0
 49
9.0
 74
             0
 49
-1.0
 74
             0
 49
1.0
 74
             0
 49
-1.0
 74
             0
 49
1.0
 74
             0
 49
-1.0
 74
             0
  0
LTYPE
  5
24
100
AcDbSymbolTableRecord
100
AcDbLinetypeTableRecord
  2
DASHDOT
 70
            64
  3
DASHDOT
 72
            65
 73
             4
 40
16.0
 49
10.0
 74
             0
 49
-3.0
 74
             0
 49
0.0
 74
             0
 49
-3.0
 74
             0
  0
ENDTAB
  0
TABLE
  2
LAYER
  5
2
100
AcDbSymbolTable
 70
             9
  0
LAYER
  5
14
100
AcDbSymbolTableRecord
100
AcDbLayerTableRecord
  2
0
 70
             0
 62
             7
  6
CONTINUOUS
  0
LAYER
  5
25
100
AcDbSymbolTableRecord
100
AcDbLayerTableRecord
  2
1
 70
             0
 62
             7
  6
CONTINUOUS
  0
LAYER
  5
26
100
AcDbSymbolTableRecord
100
AcDbLayerTableRecord
  2
LC-003-002-----0
 70
             0
 62
             7
  6
CONTINUOUS
  0
LAYER
  5
27
100
AcDbSymbolTableRecord
100
AcDbLayerTableRecord
  2
LC-004-002-RND-0
 70
             0
 62
             7
  6
CONTINUOUS
  0
LAYER
  5
28
100
AcDbSymbolTableRecord
100
AcDbLayerTableRecord
  2
LC-005-005-----0
 70
             0
 62
             7
  6
CONTINUOUS
  0
LAYER
  5
29
100
AcDbSymbolTableRecord
100
AcDbLayerTableRecord
  2
LC-006-002-RND-0
 70
             0
 62
             7
  6
CONTINUOUS
  0
LAYER
  5
2A
100
AcDbSymbolTableRecord
100
AcDbLayerTableRecord
  2
LC-007-002-----0
 70
             0
 62
             7
  6
CONTINUOUS
  0
LAYER
  5
2B
100
AcDbSymbolTableRecord
100
AcDbLayerTableRecord
  2
LC-007-003-----0
 70
             0
 62
             7
  6
CONTINUOUS
  0
LAYER
  5
2C
100
AcDbSymbolTableRecord
100
AcDbLayerTableRecord
  2
LC-008-006-MLN-0
 70
             0
 62
             7
  6
CONTINUOUS
  0
ENDTAB
  0
TABLE
  2
STYLE
  5
3
100
AcDbSymbolTable
 70
             2
  0
STYLE
  5
17
100
AcDbSymbolTableRecord
100
AcDbTextStyleTableRecord
  2
STANDARD
 70
             0
 40
0.0
 41
1.0
 50
0.0
 71
             0
 42
0.0
  3
txt
  4

  0
STYLE
  5
160
100
AcDbSymbolTableRecord
100
AcDbTextStyleTableRecord
  2
CONVERTER_1
 70
             0
 40
0.0
 41
0.9
 50
0.0
 71
             0
 42
0.0
  3
txt.shx
  4

  0
ENDTAB
  0
TABLE
  2
VIEW
  5
5
100
AcDbSymbolTable
 70
             0
  0
ENDTAB
  0
TABLE
  2
UCS
  5
6
100
AcDbSymbolTable
 70
             0
  0
ENDTAB
  0
TABLE
  2
APPID
  5
8
100
AcDbSymbolTable
 70
             1
  0
APPID
  5
16
100
AcDbSymbolTableRecord
100
AcDbRegAppTableRecord
  2
ACAD
 70
             0
  0
ENDTAB
  0
TABLE
  2
DIMSTYLE
  5
9
100
AcDbSymbolTable
 70
             7
  0
DIMSTYLE
105
18
100
AcDbSymbolTableRecord
100
AcDbDimStyleTableRecord
  2
STANDARD
 70
             0
  3

  4

  5

  6

  7

 40
1.0
 41
0.18
 42
0.0625
 43
0.38
 44
0.18
 45
0.0
 46
0.0
 47
0.0
 48
0.0
 71
             0
 72
             0
 73
             1
 74
             1
 75
             0
 76
             0
 77
             0
 78
             0
140
0.18
141
0.09
142
0.0
143
25.4
144
1.0
145
0.0
146
1.0
147
0.09
170
             0
171
             2
172
             0
173
             0
174
             0
175
             0
176
             0
177
             0
178
             0
270
             2
271
             4
272
             4
273
             2
274
             2
275
             0
280
             0
281
             0
282
             0
283
             1
284
             0
285
             0
286
             0
287
             3
288
             0
340
17
  0
DIMSTYLE
105
163
100
AcDbSymbolTableRecord
100
AcDbDimStyleTableRecord
  2
ME10_DIM_0
 70
             0
  3

  4

  5

  6

  7

 40
1.0
 41
10.0
 42
0.0
 43
0.38
 44
2.0
 45
0.0
 46
0.0
 47
0.0
 48
0.0
 71
             0
 72
             0
 73
             0
 74
             0
 75
             0
 76
             0
 77
             1
 78
             8
140
10.0
141
0.09
142
0.0
143
25.4
144
1.0
145
0.0
146
1.0
147
0.625
170
             0
171
             2
172
             1
173
             1
174
             0
175
             0
176
             4
177
             4
178
             1
270
             2
271
             2
272
             4
273
             2
274
             2
275
             0
280
             0
281
             0
282
             0
283
             1
284
             0
285
             0
286
             0
287
             3
288
             0
340
160
  0
DIMSTYLE
105
16E
100
AcDbSymbolTableRecord
100
AcDbDimStyleTableRecord
  2
ME10_DIM_1
 70
             0
  3

  4

  5

  6

  7

 40
1.0
 41
10.0
 42
0.0
 43
0.38
 44
2.0
 45
0.0
 46
0.0
 47
0.0
 48
0.0
 71
             0
 72
             0
 73
             0
 74
             0
 75
             0
 76
             0
 77
             1
 78
             8
140
10.0
141
0.09
142
0.0
143
25.4
144
1.0
145
0.0
146
1.0
147
0.625
170
             0
171
             2
172
             1
173
             1
174
             0
175
             0
176
             4
177
             4
178
             1
270
             2
271
             2
272
             4
273
             2
274
             2
275
             0
280
             0
281
             0
282
             0
283
             1
284
             0
285
             0
286
             0
287
             3
288
             0
340
160
  0
DIMSTYLE
105
179
100
AcDbSymbolTableRecord
100
AcDbDimStyleTableRecord
  2
ME10_DIM_2
 70
             0
  3
DN<>
  4

  5

  6

  7

 40
1.0
 41
10.0
 42
0.0
 43
0.38
 44
2.0
 45
0.0
 46
0.0
 47
0.0
 48
0.0
 71
             0
 72
             0
 73
             0
 74
             0
 75
             0
 76
             0
 77
             1
 78
             8
140
10.0
141
0.09
142
0.0
143
25.4
144
1.0
145
0.0
146
1.0
147
0.625
170
             0
171
             2
172
             1
173
             1
174
             0
175
             0
176
             4
177
             4
178
             1
270
             2
271
             2
272
             4
273
             2
274
             2
275
             0
280
             0
281
             0
282
             0
283
             1
284
             0
285
             0
286
             0
287
             3
288
             0
340
160
  0
DIMSTYLE
105
184
100
AcDbSymbolTableRecord
100
AcDbDimStyleTableRecord
  2
ME10_DIM_3
 70
             0
  3
DN<>
  4

  5

  6

  7

 40
1.0
 41
10.0
 42
0.0
 43
0.38
 44
2.0
 45
0.0
 46
0.0
 47
0.0
 48
0.0
 71
             0
 72
             0
 73
             0
 74
             0
 75
             0
 76
             0
 77
             1
 78
             8
140
10.0
141
0.09
142
0.0
143
25.4
144
1.0
145
0.0
146
1.0
147
0.625
170
             0
171
             2
172
             1
173
             1
174
             0
175
             0
176
             4
177
             4
178
             1
270
             2
271
             2
272
             4
273
             2
274
             2
275
             0
280
             0
281
             0
282
             0
283
             1
284
             0
285
             0
286
             0
287
             3
288
             0
340
160
  0
DIMSTYLE
105
191
100
AcDbSymbolTableRecord
100
AcDbDimStyleTableRecord
  2
ME10_DIM_4
 70
             0
  3

  4

  5

  6

  7

 40
1.0
 41
10.0
 42
0.0
 43
0.38
 44
2.0
 45
0.0
 46
0.0
 47
0.0
 48
0.0
 71
             0
 72
             0
 73
             0
 74
             0
 75
             0
 76
             0
 77
             1
 78
             8
140
10.0
141
0.09
142
0.0
143
25.4
144
1.0
145
0.0
146
1.0
147
0.625
170
             0
171
             2
172
             1
173
             1
174
             0
175
             0
176
             4
177
             4
178
             1
270
             2
271
             2
272
             4
273
             2
274
             2
275
             0
280
             0
281
             0
282
             0
283
             1
284
             0
285
             0
286
             0
287
             3
288
             0
340
160
  0
DIMSTYLE
105
19C
100
AcDbSymbolTableRecord
100
AcDbDimStyleTableRecord
  2
ME10_DIM_5
 70
             0
  3

  4

  5

  6

  7

 40
1.0
 41
10.0
 42
0.0
 43
0.38
 44
2.0
 45
0.0
 46
0.0
 47
0.0
 48
0.0
 71
             0
 72
             0
 73
             0
 74
             0
 75
             0
 76
             0
 77
             1
 78
             8
140
10.0
141
0.09
142
0.0
143
25.4
144
1.0
145
0.0
146
1.0
147
0.625
170
             0
171
             2
172
             1
173
             1
174
             0
175
             0
176
             4
177
             4
178
             1
270
             2
271
             2
272
             4
273
             2
274
             2
275
             0
280
             0
281
             0
282
             0
283
             1
284
             0
285
             0
286
             0
287
             3
288
             0
340
160
  0
ENDTAB
  0
TABLE
  2
BLOCK_RECORD
  5
1
100
AcDbSymbolTable
 70
             8
  0
BLOCK_RECORD
  5
A
100
AcDbSymbolTableRecord
100
AcDbBlockTableRecord
  2
*MODEL_SPACE
  0
BLOCK_RECORD
  5
B
100
AcDbSymbolTableRecord
100
AcDbBlockTableRecord
  2
*PAPER_SPACE
  0
BLOCK_RECORD
  5
2D
100
AcDbSymbolTableRecord
100
AcDbBlockTableRecord
  2
HL_715_R_CKSTAUVERSCHLS__1
  0
BLOCK_RECORD
  5
2F
100
AcDbSymbolTableRecord
100
AcDbBlockTableRecord
  2
HL_715_R_CKSTAUVERSCHLS__2
  0
BLOCK_RECORD
  5
159
100
AcDbSymbolTableRecord
100
AcDbBlockTableRecord
  2
*D2
  0
BLOCK_RECORD
  5
165
100
AcDbSymbolTableRecord
100
AcDbBlockTableRecord
  2
*D3
  0
BLOCK_RECORD
  5
170
100
AcDbSymbolTableRecord
100
AcDbBlockTableRecord
  2
*D4
  0
BLOCK_RECORD
  5
17B
100
AcDbSymbolTableRecord
100
AcDbBlockTableRecord
  2
*D5
  0
BLOCK_RECORD
  5
186
100
AcDbSymbolTableRecord
100
AcDbBlockTableRecord
  2
*D6
  0
BLOCK_RECORD
  5
193
100
AcDbSymbolTableRecord
100
AcDbBlockTableRecord
  2
*D7
  0
ENDTAB
  0
ENDSEC
  0
SECTION
  2
BLOCKS
  0
BLOCK
  5
D
100
AcDbEntity
  8
0
100
AcDbBlockBegin
  2
*MODEL_SPACE
 70
             0
 10
0.0
 20
0.0
 30
0.0
  3
*MODEL_SPACE
  1

  0
ENDBLK
  5
E
100
AcDbEntity
  8
0
100
AcDbBlockEnd
  0
BLOCK
  5
F
100
AcDbEntity
 67
             1
  8
0
100
AcDbBlockBegin
  2
*PAPER_SPACE
 70
             0
 10
0.0
 20
0.0
 30
0.0
  3
*PAPER_SPACE
  1

  0
ENDBLK
  5
10
100
AcDbEntity
 67
             1
  8
0
100
AcDbBlockEnd
  0
BLOCK
  5
2E
100
AcDbEntity
  8
0
100
AcDbBlockBegin
  2
HL_715_R_CKSTAUVERSCHLS__1
 70
             0
 10
-664.704346203559
 20
-1005.58937920989
 30
0.0
  3
HL_715_R_CKSTAUVERSCHLS__1
  1

  0
ARC
  5
C6
100
AcDbEntity
  8
1
  6
CONTINUOUS
 62
             7
100
AcDbCircle
 10
286.57909807117471
 20
-93.10012600000044
 40
1.00000000000001
100
AcDbArc
 50
-90.00004405393393
 51
-0.99972728511838
  0
ARC
  5
C5
100
AcDbEntity
  8
LC-004-002-RND-0
  6
CONTINUOUS
 62
             7
100
AcDbCircle
 10
13.0
 20
-89.5
 40
4.0
100
AcDbArc
 50
180.0
 51
-90.0
  0
ARC
  5
C4
100
AcDbEntity
  8
LC-004-002-RND-0
  6
CONTINUOUS
 62
             7
100
AcDbCircle
 10
25.0
 20
-89.5
 40
4.0
100
AcDbArc
 50
-90.0
 51
0.0
  0
ARC
  5
C3
100
AcDbEntity
  8
LC-004-002-RND-0
  6
CONTINUOUS
 62
             7
100
AcDbCircle
 10
13.0
 20
89.5
 40
4.0
100
AcDbArc
 50
90.0
 51
180.0
  0
ARC
  5
C2
100
AcDbEntity
  8
LC-004-002-RND-0
  6
CONTINUOUS
 62
             7
100
AcDbCircle
 10
25.0
 20
89.5
 40
4.0
100
AcDbArc
 50
0.0
 51
90.0
  0
ARC
  5
C1
100
AcDbEntity
  8
LC-004-002-RND-0
  6
CONTINUOUS
 62
             7
100
AcDbCircle
 10
126.0092080000001
 20
-95.099244
 40
4.00000000000051
100
AcDbArc
 50
-89.99965999996884
 51
0.0
  0
ARC
  5
C0
100
AcDbEntity
  8
LC-004-002-RND-0
  6
CONTINUOUS
 62
             7
100
AcDbCircle
 10
130.50920800000009
 20
-94.60000500000001
 40
0.50000000000015
100
AcDbArc
 50
89.99995499990428
 51
180.0
  0
ARC
  5
BF
100
AcDbEntity
  8
LC-004-002-RND-0
  6
CONTINUOUS
 62
             7
100
AcDbCircle
 10
95.45554500000003
 20
-95.09940799999993
 40
4.00000000000051
100
AcDbArc
 50
-179.00027299999411
 51
-89.99967699999941
  0
ARC
  5
BE
100
AcDbEntity
  8
LC-004-002-RND-0
  6
CONTINUOUS
 62
             7
100
AcDbCircle
 10
275.86268000000013
 20
122.39963400000001
 40
2.0
100
AcDbArc
 50
0.0
 51
90.0
  0
ARC
  5
BD
100
AcDbEntity
  8
LC-004-002-RND-0
  6
CONTINUOUS
 62
             7
100
AcDbCircle
 10
87.45349000000005
 20
115.89963400000001
 40
3.5
100
AcDbArc
 50
90.0
 51
177.99999999999619
  0
ARC
  5
BC
100
AcDbEntity
  8
LC-004-002-RND-0
  6
CONTINUOUS
 62
             7
100
AcDbCircle
 10
291.54580800000002
 20
115.89963400000001
 40
3.50000000000316
100
AcDbArc
 50
2.00000000000207
 51
90.0
  0
ARC
  5
BB
100
AcDbEntity
  8
LC-004-002-RND-0
  6
CONTINUOUS
 62
             7
100
AcDbCircle
 10
99.93217500000003
 20
122.39963400000001
 40
2.0
100
AcDbArc
 50
90.0
 51
180.0
  0
ARC
  5
BA
100
AcDbEntity
  8
LC-004-002-RND-0
  6
CONTINUOUS
 62
             7
100
AcDbCircle
 10
137.49981
 20
95.39963399999999
 40
0.5
100
AcDbArc
 50
-90.0
 51
0.0
  0
ARC
  5
B9
100
AcDbEntity
  8
LC-004-002-RND-0
  6
CONTINUOUS
 62
             7
100
AcDbCircle
 10
118.49981
 20
95.39963399999999
 40
0.5
100
AcDbArc
 50
180.0
 51
-90.0
  0
ARC
  5
B8
100
AcDbEntity
  8
LC-004-002-RND-0
  6
CONTINUOUS
 62
             7
100
AcDbCircle
 10
118.49981
 20
102.39963400000001
 40
0.5
100
AcDbArc
 50
90.0
 51
180.0
  0
ARC
  5
B7
100
AcDbEntity
  8
LC-004-002-RND-0
  6
CONTINUOUS
 62
             7
100
AcDbCircle
 10
137.49981
 20
102.39963400000001
 40
0.5
100
AcDbArc
 50
0.0
 51
90.0
  0
ARC
  5
B6
100
AcDbEntity
  8
LC-004-002-RND-0
  6
CONTINUOUS
 62
             7
100
AcDbCircle
 10
118.49981
 20
110.39963400000001
 40
0.5
100
AcDbArc
 50
90.0
 51
180.0
  0
ARC
  5
B5
100
AcDbEntity
  8
LC-004-002-RND-0
  6
CONTINUOUS
 62
             7
100
AcDbCircle
 10
137.49981
 20
110.39963400000001
 40
0.5
100
AcDbArc
 50
0.0
 51
90.0
  0
ARC
  5
B4
100
AcDbEntity
  8
LC-004-002-RND-0
  6
CONTINUOUS
 62
             7
100
AcDbCircle
 10
118.49981
 20
103.39963400000001
 40
0.5
100
AcDbArc
 50
180.0
 51
-90.0
  0
ARC
  5
B3
100
AcDbEntity
  8
LC-004-002-RND-0
  6
CONTINUOUS
 62
             7
100
AcDbCircle
 10
137.49981
 20
103.39963400000001
 40
0.5
100
AcDbArc
 50
-90.0
 51
0.0
  0
ARC
  5
B2
100
AcDbEntity
  8
LC-003-002-----0
  6
CONTINUOUS
 62
             7
100
AcDbCircle
 10
128.00517500000001
 20
81.64330500000006
 40
61.75632799999882
100
AcDbArc
 50
71.2847010000027
 51
108.72565599999976
  0
ARC
  5
B1
100
AcDbEntity
  8
LC-003-002-----0
  6
CONTINUOUS
 62
             7
100
AcDbCircle
 10
117.06920599999999
 20
158.01334299999999
 40
24.35759900000039
100
AcDbArc
 50
-113.13242600000014
 51
-69.74244700000814
  0
ARC
  5
B0
100
AcDbEntity
  8
LC-003-002-----0
  6
CONTINUOUS
 62
             7
100
AcDbCircle
 10
138.930757
 20
158.01345900000001
 40
24.35759899999915
100
AcDbArc
 50
-110.25759099999135
 51
-66.86761099998988
  0
ARC
  5
AF
100
AcDbEntity
  8
LC-003-002-----0
  6
CONTINUOUS
 62
             7
100
AcDbCircle
 10
147.49980999999991
 20
139.18712000000011
 40
1.0
100
AcDbArc
 50
0.0
 51
71.28470000020099
  0
ARC
  5
AE
100
AcDbEntity
  8
LC-003-002-----0
  6
CONTINUOUS
 62
             7
100
AcDbCircle
 10
138.933312
 20
116.783377
 40
24.35759899999862
100
AcDbArc
 50
66.87414800000954
 51
110.25728699999843
  0
ARC
  5
AD
100
AcDbEntity
  8
LC-003-002-----0
  6
CONTINUOUS
 62
             7
100
AcDbCircle
 10
108.500137
 20
135.60352599999999
 40
1.00000000000021
100
AcDbArc
 50
179.99996299998878
 51
-110.00011399998705
  0
ARC
  5
AC
100
AcDbEntity
  8
LC-003-002-----0
  6
CONTINUOUS
 62
             7
100
AcDbCircle
 10
108.50014
 20
139.18359599999999
 40
1.00000000000029
100
AcDbArc
 50
108.72563699997953
 51
179.99996299998878
  0
ARC
  5
AB
100
AcDbEntity
  8
LC-003-002-----0
  6
CONTINUOUS
 62
             7
100
AcDbCircle
 10
147.49980999999991
 20
135.60363600000011
 40
0.99999999999925
100
AcDbArc
 50
-69.99986700009332
 51
0.0
  0
ARC
  5
AA
100
AcDbEntity
  8
LC-003-002-----0
  6
CONTINUOUS
 62
             7
100
AcDbCircle
 10
117.06662300000011
 20
116.783261
 40
24.35759899999924
100
AcDbArc
 50
69.7426760000028
 51
113.12581500000007
  0
ARC
  5
A9
100
AcDbEntity
  8
LC-004-002-RND-0
  6
CONTINUOUS
 62
             7
100
AcDbCircle
 10
260.49982000000011
 20
94.89955299999997
 40
0.5
100
AcDbArc
 50
-90.0
 51
0.0
  0
ARC
  5
A8
100
AcDbEntity
  8
LC-004-002-RND-0
  6
CONTINUOUS
 62
             7
100
AcDbCircle
 10
241.49982000000011
 20
94.89955299999997
 40
0.5
100
AcDbArc
 50
180.0
 51
-90.0
  0
ARC
  5
A7
100
AcDbEntity
  8
LC-004-002-RND-0
  6
CONTINUOUS
 62
             7
100
AcDbCircle
 10
241.49982000000011
 20
101.899553
 40
0.5
100
AcDbArc
 50
90.0
 51
180.0
  0
ARC
  5
A6
100
AcDbEntity
  8
LC-004-002-RND-0
  6
CONTINUOUS
 62
             7
100
AcDbCircle
 10
260.49982000000011
 20
101.899553
 40
0.5
100
AcDbArc
 50
0.0
 51
90.0
  0
ARC
  5
A5
100
AcDbEntity
  8
LC-004-002-RND-0
  6
CONTINUOUS
 62
             7
100
AcDbCircle
 10
241.49982000000011
 20
109.899553
 40
0.5
100
AcDbArc
 50
90.0
 51
180.0
  0
ARC
  5
A4
100
AcDbEntity
  8
LC-004-002-RND-0
  6
CONTINUOUS
 62
             7
100
AcDbCircle
 10
260.49982000000011
 20
109.899553
 40
0.5
100
AcDbArc
 50
0.0
 51
90.0
  0
ARC
  5
A3
100
AcDbEntity
  8
LC-004-002-RND-0
  6
CONTINUOUS
 62
             7
100
AcDbCircle
 10
241.49982000000011
 20
102.899553
 40
0.5
100
AcDbArc
 50
180.0
 51
-90.0
  0
ARC
  5
A2
100
AcDbEntity
  8
LC-004-002-RND-0
  6
CONTINUOUS
 62
             7
100
AcDbCircle
 10
260.49982000000011
 20
102.899553
 40
0.5
100
AcDbArc
 50
-90.0
 51
0.0
  0
ARC
  5
A1
100
AcDbEntity
  8
LC-003-002-----0
  6
CONTINUOUS
 62
             7
100
AcDbCircle
 10
251.0051850000001
 20
81.14322500000003
 40
61.75632799999879
100
AcDbArc
 50
71.28470100000256
 51
108.725655999998
  0
ARC
  5
A0
100
AcDbEntity
  8
LC-003-002-----0
  6
CONTINUOUS
 62
             7
100
AcDbCircle
 10
240.0692150000001
 20
157.51326300000011
 40
24.35759900000057
100
AcDbArc
 50
-113.13242600000046
 51
-69.74244700000826
  0
ARC
  5
9F
100
AcDbEntity
  8
LC-003-002-----0
  6
CONTINUOUS
 62
             7
100
AcDbCircle
 10
261.93076600000012
 20
157.51337799999999
 40
24.35759899999924
100
AcDbArc
 50
-110.25759099999213
 51
-66.86761099999038
  0
ARC
  5
9E
100
AcDbEntity
  8
LC-003-002-----0
  6
CONTINUOUS
 62
             7
100
AcDbCircle
 10
270.49982000000011
 20
138.68704
 40
1.0
100
AcDbArc
 50
0.0
 51
71.28470000021387
  0
ARC
  5
9D
100
AcDbEntity
  8
LC-003-002-----0
  6
CONTINUOUS
 62
             7
100
AcDbCircle
 10
261.93332100000009
 20
116.28329600000001
 40
24.35759899999851
100
AcDbArc
 50
66.87414800001017
 51
110.25728699999836
  0
ARC
  5
9C
100
AcDbEntity
  8
LC-003-002-----0
  6
CONTINUOUS
 62
             7
100
AcDbCircle
 10
231.50014700000011
 20
135.10344599999999
 40
1.00000000000021
100
AcDbArc
 50
179.99996299998878
 51
-110.00011400010104
  0
ARC
  5
9B
100
AcDbEntity
  8
LC-003-002-----0
  6
CONTINUOUS
 62
             7
100
AcDbCircle
 10
231.50014900000011
 20
138.68351600000011
 40
0.99999999999954
100
AcDbArc
 50
108.7256369998729
 51
179.99996299999694
  0
ARC
  5
9A
100
AcDbEntity
  8
LC-003-002-----0
  6
CONTINUOUS
 62
             7
100
AcDbCircle
 10
270.49982000000011
 20
135.103556
 40
0.99999999999919
100
AcDbArc
 50
-69.99986700010251
 51
0.0
  0
ARC
  5
99
100
AcDbEntity
  8
LC-003-002-----0
  6
CONTINUOUS
 62
             7
100
AcDbCircle
 10
240.066633
 20
116.283181
 40
24.35759899999928
100
AcDbArc
 50
69.74267600000256
 51
113.12581499999771
  0
ARC
  5
98
100
AcDbEntity
  8
LC-003-002-----0
  6
CONTINUOUS
 62
             7
100
AcDbCircle
 10
251.0051850000001
 20
81.14322500000003
 40
61.75632799999879
100
AcDbArc
 50
71.28470100000256
 51
108.725655999998
  0
LINE
  5
97
100
AcDbEntity
  8
LC-003-002-----0
  6
CONTINUOUS
 62
             7
100
AcDbLine
 10
1.0
 20
81.0
 11
1.0
 21
-81.0
  0
LINE
  5
96
100
AcDbEntity
  8
LC-003-002-----0
  6
CONTINUOUS
 62
             7
100
AcDbLine
 10
369.99967800000002
 20
68.50002799999993
 11
375.99967800000002
 21
66.89233300000001
  0
LINE
  5
95
100
AcDbEntity
  8
LC-003-002-----0
  6
CONTINUOUS
 62
             7
100
AcDbLine
 10
369.99974144483292
 20
-91.49995499999926
 11
375.99967800000002
 21
-89.89227600000004
  0
LINE
  5
94
100
AcDbEntity
  8
LC-003-002-----0
  6
CONTINUOUS
 62
             7
100
AcDbLine
 10
290.40096699999992
 20
68.50002799999993
 11
369.99967800000002
 21
68.50002799999993
  0
LINE
  5
93
100
AcDbEntity
  8
LC-003-002-----0
  6
CONTINUOUS
 62
             7
100
AcDbLine
 10
91.27433500000007
 20
-84.75
 11
29.0
 21
-84.75
  0
LINE
  5
92
100
AcDbEntity
  8
LC-003-002-----0
  6
CONTINUOUS
 62
             7
100
AcDbLine
 10
9.0
 20
89.5
 11
9.0
 21
-85.0
  0
LINE
  5
91
100
AcDbEntity
  8
LC-003-002-----0
  6
CONTINUOUS
 62
             7
100
AcDbLine
 10
9.0
 20
-89.5
 11
9.0
 21
-85.0
  0
LINE
  5
90
100
AcDbEntity
  8
LC-003-002-----0
  6
CONTINUOUS
 62
             7
100
AcDbLine
 10
130.00920800000009
 20
-94.60000500000001
 11
130.00920800000009
 21
-95.099244
  0
LINE
  5
8F
100
AcDbEntity
  8
LC-003-002-----0
  6
CONTINUOUS
 62
             7
100
AcDbLine
 10
130.50920900000011
 20
-94.10000600000001
 11
286.57909730228852
 21
-94.10012600000016
  0
LINE
  5
8E
100
AcDbEntity
  8
LC-003-002-----0
  6
CONTINUOUS
 62
             7
100
AcDbLine
 10
95.45556699999997
 20
-99.09940799999993
 11
126.017454
 21
-99.09923600000002
  0
LINE
  5
8D
100
AcDbEntity
  8
LC-003-002-----0
  6
CONTINUOUS
 62
             7
100
AcDbLine
 10
29.0
 20
-84.75
 11
29.0
 21
89.5
  0
LINE
  5
8C
100
AcDbEntity
  8
LC-003-002-----0
  6
CONTINUOUS
 62
             7
100
AcDbLine
 10
290.99952300000012
 20
102.900628
 11
287.57894584938919
 21
-93.11757364738986
  0
LINE
  5
8B
100
AcDbEntity
  8
LC-003-002-----0
  6
CONTINUOUS
 62
             7
100
AcDbLine
 10
29.0
 20
-84.75
 11
29.0
 21
-89.5
  0
LINE
  5
8A
100
AcDbEntity
  8
LC-003-002-----0
  6
CONTINUOUS
 62
             7
100
AcDbLine
 10
1.0
 20
-85.0
 11
1.0
 21
-81.0
  0
LINE
  5
89
100
AcDbEntity
  8
LC-003-002-----0
  6
CONTINUOUS
 62
             7
100
AcDbLine
 10
25.0
 20
-93.5
 11
13.0
 21
-93.5
  0
LINE
  5
88
100
AcDbEntity
  8
LC-003-002-----0
  6
CONTINUOUS
 62
             7
100
AcDbLine
 10
91.27433500000007
 20
-84.75
 11
91.45615399999997
 21
-95.16919799999994
  0
LINE
  5
87
100
AcDbEntity
  8
LC-003-002-----0
  6
CONTINUOUS
 62
             7
100
AcDbLine
 10
25.0
 20
93.5
 11
13.0
 21
93.5
  0
LINE
  5
86
100
AcDbEntity
  8
LC-003-002-----0
  6
CONTINUOUS
 62
             7
100
AcDbLine
 10
88.34833700000002
 20
84.75
 11
29.0
 21
84.75
  0
LINE
  5
85
100
AcDbEntity
  8
LC-003-002-----0
  6
CONTINUOUS
 62
             7
100
AcDbLine
 10
9.0
 20
-85.0
 11
1.0
 21
-85.0
  0
LINE
  5
84
100
AcDbEntity
  8
LC-003-002-----0
  6
CONTINUOUS
 62
             7
100
AcDbLine
 10
1.0
 20
85.0
 11
1.0
 21
81.0
  0
LINE
  5
83
100
AcDbEntity
  8
LC-003-002-----0
  6
CONTINUOUS
 62
             7
100
AcDbLine
 10
375.99967800000002
 20
66.89233300000001
 11
375.99967800000002
 21
-89.89227600000004
  0
LINE
  5
82
100
AcDbEntity
  8
LC-003-002-----0
  6
CONTINUOUS
 62
             7
100
AcDbLine
 10
287.60717299999999
 20
-91.49997199999996
 11
369.99967800000002
 21
-91.49995500001234
  0
LINE
  5
81
100
AcDbEntity
  8
LC-003-002-----0
  6
CONTINUOUS
 62
             7
100
AcDbLine
 10
9.0
 20
85.0
 11
1.0
 21
85.0
  0
LINE
  5
80
100
AcDbEntity
  8
LC-003-002-----0
  6
CONTINUOUS
 62
             7
100
AcDbLine
 10
87.99979200000007
 20
102.89963
 11
91.27433500000007
 21
-84.75
  0
LINE
  5
7F
100
AcDbEntity
  8
LC-005-005-----0
  6
DASHDOT
 62
             2
100
AcDbLine
 10
127.99981
 20
69.46695999999997
 11
127.99981
 21
143.39963399999999
  0
LINE
  5
7E
100
AcDbEntity
  8
LC-005-005-----0
  6
DASHDOT
 62
             2
100
AcDbLine
 10
250.99982000000011
 20
68.96687999999995
 11
250.99982000000011
 21
142.89955399999999
  0
LINE
  5
7D
100
AcDbEntity
  8
LC-004-002-RND-0
  6
CONTINUOUS
 62
             7
100
AcDbLine
 10
295.50191100000001
 20
102.89963400000001
 11
295.043676
 21
116.021782
  0
LINE
  5
7C
100
AcDbEntity
  8
LC-004-002-RND-0
  6
CONTINUOUS
 62
             7
100
AcDbLine
 10
86.80736899999999
 20
102.89963400000001
 11
295.48445099999998
 21
102.89963400000001
  0
LINE
  5
7B
100
AcDbEntity
  8
LC-004-002-RND-0
  6
CONTINUOUS
 62
             7
100
AcDbLine
 10
277.86268000000013
 20
119.39963400000001
 11
260.49982000000011
 21
119.39963400000001
  0
LINE
  5
7A
100
AcDbEntity
  8
LC-004-002-RND-0
  6
CONTINUOUS
 62
             7
100
AcDbLine
 10
275.86268000000013
 20
124.39963400000001
 11
260.49982000000011
 21
124.39963400000001
  0
LINE
  5
79
100
AcDbEntity
  8
LC-004-002-RND-0
  6
CONTINUOUS
 62
             7
100
AcDbLine
 10
86.80736899999999
 20
102.89963400000001
 11
83.49738700000006
 21
102.89963400000001
  0
LINE
  5
78
100
AcDbEntity
  8
LC-004-002-RND-0
  6
CONTINUOUS
 62
             7
100
AcDbLine
 10
277.86268000000013
 20
119.39963400000001
 11
277.86268000000013
 21
122.39963400000001
  0
LINE
  5
77
100
AcDbEntity
  8
LC-004-002-RND-0
  6
CONTINUOUS
 62
             7
100
AcDbLine
 10
277.86268000000013
 20
119.39963400000001
 11
291.54580800000002
 21
119.39963400000001
  0
LINE
  5
76
100
AcDbEntity
  8
LC-004-002-RND-0
  6
CONTINUOUS
 62
             7
100
AcDbLine
 10
97.93217500000003
 20
119.39963400000001
 11
97.93217500000003
 21
122.39963400000001
  0
LINE
  5
75
100
AcDbEntity
  8
LC-004-002-RND-0
  6
CONTINUOUS
 62
             7
100
AcDbLine
 10
83.49738700000006
 20
102.89963400000001
 11
83.95562200000001
 21
116.021782
  0
LINE
  5
74
100
AcDbEntity
  8
LC-003-002-----0
  6
CONTINUOUS
 62
             7
100
AcDbLine
 10
130.50920900000011
 20
-94.10000500000001
 11
130.50920900000011
 21
-3.09999900000002
  0
LINE
  5
73
100
AcDbEntity
  8
LC-003-002-----0
  6
CONTINUOUS
 62
             7
100
AcDbLine
 10
369.99967800000002
 20
68.50002799999993
 11
369.99967800000002
 21
-91.49995500001234
  0
LINE
  5
72
100
AcDbEntity
  8
LC-003-002-----0
  6
CONTINUOUS
 62
             7
100
AcDbLine
 10
126.496269
 20
94.89963399999999
 11
126.496269
 21
69.46695999999997
  0
LINE
  5
71
100
AcDbEntity
  8
LC-003-002-----0
  6
CONTINUOUS
 62
             7
100
AcDbLine
 10
118.49981
 20
94.89963399999999
 11
137.49981
 21
94.89963399999999
  0
LINE
  5
70
100
AcDbEntity
  8
LC-003-002-----0
  6
CONTINUOUS
 62
             7
100
AcDbLine
 10
117.99981
 20
102.39963400000001
 11
117.99981
 21
95.39963399999999
  0
LINE
  5
6F
100
AcDbEntity
  8
LC-003-002-----0
  6
CONTINUOUS
 62
             7
100
AcDbLine
 10
137.99981
 20
95.39963399999999
 11
137.99981
 21
102.39963400000001
  0
LINE
  5
6E
100
AcDbEntity
  8
LC-003-002-----0
  6
CONTINUOUS
 62
             7
100
AcDbLine
 10
118.500134
 20
110.89964000000001
 11
137.49981
 21
110.899627
  0
LINE
  5
6D
100
AcDbEntity
  8
LC-003-002-----0
  6
CONTINUOUS
 62
             7
100
AcDbLine
 10
129.49626900000001
 20
94.89963399999999
 11
129.49626900000001
 21
69.46695999999997
  0
LINE
  5
6C
100
AcDbEntity
  8
LC-003-002-----0
  6
CONTINUOUS
 62
             7
100
AcDbLine
 10
126.496269
 20
69.46695999999997
 11
129.49626900000001
 21
69.46695999999997
  0
LINE
  5
6B
100
AcDbEntity
  8
LC-003-002-----0
  6
CONTINUOUS
 62
             7
100
AcDbLine
 10
118.49981
 20
110.89963400000001
 11
137.49981
 21
110.89963400000001
  0
LINE
  5
6A
100
AcDbEntity
  8
LC-003-002-----0
  6
CONTINUOUS
 62
             7
100
AcDbLine
 10
137.99981
 20
103.39963400000001
 11
137.99981
 21
110.39963400000001
  0
LINE
  5
69
100
AcDbEntity
  8
LC-003-002-----0
  6
CONTINUOUS
 62
             7
100
AcDbLine
 10
117.99981
 20
103.39963400000001
 11
117.99981
 21
110.39963400000001
  0
LINE
  5
68
100
AcDbEntity
  8
LC-003-002-----0
  6
CONTINUOUS
 62
             7
100
AcDbLine
 10
107.500137
 20
135.60352700000001
 11
107.50014
 21
139.18359599999999
  0
LINE
  5
67
100
AcDbEntity
  8
LC-003-002-----0
  6
CONTINUOUS
 62
             7
100
AcDbLine
 10
130.500137
 20
135.16381899999999
 11
125.52047899999999
 21
135.16382300000001
  0
LINE
  5
66
100
AcDbEntity
  8
LC-003-002-----0
  6
CONTINUOUS
 62
             7
100
AcDbLine
 10
125.500137
 20
135.16382300000001
 11
125.50014
 21
139.634266
  0
LINE
  5
65
100
AcDbEntity
  8
LC-003-002-----0
  6
CONTINUOUS
 62
             7
100
AcDbLine
 10
130.50013999999999
 20
139.634263
 11
125.50014
 21
139.634266
  0
LINE
  5
64
100
AcDbEntity
  8
LC-003-002-----0
  6
CONTINUOUS
 62
             7
100
AcDbLine
 10
130.500137
 20
135.16381899999999
 11
130.50013999999999
 21
139.634263
  0
LINE
  5
63
100
AcDbEntity
  8
LC-003-002-----0
  6
CONTINUOUS
 62
             7
100
AcDbLine
 10
137.49981
 20
130.899756
 11
147.8418310000001
 21
134.66394299999999
  0
LINE
  5
62
100
AcDbEntity
  8
LC-003-002-----0
  6
CONTINUOUS
 62
             7
100
AcDbLine
 10
137.49981
 20
130.899756
 11
127.99981
 21
130.899756
  0
LINE
  5
61
100
AcDbEntity
  8
LC-003-002-----0
  6
CONTINUOUS
 62
             7
100
AcDbLine
 10
118.500134
 20
130.89964000000001
 11
108.1581170000001
 21
134.66383400000001
  0
LINE
  5
60
100
AcDbEntity
  8
LC-003-002-----0
  6
CONTINUOUS
 62
             7
100
AcDbLine
 10
118.500134
 20
130.89964000000001
 11
128.000134
 21
130.89963399999999
  0
LINE
  5
5F
100
AcDbEntity
  8
LC-003-002-----0
  6
CONTINUOUS
 62
             7
100
AcDbLine
 10
137.49981
 20
110.899627
 11
137.49981
 21
130.899756
  0
LINE
  5
5E
100
AcDbEntity
  8
LC-003-002-----0
  6
CONTINUOUS
 62
             7
100
AcDbLine
 10
148.49980999999991
 20
135.60363600000011
 11
148.49980999999991
 21
139.18712000000011
  0
LINE
  5
5D
100
AcDbEntity
  8
LC-003-002-----0
  6
CONTINUOUS
 62
             7
100
AcDbLine
 10
118.50012099999999
 20
110.89964000000001
 11
118.500134
 21
130.89964000000001
  0
LINE
  5
5C
100
AcDbEntity
  8
LC-003-002-----0
  6
CONTINUOUS
 62
             7
100
AcDbLine
 10
249.49627799999999
 20
94.39955299999997
 11
249.49627799999999
 21
68.96687999999995
  0
LINE
  5
5B
100
AcDbEntity
  8
LC-003-002-----0
  6
CONTINUOUS
 62
             7
100
AcDbLine
 10
241.49982000000011
 20
94.39955299999997
 11
260.49982000000011
 21
94.39955299999997
  0
LINE
  5
5A
100
AcDbEntity
  8
LC-003-002-----0
  6
CONTINUOUS
 62
             7
100
AcDbLine
 10
240.99982000000011
 20
101.899553
 11
240.99982000000011
 21
94.89955299999997
  0
LINE
  5
59
100
AcDbEntity
  8
LC-003-002-----0
  6
CONTINUOUS
 62
             7
100
AcDbLine
 10
260.99982000000011
 20
94.89955299999997
 11
260.99982000000011
 21
101.899553
  0
LINE
  5
58
100
AcDbEntity
  8
LC-003-002-----0
  6
CONTINUOUS
 62
             7
100
AcDbLine
 10
241.50014400000001
 20
110.39955999999999
 11
260.49982000000011
 21
110.399547
  0
LINE
  5
57
100
AcDbEntity
  8
LC-003-002-----0
  6
CONTINUOUS
 62
             7
100
AcDbLine
 10
252.49627799999999
 20
94.39955299999997
 11
252.49627799999999
 21
68.96687999999995
  0
LINE
  5
56
100
AcDbEntity
  8
LC-003-002-----0
  6
CONTINUOUS
 62
             7
100
AcDbLine
 10
249.49627799999999
 20
68.96687999999995
 11
252.49627799999999
 21
68.96687999999995
  0
LINE
  5
55
100
AcDbEntity
  8
LC-003-002-----0
  6
CONTINUOUS
 62
             7
100
AcDbLine
 10
241.49982000000011
 20
110.399553
 11
260.49982000000011
 21
110.399553
  0
LINE
  5
54
100
AcDbEntity
  8
LC-003-002-----0
  6
CONTINUOUS
 62
             7
100
AcDbLine
 10
260.99982000000011
 20
102.899553
 11
260.99982000000011
 21
109.899553
  0
LINE
  5
53
100
AcDbEntity
  8
LC-003-002-----0
  6
CONTINUOUS
 62
             7
100
AcDbLine
 10
240.99982000000011
 20
102.899553
 11
240.99982000000011
 21
109.899553
  0
LINE
  5
52
100
AcDbEntity
  8
LC-003-002-----0
  6
CONTINUOUS
 62
             7
100
AcDbLine
 10
230.50014700000011
 20
135.10344699999999
 11
230.50014900000011
 21
138.68351600000011
  0
LINE
  5
51
100
AcDbEntity
  8
LC-003-002-----0
  6
CONTINUOUS
 62
             7
100
AcDbLine
 10
253.500146
 20
134.66373899999999
 11
248.520488
 21
134.66374200000001
  0
LINE
  5
50
100
AcDbEntity
  8
LC-003-002-----0
  6
CONTINUOUS
 62
             7
100
AcDbLine
 10
248.500146
 20
134.66374200000001
 11
248.50014900000011
 21
139.134186
  0
LINE
  5
4F
100
AcDbEntity
  8
LC-003-002-----0
  6
CONTINUOUS
 62
             7
100
AcDbLine
 10
253.50014900000011
 20
139.13418300000001
 11
248.50014900000011
 21
139.134186
  0
LINE
  5
4E
100
AcDbEntity
  8
LC-003-002-----0
  6
CONTINUOUS
 62
             7
100
AcDbLine
 10
253.500146
 20
134.66373899999999
 11
253.50014900000011
 21
139.13418300000001
  0
LINE
  5
4D
100
AcDbEntity
  8
LC-003-002-----0
  6
CONTINUOUS
 62
             7
100
AcDbLine
 10
260.49982000000011
 20
130.399676
 11
270.84183999999988
 21
134.16386299999999
  0
LINE
  5
4C
100
AcDbEntity
  8
LC-003-002-----0
  6
CONTINUOUS
 62
             7
100
AcDbLine
 10
260.49982000000011
 20
130.399676
 11
250.99982000000011
 21
130.399676
  0
LINE
  5
4B
100
AcDbEntity
  8
LC-003-002-----0
  6
CONTINUOUS
 62
             7
100
AcDbLine
 10
241.50014400000001
 20
130.39956000000001
 11
231.1581259999999
 21
134.16375400000001
  0
LINE
  5
4A
100
AcDbEntity
  8
LC-003-002-----0
  6
CONTINUOUS
 62
             7
100
AcDbLine
 10
241.50014400000001
 20
130.39956000000001
 11
251.00014400000001
 21
130.399553
  0
LINE
  5
49
100
AcDbEntity
  8
LC-003-002-----0
  6
CONTINUOUS
 62
             7
100
AcDbLine
 10
260.49982000000011
 20
110.399547
 11
260.49982000000011
 21
130.399676
  0
LINE
  5
48
100
AcDbEntity
  8
LC-003-002-----0
  6
CONTINUOUS
 62
             7
100
AcDbLine
 10
271.49982000000011
 20
135.103556
 11
271.49982000000011
 21
138.68704
  0
LINE
  5
47
100
AcDbEntity
  8
LC-003-002-----0
  6
CONTINUOUS
 62
             7
100
AcDbLine
 10
241.5001310000001
 20
110.39955999999999
 11
241.50014400000001
 21
130.39956000000001
  0
LINE
  5
46
100
AcDbEntity
  8
LC-004-002-RND-0
  6
CONTINUOUS
 62
             7
100
AcDbLine
 10
118.50013
 20
124.39963400000001
 11
99.93217500000003
 21
124.39963400000001
  0
LINE
  5
45
100
AcDbEntity
  8
LC-004-002-RND-0
  6
CONTINUOUS
 62
             7
100
AcDbLine
 10
118.50012700000001
 20
119.39963400000001
 11
87.45349000000005
 21
119.39963400000001
  0
LINE
  5
44
100
AcDbEntity
  8
LC-004-002-RND-0
  6
CONTINUOUS
 62
             7
100
AcDbLine
 10
241.50013999999999
 20
124.39963400000001
 11
137.49981
 21
124.39963400000001
  0
LINE
  5
43
100
AcDbEntity
  8
LC-004-002-RND-0
  6
CONTINUOUS
 62
             7
100
AcDbLine
 10
241.500136
 20
119.39963400000001
 11
137.49981
 21
119.39963400000001
  0
LINE
  5
42
100
AcDbEntity
  8
1
  6
CONTINUOUS
 62
             3
100
AcDbLine
 10
13.0
 20
-89.5
 11
13.0
 21
89.5
  0
LINE
  5
41
100
AcDbEntity
  8
1
  6
CONTINUOUS
 62
             3
100
AcDbLine
 10
25.0
 20
89.5
 11
25.0
 21
-89.5
  0
LINE
  5
40
100
AcDbEntity
  8
1
  6
PHANTOM
 62
             2
100
AcDbLine
 10
137.89837443978601
 20
0.0
 11
-4.96362980473255
 21
0.0
  0
LINE
  5
3F
100
AcDbEntity
  8
1
  6
PHANTOM
 62
             2
100
AcDbLine
 10
281.12575358696489
 20
-11.49997266865245
 11
382.33115980410008
 21
-11.49996222783244
  0
LINE
  5
3E
100
AcDbEntity
  8
1
  6
DOT_CENTER
 62
             2
100
AcDbLine
 10
-5.0
 20
80.0
 11
-2.0
 21
80.0
  0
LINE
  5
3D
100
AcDbEntity
  8
1
  6
DOT_CENTER
 62
             2
100
AcDbLine
 10
-5.0
 20
-80.0
 11
-2.0
 21
-80.0
  0
POINT
  5
3C
100
AcDbEntity
  8
LC-007-003-----0
 62
             7
100
AcDbPoint
 10
369.99969599999997
 20
-91.49995199999989
  0
POINT
  5
3B
100
AcDbEntity
  8
LC-007-003-----0
 62
             7
100
AcDbPoint
 10
369.99967800000002
 20
68.50002799999993
  0
POINT
  5
3A
100
AcDbEntity
  8
LC-007-003-----0
 62
             7
100
AcDbPoint
 10
1.0
 20
-81.0
  0
POINT
  5
39
100
AcDbEntity
  8
LC-007-003-----0
 62
             7
100
AcDbPoint
 10
96.29598399999998
 20
0.0
  0
POINT
  5
38
100
AcDbEntity
  8
LC-007-003-----0
 62
             7
100
AcDbPoint
 10
83.49738700000006
 20
102.89963400000001
  0
POINT
  5
37
100
AcDbEntity
  8
LC-007-003-----0
 62
             7
100
AcDbPoint
 10
295.50191100000001
 20
102.89963400000001
  0
POINT
  5
36
100
AcDbEntity
  8
LC-007-003-----0
 62
             7
100
AcDbPoint
 10
1.0
 20
85.0
  0
POINT
  5
35
100
AcDbEntity
  8
LC-007-003-----0
 62
             7
100
AcDbPoint
 10
1.0
 20
-83.0
  0
ENDBLK
  5
C7
100
AcDbEntity
  8
0
100
AcDbBlockEnd
  0
BLOCK
  5
30
100
AcDbEntity
  8
0
100
AcDbBlockBegin
  2
HL_715_R_CKSTAUVERSCHLS__2
 70
             0
 10
12429.2611191425
 20
16728.111835307729
 30
0.0
  3
HL_715_R_CKSTAUVERSCHLS__2
  1

  0
CIRCLE
  5
156
100
AcDbEntity
  8
LC-007-002-----0
  6
CONTINUOUS
 62
             7
100
AcDbCircle
 10
11476.857177016551
 20
15467.536693847869
 40
79.14230399998996
  0
CIRCLE
  5
155
100
AcDbEntity
  8
LC-007-002-----0
  6
CONTINUOUS
 62
             7
100
AcDbCircle
 10
11476.857177016551
 20
15467.536693847869
 40
93.5
  0
CIRCLE
  5
154
100
AcDbEntity
  8
LC-007-002-----0
  6
CONTINUOUS
 62
             7
100
AcDbCircle
 10
11476.857177016551
 20
15467.536693847869
 40
85.0
  0
CIRCLE
  5
153
100
AcDbEntity
  8
LC-007-002-----0
  6
CONTINUOUS
 62
             7
100
AcDbCircle
 10
11476.857177016551
 20
15464.436693847871
 40
73.0
  0
CIRCLE
  5
152
100
AcDbEntity
  8
LC-007-002-----0
  6
CONTINUOUS
 62
             7
100
AcDbCircle
 10
11476.857177016551
 20
15467.536693847869
 40
80.75
  0
CIRCLE
  5
151
100
AcDbEntity
  8
LC-007-002-----0
  6
CONTINUOUS
 62
             7
100
AcDbCircle
 10
11476.857177016551
 20
15467.536693847869
 40
81.0
  0
ARC
  5
150
100
AcDbEntity
  8
LC-007-002-----0
  6
CONTINUOUS
 62
             7
100
AcDbCircle
 10
11476.857177016551
 20
15466.23897884787
 40
97.80169300000249
100
AcDbArc
 50
-178.00000000000156
 51
-1.99999999999865
  0
ARC
  5
14F
100
AcDbEntity
  8
LC-006-002-RND-0
  6
CONTINUOUS
 62
             7
100
AcDbCircle
 10
11350.857177016551
 20
15562.937505847871
 40
0.5
100
AcDbArc
 50
180.0
 51
-90.0
  0
ARC
  5
14E
100
AcDbEntity
  8
LC-006-002-RND-0
  6
CONTINUOUS
 62
             7
100
AcDbCircle
 10
11602.857177016551
 20
15562.937505847871
 40
0.5
100
AcDbArc
 50
-90.0
 51
0.0
  0
ARC
  5
14D
100
AcDbEntity
  8
LC-007-002-----0
  6
CONTINUOUS
 62
             7
100
AcDbCircle
 10
11476.857177016551
 20
15456.03672184787
 40
76.09999999999653
100
AcDbArc
 50
24.62783400000617
 51
155.37216599999783
  0
ARC
  5
14C
100
AcDbEntity
  8
LC-006-002-RND-0
  6
CONTINUOUS
 62
             7
100
AcDbCircle
 10
11569.356929016551
 20
15589.93632784787
 40
2.0
100
AcDbArc
 50
0.0
 51
90.0
  0
ARC
  5
14B
100
AcDbEntity
  8
LC-006-002-RND-0
  6
CONTINUOUS
 62
             7
100
AcDbCircle
 10
11375.12101801654
 20
15583.43632784787
 40
3.5
100
AcDbArc
 50
90.0
 51
177.9999999999919
  0
ARC
  5
14A
100
AcDbEntity
  8
LC-006-002-RND-0
  6
CONTINUOUS
 62
             7
100
AcDbCircle
 10
11578.59333601654
 20
15583.43632784787
 40
3.50000000000311
100
AcDbArc
 50
2.00000000000187
 51
90.0
  0
ARC
  5
149
100
AcDbEntity
  8
LC-006-002-RND-0
  6
CONTINUOUS
 62
             7
100
AcDbCircle
 10
11384.357424016551
 20
15589.93632784787
 40
2.0
100
AcDbArc
 50
90.0
 51
180.0
  0
ARC
  5
148
100
AcDbEntity
  8
LC-006-002-RND-0
  6
CONTINUOUS
 62
             7
100
AcDbCircle
 10
11351.59763801655
 20
15578.93715884787
 40
1.00000000000495
100
AcDbArc
 50
89.99539100030763
 51
178.00000000072879
  0
ARC
  5
147
100
AcDbEntity
  8
LC-006-002-RND-0
  6
CONTINUOUS
 62
             7
100
AcDbCircle
 10
11602.116716016541
 20
15578.93715884787
 40
0.99999999999031
100
AcDbArc
 50
1.99999999929304
 51
90.00460899969237
  0
ARC
  5
146
100
AcDbEntity
  8
LC-006-002-RND-0
  6
CONTINUOUS
 62
             7
100
AcDbCircle
 10
11367.392847851779
 20
15584.185496347871
 40
4.32007845217084
100
AcDbArc
 50
-100.36765546969077
 51
-12.36304646959695
  0
ARC
  5
145
100
AcDbEntity
  8
LC-006-002-RND-0
  6
CONTINUOUS
 62
             7
100
AcDbCircle
 10
11586.321506181301
 20
15584.185496347871
 40
4.32007845216754
100
AcDbArc
 50
-167.63695353025423
 51
-79.63234453016685
  0
ARC
  5
144
100
AcDbEntity
  8
LC-007-002-----0
  6
CONTINUOUS
 62
             7
100
AcDbCircle
 10
11358.857075016551
 20
15603.68632784795
 40
1.0
100
AcDbArc
 50
180.0
 51
-89.99994200008796
  0
ARC
  5
143
100
AcDbEntity
  8
LC-007-002-----0
  6
CONTINUOUS
 62
             7
100
AcDbCircle
 10
11361.857075016551
 20
15603.68632784795
 40
1.00000000000051
100
AcDbArc
 50
-89.99994200008796
 51
0.0
  0
ARC
  5
142
100
AcDbEntity
  8
LC-007-002-----0
  6
CONTINUOUS
 62
             7
100
AcDbCircle
 10
11361.857075016551
 20
15606.68632784795
 40
1.0
100
AcDbArc
 50
0.0
 51
90.0
  0
ARC
  5
141
100
AcDbEntity
  8
LC-007-002-----0
  6
CONTINUOUS
 62
             7
100
AcDbCircle
 10
11358.857075016551
 20
15606.68632784795
 40
1.0
100
AcDbArc
 50
90.0
 51
179.99984800119367
  0
ARC
  5
140
100
AcDbEntity
  8
LC-007-002-----0
  6
CONTINUOUS
 62
             7
100
AcDbCircle
 10
11355.857075016551
 20
15606.05297984794
 40
2.0
100
AcDbArc
 50
0.0
 51
79.66010900050951
  0
ARC
  5
13F
100
AcDbEntity
  8
LC-007-002-----0
  6
CONTINUOUS
 62
             7
100
AcDbCircle
 10
11379.357075016551
 20
15604.156096847941
 40
1.99999999999119
100
AcDbArc
 50
-73.2731400000371
 51
0.0
  0
ARC
  5
13E
100
AcDbEntity
  8
LC-007-002-----0
  6
CONTINUOUS
 62
             7
100
AcDbCircle
 10
11360.357075016551
 20
15667.378924711869
 40
68.01610445435648
100
AcDbArc
 50
-106.72695105882391
 51
-73.27319705882005
  0
ARC
  5
13D
100
AcDbEntity
  8
LC-007-002-----0
  6
CONTINUOUS
 62
             7
100
AcDbCircle
 10
11379.35729201655
 20
15604.31983784795
 40
2.00000000000749
100
AcDbArc
 50
-79.66008800003583
 51
-0.00003700017569
  0
ARC
  5
13C
100
AcDbEntity
  8
LC-007-002-----0
  6
CONTINUOUS
 62
             7
100
AcDbCircle
 10
11379.357075016551
 20
15606.21655984795
 40
2.0
100
AcDbArc
 50
0.0
 51
73.27319900012459
  0
ARC
  5
13B
100
AcDbEntity
  8
LC-007-002-----0
  6
CONTINUOUS
 62
             7
100
AcDbCircle
 10
11360.357075016551
 20
15542.993721976511
 40
68.01611308073056
100
AcDbArc
 50
73.27319924265231
 51
106.7267822426556
  0
ARC
  5
13A
100
AcDbEntity
  8
LC-007-002-----0
  6
CONTINUOUS
 62
             7
100
AcDbCircle
 10
11379.35729301655
 20
15606.05314184794
 40
2.00000000000042
100
AcDbArc
 50
-0.00003699991514
 51
79.65999700017036
  0
ARC
  5
139
100
AcDbEntity
  8
LC-007-002-----0
  6
CONTINUOUS
 62
             7
100
AcDbCircle
 10
11372.107317016549
 20
15644.05672118594
 40
42.39284706907135
100
AcDbArc
 50
-100.34007627088072
 51
-79.66014327087265
  0
ARC
  5
138
100
AcDbEntity
  8
LC-007-002-----0
  6
CONTINUOUS
 62
             7
100
AcDbCircle
 10
11364.85729201655
 20
15604.31984684794
 40
2.00000000000042
100
AcDbArc
 50
179.99996300013697
 51
-100.34000500023748
  0
ARC
  5
137
100
AcDbEntity
  8
LC-007-002-----0
  6
CONTINUOUS
 62
             7
100
AcDbCircle
 10
11364.85729301655
 20
15606.05315084794
 40
2.00000000000252
100
AcDbArc
 50
100.3398350002158
 51
179.99996299982431
  0
ARC
  5
136
100
AcDbEntity
  8
LC-007-002-----0
  6
CONTINUOUS
 62
             7
100
AcDbCircle
 10
11372.107268016551
 20
15566.31625499754
 40
42.39285839451356
100
AcDbArc
 50
79.6600735278097
 51
100.33983652781582
  0
ARC
  5
135
100
AcDbEntity
  8
LC-007-002-----0
  6
CONTINUOUS
 62
             7
100
AcDbCircle
 10
11341.357075016551
 20
15604.156096847941
 40
2.0
100
AcDbArc
 50
180.0
 51
-106.72695300045761
  0
ARC
  5
134
100
AcDbEntity
  8
LC-007-002-----0
  6
CONTINUOUS
 62
             7
100
AcDbCircle
 10
11341.357075016551
 20
15606.21655984795
 40
1.99999999999197
100
AcDbArc
 50
106.72678200026556
 51
180.0
  0
ARC
  5
133
100
AcDbEntity
  8
LC-007-002-----0
  6
CONTINUOUS
 62
             7
100
AcDbCircle
 10
11341.357075016551
 20
15604.319675847941
 40
2.0
100
AcDbArc
 50
180.0
 51
-100.34004300057492
  0
ARC
  5
132
100
AcDbEntity
  8
LC-007-002-----0
  6
CONTINUOUS
 62
             7
100
AcDbCircle
 10
11348.607075016551
 20
15644.056561483891
 40
42.39285326473276
100
AcDbArc
 50
-100.33989195282665
 51
-79.66005195283577
  0
ARC
  5
131
100
AcDbEntity
  8
LC-007-002-----0
  6
CONTINUOUS
 62
             7
100
AcDbCircle
 10
11341.357075016551
 20
15606.05297984794
 40
2.00000000000892
100
AcDbArc
 50
100.33987200050086
 51
180.0
  0
ARC
  5
130
100
AcDbEntity
  8
LC-007-002-----0
  6
CONTINUOUS
 62
             7
100
AcDbCircle
 10
11348.607075016551
 20
15566.31609028423
 40
42.39285712871401
100
AcDbArc
 50
79.66010900000705
 51
100.33989100000989
  0
ARC
  5
12F
100
AcDbEntity
  8
LC-007-002-----0
  6
CONTINUOUS
 62
             7
100
AcDbCircle
 10
11355.857075016551
 20
15604.319675847941
 40
2.00000000000276
100
AcDbArc
 50
-79.66005100031919
 51
0.0
  0
ARC
  5
12E
100
AcDbEntity
  8
LC-007-002-----0
  6
CONTINUOUS
 62
             7
100
AcDbCircle
 10
11360.107075016551
 20
15669.084902667641
 40
69.58178065745437
100
AcDbArc
 50
-106.12534402198641
 51
-97.63934902198426
  0
ARC
  5
12D
100
AcDbEntity
  8
LC-007-002-----0
  6
CONTINUOUS
 62
             7
100
AcDbCircle
 10
11341.357075016551
 20
15604.156096847941
 40
2.0
100
AcDbArc
 50
180.0
 51
-106.72680100009985
  0
ARC
  5
12C
100
AcDbEntity
  8
LC-007-002-----0
  6
CONTINUOUS
 62
             7
100
AcDbCircle
 10
11341.357075016551
 20
15606.21655984795
 40
1.99999999999358
100
AcDbArc
 50
106.72680100017485
 51
180.0
  0
ARC
  5
12B
100
AcDbEntity
  8
LC-007-002-----0
  6
CONTINUOUS
 62
             7
100
AcDbCircle
 10
11360.357075016551
 20
15542.99372297735
 40
68.01611212223919
100
AcDbArc
 50
73.27319900000325
 51
106.72680100000557
  0
ARC
  5
12A
100
AcDbEntity
  8
LC-007-002-----0
  6
CONTINUOUS
 62
             7
100
AcDbCircle
 10
11379.357075016551
 20
15606.21655984795
 40
2.0
100
AcDbArc
 50
0.0
 51
73.27319900012459
  0
ARC
  5
129
100
AcDbEntity
  8
LC-007-002-----0
  6
CONTINUOUS
 62
             7
100
AcDbCircle
 10
11379.357075016551
 20
15604.156096847941
 40
1.99999999999915
100
AcDbArc
 50
-73.27319900019958
 51
0.0
  0
ARC
  5
128
100
AcDbEntity
  8
LC-007-002-----0
  6
CONTINUOUS
 62
             7
100
AcDbCircle
 10
11360.607075016551
 20
15669.084977197839
 40
69.58185225536501
100
AcDbArc
 50
-82.3604810230111
 51
-73.87467302301232
  0
ARC
  5
127
100
AcDbEntity
  8
LC-007-002-----0
  6
CONTINUOUS
 62
             7
100
AcDbCircle
 10
11594.857279016551
 20
15603.68632784795
 40
1.00000000000051
100
AcDbArc
 50
-90.00005800053737
 51
0.0
  0
ARC
  5
126
100
AcDbEntity
  8
LC-007-002-----0
  6
CONTINUOUS
 62
             7
100
AcDbCircle
 10
11591.857279016551
 20
15603.68632784795
 40
1.0
100
AcDbArc
 50
180.0
 51
-90.00005800053737
  0
ARC
  5
125
100
AcDbEntity
  8
LC-007-002-----0
  6
CONTINUOUS
 62
             7
100
AcDbCircle
 10
11591.857279016551
 20
15606.68632784795
 40
1.0
100
AcDbArc
 50
90.0
 51
180.0
  0
ARC
  5
124
100
AcDbEntity
  8
LC-007-002-----0
  6
CONTINUOUS
 62
             7
100
AcDbCircle
 10
11594.857279016551
 20
15606.68632784795
 40
0.99999999998351
100
AcDbArc
 50
0.00015199880634
 51
90.0
  0
ARC
  5
123
100
AcDbEntity
  8
LC-007-002-----0
  6
CONTINUOUS
 62
             7
100
AcDbCircle
 10
11597.857279016551
 20
15606.05297984794
 40
2.00000000000658
100
AcDbArc
 50
100.33989100010567
 51
180.0
  0
ARC
  5
122
100
AcDbEntity
  8
LC-007-002-----0
  6
CONTINUOUS
 62
             7
100
AcDbCircle
 10
11574.357279016551
 20
15604.156096847941
 40
2.0
100
AcDbArc
 50
180.0
 51
-106.72686000026233
  0
ARC
  5
121
100
AcDbEntity
  8
LC-007-002-----0
  6
CONTINUOUS
 62
             7
100
AcDbCircle
 10
11593.357279016551
 20
15667.378924711869
 40
68.01610445434974
100
AcDbArc
 50
-106.72680294118877
 51
-73.27304894118637
  0
ARC
  5
120
100
AcDbEntity
  8
LC-007-002-----0
  6
CONTINUOUS
 62
             7
100
AcDbCircle
 10
11574.35706101655
 20
15604.31983784795
 40
2.00000000000042
100
AcDbArc
 50
-179.99996299982431
 51
-100.33991200047682
  0
ARC
  5
11F
100
AcDbEntity
  8
LC-007-002-----0
  6
CONTINUOUS
 62
             7
100
AcDbCircle
 10
11574.357279016551
 20
15606.21655984795
 40
1.99999999999358
100
AcDbArc
 50
106.72680100017485
 51
180.0
  0
ARC
  5
11E
100
AcDbEntity
  8
LC-007-002-----0
  6
CONTINUOUS
 62
             7
100
AcDbCircle
 10
11593.357279016551
 20
15542.993721976511
 40
68.01611308071873
100
AcDbArc
 50
73.27321775735469
 51
106.72680075735649
  0
ARC
  5
11D
100
AcDbEntity
  8
LC-007-002-----0
  6
CONTINUOUS
 62
             7
100
AcDbCircle
 10
11574.357060016549
 20
15606.05314184794
 40
2.00000000001246
100
AcDbArc
 50
100.34000300008597
 51
-179.99996300008488
  0
ARC
  5
11C
100
AcDbEntity
  8
LC-007-002-----0
  6
CONTINUOUS
 62
             7
100
AcDbCircle
 10
11581.60703601655
 20
15644.056721185951
 40
42.39284706906862
100
AcDbArc
 50
-100.33985672912472
 51
-79.65992372913404
  0
ARC
  5
11B
100
AcDbEntity
  8
LC-007-002-----0
  6
CONTINUOUS
 62
             7
100
AcDbCircle
 10
11588.85706101655
 20
15604.31984684794
 40
1.99999999999266
100
AcDbArc
 50
-79.6599950000701
 51
0.00003699986303
  0
ARC
  5
11A
100
AcDbEntity
  8
LC-007-002-----0
  6
CONTINUOUS
 62
             7
100
AcDbCircle
 10
11588.857060016549
 20
15606.05315084794
 40
2.00000000000042
100
AcDbArc
 50
0.00003700017569
 51
79.66016500034812
  0
ARC
  5
119
100
AcDbEntity
  8
LC-007-002-----0
  6
CONTINUOUS
 62
             7
100
AcDbCircle
 10
11581.607085016551
 20
15566.31625499754
 40
42.39285839450896
100
AcDbArc
 50
79.6601634722108
 51
100.3399264722169
  0
ARC
  5
118
100
AcDbEntity
  8
LC-007-002-----0
  6
CONTINUOUS
 62
             7
100
AcDbCircle
 10
11612.357279016551
 20
15604.156096847941
 40
1.99999999999202
100
AcDbArc
 50
-73.27304700014126
 51
0.0
  0
ARC
  5
117
100
AcDbEntity
  8
LC-007-002-----0
  6
CONTINUOUS
 62
             7
100
AcDbCircle
 10
11612.357279016551
 20
15606.21655984795
 40
2.0
100
AcDbArc
 50
0.0
 51
73.27321800003388
  0
ARC
  5
116
100
AcDbEntity
  8
LC-007-002-----0
  6
CONTINUOUS
 62
             7
100
AcDbCircle
 10
11612.357279016551
 20
15604.319675847941
 40
1.9999999999965
100
AcDbArc
 50
-79.65995700004025
 51
0.0
  0
ARC
  5
115
100
AcDbEntity
  8
LC-007-002-----0
  6
CONTINUOUS
 62
             7
100
AcDbCircle
 10
11605.107279016551
 20
15644.056561483891
 40
42.39285326473754
100
AcDbArc
 50
-100.33994804719326
 51
-79.66010804719029
  0
ARC
  5
114
100
AcDbEntity
  8
LC-007-002-----0
  6
CONTINUOUS
 62
             7
100
AcDbCircle
 10
11612.357279016551
 20
15606.05297984794
 40
2.0
100
AcDbArc
 50
0.0
 51
79.66012800011433
  0
ARC
  5
113
100
AcDbEntity
  8
LC-007-002-----0
  6
CONTINUOUS
 62
             7
100
AcDbCircle
 10
11605.107279016551
 20
15566.31609028423
 40
42.39285712871401
100
AcDbArc
 50
79.66010900000705
 51
100.33989100000989
  0
ARC
  5
112
100
AcDbEntity
  8
LC-007-002-----0
  6
CONTINUOUS
 62
             7
100
AcDbCircle
 10
11597.857279016551
 20
15604.319675847941
 40
2.0
100
AcDbArc
 50
180.0
 51
-100.33994899998842
  0
ARC
  5
111
100
AcDbEntity
  8
LC-007-002-----0
  6
CONTINUOUS
 62
             7
100
AcDbCircle
 10
11593.607279016551
 20
15669.084902667641
 40
69.58178065744669
100
AcDbArc
 50
-82.36065097802614
 51
-73.87465597802223
  0
ARC
  5
110
100
AcDbEntity
  8
LC-007-002-----0
  6
CONTINUOUS
 62
             7
100
AcDbCircle
 10
11612.357279016551
 20
15604.156096847941
 40
1.999999999996
100
AcDbArc
 50
-73.27319900049902
 51
0.0
  0
ARC
  5
10F
100
AcDbEntity
  8
LC-007-002-----0
  6
CONTINUOUS
 62
             7
100
AcDbCircle
 10
11612.357279016551
 20
15606.21655984795
 40
2.0
100
AcDbArc
 50
0.0
 51
73.27319900042402
  0
ARC
  5
10E
100
AcDbEntity
  8
LC-007-002-----0
  6
CONTINUOUS
 62
             7
100
AcDbCircle
 10
11593.357279016551
 20
15542.99372297735
 40
68.01611212223919
100
AcDbArc
 50
73.27319900000325
 51
106.72680100000557
  0
ARC
  5
10D
100
AcDbEntity
  8
LC-007-002-----0
  6
CONTINUOUS
 62
             7
100
AcDbCircle
 10
11574.357279016551
 20
15606.21655984795
 40
1.99999999999358
100
AcDbArc
 50
106.72680100017485
 51
180.0
  0
ARC
  5
10C
100
AcDbEntity
  8
LC-007-002-----0
  6
CONTINUOUS
 62
             7
100
AcDbCircle
 10
11574.357279016551
 20
15604.156096847941
 40
2.0
100
AcDbArc
 50
180.0
 51
-106.72680100009985
  0
ARC
  5
10B
100
AcDbEntity
  8
LC-007-002-----0
  6
CONTINUOUS
 62
             7
100
AcDbCircle
 10
11593.107279016551
 20
15669.084977197839
 40
69.58185225536928
100
AcDbArc
 50
-106.12532697699632
 51
-97.63951897699779
  0
LINE
  5
10A
100
AcDbEntity
  8
1
  6
PHANTOM
 62
             2
100
AcDbLine
 10
11476.857177016551
 20
15607.278289479031
 11
11476.857177016551
 21
15352.90661533264
  0
LINE
  5
109
100
AcDbEntity
  8
1
  6
PHANTOM
 62
             2
100
AcDbLine
 10
11579.70717701654
 20
15467.536693847869
 11
11374.00717701655
 21
15467.536693847869
  0
LINE
  5
108
100
AcDbEntity
  8
LC-007-002-----0
  6
CONTINUOUS
 62
             7
100
AcDbLine
 10
11576.357102016549
 20
15570.437688847869
 11
11576.27851401654
 21
15571.937236847871
  0
LINE
  5
107
100
AcDbEntity
  8
LC-007-002-----0
  6
CONTINUOUS
 62
             7
100
AcDbLine
 10
11375.357177016551
 20
15570.437505847871
 11
11379.11506201655
 21
15462.82574884787
  0
LINE
  5
106
100
AcDbEntity
  8
LC-007-002-----0
  6
CONTINUOUS
 62
             7
100
AcDbLine
 10
11377.357252016551
 20
15570.437688847869
 11
11377.43584001654
 21
15571.937236847871
  0
LINE
  5
105
100
AcDbEntity
  8
LC-007-002-----0
  6
CONTINUOUS
 62
             7
100
AcDbLine
 10
11578.357177016551
 20
15570.437505847871
 11
11574.599292016541
 21
15462.82574884787
  0
LINE
  5
104
100
AcDbEntity
  8
0
  6
CONTINUOUS
 62
             7
100
AcDbLine
 10
11476.857177016551
 20
15570.43732184787
 11
11375.357183016549
 21
15570.43732184787
  0
LINE
  5
103
100
AcDbEntity
  8
0
  6
CONTINUOUS
 62
             7
100
AcDbLine
 10
11476.857177016551
 20
15570.43732184787
 11
11578.35717001655
 21
15570.43732184787
  0
LINE
  5
102
100
AcDbEntity
  8
LC-007-002-----0
  6
CONTINUOUS
 62
             7
100
AcDbLine
 10
11350.357177016551
 20
15562.937505847871
 11
11350.357177016551
 21
15570.437505847871
  0
LINE
  5
101
100
AcDbEntity
  8
LC-007-002-----0
  6
CONTINUOUS
 62
             7
100
AcDbLine
 10
11375.63654301655
 20
15562.437505847871
 11
11350.857177016551
 21
15562.437505847871
  0
LINE
  5
100
100
AcDbEntity
  8
LC-007-002-----0
  6
CONTINUOUS
 62
             7
100
AcDbLine
 10
11376.533168016549
 20
15536.76151384787
 11
11350.857177016551
 21
15562.437505847871
  0
LINE
  5
FF
100
AcDbEntity
  8
0
  6
CONTINUOUS
 62
             7
100
AcDbLine
 10
11375.357177016551
 20
15570.437505847871
 11
11350.357177016551
 21
15570.437505847871
  0
LINE
  5
FE
100
AcDbEntity
  8
LC-007-002-----0
  6
CONTINUOUS
 62
             7
100
AcDbLine
 10
11577.18118501655
 20
15536.76151384787
 11
11602.857177016551
 21
15562.437505847871
  0
LINE
  5
FD
100
AcDbEntity
  8
LC-007-002-----0
  6
CONTINUOUS
 62
             7
100
AcDbLine
 10
11578.07781101655
 20
15562.437505847871
 11
11602.857177016551
 21
15562.437505847871
  0
LINE
  5
FC
100
AcDbEntity
  8
0
  6
CONTINUOUS
 62
             7
100
AcDbLine
 10
11578.357177016551
 20
15570.437505847871
 11
11603.357177016551
 21
15570.437505847871
  0
LINE
  5
FB
100
AcDbEntity
  8
LC-007-002-----0
  6
CONTINUOUS
 62
             7
100
AcDbLine
 10
11603.357177016551
 20
15562.937505847871
 11
11603.357177016551
 21
15570.437505847871
  0
LINE
  5
FA
100
AcDbEntity
  8
LC-008-006-MLN-0
  6
CONTINUOUS
 62
             2
100
AcDbLine
 10
11360.357177016551
 20
15560.437505847871
 11
11360.357177016551
 21
15612.93632784795
  0
LINE
  5
F9
100
AcDbEntity
  8
LC-007-002-----0
  6
CONTINUOUS
 62
             7
100
AcDbLine
 10
11476.857177016551
 20
15571.937236847871
 11
11603.36176801655
 21
15571.937236847871
  0
LINE
  5
F8
100
AcDbEntity
  8
LC-007-002-----0
  6
CONTINUOUS
 62
             7
100
AcDbLine
 10
11476.857177016551
 20
15586.93632784787
 11
11375.12101801654
 21
15586.93632784787
  0
LINE
  5
F7
100
AcDbEntity
  8
LC-007-002-----0
  6
CONTINUOUS
 62
             7
100
AcDbLine
 10
11569.356929016551
 20
15591.93632784787
 11
11384.357424016551
 21
15591.93632784787
  0
LINE
  5
F6
100
AcDbEntity
  8
LC-007-002-----0
  6
CONTINUOUS
 62
             7
100
AcDbLine
 10
11476.857177016551
 20
15571.937236847871
 11
11350.35258601655
 21
15571.937236847871
  0
LINE
  5
F5
100
AcDbEntity
  8
LC-007-002-----0
  6
CONTINUOUS
 62
             7
100
AcDbLine
 10
11571.356929016551
 20
15586.93632784787
 11
11571.356929016551
 21
15589.93632784787
  0
LINE
  5
F4
100
AcDbEntity
  8
LC-007-002-----0
  6
CONTINUOUS
 62
             7
100
AcDbLine
 10
11476.857177016551
 20
15586.93632784787
 11
11578.59333601654
 21
15586.93632784787
  0
LINE
  5
F3
100
AcDbEntity
  8
LC-007-002-----0
  6
CONTINUOUS
 62
             7
100
AcDbLine
 10
11382.357424016551
 20
15586.93632784787
 11
11382.357424016551
 21
15589.93632784787
  0
LINE
  5
F2
100
AcDbEntity
  8
LC-007-002-----0
  6
CONTINUOUS
 62
             7
100
AcDbLine
 10
11371.16491501655
 20
15571.937236847871
 11
11371.62315001655
 21
15583.558475847871
  0
LINE
  5
F1
100
AcDbEntity
  8
LC-007-002-----0
  6
CONTINUOUS
 62
             7
100
AcDbLine
 10
11350.35258601655
 20
15571.937236847871
 11
11350.598247016551
 21
15578.972057847859
  0
LINE
  5
F0
100
AcDbEntity
  8
LC-007-002-----0
  6
CONTINUOUS
 62
             7
100
AcDbLine
 10
11351.59771901655
 20
15579.93715884787
 11
11371.44422201654
 21
15579.935561847869
  0
LINE
  5
EF
100
AcDbEntity
  8
LC-007-002-----0
  6
CONTINUOUS
 62
             7
100
AcDbLine
 10
11582.54943901655
 20
15571.937236847871
 11
11582.09120401654
 21
15583.55847584788
  0
LINE
  5
EE
100
AcDbEntity
  8
LC-007-002-----0
  6
CONTINUOUS
 62
             7
100
AcDbLine
 10
11603.36176801655
 20
15571.937236847871
 11
11603.11610601655
 21
15578.972057847859
  0
LINE
  5
ED
100
AcDbEntity
  8
LC-007-002-----0
  6
CONTINUOUS
 62
             7
100
AcDbLine
 10
11602.116635016549
 20
15579.93715884787
 11
11582.27013201654
 21
15579.935561847869
  0
LINE
  5
EC
100
AcDbEntity
  8
LC-007-002-----0
  6
CONTINUOUS
 62
             7
100
AcDbLine
 10
11569.356929016551
 20
15591.93632784787
 11
11384.357424016551
 21
15591.93632784787
  0
LINE
  5
EB
100
AcDbEntity
  8
LC-007-002-----0
  6
CONTINUOUS
 62
             7
100
AcDbLine
 10
11358.857075016551
 20
15602.68632784795
 11
11361.857075016551
 21
15602.68632784795
  0
LINE
  5
EA
100
AcDbEntity
  8
LC-007-002-----0
  6
CONTINUOUS
 62
             7
100
AcDbLine
 10
11357.857075016551
 20
15606.68632784795
 11
11357.857075016551
 21
15603.68632784795
  0
LINE
  5
E9
100
AcDbEntity
  8
LC-007-002-----0
  6
CONTINUOUS
 62
             7
100
AcDbLine
 10
11362.857075016551
 20
15603.68632784795
 11
11362.857075016551
 21
15606.68632784795
  0
LINE
  5
E8
100
AcDbEntity
  8
LC-007-002-----0
  6
CONTINUOUS
 62
             7
100
AcDbLine
 10
11361.857075016551
 20
15607.68632784795
 11
11358.857075016551
 21
15607.68632784795
  0
LINE
  5
E7
100
AcDbEntity
  8
LC-007-002-----0
  6
CONTINUOUS
 62
             7
100
AcDbLine
 10
11381.357075016551
 20
15604.156096847941
 11
11381.357075016551
 21
15606.21655984795
  0
LINE
  5
E6
100
AcDbEntity
  8
LC-007-002-----0
  6
CONTINUOUS
 62
             7
100
AcDbLine
 10
11369.857279016551
 20
15581.18868684787
 11
11369.857290016551
 21
15600.12086484795
  0
LINE
  5
E5
100
AcDbEntity
  8
LC-007-002-----0
  6
CONTINUOUS
 62
             7
100
AcDbLine
 10
11339.357075016551
 20
15604.156096847941
 11
11339.357075016551
 21
15606.21655984795
  0
LINE
  5
E4
100
AcDbEntity
  8
LC-007-002-----0
  6
CONTINUOUS
 62
             7
100
AcDbLine
 10
11350.857075016551
 20
15579.936453847869
 11
11350.857075016551
 21
15600.12069684794
  0
LINE
  5
E3
100
AcDbEntity
  8
LC-007-002-----0
  6
CONTINUOUS
 62
             7
100
AcDbLine
 10
11350.857075016551
 20
15579.936453847869
 11
11351.59409201655
 21
15579.936453847869
  0
LINE
  5
E2
100
AcDbEntity
  8
LC-007-002-----0
  6
CONTINUOUS
 62
             7
100
AcDbLine
 10
11360.357177016551
 20
15579.936453847869
 11
11366.61798101655
 21
15579.936453847869
  0
LINE
  5
E1
100
AcDbEntity
  8
LC-007-002-----0
  6
CONTINUOUS
 62
             7
100
AcDbLine
 10
11366.61798101655
 20
15579.936453847869
 11
11360.357177016551
 21
15579.936453847869
  0
LINE
  5
E0
100
AcDbEntity
  8
LC-007-002-----0
  6
CONTINUOUS
 62
             7
100
AcDbLine
 10
11351.59409201655
 20
15579.936453847869
 11
11350.857075016551
 21
15579.936453847869
  0
LINE
  5
DF
100
AcDbEntity
  8
LC-007-002-----0
  6
CONTINUOUS
 62
             7
100
AcDbLine
 10
11350.857075016551
 20
15579.936453847869
 11
11350.857075016551
 21
15600.12069684794
  0
LINE
  5
DE
100
AcDbEntity
  8
LC-007-002-----0
  6
CONTINUOUS
 62
             7
100
AcDbLine
 10
11339.357075016551
 20
15604.156096847941
 11
11339.357075016551
 21
15606.21655984795
  0
LINE
  5
DD
100
AcDbEntity
  8
LC-007-002-----0
  6
CONTINUOUS
 62
             7
100
AcDbLine
 10
11381.357075016551
 20
15606.21655984795
 11
11381.357075016551
 21
15604.156096847941
  0
LINE
  5
DC
100
AcDbEntity
  8
LC-007-002-----0
  6
CONTINUOUS
 62
             7
100
AcDbLine
 10
11369.857290016551
 20
15600.120727847951
 11
11369.857279016551
 21
15581.18868684787
  0
LINE
  5
DB
100
AcDbEntity
  8
LC-007-002-----0
  6
CONTINUOUS
 62
             7
100
AcDbLine
 10
11594.857279016551
 20
15602.68632784795
 11
11591.857279016551
 21
15602.68632784795
  0
LINE
  5
DA
100
AcDbEntity
  8
LC-007-002-----0
  6
CONTINUOUS
 62
             7
100
AcDbLine
 10
11595.857279016551
 20
15606.68632784795
 11
11595.857279016551
 21
15603.68632784795
  0
LINE
  5
D9
100
AcDbEntity
  8
LC-007-002-----0
  6
CONTINUOUS
 62
             7
100
AcDbLine
 10
11590.857279016551
 20
15603.68632784795
 11
11590.857279016551
 21
15606.68632784795
  0
LINE
  5
D8
100
AcDbEntity
  8
LC-007-002-----0
  6
CONTINUOUS
 62
             7
100
AcDbLine
 10
11591.857279016551
 20
15607.68632784795
 11
11594.857279016551
 21
15607.68632784795
  0
LINE
  5
D7
100
AcDbEntity
  8
LC-007-002-----0
  6
CONTINUOUS
 62
             7
100
AcDbLine
 10
11572.357279016551
 20
15604.156096847941
 11
11572.357279016551
 21
15606.21655984795
  0
LINE
  5
D6
100
AcDbEntity
  8
LC-007-002-----0
  6
CONTINUOUS
 62
             7
100
AcDbLine
 10
11583.857074016551
 20
15581.18868684787
 11
11583.857064016551
 21
15600.120864847941
  0
LINE
  5
D5
100
AcDbEntity
  8
LC-007-002-----0
  6
CONTINUOUS
 62
             7
100
AcDbLine
 10
11614.357279016551
 20
15604.156096847941
 11
11614.357279016551
 21
15606.21655984795
  0
LINE
  5
D4
100
AcDbEntity
  8
LC-007-002-----0
  6
CONTINUOUS
 62
             7
100
AcDbLine
 10
11602.857279016551
 20
15579.936453847869
 11
11602.857279016551
 21
15600.12069684794
  0
LINE
  5
D3
100
AcDbEntity
  8
LC-007-002-----0
  6
CONTINUOUS
 62
             7
100
AcDbLine
 10
11602.857279016551
 20
15579.936453847869
 11
11602.120261016549
 21
15579.936453847869
  0
LINE
  5
D2
100
AcDbEntity
  8
LC-007-002-----0
  6
CONTINUOUS
 62
             7
100
AcDbLine
 10
11593.357177016551
 20
15579.936453847869
 11
11587.09637301654
 21
15579.936453847869
  0
LINE
  5
D1
100
AcDbEntity
  8
LC-007-002-----0
  6
CONTINUOUS
 62
             7
100
AcDbLine
 10
11587.09637301654
 20
15579.936453847869
 11
11593.357177016551
 21
15579.936453847869
  0
LINE
  5
D0
100
AcDbEntity
  8
LC-007-002-----0
  6
CONTINUOUS
 62
             7
100
AcDbLine
 10
11602.120261016549
 20
15579.936453847869
 11
11602.857279016551
 21
15579.936453847869
  0
LINE
  5
CF
100
AcDbEntity
  8
LC-007-002-----0
  6
CONTINUOUS
 62
             7
100
AcDbLine
 10
11602.857279016551
 20
15579.936453847869
 11
11602.857279016551
 21
15600.12069684794
  0
LINE
  5
CE
100
AcDbEntity
  8
LC-007-002-----0
  6
CONTINUOUS
 62
             7
100
AcDbLine
 10
11614.357279016551
 20
15604.156096847941
 11
11614.357279016551
 21
15606.21655984795
  0
LINE
  5
CD
100
AcDbEntity
  8
LC-007-002-----0
  6
CONTINUOUS
 62
             7
100
AcDbLine
 10
11572.357279016551
 20
15606.21655984795
 11
11572.357279016551
 21
15604.156096847941
  0
LINE
  5
CC
100
AcDbEntity
  8
LC-007-002-----0
  6
CONTINUOUS
 62
             7
100
AcDbLine
 10
11583.857064016551
 20
15600.120727847951
 11
11583.857074016551
 21
15581.18868684787
  0
LINE
  5
CB
100
AcDbEntity
  8
LC-008-006-MLN-0
  6
CONTINUOUS
 62
             2
100
AcDbLine
 10
11593.357177016551
 20
15560.437505847871
 11
11593.357177016551
 21
15612.93632784795
  0
LINE
  5
CA
100
AcDbEntity
  8
LC-008-006-MLN-0
  6
PHANTOM
 62
             2
100
AcDbLine
 10
11402.34208101655
 20
15456.036645847869
 11
11551.37227301655
 21
15456.036645847869
  0
POINT
  5
C9
100
AcDbEntity
  8
0
 62
             7
100
AcDbPoint
 10
11339.357075016551
 20
15604.319675847941
  0
POINT
  5
C8
100
AcDbEntity
  8
0
 62
             7
100
AcDbPoint
 10
11614.357279016551
 20
15606.05297984794
  0
ENDBLK
  5
157
100
AcDbEntity
  8
0
100
AcDbBlockEnd
  0
BLOCK
  5
15A
100
AcDbEntity
  8
0
100
AcDbBlockBegin
  2
*D2
 70
             1
 10
0.0
 20
0.0
 30
0.0
  3
*D2
  1

  0
LINE
  5
15B
100
AcDbEntity
  8
0
  6
CONTINUOUS
 62
             4
100
AcDbLine
 10
83.4973812980254
 20
158.17026090846642
 11
295.50190529802308
 21
158.17028277983829
  0
LINE
  5
15C
100
AcDbEntity
  8
0
  6
CONTINUOUS
 62
             4
100
AcDbLine
 10
295.50191100000001
 20
102.89963399999999
 11
295.5019050916938
 21
160.17028277983829
  0
LINE
  5
15D
100
AcDbEntity
  8
0
  6
CONTINUOUS
 62
             4
100
AcDbLine
 10
83.49738700000009
 20
102.89963399999999
 11
83.4973810916961
 21
160.17026090846642
  0
SOLID
  5
15E
100
AcDbEntity
  8
0
 62
             4
100
AcDbTrace
 10
93.49738116220652
 20
159.48678691598676
 11
93.49738143384417
 21
156.85373696423883
 12
83.4973812980254
 22
158.17026090846642
 13
83.4973812980254
 23
158.17026090846642
  0
SOLID
  5
15F
100
AcDbEntity
  8
0
 62
             4
100
AcDbTrace
 10
285.50190543384196
 20
156.85375677231795
 11
285.50190516220431
 21
159.48680672406587
 12
295.50190529802308
 22
158.17028277983829
 13
295.50190529802308
 23
158.17028277983829
  0
MTEXT
  5
161
100
AcDbEntity
  8
0
 62
             1
100
AcDbMText
 10
182.5913704528044
 20
160.17027113146284
 30
0.0
 40
10.0
 41
0.0
 71
             7
 72
             1
  1
212
  7
CONVERTER_1
 11
0.99999999999706
 21
0.00000242406841
 31
0.0
  0
ENDBLK
  5
162
100
AcDbEntity
  8
0
100
AcDbBlockEnd
  0
BLOCK
  5
166
100
AcDbEntity
  8
0
100
AcDbBlockBegin
  2
*D3
 70
             1
 10
0.0
 20
0.0
 30
0.0
  3
*D3
  1

  0
LINE
  5
167
100
AcDbEntity
  8
0
  6
CONTINUOUS
 62
             4
100
AcDbLine
 10
375.99968198751924
 20
-128.54426836145964
 11
1.00000449223299
 21
-128.544307048169
  0
LINE
  5
168
100
AcDbEntity
  8
0
  6
CONTINUOUS
 62
             4
100
AcDbLine
 10
1.0
 20
-85.0
 11
1.00000469856229
 21
-130.544307048169
  0
LINE
  5
169
100
AcDbEntity
  8
0
  6
CONTINUOUS
 62
             4
100
AcDbLine
 10
375.99967800000002
 20
-89.89227600000004
 11
375.9996821938484
 21
-130.54426836145964
  0
SOLID
  5
16A
100
AcDbEntity
  8
0
 62
             4
100
AcDbTrace
 10
365.99968212333812
 20
-129.86079436897998
 11
365.99968185170047
 21
-127.22774441723207
 12
375.99968198751924
 22
-128.54426836145964
 13
375.99968198751924
 23
-128.54426836145964
  0
SOLID
  5
16B
100
AcDbEntity
  8
0
 62
             4
100
AcDbTrace
 10
11.00000435641411
 20
-127.22778104064868
 11
11.00000462805176
 21
-129.86083099239659
 12
1.00000449223299
 22
-128.544307048169
 13
1.00000449223299
 23
-128.544307048169
  0
MTEXT
  5
16C
100
AcDbEntity
  8
0
 62
             1
100
AcDbMText
 10
165.0985271486891
 20
-126.54429011900284
 30
0.0
 40
10.0
 41
0.0
 71
             7
 72
             1
  1
375
  7
CONVERTER_1
 11
0.99999999999706
 21
0.00000242406841
 31
0.0
  0
ENDBLK
  5
16D
100
AcDbEntity
  8
0
100
AcDbBlockEnd
  0
BLOCK
  5
171
100
AcDbEntity
  8
0
100
AcDbBlockBegin
  2
*D4
 70
             1
 10
0.0
 20
0.0
 30
0.0
  3
*D4
  1

  0
LINE
  5
172
100
AcDbEntity
  8
0
  6
CONTINUOUS
 62
             4
100
AcDbLine
 10
-15.0
 20
80.0
 11
-15.0
 21
-80.0
  0
LINE
  5
173
100
AcDbEntity
  8
0
  6
CONTINUOUS
 62
             4
100
AcDbLine
 10
-5.0
 20
-80.0
 11
-17.0
 21
-80.0
  0
LINE
  5
174
100
AcDbEntity
  8
0
  6
CONTINUOUS
 62
             4
100
AcDbLine
 10
-5.0
 20
80.0
 11
-17.0
 21
80.0
  0
SOLID
  5
175
100
AcDbEntity
  8
0
 62
             4
100
AcDbTrace
 10
-13.68347502412605
 20
70.0
 11
-16.31652497587396
 21
70.0
 12
-15.0
 22
80.0
 13
-15.0
 23
80.0
  0
SOLID
  5
176
100
AcDbEntity
  8
0
 62
             4
100
AcDbTrace
 10
-16.31652497587396
 20
-70.0
 11
-13.68347502412604
 21
-70.0
 12
-15.0
 22
-80.0
 13
-15.0
 23
-80.0
  0
MTEXT
  5
177
100
AcDbEntity
  8
0
 62
             1
100
AcDbMText
 10
-17.0
 20
-20.47722085092303
 30
0.0
 40
10.0
 41
0.0
 71
             7
 72
             1
  1
\C1;DN\C1;160
  7
CONVERTER_1
 11
0.0
 21
1.0
 31
0.0
  0
ENDBLK
  5
178
100
AcDbEntity
  8
0
100
AcDbBlockEnd
  0
BLOCK
  5
17C
100
AcDbEntity
  8
0
100
AcDbBlockBegin
  2
*D5
 70
             1
 10
0.0
 20
0.0
 30
0.0
  3
*D5
  1

  0
LINE
  5
17D
100
AcDbEntity
  8
0
  6
CONTINUOUS
 62
             4
100
AcDbLine
 10
395.57366079143901
 20
-91.49995500001234
 11
395.57366079143901
 21
68.50002799999993
  0
LINE
  5
17E
100
AcDbEntity
  8
0
  6
CONTINUOUS
 62
             4
100
AcDbLine
 10
369.99967800000002
 20
68.50002799999993
 11
397.57366079143901
 21
68.50002799999993
  0
LINE
  5
17F
100
AcDbEntity
  8
0
  6
CONTINUOUS
 62
             4
100
AcDbLine
 10
369.99967800000002
 20
-91.49995500001234
 11
397.57366079143901
 21
-91.49995500001234
  0
SOLID
  5
180
100
AcDbEntity
  8
0
 62
             4
100
AcDbTrace
 10
394.25713581556505
 20
-81.49995500001234
 11
396.89018576731297
 21
-81.49995500001234
 12
395.57366079143901
 22
-91.49995500001234
 13
395.57366079143901
 23
-91.49995500001234
  0
SOLID
  5
181
100
AcDbEntity
  8
0
 62
             4
100
AcDbTrace
 10
396.89018576731297
 20
58.50002799999993
 11
394.25713581556505
 21
58.50002799999993
 12
395.57366079143901
 22
68.50002799999993
 13
395.57366079143901
 23
68.50002799999993
  0
MTEXT
  5
182
100
AcDbEntity
  8
0
 62
             1
100
AcDbMText
 10
393.57366079143901
 20
-28.896759334915
 30
0.0
 40
10.0
 41
0.0
 71
             7
 72
             1
  1
\C1;DN\C1;160
  7
CONVERTER_1
 11
0.0
 21
1.0
 31
0.0
  0
ENDBLK
  5
183
100
AcDbEntity
  8
0
100
AcDbBlockEnd
  0
BLOCK
  5
187
100
AcDbEntity
  8
0
100
AcDbBlockBegin
  2
*D6
 70
             1
 10
0.0
 20
0.0
 30
0.0
  3
*D6
  1

  0
LINE
  5
188
100
AcDbEntity
  8
0
  6
CONTINUOUS
 62
             4
100
AcDbLine
 10
330.84857805468698
 20
-11.49997266865245
 11
330.84857805468698
 21
-31.49997266865246
  0
LINE
  5
189
100
AcDbEntity
  8
0
  6
CONTINUOUS
 62
             4
100
AcDbLine
 10
330.84857805468698
 20
0.0
 11
330.84857805468698
 21
-11.49997266865245
  0
LINE
  5
18A
100
AcDbEntity
  8
0
  6
CONTINUOUS
 62
             4
100
AcDbLine
 10
330.84857805468698
 20
97.84265033456904
 11
330.84857805468698
 21
0.0
  0
LINE
  5
18B
100
AcDbEntity
  8
0
  6
CONTINUOUS
 62
             4
100
AcDbLine
 10
281.12575358696489
 20
-11.49997266865245
 11
332.84857805468698
 21
-11.49997266865245
  0
LINE
  5
18C
100
AcDbEntity
  8
0
  6
CONTINUOUS
 62
             4
100
AcDbLine
 10
137.89837443978598
 20
0.0
 11
332.84857805468698
 21
0.0
  0
SOLID
  5
18D
100
AcDbEntity
  8
0
 62
             4
100
AcDbTrace
 10
329.53205307881302
 20
10.0
 11
332.16510303056094
 21
10.0
 12
330.84857805468698
 22
0.0
 13
330.84857805468698
 23
0.0
  0
SOLID
  5
18E
100
AcDbEntity
  8
0
 62
             4
100
AcDbTrace
 10
332.16510303056094
 20
-21.49997266865245
 11
329.53205307881302
 21
-21.49997266865245
 12
330.84857805468698
 22
-11.49997266865245
 13
330.84857805468698
 23
-11.49997266865245
  0
MTEXT
  5
18F
100
AcDbEntity
  8
0
 62
             1
100
AcDbMText
 10
327.84857805468698
 20
76.34265033456904
 30
0.0
 40
10.0
 41
0.0
 71
             7
 72
             1
  1
11,5
  7
CONVERTER_1
 11
0.0
 21
1.0
 31
0.0
  0
ENDBLK
  5
190
100
AcDbEntity
  8
0
100
AcDbBlockEnd
  0
BLOCK
  5
194
100
AcDbEntity
  8
0
100
AcDbBlockBegin
  2
*D7
 70
             1
 10
0.0
 20
0.0
 30
0.0
  3
*D7
  1

  0
LINE
  5
195
100
AcDbEntity
  8
0
  6
CONTINUOUS
 62
             4
100
AcDbLine
 10
728.92963155498001
 20
-122.866139341403
 11
453.92942755498007
 21
-122.866139341403
  0
LINE
  5
196
100
AcDbEntity
  8
0
  6
CONTINUOUS
 62
             4
100
AcDbLine
 10
453.92942755498007
 20
136.6194030000716
 11
453.92942755498007
 21
-124.866139341403
  0
LINE
  5
197
100
AcDbEntity
  8
0
  6
CONTINUOUS
 62
             4
100
AcDbLine
 10
728.92963155498001
 20
136.6194030000716
 11
728.92963155498001
 21
-124.866139341403
  0
SOLID
  5
198
100
AcDbEntity
  8
0
 62
             4
100
AcDbTrace
 10
718.92963155498001
 20
-124.18266431727696
 11
718.92963155498001
 21
-121.54961436552904
 12
728.92963155498001
 22
-122.866139341403
 13
728.92963155498001
 23
-122.866139341403
  0
SOLID
  5
199
100
AcDbEntity
  8
0
 62
             4
100
AcDbTrace
 10
463.92942755498007
 20
-121.54961436552904
 11
463.92942755498007
 21
-124.18266431727696
 12
453.92942755498007
 22
-122.866139341403
 13
453.92942755498007
 23
-122.866139341403
  0
MTEXT
  5
19A
100
AcDbEntity
  8
0
 62
             1
100
AcDbMText
 10
544.14944508321889
 20
-120.866139341403
 30
0.0
 40
10.0
 41
0.0
 71
             7
 72
             1
  1
275
  7
CONVERTER_1
 11
0.99999999999706
 21
0.00000242406841
 31
0.0
  0
ENDBLK
  5
19B
100
AcDbEntity
  8
0
100
AcDbBlockEnd
  0
ENDSEC
  0
SECTION
  2
ENTITIES
  0
DIMENSION
  5
19D
100
AcDbEntity
  8
1
100
AcDbDimension
  2
*D7
 10
728.92963155498001
 20
-122.866139341403
 11
556.14944508321889
 21
-115.866139341403
 31
0.0
 53
0.00013888888889
  1
<>
  3
ME10_DIM_5
100
AcDbAlignedDimension
 13
453.92942755498007
 23
136.61940300007154
 14
728.92963155498001
 24
136.61940300007154
100
AcDbRotatedDimension
  0
DIMENSION
  5
192
100
AcDbEntity
  8
1
100
AcDbDimension
  2
*D6
 10
330.84857805468698
 20
0.0
 11
323.34857805468698
 21
87.09265033456904
 31
0.0
 53
90.0
  1
<>
  3
ME10_DIM_4
100
AcDbAlignedDimension
 13
281.12575358696489
 23
-11.49997266865245
 14
137.89837443978601
 24
0.0
 50
90.0
100
AcDbRotatedDimension
  0
DIMENSION
  5
185
100
AcDbEntity
  8
1
100
AcDbDimension
  2
*D5
 10
395.57366079143901
 20
-91.49995500001234
 11
388.57366079143901
 21
-12.996759334915
 31
0.0
 53
90.0
  1
<>
  3
ME10_DIM_3
100
AcDbAlignedDimension
 13
369.99967800000002
 23
68.50002799999993
 14
369.99967800000002
 24
-91.49995500001234
 50
90.0
100
AcDbRotatedDimension
  0
DIMENSION
  5
17A
100
AcDbEntity
  8
1
100
AcDbDimension
  2
*D4
 10
-15.0
 20
80.0
 11
-22.0
 21
-4.57722085092303
 31
0.0
 53
90.0
  1
<>
  3
ME10_DIM_2
100
AcDbAlignedDimension
 13
-5.0
 23
-80.0
 14
-5.0
 24
80.0
 50
90.0
100
AcDbRotatedDimension
  0
DIMENSION
  5
16F
100
AcDbEntity
  8
1
100
AcDbDimension
  2
*D3
 10
375.99968198751924
 20
-128.54426836145964
 11
177.0985266328658
 21
-121.5442888810271
 31
0.0
 53
0.00013888888889
  1
<>
  3
ME10_DIM_1
100
AcDbAlignedDimension
 13
1.0
 23
-85.0
 14
375.99967800000002
 24
-89.89227600000004
 50
0.00000591089887
100
AcDbRotatedDimension
  0
DIMENSION
  5
164
100
AcDbEntity
  8
1
100
AcDbDimension
  2
*D2
 10
83.4973812980254
 20
158.17026090846642
 11
193.0913699369811
 21
165.17027221469161
 31
0.0
 53
0.00013888888889
  1
<>
  3
ME10_DIM_0
100
AcDbAlignedDimension
 13
295.50191100000001
 23
102.89963400000001
 14
83.49738700000006
 24
102.89963400000001
 50
0.00000591089887
100
AcDbRotatedDimension
  0
INSERT
  5
33
100
AcDbEntity
  8
0
100
AcDbBlockReference
  2
HL_715_R_CKSTAUVERSCHLS__1
 10
-664.704346203559
 20
-1005.58937920989
  0
INSERT
  5
34
100
AcDbEntity
  8
1
100
AcDbBlockReference
  2
HL_715_R_CKSTAUVERSCHLS__2
 10
1543.8334716809295
 20
1260.5751414598599
  0
ENDSEC
  0
SECTION
  2
OBJECTS
  0
DICTIONARY
  5
19
100
AcDbDictionary
  3
ACAD_GROUP
350
1A
  3
ACAD_MLINESTYLE
350
1B
  0
DICTIONARY
  5
1A
102
{ACAD_REACTORS
330
19
102
}
100
AcDbDictionary
  0
DICTIONARY
  5
1B
102
{ACAD_REACTORS
330
19
102
}
100
AcDbDictionary
  3
STANDARD
350
1C
  0
MLINESTYLE
  5
1C
102
{ACAD_REACTORS
330
1B
102
}
100
AcDbMlineStyle
  2
STANDARD
 70
             0
  3

 62
             0
 51
90.0
 52
90.0
 71
             2
 49
0.5
 62
           256
  6
BYLAYER
 49
-0.5
 62
           256
  6
BYLAYER
  0
ENDSEC
  0
EOF
