  0
SECTION
  2
HEADER
  9
$ACADVER
  1
AC1014
  9
$ACADMAINTVER
 70
             0
  9
$DWGCODEPAGE
  3
ANSI_1252
  9
$INSBASE
 10
0.0
 20
0.0
 30
0.0
  9
$EXTMIN
 10
-217.52750397751299
 20
-243.06698883363001
 30
0.0
  9
$EXTMAX
 10
236.27686229533501
 20
26.0441644171642
 30
0.0
  9
$LIMMIN
 10
0.0
 20
0.0
  9
$LIMMAX
 10
0.0
 20
0.0
  9
$ORTHOMODE
 70
             0
  9
$REGENMODE
 70
             1
  9
$FILLMODE
 70
             1
  9
$QTEXTMODE
 70
             0
  9
$MIRRTEXT
 70
             1
  9
$DRAGMODE
 70
             2
  9
$LTSCALE
 40
1.0
  9
$OSMODE
 70
             0
  9
$ATTMODE
 70
             1
  9
$TEXTSIZE
 40
0.2
  9
$TRACEWID
 40
0.05
  9
$TEXTSTYLE
  7
STANDARD
  9
$CLAYER
  8
0
  9
$CELTYPE
  6
CONTINUOUS
  9
$CECOLOR
 62
           256
  9
$CELTSCALE
 40
1.0
  9
$DELOBJ
 70
             1
  9
$DISPSILH
 70
             0
  9
$DIMSCALE
 40
1.0
  9
$DIMASZ
 40
0.18
  9
$DIMEXO
 40
0.0625
  9
$DIMDLI
 40
0.38
  9
$DIMRND
 40
0.0
  9
$DIMDLE
 40
0.0
  9
$DIMEXE
 40
0.18
  9
$DIMTP
 40
0.0
  9
$DIMTM
 40
0.0
  9
$DIMTXT
 40
0.18
  9
$DIMCEN
 40
0.09
  9
$DIMTSZ
 40
0.0
  9
$DIMTOL
 70
             0
  9
$DIMLIM
 70
             0
  9
$DIMTIH
 70
             1
  9
$DIMTOH
 70
             1
  9
$DIMSE1
 70
             0
  9
$DIMSE2
 70
             0
  9
$DIMTAD
 70
             0
  9
$DIMZIN
 70
             0
  9
$DIMBLK
  1

  9
$DIMASO
 70
             1
  9
$DIMSHO
 70
             1
  9
$DIMPOST
  1

  9
$DIMAPOST
  1

  9
$DIMALT
 70
             0
  9
$DIMALTD
 70
             2
  9
$DIMALTF
 40
25.4
  9
$DIMLFAC
 40
1.0
  9
$DIMTOFL
 70
             0
  9
$DIMTVP
 40
0.0
  9
$DIMTIX
 70
             0
  9
$DIMSOXD
 70
             0
  9
$DIMSAH
 70
             0
  9
$DIMBLK1
  1

  9
$DIMBLK2
  1

  9
$DIMSTYLE
  2
STANDARD
  9
$DIMCLRD
 70
             0
  9
$DIMCLRE
 70
             0
  9
$DIMCLRT
 70
             0
  9
$DIMTFAC
 40
1.0
  9
$DIMGAP
 40
0.09
  9
$DIMJUST
 70
             0
  9
$DIMSD1
 70
             0
  9
$DIMSD2
 70
             0
  9
$DIMTOLJ
 70
             1
  9
$DIMTZIN
 70
             0
  9
$DIMALTZ
 70
             0
  9
$DIMALTTZ
 70
             0
  9
$DIMFIT
 70
             3
  9
$DIMUPT
 70
             0
  9
$DIMUNIT
 70
             2
  9
$DIMDEC
 70
             4
  9
$DIMTDEC
 70
             4
  9
$DIMALTU
 70
             2
  9
$DIMALTTD
 70
             2
  9
$DIMTXSTY
  7
STANDARD
  9
$DIMAUNIT
 70
             0
  9
$LUNITS
 70
             2
  9
$LUPREC
 70
             4
  9
$SKETCHINC
 40
0.1
  9
$FILLETRAD
 40
0.0
  9
$AUNITS
 70
             0
  9
$AUPREC
 70
             0
  9
$MENU
  1
acad
  9
$ELEVATION
 40
0.0
  9
$PELEVATION
 40
0.0
  9
$THICKNESS
 40
0.0
  9
$LIMCHECK
 70
             0
  9
$BLIPMODE
 70
             1
  9
$CHAMFERA
 40
0.0
  9
$CHAMFERB
 40
0.0
  9
$CHAMFERC
 40
0.0
  9
$CHAMFERD
 40
0.0
  9
$SKPOLY
 70
             0
  9
$TDCREATE
 40
0.000000000
  9
$TDUPDATE
 40
0.000000000
  9
$TDINDWG
 40
0.0000000000
  9
$TDUSRTIMER
 40
0.0000000000
  9
$USRTIMER
 70
             1
  9
$ANGBASE
 50
0.0
  9
$ANGDIR
 70
             0
  9
$PDMODE
 70
             0
  9
$PDSIZE
 40
0.0
  9
$PLINEWID
 40
0.0
  9
$COORDS
 70
             0
  9
$SPLFRAME
 70
             0
  9
$SPLINETYPE
 70
             6
  9
$SPLINESEGS
 70
             8
  9
$ATTDIA
 70
             0
  9
$ATTREQ
 70
             1
  9
$HANDLING
 70
             1
  9
$HANDSEED
  5
DC
  9
$SURFTAB1
 70
             6
  9
$SURFTAB2
 70
             6
  9
$SURFTYPE
 70
             6
  9
$SURFU
 70
             6
  9
$SURFV
 70
             6
  9
$UCSNAME
  2

  9
$UCSORG
 10
0.0
 20
0.0
 30
0.0
  9
$UCSXDIR
 10
1.0
 20
0.0
 30
0.0
  9
$UCSYDIR
 10
0.0
 20
1.0
 30
0.0
  9
$PUCSNAME
  2

  9
$PUCSORG
 10
0.0
 20
0.0
 30
0.0
  9
$PUCSXDIR
 10
1.0
 20
0.0
 30
0.0
  9
$PUCSYDIR
 10
0.0
 20
1.0
 30
0.0
  9
$USERI1
 70
             0
  9
$USERI2
 70
             0
  9
$USERI3
 70
             0
  9
$USERI4
 70
             0
  9
$USERI5
 70
             0
  9
$USERR1
 40
12.01
  9
$USERR2
 40
0.0
  9
$USERR3
 40
0.0
  9
$USERR4
 40
0.0
  9
$USERR5
 40
0.0
  9
$WORLDVIEW
 70
             1
  9
$SHADEDGE
 70
             3
  9
$SHADEDIF
 70
            70
  9
$TILEMODE
 70
             1
  9
$MAXACTVP
 70
            16
  9
$PINSBASE
 10
0.0
 20
0.0
 30
0.0
  9
$PLIMCHECK
 70
             0
  9
$PEXTMIN
 10
1.00000000000000E+20
 20
1.00000000000000E+20
 30
1.00000000000000E+20
  9
$PEXTMAX
 10
-1.00000000000000E+20
 20
-1.00000000000000E+20
 30
-1.00000000000000E+20
  9
$PLIMMIN
 10
0.0
 20
0.0
  9
$PLIMMAX
 10
12.0
 20
9.0
  9
$UNITMODE
 70
             0
  9
$VISRETAIN
 70
             0
  9
$PLINEGEN
 70
             1
  9
$PSLTSCALE
 70
             0
  9
$TREEDEPTH
 70
          3020
  9
$PICKSTYLE
 70
             1
  9
$CMLSTYLE
  2
STANDARD
  9
$CMLJUST
 70
             0
  9
$CMLSCALE
 40
1.0
  9
$PROXYGRAPHICS
 70
             0
  9
$MEASUREMENT
 70
             1
  0
ENDSEC
  0
SECTION
  2
CLASSES
  0
CLASS
  1
LWPOLYLINE
  2
AcDbPolyline
  3
"AutoCAD"
 90
        0
280
             0
281
             1
  0
CLASS
  1
IMAGE
  2
AcDbRasterImage
  3
ISM
 90
      127
280
             0
281
             1
  0
CLASS
  1
OLE2FRAME
  2
AcDbOle2Frame
  3
""
 90
        0
280
             0
281
             1
  0
CLASS
  1
HATCH
  2
AcDbHatch
  3
"ACAD_SEDONA"
 90
        0
280
             0
281
             1
  0
CLASS
  1
DICTIONARYVAR
  2
AcDbDictionaryVar
  3
"AutoCAD"
 90
        0
280
             0
281
             0
  0
CLASS
  1
RASTERVARIABLES
  2
AcDbRasterVariables
  3
ISM
 90
        0
280
             0
281
             0
  0
CLASS
  1
IMAGEDEF
  2
AcDbRasterImageDef
  3
ISM
 90
        0
280
             0
281
             0
  0
CLASS
  1
IMAGEDEF_REACTOR
  2
AcDbRasterImageDefReactor
  3
ISM
 90
        1
280
             0
281
             0
  0
CLASS
  1
IDBUFFER
  2
AcDbIdBuffer
  3
"Acad"
 90
        0
280
             0
281
             0
  0
CLASS
  1
SPATIAL_FILTER
  2
AcDbSpatialFilter
  3
"Acad"
 90
        0
280
             0
281
             0
  0
CLASS
  1
XRECORD
  2
AcDbXrecord
  3
"<Built In>"
 90
        0
280
             0
281
             0
  0
CLASS
  1
SORTENTSTABLE
  2
AcDbSortentsTable
  3
"AutoCAD"
 90
        0
280
             0
281
             0
  0
CLASS
  1
LAYER_INDEX
  2
AcDbLayerIndex
  3
"Acad"
 90
        0
280
             0
281
             0
  0
CLASS
  1
SPATIAL_INDEX
  2
AcDbSpatialIndex
  3
"Acad"
 90
        0
280
             0
281
             0
  0
CLASS
  1
OBJECT_PTR
  2
CAseDLPNTableRecord
  3
"ASE-LPNTableRecord"
 90
        1
280
             0
281
             0
  0
CLASS
  1
LAYOUT
  2
AcDbLayout
  3
"AutoCAD 2000"
 90
        0
280
             0
281
             0
  0
CLASS
  1
PLOTSETTINGS
  2
AcDbPlotSettings
  3
"AutoCAD 2000"
 90
        0
280
             0
281
             0
  0
CLASS
  1
ACDBDICTIONARYWDFLT
  2
AcDbDictionaryWithDefault
  3
"AutoCAD 2000"
 90
        0
280
             0
281
             0
  0
CLASS
  1
ACDBPLACEHOLDER
  2
AcDbPlaceHolder
  3
"AutoCAD 2000"
 90
        0
280
             0
281
             0
  0
ENDSEC
  0
SECTION
  2
TABLES
  0
TABLE
  2
VPORT
  5
7
100
AcDbSymbolTable
 70
             1
  0
VPORT
  5
15
100
AcDbSymbolTableRecord
100
AcDbViewportTableRecord
  2
*ACTIVE
 70
             0
 10
0.0
 20
0.0
 11
1.0
 21
1.0
 12
9.37467915891101
 22
-108.5114122082329
 13
0.0
 23
0.0
 14
1.0
 24
1.0
 15
0.0
 25
0.0
 16
0.0
 26
0.0
 36
1.0
 17
0.0
 27
0.0
 37
0.0
 40
311.46906921902456
 41
1.60267857142857
 42
50.0
 43
0.0
 44
0.0
 50
0.0
 51
0.0
 71
             0
 72
           100
 73
             1
 74
             1
 75
             0
 76
             0
 77
             0
 78
             0
  0
ENDTAB
  0
TABLE
  2
LTYPE
  5
4
100
AcDbSymbolTable
 70
            10
  0
LTYPE
  5
11
100
AcDbSymbolTableRecord
100
AcDbLinetypeTableRecord
  2
BYBLOCK
 70
            64
  3

 72
            65
 73
             0
 40
0.0
  0
LTYPE
  5
12
100
AcDbSymbolTableRecord
100
AcDbLinetypeTableRecord
  2
BYLAYER
 70
            64
  3

 72
            65
 73
             0
 40
0.0
  0
LTYPE
  5
13
100
AcDbSymbolTableRecord
100
AcDbLinetypeTableRecord
  2
CONTINUOUS
 70
            64
  3
Solid line
 72
            65
 73
             0
 40
0.0
  0
LTYPE
  5
1D
100
AcDbSymbolTableRecord
100
AcDbLinetypeTableRecord
  2
DASHED
 70
            64
  3
Dashed
 72
            65
 73
             2
 40
15.0
 49
7.0
 74
             0
 49
-8.0
 74
             0
  0
LTYPE
  5
1E
100
AcDbSymbolTableRecord
100
AcDbLinetypeTableRecord
  2
DOTTED
 70
            64
  3
Dotted
 72
            65
 73
             2
 40
1.0
 49
0.0
 74
             0
 49
-1.0
 74
             0
  0
LTYPE
  5
1F
100
AcDbSymbolTableRecord
100
AcDbLinetypeTableRecord
  2
DOT_CENTER
 70
            64
  3
Dot_Center
 72
            65
 73
             4
 40
14.0
 49
12.0
 74
             0
 49
-1.0
 74
             0
 49
0.0
 74
             0
 49
-1.0
 74
             0
  0
LTYPE
  5
20
100
AcDbSymbolTableRecord
100
AcDbLinetypeTableRecord
  2
LONG_DASHED
 70
            64
  3
Long_Dashed
 72
            65
 73
             2
 40
15.0
 49
10.0
 74
             0
 49
-5.0
 74
             0
  0
LTYPE
  5
21
100
AcDbSymbolTableRecord
100
AcDbLinetypeTableRecord
  2
DASH_CENTER
 70
            64
  3
Dash_Center
 72
            65
 73
             4
 40
14.0
 49
11.0
 74
             0
 49
-1.0
 74
             0
 49
1.0
 74
             0
 49
-1.0
 74
             0
  0
LTYPE
  5
22
100
AcDbSymbolTableRecord
100
AcDbLinetypeTableRecord
  2
PHANTOM
 70
            64
  3
Phantom
 72
            65
 73
             6
 40
13.0
 49
10.0
 74
             0
 49
-1.0
 74
             0
 49
0.0
 74
             0
 49
-1.0
 74
             0
 49
0.0
 74
             0
 49
-1.0
 74
             0
  0
LTYPE
  5
23
100
AcDbSymbolTableRecord
100
AcDbLinetypeTableRecord
  2
CENTER_DASH_DASH
 70
            64
  3
Center_Dash_Dash
 72
            65
 73
             6
 40
14.0
 49
9.0
 74
             0
 49
-1.0
 74
             0
 49
1.0
 74
             0
 49
-1.0
 74
             0
 49
1.0
 74
             0
 49
-1.0
 74
             0
  0
ENDTAB
  0
TABLE
  2
LAYER
  5
2
100
AcDbSymbolTable
 70
             5
  0
LAYER
  5
14
100
AcDbSymbolTableRecord
100
AcDbLayerTableRecord
  2
0
 70
             0
 62
             7
  6
CONTINUOUS
  0
LAYER
  5
24
100
AcDbSymbolTableRecord
100
AcDbLayerTableRecord
  2
1
 70
             0
 62
             7
  6
CONTINUOUS
  0
LAYER
  5
25
100
AcDbSymbolTableRecord
100
AcDbLayerTableRecord
  2
LC-001-002-----0
 70
             0
 62
             7
  6
CONTINUOUS
  0
LAYER
  5
26
100
AcDbSymbolTableRecord
100
AcDbLayerTableRecord
  2
LC-003-050-----0
 70
             0
 62
             7
  6
CONTINUOUS
  0
LAYER
  5
27
100
AcDbSymbolTableRecord
100
AcDbLayerTableRecord
  2
LC-005-003-----0
 70
             0
 62
             7
  6
CONTINUOUS
  0
ENDTAB
  0
TABLE
  2
STYLE
  5
3
100
AcDbSymbolTable
 70
             2
  0
STYLE
  5
17
100
AcDbSymbolTableRecord
100
AcDbTextStyleTableRecord
  2
STANDARD
 70
             0
 40
0.0
 41
1.0
 50
0.0
 71
             0
 42
0.0
  3
txt
  4

  0
STYLE
  5
89
100
AcDbSymbolTableRecord
100
AcDbTextStyleTableRecord
  2
CONVERTER_1
 70
             0
 40
0.0
 41
0.9
 50
0.0
 71
             0
 42
0.0
  3
txt.shx
  4

  0
ENDTAB
  0
TABLE
  2
VIEW
  5
5
100
AcDbSymbolTable
 70
             0
  0
ENDTAB
  0
TABLE
  2
UCS
  5
6
100
AcDbSymbolTable
 70
             0
  0
ENDTAB
  0
TABLE
  2
APPID
  5
8
100
AcDbSymbolTable
 70
             1
  0
APPID
  5
16
100
AcDbSymbolTableRecord
100
AcDbRegAppTableRecord
  2
ACAD
 70
             0
  0
ENDTAB
  0
TABLE
  2
DIMSTYLE
  5
9
100
AcDbSymbolTable
 70
             9
  0
DIMSTYLE
105
18
100
AcDbSymbolTableRecord
100
AcDbDimStyleTableRecord
  2
STANDARD
 70
             0
  3

  4

  5

  6

  7

 40
1.0
 41
0.18
 42
0.0625
 43
0.38
 44
0.18
 45
0.0
 46
0.0
 47
0.0
 48
0.0
 71
             0
 72
             0
 73
             1
 74
             1
 75
             0
 76
             0
 77
             0
 78
             0
140
0.18
141
0.09
142
0.0
143
25.4
144
1.0
145
0.0
146
1.0
147
0.09
170
             0
171
             2
172
             0
173
             0
174
             0
175
             0
176
             0
177
             0
178
             0
270
             2
271
             4
272
             4
273
             2
274
             2
275
             0
280
             0
281
             0
282
             0
283
             1
284
             0
285
             0
286
             0
287
             3
288
             0
340
17
  0
DIMSTYLE
105
8C
100
AcDbSymbolTableRecord
100
AcDbDimStyleTableRecord
  2
ME10_DIM_0
 70
             0
  3
DN<>
  4

  5

  6

  7

 40
1.0
 41
10.0
 42
0.0
 43
0.38
 44
2.0
 45
0.0
 46
0.0
 47
0.0
 48
0.0
 71
             0
 72
             0
 73
             0
 74
             0
 75
             0
 76
             0
 77
             1
 78
             8
140
10.0
141
0.09
142
0.0
143
25.4
144
1.0
145
0.0
146
1.0
147
0.625
170
             0
171
             2
172
             1
173
             1
174
             0
175
             0
176
             4
177
             4
178
             1
270
             2
271
             2
272
             4
273
             2
274
             2
275
             0
280
             0
281
             0
282
             0
283
             1
284
             0
285
             0
286
             0
287
             3
288
             0
340
89
  0
DIMSTYLE
105
97
100
AcDbSymbolTableRecord
100
AcDbDimStyleTableRecord
  2
ME10_DIM_1
 70
             0
  3
DN<>
  4

  5

  6

  7

 40
1.0
 41
10.0
 42
0.0
 43
0.38
 44
2.0
 45
0.0
 46
0.0
 47
0.0
 48
0.0
 71
             0
 72
             0
 73
             0
 74
             0
 75
             0
 76
             0
 77
             1
 78
             8
140
10.0
141
0.09
142
0.0
143
25.4
144
1.0
145
0.0
146
1.0
147
0.625
170
             0
171
             2
172
             1
173
             1
174
             0
175
             0
176
             4
177
             4
178
             1
270
             2
271
             2
272
             4
273
             2
274
             2
275
             0
280
             0
281
             0
282
             0
283
             1
284
             0
285
             0
286
             0
287
             3
288
             0
340
89
  0
DIMSTYLE
105
A2
100
AcDbSymbolTableRecord
100
AcDbDimStyleTableRecord
  2
ME10_DIM_2
 70
             0
  3

  4

  5

  6

  7

 40
1.0
 41
10.0
 42
0.0
 43
0.38
 44
2.0
 45
0.0
 46
0.0
 47
0.0
 48
0.0
 71
             0
 72
             0
 73
             0
 74
             0
 75
             0
 76
             0
 77
             1
 78
             8
140
10.0
141
0.09
142
0.0
143
25.4
144
1.0
145
0.0
146
1.0
147
0.625
170
             0
171
             2
172
             1
173
             1
174
             0
175
             0
176
             4
177
             4
178
             1
270
             2
271
             2
272
             4
273
             2
274
             2
275
             0
280
             0
281
             0
282
             0
283
             1
284
             0
285
             0
286
             0
287
             3
288
             0
340
89
  0
DIMSTYLE
105
AD
100
AcDbSymbolTableRecord
100
AcDbDimStyleTableRecord
  2
ME10_DIM_3
 70
             0
  3
x240
  4

  5

  6

  7

 40
1.0
 41
10.0
 42
0.0
 43
0.38
 44
2.0
 45
0.0
 46
0.0
 47
0.0
 48
0.0
 71
             0
 72
             0
 73
             0
 74
             0
 75
             0
 76
             0
 77
             1
 78
             8
140
10.0
141
0.09
142
0.0
143
25.4
144
1.0
145
0.0
146
1.0
147
0.625
170
             0
171
             2
172
             1
173
             1
174
             0
175
             0
176
             4
177
             4
178
             1
270
             2
271
             2
272
             4
273
             2
274
             2
275
             0
280
             0
281
             0
282
             0
283
             1
284
             0
285
             0
286
             0
287
             3
288
             0
340
89
  0
DIMSTYLE
105
B8
100
AcDbSymbolTableRecord
100
AcDbDimStyleTableRecord
  2
ME10_DIM_4
 70
             0
  3

  4

  5

  6

  7

 40
1.0
 41
10.0
 42
0.0
 43
0.38
 44
2.0
 45
0.0
 46
0.0
 47
0.0
 48
0.0
 71
             0
 72
             0
 73
             0
 74
             0
 75
             0
 76
             0
 77
             1
 78
             8
140
10.0
141
0.09
142
0.0
143
25.4
144
1.0
145
0.0
146
1.0
147
0.625
170
             0
171
             2
172
             1
173
             1
174
             0
175
             0
176
             4
177
             4
178
             1
270
             2
271
             2
272
             4
273
             2
274
             2
275
             0
280
             0
281
             0
282
             0
283
             1
284
             0
285
             0
286
             0
287
             3
288
             0
340
89
  0
DIMSTYLE
105
C3
100
AcDbSymbolTableRecord
100
AcDbDimStyleTableRecord
  2
ME10_DIM_5
 70
             0
  3

  4

  5

  6

  7

 40
1.0
 41
10.0
 42
0.0
 43
0.38
 44
2.0
 45
0.0
 46
0.0
 47
0.0
 48
0.0
 71
             0
 72
             0
 73
             0
 74
             0
 75
             0
 76
             0
 77
             1
 78
             8
140
10.0
141
0.09
142
0.0
143
25.4
144
1.0
145
0.0
146
1.0
147
0.625
170
             0
171
             2
172
             1
173
             1
174
             0
175
             0
176
             4
177
             4
178
             1
270
             2
271
             2
272
             4
273
             2
274
             2
275
             0
280
             0
281
             0
282
             0
283
             1
284
             0
285
             0
286
             0
287
             3
288
             0
340
89
  0
DIMSTYLE
105
CE
100
AcDbSymbolTableRecord
100
AcDbDimStyleTableRecord
  2
ME10_DIM_6
 70
             0
  3

  4

  5

  6

  7

 40
1.0
 41
10.0
 42
0.0
 43
0.38
 44
2.0
 45
0.0
 46
0.0
 47
0.0
 48
0.0
 71
             0
 72
             0
 73
             0
 74
             0
 75
             0
 76
             0
 77
             1
 78
             8
140
10.0
141
0.09
142
0.0
143
25.4
144
1.0
145
0.0
146
1.0
147
0.625
170
             0
171
             2
172
             1
173
             1
174
             0
175
             0
176
             4
177
             4
178
             1
270
             2
271
             2
272
             4
273
             2
274
             2
275
             0
280
             0
281
             0
282
             0
283
             1
284
             0
285
             0
286
             0
287
             3
288
             0
340
89
  0
DIMSTYLE
105
D9
100
AcDbSymbolTableRecord
100
AcDbDimStyleTableRecord
  2
ME10_DIM_7
 70
             0
  3

  4

  5

  6

  7

 40
1.0
 41
10.0
 42
0.0
 43
0.38
 44
2.0
 45
0.0
 46
0.0
 47
0.0
 48
0.0
 71
             0
 72
             0
 73
             0
 74
             0
 75
             0
 76
             0
 77
             1
 78
             8
140
10.0
141
0.09
142
0.0
143
25.4
144
1.0
145
0.0
146
1.0
147
0.625
170
             0
171
             2
172
             1
173
             1
174
             0
175
             0
176
             4
177
             4
178
             1
270
             2
271
             2
272
             4
273
             2
274
             2
275
             0
280
             0
281
             0
282
             0
283
             1
284
             0
285
             0
286
             0
287
             3
288
             0
340
89
  0
ENDTAB
  0
TABLE
  2
BLOCK_RECORD
  5
1
100
AcDbSymbolTable
 70
            10
  0
BLOCK_RECORD
  5
A
100
AcDbSymbolTableRecord
100
AcDbBlockTableRecord
  2
*MODEL_SPACE
  0
BLOCK_RECORD
  5
B
100
AcDbSymbolTableRecord
100
AcDbBlockTableRecord
  2
*PAPER_SPACE
  0
BLOCK_RECORD
  5
28
100
AcDbSymbolTableRecord
100
AcDbBlockTableRecord
  2
071_1_2E_ANSCHLU_MUFFEDN50
  0
BLOCK_RECORD
  5
2A
100
AcDbSymbolTableRecord
100
AcDbBlockTableRecord
  2
HL71_1_7_KELLERABLAUF
  0
BLOCK_RECORD
  5
81
100
AcDbSymbolTableRecord
100
AcDbBlockTableRecord
  2
*D2
  0
BLOCK_RECORD
  5
8E
100
AcDbSymbolTableRecord
100
AcDbBlockTableRecord
  2
*D3
  0
BLOCK_RECORD
  5
99
100
AcDbSymbolTableRecord
100
AcDbBlockTableRecord
  2
*D4
  0
BLOCK_RECORD
  5
A4
100
AcDbSymbolTableRecord
100
AcDbBlockTableRecord
  2
*D5
  0
BLOCK_RECORD
  5
AF
100
AcDbSymbolTableRecord
100
AcDbBlockTableRecord
  2
*D6
  0
BLOCK_RECORD
  5
BA
100
AcDbSymbolTableRecord
100
AcDbBlockTableRecord
  2
*D7
  0
BLOCK_RECORD
  5
C5
100
AcDbSymbolTableRecord
100
AcDbBlockTableRecord
  2
*D8
  0
BLOCK_RECORD
  5
D0
100
AcDbSymbolTableRecord
100
AcDbBlockTableRecord
  2
*D9
  0
ENDTAB
  0
ENDSEC
  0
SECTION
  2
BLOCKS
  0
BLOCK
  5
D
100
AcDbEntity
  8
0
100
AcDbBlockBegin
  2
*MODEL_SPACE
 70
             0
 10
0.0
 20
0.0
 30
0.0
  3
*MODEL_SPACE
  1

  0
ENDBLK
  5
E
100
AcDbEntity
  8
0
100
AcDbBlockEnd
  0
BLOCK
  5
F
100
AcDbEntity
 67
             1
  8
0
100
AcDbBlockBegin
  2
*PAPER_SPACE
 70
             0
 10
0.0
 20
0.0
 30
0.0
  3
*PAPER_SPACE
  1

  0
ENDBLK
  5
10
100
AcDbEntity
 67
             1
  8
0
100
AcDbBlockEnd
  0
BLOCK
  5
29
100
AcDbEntity
  8
0
100
AcDbBlockBegin
  2
071_1_2E_ANSCHLU_MUFFEDN50
 70
             0
 10
-160.996455
 20
-150.51281
 30
0.0
  3
071_1_2E_ANSCHLU_MUFFEDN50
  1

  0
ARC
  5
56
100
AcDbEntity
  8
LC-003-050-----0
  6
CONTINUOUS
 62
             7
100
AcDbCircle
 10
-150.99432400000001
 20
-48.49933899999996
 40
1.5
100
AcDbArc
 50
90.00000300000639
 51
179.99984999999387
  0
ARC
  5
55
100
AcDbEntity
  8
LC-003-050-----0
  6
CONTINUOUS
 62
             7
100
AcDbCircle
 10
-150.99650299999999
 20
-141.50096300000001
 40
1.5000000000004
100
AcDbArc
 50
179.99968000001559
 51
-90.00030200001889
  0
LINE
  5
54
100
AcDbEntity
  8
LC-003-050-----0
  6
CONTINUOUS
 62
             7
100
AcDbLine
 10
-101.734988
 20
-56.65921599999996
 11
-97.91279099999997
 21
-44.80499599999996
  0
LINE
  5
53
100
AcDbEntity
  8
LC-003-050-----0
  6
CONTINUOUS
 62
             7
100
AcDbLine
 10
-110.864324
 20
-54.99933699999997
 11
-101.734988
 21
-56.65921599999996
  0
LINE
  5
52
100
AcDbEntity
  8
LC-003-050-----0
  6
CONTINUOUS
 62
             7
100
AcDbLine
 10
-110.864324
 20
-54.99933699999997
 11
-138.36432400000001
 21
-54.99933799999997
  0
LINE
  5
51
100
AcDbEntity
  8
LC-003-050-----0
  6
CONTINUOUS
 62
             7
100
AcDbLine
 10
-154.996455
 20
-54.99933899999996
 11
-152.49432400000001
 21
-54.99933899999996
  0
LINE
  5
50
100
AcDbEntity
  8
LC-003-050-----0
  6
CONTINUOUS
 62
             7
100
AcDbLine
 10
-138.36432400000001
 20
-46.99933799999997
 11
-138.36431999999999
 21
-135.00102899999999
  0
LINE
  5
4F
100
AcDbEntity
  8
LC-003-050-----0
  6
CONTINUOUS
 62
             7
100
AcDbLine
 10
-150.99432400000001
 20
-46.99933899999996
 11
-138.36432400000001
 21
-46.99933799999997
  0
LINE
  5
4E
100
AcDbEntity
  8
LC-003-050-----0
  6
CONTINUOUS
 62
             7
100
AcDbLine
 10
-152.49431999999999
 20
-135.000955
 11
-152.49432400000001
 21
-48.49933899999996
  0
LINE
  5
4D
100
AcDbEntity
  8
LC-003-050-----0
  6
CONTINUOUS
 62
             7
100
AcDbLine
 10
-92.63277699999998
 20
-40.38332299999996
 11
-87.096654
 21
-146.01885999999999
  0
LINE
  5
4C
100
AcDbEntity
  8
LC-003-050-----0
  6
CONTINUOUS
 62
             7
100
AcDbLine
 10
-92.41614399999997
 20
-44.51692900000001
 11
-97.91279099999997
 21
-44.80499599999996
  0
LINE
  5
4B
100
AcDbEntity
  8
LC-003-050-----0
  6
CONTINUOUS
 62
             7
100
AcDbLine
 10
-97.99557399999998
 20
-132.661081
 11
-92.68129299999998
 21
-144.66998100000001
  0
LINE
  5
4A
100
AcDbEntity
  8
LC-003-050-----0
  6
CONTINUOUS
 62
             7
100
AcDbLine
 10
-110.866469
 20
-135.00117399999999
 11
-97.99557399999998
 21
-132.661081
  0
LINE
  5
49
100
AcDbEntity
  8
LC-003-050-----0
  6
CONTINUOUS
 62
             7
100
AcDbLine
 10
-110.866469
 20
-135.00117399999999
 11
-138.366469
 21
-135.00102899999999
  0
LINE
  5
48
100
AcDbEntity
  8
LC-003-050-----0
  6
CONTINUOUS
 62
             7
100
AcDbLine
 10
-154.996455
 20
-132.50094200000001
 11
-154.99646899999999
 21
-135.00094200000001
  0
LINE
  5
47
100
AcDbEntity
  8
LC-003-050-----0
  6
CONTINUOUS
 62
             7
100
AcDbLine
 10
-154.99646899999999
 20
-135.00094200000001
 11
-152.49646899999999
 21
-135.000955
  0
LINE
  5
46
100
AcDbEntity
  8
LC-003-050-----0
  6
CONTINUOUS
 62
             7
100
AcDbLine
 10
-138.366511
 20
-143.00102899999999
 11
-138.36649199999999
 21
-139.50102899999999
  0
LINE
  5
45
100
AcDbEntity
  8
LC-003-050-----0
  6
CONTINUOUS
 62
             7
100
AcDbLine
 10
-138.36649199999999
 20
-139.50102899999999
 11
-138.366469
 21
-135.00102899999999
  0
LINE
  5
44
100
AcDbEntity
  8
LC-003-050-----0
  6
CONTINUOUS
 62
             7
100
AcDbLine
 10
-150.996511
 20
-143.00096300000001
 11
-138.366511
 21
-143.00102899999999
  0
LINE
  5
43
100
AcDbEntity
  8
LC-003-050-----0
  6
CONTINUOUS
 62
             7
100
AcDbLine
 10
-152.49646899999999
 20
-135.000955
 11
-152.49650299999999
 21
-141.500955
  0
LINE
  5
42
100
AcDbEntity
  8
LC-003-050-----0
  6
CONTINUOUS
 62
             7
100
AcDbLine
 10
-86.96803399999999
 20
-148.51555099999999
 11
-87.098861
 21
-146.01897600000001
  0
LINE
  5
41
100
AcDbEntity
  8
LC-003-050-----0
  6
CONTINUOUS
 62
             7
100
AcDbLine
 10
-86.86337299999997
 20
-150.51281
 11
-86.96803399999999
 21
-148.51555099999999
  0
LINE
  5
40
100
AcDbEntity
  8
LC-003-050-----0
  6
CONTINUOUS
 62
             7
100
AcDbLine
 10
-87.18244699999997
 20
-144.38182800000001
 11
-92.68129299999998
 21
-144.66998100000001
  0
LINE
  5
3F
100
AcDbEntity
  8
LC-003-050-----0
  6
CONTINUOUS
 62
             7
100
AcDbLine
 10
-134.36432400000001
 20
-54.99933799999997
 11
-134.36432400000001
 21
-46.99933799999997
  0
LINE
  5
3E
100
AcDbEntity
  8
LC-003-050-----0
  6
CONTINUOUS
 62
             7
100
AcDbLine
 10
-134.36432400000001
 20
-46.99933799999997
 11
-114.364324
 21
-46.99933699999997
  0
LINE
  5
3D
100
AcDbEntity
  8
LC-003-050-----0
  6
CONTINUOUS
 62
             7
100
AcDbLine
 10
-114.364324
 20
-46.99933699999997
 11
-114.364324
 21
-54.99933699999997
  0
LINE
  5
3C
100
AcDbEntity
  8
LC-001-002-----0
  6
CONTINUOUS
 62
             7
100
AcDbLine
 10
-154.996455
 20
-132.50094200000001
 11
-154.996455
 21
-54.99933899999996
  0
LINE
  5
3B
100
AcDbEntity
  8
LC-001-002-----0
  6
CONTINUOUS
 62
             7
100
AcDbLine
 10
-110.864324
 20
-54.99933699999997
 11
-110.864324
 21
-135.00117399999999
  0
LINE
  5
3A
100
AcDbEntity
  8
LC-001-002-----0
  6
CONTINUOUS
 62
             7
100
AcDbLine
 10
-101.734988
 20
-56.65921599999996
 11
-97.99557399999998
 21
-132.661081
  0
LINE
  5
39
100
AcDbEntity
  8
LC-001-002-----0
  6
CONTINUOUS
 62
             7
100
AcDbLine
 10
-97.91279099999997
 20
-44.80499599999996
 11
-92.68129299999998
 21
-144.66998100000001
  0
LINE
  5
38
100
AcDbEntity
  8
LC-003-050-----0
  6
CONTINUOUS
 62
             7
100
AcDbLine
 10
-67.88717544670378
 20
-149.51841080093499
 11
-86.86337299999997
 21
-150.51281
  0
LINE
  5
37
100
AcDbEntity
  8
LC-003-050-----0
  6
CONTINUOUS
 62
             7
100
AcDbLine
 10
-73.76348799369015
 20
-37.39168112039918
 11
-92.73744899999997
 21
-38.38606399999998
  0
LINE
  5
36
100
AcDbEntity
  8
LC-003-050-----0
  6
CONTINUOUS
 62
             7
100
AcDbLine
 10
-92.73744899999997
 20
-38.38606399999998
 11
-92.63277699999998
 21
-40.38332299999996
  0
LINE
  5
35
100
AcDbEntity
  8
1
  6
PHANTOM
 62
             2
100
AcDbLine
 10
-160.26317082031849
 20
-95.00012715443425
 11
-61.94456133162112
 21
-95.00038015164785
  0
LINE
  5
34
100
AcDbEntity
  8
1
  6
DOT_CENTER
 62
             2
100
AcDbLine
 10
-160.996455
 20
-132.50012500234001
 11
-157.996455
 21
-132.50012500234001
  0
LINE
  5
33
100
AcDbEntity
  8
1
  6
DOT_CENTER
 62
             2
100
AcDbLine
 10
-160.996455
 20
-57.50012500208648
 11
-157.996455
 21
-57.50012500208649
  0
POINT
  5
32
100
AcDbEntity
  8
LC-005-003-----0
 62
             7
100
AcDbPoint
 10
-154.996455
 20
-57.49933899999996
  0
POINT
  5
31
100
AcDbEntity
  8
LC-005-003-----0
 62
             7
100
AcDbPoint
 10
-154.996455
 20
-132.50094200000001
  0
POINT
  5
30
100
AcDbEntity
  8
LC-005-003-----0
 62
             7
100
AcDbPoint
 10
-154.996455
 20
-94.99793299999999
  0
ENDBLK
  5
57
100
AcDbEntity
  8
0
100
AcDbBlockEnd
  0
BLOCK
  5
2B
100
AcDbEntity
  8
0
100
AcDbBlockBegin
  2
HL71_1_7_KELLERABLAUF
 70
             0
 10
-376.94765799999999
 20
-432.55545899999998
 30
0.0
  3
HL71_1_7_KELLERABLAUF
  1

  0
ARC
  5
7E
100
AcDbEntity
  8
1
  6
CONTINUOUS
 62
             7
100
AcDbCircle
 10
97.86887244514377
 20
-204.99999999999989
 40
15.0
100
AcDbArc
 50
-90.0
 51
-2.99704226003072
  0
ARC
  5
7D
100
AcDbEntity
  8
1
  6
CONTINUOUS
 62
             7
100
AcDbCircle
 10
-49.82985862442952
 20
-204.99999999999989
 40
15.0
100
AcDbArc
 50
-176.9552213898761
 51
-90.0
  0
ARC
  5
7C
100
AcDbEntity
  8
LC-001-002-----0
  6
CONTINUOUS
 62
             7
100
AcDbCircle
 10
-92.94430399999999
 20
-16.81569400000001
 40
1.00000000000027
100
AcDbArc
 50
60.6576530000179
 51
168.69998099997375
  0
ARC
  5
7B
100
AcDbEntity
  8
LC-001-002-----0
  6
CONTINUOUS
 62
             7
100
AcDbCircle
 10
-93.78041100000002
 20
-21.0
 40
1.00000000000027
100
AcDbArc
 50
168.700000000031
 51
-90.0
  0
ARC
  5
7A
100
AcDbEntity
  8
LC-001-002-----0
  6
CONTINUOUS
 62
             7
100
AcDbCircle
 10
242.27595299999999
 20
-92.44796700000001
 40
135.0640979999998
100
AcDbArc
 50
152.938018
 51
-158.9321029999999
  0
LINE
  5
79
100
AcDbEntity
  8
LC-001-002-----0
  6
CONTINUOUS
 62
             7
100
AcDbLine
 10
-85.0
 20
0.0
 11
-85.0
 21
-17.0
  0
LINE
  5
78
100
AcDbEntity
  8
LC-003-050-----0
  6
CONTINUOUS
 62
             7
100
AcDbLine
 10
-73.76251400000001
 20
-37.39162999999996
 11
-74.35290900000001
 21
-26.12621799999999
  0
LINE
  5
77
100
AcDbEntity
  8
LC-001-002-----0
  6
CONTINUOUS
 62
             7
100
AcDbLine
 10
-89.5
 20
-22.0
 11
-74.365591
 21
-26.12688199999997
  0
LINE
  5
76
100
AcDbEntity
  8
LC-001-002-----0
  6
CONTINUOUS
 62
             7
100
AcDbLine
 10
-85.0
 20
-17.0
 11
-90.575737
 21
-17.0
  0
LINE
  5
75
100
AcDbEntity
  8
LC-001-002-----0
  6
CONTINUOUS
 62
             7
100
AcDbLine
 10
-92.45427799999999
 20
-15.943986
 11
-90.575737
 21
-17.0
  0
LINE
  5
74
100
AcDbEntity
  8
LC-001-002-----0
  6
CONTINUOUS
 62
             7
100
AcDbLine
 10
-94.76102600000002
 20
-20.80405400000001
 11
-93.92491899999999
 21
-16.61974799999996
  0
LINE
  5
73
100
AcDbEntity
  8
LC-001-002-----0
  6
CONTINUOUS
 62
             7
100
AcDbLine
 10
-93.78041100000002
 20
-22.0
 11
-89.5
 21
-22.0
  0
LINE
  5
72
100
AcDbEntity
  8
LC-001-002-----0
  6
CONTINUOUS
 62
             7
100
AcDbLine
 10
85.00027100000006
 20
-16.99979099999996
 11
90.50027100000006
 21
-16.99979500000001
  0
LINE
  5
71
100
AcDbEntity
  8
LC-001-002-----0
  6
CONTINUOUS
 62
             7
100
AcDbLine
 10
84.99999999999994
 20
0.0
 11
84.99999999999994
 21
-16.99979099999996
  0
LINE
  5
70
100
AcDbEntity
  8
LC-001-002-----0
  6
CONTINUOUS
 62
             7
100
AcDbLine
 10
90.50027100000006
 20
-16.99979500000001
 11
90.50027100000006
 21
-21.72711199999998
  0
LINE
  5
6F
100
AcDbEntity
  8
LC-001-002-----0
  6
CONTINUOUS
 62
             7
100
AcDbLine
 10
90.50027100000006
 20
-21.72711199999998
 11
122.36585600000009
 21
-24.0
  0
LINE
  5
6E
100
AcDbEntity
  8
LC-001-002-----0
  6
CONTINUOUS
 62
             7
100
AcDbLine
 10
122.36585600000009
 20
-24.0
 11
121.999364
 21
-31.0
  0
LINE
  5
6D
100
AcDbEntity
  8
LC-001-002-----0
  6
CONTINUOUS
 62
             7
100
AcDbLine
 10
121.999364
 20
-31.0
 11
183.93375900000001
 21
-31.0
  0
LINE
  5
6C
100
AcDbEntity
  8
LC-001-002-----0
  6
CONTINUOUS
 62
             7
100
AcDbLine
 10
116.240202
 20
-141.0
 11
178.53575799999999
 21
-141.0
  0
LINE
  5
6B
100
AcDbEntity
  8
LC-001-002-----0
  6
CONTINUOUS
 62
             7
100
AcDbLine
 10
189.995937
 20
-34.5
 11
184.597936
 21
-137.5
  0
LINE
  5
6A
100
AcDbEntity
  8
LC-001-002-----0
  6
CONTINUOUS
 62
             7
100
AcDbLine
 10
184.597936
 20
-137.5
 11
178.53575799999999
 21
-141.0
  0
LINE
  5
69
100
AcDbEntity
  8
LC-001-002-----0
  6
CONTINUOUS
 62
             7
100
AcDbLine
 10
189.995937
 20
-34.5
 11
183.93375900000001
 21
-31.0
  0
LINE
  5
68
100
AcDbEntity
  8
LC-001-002-----0
  6
CONTINUOUS
 62
             7
100
AcDbLine
 10
116.240202
 20
-141.0
 11
112.84835597204049
 21
-205.78426606928369
  0
LINE
  5
67
100
AcDbEntity
  8
LC-001-002-----0
  6
CONTINUOUS
 62
             7
100
AcDbLine
 10
-49.82985862442952
 20
-219.99999999999989
 11
97.86887244514377
 21
-219.99999999999989
  0
LINE
  5
66
100
AcDbEntity
  8
LC-001-002-----0
  6
CONTINUOUS
 62
             7
100
AcDbLine
 10
84.99999999999994
 20
0.0
 11
-85.0
 21
0.0
  0
LINE
  5
65
100
AcDbEntity
  8
LC-001-002-----0
  6
CONTINUOUS
 62
             7
100
AcDbLine
 10
-67.80245200000002
 20
-149.513902
 11
-64.80868353604072
 21
-205.79674604943841
  0
LINE
  5
64
100
AcDbEntity
  8
LC-003-050-----0
  6
CONTINUOUS
 62
             7
100
AcDbLine
 10
-67.887179
 20
-149.51834299999999
 11
-73.763488
 21
-37.39168100000001
  0
LINE
  5
63
100
AcDbEntity
  8
LC-001-002-----0
  6
CONTINUOUS
 62
             7
100
AcDbLine
 10
-85.0
 20
-17.0
 11
84.99999999999994
 21
-17.0
  0
LINE
  5
62
100
AcDbEntity
  8
LC-001-002-----0
  6
CONTINUOUS
 62
             7
100
AcDbLine
 10
-89.5
 20
-22.0
 11
90.50027100000006
 21
-22.0
  0
LINE
  5
61
100
AcDbEntity
  8
LC-001-002-----0
  6
CONTINUOUS
 62
             7
100
AcDbLine
 10
-74.35290900000001
 20
-26.12621799999999
 11
122.36585600000009
 21
-26.12621799999999
  0
LINE
  5
60
100
AcDbEntity
  8
LC-001-002-----0
  6
CONTINUOUS
 62
             7
100
AcDbLine
 10
183.93375900000001
 20
-31.0
 11
178.53575799999999
 21
-141.0
  0
LINE
  5
5F
100
AcDbEntity
  8
1
  6
PHANTOM
 62
             2
100
AcDbLine
 10
102.609802979351
 20
-86.0
 11
194.201434065336
 21
-85.99999999999999
  0
LINE
  5
5E
100
AcDbEntity
  8
1
  6
PHANTOM
 62
             2
100
AcDbLine
 10
-0.00000000000002
 20
8.07553111547645
 11
-0.00000000000003
 21
-226.02990290813901
  0
LINE
  5
5D
100
AcDbEntity
  8
1
  6
CONTINUOUS
 62
             7
100
AcDbLine
 10
-61.80510636022103
 20
-205.78426606928369
 11
109.8442470573907
 21
-205.78426606928369
  0
LINE
  5
5C
100
AcDbEntity
  8
1
  6
DOT_CENTER
 62
             2
100
AcDbLine
 10
-74.29445987981897
 20
-95.00034708366897
 11
-66.0766047159733
 21
-95.00034708366897
  0
POINT
  5
5B
100
AcDbEntity
  8
LC-005-003-----0
 62
             7
100
AcDbPoint
 10
189.995937
 20
-34.5
  0
POINT
  5
5A
100
AcDbEntity
  8
LC-005-003-----0
 62
             7
100
AcDbPoint
 10
187.2969360000001
 20
-86.0
  0
POINT
  5
59
100
AcDbEntity
  8
LC-005-003-----0
 62
             7
100
AcDbPoint
 10
183.93375900000001
 20
-31.0
  0
POINT
  5
58
100
AcDbEntity
  8
LC-005-003-----0
 62
             7
100
AcDbPoint
 10
178.53575799999999
 20
-141.0
  0
ENDBLK
  5
7F
100
AcDbEntity
  8
0
100
AcDbBlockEnd
  0
BLOCK
  5
82
100
AcDbEntity
  8
0
100
AcDbBlockBegin
  2
*D2
 70
             1
 10
0.0
 20
0.0
 30
0.0
  3
*D2
  1

  0
LINE
  5
83
100
AcDbEntity
  8
0
  6
CONTINUOUS
 62
             4
100
AcDbLine
 10
-170.996455
 20
-132.50012500233998
 11
-170.996455
 21
-177.01682985874999
  0
LINE
  5
84
100
AcDbEntity
  8
0
  6
CONTINUOUS
 62
             4
100
AcDbLine
 10
-170.996455
 20
-57.50012500208649
 11
-170.996455
 21
-132.50012500233998
  0
LINE
  5
85
100
AcDbEntity
  8
0
  6
CONTINUOUS
 62
             4
100
AcDbLine
 10
-160.996455
 20
-132.50012500233998
 11
-172.996455
 21
-132.50012500233998
  0
LINE
  5
86
100
AcDbEntity
  8
0
  6
CONTINUOUS
 62
             4
100
AcDbLine
 10
-160.996455
 20
-57.50012500208649
 11
-172.996455
 21
-57.50012500208649
  0
SOLID
  5
87
100
AcDbEntity
  8
0
 62
             4
100
AcDbTrace
 10
-169.67993002412604
 20
-67.50012500208649
 11
-172.31297997587396
 21
-67.50012500208649
 12
-170.996455
 22
-57.50012500208649
 13
-170.996455
 23
-57.50012500208649
  0
SOLID
  5
88
100
AcDbEntity
  8
0
 62
             4
100
AcDbTrace
 10
-172.31297997587396
 20
-122.50012500233998
 11
-169.67993002412604
 21
-122.50012500233998
 12
-170.996455
 22
-132.50012500233998
 13
-170.996455
 23
-132.50012500233998
  0
MTEXT
  5
8A
100
AcDbEntity
  8
0
 62
             1
100
AcDbMText
 10
-172.996455
 20
-171.41682985874999
 30
0.0
 40
10.0
 41
0.0
 71
             7
 72
             1
  1
\C1;DN\C1;75
  7
CONVERTER_1
 11
0.0
 21
1.0
 31
0.0
  0
ENDBLK
  5
8B
100
AcDbEntity
  8
0
100
AcDbBlockEnd
  0
BLOCK
  5
8F
100
AcDbEntity
  8
0
100
AcDbBlockBegin
  2
*D3
 70
             1
 10
0.0
 20
0.0
 30
0.0
  3
*D3
  1

  0
LINE
  5
90
100
AcDbEntity
  8
0
  6
CONTINUOUS
 62
             4
100
AcDbLine
 10
234.27686229533501
 20
-31.0
 11
234.27686229533501
 21
-141.0
  0
LINE
  5
91
100
AcDbEntity
  8
0
  6
CONTINUOUS
 62
             4
100
AcDbLine
 10
178.53575799999999
 20
-141.0
 11
236.27686229533501
 21
-141.0
  0
LINE
  5
92
100
AcDbEntity
  8
0
  6
CONTINUOUS
 62
             4
100
AcDbLine
 10
183.93375900000001
 20
-31.0
 11
236.27686229533501
 21
-31.0
  0
SOLID
  5
93
100
AcDbEntity
  8
0
 62
             4
100
AcDbTrace
 10
235.59338727120897
 20
-41.0
 11
232.96033731946105
 21
-41.0
 12
234.27686229533501
 22
-31.0
 13
234.27686229533501
 23
-31.0
  0
SOLID
  5
94
100
AcDbEntity
  8
0
 62
             4
100
AcDbTrace
 10
232.96033731946105
 20
-131.0
 11
235.59338727120897
 21
-131.0
 12
234.27686229533501
 22
-141.0
 13
234.27686229533501
 23
-141.0
  0
MTEXT
  5
95
100
AcDbEntity
  8
0
 62
             1
100
AcDbMText
 10
232.27686229533501
 20
-93.57735455753411
 30
0.0
 40
10.0
 41
0.0
 71
             7
 72
             1
  1
\C1;DN\C1;110
  7
CONVERTER_1
 11
0.0
 21
1.0
 31
0.0
  0
ENDBLK
  5
96
100
AcDbEntity
  8
0
100
AcDbBlockEnd
  0
BLOCK
  5
9A
100
AcDbEntity
  8
0
100
AcDbBlockBegin
  2
*D4
 70
             1
 10
0.0
 20
0.0
 30
0.0
  3
*D4
  1

  0
LINE
  5
9B
100
AcDbEntity
  8
0
  6
CONTINUOUS
 62
             4
100
AcDbLine
 10
214.13810512267801
 20
-86.0
 11
214.13810512267801
 21
0.0
  0
LINE
  5
9C
100
AcDbEntity
  8
0
  6
CONTINUOUS
 62
             4
100
AcDbLine
 10
84.99999999999992
 20
0.0
 11
216.13810512267801
 21
0.0
  0
LINE
  5
9D
100
AcDbEntity
  8
0
  6
CONTINUOUS
 62
             4
100
AcDbLine
 10
194.201434065336
 20
-86.0
 11
216.13810512267801
 21
-86.0
  0
SOLID
  5
9E
100
AcDbEntity
  8
0
 62
             4
100
AcDbTrace
 10
212.82158014680405
 20
-76.0
 11
215.45463009855197
 21
-76.0
 12
214.13810512267801
 22
-86.0
 13
214.13810512267801
 23
-86.0
  0
SOLID
  5
9F
100
AcDbEntity
  8
0
 62
             4
100
AcDbTrace
 10
215.45463009855197
 20
-10.0
 11
212.82158014680405
 21
-10.0
 12
214.13810512267801
 22
0.0
 13
214.13810512267801
 23
0.0
  0
MTEXT
  5
A0
100
AcDbEntity
  8
0
 62
             1
100
AcDbMText
 10
212.13810512267801
 20
-55.7963924501917
 30
0.0
 40
10.0
 41
0.0
 71
             7
 72
             1
  1
86
  7
CONVERTER_1
 11
0.0
 21
1.0
 31
0.0
  0
ENDBLK
  5
A1
100
AcDbEntity
  8
0
100
AcDbBlockEnd
  0
BLOCK
  5
A5
100
AcDbEntity
  8
0
100
AcDbBlockBegin
  2
*D5
 70
             1
 10
0.0
 20
0.0
 30
0.0
  3
*D5
  1

  0
LINE
  5
A6
100
AcDbEntity
  8
0
  6
CONTINUOUS
 62
             4
100
AcDbLine
 10
-85.0
 20
14.0441644171642
 11
84.99999999999994
 21
14.0441644171642
  0
LINE
  5
A7
100
AcDbEntity
  8
0
  6
CONTINUOUS
 62
             4
100
AcDbLine
 10
84.99999999999994
 20
0.0
 11
84.99999999999994
 21
16.0441644171642
  0
LINE
  5
A8
100
AcDbEntity
  8
0
  6
CONTINUOUS
 62
             4
100
AcDbLine
 10
-85.0
 20
0.0
 11
-85.0
 21
16.0441644171642
  0
SOLID
  5
A9
100
AcDbEntity
  8
0
 62
             4
100
AcDbTrace
 10
-75.0
 20
15.36068939303816
 11
-75.0
 21
12.72763944129024
 12
-85.0
 22
14.0441644171642
 13
-85.0
 23
14.0441644171642
  0
SOLID
  5
AA
100
AcDbEntity
  8
0
 62
             4
100
AcDbTrace
 10
74.99999999999994
 20
12.72763944129025
 11
74.99999999999994
 21
15.36068939303816
 12
84.99999999999994
 22
14.0441644171642
 13
84.99999999999994
 23
14.0441644171642
  0
MTEXT
  5
AB
100
AcDbEntity
  8
0
 62
             1
100
AcDbMText
 10
-32.97089969085798
 20
16.0441644171642
 30
0.0
 40
10.0
 41
0.0
 71
             7
 72
             1
  1
\C1;170\C1;x240
  7
CONVERTER_1
 11
0.99999999999706
 21
0.00000242406841
 31
0.0
  0
ENDBLK
  5
AC
100
AcDbEntity
  8
0
100
AcDbBlockEnd
  0
BLOCK
  5
B0
100
AcDbEntity
  8
0
100
AcDbBlockBegin
  2
*D6
 70
             1
 10
0.0
 20
0.0
 30
0.0
  3
*D6
  1

  0
LINE
  5
B1
100
AcDbEntity
  8
0
  6
CONTINUOUS
 62
             4
100
AcDbLine
 10
-0.00000000000003
 20
-240.56698883363001
 11
-154.99645500000003
 21
-240.56698883363001
  0
LINE
  5
B2
100
AcDbEntity
  8
0
  6
CONTINUOUS
 62
             4
100
AcDbLine
 10
-154.99645500000003
 20
-132.50094200000001
 11
-154.99645500000003
 21
-242.56698883363001
  0
LINE
  5
B3
100
AcDbEntity
  8
0
  6
CONTINUOUS
 62
             4
100
AcDbLine
 10
-0.00000000000003
 20
-226.02990290813901
 11
-0.00000000000003
 21
-242.56698883363001
  0
SOLID
  5
B4
100
AcDbEntity
  8
0
 62
             4
100
AcDbTrace
 10
-10.00000000000003
 20
-241.88351380950397
 11
-10.00000000000003
 21
-239.25046385775605
 12
-0.00000000000003
 22
-240.56698883363001
 13
-0.00000000000003
 23
-240.56698883363001
  0
SOLID
  5
B5
100
AcDbEntity
  8
0
 62
             4
100
AcDbTrace
 10
-144.99645500000003
 20
-239.25046385775605
 11
-144.99645500000003
 21
-241.88351380950397
 12
-154.99645500000003
 22
-240.56698883363001
 13
-154.99645500000003
 23
-240.56698883363001
  0
MTEXT
  5
B6
100
AcDbEntity
  8
0
 62
             1
100
AcDbMText
 10
-82.7473774386015
 20
-238.56698883363001
 30
0.0
 40
10.0
 41
0.0
 71
             7
 72
             1
  1
155
  7
CONVERTER_1
 11
0.99999999999706
 21
0.00000242406841
 31
0.0
  0
ENDBLK
  5
B7
100
AcDbEntity
  8
0
100
AcDbBlockEnd
  0
BLOCK
  5
BB
100
AcDbEntity
  8
0
100
AcDbBlockBegin
  2
*D7
 70
             1
 10
0.0
 20
0.0
 30
0.0
  3
*D7
  1

  0
LINE
  5
BC
100
AcDbEntity
  8
0
  6
CONTINUOUS
 62
             4
100
AcDbLine
 10
-0.00000000000003
 20
-241.06698883363001
 11
189.995937
 21
-241.06698883363001
  0
LINE
  5
BD
100
AcDbEntity
  8
0
  6
CONTINUOUS
 62
             4
100
AcDbLine
 10
189.995937
 20
-34.5
 11
189.995937
 21
-243.06698883363001
  0
LINE
  5
BE
100
AcDbEntity
  8
0
  6
CONTINUOUS
 62
             4
100
AcDbLine
 10
-0.00000000000003
 20
-226.02990290813901
 11
-0.00000000000003
 21
-243.06698883363001
  0
SOLID
  5
BF
100
AcDbEntity
  8
0
 62
             4
100
AcDbTrace
 10
9.99999999999997
 20
-239.75046385775605
 11
9.99999999999997
 21
-242.38351380950397
 12
-0.00000000000003
 22
-241.06698883363001
 13
-0.00000000000003
 23
-241.06698883363001
  0
SOLID
  5
C0
100
AcDbEntity
  8
0
 62
             4
100
AcDbTrace
 10
179.995937
 20
-242.38351380950397
 11
179.995937
 21
-239.75046385775605
 12
189.995937
 22
-241.06698883363001
 13
189.995937
 23
-241.06698883363001
  0
MTEXT
  5
C1
100
AcDbEntity
  8
0
 62
             1
100
AcDbMText
 10
79.1731319220081
 20
-239.06698883363001
 30
0.0
 40
10.0
 41
0.0
 71
             7
 72
             1
  1
190
  7
CONVERTER_1
 11
0.99999999999706
 21
0.00000242406841
 31
0.0
  0
ENDBLK
  5
C2
100
AcDbEntity
  8
0
100
AcDbBlockEnd
  0
BLOCK
  5
C6
100
AcDbEntity
  8
0
100
AcDbBlockBegin
  2
*D8
 70
             1
 10
0.0
 20
0.0
 30
0.0
  3
*D8
  1

  0
LINE
  5
C7
100
AcDbEntity
  8
0
  6
CONTINUOUS
 62
             4
100
AcDbLine
 10
-188.45109818182101
 20
0.0
 11
-188.45109818182101
 21
-95.00012715443427
  0
LINE
  5
C8
100
AcDbEntity
  8
0
  6
CONTINUOUS
 62
             4
100
AcDbLine
 10
-160.26317082031849
 20
-95.00012715443427
 11
-190.45109818182101
 21
-95.00012715443427
  0
LINE
  5
C9
100
AcDbEntity
  8
0
  6
CONTINUOUS
 62
             4
100
AcDbLine
 10
-85.00000000000001
 20
0.0
 11
-190.45109818182101
 21
0.0
  0
SOLID
  5
CA
100
AcDbEntity
  8
0
 62
             4
100
AcDbTrace
 10
-187.13457320594705
 20
-10.0
 11
-189.76762315769497
 21
-10.0
 12
-188.45109818182101
 22
0.0
 13
-188.45109818182101
 23
0.0
  0
SOLID
  5
CB
100
AcDbEntity
  8
0
 62
             4
100
AcDbTrace
 10
-189.76762315769497
 20
-85.00012715443427
 11
-187.13457320594705
 21
-85.00012715443427
 12
-188.45109818182101
 22
-95.00012715443427
 13
-188.45109818182101
 23
-95.00012715443427
  0
MTEXT
  5
CC
100
AcDbEntity
  8
0
 62
             1
100
AcDbMText
 10
-190.45109818182101
 20
-64.59332922272502
 30
0.0
 40
10.0
 41
0.0
 71
             7
 72
             1
  1
95
  7
CONVERTER_1
 11
0.0
 21
1.0
 31
0.0
  0
ENDBLK
  5
CD
100
AcDbEntity
  8
0
100
AcDbBlockEnd
  0
BLOCK
  5
D1
100
AcDbEntity
  8
0
100
AcDbBlockBegin
  2
*D9
 70
             1
 10
0.0
 20
0.0
 30
0.0
  3
*D9
  1

  0
LINE
  5
D2
100
AcDbEntity
  8
0
  6
CONTINUOUS
 62
             4
100
AcDbLine
 10
-205.52750397751299
 20
0.0
 11
-205.52750397751299
 21
-219.99999999999989
  0
LINE
  5
D3
100
AcDbEntity
  8
0
  6
CONTINUOUS
 62
             4
100
AcDbLine
 10
-49.82985862442951
 20
-219.99999999999989
 11
-207.52750397751299
 21
-219.99999999999989
  0
LINE
  5
D4
100
AcDbEntity
  8
0
  6
CONTINUOUS
 62
             4
100
AcDbLine
 10
-84.99999999999999
 20
0.0
 11
-207.52750397751299
 21
0.0
  0
SOLID
  5
D5
100
AcDbEntity
  8
0
 62
             4
100
AcDbTrace
 10
-204.21097900163903
 20
-10.0
 11
-206.84402895338695
 21
-10.0
 12
-205.52750397751299
 22
0.0
 13
-205.52750397751299
 23
0.0
  0
SOLID
  5
D6
100
AcDbEntity
  8
0
 62
             4
100
AcDbTrace
 10
-206.84402895338695
 20
-209.99999999999989
 11
-204.21097900163903
 21
-209.99999999999989
 12
-205.52750397751299
 22
-219.99999999999989
 13
-205.52750397751299
 23
-219.99999999999989
  0
MTEXT
  5
D7
100
AcDbEntity
  8
0
 62
             1
100
AcDbMText
 10
-207.52750397751299
 20
-128.60201563295999
 30
0.0
 40
10.0
 41
0.0
 71
             7
 72
             1
  1
220
  7
CONVERTER_1
 11
0.0
 21
1.0
 31
0.0
  0
ENDBLK
  5
D8
100
AcDbEntity
  8
0
100
AcDbBlockEnd
  0
ENDSEC
  0
SECTION
  2
ENTITIES
  0
DIMENSION
  5
DA
100
AcDbEntity
  8
1
100
AcDbDimension
  2
*D9
 10
-205.52750397751299
 20
0.0
 11
-212.52750397751299
 21
-116.60201563296
 31
0.0
 53
90.0
  1
<>
  3
ME10_DIM_7
100
AcDbAlignedDimension
 13
-49.82985862442952
 23
-219.99999999999989
 14
-85.0
 24
0.0
 50
90.0
100
AcDbRotatedDimension
  0
DIMENSION
  5
CF
100
AcDbEntity
  8
1
100
AcDbDimension
  2
*D8
 10
-188.45109818182101
 20
0.0
 11
-195.45109818182101
 21
-57.09332922272502
 31
0.0
 53
90.0
  1
<>
  3
ME10_DIM_6
100
AcDbAlignedDimension
 13
-160.26317082031849
 23
-95.00012715443425
 14
-85.0
 24
0.0
 50
90.0
100
AcDbRotatedDimension
  0
DIMENSION
  5
C4
100
AcDbEntity
  8
1
100
AcDbDimension
  2
*D7
 10
-0.00000000000003
 20
-241.06698883363001
 11
89.6731319220081
 21
-234.06698883363001
 31
0.0
 53
180.0
  1
<>
  3
ME10_DIM_5
100
AcDbAlignedDimension
 13
189.995937
 23
-34.5
 14
-0.00000000000003
 24
-226.02990290813901
 50
180.0
100
AcDbRotatedDimension
  0
DIMENSION
  5
B9
100
AcDbEntity
  8
1
100
AcDbDimension
  2
*D6
 10
-0.00000000000003
 20
-240.56698883363001
 11
-72.2473774386015
 21
-233.56698883363001
 31
0.0
 53
180.0
  1
<>
  3
ME10_DIM_4
100
AcDbAlignedDimension
 13
-154.996455
 23
-132.50094200000001
 14
-0.00000000000003
 24
-226.02990290813901
 50
180.0
100
AcDbRotatedDimension
  0
DIMENSION
  5
AE
100
AcDbEntity
  8
1
100
AcDbDimension
  2
*D5
 10
-85.0
 20
14.0441644171642
 11
-3.47089969085798
 21
21.0441644171642
 31
0.0
 53
180.0
  1
<>
  3
ME10_DIM_3
100
AcDbAlignedDimension
 13
84.99999999999994
 23
0.0
 14
-85.0
 24
0.0
 50
180.0
100
AcDbRotatedDimension
  0
DIMENSION
  5
A3
100
AcDbEntity
  8
1
100
AcDbDimension
  2
*D4
 10
214.13810512267801
 20
-86.0
 11
207.13810512267801
 21
-48.2963924501917
 31
0.0
 53
90.00000000000003
  1
<>
  3
ME10_DIM_2
100
AcDbAlignedDimension
 13
84.99999999999994
 23
0.0
 14
194.201434065336
 24
-85.99999999999999
 50
90.00000000000003
100
AcDbRotatedDimension
  0
DIMENSION
  5
98
100
AcDbEntity
  8
1
100
AcDbDimension
  2
*D3
 10
234.27686229533501
 20
-31.0
 11
227.27686229533501
 21
-79.1773545575341
 31
0.0
 53
90.00000000000003
  1
<>
  3
ME10_DIM_1
100
AcDbAlignedDimension
 13
178.53575799999999
 23
-141.0
 14
183.93375900000001
 24
-31.0
 50
90.00000000000003
100
AcDbRotatedDimension
  0
DIMENSION
  5
8D
100
AcDbEntity
  8
1
100
AcDbDimension
  2
*D2
 10
-170.996455
 20
-57.50012500208649
 11
-177.996455
 21
-158.51682985874999
 31
0.0
 53
90.00000000000003
  1
<>
  3
ME10_DIM_0
100
AcDbAlignedDimension
 13
-160.996455
 23
-132.50012500234001
 14
-160.996455
 24
-57.50012500208648
 50
90.00000000000003
100
AcDbRotatedDimension
  0
INSERT
  5
2E
100
AcDbEntity
  8
1
100
AcDbBlockReference
  2
071_1_2E_ANSCHLU_MUFFEDN50
 10
-160.996455
 20
-150.51281
  0
INSERT
  5
2F
100
AcDbEntity
  8
0
100
AcDbBlockReference
  2
HL71_1_7_KELLERABLAUF
 10
-376.94765799999999
 20
-432.55545899999998
  0
ENDSEC
  0
SECTION
  2
OBJECTS
  0
DICTIONARY
  5
19
100
AcDbDictionary
  3
ACAD_GROUP
350
1A
  3
ACAD_MLINESTYLE
350
1B
  0
DICTIONARY
  5
1A
102
{ACAD_REACTORS
330
19
102
}
100
AcDbDictionary
  0
DICTIONARY
  5
1B
102
{ACAD_REACTORS
330
19
102
}
100
AcDbDictionary
  3
STANDARD
350
1C
  0
MLINESTYLE
  5
1C
102
{ACAD_REACTORS
330
1B
102
}
100
AcDbMlineStyle
  2
STANDARD
 70
             0
  3

 62
             0
 51
90.0
 52
90.0
 71
             2
 49
0.5
 62
           256
  6
BYLAYER
 49
-0.5
 62
           256
  6
BYLAYER
  0
ENDSEC
  0
EOF
