  0
SECTION
  2
HEADER
  9
$ACADVER
  1
AC1014
  9
$ACADMAINTVER
 70
             0
  9
$DWGCODEPAGE
  3
ANSI_1252
  9
$INSBASE
 10
0.0
 20
0.0
 30
0.0
  9
$EXTMIN
 10
-34.81522130917706
 20
-164.511556053178
 30
0.0
  9
$EXTMAX
 10
508.46332020392282
 20
213.99740300000011
 30
0.0
  9
$LIMMIN
 10
0.0
 20
0.0
  9
$LIMMAX
 10
0.0
 20
0.0
  9
$ORTHOMODE
 70
             0
  9
$REGENMODE
 70
             1
  9
$FILLMODE
 70
             1
  9
$QTEXTMODE
 70
             0
  9
$MIRRTEXT
 70
             1
  9
$DRAGMODE
 70
             2
  9
$LTSCALE
 40
1.0
  9
$OSMODE
 70
             0
  9
$ATTMODE
 70
             1
  9
$TEXTSIZE
 40
0.2
  9
$TRACEWID
 40
0.05
  9
$TEXTSTYLE
  7
STANDARD
  9
$CLAYER
  8
0
  9
$CELTYPE
  6
CONTINUOUS
  9
$CECOLOR
 62
           256
  9
$CELTSCALE
 40
1.0
  9
$DELOBJ
 70
             1
  9
$DISPSILH
 70
             0
  9
$DIMSCALE
 40
1.0
  9
$DIMASZ
 40
0.18
  9
$DIMEXO
 40
0.0625
  9
$DIMDLI
 40
0.38
  9
$DIMRND
 40
0.0
  9
$DIMDLE
 40
0.0
  9
$DIMEXE
 40
0.18
  9
$DIMTP
 40
0.0
  9
$DIMTM
 40
0.0
  9
$DIMTXT
 40
0.18
  9
$DIMCEN
 40
0.09
  9
$DIMTSZ
 40
0.0
  9
$DIMTOL
 70
             0
  9
$DIMLIM
 70
             0
  9
$DIMTIH
 70
             1
  9
$DIMTOH
 70
             1
  9
$DIMSE1
 70
             0
  9
$DIMSE2
 70
             0
  9
$DIMTAD
 70
             0
  9
$DIMZIN
 70
             0
  9
$DIMBLK
  1

  9
$DIMASO
 70
             1
  9
$DIMSHO
 70
             1
  9
$DIMPOST
  1

  9
$DIMAPOST
  1

  9
$DIMALT
 70
             0
  9
$DIMALTD
 70
             2
  9
$DIMALTF
 40
25.4
  9
$DIMLFAC
 40
1.0
  9
$DIMTOFL
 70
             0
  9
$DIMTVP
 40
0.0
  9
$DIMTIX
 70
             0
  9
$DIMSOXD
 70
             0
  9
$DIMSAH
 70
             0
  9
$DIMBLK1
  1

  9
$DIMBLK2
  1

  9
$DIMSTYLE
  2
STANDARD
  9
$DIMCLRD
 70
             0
  9
$DIMCLRE
 70
             0
  9
$DIMCLRT
 70
             0
  9
$DIMTFAC
 40
1.0
  9
$DIMGAP
 40
0.09
  9
$DIMJUST
 70
             0
  9
$DIMSD1
 70
             0
  9
$DIMSD2
 70
             0
  9
$DIMTOLJ
 70
             1
  9
$DIMTZIN
 70
             0
  9
$DIMALTZ
 70
             0
  9
$DIMALTTZ
 70
             0
  9
$DIMFIT
 70
             3
  9
$DIMUPT
 70
             0
  9
$DIMUNIT
 70
             2
  9
$DIMDEC
 70
             4
  9
$DIMTDEC
 70
             4
  9
$DIMALTU
 70
             2
  9
$DIMALTTD
 70
             2
  9
$DIMTXSTY
  7
STANDARD
  9
$DIMAUNIT
 70
             0
  9
$LUNITS
 70
             2
  9
$LUPREC
 70
             4
  9
$SKETCHINC
 40
0.1
  9
$FILLETRAD
 40
0.0
  9
$AUNITS
 70
             0
  9
$AUPREC
 70
             0
  9
$MENU
  1
acad
  9
$ELEVATION
 40
0.0
  9
$PELEVATION
 40
0.0
  9
$THICKNESS
 40
0.0
  9
$LIMCHECK
 70
             0
  9
$BLIPMODE
 70
             1
  9
$CHAMFERA
 40
0.0
  9
$CHAMFERB
 40
0.0
  9
$CHAMFERC
 40
0.0
  9
$CHAMFERD
 40
0.0
  9
$SKPOLY
 70
             0
  9
$TDCREATE
 40
0.000000000
  9
$TDUPDATE
 40
0.000000000
  9
$TDINDWG
 40
0.0000000000
  9
$TDUSRTIMER
 40
0.0000000000
  9
$USRTIMER
 70
             1
  9
$ANGBASE
 50
0.0
  9
$ANGDIR
 70
             0
  9
$PDMODE
 70
             0
  9
$PDSIZE
 40
0.0
  9
$PLINEWID
 40
0.0
  9
$COORDS
 70
             0
  9
$SPLFRAME
 70
             0
  9
$SPLINETYPE
 70
             6
  9
$SPLINESEGS
 70
             8
  9
$ATTDIA
 70
             0
  9
$ATTREQ
 70
             1
  9
$HANDLING
 70
             1
  9
$HANDSEED
  5
1BF
  9
$SURFTAB1
 70
             6
  9
$SURFTAB2
 70
             6
  9
$SURFTYPE
 70
             6
  9
$SURFU
 70
             6
  9
$SURFV
 70
             6
  9
$UCSNAME
  2

  9
$UCSORG
 10
0.0
 20
0.0
 30
0.0
  9
$UCSXDIR
 10
1.0
 20
0.0
 30
0.0
  9
$UCSYDIR
 10
0.0
 20
1.0
 30
0.0
  9
$PUCSNAME
  2

  9
$PUCSORG
 10
0.0
 20
0.0
 30
0.0
  9
$PUCSXDIR
 10
1.0
 20
0.0
 30
0.0
  9
$PUCSYDIR
 10
0.0
 20
1.0
 30
0.0
  9
$USERI1
 70
             0
  9
$USERI2
 70
             0
  9
$USERI3
 70
             0
  9
$USERI4
 70
             0
  9
$USERI5
 70
             0
  9
$USERR1
 40
12.01
  9
$USERR2
 40
0.0
  9
$USERR3
 40
0.0
  9
$USERR4
 40
0.0
  9
$USERR5
 40
0.0
  9
$WORLDVIEW
 70
             1
  9
$SHADEDGE
 70
             3
  9
$SHADEDIF
 70
            70
  9
$TILEMODE
 70
             1
  9
$MAXACTVP
 70
            16
  9
$PINSBASE
 10
0.0
 20
0.0
 30
0.0
  9
$PLIMCHECK
 70
             0
  9
$PEXTMIN
 10
1.00000000000000E+20
 20
1.00000000000000E+20
 30
1.00000000000000E+20
  9
$PEXTMAX
 10
-1.00000000000000E+20
 20
-1.00000000000000E+20
 30
-1.00000000000000E+20
  9
$PLIMMIN
 10
0.0
 20
0.0
  9
$PLIMMAX
 10
12.0
 20
9.0
  9
$UNITMODE
 70
             0
  9
$VISRETAIN
 70
             0
  9
$PLINEGEN
 70
             1
  9
$PSLTSCALE
 70
             0
  9
$TREEDEPTH
 70
          3020
  9
$PICKSTYLE
 70
             1
  9
$CMLSTYLE
  2
STANDARD
  9
$CMLJUST
 70
             0
  9
$CMLSCALE
 40
1.0
  9
$PROXYGRAPHICS
 70
             0
  9
$MEASUREMENT
 70
             1
  0
ENDSEC
  0
SECTION
  2
CLASSES
  0
CLASS
  1
LWPOLYLINE
  2
AcDbPolyline
  3
"AutoCAD"
 90
        0
280
             0
281
             1
  0
CLASS
  1
IMAGE
  2
AcDbRasterImage
  3
ISM
 90
      127
280
             0
281
             1
  0
CLASS
  1
OLE2FRAME
  2
AcDbOle2Frame
  3
""
 90
        0
280
             0
281
             1
  0
CLASS
  1
HATCH
  2
AcDbHatch
  3
"ACAD_SEDONA"
 90
        0
280
             0
281
             1
  0
CLASS
  1
DICTIONARYVAR
  2
AcDbDictionaryVar
  3
"AutoCAD"
 90
        0
280
             0
281
             0
  0
CLASS
  1
RASTERVARIABLES
  2
AcDbRasterVariables
  3
ISM
 90
        0
280
             0
281
             0
  0
CLASS
  1
IMAGEDEF
  2
AcDbRasterImageDef
  3
ISM
 90
        0
280
             0
281
             0
  0
CLASS
  1
IMAGEDEF_REACTOR
  2
AcDbRasterImageDefReactor
  3
ISM
 90
        1
280
             0
281
             0
  0
CLASS
  1
IDBUFFER
  2
AcDbIdBuffer
  3
"Acad"
 90
        0
280
             0
281
             0
  0
CLASS
  1
SPATIAL_FILTER
  2
AcDbSpatialFilter
  3
"Acad"
 90
        0
280
             0
281
             0
  0
CLASS
  1
XRECORD
  2
AcDbXrecord
  3
"<Built In>"
 90
        0
280
             0
281
             0
  0
CLASS
  1
SORTENTSTABLE
  2
AcDbSortentsTable
  3
"AutoCAD"
 90
        0
280
             0
281
             0
  0
CLASS
  1
LAYER_INDEX
  2
AcDbLayerIndex
  3
"Acad"
 90
        0
280
             0
281
             0
  0
CLASS
  1
SPATIAL_INDEX
  2
AcDbSpatialIndex
  3
"Acad"
 90
        0
280
             0
281
             0
  0
CLASS
  1
OBJECT_PTR
  2
CAseDLPNTableRecord
  3
"ASE-LPNTableRecord"
 90
        1
280
             0
281
             0
  0
CLASS
  1
LAYOUT
  2
AcDbLayout
  3
"AutoCAD 2000"
 90
        0
280
             0
281
             0
  0
CLASS
  1
PLOTSETTINGS
  2
AcDbPlotSettings
  3
"AutoCAD 2000"
 90
        0
280
             0
281
             0
  0
CLASS
  1
ACDBDICTIONARYWDFLT
  2
AcDbDictionaryWithDefault
  3
"AutoCAD 2000"
 90
        0
280
             0
281
             0
  0
CLASS
  1
ACDBPLACEHOLDER
  2
AcDbPlaceHolder
  3
"AutoCAD 2000"
 90
        0
280
             0
281
             0
  0
ENDSEC
  0
SECTION
  2
TABLES
  0
TABLE
  2
VPORT
  5
7
100
AcDbSymbolTable
 70
             1
  0
VPORT
  5
15
100
AcDbSymbolTableRecord
100
AcDbViewportTableRecord
  2
*ACTIVE
 70
             0
 10
0.0
 20
0.0
 11
1.0
 21
1.0
 12
236.82404944737289
 22
24.74292347341105
 13
0.0
 23
0.0
 14
1.0
 24
1.0
 15
0.0
 25
0.0
 16
0.0
 26
0.0
 36
1.0
 17
0.0
 27
0.0
 37
0.0
 40
416.35985495849593
 41
1.60267857142857
 42
50.0
 43
0.0
 44
0.0
 50
0.0
 51
0.0
 71
             0
 72
           100
 73
             1
 74
             1
 75
             0
 76
             0
 77
             0
 78
             0
  0
ENDTAB
  0
TABLE
  2
LTYPE
  5
4
100
AcDbSymbolTable
 70
            11
  0
LTYPE
  5
11
100
AcDbSymbolTableRecord
100
AcDbLinetypeTableRecord
  2
BYBLOCK
 70
            64
  3

 72
            65
 73
             0
 40
0.0
  0
LTYPE
  5
12
100
AcDbSymbolTableRecord
100
AcDbLinetypeTableRecord
  2
BYLAYER
 70
            64
  3

 72
            65
 73
             0
 40
0.0
  0
LTYPE
  5
13
100
AcDbSymbolTableRecord
100
AcDbLinetypeTableRecord
  2
CONTINUOUS
 70
            64
  3
Solid line
 72
            65
 73
             0
 40
0.0
  0
LTYPE
  5
1D
100
AcDbSymbolTableRecord
100
AcDbLinetypeTableRecord
  2
DASHED
 70
            64
  3
Dashed
 72
            65
 73
             2
 40
15.0
 49
7.0
 74
             0
 49
-8.0
 74
             0
  0
LTYPE
  5
1E
100
AcDbSymbolTableRecord
100
AcDbLinetypeTableRecord
  2
DOTTED
 70
            64
  3
Dotted
 72
            65
 73
             2
 40
1.0
 49
0.0
 74
             0
 49
-1.0
 74
             0
  0
LTYPE
  5
1F
100
AcDbSymbolTableRecord
100
AcDbLinetypeTableRecord
  2
DOT_CENTER
 70
            64
  3
Dot_Center
 72
            65
 73
             4
 40
14.0
 49
12.0
 74
             0
 49
-1.0
 74
             0
 49
0.0
 74
             0
 49
-1.0
 74
             0
  0
LTYPE
  5
20
100
AcDbSymbolTableRecord
100
AcDbLinetypeTableRecord
  2
LONG_DASHED
 70
            64
  3
Long_Dashed
 72
            65
 73
             2
 40
15.0
 49
10.0
 74
             0
 49
-5.0
 74
             0
  0
LTYPE
  5
21
100
AcDbSymbolTableRecord
100
AcDbLinetypeTableRecord
  2
DASH_CENTER
 70
            64
  3
Dash_Center
 72
            65
 73
             4
 40
14.0
 49
11.0
 74
             0
 49
-1.0
 74
             0
 49
1.0
 74
             0
 49
-1.0
 74
             0
  0
LTYPE
  5
22
100
AcDbSymbolTableRecord
100
AcDbLinetypeTableRecord
  2
PHANTOM
 70
            64
  3
Phantom
 72
            65
 73
             6
 40
13.0
 49
10.0
 74
             0
 49
-1.0
 74
             0
 49
0.0
 74
             0
 49
-1.0
 74
             0
 49
0.0
 74
             0
 49
-1.0
 74
             0
  0
LTYPE
  5
23
100
AcDbSymbolTableRecord
100
AcDbLinetypeTableRecord
  2
CENTER_DASH_DASH
 70
            64
  3
Center_Dash_Dash
 72
            65
 73
             6
 40
14.0
 49
9.0
 74
             0
 49
-1.0
 74
             0
 49
1.0
 74
             0
 49
-1.0
 74
             0
 49
1.0
 74
             0
 49
-1.0
 74
             0
  0
LTYPE
  5
24
100
AcDbSymbolTableRecord
100
AcDbLinetypeTableRecord
  2
DASHDOT
 70
            64
  3
DASHDOT
 72
            65
 73
             4
 40
16.0
 49
10.0
 74
             0
 49
-3.0
 74
             0
 49
0.0
 74
             0
 49
-3.0
 74
             0
  0
ENDTAB
  0
TABLE
  2
LAYER
  5
2
100
AcDbSymbolTable
 70
             7
  0
LAYER
  5
14
100
AcDbSymbolTableRecord
100
AcDbLayerTableRecord
  2
0
 70
             0
 62
             7
  6
CONTINUOUS
  0
LAYER
  5
25
100
AcDbSymbolTableRecord
100
AcDbLayerTableRecord
  2
1
 70
             0
 62
             7
  6
CONTINUOUS
  0
LAYER
  5
26
100
AcDbSymbolTableRecord
100
AcDbLayerTableRecord
  2
LC-002-003-----0
 70
             0
 62
             7
  6
CONTINUOUS
  0
LAYER
  5
27
100
AcDbSymbolTableRecord
100
AcDbLayerTableRecord
  2
LC-005-002-----0
 70
             0
 62
             7
  6
CONTINUOUS
  0
LAYER
  5
28
100
AcDbSymbolTableRecord
100
AcDbLayerTableRecord
  2
LC-007-002-RND-0
 70
             0
 62
             7
  6
CONTINUOUS
  0
LAYER
  5
29
100
AcDbSymbolTableRecord
100
AcDbLayerTableRecord
  2
LC-008-001-----0
 70
             0
 62
             7
  6
CONTINUOUS
  0
LAYER
  5
2A
100
AcDbSymbolTableRecord
100
AcDbLayerTableRecord
  2
LC-010-201-----0
 70
             0
 62
             7
  6
CONTINUOUS
  0
ENDTAB
  0
TABLE
  2
STYLE
  5
3
100
AcDbSymbolTable
 70
             2
  0
STYLE
  5
17
100
AcDbSymbolTableRecord
100
AcDbTextStyleTableRecord
  2
STANDARD
 70
             0
 40
0.0
 41
1.0
 50
0.0
 71
             0
 42
0.0
  3
txt
  4

  0
STYLE
  5
18B
100
AcDbSymbolTableRecord
100
AcDbTextStyleTableRecord
  2
CONVERTER_1
 70
             0
 40
0.0
 41
0.9
 50
0.0
 71
             0
 42
0.0
  3
txt.shx
  4

  0
ENDTAB
  0
TABLE
  2
VIEW
  5
5
100
AcDbSymbolTable
 70
             0
  0
ENDTAB
  0
TABLE
  2
UCS
  5
6
100
AcDbSymbolTable
 70
             0
  0
ENDTAB
  0
TABLE
  2
APPID
  5
8
100
AcDbSymbolTable
 70
             1
  0
APPID
  5
16
100
AcDbSymbolTableRecord
100
AcDbRegAppTableRecord
  2
ACAD
 70
             0
  0
ENDTAB
  0
TABLE
  2
DIMSTYLE
  5
9
100
AcDbSymbolTable
 70
             6
  0
DIMSTYLE
105
18
100
AcDbSymbolTableRecord
100
AcDbDimStyleTableRecord
  2
STANDARD
 70
             0
  3

  4

  5

  6

  7

 40
1.0
 41
0.18
 42
0.0625
 43
0.38
 44
0.18
 45
0.0
 46
0.0
 47
0.0
 48
0.0
 71
             0
 72
             0
 73
             1
 74
             1
 75
             0
 76
             0
 77
             0
 78
             0
140
0.18
141
0.09
142
0.0
143
25.4
144
1.0
145
0.0
146
1.0
147
0.09
170
             0
171
             2
172
             0
173
             0
174
             0
175
             0
176
             0
177
             0
178
             0
270
             2
271
             4
272
             4
273
             2
274
             2
275
             0
280
             0
281
             0
282
             0
283
             1
284
             0
285
             0
286
             0
287
             3
288
             0
340
17
  0
DIMSTYLE
105
18E
100
AcDbSymbolTableRecord
100
AcDbDimStyleTableRecord
  2
ME10_DIM_0
 70
             0
  3
DN<>
  4

  5

  6

  7

 40
1.0
 41
15.0
 42
0.0
 43
0.38
 44
2.0
 45
0.0
 46
0.0
 47
0.0
 48
0.0
 71
             0
 72
             0
 73
             0
 74
             0
 75
             0
 76
             0
 77
             1
 78
             8
140
15.0
141
0.09
142
0.0
143
25.4
144
1.0
145
0.0
146
1.0
147
0.625
170
             0
171
             2
172
             1
173
             1
174
             0
175
             0
176
             4
177
             4
178
             1
270
             2
271
             2
272
             4
273
             2
274
             2
275
             0
280
             0
281
             0
282
             0
283
             1
284
             0
285
             0
286
             0
287
             3
288
             0
340
18B
  0
DIMSTYLE
105
199
100
AcDbSymbolTableRecord
100
AcDbDimStyleTableRecord
  2
ME10_DIM_1
 70
             0
  3

  4

  5

  6

  7

 40
1.0
 41
15.0
 42
0.0
 43
0.38
 44
2.0
 45
0.0
 46
0.0
 47
0.0
 48
0.0
 71
             0
 72
             0
 73
             0
 74
             0
 75
             0
 76
             0
 77
             1
 78
             8
140
15.0
141
0.09
142
0.0
143
25.4
144
1.0
145
0.0
146
1.0
147
0.625
170
             0
171
             2
172
             1
173
             1
174
             0
175
             0
176
             4
177
             4
178
             1
270
             2
271
             2
272
             4
273
             2
274
             2
275
             0
280
             0
281
             0
282
             0
283
             1
284
             0
285
             0
286
             0
287
             3
288
             0
340
18B
  0
DIMSTYLE
105
1A4
100
AcDbSymbolTableRecord
100
AcDbDimStyleTableRecord
  2
ME10_DIM_2
 70
             0
  3
250-<>
  4

  5

  6

  7

 40
1.0
 41
15.0
 42
0.0
 43
0.38
 44
2.0
 45
0.0
 46
0.0
 47
0.0
 48
0.0
 71
             0
 72
             0
 73
             0
 74
             0
 75
             0
 76
             0
 77
             1
 78
             8
140
15.0
141
0.09
142
0.0
143
25.4
144
1.0
145
0.0
146
1.0
147
0.625
170
             0
171
             2
172
             1
173
             1
174
             0
175
             0
176
             4
177
             4
178
             1
270
             2
271
             2
272
             4
273
             2
274
             2
275
             0
280
             0
281
             0
282
             0
283
             1
284
             0
285
             0
286
             0
287
             3
288
             0
340
18B
  0
DIMSTYLE
105
1B1
100
AcDbSymbolTableRecord
100
AcDbDimStyleTableRecord
  2
ME10_DIM_3
 70
             0
  3

  4

  5

  6

  7

 40
1.0
 41
15.0
 42
0.0
 43
0.38
 44
2.0
 45
0.0
 46
0.0
 47
0.0
 48
0.0
 71
             0
 72
             0
 73
             0
 74
             0
 75
             0
 76
             0
 77
             1
 78
             8
140
15.0
141
0.09
142
0.0
143
25.4
144
1.0
145
0.0
146
1.0
147
0.625
170
             0
171
             2
172
             1
173
             1
174
             0
175
             0
176
             4
177
             4
178
             1
270
             2
271
             2
272
             4
273
             2
274
             2
275
             0
280
             0
281
             0
282
             0
283
             1
284
             0
285
             0
286
             0
287
             4
288
             0
340
18B
  0
DIMSTYLE
105
1BC
100
AcDbSymbolTableRecord
100
AcDbDimStyleTableRecord
  2
ME10_DIM_4
 70
             0
  3
DN<>
  4

  5

  6

  7

 40
1.0
 41
15.0
 42
0.0
 43
0.38
 44
2.0
 45
0.0
 46
0.0
 47
0.0
 48
0.0
 71
             0
 72
             0
 73
             0
 74
             0
 75
             0
 76
             0
 77
             1
 78
             8
140
15.0
141
0.09
142
0.0
143
25.4
144
1.0
145
0.0
146
1.0
147
0.625
170
             0
171
             2
172
             1
173
             1
174
             0
175
             0
176
             4
177
             4
178
             1
270
             2
271
             2
272
             4
273
             2
274
             2
275
             0
280
             0
281
             0
282
             0
283
             1
284
             0
285
             0
286
             0
287
             3
288
             0
340
18B
  0
ENDTAB
  0
TABLE
  2
BLOCK_RECORD
  5
1
100
AcDbSymbolTable
 70
             6
  0
BLOCK_RECORD
  5
A
100
AcDbSymbolTableRecord
100
AcDbBlockTableRecord
  2
*MODEL_SPACE
  0
BLOCK_RECORD
  5
B
100
AcDbSymbolTableRecord
100
AcDbBlockTableRecord
  2
*PAPER_SPACE
  0
BLOCK_RECORD
  5
2B
100
AcDbSymbolTableRecord
100
AcDbBlockTableRecord
  2
TOP
  0
BLOCK_RECORD
  5
184
100
AcDbSymbolTableRecord
100
AcDbBlockTableRecord
  2
*D1
  0
BLOCK_RECORD
  5
190
100
AcDbSymbolTableRecord
100
AcDbBlockTableRecord
  2
*D2
  0
BLOCK_RECORD
  5
19B
100
AcDbSymbolTableRecord
100
AcDbBlockTableRecord
  2
*D3
  0
BLOCK_RECORD
  5
1A6
100
AcDbSymbolTableRecord
100
AcDbBlockTableRecord
  2
*D4
  0
BLOCK_RECORD
  5
1B3
100
AcDbSymbolTableRecord
100
AcDbBlockTableRecord
  2
*D5
  0
ENDTAB
  0
ENDSEC
  0
SECTION
  2
BLOCKS
  0
BLOCK
  5
D
100
AcDbEntity
  8
0
100
AcDbBlockBegin
  2
*MODEL_SPACE
 70
             0
 10
0.0
 20
0.0
 30
0.0
  3
*MODEL_SPACE
  1

  0
ENDBLK
  5
E
100
AcDbEntity
  8
0
100
AcDbBlockEnd
  0
BLOCK
  5
F
100
AcDbEntity
 67
             1
  8
0
100
AcDbBlockBegin
  2
*PAPER_SPACE
 70
             0
 10
0.0
 20
0.0
 30
0.0
  3
*PAPER_SPACE
  1

  0
ENDBLK
  5
10
100
AcDbEntity
 67
             1
  8
0
100
AcDbBlockEnd
  0
BLOCK
  5
2C
100
AcDbEntity
  8
0
100
AcDbBlockBegin
  2
TOP
 70
             0
 10
-148.38004489817999
 20
-44.6794416803617
 30
0.0
  3
TOP
  1

  0
CIRCLE
  5
181
100
AcDbEntity
  8
LC-005-002-----0
  6
CONTINUOUS
 62
             7
100
AcDbCircle
 10
179.68069900000009
 20
198.99740300000011
 40
2.5
  0
ARC
  5
180
100
AcDbEntity
  8
LC-007-002-RND-0
  6
CONTINUOUS
 62
             7
100
AcDbCircle
 10
303.99583899999999
 20
62.99500000000001
 40
1.0
100
AcDbArc
 50
180.0
 51
-90.0
  0
ARC
  5
17F
100
AcDbEntity
  8
LC-007-002-RND-0
  6
CONTINUOUS
 62
             7
100
AcDbCircle
 10
306.99583899999999
 20
60.99500000000001
 40
1.0
100
AcDbArc
 50
0.0
 51
90.0
  0
ARC
  5
17E
100
AcDbEntity
  8
LC-007-002-RND-0
  6
CONTINUOUS
 62
             7
100
AcDbCircle
 10
29.74999999999999
 20
106.27500000000001
 40
1.0
100
AcDbArc
 50
180.0
 51
-90.00000000000102
  0
ARC
  5
17D
100
AcDbEntity
  8
LC-007-002-RND-0
  6
CONTINUOUS
 62
             7
100
AcDbCircle
 10
122.495839
 20
67.94499999999994
 40
1.5
100
AcDbArc
 50
-90.0
 51
0.0
  0
ARC
  5
17C
100
AcDbEntity
  8
LC-007-002-RND-0
  6
CONTINUOUS
 62
             7
100
AcDbCircle
 10
24.74999999999999
 20
109.3250000000001
 40
4.0
100
AcDbArc
 50
0.0
 51
90.0
  0
ARC
  5
17B
100
AcDbEntity
  8
LC-007-002-RND-0
  6
CONTINUOUS
 62
             7
100
AcDbCircle
 10
9.74999999999999
 20
109.3250000000001
 40
4.0
100
AcDbArc
 50
90.0
 51
180.0
  0
ARC
  5
17A
100
AcDbEntity
  8
LC-007-002-RND-0
  6
CONTINUOUS
 62
             7
100
AcDbCircle
 10
9.74999999999999
 20
-109.3249999999999
 40
4.0
100
AcDbArc
 50
180.0
 51
-90.0
  0
ARC
  5
179
100
AcDbEntity
  8
LC-007-002-RND-0
  6
CONTINUOUS
 62
             7
100
AcDbCircle
 10
24.74999999999999
 20
-109.3249999999999
 40
4.0
100
AcDbArc
 50
-90.0
 51
0.0
  0
ARC
  5
178
100
AcDbEntity
  8
LC-007-002-RND-0
  6
CONTINUOUS
 62
             7
100
AcDbCircle
 10
122.495839
 20
-100.505
 40
1.5
100
AcDbArc
 50
0.0
 51
90.0
  0
ARC
  5
177
100
AcDbEntity
  8
LC-007-002-RND-0
  6
CONTINUOUS
 62
             7
100
AcDbCircle
 10
29.74999999999999
 20
-106.27500000000001
 40
1.0
100
AcDbArc
 50
90.00000000000102
 51
180.0
  0
ARC
  5
176
100
AcDbEntity
  8
LC-007-002-RND-0
  6
CONTINUOUS
 62
             7
100
AcDbCircle
 10
98.22034799999999
 20
-100.005
 40
1.0
100
AcDbArc
 50
90.0
 51
161.84729400002308
  0
ARC
  5
175
100
AcDbEntity
  8
LC-007-002-RND-0
  6
CONTINUOUS
 62
             7
100
AcDbCircle
 10
94.77133099999996
 20
-104.27500000000001
 40
1.0
100
AcDbArc
 50
-90.0
 51
-18.15270599997616
  0
ARC
  5
174
100
AcDbEntity
  8
LC-005-002-----0
  6
CONTINUOUS
 62
             7
100
AcDbCircle
 10
141.96784400000001
 20
92.18853200000001
 40
5.0
100
AcDbArc
 50
90.0
 51
179.99984800000425
  0
ARC
  5
173
100
AcDbEntity
  8
LC-005-002-----0
  6
CONTINUOUS
 62
             7
100
AcDbCircle
 10
299.49583899999999
 20
92.18853200000001
 40
5.0
100
AcDbArc
 50
0.0
 51
89.99998099999745
  0
ARC
  5
172
100
AcDbEntity
  8
LC-005-002-----0
  6
CONTINUOUS
 62
             7
100
AcDbCircle
 10
160.96784400000001
 20
101.688532
 40
2.00000000000011
100
AcDbArc
 50
89.99998100000346
 51
180.0
  0
ARC
  5
171
100
AcDbEntity
  8
LC-005-002-----0
  6
CONTINUOUS
 62
             7
100
AcDbCircle
 10
269.46784400000001
 20
118.07187999999999
 40
2.00000000000025
100
AcDbArc
 50
-79.66005100000314
 51
0.0
  0
ARC
  5
170
100
AcDbEntity
  8
LC-005-002-----0
  6
CONTINUOUS
 62
             7
100
AcDbCircle
 10
262.46784400000001
 20
81.43853200000001
 40
41.00000000000027
100
AcDbArc
 50
79.66010899999945
 51
100.33989100000058
  0
ARC
  5
16F
100
AcDbEntity
  8
LC-005-002-----0
  6
CONTINUOUS
 62
             7
100
AcDbCircle
 10
255.46784400000001
 20
119.8051849999999
 40
1.99999999999953
100
AcDbArc
 50
100.33987199999459
 51
180.0
  0
ARC
  5
16E
100
AcDbEntity
  8
LC-005-002-----0
  6
CONTINUOUS
 62
             7
100
AcDbCircle
 10
262.46784400000001
 20
156.43853200000001
 40
41.00000000000029
100
AcDbArc
 50
-100.33989100000058
 51
-79.66005099999946
  0
ARC
  5
16D
100
AcDbEntity
  8
LC-005-002-----0
  6
CONTINUOUS
 62
             7
100
AcDbCircle
 10
255.46784400000001
 20
118.07187999999999
 40
2.0
100
AcDbArc
 50
180.0
 51
-100.34004300000136
  0
ARC
  5
16C
100
AcDbEntity
  8
LC-005-002-----0
  6
CONTINUOUS
 62
             7
100
AcDbCircle
 10
255.46784400000001
 20
119.96876399999999
 40
2.00000000000017
100
AcDbArc
 50
106.72678200000028
 51
180.0
  0
ARC
  5
16B
100
AcDbEntity
  8
LC-005-002-----0
  6
CONTINUOUS
 62
             7
100
AcDbCircle
 10
255.46784400000001
 20
117.90830099999989
 40
2.0
100
AcDbArc
 50
180.0
 51
-106.72695299998617
  0
ARC
  5
16A
100
AcDbEntity
  8
LC-005-002-----0
  6
CONTINUOUS
 62
             7
100
AcDbCircle
 10
285.46803799999998
 20
81.43869900000004
 40
40.99999999999983
100
AcDbArc
 50
79.66007200000057
 51
100.33983499999935
  0
ARC
  5
169
100
AcDbEntity
  8
LC-005-002-----0
  6
CONTINUOUS
 62
             7
100
AcDbCircle
 10
278.46806299999997
 20
119.80535500000001
 40
1.9999999999998
100
AcDbArc
 50
100.33983500000654
 51
179.99996299999285
  0
ARC
  5
168
100
AcDbEntity
  8
LC-005-002-----0
  6
CONTINUOUS
 62
             7
100
AcDbCircle
 10
278.46806199999997
 20
118.072051
 40
2.00000000000042
100
AcDbArc
 50
179.99996299999
 51
-100.34000499998687
  0
ARC
  5
167
100
AcDbEntity
  8
LC-005-002-----0
  6
CONTINUOUS
 62
             7
100
AcDbCircle
 10
285.46808700000003
 20
156.43869900000001
 40
40.99999999999977
100
AcDbArc
 50
-100.34008000000078
 51
-79.6601469999995
  0
ARC
  5
166
100
AcDbEntity
  8
LC-005-002-----0
  6
CONTINUOUS
 62
             7
100
AcDbCircle
 10
292.46806299999997
 20
119.805346
 40
2.00000000000042
100
AcDbArc
 50
-0.00003700000999
 51
79.65999700000107
  0
ARC
  5
165
100
AcDbEntity
  8
LC-005-002-----0
  6
CONTINUOUS
 62
             7
100
AcDbCircle
 10
273.96784400000001
 20
58.40968599999997
 40
66.27884599999943
100
AcDbArc
 50
73.27319900000026
 51
106.72678199999967
  0
ARC
  5
164
100
AcDbEntity
  8
LC-005-002-----0
  6
CONTINUOUS
 62
             7
100
AcDbCircle
 10
292.46784400000001
 20
119.96876399999999
 40
2.0
100
AcDbArc
 50
0.0
 51
73.27319899999323
  0
ARC
  5
163
100
AcDbEntity
  8
LC-005-002-----0
  6
CONTINUOUS
 62
             7
100
AcDbCircle
 10
292.46806199999997
 20
118.072042
 40
1.99999999999991
100
AcDbArc
 50
-79.66008799999287
 51
-0.00003700000999
  0
ARC
  5
162
100
AcDbEntity
  8
LC-005-002-----0
  6
CONTINUOUS
 62
             7
100
AcDbCircle
 10
273.96784400000001
 20
179.46737899999991
 40
66.27884599999976
100
AcDbArc
 50
-106.72695300000025
 51
-73.27319900000047
  0
ARC
  5
161
100
AcDbEntity
  8
LC-005-002-----0
  6
CONTINUOUS
 62
             7
100
AcDbCircle
 10
292.46784400000001
 20
117.90830099999989
 40
2.00000000000039
100
AcDbArc
 50
-73.27313999999731
 51
0.0
  0
ARC
  5
160
100
AcDbEntity
  8
LC-005-002-----0
  6
CONTINUOUS
 62
             7
100
AcDbCircle
 10
174.46784400000001
 20
119.8051849999999
 40
2.0
100
AcDbArc
 50
0.0
 51
79.66010899999596
  0
ARC
  5
15F
100
AcDbEntity
  8
LC-005-002-----0
  6
CONTINUOUS
 62
             7
100
AcDbCircle
 10
174.46784400000001
 20
118.07187999999999
 40
2.00000000000026
100
AcDbArc
 50
-79.66005100000233
 51
0.0
  0
ARC
  5
15E
100
AcDbEntity
  8
LC-005-002-----0
  6
CONTINUOUS
 62
             7
100
AcDbCircle
 10
167.46784400000001
 20
81.43853200000001
 40
41.00000000000027
100
AcDbArc
 50
79.66010899999945
 51
100.33989100000058
  0
ARC
  5
15D
100
AcDbEntity
  8
LC-005-002-----0
  6
CONTINUOUS
 62
             7
100
AcDbCircle
 10
160.46784400000001
 20
119.8051849999999
 40
1.99999999999953
100
AcDbArc
 50
100.33987199999459
 51
180.0
  0
ARC
  5
15C
100
AcDbEntity
  8
LC-005-002-----0
  6
CONTINUOUS
 62
             7
100
AcDbCircle
 10
167.46784400000001
 20
156.43853200000001
 40
41.00000000000029
100
AcDbArc
 50
-100.33989100000058
 51
-79.66005099999934
  0
ARC
  5
15B
100
AcDbEntity
  8
LC-005-002-----0
  6
CONTINUOUS
 62
             7
100
AcDbCircle
 10
160.46784400000001
 20
118.07187999999999
 40
2.0
100
AcDbArc
 50
180.0
 51
-100.34004300000136
  0
ARC
  5
15A
100
AcDbEntity
  8
LC-005-002-----0
  6
CONTINUOUS
 62
             7
100
AcDbCircle
 10
160.46784400000001
 20
119.96876399999999
 40
2.00000000000017
100
AcDbArc
 50
106.72678200000028
 51
180.0
  0
ARC
  5
159
100
AcDbEntity
  8
LC-005-002-----0
  6
CONTINUOUS
 62
             7
100
AcDbCircle
 10
160.46784400000001
 20
117.90830099999989
 40
2.0
100
AcDbArc
 50
180.0
 51
-106.72695299998617
  0
ARC
  5
158
100
AcDbEntity
  8
LC-005-002-----0
  6
CONTINUOUS
 62
             7
100
AcDbCircle
 10
190.46803800000001
 20
81.43869900000004
 40
40.99999999999987
100
AcDbArc
 50
79.6600720000003
 51
100.33983500000072
  0
ARC
  5
157
100
AcDbEntity
  8
LC-005-002-----0
  6
CONTINUOUS
 62
             7
100
AcDbCircle
 10
183.468063
 20
119.80535500000001
 40
1.99999999999981
100
AcDbArc
 50
100.33983500000815
 51
179.99996299999285
  0
ARC
  5
156
100
AcDbEntity
  8
LC-005-002-----0
  6
CONTINUOUS
 62
             7
100
AcDbCircle
 10
183.468062
 20
118.072051
 40
2.00000000000042
100
AcDbArc
 50
179.99996299999
 51
-100.34000499998687
  0
ARC
  5
155
100
AcDbEntity
  8
LC-005-002-----0
  6
CONTINUOUS
 62
             7
100
AcDbCircle
 10
190.468087
 20
156.43869900000001
 40
40.99999999999977
100
AcDbArc
 50
-100.34008000000074
 51
-79.66014700000079
  0
ARC
  5
154
100
AcDbEntity
  8
LC-005-002-----0
  6
CONTINUOUS
 62
             7
100
AcDbCircle
 10
197.468063
 20
119.805346
 40
2.00000000000042
100
AcDbArc
 50
-0.00003700000999
 51
79.65999700000188
  0
ARC
  5
153
100
AcDbEntity
  8
LC-005-002-----0
  6
CONTINUOUS
 62
             7
100
AcDbCircle
 10
178.96784400000001
 20
58.40968599999997
 40
66.27884599999943
100
AcDbArc
 50
73.27319900000026
 51
106.72678199999967
  0
ARC
  5
152
100
AcDbEntity
  8
LC-005-002-----0
  6
CONTINUOUS
 62
             7
100
AcDbCircle
 10
197.46784400000001
 20
119.96876399999999
 40
2.0
100
AcDbArc
 50
0.0
 51
73.27319899999246
  0
ARC
  5
151
100
AcDbEntity
  8
LC-005-002-----0
  6
CONTINUOUS
 62
             7
100
AcDbCircle
 10
197.468062
 20
118.072042
 40
1.9999999999999
100
AcDbArc
 50
-79.66008799999368
 51
-0.00003700000999
  0
ARC
  5
150
100
AcDbEntity
  8
LC-005-002-----0
  6
CONTINUOUS
 62
             7
100
AcDbCircle
 10
178.96784400000001
 20
179.46737899999991
 40
66.27884599999976
100
AcDbArc
 50
-106.72695300000025
 51
-73.27319900000047
  0
ARC
  5
14F
100
AcDbEntity
  8
LC-005-002-----0
  6
CONTINUOUS
 62
             7
100
AcDbCircle
 10
197.46784400000001
 20
117.90830099999989
 40
2.00000000000039
100
AcDbArc
 50
-73.27313999999731
 51
0.0
  0
ARC
  5
14E
100
AcDbEntity
  8
LC-005-002-----0
  6
CONTINUOUS
 62
             7
100
AcDbCircle
 10
177.46784400000001
 20
120.438532
 40
1.0
100
AcDbArc
 50
90.0
 51
179.99984800002608
  0
ARC
  5
14D
100
AcDbEntity
  8
LC-005-002-----0
  6
CONTINUOUS
 62
             7
100
AcDbCircle
 10
177.46784400000001
 20
117.438532
 40
0.99999999999943
100
AcDbArc
 50
179.99984800002608
 51
-90.0
  0
ARC
  5
14C
100
AcDbEntity
  8
LC-005-002-----0
  6
CONTINUOUS
 62
             7
100
AcDbCircle
 10
180.46784400000001
 20
120.438532
 40
1.0
100
AcDbArc
 50
0.0
 51
90.0
  0
ARC
  5
14B
100
AcDbEntity
  8
LC-005-002-----0
  6
CONTINUOUS
 62
             7
100
AcDbCircle
 10
180.46784400000001
 20
117.438532
 40
1.0
100
AcDbArc
 50
-90.0
 51
0.0
  0
ARC
  5
14A
100
AcDbEntity
  8
LC-005-002-----0
  6
CONTINUOUS
 62
             7
100
AcDbCircle
 10
269.46784400000001
 20
119.8051849999999
 40
2.0
100
AcDbArc
 50
0.0
 51
79.66010899999516
  0
ARC
  5
149
100
AcDbEntity
  8
LC-005-002-----0
  6
CONTINUOUS
 62
             7
100
AcDbCircle
 10
272.46784400000001
 20
120.438532
 40
1.0
100
AcDbArc
 50
90.0
 51
179.99984800002608
  0
ARC
  5
148
100
AcDbEntity
  8
LC-005-002-----0
  6
CONTINUOUS
 62
             7
100
AcDbCircle
 10
275.46784400000001
 20
120.438532
 40
1.0
100
AcDbArc
 50
0.0
 51
90.0
  0
ARC
  5
147
100
AcDbEntity
  8
LC-005-002-----0
  6
CONTINUOUS
 62
             7
100
AcDbCircle
 10
275.46784400000001
 20
117.438532
 40
0.9999999999995
100
AcDbArc
 50
-89.99994200000002
 51
0.0
  0
ARC
  5
146
100
AcDbEntity
  8
LC-005-002-----0
  6
CONTINUOUS
 62
             7
100
AcDbCircle
 10
272.46784400000001
 20
117.438532
 40
1.0
100
AcDbArc
 50
180.0
 51
-89.99994200000002
  0
ARC
  5
145
100
AcDbEntity
  8
LC-007-002-RND-0
  6
CONTINUOUS
 62
             7
100
AcDbCircle
 10
114.767642
 20
67.44499999999994
 40
0.99999999999962
100
AcDbArc
 50
-156.08922600000815
 51
-90.0
  0
ARC
  5
144
100
AcDbEntity
  8
LC-010-201-----0
  6
CONTINUOUS
 62
             7
100
AcDbCircle
 10
121.027089
 20
55.24500000000001
 40
2.03124999999964
100
AcDbArc
 50
120.51020000000622
 51
-120.51055999999889
  0
ARC
  5
143
100
AcDbEntity
  8
LC-010-201-----0
  6
CONTINUOUS
 62
             7
100
AcDbCircle
 10
126.527089
 20
49.74500000000001
 40
7.53125000000051
100
AcDbArc
 50
150.13712800000005
 51
-150.13748799999962
  0
ARC
  5
142
100
AcDbEntity
  8
LC-010-201-----0
  6
CONTINUOUS
 62
             7
100
AcDbCircle
 10
121.02837
 20
44.24426900000003
 40
2.03253100000008
100
AcDbArc
 50
120.53083000000619
 51
-120.53126599999132
  0
ARC
  5
141
100
AcDbEntity
  8
LC-010-201-----0
  6
CONTINUOUS
 62
             7
100
AcDbCircle
 10
150.764522
 20
55.245181
 40
2.03125000000052
100
AcDbArc
 50
-59.48949599999782
 51
59.48976300000341
  0
ARC
  5
140
100
AcDbEntity
  8
LC-010-201-----0
  6
CONTINUOUS
 62
             7
100
AcDbCircle
 10
145.26451800000001
 20
49.74518499999999
 40
7.53125000000033
100
AcDbArc
 50
-29.86256800000083
 51
29.86283400000344
  0
ARC
  5
13F
100
AcDbEntity
  8
LC-010-201-----0
  6
CONTINUOUS
 62
             7
100
AcDbCircle
 10
150.76323400000001
 20
44.24445000000003
 40
2.03253099999974
100
AcDbArc
 50
-59.46878999998495
 51
59.46913300000463
  0
ARC
  5
13E
100
AcDbEntity
  8
LC-010-201-----0
  6
CONTINUOUS
 62
             7
100
AcDbCircle
 10
121.027089
 20
-87.55500000000006
 40
2.03124999999985
100
AcDbArc
 50
120.51055999999737
 51
-120.51020000000612
  0
ARC
  5
13D
100
AcDbEntity
  8
LC-010-201-----0
  6
CONTINUOUS
 62
             7
100
AcDbCircle
 10
126.527089
 20
-82.05500000000006
 40
7.53124999999951
100
AcDbArc
 50
150.13748799999897
 51
-150.13712800000076
  0
ARC
  5
13C
100
AcDbEntity
  8
LC-010-201-----0
  6
CONTINUOUS
 62
             7
100
AcDbCircle
 10
121.02837
 20
-76.55426799999998
 40
2.0325309999998
100
AcDbArc
 50
120.53126599999295
 51
-120.53083000000629
  0
ARC
  5
13B
100
AcDbEntity
  8
LC-010-201-----0
  6
CONTINUOUS
 62
             7
100
AcDbCircle
 10
150.764522
 20
-87.55518000000006
 40
2.03125000000039
100
AcDbArc
 50
-59.48976300000341
 51
59.48949599999782
  0
ARC
  5
13A
100
AcDbEntity
  8
LC-010-201-----0
  6
CONTINUOUS
 62
             7
100
AcDbCircle
 10
145.26451800000001
 20
-82.05518400000005
 40
7.53125000000008
100
AcDbArc
 50
-29.86283400000349
 51
29.86256800000083
  0
ARC
  5
139
100
AcDbEntity
  8
LC-010-201-----0
  6
CONTINUOUS
 62
             7
100
AcDbCircle
 10
150.76323400000001
 20
-76.55444899999998
 40
2.03253099999977
100
AcDbArc
 50
-59.46913300000453
 51
59.46878999999808
  0
ARC
  5
138
100
AcDbEntity
  8
LC-010-201-----0
  6
CONTINUOUS
 62
             7
100
AcDbCircle
 10
294.526791
 20
31.49482
 40
2.03124999999966
100
AcDbArc
 50
120.51020000000676
 51
-120.51055999999978
  0
ARC
  5
137
100
AcDbEntity
  8
LC-010-201-----0
  6
CONTINUOUS
 62
             7
100
AcDbCircle
 10
300.026791
 20
25.99482
 40
7.53125000000053
100
AcDbArc
 50
150.13712800000008
 51
-150.13748800000346
  0
ARC
  5
136
100
AcDbEntity
  8
LC-010-201-----0
  6
CONTINUOUS
 62
             7
100
AcDbCircle
 10
294.52807200000001
 20
20.49408800000003
 40
2.0325310000001
100
AcDbArc
 50
120.53083000000687
 51
-120.53126599999385
  0
ARC
  5
135
100
AcDbEntity
  8
LC-010-201-----0
  6
CONTINUOUS
 62
             7
100
AcDbCircle
 10
323.96443199999987
 20
31.495001
 40
2.03125000000059
100
AcDbArc
 50
-59.48949599999432
 51
59.489763
  0
ARC
  5
134
100
AcDbEntity
  8
LC-010-201-----0
  6
CONTINUOUS
 62
             7
100
AcDbCircle
 10
318.46442899999988
 20
25.99500499999999
 40
7.53125000000033
100
AcDbArc
 50
-29.86256800000081
 51
29.86283400000295
  0
ARC
  5
133
100
AcDbEntity
  8
LC-010-201-----0
  6
CONTINUOUS
 62
             7
100
AcDbCircle
 10
323.963144
 20
20.49426900000003
 40
2.03253099999972
100
AcDbArc
 50
-59.46878999998639
 51
59.46913300000734
  0
ARC
  5
132
100
AcDbEntity
  8
LC-010-201-----0
  6
CONTINUOUS
 62
             7
100
AcDbCircle
 10
294.526791
 20
-109.505972
 40
2.03124999999979
100
AcDbArc
 50
120.51055999999927
 51
-120.51020000000619
  0
ARC
  5
131
100
AcDbEntity
  8
LC-010-201-----0
  6
CONTINUOUS
 62
             7
100
AcDbCircle
 10
300.026791
 20
-104.005972
 40
7.53125000000032
100
AcDbArc
 50
150.13748800000317
 51
-150.13712800000036
  0
ARC
  5
130
100
AcDbEntity
  8
LC-010-201-----0
  6
CONTINUOUS
 62
             7
100
AcDbCircle
 10
294.52807200000001
 20
-98.50523999999996
 40
2.03253099999985
100
AcDbArc
 50
120.53126599999537
 51
-120.53083000000474
  0
ARC
  5
12F
100
AcDbEntity
  8
LC-010-201-----0
  6
CONTINUOUS
 62
             7
100
AcDbCircle
 10
323.96443199999987
 20
-109.506153
 40
2.03125000000051
100
AcDbArc
 50
-59.48976300000077
 51
59.48949599999417
  0
ARC
  5
12E
100
AcDbEntity
  8
LC-010-201-----0
  6
CONTINUOUS
 62
             7
100
AcDbCircle
 10
318.46442899999988
 20
-104.006157
 40
7.53125000000021
100
AcDbArc
 50
-29.86283400000295
 51
29.86256800000064
  0
ARC
  5
12D
100
AcDbEntity
  8
LC-010-201-----0
  6
CONTINUOUS
 62
             7
100
AcDbCircle
 10
323.963144
 20
-98.50542099999996
 40
2.03253099999984
100
AcDbArc
 50
-59.46913300000932
 51
59.46878999999947
  0
ARC
  5
12C
100
AcDbEntity
  8
LC-007-002-RND-0
  6
CONTINUOUS
 62
             7
100
AcDbCircle
 10
283.46784400000001
 20
75.68853200000001
 40
0.5
100
AcDbArc
 50
-90.0
 51
0.0
  0
ARC
  5
12B
100
AcDbEntity
  8
LC-007-002-RND-0
  6
CONTINUOUS
 62
             7
100
AcDbCircle
 10
264.46784400000001
 20
75.68853200000001
 40
0.5
100
AcDbArc
 50
180.0
 51
-90.0
  0
ARC
  5
12A
100
AcDbEntity
  8
LC-007-002-RND-0
  6
CONTINUOUS
 62
             7
100
AcDbCircle
 10
264.46784400000001
 20
82.68853200000001
 40
0.5
100
AcDbArc
 50
90.0
 51
180.0
  0
ARC
  5
129
100
AcDbEntity
  8
LC-007-002-RND-0
  6
CONTINUOUS
 62
             7
100
AcDbCircle
 10
283.46784400000001
 20
82.68853200000001
 40
0.5
100
AcDbArc
 50
0.0
 51
90.0
  0
ARC
  5
128
100
AcDbEntity
  8
LC-007-002-RND-0
  6
CONTINUOUS
 62
             7
100
AcDbCircle
 10
264.46784400000001
 20
90.68853200000001
 40
0.5
100
AcDbArc
 50
90.0
 51
180.0
  0
ARC
  5
127
100
AcDbEntity
  8
LC-007-002-RND-0
  6
CONTINUOUS
 62
             7
100
AcDbCircle
 10
283.46784400000001
 20
90.68853200000001
 40
0.5
100
AcDbArc
 50
0.0
 51
90.0
  0
ARC
  5
126
100
AcDbEntity
  8
LC-007-002-RND-0
  6
CONTINUOUS
 62
             7
100
AcDbCircle
 10
264.46784400000001
 20
83.68853200000001
 40
0.5
100
AcDbArc
 50
180.0
 51
-90.0
  0
ARC
  5
125
100
AcDbEntity
  8
LC-007-002-RND-0
  6
CONTINUOUS
 62
             7
100
AcDbCircle
 10
283.46784400000001
 20
83.68853200000001
 40
0.5
100
AcDbArc
 50
-90.0
 51
0.0
  0
ARC
  5
124
100
AcDbEntity
  8
LC-007-002-RND-0
  6
CONTINUOUS
 62
             7
100
AcDbCircle
 10
188.46784400000001
 20
75.68853200000001
 40
0.5
100
AcDbArc
 50
-90.0
 51
0.0
  0
ARC
  5
123
100
AcDbEntity
  8
LC-007-002-RND-0
  6
CONTINUOUS
 62
             7
100
AcDbCircle
 10
169.46784400000001
 20
75.68853200000001
 40
0.5
100
AcDbArc
 50
180.0
 51
-90.0
  0
ARC
  5
122
100
AcDbEntity
  8
LC-007-002-RND-0
  6
CONTINUOUS
 62
             7
100
AcDbCircle
 10
169.46784400000001
 20
82.68853200000001
 40
0.5
100
AcDbArc
 50
90.0
 51
180.0
  0
ARC
  5
121
100
AcDbEntity
  8
LC-007-002-RND-0
  6
CONTINUOUS
 62
             7
100
AcDbCircle
 10
188.46784400000001
 20
82.68853200000001
 40
0.5
100
AcDbArc
 50
0.0
 51
90.0
  0
ARC
  5
120
100
AcDbEntity
  8
LC-007-002-RND-0
  6
CONTINUOUS
 62
             7
100
AcDbCircle
 10
169.46784400000001
 20
90.68853200000001
 40
0.5
100
AcDbArc
 50
90.0
 51
180.0
  0
ARC
  5
11F
100
AcDbEntity
  8
LC-007-002-RND-0
  6
CONTINUOUS
 62
             7
100
AcDbCircle
 10
188.46784400000001
 20
90.68853200000001
 40
0.5
100
AcDbArc
 50
0.0
 51
90.0
  0
ARC
  5
11E
100
AcDbEntity
  8
LC-007-002-RND-0
  6
CONTINUOUS
 62
             7
100
AcDbCircle
 10
169.46784400000001
 20
83.68853200000001
 40
0.5
100
AcDbArc
 50
180.0
 51
-90.0
  0
ARC
  5
11D
100
AcDbEntity
  8
LC-007-002-RND-0
  6
CONTINUOUS
 62
             7
100
AcDbCircle
 10
188.46784400000001
 20
83.68853200000001
 40
0.5
100
AcDbArc
 50
-90.0
 51
0.0
  0
ARC
  5
11C
100
AcDbEntity
  8
LC-005-002-----0
  6
CONTINUOUS
 62
             7
100
AcDbCircle
 10
160.18069900000009
 20
178.49740300000011
 40
2.00000000000014
100
AcDbArc
 50
-89.99994200000084
 51
0.0
  0
ARC
  5
11B
100
AcDbEntity
  8
LC-005-002-----0
  6
CONTINUOUS
 62
             7
100
AcDbCircle
 10
154.18069900000009
 20
178.49740300000011
 40
2.00000000000013
100
AcDbArc
 50
179.99984800000081
 51
-90.0
  0
ARC
  5
11A
100
AcDbEntity
  8
LC-005-002-----0
  6
CONTINUOUS
 62
             7
100
AcDbCircle
 10
155.18069900000009
 20
210.99740300000011
 40
3.0
100
AcDbArc
 50
90.0
 51
179.99984800000925
  0
ARC
  5
119
100
AcDbEntity
  8
LC-005-002-----0
  6
CONTINUOUS
 62
             7
100
AcDbCircle
 10
173.68069900000009
 20
210.99740300000011
 40
3.0
100
AcDbArc
 50
0.0
 51
90.0
  0
ARC
  5
118
100
AcDbEntity
  8
LC-005-002-----0
  6
CONTINUOUS
 62
             7
100
AcDbCircle
 10
179.68069900000009
 20
206.99740300000011
 40
3.0
100
AcDbArc
 50
180.0
 51
-89.99994200000002
  0
ARC
  5
117
100
AcDbEntity
  8
LC-005-002-----0
  6
CONTINUOUS
 62
             7
100
AcDbCircle
 10
179.68069900000009
 20
198.99740300000011
 40
5.0
100
AcDbArc
 50
-90.0
 51
90.00003999999524
  0
ARC
  5
116
100
AcDbEntity
  8
LC-005-002-----0
  6
CONTINUOUS
 62
             7
100
AcDbCircle
 10
179.68069900000009
 20
190.99740300000011
 40
3.0
100
AcDbArc
 50
90.0
 51
180.0
  0
ARC
  5
115
100
AcDbEntity
  8
LC-005-002-----0
  6
CONTINUOUS
 62
             7
100
AcDbCircle
 10
164.18069900000009
 20
193.49740300000011
 40
2.0
100
AcDbArc
 50
90.0
 51
179.99984800000081
  0
ARC
  5
114
100
AcDbEntity
  8
LC-005-002-----0
  6
CONTINUOUS
 62
             7
100
AcDbCircle
 10
179.68069900000009
 20
198.99740300000011
 40
3.00000000000004
100
AcDbArc
 50
-59.99988300000026
 51
179.9998880000073
  0
LINE
  5
113
100
AcDbEntity
  8
LC-005-002-----0
  6
CONTINUOUS
 62
             7
100
AcDbLine
 10
139.99583899999999
 20
-110.505
 11
134.49583899999999
 21
-110.505
  0
LINE
  5
112
100
AcDbEntity
  8
LC-005-002-----0
  6
CONTINUOUS
 62
             7
100
AcDbLine
 10
139.99583899999999
 20
-110.505
 11
139.99583899999999
 21
-113.505
  0
LINE
  5
111
100
AcDbEntity
  8
LC-005-002-----0
  6
CONTINUOUS
 62
             7
100
AcDbLine
 10
139.99583899999999
 20
83.18853200000001
 11
139.99583899999999
 21
-110.505
  0
LINE
  5
110
100
AcDbEntity
  8
LC-005-002-----0
  6
CONTINUOUS
 62
             7
100
AcDbLine
 10
194.99583899999999
 20
-123.005
 11
297.495541
 21
-123.005
  0
LINE
  5
10F
100
AcDbEntity
  8
LC-005-002-----0
  6
CONTINUOUS
 62
             7
100
AcDbLine
 10
297.495541
 20
-123.005
 11
297.495541
 21
-136.005
  0
LINE
  5
10E
100
AcDbEntity
  8
LC-005-002-----0
  6
CONTINUOUS
 62
             7
100
AcDbLine
 10
297.495541
 20
-136.005
 11
307.99583899999999
 21
-136.005
  0
LINE
  5
10D
100
AcDbEntity
  8
LC-005-002-----0
  6
CONTINUOUS
 62
             7
100
AcDbLine
 10
307.99583899999999
 20
-136.005
 11
307.99583899999999
 21
-134.505
  0
LINE
  5
10C
100
AcDbEntity
  8
LC-005-002-----0
  6
CONTINUOUS
 62
             7
100
AcDbLine
 10
-0.00000000000001
 20
101.27500000000001
 11
-0.00000000000001
 21
-99.60500000000002
  0
LINE
  5
10B
100
AcDbEntity
  8
LC-005-002-----0
  6
CONTINUOUS
 62
             7
100
AcDbLine
 10
134.29583900000009
 20
-113.05500000000011
 11
123.995839
 21
-113.05500000000011
  0
LINE
  5
10A
100
AcDbEntity
  8
LC-005-002-----0
  6
CONTINUOUS
 62
             7
100
AcDbLine
 10
134.29583900000009
 20
-113.05500000000011
 11
134.29583900000009
 21
-111.30500000000011
  0
LINE
  5
109
100
AcDbEntity
  8
LC-005-002-----0
  6
CONTINUOUS
 62
             7
100
AcDbLine
 10
123.995839
 20
-113.05500000000011
 11
123.995839
 21
-100.505
  0
LINE
  5
108
100
AcDbEntity
  8
LC-005-002-----0
  6
CONTINUOUS
 62
             7
100
AcDbLine
 10
5.74999999999999
 20
105.27500000000001
 11
-0.00000000000001
 21
105.27500000000001
  0
LINE
  5
107
100
AcDbEntity
  8
LC-005-002-----0
  6
CONTINUOUS
 62
             7
100
AcDbLine
 10
303.99583899999999
 20
61.99500000000001
 11
306.99583899999999
 21
61.99500000000001
  0
LINE
  5
106
100
AcDbEntity
  8
LC-005-002-----0
  6
CONTINUOUS
 62
             7
100
AcDbLine
 10
307.99583899999999
 20
60.99500000000001
 11
307.99583899999999
 21
-134.505
  0
LINE
  5
105
100
AcDbEntity
  8
LC-005-002-----0
  6
CONTINUOUS
 62
             7
100
AcDbLine
 10
134.49583899999999
 20
-110.505
 11
139.99583899999999
 21
-110.505
  0
LINE
  5
104
100
AcDbEntity
  8
LC-005-002-----0
  6
CONTINUOUS
 62
             7
100
AcDbLine
 10
302.99583899999999
 20
62.99500000000001
 11
302.99583899999999
 21
83.18853200000001
  0
LINE
  5
103
100
AcDbEntity
  8
LC-005-002-----0
  6
CONTINUOUS
 62
             7
100
AcDbLine
 10
-0.00000000000001
 20
105.27500000000001
 11
-0.00000000000001
 21
101.27500000000001
  0
LINE
  5
102
100
AcDbEntity
  8
LC-005-002-----0
  6
CONTINUOUS
 62
             7
100
AcDbLine
 10
28.74999999999999
 20
109.3250000000001
 11
28.74999999999999
 21
-105.27500000000001
  0
LINE
  5
101
100
AcDbEntity
  8
LC-005-002-----0
  6
CONTINUOUS
 62
             7
100
AcDbLine
 10
320.99581399999988
 20
61.99500000000001
 11
320.99385899999999
 21
-121.25638928003499
  0
LINE
  5
100
100
AcDbEntity
  8
LC-005-002-----0
  6
CONTINUOUS
 62
             7
100
AcDbLine
 10
139.99583899999999
 20
-113.505
 11
194.99583899999999
 21
-123.005
  0
LINE
  5
FF
100
AcDbEntity
  8
LC-005-002-----0
  6
CONTINUOUS
 62
             7
100
AcDbLine
 10
320.99552
 20
-136.005
 11
320.99558599999989
 21
-122.50638928003499
  0
LINE
  5
FE
100
AcDbEntity
  8
LC-005-002-----0
  6
CONTINUOUS
 62
             7
100
AcDbLine
 10
307.99583899999999
 20
53.994958
 11
310.99572999999992
 21
53.99492599999996
  0
LINE
  5
FD
100
AcDbEntity
  8
LC-005-002-----0
  6
CONTINUOUS
 62
             7
100
AcDbLine
 10
134.29583900000009
 20
66.44499999999994
 11
114.767642
 21
66.44499999999994
  0
LINE
  5
FC
100
AcDbEntity
  8
LC-005-002-----0
  6
CONTINUOUS
 62
             7
100
AcDbLine
 10
139.99583899999999
 20
77.49500000000001
 11
134.49583899999999
 21
77.49500000000001
  0
LINE
  5
FB
100
AcDbEntity
  8
LC-005-002-----0
  6
CONTINUOUS
 62
             7
100
AcDbLine
 10
113.853465
 20
67.03968699999996
 11
95.49583899999998
 21
105.27500000000001
  0
LINE
  5
FA
100
AcDbEntity
  8
LC-005-002-----0
  6
CONTINUOUS
 62
             7
100
AcDbLine
 10
5.74999999999999
 20
109.3250000000001
 11
5.74999999999999
 21
-105.27500000000001
  0
LINE
  5
F9
100
AcDbEntity
  8
LC-005-002-----0
  6
CONTINUOUS
 62
             7
100
AcDbLine
 10
24.74999999999999
 20
113.3250000000001
 11
9.74999999999999
 21
113.3250000000001
  0
LINE
  5
F8
100
AcDbEntity
  8
LC-005-002-----0
  6
CONTINUOUS
 62
             7
100
AcDbLine
 10
24.74999999999999
 20
-113.3249999999999
 11
9.74999999999999
 21
-113.3249999999999
  0
LINE
  5
F7
100
AcDbEntity
  8
LC-005-002-----0
  6
CONTINUOUS
 62
             7
100
AcDbLine
 10
5.74999999999999
 20
-109.3249999999999
 11
5.74999999999999
 21
-105.27500000000001
  0
LINE
  5
F6
100
AcDbEntity
  8
LC-005-002-----0
  6
CONTINUOUS
 62
             7
100
AcDbLine
 10
94.77133099999996
 20
-105.27500000000001
 11
29.74999999999997
 21
-105.27500000000001
  0
LINE
  5
F5
100
AcDbEntity
  8
LC-005-002-----0
  6
CONTINUOUS
 62
             7
100
AcDbLine
 10
97.27011799999995
 20
-99.69344899999999
 11
95.72156000000001
 21
-104.58655
  0
LINE
  5
F4
100
AcDbEntity
  8
LC-005-002-----0
  6
CONTINUOUS
 62
             7
100
AcDbLine
 10
134.29583900000009
 20
-99.005
 11
98.22034799999999
 21
-99.005
  0
LINE
  5
F3
100
AcDbEntity
  8
LC-005-002-----0
  6
CONTINUOUS
 62
             7
100
AcDbLine
 10
28.74999999999999
 20
-109.3249999999999
 11
28.74999999999999
 21
-106.27500000000001
  0
LINE
  5
F2
100
AcDbEntity
  8
LC-005-002-----0
  6
CONTINUOUS
 62
             7
100
AcDbLine
 10
-0.00000000000001
 20
-105.27500000000001
 11
-0.00000000000001
 21
-99.60500000000002
  0
LINE
  5
F1
100
AcDbEntity
  8
LC-005-002-----0
  6
CONTINUOUS
 62
             7
100
AcDbLine
 10
5.74999999999999
 20
-105.27500000000001
 11
-0.00000000000001
 21
-105.27500000000001
  0
LINE
  5
F0
100
AcDbEntity
  8
LC-005-002-----0
  6
CONTINUOUS
 62
             7
100
AcDbLine
 10
95.49583899999998
 20
105.27500000000001
 11
29.74999999999997
 21
105.27500000000001
  0
LINE
  5
EF
100
AcDbEntity
  8
LC-005-002-----0
  6
CONTINUOUS
 62
             7
100
AcDbLine
 10
134.29583900000009
 20
80.74500000000001
 11
123.995839
 21
80.74500000000001
  0
LINE
  5
EE
100
AcDbEntity
  8
LC-005-002-----0
  6
CONTINUOUS
 62
             7
100
AcDbLine
 10
134.29583900000009
 20
80.74500000000001
 11
134.29583900000009
 21
-110.505
  0
LINE
  5
ED
100
AcDbEntity
  8
LC-005-002-----0
  6
CONTINUOUS
 62
             7
100
AcDbLine
 10
123.995839
 20
80.74500000000001
 11
123.995839
 21
-100.505
  0
LINE
  5
EC
100
AcDbEntity
  8
LC-005-002-----0
  6
CONTINUOUS
 62
             7
100
AcDbLine
 10
302.99583899999999
 20
83.18853200000001
 11
136.96784400000001
 21
83.18853200000001
  0
LINE
  5
EB
100
AcDbEntity
  8
LC-005-002-----0
  6
CONTINUOUS
 62
             7
100
AcDbLine
 10
302.99583899999999
 20
83.18853200000001
 11
304.49583899999999
 21
83.18853200000001
  0
LINE
  5
EA
100
AcDbEntity
  8
LC-005-002-----0
  6
CONTINUOUS
 62
             7
100
AcDbLine
 10
136.96784400000001
 20
83.18853200000001
 11
136.96784400000001
 21
92.18853200000001
  0
LINE
  5
E9
100
AcDbEntity
  8
LC-005-002-----0
  6
CONTINUOUS
 62
             7
100
AcDbLine
 10
304.49583899999999
 20
83.18853200000001
 11
304.49583899999999
 21
92.18853200000001
  0
LINE
  5
E8
100
AcDbEntity
  8
LC-005-002-----0
  6
CONTINUOUS
 62
             7
100
AcDbLine
 10
299.49584099999998
 20
97.18853200000001
 11
283.46804800000001
 21
97.18853200000001
  0
LINE
  5
E7
100
AcDbEntity
  8
LC-005-002-----0
  6
CONTINUOUS
 62
             7
100
AcDbLine
 10
158.96784400000001
 20
97.18853200000001
 11
158.96784400000001
 21
101.688532
  0
LINE
  5
E6
100
AcDbEntity
  8
LC-005-002-----0
  6
CONTINUOUS
 62
             7
100
AcDbLine
 10
160.96784400000001
 20
103.688532
 11
169.46784400000001
 21
103.688532
  0
LINE
  5
E5
100
AcDbEntity
  8
LC-005-002-----0
  6
DASHDOT
 62
             2
100
AcDbLine
 10
273.96784400000001
 20
49.75585899999999
 11
273.96784400000001
 21
124.688532
  0
LINE
  5
E4
100
AcDbEntity
  8
LC-005-002-----0
  6
CONTINUOUS
 62
             7
100
AcDbLine
 10
264.46784400000001
 20
91.18853899999999
 11
264.46784400000001
 21
113.872901
  0
LINE
  5
E3
100
AcDbEntity
  8
LC-005-002-----0
  6
CONTINUOUS
 62
             7
100
AcDbLine
 10
253.46784400000001
 20
117.90830099999989
 11
253.46784400000001
 21
119.96876399999999
  0
LINE
  5
E2
100
AcDbEntity
  8
LC-005-002-----0
  6
CONTINUOUS
 62
             7
100
AcDbLine
 10
283.46804400000002
 20
91.18853200000001
 11
283.46805899999998
 21
113.873069
  0
LINE
  5
E1
100
AcDbEntity
  8
LC-005-002-----0
  6
CONTINUOUS
 62
             7
100
AcDbLine
 10
294.46784400000001
 20
117.90830099999989
 11
294.46784400000001
 21
119.96876399999999
  0
LINE
  5
E0
100
AcDbEntity
  8
LC-005-002-----0
  6
DASHDOT
 62
             2
100
AcDbLine
 10
178.96784400000001
 20
49.75585899999999
 11
178.96784400000001
 21
124.688532
  0
LINE
  5
DF
100
AcDbEntity
  8
LC-005-002-----0
  6
CONTINUOUS
 62
             7
100
AcDbLine
 10
169.46784400000001
 20
91.18853200000001
 11
169.46784400000001
 21
113.872901
  0
LINE
  5
DE
100
AcDbEntity
  8
LC-005-002-----0
  6
CONTINUOUS
 62
             7
100
AcDbLine
 10
158.46784400000001
 20
117.90830099999989
 11
158.46784400000001
 21
119.96876399999999
  0
LINE
  5
DD
100
AcDbEntity
  8
LC-005-002-----0
  6
CONTINUOUS
 62
             7
100
AcDbLine
 10
188.46804399999999
 20
91.18853200000001
 11
188.46805900000001
 21
113.873069
  0
LINE
  5
DC
100
AcDbEntity
  8
LC-005-002-----0
  6
CONTINUOUS
 62
             7
100
AcDbLine
 10
199.46784400000001
 20
117.90830099999989
 11
199.46784400000001
 21
119.96876399999999
  0
LINE
  5
DB
100
AcDbEntity
  8
LC-005-002-----0
  6
CONTINUOUS
 62
             7
100
AcDbLine
 10
176.46784400000001
 20
120.438532
 11
176.46784400000001
 21
117.438532
  0
LINE
  5
DA
100
AcDbEntity
  8
LC-005-002-----0
  6
CONTINUOUS
 62
             7
100
AcDbLine
 10
180.46784400000001
 20
121.438532
 11
177.46784400000001
 21
121.438532
  0
LINE
  5
D9
100
AcDbEntity
  8
LC-005-002-----0
  6
CONTINUOUS
 62
             7
100
AcDbLine
 10
177.46784400000001
 20
116.438532
 11
180.46784400000001
 21
116.438532
  0
LINE
  5
D8
100
AcDbEntity
  8
LC-005-002-----0
  6
CONTINUOUS
 62
             7
100
AcDbLine
 10
181.46784400000001
 20
117.438532
 11
181.46784400000001
 21
120.438532
  0
LINE
  5
D7
100
AcDbEntity
  8
LC-005-002-----0
  6
CONTINUOUS
 62
             7
100
AcDbLine
 10
275.46784400000001
 20
121.438532
 11
272.46784400000001
 21
121.438532
  0
LINE
  5
D6
100
AcDbEntity
  8
LC-005-002-----0
  6
CONTINUOUS
 62
             7
100
AcDbLine
 10
276.46784400000001
 20
117.438532
 11
276.46784400000001
 21
120.438532
  0
LINE
  5
D5
100
AcDbEntity
  8
LC-005-002-----0
  6
CONTINUOUS
 62
             7
100
AcDbLine
 10
271.46784400000001
 20
120.438532
 11
271.46784400000001
 21
117.438532
  0
LINE
  5
D4
100
AcDbEntity
  8
LC-005-002-----0
  6
CONTINUOUS
 62
             7
100
AcDbLine
 10
272.46784400000001
 20
116.438532
 11
275.46784400000001
 21
116.438532
  0
LINE
  5
D3
100
AcDbEntity
  8
LC-005-002-----0
  6
CONTINUOUS
 62
             7
100
AcDbLine
 10
320.99558599999989
 20
-122.50638928003499
 11
320.99561300000011
 21
-120.00638928003499
  0
LINE
  5
D2
100
AcDbEntity
  8
LC-005-002-----0
  6
CONTINUOUS
 62
             7
100
AcDbLine
 10
320.99562900000001
 20
44.49482
 11
320.99559699999998
 21
41.49482
  0
LINE
  5
D1
100
AcDbEntity
  8
LC-005-002-----0
  6
CONTINUOUS
 62
             7
100
AcDbLine
 10
320.99559699999998
 20
41.49482
 11
324.99559699999998
 21
41.494778
  0
LINE
  5
D0
100
AcDbEntity
  8
LC-008-001-----0
  6
CONTINUOUS
 62
             7
100
AcDbLine
 10
320.99561300000011
 20
-120.00638928003499
 11
437.49569480727467
 21
-120.007371280035
  0
LINE
  5
CF
100
AcDbEntity
  8
LC-008-001-----0
  6
CONTINUOUS
 62
             7
100
AcDbLine
 10
346.64603899999997
 20
79.99333871996498
 11
437.49781780727471
 21
79.99262871996496
  0
LINE
  5
CE
100
AcDbEntity
  8
LC-005-002-----0
  6
CONTINUOUS
 62
             7
100
AcDbLine
 10
444.99571580727462
 20
-117.997832280035
 11
444.99779580727471
 21
77.98292971996489
  0
LINE
  5
CD
100
AcDbEntity
  8
LC-005-002-----0
  6
CONTINUOUS
 62
             7
100
AcDbLine
 10
324.99559699999998
 20
41.494778
 11
346.64603899999997
 21
79.99333871996498
  0
LINE
  5
CC
100
AcDbEntity
  8
LC-005-002-----0
  6
CONTINUOUS
 62
             7
100
AcDbLine
 10
437.49781780727471
 20
79.99262871996496
 11
444.99779580727471
 21
77.98292971996489
  0
LINE
  5
CB
100
AcDbEntity
  8
LC-005-002-----0
  6
CONTINUOUS
 62
             7
100
AcDbLine
 10
437.49569480727467
 20
-120.007371280035
 11
444.99571580727462
 21
-117.997832280035
  0
LINE
  5
CA
100
AcDbEntity
  8
LC-005-002-----0
  6
CONTINUOUS
 62
             7
100
AcDbLine
 10
114.2223510000001
 20
66.60675400000002
 11
98.22034799999999
 21
-99.005
  0
LINE
  5
C9
100
AcDbEntity
  8
LC-005-002-----0
  6
CONTINUOUS
 62
             7
100
AcDbLine
 10
95.49583899999998
 20
105.27500000000001
 11
95.49583899999998
 21
-105.05635599999989
  0
LINE
  5
C8
100
AcDbEntity
  8
LC-005-002-----0
  6
CONTINUOUS
 62
             7
100
AcDbLine
 10
437.49781780727471
 20
79.99262871996496
 11
437.49781780727471
 21
-119.00260128003499
  0
LINE
  5
C7
100
AcDbEntity
  8
LC-005-002-----0
  6
DASHDOT
 62
             2
100
AcDbLine
 10
124.295839
 20
49.74500000000001
 11
154.29583900000009
 21
49.74500000000001
  0
LINE
  5
C6
100
AcDbEntity
  8
LC-010-201-----0
  6
CONTINUOUS
 62
             7
100
AcDbLine
 10
123.995839
 20
56.99500000000001
 11
119.995839
 21
56.99500000000001
  0
LINE
  5
C5
100
AcDbEntity
  8
LC-010-201-----0
  6
CONTINUOUS
 62
             7
100
AcDbLine
 10
123.995839
 20
53.49500000000001
 11
119.995839
 21
53.49500000000001
  0
LINE
  5
C4
100
AcDbEntity
  8
LC-010-201-----0
  6
CONTINUOUS
 62
             7
100
AcDbLine
 10
123.995839
 20
45.99500000000001
 11
119.995839
 21
45.99500000000001
  0
LINE
  5
C3
100
AcDbEntity
  8
LC-010-201-----0
  6
CONTINUOUS
 62
             7
100
AcDbLine
 10
123.9946850000001
 20
42.493516
 11
119.995839
 21
42.49353699999995
  0
LINE
  5
C2
100
AcDbEntity
  8
LC-010-201-----0
  6
CONTINUOUS
 62
             7
100
AcDbLine
 10
118.995839
 20
44.24426900000003
 11
118.995839
 21
55.24500000000001
  0
LINE
  5
C1
100
AcDbEntity
  8
LC-008-001-----0
  6
DASHED
 62
             2
100
AcDbLine
 10
152.795771
 20
53.74500000000001
 11
123.995839
 21
53.74500000000001
  0
LINE
  5
C0
100
AcDbEntity
  8
LC-008-001-----0
  6
DASHED
 62
             2
100
AcDbLine
 10
123.995839
 20
45.74500000000001
 11
152.79576599999999
 21
45.74500000000001
  0
LINE
  5
BF
100
AcDbEntity
  8
LC-010-201-----0
  6
CONTINUOUS
 62
             7
100
AcDbLine
 10
147.795773
 20
56.995183
 11
151.795773
 21
56.995181
  0
LINE
  5
BE
100
AcDbEntity
  8
LC-010-201-----0
  6
CONTINUOUS
 62
             7
100
AcDbLine
 10
147.795771
 20
53.495183
 11
151.795771
 21
53.495181
  0
LINE
  5
BD
100
AcDbEntity
  8
LC-010-201-----0
  6
CONTINUOUS
 62
             7
100
AcDbLine
 10
147.79576599999999
 20
45.995183
 11
151.79576599999999
 21
45.995181
  0
LINE
  5
BC
100
AcDbEntity
  8
LC-010-201-----0
  6
CONTINUOUS
 62
             7
100
AcDbLine
 10
147.79691800000009
 20
42.493698
 11
151.79576399999999
 21
42.49371699999995
  0
LINE
  5
BB
100
AcDbEntity
  8
LC-010-201-----0
  6
CONTINUOUS
 62
             7
100
AcDbLine
 10
152.79576499999999
 20
44.24444800000003
 11
152.795772
 21
55.24518000000001
  0
LINE
  5
BA
100
AcDbEntity
  8
LC-005-002-----0
  6
DASHED
 62
             2
100
AcDbLine
 10
153.48313099999999
 20
45.74500000000001
 11
152.79576599999999
 21
45.74500000000001
  0
LINE
  5
B9
100
AcDbEntity
  8
LC-005-002-----0
  6
DASHED
 62
             2
100
AcDbLine
 10
152.795771
 20
53.74500000000001
 11
153.48313099999999
 21
53.74500000000001
  0
LINE
  5
B8
100
AcDbEntity
  8
LC-010-201-----0
  6
CONTINUOUS
 62
             7
100
AcDbLine
 10
153.48313099999999
 20
45.74500000000001
 11
153.48313099999999
 21
53.74500000000001
  0
LINE
  5
B7
100
AcDbEntity
  8
LC-010-201-----0
  6
CONTINUOUS
 62
             7
100
AcDbLine
 10
154.29563099999999
 20
52.99500000000001
 11
153.48313099999999
 21
53.74500000000001
  0
LINE
  5
B6
100
AcDbEntity
  8
LC-010-201-----0
  6
CONTINUOUS
 62
             7
100
AcDbLine
 10
154.29563099999999
 20
46.49500000000001
 11
154.29563099999999
 21
52.99500000000001
  0
LINE
  5
B5
100
AcDbEntity
  8
LC-010-201-----0
  6
CONTINUOUS
 62
             7
100
AcDbLine
 10
153.48313099999999
 20
45.74500000000001
 11
154.29563099999999
 21
46.49500000000001
  0
LINE
  5
B4
100
AcDbEntity
  8
LC-010-201-----0
  6
CONTINUOUS
 62
             7
100
AcDbLine
 10
147.79583900000009
 20
80.74500000000001
 11
147.79583900000009
 21
-113.05500000000011
  0
LINE
  5
B3
100
AcDbEntity
  8
LC-005-002-----0
  6
CONTINUOUS
 62
             7
100
AcDbLine
 10
147.79583900000009
 20
80.74500000000001
 11
139.99583899999999
 21
80.74500000000001
  0
LINE
  5
B2
100
AcDbEntity
  8
LC-005-002-----0
  6
CONTINUOUS
 62
             7
100
AcDbLine
 10
139.99583899999999
 20
66.44499999999994
 11
147.79583900000009
 21
66.44499999999994
  0
LINE
  5
B1
100
AcDbEntity
  8
LC-005-002-----0
  6
DASHDOT
 62
             2
100
AcDbLine
 10
124.295839
 20
-82.05500000000006
 11
154.29583900000009
 21
-82.05500000000006
  0
LINE
  5
B0
100
AcDbEntity
  8
LC-010-201-----0
  6
CONTINUOUS
 62
             7
100
AcDbLine
 10
123.995839
 20
-89.30500000000006
 11
119.995839
 21
-89.30500000000006
  0
LINE
  5
AF
100
AcDbEntity
  8
LC-010-201-----0
  6
CONTINUOUS
 62
             7
100
AcDbLine
 10
123.995839
 20
-85.80500000000006
 11
119.995839
 21
-85.80500000000006
  0
LINE
  5
AE
100
AcDbEntity
  8
LC-010-201-----0
  6
CONTINUOUS
 62
             7
100
AcDbLine
 10
123.995839
 20
-78.30500000000006
 11
119.995839
 21
-78.30500000000006
  0
LINE
  5
AD
100
AcDbEntity
  8
LC-010-201-----0
  6
CONTINUOUS
 62
             7
100
AcDbLine
 10
123.9946850000001
 20
-74.80351500000006
 11
119.995839
 21
-74.80353600000001
  0
LINE
  5
AC
100
AcDbEntity
  8
LC-010-201-----0
  6
CONTINUOUS
 62
             7
100
AcDbLine
 10
118.995839
 20
-76.55426799999998
 11
118.995839
 21
-87.55500000000006
  0
LINE
  5
AB
100
AcDbEntity
  8
LC-008-001-----0
  6
DASHED
 62
             2
100
AcDbLine
 10
152.795771
 20
-86.05500000000006
 11
123.995839
 21
-86.05500000000006
  0
LINE
  5
AA
100
AcDbEntity
  8
LC-008-001-----0
  6
DASHED
 62
             2
100
AcDbLine
 10
123.995839
 20
-78.05500000000006
 11
152.79576599999999
 21
-78.05500000000006
  0
LINE
  5
A9
100
AcDbEntity
  8
LC-010-201-----0
  6
CONTINUOUS
 62
             7
100
AcDbLine
 10
147.795773
 20
-89.30518200000006
 11
151.795773
 21
-89.30518000000006
  0
LINE
  5
A8
100
AcDbEntity
  8
LC-010-201-----0
  6
CONTINUOUS
 62
             7
100
AcDbLine
 10
147.795771
 20
-85.80518200000006
 11
151.795771
 21
-85.80518000000006
  0
LINE
  5
A7
100
AcDbEntity
  8
LC-010-201-----0
  6
CONTINUOUS
 62
             7
100
AcDbLine
 10
147.79576599999999
 20
-78.30518200000006
 11
151.79576599999999
 21
-78.30518000000006
  0
LINE
  5
A6
100
AcDbEntity
  8
LC-010-201-----0
  6
CONTINUOUS
 62
             7
100
AcDbLine
 10
147.79691800000009
 20
-74.80369800000005
 11
151.79576399999999
 21
-74.80371600000001
  0
LINE
  5
A5
100
AcDbEntity
  8
LC-010-201-----0
  6
CONTINUOUS
 62
             7
100
AcDbLine
 10
152.79576499999999
 20
-76.55444699999998
 11
152.795772
 21
-87.55517900000007
  0
LINE
  5
A4
100
AcDbEntity
  8
LC-005-002-----0
  6
DASHED
 62
             2
100
AcDbLine
 10
153.48313099999999
 20
-78.05500000000006
 11
152.79576599999999
 21
-78.05500000000006
  0
LINE
  5
A3
100
AcDbEntity
  8
LC-005-002-----0
  6
DASHED
 62
             2
100
AcDbLine
 10
152.795771
 20
-86.05500000000006
 11
153.48313099999999
 21
-86.05500000000006
  0
LINE
  5
A2
100
AcDbEntity
  8
LC-010-201-----0
  6
CONTINUOUS
 62
             7
100
AcDbLine
 10
153.48313099999999
 20
-78.05500000000006
 11
153.48313099999999
 21
-86.05500000000006
  0
LINE
  5
A1
100
AcDbEntity
  8
LC-010-201-----0
  6
CONTINUOUS
 62
             7
100
AcDbLine
 10
154.29563099999999
 20
-85.30500000000006
 11
153.48313099999999
 21
-86.05500000000006
  0
LINE
  5
A0
100
AcDbEntity
  8
LC-010-201-----0
  6
CONTINUOUS
 62
             7
100
AcDbLine
 10
154.29563099999999
 20
-78.80500000000006
 11
154.29563099999999
 21
-85.30500000000006
  0
LINE
  5
9F
100
AcDbEntity
  8
LC-010-201-----0
  6
CONTINUOUS
 62
             7
100
AcDbLine
 10
153.48313099999999
 20
-78.05500000000006
 11
154.29563099999999
 21
-78.80500000000006
  0
LINE
  5
9E
100
AcDbEntity
  8
LC-005-002-----0
  6
CONTINUOUS
 62
             7
100
AcDbLine
 10
139.99583899999999
 20
-98.755
 11
147.79583900000009
 21
-98.755
  0
LINE
  5
9D
100
AcDbEntity
  8
LC-005-002-----0
  6
CONTINUOUS
 62
             7
100
AcDbLine
 10
147.79583900000009
 20
-113.05500000000011
 11
139.99583899999999
 21
-113.05500000000011
  0
LINE
  5
9C
100
AcDbEntity
  8
LC-005-002-----0
  6
CONTINUOUS
 62
             7
100
AcDbLine
 10
346.64603899999997
 20
79.99333871996498
 11
324.10592600000001
 21
-96.754685
  0
LINE
  5
9B
100
AcDbEntity
  8
LC-005-002-----0
  6
CONTINUOUS
 62
             7
100
AcDbLine
 10
324.99559699999998
 20
41.494778
 11
324.79252700000001
 21
33.24500000000001
  0
LINE
  5
9A
100
AcDbEntity
  8
LC-005-002-----0
  6
DASHDOT
 62
             2
100
AcDbLine
 10
297.49572999999992
 20
25.99482
 11
322.49572999999992
 21
25.99482
  0
LINE
  5
99
100
AcDbEntity
  8
LC-010-201-----0
  6
CONTINUOUS
 62
             7
100
AcDbLine
 10
297.495541
 20
33.24482
 11
293.495541
 21
33.24482
  0
LINE
  5
98
100
AcDbEntity
  8
LC-010-201-----0
  6
CONTINUOUS
 62
             7
100
AcDbLine
 10
292.495541
 20
20.49408800000003
 11
292.495541
 21
31.49482
  0
LINE
  5
97
100
AcDbEntity
  8
LC-010-201-----0
  6
CONTINUOUS
 62
             7
100
AcDbLine
 10
297.495541
 20
29.74482
 11
293.495541
 21
29.74482
  0
LINE
  5
96
100
AcDbEntity
  8
LC-010-201-----0
  6
CONTINUOUS
 62
             7
100
AcDbLine
 10
297.495541
 20
22.24482
 11
293.495541
 21
22.24482
  0
LINE
  5
95
100
AcDbEntity
  8
LC-010-201-----0
  6
CONTINUOUS
 62
             7
100
AcDbLine
 10
297.49438700000002
 20
18.743335
 11
293.495541
 21
18.74335599999995
  0
LINE
  5
94
100
AcDbEntity
  8
LC-008-001-----0
  6
DASHED
 62
             2
100
AcDbLine
 10
325.99568099999988
 20
29.99482
 11
297.49554599999988
 21
29.99482
  0
LINE
  5
93
100
AcDbEntity
  8
LC-008-001-----0
  6
DASHED
 62
             2
100
AcDbLine
 10
297.49553700000001
 20
21.99482
 11
325.995676
 21
21.99482
  0
LINE
  5
92
100
AcDbEntity
  8
LC-010-201-----0
  6
CONTINUOUS
 62
             7
100
AcDbLine
 10
320.99568299999987
 20
33.245003
 11
324.99568299999987
 21
33.24500000000001
  0
LINE
  5
91
100
AcDbEntity
  8
LC-010-201-----0
  6
CONTINUOUS
 62
             7
100
AcDbLine
 10
320.99568099999988
 20
29.745003
 11
324.99568099999988
 21
29.74500000000001
  0
LINE
  5
90
100
AcDbEntity
  8
LC-010-201-----0
  6
CONTINUOUS
 62
             7
100
AcDbLine
 10
320.995676
 20
22.245003
 11
324.995676
 21
22.24500000000001
  0
LINE
  5
8F
100
AcDbEntity
  8
LC-010-201-----0
  6
CONTINUOUS
 62
             7
100
AcDbLine
 10
320.99682799999999
 20
18.743518
 11
324.99567400000001
 21
18.74353699999995
  0
LINE
  5
8E
100
AcDbEntity
  8
LC-010-201-----0
  6
CONTINUOUS
 62
             7
100
AcDbLine
 10
325.99567500000001
 20
20.49426800000003
 11
325.99568199999987
 21
31.49500000000001
  0
LINE
  5
8D
100
AcDbEntity
  8
LC-005-002-----0
  6
DASHED
 62
             2
100
AcDbLine
 10
325.99568099999988
 20
29.99482
 11
326.683041
 21
29.99482
  0
LINE
  5
8C
100
AcDbEntity
  8
LC-010-201-----0
  6
CONTINUOUS
 62
             7
100
AcDbLine
 10
326.683041
 20
21.99482
 11
326.683041
 21
29.99482
  0
LINE
  5
8B
100
AcDbEntity
  8
LC-010-201-----0
  6
CONTINUOUS
 62
             7
100
AcDbLine
 10
327.495541
 20
22.74482
 11
327.495541
 21
29.24482
  0
LINE
  5
8A
100
AcDbEntity
  8
LC-010-201-----0
  6
CONTINUOUS
 62
             7
100
AcDbLine
 10
327.495541
 20
29.24482
 11
326.683041
 21
29.99482
  0
LINE
  5
89
100
AcDbEntity
  8
LC-010-201-----0
  6
CONTINUOUS
 62
             7
100
AcDbLine
 10
326.683041
 20
21.99482
 11
327.495541
 21
22.74482
  0
LINE
  5
88
100
AcDbEntity
  8
LC-005-002-----0
  6
DASHED
 62
             2
100
AcDbLine
 10
326.683041
 20
21.99482
 11
325.995676
 21
21.99482
  0
LINE
  5
87
100
AcDbEntity
  8
LC-010-201-----0
  6
DASHDOT
 62
             2
100
AcDbLine
 10
320.99572999999992
 20
-39.00557600000002
 11
287.90727700000002
 21
-39.00557600000002
  0
LINE
  5
86
100
AcDbEntity
  8
LC-010-201-----0
  6
CONTINUOUS
 62
             7
100
AcDbLine
 10
310.99572999999992
 20
61.99500000000001
 11
310.99572999999992
 21
-136.005
  0
LINE
  5
85
100
AcDbEntity
  8
LC-005-002-----0
  6
CONTINUOUS
 62
             7
100
AcDbLine
 10
324.43557199999998
 20
18.74353399999995
 11
321.59256699999997
 21
-96.75467300000003
  0
LINE
  5
84
100
AcDbEntity
  8
LC-005-002-----0
  6
CONTINUOUS
 62
             7
100
AcDbLine
 10
297.495541
 20
-123.005
 11
297.495541
 21
61.99500000000001
  0
LINE
  5
83
100
AcDbEntity
  8
LC-005-002-----0
  6
CONTINUOUS
 62
             7
100
AcDbLine
 10
297.495541
 20
61.99500000000001
 11
303.99583899999999
 21
61.99500000000001
  0
LINE
  5
82
100
AcDbEntity
  8
LC-005-002-----0
  6
DASHDOT
 62
             2
100
AcDbLine
 10
297.49572999999992
 20
-104.005972
 11
322.49572999999992
 21
-104.005972
  0
LINE
  5
81
100
AcDbEntity
  8
LC-010-201-----0
  6
CONTINUOUS
 62
             7
100
AcDbLine
 10
297.495541
 20
-111.255972
 11
293.495541
 21
-111.255972
  0
LINE
  5
80
100
AcDbEntity
  8
LC-010-201-----0
  6
CONTINUOUS
 62
             7
100
AcDbLine
 10
292.495541
 20
-98.50523999999996
 11
292.495541
 21
-109.505972
  0
LINE
  5
7F
100
AcDbEntity
  8
LC-010-201-----0
  6
CONTINUOUS
 62
             7
100
AcDbLine
 10
297.495541
 20
-107.755972
 11
293.495541
 21
-107.755972
  0
LINE
  5
7E
100
AcDbEntity
  8
LC-010-201-----0
  6
CONTINUOUS
 62
             7
100
AcDbLine
 10
297.495541
 20
-100.255972
 11
293.495541
 21
-100.255972
  0
LINE
  5
7D
100
AcDbEntity
  8
LC-010-201-----0
  6
CONTINUOUS
 62
             7
100
AcDbLine
 10
297.49438700000002
 20
-96.75448700000004
 11
293.495541
 21
-96.75450899999999
  0
LINE
  5
7C
100
AcDbEntity
  8
LC-008-001-----0
  6
DASHED
 62
             2
100
AcDbLine
 10
325.99568099999988
 20
-108.005972
 11
297.49554599999988
 21
-108.005972
  0
LINE
  5
7B
100
AcDbEntity
  8
LC-008-001-----0
  6
DASHED
 62
             2
100
AcDbLine
 10
297.49553700000001
 20
-100.005972
 11
325.995676
 21
-100.005972
  0
LINE
  5
7A
100
AcDbEntity
  8
LC-010-201-----0
  6
CONTINUOUS
 62
             7
100
AcDbLine
 10
320.99568299999987
 20
-111.25615500000001
 11
324.99568299999987
 21
-111.256152
  0
LINE
  5
79
100
AcDbEntity
  8
LC-010-201-----0
  6
CONTINUOUS
 62
             7
100
AcDbLine
 10
320.99568099999988
 20
-107.75615500000001
 11
324.99568099999988
 21
-107.756152
  0
LINE
  5
78
100
AcDbEntity
  8
LC-010-201-----0
  6
CONTINUOUS
 62
             7
100
AcDbLine
 10
320.995676
 20
-100.25615500000001
 11
324.995676
 21
-100.256152
  0
LINE
  5
77
100
AcDbEntity
  8
LC-010-201-----0
  6
CONTINUOUS
 62
             7
100
AcDbLine
 10
320.99682799999999
 20
-96.75467000000003
 11
324.99567400000001
 21
-96.75468899999999
  0
LINE
  5
76
100
AcDbEntity
  8
LC-010-201-----0
  6
CONTINUOUS
 62
             7
100
AcDbLine
 10
325.99567500000001
 20
-98.50541999999996
 11
325.99568199999987
 21
-109.506152
  0
LINE
  5
75
100
AcDbEntity
  8
LC-005-002-----0
  6
DASHED
 62
             2
100
AcDbLine
 10
325.99568099999988
 20
-108.005972
 11
326.683041
 21
-108.005972
  0
LINE
  5
74
100
AcDbEntity
  8
LC-010-201-----0
  6
CONTINUOUS
 62
             7
100
AcDbLine
 10
326.683041
 20
-100.005972
 11
326.683041
 21
-108.005972
  0
LINE
  5
73
100
AcDbEntity
  8
LC-010-201-----0
  6
CONTINUOUS
 62
             7
100
AcDbLine
 10
327.495541
 20
-100.755972
 11
327.495541
 21
-107.255972
  0
LINE
  5
72
100
AcDbEntity
  8
LC-010-201-----0
  6
CONTINUOUS
 62
             7
100
AcDbLine
 10
327.495541
 20
-107.255972
 11
326.683041
 21
-108.005972
  0
LINE
  5
71
100
AcDbEntity
  8
LC-010-201-----0
  6
CONTINUOUS
 62
             7
100
AcDbLine
 10
326.683041
 20
-100.005972
 11
327.495541
 21
-100.755972
  0
LINE
  5
70
100
AcDbEntity
  8
LC-005-002-----0
  6
DASHED
 62
             2
100
AcDbLine
 10
326.683041
 20
-100.005972
 11
325.995676
 21
-100.005972
  0
LINE
  5
6F
100
AcDbEntity
  8
LC-005-002-----0
  6
CONTINUOUS
 62
             7
100
AcDbLine
 10
305.49583899999999
 20
61.99500000000001
 11
306.99583899999999
 21
61.99500000000001
  0
LINE
  5
6E
100
AcDbEntity
  8
LC-005-002-----0
  6
CONTINUOUS
 62
             7
100
AcDbLine
 10
310.99572999999992
 20
61.99500000000001
 11
320.99572999999992
 21
61.99500000000001
  0
LINE
  5
6D
100
AcDbEntity
  8
LC-005-002-----0
  6
CONTINUOUS
 62
             7
100
AcDbLine
 10
322.24607900000001
 20
-111.256154
 11
320.99561300000011
 21
-120.00638928003499
  0
LINE
  5
6C
100
AcDbEntity
  8
LC-005-002-----0
  6
CONTINUOUS
 62
             7
100
AcDbLine
 10
321.23561100000001
 20
-111.25615500000001
 11
320.99561300000011
 21
-120.00638928003499
  0
LINE
  5
6B
100
AcDbEntity
  8
LC-005-002-----0
  6
CONTINUOUS
 62
             7
100
AcDbLine
 10
307.99583899999999
 20
-123.005
 11
310.99572999999992
 21
-123.005
  0
LINE
  5
6A
100
AcDbEntity
  8
LC-005-002-----0
  6
CONTINUOUS
 62
             7
100
AcDbLine
 10
310.99572999999992
 20
-136.005
 11
320.99546900000001
 21
-136.005
  0
LINE
  5
69
100
AcDbEntity
  8
LC-005-002-----0
  6
CONTINUOUS
 62
             7
100
AcDbLine
 10
264.52702699999998
 20
91.18853200000001
 11
283.52723099999997
 21
91.18853200000001
  0
LINE
  5
68
100
AcDbEntity
  8
LC-005-002-----0
  6
CONTINUOUS
 62
             7
100
AcDbLine
 10
283.52723099999997
 20
91.18853200000001
 11
264.52702699999998
 21
91.18853200000001
  0
LINE
  5
67
100
AcDbEntity
  8
LC-005-002-----0
  6
CONTINUOUS
 62
             7
100
AcDbLine
 10
272.46430299999997
 20
75.18853200000001
 11
272.46430299999997
 21
49.75585899999999
  0
LINE
  5
66
100
AcDbEntity
  8
LC-005-002-----0
  6
CONTINUOUS
 62
             7
100
AcDbLine
 10
264.46784400000001
 20
75.18853200000001
 11
283.46784400000001
 21
75.18853200000001
  0
LINE
  5
65
100
AcDbEntity
  8
LC-005-002-----0
  6
CONTINUOUS
 62
             7
100
AcDbLine
 10
263.96784400000001
 20
82.68853200000001
 11
263.96784400000001
 21
75.68853200000001
  0
LINE
  5
64
100
AcDbEntity
  8
LC-005-002-----0
  6
CONTINUOUS
 62
             7
100
AcDbLine
 10
283.96784400000001
 20
75.68853200000001
 11
283.96784400000001
 21
82.68853200000001
  0
LINE
  5
63
100
AcDbEntity
  8
LC-005-002-----0
  6
CONTINUOUS
 62
             7
100
AcDbLine
 10
264.46816799999988
 20
91.18853899999999
 11
283.46784400000001
 21
91.18852600000002
  0
LINE
  5
62
100
AcDbEntity
  8
LC-005-002-----0
  6
CONTINUOUS
 62
             7
100
AcDbLine
 10
275.46430299999997
 20
75.18853200000001
 11
275.46430299999997
 21
49.75585899999999
  0
LINE
  5
61
100
AcDbEntity
  8
LC-005-002-----0
  6
CONTINUOUS
 62
             7
100
AcDbLine
 10
272.46430299999997
 20
49.75585899999999
 11
275.46430299999997
 21
49.75585899999999
  0
LINE
  5
60
100
AcDbEntity
  8
LC-005-002-----0
  6
CONTINUOUS
 62
             7
100
AcDbLine
 10
264.46784400000001
 20
91.18853200000001
 11
283.46784400000001
 21
91.18853200000001
  0
LINE
  5
5F
100
AcDbEntity
  8
LC-005-002-----0
  6
CONTINUOUS
 62
             7
100
AcDbLine
 10
283.96784400000001
 20
83.68853200000001
 11
283.96784400000001
 21
90.68853200000001
  0
LINE
  5
5E
100
AcDbEntity
  8
LC-005-002-----0
  6
CONTINUOUS
 62
             7
100
AcDbLine
 10
263.96784400000001
 20
83.68853200000001
 11
263.96784400000001
 21
90.68853200000001
  0
LINE
  5
5D
100
AcDbEntity
  8
LC-005-002-----0
  6
CONTINUOUS
 62
             7
100
AcDbLine
 10
264.46784400000001
 20
97.18853200000001
 11
188.46804800000001
 21
97.18853200000001
  0
LINE
  5
5C
100
AcDbEntity
  8
LC-005-002-----0
  6
CONTINUOUS
 62
             7
100
AcDbLine
 10
169.527027
 20
91.18853200000001
 11
188.527231
 21
91.18853200000001
  0
LINE
  5
5B
100
AcDbEntity
  8
LC-005-002-----0
  6
CONTINUOUS
 62
             7
100
AcDbLine
 10
188.527231
 20
91.18853200000001
 11
169.527027
 21
91.18853200000001
  0
LINE
  5
5A
100
AcDbEntity
  8
LC-005-002-----0
  6
CONTINUOUS
 62
             7
100
AcDbLine
 10
177.464303
 20
75.18853200000001
 11
177.464303
 21
49.75585899999999
  0
LINE
  5
59
100
AcDbEntity
  8
LC-005-002-----0
  6
CONTINUOUS
 62
             7
100
AcDbLine
 10
169.46784400000001
 20
75.18853200000001
 11
188.46784400000001
 21
75.18853200000001
  0
LINE
  5
58
100
AcDbEntity
  8
LC-005-002-----0
  6
CONTINUOUS
 62
             7
100
AcDbLine
 10
168.96784400000001
 20
82.68853200000001
 11
168.96784400000001
 21
75.68853200000001
  0
LINE
  5
57
100
AcDbEntity
  8
LC-005-002-----0
  6
CONTINUOUS
 62
             7
100
AcDbLine
 10
188.96784400000001
 20
75.68853200000001
 11
188.96784400000001
 21
82.68853200000001
  0
LINE
  5
56
100
AcDbEntity
  8
LC-005-002-----0
  6
CONTINUOUS
 62
             7
100
AcDbLine
 10
169.46816800000011
 20
91.18853899999999
 11
188.46784400000001
 21
91.18852600000002
  0
LINE
  5
55
100
AcDbEntity
  8
LC-005-002-----0
  6
CONTINUOUS
 62
             7
100
AcDbLine
 10
180.464303
 20
75.18853200000001
 11
180.464303
 21
49.75585899999999
  0
LINE
  5
54
100
AcDbEntity
  8
LC-005-002-----0
  6
CONTINUOUS
 62
             7
100
AcDbLine
 10
177.464303
 20
49.75585899999999
 11
180.464303
 21
49.75585899999999
  0
LINE
  5
53
100
AcDbEntity
  8
LC-005-002-----0
  6
CONTINUOUS
 62
             7
100
AcDbLine
 10
169.46784400000001
 20
91.18853200000001
 11
188.46784400000001
 21
91.18853200000001
  0
LINE
  5
52
100
AcDbEntity
  8
LC-005-002-----0
  6
CONTINUOUS
 62
             7
100
AcDbLine
 10
188.96784400000001
 20
83.68853200000001
 11
188.96784400000001
 21
90.68853200000001
  0
LINE
  5
51
100
AcDbEntity
  8
LC-005-002-----0
  6
CONTINUOUS
 62
             7
100
AcDbLine
 10
168.96784400000001
 20
83.68853200000001
 11
168.96784400000001
 21
90.68853200000001
  0
LINE
  5
50
100
AcDbEntity
  8
LC-005-002-----0
  6
CONTINUOUS
 62
             7
100
AcDbLine
 10
169.46784400000001
 20
97.18853200000001
 11
141.96784400000001
 21
97.18853200000001
  0
LINE
  5
4F
100
AcDbEntity
  8
LC-005-002-----0
  6
CONTINUOUS
 62
             7
100
AcDbLine
 10
166.18069900000009
 20
103.688532
 11
166.18069900000009
 21
106.2877569999999
  0
LINE
  5
4E
100
AcDbEntity
  8
LC-005-002-----0
  6
CONTINUOUS
 62
             7
100
AcDbLine
 10
162.68069900000009
 20
106.2877569999999
 11
169.46784400000001
 21
106.2877569999999
  0
LINE
  5
4D
100
AcDbEntity
  8
LC-005-002-----0
  6
CONTINUOUS
 62
             7
100
AcDbLine
 10
162.68069900000009
 20
193.49740300000011
 11
162.68069900000009
 21
122.656199
  0
LINE
  5
4C
100
AcDbEntity
  8
LC-005-002-----0
  6
CONTINUOUS
 62
             7
100
AcDbLine
 10
176.68069900000009
 20
124.649058
 11
176.68069900000009
 21
193.49740300000011
  0
LINE
  5
4B
100
AcDbEntity
  8
LC-005-002-----0
  6
CONTINUOUS
 62
             7
100
AcDbLine
 10
176.68069900000009
 20
193.49740300000011
 11
162.68069900000009
 21
193.49740300000011
  0
LINE
  5
4A
100
AcDbEntity
  8
LC-005-002-----0
  6
CONTINUOUS
 62
             7
100
AcDbLine
 10
160.18069900000009
 20
176.49740300000011
 11
154.18069900000009
 21
176.49740300000011
  0
LINE
  5
49
100
AcDbEntity
  8
LC-005-002-----0
  6
CONTINUOUS
 62
             7
100
AcDbLine
 10
152.18069900000009
 20
178.49740300000011
 11
152.18069900000009
 21
210.99740300000011
  0
LINE
  5
48
100
AcDbEntity
  8
LC-005-002-----0
  6
CONTINUOUS
 62
             7
100
AcDbLine
 10
155.18069900000009
 20
213.99740300000011
 11
173.68069900000009
 21
213.99740300000011
  0
LINE
  5
47
100
AcDbEntity
  8
LC-005-002-----0
  6
CONTINUOUS
 62
             7
100
AcDbLine
 10
176.68069900000009
 20
210.99740300000011
 11
176.68069900000009
 21
206.99740300000011
  0
LINE
  5
46
100
AcDbEntity
  8
LC-005-002-----0
  6
CONTINUOUS
 62
             7
100
AcDbLine
 10
174.18069900000009
 20
193.49740300000011
 11
174.18069900000009
 21
195.602159
  0
LINE
  5
45
100
AcDbEntity
  8
LC-005-002-----0
  6
CONTINUOUS
 62
             7
100
AcDbLine
 10
166.18069900000009
 20
193.49740300000011
 11
166.18069900000009
 21
195.49740300000011
  0
LINE
  5
44
100
AcDbEntity
  8
LC-005-002-----0
  6
CONTINUOUS
 62
             7
100
AcDbLine
 10
162.18069900000009
 20
193.49740300000011
 11
162.18069900000009
 21
178.49740300000011
  0
LINE
  5
43
100
AcDbEntity
  8
LC-005-002-----0
  6
CONTINUOUS
 62
             7
100
AcDbLine
 10
164.18069900000009
 20
195.49740300000011
 11
176.68069900000009
 21
195.49740300000011
  0
LINE
  5
42
100
AcDbEntity
  8
LC-005-002-----0
  6
CONTINUOUS
 62
             7
100
AcDbLine
 10
176.68069900000009
 20
198.99740300000011
 11
176.68069900000009
 21
195.49740300000011
  0
LINE
  5
41
100
AcDbEntity
  8
LC-005-002-----0
  6
DASHDOT
 62
             2
100
AcDbLine
 10
176.68069900000009
 20
198.99740300000011
 11
182.68069900000009
 21
198.99740300000011
  0
LINE
  5
40
100
AcDbEntity
  8
LC-005-002-----0
  6
DASHDOT
 62
             2
100
AcDbLine
 10
179.68070100000011
 20
201.99740300000011
 11
179.68070100000011
 21
196.49740300000011
  0
LINE
  5
3F
100
AcDbEntity
  8
LC-005-002-----0
  6
CONTINUOUS
 62
             7
100
AcDbLine
 10
181.18069900000009
 20
196.39932700000011
 11
182.18069900000009
 21
194.6672759999999
  0
LINE
  5
3E
100
AcDbEntity
  8
LC-005-002-----0
  6
CONTINUOUS
 62
             7
100
AcDbLine
 10
162.68069900000009
 20
115.220866
 11
162.68069900000009
 21
106.2877569999999
  0
LINE
  5
3D
100
AcDbEntity
  8
1
  6
PHANTOM
 62
             2
100
AcDbLine
 10
328.1703790198527
 20
-20.00648334781801
 11
448.99667398591743
 21
-20.00746470535501
  0
LINE
  5
3C
100
AcDbEntity
  8
1
  6
PHANTOM
 62
             2
100
AcDbLine
 10
101.472129006004
 20
0.0
 11
-4.39545065050007
 21
0.0
  0
LINE
  5
3B
100
AcDbEntity
  8
1
  6
DASHDOT
 62
             2
100
AcDbLine
 10
-2.81522130917706
 20
-100.0
 11
-7.81522130917706
 21
-100.0
  0
LINE
  5
3A
100
AcDbEntity
  8
1
  6
DASHDOT
 62
             2
100
AcDbLine
 10
-7.81522130917706
 20
99.99999999999966
 11
-2.81522130917706
 21
99.99999999999966
  0
POINT
  5
39
100
AcDbEntity
  8
LC-002-003-----0
 62
             7
100
AcDbPoint
 10
-0.00000000000001
 20
101.27500000000001
  0
POINT
  5
38
100
AcDbEntity
  8
LC-002-003-----0
 62
             7
100
AcDbPoint
 10
-0.00000000000001
 20
-99.60500000000002
  0
POINT
  5
37
100
AcDbEntity
  8
LC-002-003-----0
 62
             7
100
AcDbPoint
 10
437.49781780727471
 20
79.99262871996496
  0
POINT
  5
36
100
AcDbEntity
  8
LC-002-003-----0
 62
             7
100
AcDbPoint
 10
437.49569480727467
 20
-120.007371280035
  0
POINT
  5
35
100
AcDbEntity
  8
LC-002-003-----0
 62
             7
100
AcDbPoint
 10
-0.00000000000001
 20
-105.27500000000001
  0
POINT
  5
34
100
AcDbEntity
  8
LC-002-003-----0
 62
             7
100
AcDbPoint
 10
444.99571580727462
 20
-117.997832280035
  0
POINT
  5
33
100
AcDbEntity
  8
LC-002-003-----0
 62
             7
100
AcDbPoint
 10
136.96784400000001
 20
92.18853200000001
  0
POINT
  5
32
100
AcDbEntity
  8
LC-002-003-----0
 62
             7
100
AcDbPoint
 10
304.49583899999999
 20
92.18853200000001
  0
POINT
  5
31
100
AcDbEntity
  8
LC-002-003-----0
 62
             7
100
AcDbPoint
 10
173.68069900000009
 20
213.99740300000011
  0
POINT
  5
30
100
AcDbEntity
  8
LC-002-003-----0
 62
             7
100
AcDbPoint
 10
307.99583899999999
 20
-136.005
  0
ENDBLK
  5
182
100
AcDbEntity
  8
0
100
AcDbBlockEnd
  0
BLOCK
  5
185
100
AcDbEntity
  8
0
100
AcDbBlockBegin
  2
*D1
 70
             1
 10
0.0
 20
0.0
 30
0.0
  3
*D1
  1

  0
LINE
  5
186
100
AcDbEntity
  8
0
  6
CONTINUOUS
 62
             4
100
AcDbLine
 10
-17.81522130917706
 20
99.9999999999997
 11
-17.81522130917706
 21
-100.0
  0
LINE
  5
187
100
AcDbEntity
  8
0
  6
CONTINUOUS
 62
             4
100
AcDbLine
 10
-7.81522130917706
 20
-100.0
 11
-19.81522130917706
 21
-100.0
  0
LINE
  5
188
100
AcDbEntity
  8
0
  6
CONTINUOUS
 62
             4
100
AcDbLine
 10
-7.81522130917706
 20
99.9999999999997
 11
-19.81522130917706
 21
99.9999999999997
  0
SOLID
  5
189
100
AcDbEntity
  8
0
 62
             4
100
AcDbTrace
 10
-15.84043384536613
 20
84.9999999999997
 11
-19.790008772988
 21
84.9999999999997
 12
-17.81522130917706
 22
99.9999999999997
 13
-17.81522130917706
 23
99.9999999999997
  0
SOLID
  5
18A
100
AcDbEntity
  8
0
 62
             4
100
AcDbTrace
 10
-19.790008772988
 20
-85.0
 11
-15.84043384536612
 21
-85.0
 12
-17.81522130917706
 22
-100.0
 13
-17.81522130917706
 23
-100.0
  0
MTEXT
  5
18C
100
AcDbEntity
  8
0
 62
             1
100
AcDbMText
 10
-19.81522130917706
 20
-33.44027561562299
 30
0.0
 40
15.0
 41
0.0
 71
             7
 72
             1
  1
\C1;DN\C1;200
  7
CONVERTER_1
 11
0.0
 21
1.0
 31
0.0
  0
ENDBLK
  5
18D
100
AcDbEntity
  8
0
100
AcDbBlockEnd
  0
BLOCK
  5
191
100
AcDbEntity
  8
0
100
AcDbBlockBegin
  2
*D2
 70
             1
 10
0.0
 20
0.0
 30
0.0
  3
*D2
  1

  0
LINE
  5
192
100
AcDbEntity
  8
0
  6
CONTINUOUS
 62
             4
100
AcDbLine
 10
0.0
 20
-162.511556053178
 11
444.99571580727456
 21
-162.511556053178
  0
LINE
  5
193
100
AcDbEntity
  8
0
  6
CONTINUOUS
 62
             4
100
AcDbLine
 10
444.99571580727456
 20
-117.997832280035
 11
444.99571580727456
 21
-164.511556053178
  0
LINE
  5
194
100
AcDbEntity
  8
0
  6
CONTINUOUS
 62
             4
100
AcDbLine
 10
0.0
 20
-105.27499999999995
 11
0.0
 21
-164.511556053178
  0
SOLID
  5
195
100
AcDbEntity
  8
0
 62
             4
100
AcDbTrace
 10
15.0
 20
-160.53676858936706
 11
15.0
 21
-164.48634351698894
 12
0.0
 22
-162.511556053178
 13
0.0
 23
-162.511556053178
  0
SOLID
  5
196
100
AcDbEntity
  8
0
 62
             4
100
AcDbTrace
 10
429.99571580727456
 20
-164.48634351698894
 11
429.99571580727456
 21
-160.53676858936706
 12
444.99571580727456
 22
-162.511556053178
 13
444.99571580727456
 23
-162.511556053178
  0
MTEXT
  5
197
100
AcDbEntity
  8
0
 62
             1
100
AcDbMText
 10
236.21588421252
 20
-160.511556053178
 30
0.0
 40
15.0
 41
0.0
 71
             7
 72
             1
  1
445
  7
CONVERTER_1
 11
0.99999999999706
 21
0.00000242406841
 31
0.0
  0
ENDBLK
  5
198
100
AcDbEntity
  8
0
100
AcDbBlockEnd
  0
BLOCK
  5
19C
100
AcDbEntity
  8
0
100
AcDbBlockBegin
  2
*D3
 70
             1
 10
0.0
 20
0.0
 30
0.0
  3
*D3
  1

  0
LINE
  5
19D
100
AcDbEntity
  8
0
  6
CONTINUOUS
 62
             4
100
AcDbLine
 10
506.46047747573959
 20
-136.00650635657553
 11
506.4633202039887
 21
213.99470012200823
  0
LINE
  5
19E
100
AcDbEntity
  8
0
  6
CONTINUOUS
 62
             4
100
AcDbLine
 10
173.680699
 20
213.99740300000008
 11
508.46332020392271
 21
213.99468387790279
  0
LINE
  5
19F
100
AcDbEntity
  8
0
  6
CONTINUOUS
 62
             4
100
AcDbLine
 10
320.99546899999996
 20
-136.005
 11
508.4604774756736
 21
-136.00652260068102
  0
SOLID
  5
1A0
100
AcDbEntity
  8
0
 62
             4
100
AcDbTrace
 10
504.48581184278413
 20
-121.00649031774245
 11
508.43538677027578
 21
-121.00652239639813
 12
506.46047747573959
 22
-136.00650635657553
 13
506.46047747573959
 23
-136.00650635657553
  0
SOLID
  5
1A1
100
AcDbEntity
  8
0
 62
             4
100
AcDbTrace
 10
508.43798583694411
 20
198.99468408317514
 11
504.48841090945251
 21
198.99471616183081
 12
506.4633202039887
 22
213.99470012200823
 13
506.4633202039887
 23
213.99470012200823
  0
MTEXT
  5
1A2
100
AcDbEntity
  8
0
 62
             1
100
AcDbMText
 10
504.46191817343492
 20
41.37448487781576
 30
0.0
 40
15.0
 41
0.0
 71
             7
 72
             1
  1
\C1;250-\C1;350
  7
CONVERTER_1
 11
0.00000812205271
 21
0.99999999996702
 31
0.0
  0
ENDBLK
  5
1A3
100
AcDbEntity
  8
0
100
AcDbBlockEnd
  0
BLOCK
  5
1A7
100
AcDbEntity
  8
0
100
AcDbBlockBegin
  2
*D4
 70
             1
 10
0.0
 20
0.0
 30
0.0
  3
*D4
  1

  0
LINE
  5
1A8
100
AcDbEntity
  8
0
  6
CONTINUOUS
 62
             4
100
AcDbLine
 10
377.02931756826268
 20
-0.00223809001133
 11
377.02967621953974
 21
44.15547544397213
  0
LINE
  5
1A9
100
AcDbEntity
  8
0
  6
CONTINUOUS
 62
             4
100
AcDbLine
 10
377.02915508950502
 20
-20.00688018137281
 11
377.02931756826268
 21
-0.00223809001133
  0
LINE
  5
1AA
100
AcDbEntity
  8
0
  6
CONTINUOUS
 62
             4
100
AcDbLine
 10
377.02891142792362
 20
-50.00688018038328
 11
377.02915508950502
 21
-20.00688018137281
  0
LINE
  5
1AB
100
AcDbEntity
  8
0
  6
CONTINUOUS
 62
             4
100
AcDbLine
 10
101.47212900600397
 20
0.0
 11
379.02931756819669
 21
-0.00225433411676
  0
LINE
  5
1AC
100
AcDbEntity
  8
0
  6
CONTINUOUS
 62
             4
100
AcDbLine
 10
328.17037901985265
 20
-20.006483347818
 11
379.02915508943903
 21
-20.00689642547824
  0
SOLID
  5
1AD
100
AcDbEntity
  8
0
 62
             4
100
AcDbTrace
 10
379.00382072246043
 20
-35.00689622020589
 11
375.05424579496884
 21
-35.00686414155022
 12
377.02915508950502
 22
-20.00688018137281
 13
377.02915508950502
 23
-20.00688018137281
  0
SOLID
  5
1AE
100
AcDbEntity
  8
0
 62
             4
100
AcDbTrace
 10
375.05465193530722
 20
14.99777794882175
 11
379.00422686279887
 21
14.99774587016608
 12
377.02931756826268
 22
-0.00223809001133
 13
377.02931756826268
 23
-0.00223809001133
  0
MTEXT
  5
1AF
100
AcDbEntity
  8
0
 62
             1
100
AcDbMText
 10
375.02949347341956
 20
21.65549168881969
 30
0.0
 40
15.0
 41
0.0
 71
             7
 72
             1
  1
20
  7
CONVERTER_1
 11
0.00000812205272
 21
0.99999999996702
 31
0.0
  0
ENDBLK
  5
1B0
100
AcDbEntity
  8
0
100
AcDbBlockEnd
  0
BLOCK
  5
1B4
100
AcDbEntity
  8
0
100
AcDbBlockBegin
  2
*D5
 70
             1
 10
0.0
 20
0.0
 30
0.0
  3
*D5
  1

  0
LINE
  5
1B5
100
AcDbEntity
  8
0
  6
CONTINUOUS
 62
             4
100
AcDbLine
 10
476.76554016240624
 20
79.99230978545401
 11
476.76391575186335
 21
-120.0076902185956
  0
LINE
  5
1B6
100
AcDbEntity
  8
0
  6
CONTINUOUS
 62
             4
100
AcDbLine
 10
437.49569480727467
 20
-120.007371280035
 11
478.76391575179736
 21
-120.00770646270099
  0
LINE
  5
1B7
100
AcDbEntity
  8
0
  6
CONTINUOUS
 62
             4
100
AcDbLine
 10
437.49781780727471
 20
79.99262871996496
 11
478.76554016234024
 21
79.99229354134859
  0
SOLID
  5
1B8
100
AcDbEntity
  8
0
 62
             4
100
AcDbTrace
 10
478.74020579536165
 20
64.99229374662093
 11
474.79063086787005
 21
64.99232582527661
 12
476.76554016240624
 22
79.99230978545401
 13
476.76554016240624
 23
79.99230978545401
  0
SOLID
  5
1B9
100
AcDbEntity
  8
0
 62
             4
100
AcDbTrace
 10
474.78925011890789
 20
-105.00767417976252
 11
478.73882504639954
 21
-105.0077062584182
 12
476.76391575186335
 22
-120.0076902185956
 13
476.76391575186335
 23
-120.0076902185956
  0
MTEXT
  5
1BA
100
AcDbEntity
  8
0
 62
             1
100
AcDbMText
 10
474.76466690624085
 20
-27.52436489105038
 30
0.0
 40
15.0
 41
0.0
 71
             7
 72
             1
  1
\C1;DN\C1;200
  7
CONVERTER_1
 11
0.00000812205271
 21
0.99999999996702
 31
0.0
  0
ENDBLK
  5
1BB
100
AcDbEntity
  8
0
100
AcDbBlockEnd
  0
ENDSEC
  0
SECTION
  2
ENTITIES
  0
DIMENSION
  5
1BD
100
AcDbEntity
  8
1
100
AcDbDimension
  2
*D5
 10
476.76554016240624
 20
79.99230978545401
 11
467.26487889206408
 21
-1.42430397651591
 31
0.0
 53
89.9995346406585
  1
<>
  3
ME10_DIM_4
100
AcDbAlignedDimension
 13
437.49569480727467
 23
-120.007371280035
 14
437.49781780727471
 24
79.99262871996496
 50
89.9995346406585
100
AcDbRotatedDimension
  0
DIMENSION
  5
1B2
100
AcDbEntity
  8
1
100
AcDbDimension
  2
*D4
 10
377.02915508950502
 20
-20.00688018137281
 11
367.52958484675997
 21
32.90555260384398
 31
0.0
 70
           128
 53
89.9995346406585
  1
<>
  3
ME10_DIM_3
100
AcDbAlignedDimension
 13
101.472129006004
 23
0.0
 14
328.1703790198527
 24
-20.00648334781801
 50
89.9995346406585
100
AcDbRotatedDimension
  0
DIMENSION
  5
1A5
100
AcDbEntity
  8
1
100
AcDbDimension
  2
*D3
 10
506.46047747573959
 20
-136.00650635657553
 11
496.96223858866188
 21
80.8245457919099
 31
0.0
 53
89.9995346406585
  1
<>
  3
ME10_DIM_2
100
AcDbAlignedDimension
 13
173.68069900000009
 23
213.99740300000011
 14
320.99546900000001
 24
-136.005
 50
89.9995346406585
100
AcDbRotatedDimension
  0
DIMENSION
  5
19A
100
AcDbEntity
  8
1
100
AcDbDimension
  2
*D2
 10
0.0
 20
-162.511556053178
 11
254.21588421252
 21
-153.011556053178
 31
0.0
 53
0.00013888888889
  1
<>
  3
ME10_DIM_1
100
AcDbAlignedDimension
 13
444.99571580727462
 23
-117.997832280035
 14
-0.00000000000001
 24
-105.27500000000001
100
AcDbRotatedDimension
  0
DIMENSION
  5
18F
100
AcDbEntity
  8
1
100
AcDbDimension
  2
*D1
 10
-17.81522130917706
 20
99.9999999999997
 11
-27.31522130917706
 21
-7.340275615623
 31
0.0
 53
90.0
  1
<>
  3
ME10_DIM_0
100
AcDbAlignedDimension
 13
-7.81522130917706
 23
-100.0
 14
-7.81522130917706
 24
99.99999999999966
 50
90.0
100
AcDbRotatedDimension
  0
INSERT
  5
2F
100
AcDbEntity
  8
0
100
AcDbBlockReference
  2
TOP
 10
-148.38004489817999
 20
-44.6794416803617
  0
ENDSEC
  0
SECTION
  2
OBJECTS
  0
DICTIONARY
  5
19
100
AcDbDictionary
  3
ACAD_GROUP
350
1A
  3
ACAD_MLINESTYLE
350
1B
  0
DICTIONARY
  5
1A
102
{ACAD_REACTORS
330
19
102
}
100
AcDbDictionary
  0
DICTIONARY
  5
1B
102
{ACAD_REACTORS
330
19
102
}
100
AcDbDictionary
  3
STANDARD
350
1C
  0
MLINESTYLE
  5
1C
102
{ACAD_REACTORS
330
1B
102
}
100
AcDbMlineStyle
  2
STANDARD
 70
             0
  3

 62
             0
 51
90.0
 52
90.0
 71
             2
 49
0.5
 62
           256
  6
BYLAYER
 49
-0.5
 62
           256
  6
BYLAYER
  0
ENDSEC
  0
EOF
