  0
SECTION
  2
HEADER
  9
$ACADVER
  1
AC1015
  9
$ACADMAINTVER
 70
     6
  9
$DWGCODEPAGE
  3
ANSI_1252
  9
$INSBASE
 10
0.0
 20
0.0
 30
0.0
  9
$EXTMIN
 10
-106.5001622785907
 20
-422.6544685666751
 30
0.0
  9
$EXTMAX
 10
174.5990169162413
 20
32.35582633075129
 30
0.0
  9
$LIMMIN
 10
0.0
 20
0.0
  9
$LIMMAX
 10
12.0
 20
9.0
  9
$ORTHOMODE
 70
     0
  9
$REGENMODE
 70
     1
  9
$FILLMODE
 70
     1
  9
$QTEXTMODE
 70
     0
  9
$MIRRTEXT
 70
     1
  9
$LTSCALE
 40
1.0
  9
$ATTMODE
 70
     1
  9
$TEXTSIZE
 40
0.2
  9
$TRACEWID
 40
0.05
  9
$TEXTSTYLE
  7
Standard
  9
$CLAYER
  8
0
  9
$CELTYPE
  6
ByLayer
  9
$CECOLOR
 62
   256
  9
$CELTSCALE
 40
1.0
  9
$DISPSILH
 70
     0
  9
$DIMSCALE
 40
1.0
  9
$DIMASZ
 40
0.18
  9
$DIMEXO
 40
0.0625
  9
$DIMDLI
 40
0.38
  9
$DIMRND
 40
0.0
  9
$DIMDLE
 40
0.0
  9
$DIMEXE
 40
0.18
  9
$DIMTP
 40
0.0
  9
$DIMTM
 40
0.0
  9
$DIMTXT
 40
0.18
  9
$DIMCEN
 40
0.09
  9
$DIMTSZ
 40
0.0
  9
$DIMTOL
 70
     0
  9
$DIMLIM
 70
     0
  9
$DIMTIH
 70
     1
  9
$DIMTOH
 70
     1
  9
$DIMSE1
 70
     0
  9
$DIMSE2
 70
     0
  9
$DIMTAD
 70
     0
  9
$DIMZIN
 70
     0
  9
$DIMBLK
  1

  9
$DIMASO
 70
     1
  9
$DIMSHO
 70
     1
  9
$DIMPOST
  1

  9
$DIMAPOST
  1

  9
$DIMALT
 70
     0
  9
$DIMALTD
 70
     2
  9
$DIMALTF
 40
25.4
  9
$DIMLFAC
 40
1.0
  9
$DIMTOFL
 70
     0
  9
$DIMTVP
 40
0.0
  9
$DIMTIX
 70
     0
  9
$DIMSOXD
 70
     0
  9
$DIMSAH
 70
     0
  9
$DIMBLK1
  1

  9
$DIMBLK2
  1

  9
$DIMSTYLE
  2
Standard
  9
$DIMCLRD
 70
     0
  9
$DIMCLRE
 70
     0
  9
$DIMCLRT
 70
     0
  9
$DIMTFAC
 40
1.0
  9
$DIMGAP
 40
0.09
  9
$DIMJUST
 70
     0
  9
$DIMSD1
 70
     0
  9
$DIMSD2
 70
     0
  9
$DIMTOLJ
 70
     1
  9
$DIMTZIN
 70
     0
  9
$DIMALTZ
 70
     0
  9
$DIMALTTZ
 70
     0
  9
$DIMUPT
 70
     0
  9
$DIMDEC
 70
     4
  9
$DIMTDEC
 70
     4
  9
$DIMALTU
 70
     2
  9
$DIMALTTD
 70
     2
  9
$DIMTXSTY
  7
Standard
  9
$DIMAUNIT
 70
     0
  9
$DIMADEC
 70
     0
  9
$DIMALTRND
 40
0.0
  9
$DIMAZIN
 70
     0
  9
$DIMDSEP
 70
    46
  9
$DIMATFIT
 70
     3
  9
$DIMFRAC
 70
     0
  9
$DIMLDRBLK
  1

  9
$DIMLUNIT
 70
     2
  9
$DIMLWD
 70
    -2
  9
$DIMLWE
 70
    -2
  9
$DIMTMOVE
 70
     0
  9
$LUNITS
 70
     2
  9
$LUPREC
 70
     4
  9
$SKETCHINC
 40
0.1
  9
$FILLETRAD
 40
0.5
  9
$AUNITS
 70
     0
  9
$AUPREC
 70
     0
  9
$MENU
  1
.
  9
$ELEVATION
 40
0.0
  9
$PELEVATION
 40
0.0
  9
$THICKNESS
 40
0.0
  9
$LIMCHECK
 70
     0
  9
$CHAMFERA
 40
0.5
  9
$CHAMFERB
 40
0.5
  9
$CHAMFERC
 40
1.0
  9
$CHAMFERD
 40
0.0
  9
$SKPOLY
 70
     0
  9
$TDCREATE
 40
2454704.486207801
  9
$TDUCREATE
 40
2454704.402874467
  9
$TDUPDATE
 40
2454704.486207813
  9
$TDUUPDATE
 40
2454704.402874479
  9
$TDINDWG
 40
0.0000000116
  9
$TDUSRTIMER
 40
0.0000000116
  9
$USRTIMER
 70
     1
  9
$ANGBASE
 50
0.0
  9
$ANGDIR
 70
     0
  9
$PDMODE
 70
     0
  9
$PDSIZE
 40
0.0
  9
$PLINEWID
 40
0.0
  9
$SPLFRAME
 70
     0
  9
$SPLINETYPE
 70
     6
  9
$SPLINESEGS
 70
     8
  9
$HANDSEED
  5
1A8
  9
$SURFTAB1
 70
     6
  9
$SURFTAB2
 70
     6
  9
$SURFTYPE
 70
     6
  9
$SURFU
 70
     6
  9
$SURFV
 70
     6
  9
$UCSBASE
  2

  9
$UCSNAME
  2

  9
$UCSORG
 10
0.0
 20
0.0
 30
0.0
  9
$UCSXDIR
 10
1.0
 20
0.0
 30
0.0
  9
$UCSYDIR
 10
0.0
 20
1.0
 30
0.0
  9
$UCSORTHOREF
  2

  9
$UCSORTHOVIEW
 70
     0
  9
$UCSORGTOP
 10
0.0
 20
0.0
 30
0.0
  9
$UCSORGBOTTOM
 10
0.0
 20
0.0
 30
0.0
  9
$UCSORGLEFT
 10
0.0
 20
0.0
 30
0.0
  9
$UCSORGRIGHT
 10
0.0
 20
0.0
 30
0.0
  9
$UCSORGFRONT
 10
0.0
 20
0.0
 30
0.0
  9
$UCSORGBACK
 10
0.0
 20
0.0
 30
0.0
  9
$PUCSBASE
  2

  9
$PUCSNAME
  2

  9
$PUCSORG
 10
0.0
 20
0.0
 30
0.0
  9
$PUCSXDIR
 10
1.0
 20
0.0
 30
0.0
  9
$PUCSYDIR
 10
0.0
 20
1.0
 30
0.0
  9
$PUCSORTHOREF
  2

  9
$PUCSORTHOVIEW
 70
     0
  9
$PUCSORGTOP
 10
0.0
 20
0.0
 30
0.0
  9
$PUCSORGBOTTOM
 10
0.0
 20
0.0
 30
0.0
  9
$PUCSORGLEFT
 10
0.0
 20
0.0
 30
0.0
  9
$PUCSORGRIGHT
 10
0.0
 20
0.0
 30
0.0
  9
$PUCSORGFRONT
 10
0.0
 20
0.0
 30
0.0
  9
$PUCSORGBACK
 10
0.0
 20
0.0
 30
0.0
  9
$USERI1
 70
     0
  9
$USERI2
 70
     0
  9
$USERI3
 70
     0
  9
$USERI4
 70
     0
  9
$USERI5
 70
     0
  9
$USERR1
 40
15.5
  9
$USERR2
 40
0.0
  9
$USERR3
 40
0.0
  9
$USERR4
 40
0.0
  9
$USERR5
 40
0.0
  9
$WORLDVIEW
 70
     1
  9
$SHADEDGE
 70
     3
  9
$SHADEDIF
 70
    70
  9
$TILEMODE
 70
     1
  9
$MAXACTVP
 70
    64
  9
$PINSBASE
 10
0.0
 20
0.0
 30
0.0
  9
$PLIMCHECK
 70
     0
  9
$PEXTMIN
 10
1.00000000000000E+20
 20
1.00000000000000E+20
 30
1.00000000000000E+20
  9
$PEXTMAX
 10
-1.00000000000000E+20
 20
-1.00000000000000E+20
 30
-1.00000000000000E+20
  9
$PLIMMIN
 10
0.0
 20
0.0
  9
$PLIMMAX
 10
12.0
 20
9.0
  9
$UNITMODE
 70
     0
  9
$VISRETAIN
 70
     1
  9
$PLINEGEN
 70
     0
  9
$PSLTSCALE
 70
     1
  9
$TREEDEPTH
 70
  3020
  9
$CMLSTYLE
  2
Standard
  9
$CMLJUST
 70
     0
  9
$CMLSCALE
 40
1.0
  9
$PROXYGRAPHICS
 70
     1
  9
$MEASUREMENT
 70
     1
  9
$CELWEIGHT
370
    -1
  9
$ENDCAPS
280
     0
  9
$JOINSTYLE
280
     0
  9
$LWDISPLAY
290
     0
  9
$INSUNITS
 70
     1
  9
$HYPERLINKBASE
  1

  9
$STYLESHEET
  1

  9
$XEDIT
290
     1
  9
$CEPSNTYPE
380
     0
  9
$PSTYLEMODE
290
     1
  9
$FINGERPRINTGUID
  2
{36E00237-4B20-422A-85FB-6E108CD31CDF}
  9
$VERSIONGUID
  2
{FAEB1C32-E019-11D5-929B-00C0DF256EC4}
  9
$EXTNAMES
290
     1
  9
$PSVPSCALE
 40
0.0
  9
$OLESTARTUP
290
     0
  0
ENDSEC
  0
SECTION
  2
CLASSES
  0
CLASS
  1
ACDBDICTIONARYWDFLT
  2
AcDbDictionaryWithDefault
  3
ObjectDBX Classes
 90
        0
280
     0
281
     0
  0
CLASS
  1
VISUALSTYLE
  2
AcDbVisualStyle
  3
ObjectDBX Classes
 90
     4095
280
     0
281
     0
  0
CLASS
  1
ACDBPLACEHOLDER
  2
AcDbPlaceHolder
  3
ObjectDBX Classes
 90
        0
280
     0
281
     0
  0
CLASS
  1
LAYOUT
  2
AcDbLayout
  3
ObjectDBX Classes
 90
        0
280
     0
281
     0
  0
ENDSEC
  0
SECTION
  2
TABLES
  0
TABLE
  2
VPORT
  5
8
330
0
100
AcDbSymbolTable
 70
     1
  0
VPORT
  5
29
330
8
100
AcDbSymbolTableRecord
100
AcDbViewportTableRecord
  2
*Active
 70
     0
 10
0.0
 20
0.0
 11
1.0
 21
1.0
 12
34.04942731882531
 22
-195.1493211179619
 13
0.0
 23
0.0
 14
0.5
 24
0.5
 15
0.5
 25
0.5
 16
0.0
 26
0.0
 36
1.0
 17
0.0
 27
0.0
 37
0.0
 40
500.5113243871691
 41
1.60267857142857
 42
50.0
 43
0.0
 44
0.0
 50
0.0
 51
0.0
 71
     0
 72
   100
 73
     1
 74
     3
 75
     0
 76
     0
 77
     0
 78
     0
281
     0
 65
     1
110
0.0
120
0.0
130
0.0
111
1.0
121
0.0
131
0.0
112
0.0
122
1.0
132
0.0
 79
     0
146
0.0
  0
ENDTAB
  0
TABLE
  2
LTYPE
  5
5
330
0
100
AcDbSymbolTable
 70
     8
  0
LTYPE
  5
14
330
5
100
AcDbSymbolTableRecord
100
AcDbLinetypeTableRecord
  2
ByBlock
 70
     0
  3

 72
    65
 73
     0
 40
0.0
  0
LTYPE
  5
15
330
5
100
AcDbSymbolTableRecord
100
AcDbLinetypeTableRecord
  2
ByLayer
 70
     0
  3

 72
    65
 73
     0
 40
0.0
  0
LTYPE
  5
16
330
5
100
AcDbSymbolTableRecord
100
AcDbLinetypeTableRecord
  2
Continuous
 70
     0
  3
Solid line
 72
    65
 73
     0
 40
0.0
  0
LTYPE
  5
3B
330
5
100
AcDbSymbolTableRecord
100
AcDbLinetypeTableRecord
  2
DASHED
 70
     0
  3
Dashed
 72
    65
 73
     2
 40
15.0
 49
7.0
 74
     0
 49
-8.0
 74
     0
  0
LTYPE
  5
3C
330
5
100
AcDbSymbolTableRecord
100
AcDbLinetypeTableRecord
  2
DOTTED
 70
     0
  3
Dotted
 72
    65
 73
     2
 40
1.0
 49
0.0
 74
     0
 49
-1.0
 74
     0
  0
LTYPE
  5
3D
330
5
100
AcDbSymbolTableRecord
100
AcDbLinetypeTableRecord
  2
DOT_CENTER
 70
     0
  3
Dot_Center
 72
    65
 73
     4
 40
14.0
 49
12.0
 74
     0
 49
-1.0
 74
     0
 49
0.0
 74
     0
 49
-1.0
 74
     0
  0
LTYPE
  5
3E
330
5
100
AcDbSymbolTableRecord
100
AcDbLinetypeTableRecord
  2
LONG_DASHED
 70
     0
  3
Long_Dashed
 72
    65
 73
     2
 40
15.0
 49
10.0
 74
     0
 49
-5.0
 74
     0
  0
LTYPE
  5
3F
330
5
100
AcDbSymbolTableRecord
100
AcDbLinetypeTableRecord
  2
DASH_CENTER
 70
     0
  3
Dash_Center
 72
    65
 73
     4
 40
14.0
 49
11.0
 74
     0
 49
-1.0
 74
     0
 49
1.0
 74
     0
 49
-1.0
 74
     0
  0
LTYPE
  5
40
330
5
100
AcDbSymbolTableRecord
100
AcDbLinetypeTableRecord
  2
PHANTOM
 70
     0
  3
Phantom
 72
    65
 73
     6
 40
13.0
 49
10.0
 74
     0
 49
-1.0
 74
     0
 49
0.0
 74
     0
 49
-1.0
 74
     0
 49
0.0
 74
     0
 49
-1.0
 74
     0
  0
LTYPE
  5
41
330
5
100
AcDbSymbolTableRecord
100
AcDbLinetypeTableRecord
  2
CENTER_DASH_DASH
 70
     0
  3
Center_Dash_Dash
 72
    65
 73
     6
 40
14.0
 49
9.0
 74
     0
 49
-1.0
 74
     0
 49
1.0
 74
     0
 49
-1.0
 74
     0
 49
1.0
 74
     0
 49
-1.0
 74
     0
  0
ENDTAB
  0
TABLE
  2
LAYER
  5
2
330
0
100
AcDbSymbolTable
 70
     7
  0
LAYER
  5
10
330
2
100
AcDbSymbolTableRecord
100
AcDbLayerTableRecord
  2
0
 70
     0
 62
     7
  6
Continuous
370
    -3
390
F
  0
LAYER
  5
42
330
2
100
AcDbSymbolTableRecord
100
AcDbLayerTableRecord
  2
1
 70
     0
 62
     7
  6
Continuous
370
    -3
390
F
  0
LAYER
  5
43
330
2
100
AcDbSymbolTableRecord
100
AcDbLayerTableRecord
  2
LC-001-020-----0
 70
     0
 62
     7
  6
Continuous
370
    -3
390
F
  0
LAYER
  5
44
330
2
100
AcDbSymbolTableRecord
100
AcDbLayerTableRecord
  2
LC-003-002-----0
 70
     0
 62
     7
  6
Continuous
370
    -3
390
F
  0
LAYER
  5
45
330
2
100
AcDbSymbolTableRecord
100
AcDbLayerTableRecord
  2
LC-004-002-----0
 70
     0
 62
     7
  6
Continuous
370
    -3
390
F
  0
LAYER
  5
46
330
2
100
AcDbSymbolTableRecord
100
AcDbLayerTableRecord
  2
LC-005-002-RND-0
 70
     0
 62
     7
  6
Continuous
370
    -3
390
F
  0
LAYER
  5
47
330
2
100
AcDbSymbolTableRecord
100
AcDbLayerTableRecord
  2
LC-009-002-RND-0
 70
     0
 62
     7
  6
Continuous
370
    -3
390
F
  0
ENDTAB
  0
TABLE
  2
STYLE
  5
3
330
0
100
AcDbSymbolTable
 70
     3
  0
STYLE
  5
11
330
3
100
AcDbSymbolTableRecord
100
AcDbTextStyleTableRecord
  2
Standard
 70
     0
 40
0.0
 41
1.0
 50
0.0
 71
     0
 42
0.2
  3
txt
  4

  0
STYLE
  5
9C
330
3
100
AcDbSymbolTableRecord
100
AcDbTextStyleTableRecord
  2
CONVERTER_11
 70
     0
 40
0.0
 41
0.95
 50
0.0
 71
     0
 42
0.2
  3
complex.shx
  4

  0
STYLE
  5
180
330
3
100
AcDbSymbolTableRecord
100
AcDbTextStyleTableRecord
  2
CONVERTER_12
 70
     0
 40
0.0
 41
0.9
 50
0.0
 71
     0
 42
0.2
  3
txt.shx
  4

  0
ENDTAB
  0
TABLE
  2
VIEW
  5
6
330
0
100
AcDbSymbolTable
 70
     0
  0
ENDTAB
  0
TABLE
  2
UCS
  5
7
330
0
100
AcDbSymbolTable
 70
     0
  0
ENDTAB
  0
TABLE
  2
APPID
  5
9
330
0
100
AcDbSymbolTable
 70
     1
  0
APPID
  5
12
330
9
100
AcDbSymbolTableRecord
100
AcDbRegAppTableRecord
  2
ACAD
 70
     0
  0
ENDTAB
  0
TABLE
  2
DIMSTYLE
  5
A
330
0
100
AcDbSymbolTable
 70
     5
100
AcDbDimStyleTable
  0
DIMSTYLE
105
27
330
A
100
AcDbSymbolTableRecord
100
AcDbDimStyleTableRecord
  2
Standard
 70
     0
340
11
  0
DIMSTYLE
105
184
102
{ACAD_REACTORS
330
185
102
}
330
A
100
AcDbSymbolTableRecord
100
AcDbDimStyleTableRecord
  2
ME10_DIM_10
 70
     0
 41
12.0
 42
0.0
 44
2.0
 73
     0
 74
     0
 77
     1
 78
     8
140
12.0
147
2.0
172
     1
173
     1
176
     4
177
     4
178
     1
340
180
  0
DIMSTYLE
105
18F
102
{ACAD_REACTORS
330
190
102
}
330
A
100
AcDbSymbolTableRecord
100
AcDbDimStyleTableRecord
  2
ME10_DIM_11
 70
     0
  3
DN<>
 41
12.0
 42
0.0
 44
2.0
 73
     0
 74
     0
 77
     1
 78
     8
140
12.0
147
2.0
172
     1
173
     1
176
     4
177
     4
178
     1
271
     2
340
180
  0
DIMSTYLE
105
19A
102
{ACAD_REACTORS
330
19B
102
}
330
A
100
AcDbSymbolTableRecord
100
AcDbDimStyleTableRecord
  2
ME10_DIM_12
 70
     0
  3
45-<>
 41
12.0
 42
0.0
 44
2.0
 73
     0
 74
     0
 77
     1
 78
     8
140
12.0
147
2.0
172
     1
173
     1
176
     4
177
     4
178
     1
271
     2
340
180
  0
DIMSTYLE
105
1A5
102
{ACAD_REACTORS
330
1A6
102
}
330
A
100
AcDbSymbolTableRecord
100
AcDbDimStyleTableRecord
  2
ME10_DIM_13
 70
     0
  3
150x<>
 41
12.0
 42
0.0
 44
2.0
 73
     0
 74
     0
 77
     1
 78
     8
140
12.0
147
2.0
172
     1
173
     1
176
     4
177
     4
178
     1
271
     2
340
180
  0
ENDTAB
  0
TABLE
  2
BLOCK_RECORD
  5
1
330
0
100
AcDbSymbolTable
 70
    11
  0
BLOCK_RECORD
  5
1F
330
1
100
AcDbSymbolTableRecord
100
AcDbBlockTableRecord
  2
*Model_Space
340
22
  0
BLOCK_RECORD
  5
1B
330
1
100
AcDbSymbolTableRecord
100
AcDbBlockTableRecord
  2
*Paper_Space
340
1E
  0
BLOCK_RECORD
  5
23
330
1
100
AcDbSymbolTableRecord
100
AcDbBlockTableRecord
  2
*Paper_Space0
340
26
  0
BLOCK_RECORD
  5
48
330
1
100
AcDbSymbolTableRecord
100
AcDbBlockTableRecord
  2
HL0317_1E-Einlaufrost
340
0
102
{BLKREFS
331
52
102
}
  0
BLOCK_RECORD
  5
4B
330
1
100
AcDbSymbolTableRecord
100
AcDbBlockTableRecord
  2
062B_2E_Aufsatzrahmen__1
340
0
102
{BLKREFS
331
53
102
}
  0
BLOCK_RECORD
  5
4E
330
1
100
AcDbSymbolTableRecord
100
AcDbBlockTableRecord
  2
HL72K_1
340
0
102
{BLKREFS
331
54
102
}
  0
BLOCK_RECORD
  5
51
330
1
100
AcDbSymbolTableRecord
100
AcDbBlockTableRecord
  2
HL72N-Draufsicht
340
0
102
{BLKREFS
331
5D
102
}
  0
BLOCK_RECORD
  5
57
330
1
100
AcDbSymbolTableRecord
100
AcDbBlockTableRecord
  2
HL72K_1_Ablaufkörper_DN110
340
0
102
{BLKREFS
331
5E
102
}
  0
BLOCK_RECORD
  5
5A
330
1
100
AcDbSymbolTableRecord
100
AcDbBlockTableRecord
  2
062B_2E_Aufsatzrahmen__2
340
0
102
{BLKREFS
331
5F
102
}
  0
BLOCK_RECORD
  5
17A
330
1
100
AcDbSymbolTableRecord
100
AcDbBlockTableRecord
  2
*D7
340
0
  0
BLOCK_RECORD
  5
186
330
1
100
AcDbSymbolTableRecord
100
AcDbBlockTableRecord
  2
*D8
340
0
  0
BLOCK_RECORD
  5
191
330
1
100
AcDbSymbolTableRecord
100
AcDbBlockTableRecord
  2
*D9
340
0
  0
BLOCK_RECORD
  5
19C
330
1
100
AcDbSymbolTableRecord
100
AcDbBlockTableRecord
  2
*D10
340
0
  0
ENDTAB
  0
ENDSEC
  0
SECTION
  2
BLOCKS
  0
BLOCK
  5
20
330
1F
100
AcDbEntity
  8
0
100
AcDbBlockBegin
  2
*Model_Space
 70
     0
 71
     0
 10
0.0
 20
0.0
 30
0.0
  3
*Model_Space
  1

  0
ENDBLK
  5
21
330
1F
100
AcDbEntity
  8
0
100
AcDbBlockEnd
  0
BLOCK
  5
1C
330
1B
100
AcDbEntity
 67
     1
  8
0
100
AcDbBlockBegin
  2
*Paper_Space
 70
     0
 71
     0
 10
0.0
 20
0.0
 30
0.0
  3
*Paper_Space
  1

  0
ENDBLK
  5
1D
330
1B
100
AcDbEntity
 67
     1
  8
0
100
AcDbBlockEnd
  0
BLOCK
  5
24
330
23
100
AcDbEntity
  8
0
100
AcDbBlockBegin
  2
*Paper_Space0
 70
     0
 71
     0
 10
0.0
 20
0.0
 30
0.0
  3
*Paper_Space0
  1

  0
ENDBLK
  5
25
330
23
100
AcDbEntity
  8
0
100
AcDbBlockEnd
  0
BLOCK
  5
49
330
48
100
AcDbEntity
  8
0
100
AcDbBlockBegin
  2
HL0317_1E-Einlaufrost
 70
     0
 71
     0
 10
-793.6566688071698
 20
-227.3532786609722
 30
0.0
  3
HL0317_1E-Einlaufrost
  1

  0
POINT
  5
60
330
48
100
AcDbEntity
  8
0
 62
     7
100
AcDbPoint
 10
68.99992933649642
 20
-265.899881548952
 30
0.0
  0
POINT
  5
61
330
48
100
AcDbEntity
  8
0
 62
     7
100
AcDbPoint
 10
-69.00007066350358
 20
-265.8990955489515
 30
0.0
  0
LINE
  5
62
330
48
100
AcDbEntity
  8
LC-004-002-----0
  6
Continuous
 62
     7
100
AcDbLine
 10
59.49939433662453
 20
-372.3996993761737
 30
0.0
 11
59.49987633649668
 21
-291.3999655489514
 31
0.0
  0
LINE
  5
63
330
48
100
AcDbEntity
  8
LC-004-002-----0
  6
Continuous
 62
     7
100
AcDbLine
 10
27.49991933649668
 20
-340.3996315489511
 30
0.0
 11
27.49991933649668
 21
-323.3996315489511
 31
0.0
  0
LINE
  5
64
330
48
100
AcDbEntity
  8
LC-004-002-----0
  6
Continuous
 62
     7
100
AcDbLine
 10
20.49991933649668
 20
-323.3996315489511
 30
0.0
 11
20.49991933649668
 21
-340.3996315489511
 31
0.0
  0
LINE
  5
65
330
48
100
AcDbEntity
  8
LC-004-002-----0
  6
Continuous
 62
     7
100
AcDbLine
 10
43.49989733649651
 20
-356.3995195489532
 30
0.0
 11
43.49989733649651
 21
-307.3999335489515
 31
0.0
  0
LINE
  5
66
330
48
100
AcDbEntity
  8
LC-004-002-----0
  6
Continuous
 62
     7
100
AcDbLine
 10
36.49989733649651
 20
-307.3999335489515
 30
0.0
 11
36.49989733649651
 21
-356.3995195489532
 31
0.0
  0
LINE
  5
67
330
48
100
AcDbEntity
  8
LC-004-002-----0
  6
Continuous
 62
     7
100
AcDbLine
 10
52.49987633649668
 20
-291.3999655489514
 30
0.0
 11
52.49939433636988
 21
-372.3996577217057
 31
0.0
  0
LINE
  5
68
330
48
100
AcDbEntity
  8
LC-004-002-----0
  6
Continuous
 62
     7
100
AcDbLine
 10
-59.49940901912836
 20
-372.3996993761737
 30
0.0
 11
-59.49989101900413
 21
-291.3999655489514
 31
0.0
  0
LINE
  5
69
330
48
100
AcDbEntity
  8
LC-004-002-----0
  6
Continuous
 62
     7
100
AcDbLine
 10
-36.49991201900397
 20
-356.3995195489532
 30
0.0
 11
-36.49991201900397
 21
-307.3999335489515
 31
0.0
  0
LINE
  5
6A
330
48
100
AcDbEntity
  8
LC-004-002-----0
  6
Continuous
 62
     7
100
AcDbLine
 10
-43.49991201900397
 20
-307.3999335489515
 30
0.0
 11
-43.49991201900397
 21
-356.3995195489532
 31
0.0
  0
LINE
  5
6B
330
48
100
AcDbEntity
  8
LC-004-002-----0
  6
Continuous
 62
     7
100
AcDbLine
 10
-20.49993401900414
 20
-340.3996315489511
 30
0.0
 11
-20.49993401900414
 21
-323.3996315489511
 31
0.0
  0
LINE
  5
6C
330
48
100
AcDbEntity
  8
LC-004-002-----0
  6
Continuous
 62
     7
100
AcDbLine
 10
-27.49993401900414
 20
-323.3996315489511
 30
0.0
 11
-27.49993401900414
 21
-340.3996315489511
 31
0.0
  0
LINE
  5
6D
330
48
100
AcDbEntity
  8
LC-004-002-----0
  6
Continuous
 62
     7
100
AcDbLine
 10
-52.49989101900413
 20
-291.3999655489514
 30
0.0
 11
-52.49940901887734
 21
-372.3996577217057
 31
0.0
  0
LINE
  5
6E
330
48
100
AcDbEntity
  8
LC-004-002-----0
  6
Continuous
 62
     7
100
AcDbLine
 10
40.49945233649866
 20
-272.399668193453
 30
0.0
 11
-40.50028149072736
 21
-272.4001501933252
 31
0.0
  0
LINE
  5
6F
330
48
100
AcDbEntity
  8
LC-004-002-----0
  6
Continuous
 62
     7
100
AcDbLine
 10
40.49945233649866
 20
-279.399668193453
 30
0.0
 11
-40.50023983625928
 21
-279.4001501935798
 31
0.0
  0
LINE
  5
70
330
48
100
AcDbEntity
  8
LC-004-002-----0
  6
Continuous
 62
     7
100
AcDbLine
 10
8.49978633649895
 20
-304.399625193453
 30
0.0
 11
-8.50021366350105
 21
-304.399625193453
 31
0.0
  0
LINE
  5
71
330
48
100
AcDbEntity
  8
LC-004-002-----0
  6
Continuous
 62
     7
100
AcDbLine
 10
-8.50021366350105
 20
-311.399625193453
 30
0.0
 11
8.49978633649895
 21
-311.399625193453
 31
0.0
  0
LINE
  5
72
330
48
100
AcDbEntity
  8
LC-004-002-----0
  6
Continuous
 62
     7
100
AcDbLine
 10
24.49948433649858
 20
-288.3996471934532
 30
0.0
 11
-24.50010166350316
 21
-288.3996471934532
 31
0.0
  0
LINE
  5
73
330
48
100
AcDbEntity
  8
LC-004-002-----0
  6
Continuous
 62
     7
100
AcDbLine
 10
-24.50010166350316
 20
-295.3996471934532
 30
0.0
 11
24.49948433649858
 21
-295.3996471934532
 31
0.0
  0
LINE
  5
74
330
48
100
AcDbEntity
  8
LC-004-002-----0
  6
Continuous
 62
     7
100
AcDbLine
 10
65.99991147285996
 20
-400.899881548952
 30
0.0
 11
-66.00008852714004
 21
-400.8990955489515
 31
0.0
  0
LINE
  5
75
330
48
100
AcDbEntity
  8
LC-004-002-----0
  6
Continuous
 62
     7
100
AcDbLine
 10
65.99994720013288
 20
-262.899881548952
 30
0.0
 11
-66.00005279986712
 21
-262.8990955489515
 31
0.0
  0
LINE
  5
76
330
48
100
AcDbEntity
  8
LC-004-002-----0
  6
Continuous
 62
     7
100
AcDbLine
 10
-69.00007066350358
 20
-265.8990955489515
 30
0.0
 11
-69.00007066350358
 21
-397.8990955489515
 31
0.0
  0
LINE
  5
77
330
48
100
AcDbEntity
  8
LC-004-002-----0
  6
Continuous
 62
     7
100
AcDbLine
 10
68.99992933649642
 20
-265.899881548952
 30
0.0
 11
68.99992933649642
 21
-397.899881548952
 31
0.0
  0
LINE
  5
78
330
48
100
AcDbEntity
  8
LC-004-002-----0
  6
Continuous
 62
     7
100
AcDbLine
 10
40.49945233649866
 20
-391.3994355489502
 30
0.0
 11
-40.50028149072736
 21
-391.3989535490781
 31
0.0
  0
LINE
  5
79
330
48
100
AcDbEntity
  8
LC-004-002-----0
  6
Continuous
 62
     7
100
AcDbLine
 10
24.49948433649858
 20
-368.3994565489537
 30
0.0
 11
-24.50010166350316
 21
-368.3994565489537
 31
0.0
  0
LINE
  5
7A
330
48
100
AcDbEntity
  8
LC-004-002-----0
  6
Continuous
 62
     7
100
AcDbLine
 10
-24.50010166350316
 20
-375.3994565489537
 30
0.0
 11
24.49948433649858
 21
-375.3994565489537
 31
0.0
  0
LINE
  5
7B
330
48
100
AcDbEntity
  8
LC-004-002-----0
  6
Continuous
 62
     7
100
AcDbLine
 10
8.49978633649895
 20
-352.3994785489502
 30
0.0
 11
-8.50021366350105
 21
-352.3994785489502
 31
0.0
  0
LINE
  5
7C
330
48
100
AcDbEntity
  8
LC-004-002-----0
  6
Continuous
 62
     7
100
AcDbLine
 10
-8.50021366350105
 20
-359.3994785489502
 30
0.0
 11
8.49978633649895
 21
-359.3994785489502
 31
0.0
  0
LINE
  5
7D
330
48
100
AcDbEntity
  8
LC-004-002-----0
  6
Continuous
 62
     7
100
AcDbLine
 10
-40.50023983625928
 20
-384.3989535488271
 30
0.0
 11
40.49945233649866
 21
-384.3994355489502
 31
0.0
  0
LINE
  5
7E
330
48
100
AcDbEntity
  8
1
  6
PHANTOM
 62
     2
100
AcDbLine
 10
-0.00007066350357
 20
-265.8990955489515
 30
0.0
 11
-0.00007066350357
 21
-397.899881548952
 31
0.0
  0
LINE
  5
7F
330
48
100
AcDbEntity
  8
1
  6
PHANTOM
 62
     2
100
AcDbLine
 10
66.0003223364966
 20
-331.8998815512922
 30
0.0
 11
-66.00046366350378
 21
-331.8990955466114
 31
0.0
  0
ARC
  5
80
330
48
100
AcDbEntity
  8
LC-004-002-----0
  6
Continuous
 62
     7
100
AcDbCircle
 10
39.99989733649651
 20
-356.3995195489532
 30
0.0
 40
3.5
100
AcDbArc
 50
180.0
 51
0.0
  0
ARC
  5
81
330
48
100
AcDbEntity
  8
LC-004-002-----0
  6
Continuous
 62
     7
100
AcDbCircle
 10
23.99991933649668
 20
-340.3996315489511
 30
0.0
 40
3.5
100
AcDbArc
 50
180.0
 51
0.0
  0
ARC
  5
82
330
48
100
AcDbEntity
  8
LC-004-002-----0
  6
Continuous
 62
     7
100
AcDbCircle
 10
55.99939433649721
 20
-372.3996785489524
 30
0.0
 40
3.500000000189297
100
AcDbArc
 50
179.9996590533327
 51
-0.00034094625136
  0
ARC
  5
83
330
48
100
AcDbEntity
  8
LC-004-002-----0
  6
Continuous
 62
     7
100
AcDbCircle
 10
55.99987633649668
 20
-291.3999655489514
 30
0.0
 40
3.5
100
AcDbArc
 50
0.0
 51
180.0
  0
ARC
  5
84
330
48
100
AcDbEntity
  8
LC-004-002-----0
  6
Continuous
 62
     7
100
AcDbCircle
 10
39.99989733649651
 20
-307.3999335489515
 30
0.0
 40
3.5
100
AcDbArc
 50
0.0
 51
180.0
  0
ARC
  5
85
330
48
100
AcDbEntity
  8
LC-004-002-----0
  6
Continuous
 62
     7
100
AcDbCircle
 10
23.99991933649668
 20
-323.3996315489511
 30
0.0
 40
3.5
100
AcDbArc
 50
0.0
 51
180.0
  0
ARC
  5
86
330
48
100
AcDbEntity
  8
LC-004-002-----0
  6
Continuous
 62
     7
100
AcDbCircle
 10
-23.99993401900414
 20
-323.3996315489511
 30
0.0
 40
3.5
100
AcDbArc
 50
0.0
 51
180.0
  0
ARC
  5
87
330
48
100
AcDbEntity
  8
LC-004-002-----0
  6
Continuous
 62
     7
100
AcDbCircle
 10
-39.99991201900397
 20
-307.3999335489515
 30
0.0
 40
3.5
100
AcDbArc
 50
0.0
 51
180.0
  0
ARC
  5
88
330
48
100
AcDbEntity
  8
LC-004-002-----0
  6
Continuous
 62
     7
100
AcDbCircle
 10
-55.99989101900413
 20
-291.3999655489514
 30
0.0
 40
3.5
100
AcDbArc
 50
0.0
 51
180.0
  0
ARC
  5
89
330
48
100
AcDbEntity
  8
LC-004-002-----0
  6
Continuous
 62
     7
100
AcDbCircle
 10
-55.99940901900103
 20
-372.3996785489524
 30
0.0
 40
3.500000000189297
100
AcDbArc
 50
-179.9996590537486
 51
0.00034094666731
  0
ARC
  5
8A
330
48
100
AcDbEntity
  8
LC-004-002-----0
  6
Continuous
 62
     7
100
AcDbCircle
 10
-23.99993401900414
 20
-340.3996315489511
 30
0.0
 40
3.5
100
AcDbArc
 50
180.0
 51
0.0
  0
ARC
  5
8B
330
48
100
AcDbEntity
  8
LC-004-002-----0
  6
Continuous
 62
     7
100
AcDbCircle
 10
-39.99991201900397
 20
-356.3995195489532
 30
0.0
 40
3.5
100
AcDbArc
 50
180.0
 51
0.0
  0
ARC
  5
8C
330
48
100
AcDbEntity
  8
LC-004-002-----0
  6
Continuous
 62
     7
100
AcDbCircle
 10
-24.50010166350316
 20
-291.8996471934532
 30
0.0
 40
3.5
100
AcDbArc
 50
90.0
 51
-90.0
  0
ARC
  5
8D
330
48
100
AcDbEntity
  8
LC-004-002-----0
  6
Continuous
 62
     7
100
AcDbCircle
 10
-8.50021366350105
 20
-307.899625193453
 30
0.0
 40
3.5
100
AcDbArc
 50
90.0
 51
-90.0
  0
ARC
  5
8E
330
48
100
AcDbEntity
  8
LC-004-002-----0
  6
Continuous
 62
     7
100
AcDbCircle
 10
-40.50026066350242
 20
-275.9001501934525
 30
0.0
 40
3.50000000018924
100
AcDbArc
 50
90.00034094631091
 51
-89.99965905339133
  0
ARC
  5
8F
330
48
100
AcDbEntity
  8
LC-004-002-----0
  6
Continuous
 62
     7
100
AcDbCircle
 10
40.49945233649866
 20
-275.899668193453
 30
0.0
 40
3.5
100
AcDbArc
 50
-90.0
 51
90.0
  0
ARC
  5
90
330
48
100
AcDbEntity
  8
LC-004-002-----0
  6
Continuous
 62
     7
100
AcDbCircle
 10
24.49948433649858
 20
-291.8996471934532
 30
0.0
 40
3.5
100
AcDbArc
 50
-90.0
 51
90.0
  0
ARC
  5
91
330
48
100
AcDbEntity
  8
LC-004-002-----0
  6
Continuous
 62
     7
100
AcDbCircle
 10
8.49978633649895
 20
-307.899625193453
 30
0.0
 40
3.5
100
AcDbArc
 50
-90.0
 51
90.0
  0
ARC
  5
92
330
48
100
AcDbEntity
  8
LC-005-002-RND-0
  6
Continuous
 62
     7
100
AcDbCircle
 10
-66.00007066350358
 20
-397.8990955489515
 30
0.0
 40
3.0
100
AcDbArc
 50
180.0
 51
-90.00034117032527
  0
ARC
  5
93
330
48
100
AcDbEntity
  8
LC-005-002-RND-0
  6
Continuous
 62
     7
100
AcDbCircle
 10
65.99992933649642
 20
-397.899881548952
 30
0.0
 40
3.000000000053185
100
AcDbArc
 50
-90.00034117032527
 51
0.0
  0
ARC
  5
94
330
48
100
AcDbEntity
  8
LC-005-002-RND-0
  6
Continuous
 62
     7
100
AcDbCircle
 10
65.99992933649642
 20
-265.899881548952
 30
0.0
 40
3.0
100
AcDbArc
 50
0.0
 51
89.99965882967474
  0
ARC
  5
95
330
48
100
AcDbEntity
  8
LC-005-002-RND-0
  6
Continuous
 62
     7
100
AcDbCircle
 10
-66.00007066350358
 20
-265.8990955489515
 30
0.0
 40
3.000000000053185
100
AcDbArc
 50
89.99965882967474
 51
180.0
  0
ARC
  5
96
330
48
100
AcDbEntity
  8
LC-004-002-----0
  6
Continuous
 62
     7
100
AcDbCircle
 10
8.49978633649895
 20
-355.8994785489502
 30
0.0
 40
3.5
100
AcDbArc
 50
-90.0
 51
90.0
  0
ARC
  5
97
330
48
100
AcDbEntity
  8
LC-004-002-----0
  6
Continuous
 62
     7
100
AcDbCircle
 10
24.49948433649858
 20
-371.8994565489537
 30
0.0
 40
3.5
100
AcDbArc
 50
-90.0
 51
90.0
  0
ARC
  5
98
330
48
100
AcDbEntity
  8
LC-004-002-----0
  6
Continuous
 62
     7
100
AcDbCircle
 10
40.49945233649866
 20
-387.8994355489502
 30
0.0
 40
3.5
100
AcDbArc
 50
-90.0
 51
90.0
  0
ARC
  5
99
330
48
100
AcDbEntity
  8
LC-004-002-----0
  6
Continuous
 62
     7
100
AcDbCircle
 10
-40.50026066350242
 20
-387.8989535489507
 30
0.0
 40
3.500000000185602
100
AcDbArc
 50
89.99965905339133
 51
-90.00034094631091
  0
ARC
  5
9A
330
48
100
AcDbEntity
  8
LC-004-002-----0
  6
Continuous
 62
     7
100
AcDbCircle
 10
-8.50021366350105
 20
-355.8994785489502
 30
0.0
 40
3.5
100
AcDbArc
 50
90.0
 51
-90.0
  0
ARC
  5
9B
330
48
100
AcDbEntity
  8
LC-004-002-----0
  6
Continuous
 62
     7
100
AcDbCircle
 10
-24.50010166350316
 20
-371.8994565489537
 30
0.0
 40
3.5
100
AcDbArc
 50
90.0
 51
-90.0
  0
TEXT
  5
9D
330
48
100
AcDbEntity
  8
1
 62
     7
100
AcDbText
 10
-7.00007066304519
 20
-335.89948854895
 30
0.0
 40
8.0
  1
HL
 41
0.95
  7
CONVERTER_11
100
AcDbText
  0
ENDBLK
  5
4A
330
48
100
AcDbEntity
  8
0
100
AcDbBlockEnd
  0
BLOCK
  5
4C
330
4B
100
AcDbEntity
  8
0
100
AcDbBlockBegin
  2
062B_2E_Aufsatzrahmen__1
 70
     0
 71
     0
 10
-73.50459795234295
 20
-405.4040158377912
 30
0.0
  3
062B_2E_Aufsatzrahmen__1
  1

  0
LINE
  5
9E
330
4B
100
AcDbEntity
  8
1
  6
Continuous
 62
     7
100
AcDbLine
 10
-70.00459795234295
 20
-261.8949612601124
 30
0.0
 11
70.00445662533579
 21
-261.8949612601124
 31
0.0
  0
LINE
  5
9F
330
4B
100
AcDbEntity
  8
1
  6
Continuous
 62
     7
100
AcDbLine
 10
73.50445662533579
 20
-258.3949612601124
 30
0.0
 11
-73.50459795234295
 21
-258.3949612601124
 31
0.0
  0
LINE
  5
A0
330
4B
100
AcDbEntity
  8
1
  6
Continuous
 62
     7
100
AcDbLine
 10
-70.00459795234295
 20
-401.9040158377912
 30
0.0
 11
-70.00459795234295
 21
-261.8949612601124
 31
0.0
  0
LINE
  5
A1
330
4B
100
AcDbEntity
  8
1
  6
Continuous
 62
     7
100
AcDbLine
 10
-73.50459795234295
 20
-258.3949612601124
 30
0.0
 11
-73.50459795234295
 21
-405.4040158377912
 31
0.0
  0
LINE
  5
A2
330
4B
100
AcDbEntity
  8
1
  6
Continuous
 62
     7
100
AcDbLine
 10
70.00445662533579
 20
-401.9040158377912
 30
0.0
 11
-70.00459795234295
 21
-401.9040158377912
 31
0.0
  0
LINE
  5
A3
330
4B
100
AcDbEntity
  8
1
  6
Continuous
 62
     7
100
AcDbLine
 10
-73.50459795234295
 20
-405.4040158377912
 30
0.0
 11
73.50445662533579
 21
-405.4040158377912
 31
0.0
  0
LINE
  5
A4
330
4B
100
AcDbEntity
  8
1
  6
Continuous
 62
     7
100
AcDbLine
 10
70.00445662533579
 20
-261.8949612601124
 30
0.0
 11
70.00445662533579
 21
-401.9040158377912
 31
0.0
  0
LINE
  5
A5
330
4B
100
AcDbEntity
  8
1
  6
Continuous
 62
     7
100
AcDbLine
 10
73.50445662533579
 20
-405.4040158377912
 30
0.0
 11
73.50445662533579
 21
-258.3949612601124
 31
0.0
  0
ENDBLK
  5
4D
330
4B
100
AcDbEntity
  8
0
100
AcDbBlockEnd
  0
BLOCK
  5
4F
330
4E
100
AcDbEntity
  8
0
100
AcDbBlockBegin
  2
HL72K_1
 70
     0
 71
     0
 10
-90.75505068122689
 20
-422.6544685666751
 30
0.0
  3
HL72K_1
  1

  0
LINE
  5
A6
330
4E
100
AcDbEntity
  8
1
  6
Continuous
 62
     7
100
AcDbLine
 10
146.1180050476571
 20
-276.8994885489518
 30
0.0
 11
146.1180050476571
 21
-386.8994885489518
 31
0.0
  0
LINE
  5
A7
330
4E
100
AcDbEntity
  8
1
  6
Continuous
 62
     7
100
AcDbLine
 10
146.1180050476571
 20
-386.8994885489518
 30
0.0
 11
150.6180050476571
 21
-385.6937171830117
 31
0.0
  0
LINE
  5
A8
330
4E
100
AcDbEntity
  8
1
  6
Continuous
 62
     7
100
AcDbLine
 10
146.1180050476571
 20
-276.8994885489518
 30
0.0
 11
150.6180050476571
 21
-278.1052599148918
 31
0.0
  0
LINE
  5
A9
330
4E
100
AcDbEntity
  8
1
  6
Continuous
 62
     7
100
AcDbLine
 10
150.6180050476571
 20
-278.1052599148918
 30
0.0
 11
150.6180050476571
 21
-385.6937171830117
 31
0.0
  0
LINE
  5
AA
330
4E
100
AcDbEntity
  8
1
  6
Continuous
 62
     7
100
AcDbLine
 10
146.1180050476571
 20
-386.8994885489518
 30
0.0
 11
73.50445662533579
 21
-386.8994885489518
 31
0.0
  0
LINE
  5
AB
330
4E
100
AcDbEntity
  8
1
  6
PHANTOM
 62
     2
100
AcDbLine
 10
165.590044262219
 20
-331.8994885489518
 30
0.0
 11
-90.75505068122689
 21
-331.8994885489518
 31
0.0
  0
LINE
  5
AC
330
4E
100
AcDbEntity
  8
1
  6
PHANTOM
 62
     2
100
AcDbLine
 10
-0.00007066350357
 20
-241.1445085312285
 30
0.0
 11
-0.00007066350357
 21
-422.6544685666751
 31
0.0
  0
LINE
  5
AD
330
4E
100
AcDbEntity
  8
1
  6
Continuous
 62
     7
100
AcDbLine
 10
73.50445662533579
 20
-276.8994885489518
 30
0.0
 11
146.1180050476571
 21
-276.8994885489518
 31
0.0
  0
ARC
  5
AE
330
4E
100
AcDbEntity
  8
1
  6
Continuous
 62
     7
100
AcDbCircle
 10
-0.00007066350357
 20
-331.8994885489518
 30
0.0
 40
82.50452728883938
100
AcDbArc
 50
152.9884612161696
 51
-152.9884612161696
  0
ARC
  5
AF
330
4E
100
AcDbEntity
  8
1
  6
Continuous
 62
     7
100
AcDbCircle
 10
-0.00007066350357
 20
-331.8994885489518
 30
0.0
 40
75.50452728883937
100
AcDbArc
 50
166.7831040419501
 51
-166.7831040419501
  0
ARC
  5
B0
330
4E
100
AcDbEntity
  8
1
  6
Continuous
 62
     7
100
AcDbCircle
 10
-0.00007066350357
 20
-331.8994885489518
 30
0.0
 40
75.50452728883937
100
AcDbArc
 50
-13.21689595804989
 51
13.21689595804989
  0
ARC
  5
B1
330
4E
100
AcDbEntity
  8
1
  6
Continuous
 62
     7
100
AcDbCircle
 10
-0.00007066350357
 20
-331.8994885489518
 30
0.0
 40
82.50452728883936
100
AcDbArc
 50
-27.01153878383035
 51
27.01153878383039
  0
ARC
  5
B2
330
4E
100
AcDbEntity
  8
1
  6
Continuous
 62
     7
100
AcDbCircle
 10
-0.00007066350357
 20
-331.8994885489518
 30
0.0
 40
75.50452728883937
100
AcDbArc
 50
-103.2168959580499
 51
-78.48697070140061
  0
ARC
  5
B3
330
4E
100
AcDbEntity
  8
1
  6
Continuous
 62
     7
100
AcDbCircle
 10
-0.00007066350357
 20
-331.8994885489518
 30
0.0
 40
82.50452728883937
100
AcDbArc
 50
-117.0115387838304
 51
-62.98846121616963
  0
ARC
  5
B4
330
4E
100
AcDbEntity
  8
1
  6
Continuous
 62
     7
100
AcDbCircle
 10
-0.00007066350357
 20
-331.8994885489518
 30
0.0
 40
75.50452728883943
100
AcDbArc
 50
76.78310404195012
 51
103.2168959580499
  0
ARC
  5
B5
330
4E
100
AcDbEntity
  8
1
  6
Continuous
 62
     7
100
AcDbCircle
 10
-0.00007066350357
 20
-331.8994885489518
 30
0.0
 40
82.50452728883943
100
AcDbArc
 50
62.98846121616964
 51
117.0115387838304
  0
ENDBLK
  5
50
330
4E
100
AcDbEntity
  8
0
100
AcDbBlockEnd
  0
BLOCK
  5
55
330
51
100
AcDbEntity
  8
0
100
AcDbBlockBegin
  2
HL72N-Draufsicht
 70
     0
 71
     0
 10
-90.75505068122689
 20
-422.6544685666751
 30
0.0
  3
HL72N-Draufsicht
  1

  0
INSERT
  5
52
330
51
100
AcDbEntity
  8
0
100
AcDbBlockReference
  2
HL0317_1E-Einlaufrost
 10
-793.6566688071698
 20
-227.3532786609722
 30
0.0
  0
INSERT
  5
53
330
51
100
AcDbEntity
  8
1
100
AcDbBlockReference
  2
062B_2E_Aufsatzrahmen__1
 10
-73.50459795234295
 20
-405.4040158377912
 30
0.0
  0
INSERT
  5
54
330
51
100
AcDbEntity
  8
1
100
AcDbBlockReference
  2
HL72K_1
 10
-90.75505068122689
 20
-422.6544685666751
 30
0.0
  0
ENDBLK
  5
56
330
51
100
AcDbEntity
  8
0
100
AcDbBlockEnd
  0
BLOCK
  5
58
330
57
100
AcDbEntity
  8
0
100
AcDbBlockBegin
  2
HL72K_1_Ablaufkörper_DN110
 70
     0
 71
     0
 10
-0.00014106354438
 20
0.00281700000011
 30
0.0
  3
HL72K_1_Ablaufkörper_DN110
  1

  0
POINT
  5
B6
330
57
100
AcDbEntity
  8
0
 62
     7
100
AcDbPoint
 10
82.50007793645551
 20
-94.99700000000007
 30
0.0
  0
POINT
  5
B7
330
57
100
AcDbEntity
  8
0
 62
     7
100
AcDbPoint
 10
-52.00025406354443
 20
-207.7972149999999
 30
0.0
  0
POINT
  5
B8
330
57
100
AcDbEntity
  8
0
 62
     7
100
AcDbPoint
 10
-82.5001410635445
 20
-97.7971829999999
 30
0.0
  0
POINT
  5
B9
330
57
100
AcDbEntity
  8
0
 62
     7
100
AcDbPoint
 10
140.4347789364556
 20
-212.483979
 30
0.0
  0
POINT
  5
BA
330
57
100
AcDbEntity
  8
0
 62
     7
100
AcDbPoint
 10
146.1917339364556
 20
-102.6347309999999
 30
0.0
  0
LINE
  5
BB
330
57
100
AcDbEntity
  8
LC-003-002-----0
  6
Continuous
 62
     7
100
AcDbLine
 10
150.6224619364556
 20
-104.074361
 30
0.0
 11
144.9917169364556
 21
-211.515372
 31
0.0
  0
LINE
  5
BC
330
57
100
AcDbEntity
  8
LC-003-002-----0
  6
Continuous
 62
     7
100
AcDbLine
 10
51.00857793645555
 20
-207.7973509999999
 30
0.0
 11
140.4347789364556
 21
-212.483979
 31
0.0
  0
LINE
  5
BD
330
57
100
AcDbEntity
  8
LC-003-002-----0
  6
Continuous
 62
     7
100
AcDbLine
 10
140.4347789364556
 20
-212.483979
 30
0.0
 11
144.9917169364556
 21
-211.515372
 31
0.0
  0
LINE
  5
BE
330
57
100
AcDbEntity
  8
LC-003-002-----0
  6
Continuous
 62
     7
100
AcDbLine
 10
146.1917339364556
 20
-102.6347309999999
 30
0.0
 11
150.6224619364556
 21
-104.074361
 31
0.0
  0
LINE
  5
BF
330
57
100
AcDbEntity
  8
LC-003-002-----0
  6
Continuous
 62
     7
100
AcDbLine
 10
72.00915493645556
 20
-98.74698599999988
 30
0.0
 11
146.1917339364556
 21
-102.6347309999999
 31
0.0
  0
LINE
  5
C0
330
57
100
AcDbEntity
  8
LC-001-020-----0
  6
Continuous
 62
     7
100
AcDbLine
 10
72.00916493645553
 20
-97.79699299999993
 30
0.0
 11
72.00915493645556
 21
-98.74698599999988
 31
0.0
  0
LINE
  5
C1
330
57
100
AcDbEntity
  8
LC-001-020-----0
  6
Continuous
 62
     7
100
AcDbLine
 10
-52.00025406354443
 20
-207.7972139999999
 30
0.0
 11
51.00857793645555
 21
-207.7973509999999
 31
0.0
  0
LINE
  5
C2
330
57
100
AcDbEntity
  8
LC-001-020-----0
  6
Continuous
 62
     7
100
AcDbLine
 10
-72.00011706354445
 20
-98.29634399999986
 30
0.0
 11
-72.0002350635445
 21
-187.7972149999999
 31
0.0
  0
LINE
  5
C3
330
57
100
AcDbEntity
  8
LC-003-002-----0
  6
Continuous
 62
     7
100
AcDbLine
 10
75.50009693645552
 20
-66.2971829999999
 30
0.0
 11
75.50007793645551
 21
-94.99699499999986
 31
0.0
  0
LINE
  5
C4
330
57
100
AcDbEntity
  8
LC-003-002-----0
  6
Continuous
 62
     7
100
AcDbLine
 10
82.50007793645551
 20
-94.99700000000007
 30
0.0
 11
82.50007693645551
 21
-97.79700000000003
 31
0.0
  0
LINE
  5
C5
330
57
100
AcDbEntity
  8
LC-003-002-----0
  6
Continuous
 62
     7
100
AcDbLine
 10
75.50007793645551
 20
-94.99699499999986
 30
0.0
 11
82.50007793645551
 21
-94.99700000000007
 31
0.0
  0
LINE
  5
C6
330
57
100
AcDbEntity
  8
LC-003-002-----0
  6
Continuous
 62
     7
100
AcDbLine
 10
82.50007693645551
 20
-97.79700000000003
 30
0.0
 11
72.00916493645553
 21
-97.79699299999993
 31
0.0
  0
LINE
  5
C7
330
57
100
AcDbEntity
  8
LC-003-002-----0
  6
Continuous
 62
     7
100
AcDbLine
 10
72.49985893645555
 20
-66.2971829999999
 30
0.0
 11
75.49985893645555
 21
-66.2971829999999
 31
0.0
  0
LINE
  5
C8
330
57
100
AcDbEntity
  8
LC-003-002-----0
  6
Continuous
 62
     7
100
AcDbLine
 10
-72.5001410635445
 20
-66.2971829999999
 30
0.0
 11
-75.5001410635445
 21
-66.2971829999999
 31
0.0
  0
LINE
  5
C9
330
57
100
AcDbEntity
  8
LC-003-002-----0
  6
Continuous
 62
     7
100
AcDbLine
 10
-72.00011706354445
 20
-97.7971829999999
 30
0.0
 11
-72.00011706354445
 21
-98.29634399999986
 31
0.0
  0
LINE
  5
CA
330
57
100
AcDbEntity
  8
LC-003-002-----0
  6
Continuous
 62
     7
100
AcDbLine
 10
-82.5001410635445
 20
-97.7971829999999
 30
0.0
 11
-72.00011706354445
 21
-97.7971829999999
 31
0.0
  0
LINE
  5
CB
330
57
100
AcDbEntity
  8
LC-003-002-----0
  6
Continuous
 62
     7
100
AcDbLine
 10
-82.5001410635445
 20
-94.99718299999995
 30
0.0
 11
-82.5001410635445
 21
-97.7971829999999
 31
0.0
  0
LINE
  5
CC
330
57
100
AcDbEntity
  8
LC-003-002-----0
  6
Continuous
 62
     7
100
AcDbLine
 10
-75.5001410635445
 20
-94.99718299999995
 30
0.0
 11
-82.5001410635445
 21
-94.99718299999995
 31
0.0
  0
LINE
  5
CD
330
57
100
AcDbEntity
  8
LC-003-002-----0
  6
Continuous
 62
     7
100
AcDbLine
 10
-75.5001410635445
 20
-66.2971829999999
 30
0.0
 11
-75.5001410635445
 21
-94.99718299999995
 31
0.0
  0
LINE
  5
CE
330
57
100
AcDbEntity
  8
1
  6
PHANTOM
 62
     2
100
AcDbLine
 10
39.98933285388009
 20
-152.1443773094565
 30
0.0
 11
152.5212442252545
 21
-158.0419260556993
 31
0.0
  0
LINE
  5
CF
330
57
100
AcDbEntity
  8
1
  6
Continuous
 62
     7
100
AcDbLine
 10
146.1917339364556
 20
-102.6347309999999
 30
0.0
 11
140.4347795333232
 21
-212.4839790312805
 31
0.0
  0
LINE
  5
D0
330
57
100
AcDbEntity
  8
1
  6
Continuous
 62
     7
100
AcDbLine
 10
-75.5001410635445
 20
-94.99718299999995
 30
0.0
 11
75.50007793645551
 21
-94.99718299999995
 31
0.0
  0
LINE
  5
D1
330
57
100
AcDbEntity
  8
1
  6
Continuous
 62
     7
100
AcDbLine
 10
72.00916493645553
 20
-97.79699299999993
 30
0.0
 11
-72.00011706354445
 21
-97.79699299999993
 31
0.0
  0
LINE
  5
D2
330
57
100
AcDbEntity
  8
1
  6
Continuous
 62
     7
100
AcDbLine
 10
-72.0002350635445
 20
-187.7972149999999
 30
0.0
 11
46.60703901068503
 21
-187.7972149999999
 31
0.0
  0
LINE
  5
D3
330
57
100
AcDbEntity
  8
1
  6
Continuous
 62
     7
100
AcDbLine
 10
72.49985893645555
 20
-66.2971829999999
 30
0.0
 11
-72.5001410635445
 21
-66.2971829999999
 31
0.0
  0
LINE
  5
D4
330
57
100
AcDbEntity
  8
1
  6
PHANTOM
 62
     2
100
AcDbLine
 10
0.000001340579
 20
4.04993321018742
 30
0.0
 11
-0.00007066350357
 21
-213.4767646374925
 31
0.0
  0
ARC
  5
D5
330
57
100
AcDbEntity
  8
LC-001-020-----0
  6
Continuous
 62
     7
100
AcDbCircle
 10
-52.00022706354444
 20
-187.7972149999999
 30
0.0
 40
20.0000000000005
100
AcDbArc
 50
179.9999049999994
 51
-90.00007600000097
  0
ARC
  5
D6
330
57
100
AcDbEntity
  8
1
  6
Continuous
 62
     7
100
AcDbCircle
 10
162.6349775725888
 20
-172.7467175638652
 30
0.0
 40
117.0000000000001
100
AcDbArc
 50
-172.6091787250592
 51
-162.5677375866992
  0
ARC
  5
D7
330
57
100
AcDbEntity
  8
1
  6
Continuous
 62
     7
100
AcDbCircle
 10
162.6349775725888
 20
-172.7467175638652
 30
0.0
 40
117.0
100
AcDbArc
 50
140.7669405014236
 51
-172.6091787250592
  0
ENDBLK
  5
59
330
57
100
AcDbEntity
  8
0
100
AcDbBlockEnd
  0
BLOCK
  5
5B
330
5A
100
AcDbEntity
  8
0
100
AcDbBlockBegin
  2
062B_2E_Aufsatzrahmen__2
 70
     0
 71
     0
 10
-73.5001410635445
 20
-66.2971829999999
 30
0.0
  3
062B_2E_Aufsatzrahmen__2
  1

  0
POINT
  5
D8
330
5A
100
AcDbEntity
  8
0
 62
     7
100
AcDbPoint
 10
73.49985893645555
 20
0.0
 30
0.0
  0
POINT
  5
D9
330
5A
100
AcDbEntity
  8
0
 62
     7
100
AcDbPoint
 10
73.49985893645555
 20
0.0
 30
0.0
  0
POINT
  5
DA
330
5A
100
AcDbEntity
  8
0
 62
     7
100
AcDbPoint
 10
-73.5001410635445
 20
0.0
 30
0.0
  0
LINE
  5
DB
330
5A
100
AcDbEntity
  8
LC-003-002-----0
  6
Continuous
 62
     7
100
AcDbLine
 10
72.49985893645555
 20
-14.0
 30
0.0
 11
72.49985893645555
 21
-17.0
 31
0.0
  0
LINE
  5
DC
330
5A
100
AcDbEntity
  8
LC-003-002-----0
  6
Continuous
 62
     7
100
AcDbLine
 10
72.49985893645555
 20
-25.0
 30
0.0
 11
72.49985893645555
 21
-26.0
 31
0.0
  0
LINE
  5
DD
330
5A
100
AcDbEntity
  8
LC-003-002-----0
  6
Continuous
 62
     7
100
AcDbLine
 10
72.49985893645555
 20
-29.5
 30
0.0
 11
72.49985893645555
 21
-30.5
 31
0.0
  0
LINE
  5
DE
330
5A
100
AcDbEntity
  8
LC-003-002-----0
  6
Continuous
 62
     7
100
AcDbLine
 10
72.49985893645555
 20
-34.0
 30
0.0
 11
72.49985893645555
 21
-35.0
 31
0.0
  0
LINE
  5
DF
330
5A
100
AcDbEntity
  8
LC-003-002-----0
  6
Continuous
 62
     7
100
AcDbLine
 10
72.49985893645555
 20
-38.5
 30
0.0
 11
72.49985893645555
 21
-39.5
 31
0.0
  0
LINE
  5
E0
330
5A
100
AcDbEntity
  8
LC-003-002-----0
  6
Continuous
 62
     7
100
AcDbLine
 10
72.49985893645555
 20
-43.0
 30
0.0
 11
72.49985893645555
 21
-44.0
 31
0.0
  0
LINE
  5
E1
330
5A
100
AcDbEntity
  8
LC-003-002-----0
  6
Continuous
 62
     7
100
AcDbLine
 10
72.49985893645555
 20
-47.5
 30
0.0
 11
72.49985893645555
 21
-48.5
 31
0.0
  0
LINE
  5
E2
330
5A
100
AcDbEntity
  8
LC-003-002-----0
  6
Continuous
 62
     7
100
AcDbLine
 10
72.49985893645555
 20
-52.0
 30
0.0
 11
72.49985893645555
 21
-53.0
 31
0.0
  0
LINE
  5
E3
330
5A
100
AcDbEntity
  8
LC-003-002-----0
  6
Continuous
 62
     7
100
AcDbLine
 10
72.49985893645555
 20
-56.5
 30
0.0
 11
72.49985893645555
 21
-57.5
 31
0.0
  0
LINE
  5
E4
330
5A
100
AcDbEntity
  8
LC-003-002-----0
  6
Continuous
 62
     7
100
AcDbLine
 10
72.49985893645555
 20
-61.0
 30
0.0
 11
72.49985893645555
 21
-62.0
 31
0.0
  0
LINE
  5
E5
330
5A
100
AcDbEntity
  8
LC-003-002-----0
  6
Continuous
 62
     7
100
AcDbLine
 10
71.99985893645555
 20
-24.5
 30
0.0
 11
71.99985893645555
 21
-24.5
 31
0.0
  0
LINE
  5
E6
330
5A
100
AcDbEntity
  8
LC-003-002-----0
  6
Continuous
 62
     7
100
AcDbLine
 10
71.99985893645555
 20
-29.0
 30
0.0
 11
71.99985893645555
 21
-29.0
 31
0.0
  0
LINE
  5
E7
330
5A
100
AcDbEntity
  8
LC-003-002-----0
  6
Continuous
 62
     7
100
AcDbLine
 10
71.99985893645555
 20
-33.5
 30
0.0
 11
71.99985893645555
 21
-33.5
 31
0.0
  0
LINE
  5
E8
330
5A
100
AcDbEntity
  8
LC-003-002-----0
  6
Continuous
 62
     7
100
AcDbLine
 10
71.99985893645555
 20
-38.0
 30
0.0
 11
71.99985893645555
 21
-38.0
 31
0.0
  0
LINE
  5
E9
330
5A
100
AcDbEntity
  8
LC-003-002-----0
  6
Continuous
 62
     7
100
AcDbLine
 10
71.99985893645555
 20
-42.5
 30
0.0
 11
71.99985893645555
 21
-42.5
 31
0.0
  0
LINE
  5
EA
330
5A
100
AcDbEntity
  8
LC-003-002-----0
  6
Continuous
 62
     7
100
AcDbLine
 10
71.99985893645555
 20
-47.0
 30
0.0
 11
71.99985893645555
 21
-47.0
 31
0.0
  0
LINE
  5
EB
330
5A
100
AcDbEntity
  8
LC-003-002-----0
  6
Continuous
 62
     7
100
AcDbLine
 10
71.99985893645555
 20
-51.5
 30
0.0
 11
71.99985893645555
 21
-51.5
 31
0.0
  0
LINE
  5
EC
330
5A
100
AcDbEntity
  8
LC-003-002-----0
  6
Continuous
 62
     7
100
AcDbLine
 10
71.99985893645555
 20
-56.0
 30
0.0
 11
71.99985893645555
 21
-56.0
 31
0.0
  0
LINE
  5
ED
330
5A
100
AcDbEntity
  8
LC-003-002-----0
  6
Continuous
 62
     7
100
AcDbLine
 10
71.99985893645555
 20
-60.5
 30
0.0
 11
71.99985893645555
 21
-60.5
 31
0.0
  0
LINE
  5
EE
330
5A
100
AcDbEntity
  8
LC-003-002-----0
  6
Continuous
 62
     7
100
AcDbLine
 10
71.99985893645555
 20
-22.0
 30
0.0
 11
71.99985893645555
 21
-22.0
 31
0.0
  0
LINE
  5
EF
330
5A
100
AcDbEntity
  8
LC-003-002-----0
  6
Continuous
 62
     7
100
AcDbLine
 10
71.99985893645555
 20
-26.5
 30
0.0
 11
71.99985893645555
 21
-26.5
 31
0.0
  0
LINE
  5
F0
330
5A
100
AcDbEntity
  8
LC-003-002-----0
  6
Continuous
 62
     7
100
AcDbLine
 10
71.99985893645555
 20
-31.0
 30
0.0
 11
71.99985893645555
 21
-31.0
 31
0.0
  0
LINE
  5
F1
330
5A
100
AcDbEntity
  8
LC-003-002-----0
  6
Continuous
 62
     7
100
AcDbLine
 10
71.99985893645555
 20
-35.5
 30
0.0
 11
71.99985893645555
 21
-35.5
 31
0.0
  0
LINE
  5
F2
330
5A
100
AcDbEntity
  8
LC-003-002-----0
  6
Continuous
 62
     7
100
AcDbLine
 10
71.99985893645555
 20
-40.0
 30
0.0
 11
71.99985893645555
 21
-40.0
 31
0.0
  0
LINE
  5
F3
330
5A
100
AcDbEntity
  8
LC-003-002-----0
  6
Continuous
 62
     7
100
AcDbLine
 10
71.99985893645555
 20
-44.5
 30
0.0
 11
71.99985893645555
 21
-44.5
 31
0.0
  0
LINE
  5
F4
330
5A
100
AcDbEntity
  8
LC-003-002-----0
  6
Continuous
 62
     7
100
AcDbLine
 10
71.99985893645555
 20
-49.0
 30
0.0
 11
71.99985893645555
 21
-49.0
 31
0.0
  0
LINE
  5
F5
330
5A
100
AcDbEntity
  8
LC-003-002-----0
  6
Continuous
 62
     7
100
AcDbLine
 10
71.99985893645555
 20
-53.5
 30
0.0
 11
71.99985893645555
 21
-53.5
 31
0.0
  0
LINE
  5
F6
330
5A
100
AcDbEntity
  8
LC-003-002-----0
  6
Continuous
 62
     7
100
AcDbLine
 10
71.99985893645555
 20
-58.0
 30
0.0
 11
71.99985893645555
 21
-58.0
 31
0.0
  0
LINE
  5
F7
330
5A
100
AcDbEntity
  8
LC-003-002-----0
  6
Continuous
 62
     7
100
AcDbLine
 10
71.99985893645555
 20
-62.5
 30
0.0
 11
71.99985893645555
 21
-62.5
 31
0.0
  0
LINE
  5
F8
330
5A
100
AcDbEntity
  8
LC-003-002-----0
  6
Continuous
 62
     7
100
AcDbLine
 10
72.49985893645555
 20
-19.0
 30
0.0
 11
72.49985893645555
 21
-21.5
 31
0.0
  0
LINE
  5
F9
330
5A
100
AcDbEntity
  8
LC-003-002-----0
  6
Continuous
 62
     7
100
AcDbLine
 10
72.99985893645555
 20
-17.0
 30
0.0
 11
72.99985893645555
 21
-19.0
 31
0.0
  0
LINE
  5
FA
330
5A
100
AcDbEntity
  8
LC-003-002-----0
  6
Continuous
 62
     7
100
AcDbLine
 10
72.99985893645555
 20
-19.0
 30
0.0
 11
72.49985893645555
 21
-19.0
 31
0.0
  0
LINE
  5
FB
330
5A
100
AcDbEntity
  8
LC-003-002-----0
  6
Continuous
 62
     7
100
AcDbLine
 10
72.49985893645555
 20
-14.0
 30
0.0
 11
73.49985893645555
 21
-14.0
 31
0.0
  0
LINE
  5
FC
330
5A
100
AcDbEntity
  8
LC-003-002-----0
  6
Continuous
 62
     7
100
AcDbLine
 10
72.99985893645555
 20
-17.0
 30
0.0
 11
72.49985893645555
 21
-17.0
 31
0.0
  0
LINE
  5
FD
330
5A
100
AcDbEntity
  8
LC-003-002-----0
  6
Continuous
 62
     7
100
AcDbLine
 10
73.49985893645555
 20
0.0
 30
0.0
 11
73.49985893645555
 21
-14.0
 31
0.0
  0
LINE
  5
FE
330
5A
100
AcDbEntity
  8
LC-003-002-----0
  6
Continuous
 62
     7
100
AcDbLine
 10
73.49985893645555
 20
0.0
 30
0.0
 11
-73.5001410635445
 21
0.0
 31
0.0
  0
LINE
  5
FF
330
5A
100
AcDbEntity
  8
LC-003-002-----0
  6
Continuous
 62
     7
100
AcDbLine
 10
-72.5001410635445
 20
-14.0
 30
0.0
 11
-72.5001410635445
 21
-17.0
 31
0.0
  0
LINE
  5
100
330
5A
100
AcDbEntity
  8
LC-003-002-----0
  6
Continuous
 62
     7
100
AcDbLine
 10
-72.5001410635445
 20
-25.0
 30
0.0
 11
-72.5001410635445
 21
-26.0
 31
0.0
  0
LINE
  5
101
330
5A
100
AcDbEntity
  8
LC-003-002-----0
  6
Continuous
 62
     7
100
AcDbLine
 10
-72.5001410635445
 20
-29.5
 30
0.0
 11
-72.5001410635445
 21
-30.5
 31
0.0
  0
LINE
  5
102
330
5A
100
AcDbEntity
  8
LC-003-002-----0
  6
Continuous
 62
     7
100
AcDbLine
 10
-72.5001410635445
 20
-34.0
 30
0.0
 11
-72.5001410635445
 21
-35.0
 31
0.0
  0
LINE
  5
103
330
5A
100
AcDbEntity
  8
LC-003-002-----0
  6
Continuous
 62
     7
100
AcDbLine
 10
-72.5001410635445
 20
-38.5
 30
0.0
 11
-72.5001410635445
 21
-39.5
 31
0.0
  0
LINE
  5
104
330
5A
100
AcDbEntity
  8
LC-003-002-----0
  6
Continuous
 62
     7
100
AcDbLine
 10
-72.5001410635445
 20
-43.0
 30
0.0
 11
-72.5001410635445
 21
-44.0
 31
0.0
  0
LINE
  5
105
330
5A
100
AcDbEntity
  8
LC-003-002-----0
  6
Continuous
 62
     7
100
AcDbLine
 10
-72.5001410635445
 20
-47.5
 30
0.0
 11
-72.5001410635445
 21
-48.5
 31
0.0
  0
LINE
  5
106
330
5A
100
AcDbEntity
  8
LC-003-002-----0
  6
Continuous
 62
     7
100
AcDbLine
 10
-72.5001410635445
 20
-52.0
 30
0.0
 11
-72.5001410635445
 21
-53.0
 31
0.0
  0
LINE
  5
107
330
5A
100
AcDbEntity
  8
LC-003-002-----0
  6
Continuous
 62
     7
100
AcDbLine
 10
-72.5001410635445
 20
-56.5
 30
0.0
 11
-72.5001410635445
 21
-57.5
 31
0.0
  0
LINE
  5
108
330
5A
100
AcDbEntity
  8
LC-003-002-----0
  6
Continuous
 62
     7
100
AcDbLine
 10
-72.5001410635445
 20
-61.0
 30
0.0
 11
-72.5001410635445
 21
-62.0
 31
0.0
  0
LINE
  5
109
330
5A
100
AcDbEntity
  8
LC-003-002-----0
  6
Continuous
 62
     7
100
AcDbLine
 10
-72.0001410635445
 20
-24.5
 30
0.0
 11
-72.0001410635445
 21
-24.5
 31
0.0
  0
LINE
  5
10A
330
5A
100
AcDbEntity
  8
LC-003-002-----0
  6
Continuous
 62
     7
100
AcDbLine
 10
-72.0001410635445
 20
-29.0
 30
0.0
 11
-72.0001410635445
 21
-29.0
 31
0.0
  0
LINE
  5
10B
330
5A
100
AcDbEntity
  8
LC-003-002-----0
  6
Continuous
 62
     7
100
AcDbLine
 10
-72.0001410635445
 20
-33.5
 30
0.0
 11
-72.0001410635445
 21
-33.5
 31
0.0
  0
LINE
  5
10C
330
5A
100
AcDbEntity
  8
LC-003-002-----0
  6
Continuous
 62
     7
100
AcDbLine
 10
-72.0001410635445
 20
-38.0
 30
0.0
 11
-72.0001410635445
 21
-38.0
 31
0.0
  0
LINE
  5
10D
330
5A
100
AcDbEntity
  8
LC-003-002-----0
  6
Continuous
 62
     7
100
AcDbLine
 10
-72.0001410635445
 20
-42.5
 30
0.0
 11
-72.0001410635445
 21
-42.5
 31
0.0
  0
LINE
  5
10E
330
5A
100
AcDbEntity
  8
LC-003-002-----0
  6
Continuous
 62
     7
100
AcDbLine
 10
-72.0001410635445
 20
-47.0
 30
0.0
 11
-72.0001410635445
 21
-47.0
 31
0.0
  0
LINE
  5
10F
330
5A
100
AcDbEntity
  8
LC-003-002-----0
  6
Continuous
 62
     7
100
AcDbLine
 10
-72.0001410635445
 20
-51.5
 30
0.0
 11
-72.0001410635445
 21
-51.5
 31
0.0
  0
LINE
  5
110
330
5A
100
AcDbEntity
  8
LC-003-002-----0
  6
Continuous
 62
     7
100
AcDbLine
 10
-72.0001410635445
 20
-56.0
 30
0.0
 11
-72.0001410635445
 21
-56.0
 31
0.0
  0
LINE
  5
111
330
5A
100
AcDbEntity
  8
LC-003-002-----0
  6
Continuous
 62
     7
100
AcDbLine
 10
-72.0001410635445
 20
-60.5
 30
0.0
 11
-72.0001410635445
 21
-60.5
 31
0.0
  0
LINE
  5
112
330
5A
100
AcDbEntity
  8
LC-003-002-----0
  6
Continuous
 62
     7
100
AcDbLine
 10
-72.0001410635445
 20
-22.0
 30
0.0
 11
-72.0001410635445
 21
-22.0
 31
0.0
  0
LINE
  5
113
330
5A
100
AcDbEntity
  8
LC-003-002-----0
  6
Continuous
 62
     7
100
AcDbLine
 10
-72.0001410635445
 20
-26.5
 30
0.0
 11
-72.0001410635445
 21
-26.5
 31
0.0
  0
LINE
  5
114
330
5A
100
AcDbEntity
  8
LC-003-002-----0
  6
Continuous
 62
     7
100
AcDbLine
 10
-72.0001410635445
 20
-31.0
 30
0.0
 11
-72.0001410635445
 21
-31.0
 31
0.0
  0
LINE
  5
115
330
5A
100
AcDbEntity
  8
LC-003-002-----0
  6
Continuous
 62
     7
100
AcDbLine
 10
-72.0001410635445
 20
-35.5
 30
0.0
 11
-72.0001410635445
 21
-35.5
 31
0.0
  0
LINE
  5
116
330
5A
100
AcDbEntity
  8
LC-003-002-----0
  6
Continuous
 62
     7
100
AcDbLine
 10
-72.0001410635445
 20
-40.0
 30
0.0
 11
-72.0001410635445
 21
-40.0
 31
0.0
  0
LINE
  5
117
330
5A
100
AcDbEntity
  8
LC-003-002-----0
  6
Continuous
 62
     7
100
AcDbLine
 10
-72.0001410635445
 20
-44.5
 30
0.0
 11
-72.0001410635445
 21
-44.5
 31
0.0
  0
LINE
  5
118
330
5A
100
AcDbEntity
  8
LC-003-002-----0
  6
Continuous
 62
     7
100
AcDbLine
 10
-72.0001410635445
 20
-49.0
 30
0.0
 11
-72.0001410635445
 21
-49.0
 31
0.0
  0
LINE
  5
119
330
5A
100
AcDbEntity
  8
LC-003-002-----0
  6
Continuous
 62
     7
100
AcDbLine
 10
-72.0001410635445
 20
-53.5
 30
0.0
 11
-72.0001410635445
 21
-53.5
 31
0.0
  0
LINE
  5
11A
330
5A
100
AcDbEntity
  8
LC-003-002-----0
  6
Continuous
 62
     7
100
AcDbLine
 10
-72.0001410635445
 20
-58.0
 30
0.0
 11
-72.0001410635445
 21
-58.0
 31
0.0
  0
LINE
  5
11B
330
5A
100
AcDbEntity
  8
LC-003-002-----0
  6
Continuous
 62
     7
100
AcDbLine
 10
-72.0001410635445
 20
-62.5
 30
0.0
 11
-72.0001410635445
 21
-62.5
 31
0.0
  0
LINE
  5
11C
330
5A
100
AcDbEntity
  8
LC-003-002-----0
  6
Continuous
 62
     7
100
AcDbLine
 10
-72.5001410635445
 20
-19.0
 30
0.0
 11
-72.5001410635445
 21
-21.5
 31
0.0
  0
LINE
  5
11D
330
5A
100
AcDbEntity
  8
LC-003-002-----0
  6
Continuous
 62
     7
100
AcDbLine
 10
-73.0001410635445
 20
-17.0
 30
0.0
 11
-73.0001410635445
 21
-19.0
 31
0.0
  0
LINE
  5
11E
330
5A
100
AcDbEntity
  8
LC-003-002-----0
  6
Continuous
 62
     7
100
AcDbLine
 10
-73.0001410635445
 20
-19.0
 30
0.0
 11
-72.5001410635445
 21
-19.0
 31
0.0
  0
LINE
  5
11F
330
5A
100
AcDbEntity
  8
LC-003-002-----0
  6
Continuous
 62
     7
100
AcDbLine
 10
-72.5001410635445
 20
-14.0
 30
0.0
 11
-73.5001410635445
 21
-14.0
 31
0.0
  0
LINE
  5
120
330
5A
100
AcDbEntity
  8
LC-003-002-----0
  6
Continuous
 62
     7
100
AcDbLine
 10
-73.0001410635445
 20
-17.0
 30
0.0
 11
-72.5001410635445
 21
-17.0
 31
0.0
  0
LINE
  5
121
330
5A
100
AcDbEntity
  8
LC-003-002-----0
  6
Continuous
 62
     7
100
AcDbLine
 10
-73.5001410635445
 20
0.0
 30
0.0
 11
-73.5001410635445
 21
-14.0
 31
0.0
  0
LINE
  5
122
330
5A
100
AcDbEntity
  8
LC-003-002-----0
  6
Continuous
 62
     7
100
AcDbLine
 10
-69.00043606354443
 20
0.0
 30
0.0
 11
69.00015493645554
 21
0.0
 31
0.0
  0
LINE
  5
123
330
5A
100
AcDbEntity
  8
1
  6
Continuous
 62
     7
100
AcDbLine
 10
-72.5001410635445
 20
-14.0
 30
0.0
 11
72.49985893645555
 21
-14.0
 31
0.0
  0
LINE
  5
124
330
5A
100
AcDbEntity
  8
1
  6
Continuous
 62
     7
100
AcDbLine
 10
-72.5001410635445
 20
-17.0
 30
0.0
 11
72.49985893645555
 21
-17.0
 31
0.0
  0
LINE
  5
125
330
5A
100
AcDbEntity
  8
1
  6
Continuous
 62
     7
100
AcDbLine
 10
-72.5001410635445
 20
-19.0
 30
0.0
 11
72.49985893645555
 21
-19.0
 31
0.0
  0
LINE
  5
126
330
5A
100
AcDbEntity
  8
1
  6
Continuous
 62
     7
100
AcDbLine
 10
71.99985893645555
 20
-22.0
 30
0.0
 11
-72.0001410635445
 21
-22.0
 31
0.0
  0
LINE
  5
127
330
5A
100
AcDbEntity
  8
1
  6
Continuous
 62
     7
100
AcDbLine
 10
-72.0001410635445
 20
-24.5
 30
0.0
 11
71.99985893645555
 21
-24.5
 31
0.0
  0
LINE
  5
128
330
5A
100
AcDbEntity
  8
1
  6
Continuous
 62
     7
100
AcDbLine
 10
-72.0001410635445
 20
-26.5
 30
0.0
 11
71.99985893645555
 21
-26.5
 31
0.0
  0
LINE
  5
129
330
5A
100
AcDbEntity
  8
1
  6
Continuous
 62
     7
100
AcDbLine
 10
-72.0001410635445
 20
-29.0
 30
0.0
 11
71.99985893645555
 21
-29.0
 31
0.0
  0
LINE
  5
12A
330
5A
100
AcDbEntity
  8
1
  6
Continuous
 62
     7
100
AcDbLine
 10
-72.0001410635445
 20
-31.0
 30
0.0
 11
71.99985893645555
 21
-31.0
 31
0.0
  0
LINE
  5
12B
330
5A
100
AcDbEntity
  8
1
  6
Continuous
 62
     7
100
AcDbLine
 10
-72.0001410635445
 20
-33.5
 30
0.0
 11
71.99985893645555
 21
-33.5
 31
0.0
  0
LINE
  5
12C
330
5A
100
AcDbEntity
  8
1
  6
Continuous
 62
     7
100
AcDbLine
 10
-72.0001410635445
 20
-35.5
 30
0.0
 11
71.99985893645555
 21
-35.5
 31
0.0
  0
LINE
  5
12D
330
5A
100
AcDbEntity
  8
1
  6
Continuous
 62
     7
100
AcDbLine
 10
-72.0001410635445
 20
-38.0
 30
0.0
 11
71.99985893645555
 21
-38.0
 31
0.0
  0
LINE
  5
12E
330
5A
100
AcDbEntity
  8
1
  6
Continuous
 62
     7
100
AcDbLine
 10
-72.0001410635445
 20
-40.0
 30
0.0
 11
71.99985893645555
 21
-40.0
 31
0.0
  0
LINE
  5
12F
330
5A
100
AcDbEntity
  8
1
  6
Continuous
 62
     7
100
AcDbLine
 10
-72.0001410635445
 20
-42.5
 30
0.0
 11
71.99985893645555
 21
-42.5
 31
0.0
  0
LINE
  5
130
330
5A
100
AcDbEntity
  8
1
  6
Continuous
 62
     7
100
AcDbLine
 10
-72.0001410635445
 20
-44.5
 30
0.0
 11
71.99985893645555
 21
-44.5
 31
0.0
  0
LINE
  5
131
330
5A
100
AcDbEntity
  8
1
  6
Continuous
 62
     7
100
AcDbLine
 10
-72.0001410635445
 20
-47.0
 30
0.0
 11
71.99985893645555
 21
-47.0
 31
0.0
  0
LINE
  5
132
330
5A
100
AcDbEntity
  8
1
  6
Continuous
 62
     7
100
AcDbLine
 10
-72.0001410635445
 20
-49.0
 30
0.0
 11
71.99985893645555
 21
-49.0
 31
0.0
  0
LINE
  5
133
330
5A
100
AcDbEntity
  8
1
  6
Continuous
 62
     7
100
AcDbLine
 10
-72.0001410635445
 20
-51.5
 30
0.0
 11
71.99985893645555
 21
-51.5
 31
0.0
  0
LINE
  5
134
330
5A
100
AcDbEntity
  8
1
  6
Continuous
 62
     7
100
AcDbLine
 10
-72.0001410635445
 20
-53.5
 30
0.0
 11
71.99985893645555
 21
-53.5
 31
0.0
  0
LINE
  5
135
330
5A
100
AcDbEntity
  8
1
  6
Continuous
 62
     7
100
AcDbLine
 10
-72.0001410635445
 20
-56.0
 30
0.0
 11
71.99985893645555
 21
-56.0
 31
0.0
  0
LINE
  5
136
330
5A
100
AcDbEntity
  8
1
  6
Continuous
 62
     7
100
AcDbLine
 10
-72.0001410635445
 20
-58.0
 30
0.0
 11
71.99985893645555
 21
-58.0
 31
0.0
  0
LINE
  5
137
330
5A
100
AcDbEntity
  8
1
  6
Continuous
 62
     7
100
AcDbLine
 10
-72.0001410635445
 20
-60.5
 30
0.0
 11
71.99985893645555
 21
-60.5
 31
0.0
  0
LINE
  5
138
330
5A
100
AcDbEntity
  8
1
  6
Continuous
 62
     7
100
AcDbLine
 10
-72.0001410635445
 20
-62.5
 30
0.0
 11
71.99985893645555
 21
-62.5
 31
0.0
  0
LINE
  5
139
330
5A
100
AcDbEntity
  8
LC-003-002-----0
  6
Continuous
 62
     7
100
AcDbLine
 10
-72.5001410635445
 20
-65.5
 30
0.0
 11
-72.5001410635445
 21
-66.2971829999999
 31
0.0
  0
LINE
  5
13A
330
5A
100
AcDbEntity
  8
LC-003-002-----0
  6
Continuous
 62
     7
100
AcDbLine
 10
-72.0001410635445
 20
-65.0
 30
0.0
 11
-72.0001410635445
 21
-65.0
 31
0.0
  0
LINE
  5
13B
330
5A
100
AcDbEntity
  8
LC-003-002-----0
  6
Continuous
 62
     7
100
AcDbLine
 10
72.49985893645555
 20
-65.5
 30
0.0
 11
72.49985893645555
 21
-66.2971829999999
 31
0.0
  0
LINE
  5
13C
330
5A
100
AcDbEntity
  8
LC-003-002-----0
  6
Continuous
 62
     7
100
AcDbLine
 10
71.99985893645555
 20
-65.0
 30
0.0
 11
71.99985893645555
 21
-65.0
 31
0.0
  0
LINE
  5
13D
330
5A
100
AcDbEntity
  8
1
  6
Continuous
 62
     7
100
AcDbLine
 10
-72.0001410635445
 20
-65.0
 30
0.0
 11
71.99985893645555
 21
-65.0
 31
0.0
  0
ARC
  5
13E
330
5A
100
AcDbEntity
  8
LC-009-002-RND-0
  6
Continuous
 62
     7
100
AcDbCircle
 10
71.99985893645555
 20
-62.0
 30
0.0
 40
0.5
100
AcDbArc
 50
-90.0
 51
0.0
  0
ARC
  5
13F
330
5A
100
AcDbEntity
  8
LC-009-002-RND-0
  6
Continuous
 62
     7
100
AcDbCircle
 10
71.99985893645555
 20
-53.0
 30
0.0
 40
0.5
100
AcDbArc
 50
-90.0
 51
0.0
  0
ARC
  5
140
330
5A
100
AcDbEntity
  8
LC-009-002-RND-0
  6
Continuous
 62
     7
100
AcDbCircle
 10
71.99985893645555
 20
-57.5
 30
0.0
 40
0.5
100
AcDbArc
 50
-90.0
 51
0.0
  0
ARC
  5
141
330
5A
100
AcDbEntity
  8
LC-009-002-RND-0
  6
Continuous
 62
     7
100
AcDbCircle
 10
71.99985893645555
 20
-48.5
 30
0.0
 40
0.5
100
AcDbArc
 50
-90.0
 51
0.0
  0
ARC
  5
142
330
5A
100
AcDbEntity
  8
LC-009-002-RND-0
  6
Continuous
 62
     7
100
AcDbCircle
 10
71.99985893645555
 20
-44.0
 30
0.0
 40
0.5
100
AcDbArc
 50
-90.0
 51
0.0
  0
ARC
  5
143
330
5A
100
AcDbEntity
  8
LC-009-002-RND-0
  6
Continuous
 62
     7
100
AcDbCircle
 10
71.99985893645555
 20
-39.5
 30
0.0
 40
0.5
100
AcDbArc
 50
-90.0
 51
0.0
  0
ARC
  5
144
330
5A
100
AcDbEntity
  8
LC-009-002-RND-0
  6
Continuous
 62
     7
100
AcDbCircle
 10
71.99985893645555
 20
-35.0
 30
0.0
 40
0.5
100
AcDbArc
 50
-90.0
 51
0.0
  0
ARC
  5
145
330
5A
100
AcDbEntity
  8
LC-009-002-RND-0
  6
Continuous
 62
     7
100
AcDbCircle
 10
71.99985893645555
 20
-30.5
 30
0.0
 40
0.5
100
AcDbArc
 50
-90.0
 51
0.0
  0
ARC
  5
146
330
5A
100
AcDbEntity
  8
LC-009-002-RND-0
  6
Continuous
 62
     7
100
AcDbCircle
 10
71.99985893645555
 20
-26.0
 30
0.0
 40
0.5
100
AcDbArc
 50
-90.0
 51
0.0
  0
ARC
  5
147
330
5A
100
AcDbEntity
  8
LC-009-002-RND-0
  6
Continuous
 62
     7
100
AcDbCircle
 10
71.99985893645555
 20
-21.5
 30
0.0
 40
0.5
100
AcDbArc
 50
-90.0
 51
0.0
  0
ARC
  5
148
330
5A
100
AcDbEntity
  8
LC-009-002-RND-0
  6
Continuous
 62
     7
100
AcDbCircle
 10
71.99985893645555
 20
-25.0
 30
0.0
 40
0.5
100
AcDbArc
 50
0.0
 51
90.0
  0
ARC
  5
149
330
5A
100
AcDbEntity
  8
LC-009-002-RND-0
  6
Continuous
 62
     7
100
AcDbCircle
 10
71.99985893645555
 20
-29.5
 30
0.0
 40
0.5
100
AcDbArc
 50
0.0
 51
90.0
  0
ARC
  5
14A
330
5A
100
AcDbEntity
  8
LC-009-002-RND-0
  6
Continuous
 62
     7
100
AcDbCircle
 10
71.99985893645555
 20
-34.0
 30
0.0
 40
0.5
100
AcDbArc
 50
0.0
 51
90.0
  0
ARC
  5
14B
330
5A
100
AcDbEntity
  8
LC-009-002-RND-0
  6
Continuous
 62
     7
100
AcDbCircle
 10
71.99985893645555
 20
-38.5
 30
0.0
 40
0.5
100
AcDbArc
 50
0.0
 51
90.0
  0
ARC
  5
14C
330
5A
100
AcDbEntity
  8
LC-009-002-RND-0
  6
Continuous
 62
     7
100
AcDbCircle
 10
71.99985893645555
 20
-43.0
 30
0.0
 40
0.5
100
AcDbArc
 50
0.0
 51
90.0
  0
ARC
  5
14D
330
5A
100
AcDbEntity
  8
LC-009-002-RND-0
  6
Continuous
 62
     7
100
AcDbCircle
 10
71.99985893645555
 20
-47.5
 30
0.0
 40
0.5
100
AcDbArc
 50
0.0
 51
90.0
  0
ARC
  5
14E
330
5A
100
AcDbEntity
  8
LC-009-002-RND-0
  6
Continuous
 62
     7
100
AcDbCircle
 10
71.99985893645555
 20
-52.0
 30
0.0
 40
0.5
100
AcDbArc
 50
0.0
 51
90.0
  0
ARC
  5
14F
330
5A
100
AcDbEntity
  8
LC-009-002-RND-0
  6
Continuous
 62
     7
100
AcDbCircle
 10
71.99985893645555
 20
-56.5
 30
0.0
 40
0.5
100
AcDbArc
 50
0.0
 51
90.0
  0
ARC
  5
150
330
5A
100
AcDbEntity
  8
LC-009-002-RND-0
  6
Continuous
 62
     7
100
AcDbCircle
 10
71.99985893645555
 20
-61.0
 30
0.0
 40
0.5
100
AcDbArc
 50
0.0
 51
90.0
  0
ARC
  5
151
330
5A
100
AcDbEntity
  8
LC-003-002-----0
  6
Continuous
 62
     7
100
AcDbCircle
 10
71.99985893645555
 20
-23.25
 30
0.0
 40
1.25
100
AcDbArc
 50
90.0
 51
-90.0
  0
ARC
  5
152
330
5A
100
AcDbEntity
  8
LC-003-002-----0
  6
Continuous
 62
     7
100
AcDbCircle
 10
71.99985893645555
 20
-27.75
 30
0.0
 40
1.25
100
AcDbArc
 50
90.0
 51
-90.0
  0
ARC
  5
153
330
5A
100
AcDbEntity
  8
LC-003-002-----0
  6
Continuous
 62
     7
100
AcDbCircle
 10
71.99985893645555
 20
-32.25
 30
0.0
 40
1.25
100
AcDbArc
 50
90.0
 51
-90.0
  0
ARC
  5
154
330
5A
100
AcDbEntity
  8
LC-003-002-----0
  6
Continuous
 62
     7
100
AcDbCircle
 10
71.99985893645555
 20
-36.75
 30
0.0
 40
1.25
100
AcDbArc
 50
90.0
 51
-90.0
  0
ARC
  5
155
330
5A
100
AcDbEntity
  8
LC-003-002-----0
  6
Continuous
 62
     7
100
AcDbCircle
 10
71.99985893645555
 20
-41.25
 30
0.0
 40
1.25
100
AcDbArc
 50
90.0
 51
-90.0
  0
ARC
  5
156
330
5A
100
AcDbEntity
  8
LC-003-002-----0
  6
Continuous
 62
     7
100
AcDbCircle
 10
71.99985893645555
 20
-45.75
 30
0.0
 40
1.25
100
AcDbArc
 50
90.0
 51
-90.0
  0
ARC
  5
157
330
5A
100
AcDbEntity
  8
LC-003-002-----0
  6
Continuous
 62
     7
100
AcDbCircle
 10
71.99985893645555
 20
-50.25
 30
0.0
 40
1.25
100
AcDbArc
 50
90.0
 51
-90.0
  0
ARC
  5
158
330
5A
100
AcDbEntity
  8
LC-003-002-----0
  6
Continuous
 62
     7
100
AcDbCircle
 10
71.99985893645555
 20
-54.75
 30
0.0
 40
1.25
100
AcDbArc
 50
90.0
 51
-90.0
  0
ARC
  5
159
330
5A
100
AcDbEntity
  8
LC-003-002-----0
  6
Continuous
 62
     7
100
AcDbCircle
 10
71.99985893645555
 20
-59.25
 30
0.0
 40
1.25
100
AcDbArc
 50
90.0
 51
-90.0
  0
ARC
  5
15A
330
5A
100
AcDbEntity
  8
LC-009-002-RND-0
  6
Continuous
 62
     7
100
AcDbCircle
 10
-72.0001410635445
 20
-62.0
 30
0.0
 40
0.5
100
AcDbArc
 50
180.0
 51
-90.0
  0
ARC
  5
15B
330
5A
100
AcDbEntity
  8
LC-009-002-RND-0
  6
Continuous
 62
     7
100
AcDbCircle
 10
-72.0001410635445
 20
-53.0
 30
0.0
 40
0.5
100
AcDbArc
 50
180.0
 51
-90.0
  0
ARC
  5
15C
330
5A
100
AcDbEntity
  8
LC-009-002-RND-0
  6
Continuous
 62
     7
100
AcDbCircle
 10
-72.0001410635445
 20
-57.5
 30
0.0
 40
0.5
100
AcDbArc
 50
180.0
 51
-90.0
  0
ARC
  5
15D
330
5A
100
AcDbEntity
  8
LC-009-002-RND-0
  6
Continuous
 62
     7
100
AcDbCircle
 10
-72.0001410635445
 20
-48.5
 30
0.0
 40
0.5
100
AcDbArc
 50
180.0
 51
-90.0
  0
ARC
  5
15E
330
5A
100
AcDbEntity
  8
LC-009-002-RND-0
  6
Continuous
 62
     7
100
AcDbCircle
 10
-72.0001410635445
 20
-44.0
 30
0.0
 40
0.5
100
AcDbArc
 50
180.0
 51
-90.0
  0
ARC
  5
15F
330
5A
100
AcDbEntity
  8
LC-009-002-RND-0
  6
Continuous
 62
     7
100
AcDbCircle
 10
-72.0001410635445
 20
-39.5
 30
0.0
 40
0.5
100
AcDbArc
 50
180.0
 51
-90.0
  0
ARC
  5
160
330
5A
100
AcDbEntity
  8
LC-009-002-RND-0
  6
Continuous
 62
     7
100
AcDbCircle
 10
-72.0001410635445
 20
-35.0
 30
0.0
 40
0.5
100
AcDbArc
 50
180.0
 51
-90.0
  0
ARC
  5
161
330
5A
100
AcDbEntity
  8
LC-009-002-RND-0
  6
Continuous
 62
     7
100
AcDbCircle
 10
-72.0001410635445
 20
-30.5
 30
0.0
 40
0.5
100
AcDbArc
 50
180.0
 51
-90.0
  0
ARC
  5
162
330
5A
100
AcDbEntity
  8
LC-009-002-RND-0
  6
Continuous
 62
     7
100
AcDbCircle
 10
-72.0001410635445
 20
-26.0
 30
0.0
 40
0.5
100
AcDbArc
 50
180.0
 51
-90.0
  0
ARC
  5
163
330
5A
100
AcDbEntity
  8
LC-009-002-RND-0
  6
Continuous
 62
     7
100
AcDbCircle
 10
-72.0001410635445
 20
-21.5
 30
0.0
 40
0.5
100
AcDbArc
 50
180.0
 51
-90.0
  0
ARC
  5
164
330
5A
100
AcDbEntity
  8
LC-009-002-RND-0
  6
Continuous
 62
     7
100
AcDbCircle
 10
-72.0001410635445
 20
-25.0
 30
0.0
 40
0.5
100
AcDbArc
 50
90.0
 51
180.0
  0
ARC
  5
165
330
5A
100
AcDbEntity
  8
LC-009-002-RND-0
  6
Continuous
 62
     7
100
AcDbCircle
 10
-72.0001410635445
 20
-29.5
 30
0.0
 40
0.5
100
AcDbArc
 50
90.0
 51
180.0
  0
ARC
  5
166
330
5A
100
AcDbEntity
  8
LC-009-002-RND-0
  6
Continuous
 62
     7
100
AcDbCircle
 10
-72.0001410635445
 20
-34.0
 30
0.0
 40
0.5
100
AcDbArc
 50
90.0
 51
180.0
  0
ARC
  5
167
330
5A
100
AcDbEntity
  8
LC-009-002-RND-0
  6
Continuous
 62
     7
100
AcDbCircle
 10
-72.0001410635445
 20
-38.5
 30
0.0
 40
0.5
100
AcDbArc
 50
90.0
 51
180.0
  0
ARC
  5
168
330
5A
100
AcDbEntity
  8
LC-009-002-RND-0
  6
Continuous
 62
     7
100
AcDbCircle
 10
-72.0001410635445
 20
-43.0
 30
0.0
 40
0.5
100
AcDbArc
 50
90.0
 51
180.0
  0
ARC
  5
169
330
5A
100
AcDbEntity
  8
LC-009-002-RND-0
  6
Continuous
 62
     7
100
AcDbCircle
 10
-72.0001410635445
 20
-47.5
 30
0.0
 40
0.5
100
AcDbArc
 50
90.0
 51
180.0
  0
ARC
  5
16A
330
5A
100
AcDbEntity
  8
LC-009-002-RND-0
  6
Continuous
 62
     7
100
AcDbCircle
 10
-72.0001410635445
 20
-52.0
 30
0.0
 40
0.5
100
AcDbArc
 50
90.0
 51
180.0
  0
ARC
  5
16B
330
5A
100
AcDbEntity
  8
LC-009-002-RND-0
  6
Continuous
 62
     7
100
AcDbCircle
 10
-72.0001410635445
 20
-56.5
 30
0.0
 40
0.5
100
AcDbArc
 50
90.0
 51
180.0
  0
ARC
  5
16C
330
5A
100
AcDbEntity
  8
LC-009-002-RND-0
  6
Continuous
 62
     7
100
AcDbCircle
 10
-72.0001410635445
 20
-61.0
 30
0.0
 40
0.5
100
AcDbArc
 50
90.0
 51
180.0
  0
ARC
  5
16D
330
5A
100
AcDbEntity
  8
LC-003-002-----0
  6
Continuous
 62
     7
100
AcDbCircle
 10
-72.0001410635445
 20
-23.25
 30
0.0
 40
1.25
100
AcDbArc
 50
-90.0
 51
90.0
  0
ARC
  5
16E
330
5A
100
AcDbEntity
  8
LC-003-002-----0
  6
Continuous
 62
     7
100
AcDbCircle
 10
-72.0001410635445
 20
-27.75
 30
0.0
 40
1.25
100
AcDbArc
 50
-90.0
 51
90.0
  0
ARC
  5
16F
330
5A
100
AcDbEntity
  8
LC-003-002-----0
  6
Continuous
 62
     7
100
AcDbCircle
 10
-72.0001410635445
 20
-32.25
 30
0.0
 40
1.25
100
AcDbArc
 50
-90.0
 51
90.0
  0
ARC
  5
170
330
5A
100
AcDbEntity
  8
LC-003-002-----0
  6
Continuous
 62
     7
100
AcDbCircle
 10
-72.0001410635445
 20
-36.75
 30
0.0
 40
1.25
100
AcDbArc
 50
-90.0
 51
90.0
  0
ARC
  5
171
330
5A
100
AcDbEntity
  8
LC-003-002-----0
  6
Continuous
 62
     7
100
AcDbCircle
 10
-72.0001410635445
 20
-41.25
 30
0.0
 40
1.25
100
AcDbArc
 50
-90.0
 51
90.0
  0
ARC
  5
172
330
5A
100
AcDbEntity
  8
LC-003-002-----0
  6
Continuous
 62
     7
100
AcDbCircle
 10
-72.0001410635445
 20
-45.75
 30
0.0
 40
1.25
100
AcDbArc
 50
-90.0
 51
90.0
  0
ARC
  5
173
330
5A
100
AcDbEntity
  8
LC-003-002-----0
  6
Continuous
 62
     7
100
AcDbCircle
 10
-72.0001410635445
 20
-50.25
 30
0.0
 40
1.25
100
AcDbArc
 50
-90.0
 51
90.0
  0
ARC
  5
174
330
5A
100
AcDbEntity
  8
LC-003-002-----0
  6
Continuous
 62
     7
100
AcDbCircle
 10
-72.0001410635445
 20
-54.75
 30
0.0
 40
1.25
100
AcDbArc
 50
-90.0
 51
90.0
  0
ARC
  5
175
330
5A
100
AcDbEntity
  8
LC-003-002-----0
  6
Continuous
 62
     7
100
AcDbCircle
 10
-72.0001410635445
 20
-59.25
 30
0.0
 40
1.25
100
AcDbArc
 50
-90.0
 51
90.0
  0
ARC
  5
176
330
5A
100
AcDbEntity
  8
LC-009-002-RND-0
  6
Continuous
 62
     7
100
AcDbCircle
 10
-72.0001410635445
 20
-65.5
 30
0.0
 40
0.5
100
AcDbArc
 50
90.0
 51
180.0
  0
ARC
  5
177
330
5A
100
AcDbEntity
  8
LC-003-002-----0
  6
Continuous
 62
     7
100
AcDbCircle
 10
-72.0001410635445
 20
-63.75
 30
0.0
 40
1.25
100
AcDbArc
 50
-90.0
 51
90.0
  0
ARC
  5
178
330
5A
100
AcDbEntity
  8
LC-009-002-RND-0
  6
Continuous
 62
     7
100
AcDbCircle
 10
71.99985893645555
 20
-65.5
 30
0.0
 40
0.5
100
AcDbArc
 50
0.0
 51
90.0
  0
ARC
  5
179
330
5A
100
AcDbEntity
  8
LC-003-002-----0
  6
Continuous
 62
     7
100
AcDbCircle
 10
71.99985893645555
 20
-63.75
 30
0.0
 40
1.25
100
AcDbArc
 50
90.0
 51
-90.0
  0
ENDBLK
  5
5C
330
5A
100
AcDbEntity
  8
0
100
AcDbBlockEnd
  0
BLOCK
  5
182
330
17A
100
AcDbEntity
  8
0
100
AcDbBlockBegin
  2
*D7
 70
     1
 71
     0
 10
0.0
 20
0.0
 30
0.0
  3
*D7
  1

  0
LINE
  5
17B
330
17A
100
AcDbEntity
  8
1
  6
Continuous
 62
     4
100
AcDbLine
 10
-92.50014106354391
 20
-97.7971796898737
 30
0.0
 11
-92.50017747493922
 21
-207.7972005940141
 31
0.0
  0
LINE
  5
17C
330
17A
100
AcDbEntity
  8
1
  6
Continuous
 62
     4
100
AcDbLine
 10
-82.50014106354453
 20
-97.79718299999993
 30
0.0
 11
-94.5001410635438
 21
-97.79717902784847
 31
0.0
  0
LINE
  5
17D
330
17A
100
AcDbEntity
  8
1
  6
Continuous
 62
     4
100
AcDbLine
 10
-52.00025406354445
 20
-207.7972139999999
 30
0.0
 11
-94.50017747493911
 21
-207.7971999319888
 31
0.0
  0
SOLID
  5
17E
330
17A
100
AcDbEntity
  8
1
 62
     4
100
AcDbTrace
 10
-90.9203150646468
 20
-109.7971802128167
 30
0.0
 11
-94.07997500674412
 21
-109.7971791669294
 31
0.0
 12
-92.50014106354391
 22
-97.7971796898737
 32
0.0
 13
-92.50014106354391
 23
-97.7971796898737
 33
0.0
  0
SOLID
  5
17F
330
17A
100
AcDbEntity
  8
1
 62
     4
100
AcDbTrace
 10
-94.08000347383651
 20
-195.7972000710711
 30
0.0
 11
-90.92034353173918
 21
-195.7972011169584
 31
0.0
 12
-92.50017747493922
 22
-207.7972005940141
 32
0.0
 13
-92.50017747493922
 23
-207.7972005940141
 33
0.0
  0
MTEXT
  5
181
330
17A
100
AcDbEntity
  8
1
 62
     1
100
AcDbMText
 10
-94.50016227859135
 20
-161.8885343435777
 30
0.0
 40
12.0
 41
0.0
 71
     7
 72
     1
  1
110
  7
CONVERTER_12
 11
3.310126215962339E-7
 21
0.9999999999999455
 31
0.0
 73
     1
 44
0.60024009603842
  0
ENDBLK
  5
183
330
17A
100
AcDbEntity
  8
0
100
AcDbBlockEnd
  0
BLOCK
  5
18D
330
186
100
AcDbEntity
  8
0
100
AcDbBlockBegin
  2
*D8
 70
     1
 71
     0
 10
0.0
 20
0.0
 30
0.0
  3
*D8
  1

  0
LINE
  5
187
330
186
100
AcDbEntity
  8
1
  6
Continuous
 62
     4
100
AcDbLine
 10
172.60175784782
 20
-104.0188219792484
 30
0.0
 11
166.8448015629223
 21
-213.8680699119098
 31
0.0
  0
LINE
  5
188
330
186
100
AcDbEntity
  8
1
  6
Continuous
 62
     4
100
AcDbLine
 10
146.1917339364556
 20
-102.6347309999999
 30
0.0
 11
174.5990169162413
 21
-104.1234939124924
 31
0.0
  0
LINE
  5
189
330
186
100
AcDbEntity
  8
1
  6
Continuous
 62
     4
100
AcDbLine
 10
140.4347789364556
 20
-212.483979
 30
0.0
 11
168.8420606313436
 21
-213.9727418451539
 31
0.0
  0
SOLID
  5
18A
330
186
100
AcDbEntity
  8
1
 62
     4
100
AcDbTrace
 10
173.5513911164761
 20
-116.0850583184092
 30
0.0
 11
170.3960613802353
 21
-115.9196944611426
 31
0.0
 12
172.60175784782
 22
-104.0188219792484
 32
0.0
 13
172.60175784782
 23
-104.0188219792484
 33
0.0
  0
SOLID
  5
18B
330
186
100
AcDbEntity
  8
1
 62
     4
100
AcDbTrace
 10
165.8951682942662
 20
-201.801833572749
 30
0.0
 11
169.050498030507
 21
-201.9671974300155
 31
0.0
 12
166.8448015629223
 22
-213.8680699119098
 32
0.0
 13
166.8448015629223
 23
-213.8680699119098
 33
0.0
  0
MTEXT
  5
18C
330
186
100
AcDbEntity
  8
1
 62
     1
100
AcDbMText
 10
166.7576429269896
 20
-177.3165177869317
 30
0.0
 40
12.0
 41
0.0
 71
     7
 72
     1
  1
\C1;DN\C1;110
  7
CONVERTER_12
 11
0.05233596662202515
 21
0.9986295342106294
 31
0.0
 73
     1
 44
0.60024009603842
  0
ENDBLK
  5
18E
330
186
100
AcDbEntity
  8
0
100
AcDbBlockEnd
  0
BLOCK
  5
198
330
191
100
AcDbEntity
  8
0
100
AcDbBlockBegin
  2
*D9
 70
     1
 71
     0
 10
0.0
 20
0.0
 30
0.0
  3
*D9
  1

  0
LINE
  5
192
330
191
100
AcDbEntity
  8
1
  6
Continuous
 62
     4
100
AcDbLine
 10
-92.5001096182759
 20
0.00000777868856
 30
0.0
 11
-92.50014106354399
 21
-94.99717968987372
 31
0.0
  0
LINE
  5
193
330
191
100
AcDbEntity
  8
1
  6
Continuous
 62
     4
100
AcDbLine
 10
-82.50014106354455
 20
-94.99718299999995
 30
0.0
 11
-94.50014106354388
 21
-94.99717902784849
 31
0.0
  0
LINE
  5
194
330
191
100
AcDbEntity
  8
1
  6
Continuous
 62
     4
100
AcDbLine
 10
-69.00043606354447
 20
0.0
 30
0.0
 11
-94.50010961827579
 21
0.00000844071381
 31
0.0
  0
SOLID
  5
195
330
191
100
AcDbEntity
  8
1
 62
     4
100
AcDbTrace
 10
-90.9202836193788
 20
-11.99999274425445
 30
0.0
 11
-94.07994356147611
 21
-11.99999169836711
 31
0.0
 12
-92.5001096182759
 22
0.00000777868856
 32
0.0
 13
-92.5001096182759
 23
0.00000777868856
 33
0.0
  0
SOLID
  5
196
330
191
100
AcDbEntity
  8
1
 62
     4
100
AcDbTrace
 10
-94.07996706244128
 20
-82.99717916693072
 30
0.0
 11
-90.92030712034395
 21
-82.99718021281802
 31
0.0
 12
-92.50014106354399
 22
-94.99717968987372
 32
0.0
 13
-92.50014106354399
 23
-94.99717968987372
 33
0.0
  0
MTEXT
  5
197
330
191
100
AcDbEntity
  8
1
 62
     1
100
AcDbMText
 10
-94.50013206653338
 20
-67.81691485094633
 30
0.0
 40
12.0
 41
0.0
 71
     7
 72
     1
  1
\C1;45-\C1;95
  7
CONVERTER_12
 11
3.310126218182785E-7
 21
0.9999999999999455
 31
0.0
 73
     1
 44
0.60024009603842
  0
ENDBLK
  5
199
330
191
100
AcDbEntity
  8
0
100
AcDbBlockEnd
  0
BLOCK
  5
1A3
330
19C
100
AcDbEntity
  8
0
100
AcDbBlockBegin
  2
*D10
 70
     1
 71
     0
 10
0.0
 20
0.0
 30
0.0
  3
*D10
  1

  0
LINE
  5
19D
330
19C
100
AcDbEntity
  8
1
  6
Continuous
 62
     4
100
AcDbLine
 10
73.49986501245333
 20
18.35578881383791
 30
0.0
 11
-73.50013498753061
 21
18.35583747269332
 31
0.0
  0
LINE
  5
19E
330
19C
100
AcDbEntity
  8
1
  6
Continuous
 62
     4
100
AcDbLine
 10
-73.5001410635445
 20
0.0
 30
0.0
 11
-73.50013432550537
 21
20.35583747269321
 31
0.0
  0
LINE
  5
19F
330
19C
100
AcDbEntity
  8
1
  6
Continuous
 62
     4
100
AcDbLine
 10
73.49985893645555
 20
0.0
 30
0.0
 11
73.49986567447857
 21
20.3557888138378
 31
0.0
  0
SOLID
  5
1A0
330
19C
100
AcDbEntity
  8
1
 62
     4
100
AcDbTrace
 10
61.49986448951032
 20
16.77596281494071
 30
0.0
 11
61.49986553539765
 21
19.93562275703803
 31
0.0
 12
73.49986501245333
 22
18.35578881383791
 32
0.0
 13
73.49986501245333
 23
18.35578881383791
 33
0.0
  0
SOLID
  5
1A1
330
19C
100
AcDbEntity
  8
1
 62
     4
100
AcDbTrace
 10
-61.50013446458761
 20
19.93566347159052
 30
0.0
 11
-61.50013551047493
 21
16.77600352949319
 31
0.0
 12
-73.50013498753061
 22
18.35583747269332
 32
0.0
 13
-73.50013498753061
 23
18.35583747269332
 33
0.0
  0
MTEXT
  5
1A2
330
19C
100
AcDbEntity
  8
1
 62
     1
100
AcDbMText
 10
-37.19996389431169
 20
20.35571701688938
 30
0.0
 40
12.0
 41
0.0
 71
     7
 72
     1
  1
\C1;150x\C1;150
  7
CONVERTER_12
 11
0.9999999999970619
 21
2.424068405545306E-6
 31
0.0
 73
     1
 44
0.60024009603842
  0
ENDBLK
  5
1A4
330
19C
100
AcDbEntity
  8
0
100
AcDbBlockEnd
  0
ENDSEC
  0
SECTION
  2
ENTITIES
  0
INSERT
  5
5D
330
1F
100
AcDbEntity
  8
1
100
AcDbBlockReference
  2
HL72N-Draufsicht
 10
-90.75505068122689
 20
-422.6544685666751
 30
0.0
  0
INSERT
  5
5E
330
1F
100
AcDbEntity
  8
1
100
AcDbBlockReference
  2
HL72K_1_Ablaufkörper_DN110
 10
-0.00014106354438
 20
0.00281700000011
 30
0.0
  0
INSERT
  5
5F
330
1F
100
AcDbEntity
  8
1
100
AcDbBlockReference
  2
062B_2E_Aufsatzrahmen__2
 10
-73.5001410635445
 20
-66.2971829999999
 30
0.0
  0
DIMENSION
  5
185
330
1F
100
AcDbEntity
  8
1
100
AcDbDimension
  2
*D7
 10
-92.50014106354391
 20
-97.7971796898737
 30
0.0
 11
-100.5001587036547
 21
-151.0885323575026
 31
0.0
 70
    32
  1
<>
 71
     5
 42
-1.0
 53
89.9999810343738
  3
ME10_DIM_10
100
AcDbAlignedDimension
 13
-52.00025406354443
 23
-207.7972139999999
 33
0.0
 14
-82.5001410635445
 24
-97.7971829999999
 34
0.0
 50
89.9999810343738
100
AcDbRotatedDimension
  0
DIMENSION
  5
190
330
1F
100
AcDbEntity
  8
1
100
AcDbDimension
  2
*D8
 10
172.60175784782
 20
-104.0188219792484
 30
0.0
 11
161.6702312249544
 21
-159.7461836360399
 31
0.0
 70
    32
  1
<>
 71
     5
 42
-1.0
 53
86.99999940450635
  3
ME10_DIM_11
100
AcDbAlignedDimension
 13
140.4347789364556
 23
-212.483979
 33
0.0
 14
146.1917339364556
 24
-102.6347309999999
 34
0.0
 50
86.99999940450635
100
AcDbRotatedDimension
  0
DIMENSION
  5
19B
330
1F
100
AcDbEntity
  8
1
100
AcDbDimension
  2
*D9
 10
-92.5001096182759
 20
0.00000777868856
 30
0.0
 11
-100.5001248769389
 21
-46.0969128648718
 31
0.0
 70
    32
  1
<>
 71
     5
 42
-1.0
 53
89.9999810343738
  3
ME10_DIM_12
100
AcDbAlignedDimension
 13
-82.5001410635445
 23
-94.99718299999995
 33
0.0
 14
-69.00043606354443
 24
0.0
 34
0.0
 50
89.9999810343738
100
AcDbRotatedDimension
  0
DIMENSION
  5
1A6
330
1F
100
AcDbEntity
  8
1
100
AcDbDimension
  2
*D10
 10
73.49986501245333
 20
18.35578881383791
 30
0.0
 11
-6.23996190835114
 21
26.35581520872752
 31
0.0
 70
    32
  1
150x150
 71
     5
 42
-1.0
 53
0.00013888888889
  3
ME10_DIM_13
100
AcDbAlignedDimension
 13
-73.5001410635445
 23
0.0
 33
0.0
 14
73.49985893645555
 24
0.0
 34
0.0
 50
-0.0000189656262
100
AcDbRotatedDimension
  0
ENDSEC
  0
SECTION
  2
OBJECTS
  0
DICTIONARY
  5
C
330
0
100
AcDbDictionary
281
     1
  3
ACAD_GROUP
350
D
  3
ACAD_LAYOUT
350
1A
  3
ACAD_MLINESTYLE
350
17
  3
ACAD_PLOTSETTINGS
350
19
  3
ACAD_PLOTSTYLENAME
350
E
  3
ACAD_TABLESTYLE
350
1A7
  3
ACAD_VISUALSTYLE
350
2A
  0
DICTIONARY
  5
D
102
{ACAD_REACTORS
330
C
102
}
330
C
100
AcDbDictionary
281
     1
  0
DICTIONARY
  5
1A
102
{ACAD_REACTORS
330
C
102
}
330
C
100
AcDbDictionary
281
     1
  3
Layout1
350
1E
  3
Layout2
350
26
  3
Model
350
22
  0
DICTIONARY
  5
17
102
{ACAD_REACTORS
330
C
102
}
330
C
100
AcDbDictionary
281
     1
  3
Standard
350
18
  0
DICTIONARY
  5
19
102
{ACAD_REACTORS
330
C
102
}
330
C
100
AcDbDictionary
281
     1
  0
ACDBDICTIONARYWDFLT
  5
E
102
{ACAD_REACTORS
330
C
102
}
330
C
100
AcDbDictionary
281
     1
  3
Normal
350
F
100
AcDbDictionaryWithDefault
340
F
  0
DICTIONARY
  5
1A7
102
{ACAD_REACTORS
330
C
102
}
330
C
100
AcDbDictionary
281
     1
  0
DICTIONARY
  5
2A
102
{ACAD_REACTORS
330
C
102
}
330
C
100
AcDbDictionary
281
     1
  3
2dWireframe
350
2F
  3
3D Hidden
350
31
  3
3dWireframe
350
30
  3
Basic
350
32
  3
Brighten
350
36
  3
ColorChange
350
3A
  3
Conceptual
350
34
  3
Dim
350
35
  3
Facepattern
350
39
  3
Flat
350
2B
  3
FlatWithEdges
350
2C
  3
Gouraud
350
2D
  3
GouraudWithEdges
350
2E
  3
Linepattern
350
38
  3
Realistic
350
33
  3
Thicken
350
37
  0
LAYOUT
  5
1E
102
{ACAD_REACTORS
330
1A
102
}
330
1A
100
AcDbPlotSettings
  1

  2
none_device
  4

  6

 40
0.0
 41
0.0
 42
0.0
 43
0.0
 44
0.0
 45
0.0
 46
0.0
 47
0.0
 48
0.0
 49
0.0
140
0.0
141
0.0
142
1.0
143
1.0
 70
   688
 72
     0
 73
     0
 74
     5
  7

 75
    16
147
1.0
148
0.0
149
0.0
100
AcDbLayout
  1
Layout1
 70
     1
 71
     1
 10
0.0
 20
0.0
 11
12.0
 21
9.0
 12
0.0
 22
0.0
 32
0.0
 14
1.00000000000000E+20
 24
1.00000000000000E+20
 34
1.00000000000000E+20
 15
-1.00000000000000E+20
 25
-1.00000000000000E+20
 35
-1.00000000000000E+20
146
0.0
 13
0.0
 23
0.0
 33
0.0
 16
1.0
 26
0.0
 36
0.0
 17
0.0
 27
1.0
 37
0.0
 76
     0
330
1B
  0
LAYOUT
  5
26
102
{ACAD_REACTORS
330
1A
102
}
330
1A
100
AcDbPlotSettings
  1

  2
none_device
  4

  6

 40
0.0
 41
0.0
 42
0.0
 43
0.0
 44
0.0
 45
0.0
 46
0.0
 47
0.0
 48
0.0
 49
0.0
140
0.0
141
0.0
142
1.0
143
1.0
 70
   688
 72
     0
 73
     0
 74
     5
  7

 75
    16
147
1.0
148
0.0
149
0.0
100
AcDbLayout
  1
Layout2
 70
     1
 71
     2
 10
0.0
 20
0.0
 11
0.0
 21
0.0
 12
0.0
 22
0.0
 32
0.0
 14
0.0
 24
0.0
 34
0.0
 15
0.0
 25
0.0
 35
0.0
146
0.0
 13
0.0
 23
0.0
 33
0.0
 16
1.0
 26
0.0
 36
0.0
 17
0.0
 27
1.0
 37
0.0
 76
     0
330
23
  0
LAYOUT
  5
22
102
{ACAD_REACTORS
330
1A
102
}
330
1A
100
AcDbPlotSettings
  1

  2
none_device
  4

  6

 40
0.0
 41
0.0
 42
0.0
 43
0.0
 44
0.0
 45
0.0
 46
0.0
 47
0.0
 48
0.0
 49
0.0
140
0.0
141
0.0
142
1.0
143
1.0
 70
  1712
 72
     0
 73
     0
 74
     0
  7

 75
     0
147
1.0
148
0.0
149
0.0
100
AcDbLayout
  1
Model
 70
     1
 71
     0
 10
0.0
 20
0.0
 11
12.0
 21
9.0
 12
0.0
 22
0.0
 32
0.0
 14
-106.5001622785907
 24
-422.6544685666751
 34
0.0
 15
174.5990169162413
 25
32.35582633075129
 35
0.0
146
0.0
 13
0.0
 23
0.0
 33
0.0
 16
1.0
 26
0.0
 36
0.0
 17
0.0
 27
1.0
 37
0.0
 76
     0
330
1F
331
29
  0
MLINESTYLE
  5
18
102
{ACAD_REACTORS
330
17
102
}
330
17
100
AcDbMlineStyle
  2
Standard
 70
     0
  3

 62
   256
 51
90.0
 52
90.0
 71
     2
 49
0.5
 62
   256
  6
BYLAYER
 49
-0.5
 62
   256
  6
BYLAYER
  0
ACDBPLACEHOLDER
  5
F
102
{ACAD_REACTORS
330
E
102
}
330
E
  0
VISUALSTYLE
  5
2F
102
{ACAD_REACTORS
330
2A
102
}
330
2A
100
AcDbVisualStyle
  2
2dWireframe
 70
     4
 71
     0
 72
     2
 73
     0
 90
        0
 40
-0.6
 41
-30.0
 62
     5
 63
     7
 74
     1
 91
        4
 64
     7
 65
   257
 75
     1
175
     1
 42
1.0
 92
        0
 66
   257
 43
1.0
 76
     1
 77
     6
 78
     2
 67
     7
 79
     5
170
     0
171
     0
290
     0
174
     0
 93
        1
 44
0.0
173
     0
291
     0
 45
0.0
1001
ACAD
1000
AcDbSavedByObjectVersion
1070
     0
  0
VISUALSTYLE
  5
31
102
{ACAD_REACTORS
330
2A
102
}
330
2A
100
AcDbVisualStyle
  2
3D Hidden
 70
     6
 71
     1
 72
     2
 73
     2
 90
        0
 40
-0.6
 41
-30.0
 62
     5
 63
     7
 74
     2
 91
        2
 64
     7
 65
   257
 75
     2
175
     1
 42
40.0
 92
        0
 66
   257
 43
1.0
 76
     1
 77
     6
 78
     2
 67
     7
 79
     3
170
     0
171
     0
290
     0
174
     0
 93
        1
 44
0.0
173
     0
291
     0
 45
0.0
1001
ACAD
1000
AcDbSavedByObjectVersion
1070
     0
  0
VISUALSTYLE
  5
30
102
{ACAD_REACTORS
330
2A
102
}
330
2A
100
AcDbVisualStyle
  2
3dWireframe
 70
     5
 71
     0
 72
     2
 73
     0
 90
        0
 40
-0.6
 41
-30.0
 62
     5
 63
     7
 74
     1
 91
        4
 64
     7
 65
   257
 75
     1
175
     1
 42
1.0
 92
        0
 66
   257
 43
1.0
 76
     1
 77
     6
 78
     2
 67
     7
 79
     5
170
     0
171
     0
290
     0
174
     0
 93
        1
 44
0.0
173
     0
291
     0
 45
0.0
1001
ACAD
1000
AcDbSavedByObjectVersion
1070
     0
  0
VISUALSTYLE
  5
32
102
{ACAD_REACTORS
330
2A
102
}
330
2A
100
AcDbVisualStyle
  2
Basic
 70
     7
 71
     1
 72
     0
 73
     1
 90
        0
 40
-0.6
 41
-30.0
 62
     5
 63
     7
 74
     0
 91
        4
 64
     7
 65
   257
 75
     1
175
     1
 42
1.0
 92
        8
 66
     7
 43
1.0
 76
     1
 77
     6
 78
     2
 67
     7
 79
     5
170
     0
171
     0
290
     0
174
     0
 93
        1
 44
0.0
173
     0
291
     1
 45
0.0
1001
ACAD
1000
AcDbSavedByObjectVersion
1070
     0
  0
VISUALSTYLE
  5
36
102
{ACAD_REACTORS
330
2A
102
}
330
2A
100
AcDbVisualStyle
  2
Brighten
 70
    12
 71
     2
 72
     2
 73
     0
 90
        0
 40
-0.6
 41
-30.0
 62
     5
 63
     7
 74
     1
 91
        4
 64
     7
 65
   257
 75
     1
175
     1
 42
1.0
 92
        8
 66
     7
 43
1.0
 76
     1
 77
     6
 78
     2
 67
     7
 79
     5
170
     0
171
     0
290
     0
174
     0
 93
        1
 44
50.0
173
     0
291
     1
 45
0.0
1001
ACAD
1000
AcDbSavedByObjectVersion
1070
     0
  0
VISUALSTYLE
  5
3A
102
{ACAD_REACTORS
330
2A
102
}
330
2A
100
AcDbVisualStyle
  2
ColorChange
 70
    16
 71
     2
 72
     2
 73
     3
 90
        0
 40
-0.6
 41
-30.0
 62
     5
 63
     8
 74
     1
 91
        4
 64
     7
 65
   257
 75
     1
175
     1
 42
1.0
 92
        8
 66
     8
 43
1.0
 76
     1
 77
     6
 78
     2
 67
     7
 79
     5
170
     0
171
     0
290
     0
174
     0
 93
        1
 44
0.0
173
     0
291
     1
 45
0.0
1001
ACAD
1000
AcDbSavedByObjectVersion
1070
     0
  0
VISUALSTYLE
  5
34
102
{ACAD_REACTORS
330
2A
102
}
330
2A
100
AcDbVisualStyle
  2
Conceptual
 70
     9
 71
     3
 72
     2
 73
     0
 90
        0
 40
-0.6
 41
-30.0
 62
     5
 63
     7
 74
     2
 91
        2
 64
     7
 65
   257
 75
     1
175
     1
 42
40.0
 92
        8
 66
     7
 43
1.0
 76
     1
 77
     6
 78
     2
 67
     7
 79
     3
170
     0
171
     0
290
     0
174
     0
 93
        1
 44
0.0
173
     0
291
     0
 45
0.0
1001
ACAD
1000
AcDbSavedByObjectVersion
1070
     0
  0
VISUALSTYLE
  5
35
102
{ACAD_REACTORS
330
2A
102
}
330
2A
100
AcDbVisualStyle
  2
Dim
 70
    11
 71
     2
 72
     2
 73
     0
 90
        0
 40
-0.6
 41
-30.0
 62
     5
 63
     7
 74
     1
 91
        4
 64
     7
 65
   257
 75
     1
175
     1
 42
1.0
 92
        8
 66
     7
 43
1.0
 76
     1
 77
     6
 78
     2
 67
     7
 79
     5
170
     0
171
     0
290
     0
174
     0
 93
        1
 44
-50.0
173
     0
291
     1
 45
0.0
1001
ACAD
1000
AcDbSavedByObjectVersion
1070
     0
  0
VISUALSTYLE
  5
39
102
{ACAD_REACTORS
330
2A
102
}
330
2A
100
AcDbVisualStyle
  2
Facepattern
 70
    15
 71
     2
 72
     2
 73
     0
 90
        0
 40
-0.6
 41
-30.0
 62
     5
 63
     7
 74
     1
 91
        4
 64
     7
 65
   257
 75
     1
175
     1
 42
1.0
 92
        8
 66
     7
 43
1.0
 76
     1
 77
     6
 78
     2
 67
     7
 79
     5
170
     0
171
     0
290
     0
174
     0
 93
        1
 44
0.0
173
     0
291
     1
 45
0.0
1001
ACAD
1000
AcDbSavedByObjectVersion
1070
     0
  0
VISUALSTYLE
  5
2B
102
{ACAD_REACTORS
330
2A
102
}
330
2A
100
AcDbVisualStyle
  2
Flat
 70
     0
 71
     2
 72
     1
 73
     1
 90
        2
 40
-0.6
 41
30.0
 62
     5
 63
     7
 74
     0
 91
        4
 64
     7
 65
   257
 75
     1
175
     1
 42
1.0
 92
        8
 66
     7
 43
1.0
 76
     1
 77
     6
 78
     2
 67
     7
 79
     5
170
     0
171
     0
290
     0
174
     0
 93
       13
 44
0.0
173
     0
291
     1
 45
0.0
1001
ACAD
1000
AcDbSavedByObjectVersion
1070
     0
  0
VISUALSTYLE
  5
2C
102
{ACAD_REACTORS
330
2A
102
}
330
2A
100
AcDbVisualStyle
  2
FlatWithEdges
 70
     1
 71
     2
 72
     1
 73
     1
 90
        2
 40
-0.6
 41
30.0
 62
     5
 63
     7
 74
     1
 91
        4
 64
     7
 65
   257
 75
     1
175
     1
 42
1.0
 92
        0
 66
   257
 43
1.0
 76
     1
 77
     6
 78
     2
 67
     7
 79
     5
170
     0
171
     0
290
     0
174
     0
 93
       13
 44
0.0
173
     0
291
     1
 45
0.0
1001
ACAD
1000
AcDbSavedByObjectVersion
1070
     0
  0
VISUALSTYLE
  5
2D
102
{ACAD_REACTORS
330
2A
102
}
330
2A
100
AcDbVisualStyle
  2
Gouraud
 70
     2
 71
     2
 72
     2
 73
     1
 90
        2
 40
-0.6
 41
30.0
 62
     5
 63
     7
 74
     0
 91
        4
 64
     7
 65
   257
 75
     1
175
     1
 42
1.0
 92
        0
 66
     7
 43
1.0
 76
     1
 77
     6
 78
     2
 67
     7
 79
     5
170
     0
171
     0
290
     0
174
     0
 93
       13
 44
0.0
173
     0
291
     1
 45
0.0
1001
ACAD
1000
AcDbSavedByObjectVersion
1070
     0
  0
VISUALSTYLE
  5
2E
102
{ACAD_REACTORS
330
2A
102
}
330
2A
100
AcDbVisualStyle
  2
GouraudWithEdges
 70
     3
 71
     2
 72
     2
 73
     1
 90
        2
 40
-0.6
 41
30.0
 62
     5
 63
     7
 74
     1
 91
        4
 64
     7
 65
   257
 75
     1
175
     1
 42
1.0
 92
        0
 66
   257
 43
1.0
 76
     1
 77
     6
 78
     2
 67
     7
 79
     5
170
     0
171
     0
290
     0
174
     0
 93
       13
 44
0.0
173
     0
291
     1
 45
0.0
1001
ACAD
1000
AcDbSavedByObjectVersion
1070
     0
  0
VISUALSTYLE
  5
38
102
{ACAD_REACTORS
330
2A
102
}
330
2A
100
AcDbVisualStyle
  2
Linepattern
 70
    14
 71
     2
 72
     2
 73
     0
 90
        0
 40
-0.6
 41
-30.0
 62
     5
 63
     7
 74
     1
 91
        4
 64
     7
 65
   257
 75
     7
175
     7
 42
1.0
 92
        8
 66
     7
 43
1.0
 76
     1
 77
     6
 78
     2
 67
     7
 79
     5
170
     0
171
     0
290
     0
174
     0
 93
        1
 44
0.0
173
     0
291
     1
 45
0.0
1001
ACAD
1000
AcDbSavedByObjectVersion
1070
     0
  0
VISUALSTYLE
  5
33
102
{ACAD_REACTORS
330
2A
102
}
330
2A
100
AcDbVisualStyle
  2
Realistic
 70
     8
 71
     2
 72
     2
 73
     0
 90
        0
 40
-0.6
 41
-30.0
 62
     5
 63
     7
 74
     1
 91
        0
 64
     7
 65
   257
 75
     1
175
     1
 42
1.0
 92
        8
 66
     8
 43
1.0
 76
     1
 77
     6
 78
     2
 67
     7
 79
     5
170
     0
171
     0
290
     0
174
     0
 93
       13
 44
0.0
173
     0
291
     0
 45
0.0
1001
ACAD
1000
AcDbSavedByObjectVersion
1070
     0
  0
VISUALSTYLE
  5
37
102
{ACAD_REACTORS
330
2A
102
}
330
2A
100
AcDbVisualStyle
  2
Thicken
 70
    13
 71
     2
 72
     2
 73
     0
 90
        0
 40
-0.6
 41
-30.0
 62
     5
 63
     7
 74
     1
 91
        4
 64
     7
 65
   257
 75
     1
175
     1
 42
1.0
 92
       12
 66
     7
 43
1.0
 76
     1
 77
     6
 78
     2
 67
     7
 79
     5
170
     0
171
     0
290
     0
174
     0
 93
        1
 44
0.0
173
     0
291
     1
 45
0.0
1001
ACAD
1000
AcDbSavedByObjectVersion
1070
     0
  0
ENDSEC
  0
EOF
