  0
SECTION
  2
HEADER
  9
$ACADVER
  1
AC1014
  9
$ACADMAINTVER
 70
             0
  9
$DWGCODEPAGE
  3
ANSI_1252
  9
$INSBASE
 10
0.0
 20
0.0
 30
0.0
  9
$EXTMIN
 10
-117.371043
 20
-165.932032946584
 30
0.0
  9
$EXTMAX
 10
372.81099799999998
 20
70.89630499999998
 30
0.0
  9
$LIMMIN
 10
0.0
 20
0.0
  9
$LIMMAX
 10
0.0
 20
0.0
  9
$ORTHOMODE
 70
             0
  9
$REGENMODE
 70
             1
  9
$FILLMODE
 70
             1
  9
$QTEXTMODE
 70
             0
  9
$MIRRTEXT
 70
             1
  9
$DRAGMODE
 70
             2
  9
$LTSCALE
 40
1.0
  9
$OSMODE
 70
             0
  9
$ATTMODE
 70
             1
  9
$TEXTSIZE
 40
0.2
  9
$TRACEWID
 40
0.05
  9
$TEXTSTYLE
  7
STANDARD
  9
$CLAYER
  8
0
  9
$CELTYPE
  6
CONTINUOUS
  9
$CECOLOR
 62
           256
  9
$CELTSCALE
 40
1.0
  9
$DELOBJ
 70
             1
  9
$DISPSILH
 70
             0
  9
$DIMSCALE
 40
1.0
  9
$DIMASZ
 40
0.18
  9
$DIMEXO
 40
0.0625
  9
$DIMDLI
 40
0.38
  9
$DIMRND
 40
0.0
  9
$DIMDLE
 40
0.0
  9
$DIMEXE
 40
0.18
  9
$DIMTP
 40
0.0
  9
$DIMTM
 40
0.0
  9
$DIMTXT
 40
0.18
  9
$DIMCEN
 40
0.09
  9
$DIMTSZ
 40
0.0
  9
$DIMTOL
 70
             0
  9
$DIMLIM
 70
             0
  9
$DIMTIH
 70
             1
  9
$DIMTOH
 70
             1
  9
$DIMSE1
 70
             0
  9
$DIMSE2
 70
             0
  9
$DIMTAD
 70
             0
  9
$DIMZIN
 70
             0
  9
$DIMBLK
  1

  9
$DIMASO
 70
             1
  9
$DIMSHO
 70
             1
  9
$DIMPOST
  1

  9
$DIMAPOST
  1

  9
$DIMALT
 70
             0
  9
$DIMALTD
 70
             2
  9
$DIMALTF
 40
25.4
  9
$DIMLFAC
 40
1.0
  9
$DIMTOFL
 70
             0
  9
$DIMTVP
 40
0.0
  9
$DIMTIX
 70
             0
  9
$DIMSOXD
 70
             0
  9
$DIMSAH
 70
             0
  9
$DIMBLK1
  1

  9
$DIMBLK2
  1

  9
$DIMSTYLE
  2
STANDARD
  9
$DIMCLRD
 70
             0
  9
$DIMCLRE
 70
             0
  9
$DIMCLRT
 70
             0
  9
$DIMTFAC
 40
1.0
  9
$DIMGAP
 40
0.09
  9
$DIMJUST
 70
             0
  9
$DIMSD1
 70
             0
  9
$DIMSD2
 70
             0
  9
$DIMTOLJ
 70
             1
  9
$DIMTZIN
 70
             0
  9
$DIMALTZ
 70
             0
  9
$DIMALTTZ
 70
             0
  9
$DIMFIT
 70
             3
  9
$DIMUPT
 70
             0
  9
$DIMUNIT
 70
             2
  9
$DIMDEC
 70
             4
  9
$DIMTDEC
 70
             4
  9
$DIMALTU
 70
             2
  9
$DIMALTTD
 70
             2
  9
$DIMTXSTY
  7
STANDARD
  9
$DIMAUNIT
 70
             0
  9
$LUNITS
 70
             2
  9
$LUPREC
 70
             4
  9
$SKETCHINC
 40
0.1
  9
$FILLETRAD
 40
0.0
  9
$AUNITS
 70
             0
  9
$AUPREC
 70
             0
  9
$MENU
  1
acad
  9
$ELEVATION
 40
0.0
  9
$PELEVATION
 40
0.0
  9
$THICKNESS
 40
0.0
  9
$LIMCHECK
 70
             0
  9
$BLIPMODE
 70
             1
  9
$CHAMFERA
 40
0.0
  9
$CHAMFERB
 40
0.0
  9
$CHAMFERC
 40
0.0
  9
$CHAMFERD
 40
0.0
  9
$SKPOLY
 70
             0
  9
$TDCREATE
 40
0.000000000
  9
$TDUPDATE
 40
0.000000000
  9
$TDINDWG
 40
0.0000000000
  9
$TDUSRTIMER
 40
0.0000000000
  9
$USRTIMER
 70
             1
  9
$ANGBASE
 50
0.0
  9
$ANGDIR
 70
             0
  9
$PDMODE
 70
             0
  9
$PDSIZE
 40
0.0
  9
$PLINEWID
 40
0.0
  9
$COORDS
 70
             0
  9
$SPLFRAME
 70
             0
  9
$SPLINETYPE
 70
             6
  9
$SPLINESEGS
 70
             8
  9
$ATTDIA
 70
             0
  9
$ATTREQ
 70
             1
  9
$HANDLING
 70
             1
  9
$HANDSEED
  5
15B
  9
$SURFTAB1
 70
             6
  9
$SURFTAB2
 70
             6
  9
$SURFTYPE
 70
             6
  9
$SURFU
 70
             6
  9
$SURFV
 70
             6
  9
$UCSNAME
  2

  9
$UCSORG
 10
0.0
 20
0.0
 30
0.0
  9
$UCSXDIR
 10
1.0
 20
0.0
 30
0.0
  9
$UCSYDIR
 10
0.0
 20
1.0
 30
0.0
  9
$PUCSNAME
  2

  9
$PUCSORG
 10
0.0
 20
0.0
 30
0.0
  9
$PUCSXDIR
 10
1.0
 20
0.0
 30
0.0
  9
$PUCSYDIR
 10
0.0
 20
1.0
 30
0.0
  9
$USERI1
 70
             0
  9
$USERI2
 70
             0
  9
$USERI3
 70
             0
  9
$USERI4
 70
             0
  9
$USERI5
 70
             0
  9
$USERR1
 40
12.01
  9
$USERR2
 40
0.0
  9
$USERR3
 40
0.0
  9
$USERR4
 40
0.0
  9
$USERR5
 40
0.0
  9
$WORLDVIEW
 70
             1
  9
$SHADEDGE
 70
             3
  9
$SHADEDIF
 70
            70
  9
$TILEMODE
 70
             1
  9
$MAXACTVP
 70
            16
  9
$PINSBASE
 10
0.0
 20
0.0
 30
0.0
  9
$PLIMCHECK
 70
             0
  9
$PEXTMIN
 10
1.00000000000000E+20
 20
1.00000000000000E+20
 30
1.00000000000000E+20
  9
$PEXTMAX
 10
-1.00000000000000E+20
 20
-1.00000000000000E+20
 30
-1.00000000000000E+20
  9
$PLIMMIN
 10
0.0
 20
0.0
  9
$PLIMMAX
 10
12.0
 20
9.0
  9
$UNITMODE
 70
             0
  9
$VISRETAIN
 70
             0
  9
$PLINEGEN
 70
             1
  9
$PSLTSCALE
 70
             0
  9
$TREEDEPTH
 70
          3020
  9
$PICKSTYLE
 70
             1
  9
$CMLSTYLE
  2
STANDARD
  9
$CMLJUST
 70
             0
  9
$CMLSCALE
 40
1.0
  9
$PROXYGRAPHICS
 70
             0
  9
$MEASUREMENT
 70
             1
  0
ENDSEC
  0
SECTION
  2
CLASSES
  0
CLASS
  1
LWPOLYLINE
  2
AcDbPolyline
  3
"AutoCAD"
 90
        0
280
             0
281
             1
  0
CLASS
  1
IMAGE
  2
AcDbRasterImage
  3
ISM
 90
      127
280
             0
281
             1
  0
CLASS
  1
OLE2FRAME
  2
AcDbOle2Frame
  3
""
 90
        0
280
             0
281
             1
  0
CLASS
  1
HATCH
  2
AcDbHatch
  3
"ACAD_SEDONA"
 90
        0
280
             0
281
             1
  0
CLASS
  1
DICTIONARYVAR
  2
AcDbDictionaryVar
  3
"AutoCAD"
 90
        0
280
             0
281
             0
  0
CLASS
  1
RASTERVARIABLES
  2
AcDbRasterVariables
  3
ISM
 90
        0
280
             0
281
             0
  0
CLASS
  1
IMAGEDEF
  2
AcDbRasterImageDef
  3
ISM
 90
        0
280
             0
281
             0
  0
CLASS
  1
IMAGEDEF_REACTOR
  2
AcDbRasterImageDefReactor
  3
ISM
 90
        1
280
             0
281
             0
  0
CLASS
  1
IDBUFFER
  2
AcDbIdBuffer
  3
"Acad"
 90
        0
280
             0
281
             0
  0
CLASS
  1
SPATIAL_FILTER
  2
AcDbSpatialFilter
  3
"Acad"
 90
        0
280
             0
281
             0
  0
CLASS
  1
XRECORD
  2
AcDbXrecord
  3
"<Built In>"
 90
        0
280
             0
281
             0
  0
CLASS
  1
SORTENTSTABLE
  2
AcDbSortentsTable
  3
"AutoCAD"
 90
        0
280
             0
281
             0
  0
CLASS
  1
LAYER_INDEX
  2
AcDbLayerIndex
  3
"Acad"
 90
        0
280
             0
281
             0
  0
CLASS
  1
SPATIAL_INDEX
  2
AcDbSpatialIndex
  3
"Acad"
 90
        0
280
             0
281
             0
  0
CLASS
  1
OBJECT_PTR
  2
CAseDLPNTableRecord
  3
"ASE-LPNTableRecord"
 90
        1
280
             0
281
             0
  0
CLASS
  1
LAYOUT
  2
AcDbLayout
  3
"AutoCAD 2000"
 90
        0
280
             0
281
             0
  0
CLASS
  1
PLOTSETTINGS
  2
AcDbPlotSettings
  3
"AutoCAD 2000"
 90
        0
280
             0
281
             0
  0
CLASS
  1
ACDBDICTIONARYWDFLT
  2
AcDbDictionaryWithDefault
  3
"AutoCAD 2000"
 90
        0
280
             0
281
             0
  0
CLASS
  1
ACDBPLACEHOLDER
  2
AcDbPlaceHolder
  3
"AutoCAD 2000"
 90
        0
280
             0
281
             0
  0
ENDSEC
  0
SECTION
  2
TABLES
  0
TABLE
  2
VPORT
  5
7
100
AcDbSymbolTable
 70
             1
  0
VPORT
  5
15
100
AcDbSymbolTableRecord
100
AcDbViewportTableRecord
  2
*ACTIVE
 70
             0
 10
0.0
 20
0.0
 11
1.0
 21
1.0
 12
127.7199775
 22
-47.51786397329201
 13
0.0
 23
0.0
 14
1.0
 24
1.0
 15
0.0
 25
0.0
 16
0.0
 26
0.0
 36
1.0
 17
0.0
 27
0.0
 37
0.0
 40
336.43692173370488
 41
1.60267857142857
 42
50.0
 43
0.0
 44
0.0
 50
0.0
 51
0.0
 71
             0
 72
           100
 73
             1
 74
             1
 75
             0
 76
             0
 77
             0
 78
             0
  0
ENDTAB
  0
TABLE
  2
LTYPE
  5
4
100
AcDbSymbolTable
 70
            10
  0
LTYPE
  5
11
100
AcDbSymbolTableRecord
100
AcDbLinetypeTableRecord
  2
BYBLOCK
 70
            64
  3

 72
            65
 73
             0
 40
0.0
  0
LTYPE
  5
12
100
AcDbSymbolTableRecord
100
AcDbLinetypeTableRecord
  2
BYLAYER
 70
            64
  3

 72
            65
 73
             0
 40
0.0
  0
LTYPE
  5
13
100
AcDbSymbolTableRecord
100
AcDbLinetypeTableRecord
  2
CONTINUOUS
 70
            64
  3
Solid line
 72
            65
 73
             0
 40
0.0
  0
LTYPE
  5
1D
100
AcDbSymbolTableRecord
100
AcDbLinetypeTableRecord
  2
DASHED
 70
            64
  3
Dashed
 72
            65
 73
             2
 40
15.0
 49
7.0
 74
             0
 49
-8.0
 74
             0
  0
LTYPE
  5
1E
100
AcDbSymbolTableRecord
100
AcDbLinetypeTableRecord
  2
DOTTED
 70
            64
  3
Dotted
 72
            65
 73
             2
 40
1.0
 49
0.0
 74
             0
 49
-1.0
 74
             0
  0
LTYPE
  5
1F
100
AcDbSymbolTableRecord
100
AcDbLinetypeTableRecord
  2
DOT_CENTER
 70
            64
  3
Dot_Center
 72
            65
 73
             4
 40
14.0
 49
12.0
 74
             0
 49
-1.0
 74
             0
 49
0.0
 74
             0
 49
-1.0
 74
             0
  0
LTYPE
  5
20
100
AcDbSymbolTableRecord
100
AcDbLinetypeTableRecord
  2
LONG_DASHED
 70
            64
  3
Long_Dashed
 72
            65
 73
             2
 40
15.0
 49
10.0
 74
             0
 49
-5.0
 74
             0
  0
LTYPE
  5
21
100
AcDbSymbolTableRecord
100
AcDbLinetypeTableRecord
  2
DASH_CENTER
 70
            64
  3
Dash_Center
 72
            65
 73
             4
 40
14.0
 49
11.0
 74
             0
 49
-1.0
 74
             0
 49
1.0
 74
             0
 49
-1.0
 74
             0
  0
LTYPE
  5
22
100
AcDbSymbolTableRecord
100
AcDbLinetypeTableRecord
  2
PHANTOM
 70
            64
  3
Phantom
 72
            65
 73
             6
 40
13.0
 49
10.0
 74
             0
 49
-1.0
 74
             0
 49
0.0
 74
             0
 49
-1.0
 74
             0
 49
0.0
 74
             0
 49
-1.0
 74
             0
  0
LTYPE
  5
23
100
AcDbSymbolTableRecord
100
AcDbLinetypeTableRecord
  2
CENTER_DASH_DASH
 70
            64
  3
Center_Dash_Dash
 72
            65
 73
             6
 40
14.0
 49
9.0
 74
             0
 49
-1.0
 74
             0
 49
1.0
 74
             0
 49
-1.0
 74
             0
 49
1.0
 74
             0
 49
-1.0
 74
             0
  0
ENDTAB
  0
TABLE
  2
LAYER
  5
2
100
AcDbSymbolTable
 70
             6
  0
LAYER
  5
14
100
AcDbSymbolTableRecord
100
AcDbLayerTableRecord
  2
0
 70
             0
 62
             7
  6
CONTINUOUS
  0
LAYER
  5
24
100
AcDbSymbolTableRecord
100
AcDbLayerTableRecord
  2
1
 70
             0
 62
             7
  6
CONTINUOUS
  0
LAYER
  5
25
100
AcDbSymbolTableRecord
100
AcDbLayerTableRecord
  2
LC-001-002-----0
 70
             0
 62
             7
  6
CONTINUOUS
  0
LAYER
  5
26
100
AcDbSymbolTableRecord
100
AcDbLayerTableRecord
  2
LC-002-100-D03-0
 70
             0
 62
             7
  6
CONTINUOUS
  0
LAYER
  5
27
100
AcDbSymbolTableRecord
100
AcDbLayerTableRecord
  2
LC-003-002-RND-0
 70
             0
 62
             7
  6
CONTINUOUS
  0
LAYER
  5
28
100
AcDbSymbolTableRecord
100
AcDbLayerTableRecord
  2
LC-005-003-----0
 70
             0
 62
             7
  6
CONTINUOUS
  0
ENDTAB
  0
TABLE
  2
STYLE
  5
3
100
AcDbSymbolTable
 70
             2
  0
STYLE
  5
17
100
AcDbSymbolTableRecord
100
AcDbTextStyleTableRecord
  2
STANDARD
 70
             0
 40
0.0
 41
1.0
 50
0.0
 71
             0
 42
0.0
  3
txt
  4

  0
STYLE
  5
108
100
AcDbSymbolTableRecord
100
AcDbTextStyleTableRecord
  2
CONVERTER_1
 70
             0
 40
0.0
 41
0.9
 50
0.0
 71
             0
 42
0.0
  3
txt.shx
  4

  0
ENDTAB
  0
TABLE
  2
VIEW
  5
5
100
AcDbSymbolTable
 70
             0
  0
ENDTAB
  0
TABLE
  2
UCS
  5
6
100
AcDbSymbolTable
 70
             0
  0
ENDTAB
  0
TABLE
  2
APPID
  5
8
100
AcDbSymbolTable
 70
             1
  0
APPID
  5
16
100
AcDbSymbolTableRecord
100
AcDbRegAppTableRecord
  2
ACAD
 70
             0
  0
ENDTAB
  0
TABLE
  2
DIMSTYLE
  5
9
100
AcDbSymbolTable
 70
             9
  0
DIMSTYLE
105
18
100
AcDbSymbolTableRecord
100
AcDbDimStyleTableRecord
  2
STANDARD
 70
             0
  3

  4

  5

  6

  7

 40
1.0
 41
0.18
 42
0.0625
 43
0.38
 44
0.18
 45
0.0
 46
0.0
 47
0.0
 48
0.0
 71
             0
 72
             0
 73
             1
 74
             1
 75
             0
 76
             0
 77
             0
 78
             0
140
0.18
141
0.09
142
0.0
143
25.4
144
1.0
145
0.0
146
1.0
147
0.09
170
             0
171
             2
172
             0
173
             0
174
             0
175
             0
176
             0
177
             0
178
             0
270
             2
271
             4
272
             4
273
             2
274
             2
275
             0
280
             0
281
             0
282
             0
283
             1
284
             0
285
             0
286
             0
287
             3
288
             0
340
17
  0
DIMSTYLE
105
10B
100
AcDbSymbolTableRecord
100
AcDbDimStyleTableRecord
  2
ME10_DIM_0
 70
             0
  3
Ø<>
  4

  5

  6

  7

 40
1.0
 41
7.0
 42
0.0
 43
0.38
 44
2.0
 45
0.0
 46
0.0
 47
0.0
 48
0.0
 71
             0
 72
             0
 73
             0
 74
             0
 75
             0
 76
             0
 77
             1
 78
             8
140
7.0
141
0.09
142
0.0
143
25.4
144
1.0
145
0.0
146
1.0
147
0.625
170
             0
171
             2
172
             1
173
             1
174
             0
175
             0
176
             4
177
             4
178
             1
270
             2
271
             2
272
             4
273
             2
274
             2
275
             0
280
             0
281
             0
282
             0
283
             1
284
             0
285
             0
286
             0
287
             3
288
             0
340
108
  0
DIMSTYLE
105
116
100
AcDbSymbolTableRecord
100
AcDbDimStyleTableRecord
  2
ME10_DIM_1
 70
             0
  3
Ø<>
  4

  5

  6

  7

 40
1.0
 41
7.0
 42
0.0
 43
0.38
 44
2.0
 45
0.0
 46
0.0
 47
0.0
 48
0.0
 71
             0
 72
             0
 73
             0
 74
             0
 75
             0
 76
             0
 77
             1
 78
             8
140
7.0
141
0.09
142
0.0
143
25.4
144
1.0
145
0.0
146
1.0
147
0.625
170
             0
171
             2
172
             1
173
             1
174
             0
175
             0
176
             4
177
             4
178
             1
270
             2
271
             2
272
             4
273
             2
274
             2
275
             0
280
             0
281
             0
282
             0
283
             1
284
             0
285
             0
286
             0
287
             3
288
             0
340
108
  0
DIMSTYLE
105
121
100
AcDbSymbolTableRecord
100
AcDbDimStyleTableRecord
  2
ME10_DIM_2
 70
             0
  3
Ø<>
  4

  5

  6

  7

 40
1.0
 41
7.0
 42
0.0
 43
0.38
 44
2.0
 45
0.0
 46
0.0
 47
0.0
 48
0.0
 71
             0
 72
             0
 73
             0
 74
             0
 75
             0
 76
             0
 77
             1
 78
             8
140
7.0
141
0.09
142
0.0
143
25.4
144
1.0
145
0.0
146
1.0
147
0.625
170
             0
171
             2
172
             1
173
             1
174
             0
175
             0
176
             4
177
             4
178
             1
270
             2
271
             2
272
             4
273
             2
274
             2
275
             0
280
             0
281
             0
282
             0
283
             1
284
             0
285
             0
286
             0
287
             3
288
             0
340
108
  0
DIMSTYLE
105
12C
100
AcDbSymbolTableRecord
100
AcDbDimStyleTableRecord
  2
ME10_DIM_3
 70
             0
  3
Ø<>
  4

  5

  6

  7

 40
1.0
 41
7.0
 42
0.0
 43
0.38
 44
2.0
 45
0.0
 46
0.0
 47
0.0
 48
0.0
 71
             0
 72
             0
 73
             0
 74
             0
 75
             0
 76
             0
 77
             1
 78
             8
140
7.0
141
0.09
142
0.0
143
25.4
144
1.0
145
0.0
146
1.0
147
0.625
170
             0
171
             2
172
             1
173
             1
174
             0
175
             0
176
             4
177
             4
178
             1
270
             2
271
             2
272
             4
273
             2
274
             2
275
             0
280
             0
281
             0
282
             0
283
             1
284
             0
285
             0
286
             0
287
             3
288
             0
340
108
  0
DIMSTYLE
105
137
100
AcDbSymbolTableRecord
100
AcDbDimStyleTableRecord
  2
ME10_DIM_4
 70
             0
  3
Ø<>
  4

  5

  6

  7

 40
1.0
 41
7.0
 42
0.0
 43
0.38
 44
2.0
 45
0.0
 46
0.0
 47
0.0
 48
0.0
 71
             0
 72
             0
 73
             0
 74
             0
 75
             0
 76
             0
 77
             1
 78
             8
140
7.0
141
0.09
142
0.0
143
25.4
144
1.0
145
0.0
146
1.0
147
0.625
170
             0
171
             2
172
             1
173
             1
174
             0
175
             0
176
             4
177
             4
178
             1
270
             2
271
             2
272
             4
273
             2
274
             2
275
             0
280
             0
281
             0
282
             0
283
             1
284
             0
285
             0
286
             0
287
             3
288
             0
340
108
  0
DIMSTYLE
105
142
100
AcDbSymbolTableRecord
100
AcDbDimStyleTableRecord
  2
ME10_DIM_5
 70
             0
  3

  4

  5

  6

  7

 40
1.0
 41
7.0
 42
0.0
 43
0.38
 44
2.0
 45
0.0
 46
0.0
 47
0.0
 48
0.0
 71
             0
 72
             0
 73
             0
 74
             0
 75
             0
 76
             0
 77
             1
 78
             8
140
7.0
141
0.09
142
0.0
143
25.4
144
1.0
145
0.0
146
1.0
147
0.625
170
             0
171
             2
172
             1
173
             1
174
             0
175
             0
176
             4
177
             4
178
             1
270
             2
271
             2
272
             4
273
             2
274
             2
275
             0
280
             0
281
             0
282
             0
283
             1
284
             0
285
             0
286
             0
287
             3
288
             0
340
108
  0
DIMSTYLE
105
14D
100
AcDbSymbolTableRecord
100
AcDbDimStyleTableRecord
  2
ME10_DIM_6
 70
             0
  3

  4

  5

  6

  7

 40
1.0
 41
7.0
 42
0.0
 43
0.38
 44
2.0
 45
0.0
 46
0.0
 47
0.0
 48
0.0
 71
             0
 72
             0
 73
             0
 74
             0
 75
             0
 76
             0
 77
             1
 78
             8
140
7.0
141
0.09
142
0.0
143
25.4
144
1.0
145
0.0
146
1.0
147
0.625
170
             0
171
             2
172
             1
173
             1
174
             0
175
             0
176
             4
177
             4
178
             1
270
             2
271
             2
272
             4
273
             2
274
             2
275
             0
280
             0
281
             0
282
             0
283
             1
284
             0
285
             0
286
             0
287
             3
288
             0
340
108
  0
DIMSTYLE
105
158
100
AcDbSymbolTableRecord
100
AcDbDimStyleTableRecord
  2
ME10_DIM_7
 70
             0
  3

  4

  5

  6

  7

 40
1.0
 41
7.0
 42
0.0
 43
0.38
 44
2.0
 45
0.0
 46
0.0
 47
0.0
 48
0.0
 71
             0
 72
             0
 73
             0
 74
             0
 75
             0
 76
             0
 77
             1
 78
             8
140
7.0
141
0.09
142
0.0
143
25.4
144
1.0
145
0.0
146
1.0
147
0.625
170
             0
171
             2
172
             1
173
             1
174
             0
175
             0
176
             4
177
             4
178
             1
270
             2
271
             2
272
             4
273
             2
274
             2
275
             0
280
             0
281
             0
282
             0
283
             1
284
             0
285
             0
286
             0
287
             3
288
             0
340
108
  0
ENDTAB
  0
TABLE
  2
BLOCK_RECORD
  5
1
100
AcDbSymbolTable
 70
            10
  0
BLOCK_RECORD
  5
A
100
AcDbSymbolTableRecord
100
AcDbBlockTableRecord
  2
*MODEL_SPACE
  0
BLOCK_RECORD
  5
B
100
AcDbSymbolTableRecord
100
AcDbBlockTableRecord
  2
*PAPER_SPACE
  0
BLOCK_RECORD
  5
29
100
AcDbSymbolTableRecord
100
AcDbBlockTableRecord
  2
HL_830_BRANDSCHUTZELEMT__1
  0
BLOCK_RECORD
  5
2B
100
AcDbSymbolTableRecord
100
AcDbBlockTableRecord
  2
HL_830_BRANDSCHUTZELEMT__2
  0
BLOCK_RECORD
  5
101
100
AcDbSymbolTableRecord
100
AcDbBlockTableRecord
  2
*D2
  0
BLOCK_RECORD
  5
10D
100
AcDbSymbolTableRecord
100
AcDbBlockTableRecord
  2
*D3
  0
BLOCK_RECORD
  5
118
100
AcDbSymbolTableRecord
100
AcDbBlockTableRecord
  2
*D4
  0
BLOCK_RECORD
  5
123
100
AcDbSymbolTableRecord
100
AcDbBlockTableRecord
  2
*D5
  0
BLOCK_RECORD
  5
12E
100
AcDbSymbolTableRecord
100
AcDbBlockTableRecord
  2
*D6
  0
BLOCK_RECORD
  5
139
100
AcDbSymbolTableRecord
100
AcDbBlockTableRecord
  2
*D7
  0
BLOCK_RECORD
  5
144
100
AcDbSymbolTableRecord
100
AcDbBlockTableRecord
  2
*D8
  0
BLOCK_RECORD
  5
14F
100
AcDbSymbolTableRecord
100
AcDbBlockTableRecord
  2
*D9
  0
ENDTAB
  0
ENDSEC
  0
SECTION
  2
BLOCKS
  0
BLOCK
  5
D
100
AcDbEntity
  8
0
100
AcDbBlockBegin
  2
*MODEL_SPACE
 70
             0
 10
0.0
 20
0.0
 30
0.0
  3
*MODEL_SPACE
  1

  0
ENDBLK
  5
E
100
AcDbEntity
  8
0
100
AcDbBlockEnd
  0
BLOCK
  5
F
100
AcDbEntity
 67
             1
  8
0
100
AcDbBlockBegin
  2
*PAPER_SPACE
 70
             0
 10
0.0
 20
0.0
 30
0.0
  3
*PAPER_SPACE
  1

  0
ENDBLK
  5
10
100
AcDbEntity
 67
             1
  8
0
100
AcDbBlockEnd
  0
BLOCK
  5
2A
100
AcDbEntity
  8
0
100
AcDbBlockBegin
  2
HL_830_BRANDSCHUTZELEMT__1
 70
             0
 10
395.442904
 20
270.13571000000002
 30
0.0
  3
HL_830_BRANDSCHUTZELEMT__1
  1

  0
CIRCLE
  5
B2
100
AcDbEntity
  8
LC-001-002-----0
  6
CONTINUOUS
 62
             7
100
AcDbCircle
 10
282.781091
 20
-34.5
 40
35.0
  0
CIRCLE
  5
B1
100
AcDbEntity
  8
LC-001-002-----0
  6
CONTINUOUS
 62
             7
100
AcDbCircle
 10
282.781091
 20
-34.5
 40
43.41005999999999
  0
CIRCLE
  5
B0
100
AcDbEntity
  8
LC-001-002-----0
  6
CONTINUOUS
 62
             7
100
AcDbCircle
 10
282.781091
 20
-34.5
 40
48.5
  0
CIRCLE
  5
AF
100
AcDbEntity
  8
LC-001-002-----0
  6
CONTINUOUS
 62
             7
100
AcDbCircle
 10
282.781091
 20
-34.5
 40
51.5
  0
CIRCLE
  5
AE
100
AcDbEntity
  8
LC-001-002-----0
  6
CONTINUOUS
 62
             7
100
AcDbCircle
 10
282.781091
 20
-34.5
 40
54.75
  0
ARC
  5
AD
100
AcDbEntity
  8
LC-001-002-----0
  6
CONTINUOUS
 62
             7
100
AcDbCircle
 10
282.781091
 20
-34.5
 40
81.84537
100
AcDbArc
 50
65.25774400000013
 51
69.82498700000019
  0
ARC
  5
AC
100
AcDbEntity
  8
LC-001-002-----0
  6
CONTINUOUS
 62
             7
100
AcDbCircle
 10
282.781091
 20
-34.5
 40
68.24476299999976
100
AcDbArc
 50
66.30946699999981
 51
173.69053300000033
  0
ARC
  5
AB
100
AcDbEntity
  8
LC-001-002-----0
  6
CONTINUOUS
 62
             7
100
AcDbCircle
 10
282.781091
 20
-34.5
 40
60.25000000000028
100
AcDbArc
 50
67.15080400000061
 51
172.84919599999975
  0
ARC
  5
AA
100
AcDbEntity
  8
LC-001-002-----0
  6
CONTINUOUS
 62
             7
100
AcDbCircle
 10
282.781091
 20
-34.5
 40
60.25000000000019
100
AcDbArc
 50
-52.84919600000023
 51
52.84919600000023
  0
ARC
  5
A9
100
AcDbEntity
  8
LC-001-002-----0
  6
CONTINUOUS
 62
             7
100
AcDbCircle
 10
282.781091
 20
-34.5
 40
68.24476299999995
100
AcDbArc
 50
-53.69053300000018
 51
53.69053300000018
  0
ARC
  5
A8
100
AcDbEntity
  8
LC-001-002-----0
  6
CONTINUOUS
 62
             7
100
AcDbCircle
 10
282.781091
 20
-34.5
 40
81.84536999999988
100
AcDbArc
 50
-54.74225599999988
 51
-50.17501300000016
  0
ARC
  5
A7
100
AcDbEntity
  8
LC-001-002-----0
  6
CONTINUOUS
 62
             7
100
AcDbCircle
 10
282.781091
 20
-34.5
 40
60.24999999999958
100
AcDbArc
 50
-172.84919599999975
 51
-67.15080400000022
  0
ARC
  5
A6
100
AcDbEntity
  8
LC-001-002-----0
  6
CONTINUOUS
 62
             7
100
AcDbCircle
 10
282.781091
 20
-34.5
 40
68.24476299999986
100
AcDbArc
 50
-173.69053300000033
 51
-66.30946699999981
  0
ARC
  5
A5
100
AcDbEntity
  8
LC-001-002-----0
  6
CONTINUOUS
 62
             7
100
AcDbCircle
 10
282.781091
 20
-34.5
 40
81.84536999999993
100
AcDbArc
 50
-174.74225599999977
 51
-170.17501299999989
  0
ARC
  5
A4
100
AcDbEntity
  8
LC-001-002-----0
  6
CONTINUOUS
 62
             7
100
AcDbCircle
 10
282.781091
 20
-34.5
 40
81.84536999999962
100
AcDbArc
 50
0.17501300000003
 51
9.82498700000013
  0
ARC
  5
A3
100
AcDbEntity
  8
LC-001-002-----0
  6
CONTINUOUS
 62
             7
100
AcDbCircle
 10
282.781091
 20
-34.5
 40
81.84536999999993
100
AcDbArc
 50
10.17501299999968
 51
19.82498700000032
  0
ARC
  5
A2
100
AcDbEntity
  8
LC-001-002-----0
  6
CONTINUOUS
 62
             7
100
AcDbCircle
 10
282.781091
 20
-34.5
 40
81.8453700000002
100
AcDbArc
 50
20.17501299999982
 51
29.82498699999979
  0
ARC
  5
A1
100
AcDbEntity
  8
LC-001-002-----0
  6
CONTINUOUS
 62
             7
100
AcDbCircle
 10
282.781091
 20
-34.5
 40
81.84536999999993
100
AcDbArc
 50
30.1750130000001
 51
39.82498699999985
  0
ARC
  5
A0
100
AcDbEntity
  8
LC-001-002-----0
  6
CONTINUOUS
 62
             7
100
AcDbCircle
 10
282.781091
 20
-34.5
 40
81.84537000000012
100
AcDbArc
 50
40.17501299999957
 51
49.82498700000043
  0
ARC
  5
9F
100
AcDbEntity
  8
LC-001-002-----0
  6
CONTINUOUS
 62
             7
100
AcDbCircle
 10
282.781091
 20
-34.5
 40
81.84537000000003
100
AcDbArc
 50
50.17501300000016
 51
54.74225599999987
  0
ARC
  5
9E
100
AcDbEntity
  8
LC-001-002-----0
  6
CONTINUOUS
 62
             7
100
AcDbCircle
 10
282.781091
 20
-34.5
 40
81.84536999999978
100
AcDbArc
 50
70.17501300000036
 51
79.82498700000033
  0
ARC
  5
9D
100
AcDbEntity
  8
LC-001-002-----0
  6
CONTINUOUS
 62
             7
100
AcDbCircle
 10
282.781091
 20
-34.5
 40
81.84536999999969
100
AcDbArc
 50
80.17501299999992
 51
89.82498699999998
  0
ARC
  5
9C
100
AcDbEntity
  8
LC-001-002-----0
  6
CONTINUOUS
 62
             7
100
AcDbCircle
 10
282.781091
 20
-34.5
 40
81.84536999999962
100
AcDbArc
 50
90.17501300000002
 51
99.82498700000011
  0
ARC
  5
9B
100
AcDbEntity
  8
LC-001-002-----0
  6
CONTINUOUS
 62
             7
100
AcDbCircle
 10
282.781091
 20
-34.5
 40
81.84536999999996
100
AcDbArc
 50
100.17501299999959
 51
109.82498700000033
  0
ARC
  5
9A
100
AcDbEntity
  8
LC-001-002-----0
  6
CONTINUOUS
 62
             7
100
AcDbCircle
 10
282.781091
 20
-34.5
 40
81.8453700000002
100
AcDbArc
 50
110.17501299999982
 51
119.82498699999977
  0
ARC
  5
99
100
AcDbEntity
  8
LC-001-002-----0
  6
CONTINUOUS
 62
             7
100
AcDbCircle
 10
282.781091
 20
-34.5
 40
81.8453699999999
100
AcDbArc
 50
120.17501300000008
 51
129.82498699999985
  0
ARC
  5
98
100
AcDbEntity
  8
LC-001-002-----0
  6
CONTINUOUS
 62
             7
100
AcDbCircle
 10
282.781091
 20
-34.5
 40
81.84537000000013
100
AcDbArc
 50
130.17501299999958
 51
139.82498700000045
  0
ARC
  5
97
100
AcDbEntity
  8
LC-001-002-----0
  6
CONTINUOUS
 62
             7
100
AcDbCircle
 10
282.781091
 20
-34.5
 40
81.84537000000003
100
AcDbArc
 50
140.17501300000015
 51
149.82498699999991
  0
ARC
  5
96
100
AcDbEntity
  8
LC-001-002-----0
  6
CONTINUOUS
 62
             7
100
AcDbCircle
 10
282.781091
 20
-34.5
 40
81.84536999999968
100
AcDbArc
 50
150.17501300000026
 51
159.82498700000019
  0
ARC
  5
95
100
AcDbEntity
  8
LC-001-002-----0
  6
CONTINUOUS
 62
             7
100
AcDbCircle
 10
282.781091
 20
-34.5
 40
81.84536999999982
100
AcDbArc
 50
160.17501300000032
 51
169.82498699999965
  0
ARC
  5
94
100
AcDbEntity
  8
LC-001-002-----0
  6
CONTINUOUS
 62
             7
100
AcDbCircle
 10
282.781091
 20
-34.5
 40
81.8453699999997
100
AcDbArc
 50
170.17501299999989
 51
174.74225599999977
  0
ARC
  5
93
100
AcDbEntity
  8
LC-001-002-----0
  6
CONTINUOUS
 62
             7
100
AcDbCircle
 10
282.781091
 20
-34.5
 40
81.84537000000002
100
AcDbArc
 50
-169.82498700000036
 51
-160.17501300000032
  0
ARC
  5
92
100
AcDbEntity
  8
LC-001-002-----0
  6
CONTINUOUS
 62
             7
100
AcDbCircle
 10
282.781091
 20
-34.5
 40
81.84537000000023
100
AcDbArc
 50
-159.82498700000019
 51
-150.17501300000026
  0
ARC
  5
91
100
AcDbEntity
  8
LC-001-002-----0
  6
CONTINUOUS
 62
             7
100
AcDbCircle
 10
282.781091
 20
-34.5
 40
81.84536999999996
100
AcDbArc
 50
-149.82498699999991
 51
-140.17501300000015
  0
ARC
  5
90
100
AcDbEntity
  8
LC-001-002-----0
  6
CONTINUOUS
 62
             7
100
AcDbCircle
 10
282.781091
 20
-34.5
 40
81.84537000000009
100
AcDbArc
 50
-139.82498700000045
 51
-130.17501299999958
  0
ARC
  5
8F
100
AcDbEntity
  8
LC-001-002-----0
  6
CONTINUOUS
 62
             7
100
AcDbCircle
 10
282.781091
 20
-34.5
 40
81.84537000000006
100
AcDbArc
 50
-129.82498699999985
 51
-120.17501300000008
  0
ARC
  5
8E
100
AcDbEntity
  8
LC-001-002-----0
  6
CONTINUOUS
 62
             7
100
AcDbCircle
 10
282.781091
 20
-34.5
 40
81.8453699999997
100
AcDbArc
 50
-119.82498699999977
 51
-110.17501299999981
  0
ARC
  5
8D
100
AcDbEntity
  8
LC-001-002-----0
  6
CONTINUOUS
 62
             7
100
AcDbCircle
 10
282.781091
 20
-34.5
 40
81.84537000000015
100
AcDbArc
 50
-109.82498700000032
 51
-100.17501299999958
  0
ARC
  5
8C
100
AcDbEntity
  8
LC-001-002-----0
  6
CONTINUOUS
 62
             7
100
AcDbCircle
 10
282.781091
 20
-34.5
 40
81.84536999999972
100
AcDbArc
 50
-99.82498700000011
 51
-90.17501300000002
  0
ARC
  5
8B
100
AcDbEntity
  8
LC-001-002-----0
  6
CONTINUOUS
 62
             7
100
AcDbCircle
 10
282.781091
 20
-34.5
 40
81.84537000000002
100
AcDbArc
 50
-79.82498700000033
 51
-70.17501299999968
  0
ARC
  5
8A
100
AcDbEntity
  8
LC-001-002-----0
  6
CONTINUOUS
 62
             7
100
AcDbCircle
 10
282.781091
 20
-34.5
 40
81.84536999999961
100
AcDbArc
 50
-89.82498699999998
 51
-80.17501299999992
  0
ARC
  5
89
100
AcDbEntity
  8
LC-001-002-----0
  6
CONTINUOUS
 62
             7
100
AcDbCircle
 10
282.781091
 20
-34.5
 40
81.84537000000022
100
AcDbArc
 50
-69.82498700000019
 51
-65.25774400000015
  0
ARC
  5
88
100
AcDbEntity
  8
LC-001-002-----0
  6
CONTINUOUS
 62
             7
100
AcDbCircle
 10
282.781091
 20
-34.5
 40
81.84537000000012
100
AcDbArc
 50
-49.82498700000043
 51
-40.17501299999957
  0
ARC
  5
87
100
AcDbEntity
  8
LC-001-002-----0
  6
CONTINUOUS
 62
             7
100
AcDbCircle
 10
282.781091
 20
-34.5
 40
81.84537000000003
100
AcDbArc
 50
-39.82498699999985
 51
-30.1750130000001
  0
ARC
  5
86
100
AcDbEntity
  8
LC-001-002-----0
  6
CONTINUOUS
 62
             7
100
AcDbCircle
 10
282.781091
 20
-34.5
 40
81.84536999999958
100
AcDbArc
 50
-29.82498699999979
 51
-20.17501299999982
  0
ARC
  5
85
100
AcDbEntity
  8
LC-001-002-----0
  6
CONTINUOUS
 62
             7
100
AcDbCircle
 10
282.781091
 20
-34.5
 40
81.84537000000012
100
AcDbArc
 50
-19.82498700000032
 51
-10.17501299999968
  0
ARC
  5
84
100
AcDbEntity
  8
LC-001-002-----0
  6
CONTINUOUS
 62
             7
100
AcDbCircle
 10
282.781091
 20
-34.5
 40
81.84536999999959
100
AcDbArc
 50
-9.82498700000013
 51
-0.17501300000003
  0
LINE
  5
83
100
AcDbEntity
  8
1
  6
PHANTOM
 62
             2
100
AcDbLine
 10
282.781091
 20
55.52990700000015
 11
282.781091
 21
-124.52990700000019
  0
LINE
  5
82
100
AcDbEntity
  8
1
  6
PHANTOM
 62
             2
100
AcDbLine
 10
372.81099799999998
 20
-34.5
 11
192.7511839999998
 21
-34.5
  0
LINE
  5
81
100
AcDbEntity
  8
LC-001-002-----0
  6
CONTINUOUS
 62
             7
100
AcDbLine
 10
165.41004699999999
 20
-27.0
 11
228.547222
 21
-27.0
  0
LINE
  5
80
100
AcDbEntity
  8
LC-001-002-----0
  6
CONTINUOUS
 62
             7
100
AcDbLine
 10
165.41004699999999
 20
-42.0
 11
228.547222
 21
-42.0
  0
LINE
  5
7F
100
AcDbEntity
  8
LC-001-002-----0
  6
CONTINUOUS
 62
             7
100
AcDbLine
 10
165.41004699999999
 20
-27.0
 11
165.41004699999999
 21
-42.0
  0
LINE
  5
7E
100
AcDbEntity
  8
LC-001-002-----0
  6
CONTINUOUS
 62
             7
100
AcDbLine
 10
334.97142200000002
 20
-139.89630500000001
 11
303.40283399999998
 21
-85.21790800000002
  0
LINE
  5
7D
100
AcDbEntity
  8
LC-001-002-----0
  6
CONTINUOUS
 62
             7
100
AcDbLine
 10
347.96180299999992
 20
-132.39630500000001
 11
316.39321499999988
 21
-77.71790800000002
  0
LINE
  5
7C
100
AcDbEntity
  8
LC-001-002-----0
  6
CONTINUOUS
 62
             7
100
AcDbLine
 10
334.97142200000002
 20
-139.89630500000001
 11
347.96180299999992
 21
-132.39630500000001
  0
LINE
  5
7B
100
AcDbEntity
  8
LC-001-002-----0
  6
CONTINUOUS
 62
             7
100
AcDbLine
 10
347.96180299999992
 20
63.39630499999998
 11
316.39321499999988
 21
8.71790800000002
  0
LINE
  5
7A
100
AcDbEntity
  8
LC-001-002-----0
  6
CONTINUOUS
 62
             7
100
AcDbLine
 10
334.97142200000002
 20
70.89630499999998
 11
303.40283399999998
 21
16.21790800000002
  0
LINE
  5
79
100
AcDbEntity
  8
LC-001-002-----0
  6
CONTINUOUS
 62
             7
100
AcDbLine
 10
347.96180299999992
 20
63.39630499999998
 11
334.97142200000002
 21
70.89630499999998
  0
LINE
  5
78
100
AcDbEntity
  8
LC-005-003-----0
  6
CONTINUOUS
 62
             2
100
AcDbLine
 10
192.40840600000001
 20
-27.0
 11
192.40840600000001
 21
-42.0
  0
LINE
  5
77
100
AcDbEntity
  8
LC-005-003-----0
  6
CONTINUOUS
 62
             2
100
AcDbLine
 10
216.773844
 20
-27.0
 11
216.773844
 21
-42.0
  0
LINE
  5
76
100
AcDbEntity
  8
LC-005-003-----0
  6
CONTINUOUS
 62
             2
100
AcDbLine
 10
321.47224199999988
 20
-116.515041
 11
334.46262300000001
 21
-109.015041
  0
LINE
  5
75
100
AcDbEntity
  8
LC-005-003-----0
  6
CONTINUOUS
 62
             2
100
AcDbLine
 10
334.46262300000001
 20
40.01504
 11
321.47224199999988
 21
47.51504
  0
LINE
  5
74
100
AcDbEntity
  8
LC-005-003-----0
  6
CONTINUOUS
 62
             2
100
AcDbLine
 10
309.28952299999992
 20
-95.413952
 11
322.27990399999999
 21
-87.913952
  0
LINE
  5
73
100
AcDbEntity
  8
LC-005-003-----0
  6
CONTINUOUS
 62
             2
100
AcDbLine
 10
322.27990399999999
 20
18.913952
 11
309.28952299999992
 21
26.413952
  0
LINE
  5
72
100
AcDbEntity
  8
LC-001-002-----0
  6
CONTINUOUS
 62
             7
100
AcDbLine
 10
351.025395
 20
-34.75
 11
364.626079
 21
-34.75
  0
LINE
  5
71
100
AcDbEntity
  8
LC-001-002-----0
  6
CONTINUOUS
 62
             7
100
AcDbLine
 10
351.025395
 20
-34.25
 11
364.626079
 21
-34.25
  0
LINE
  5
70
100
AcDbEntity
  8
LC-001-002-----0
  6
CONTINUOUS
 62
             7
100
AcDbLine
 10
350.03202299999998
 20
-22.89570300000003
 11
363.42608100000001
 21
-20.53396900000001
  0
LINE
  5
6F
100
AcDbEntity
  8
LC-001-002-----0
  6
CONTINUOUS
 62
             7
100
AcDbLine
 10
349.945199
 20
-22.403299
 11
363.33925699999998
 21
-20.04156499999999
  0
LINE
  5
6E
100
AcDbEntity
  8
LC-001-002-----0
  6
CONTINUOUS
 62
             7
100
AcDbLine
 10
346.99526500000002
 20
-11.39399600000002
 11
359.77572700000002
 21
-6.74228900000003
  0
LINE
  5
6D
100
AcDbEntity
  8
LC-001-002-----0
  6
CONTINUOUS
 62
             7
100
AcDbLine
 10
346.82425499999999
 20
-10.92415
 11
359.60471699999988
 21
-6.27244200000001
  0
LINE
  5
6C
100
AcDbEntity
  8
LC-001-002-----0
  6
CONTINUOUS
 62
             7
100
AcDbLine
 10
342.00739199999998
 20
-0.59435400000001
 11
353.78592900000001
 21
6.20598799999999
  0
LINE
  5
6B
100
AcDbEntity
  8
LC-001-002-----0
  6
CONTINUOUS
 62
             7
100
AcDbLine
 10
341.75739199999998
 20
-0.16134099999999
 11
353.53592900000001
 21
6.63900000000001
  0
LINE
  5
6A
100
AcDbEntity
  8
LC-001-002-----0
  6
CONTINUOUS
 62
             7
100
AcDbLine
 10
335.21995800000002
 20
9.17508199999997
 11
345.63868600000001
 21
17.91743300000002
  0
LINE
  5
69
100
AcDbEntity
  8
LC-001-002-----0
  6
CONTINUOUS
 62
             7
100
AcDbLine
 10
334.89856400000002
 20
9.55810400000001
 11
345.31729200000001
 21
18.300455
  0
LINE
  5
68
100
AcDbEntity
  8
LC-001-002-----0
  6
CONTINUOUS
 62
             7
100
AcDbLine
 10
326.83919500000002
 20
17.61747300000002
 11
335.581546
 21
28.03620100000001
  0
LINE
  5
67
100
AcDbEntity
  8
LC-001-002-----0
  6
CONTINUOUS
 62
             7
100
AcDbLine
 10
326.45617299999992
 20
17.93886700000002
 11
335.19852400000002
 21
28.357595
  0
LINE
  5
66
100
AcDbEntity
  8
LC-001-002-----0
  6
CONTINUOUS
 62
             7
100
AcDbLine
 10
306.35694100000001
 20
29.54316399999999
 11
311.00864799999999
 21
42.32362599999999
  0
LINE
  5
65
100
AcDbEntity
  8
LC-001-002-----0
  6
CONTINUOUS
 62
             7
100
AcDbLine
 10
305.88709399999988
 20
29.71417400000001
 11
310.53880199999992
 21
42.49463600000001
  0
LINE
  5
64
100
AcDbEntity
  8
LC-001-002-----0
  6
CONTINUOUS
 62
             7
100
AcDbLine
 10
294.877792
 20
32.664108
 11
297.23952600000001
 21
46.05816700000003
  0
LINE
  5
63
100
AcDbEntity
  8
LC-001-002-----0
  6
CONTINUOUS
 62
             7
100
AcDbLine
 10
294.38538799999992
 20
32.75093199999998
 11
296.74712199999999
 21
46.14499100000001
  0
LINE
  5
62
100
AcDbEntity
  8
LC-001-002-----0
  6
CONTINUOUS
 62
             7
100
AcDbLine
 10
283.031091
 20
33.744304
 11
283.031091
 21
47.344988
  0
LINE
  5
61
100
AcDbEntity
  8
LC-001-002-----0
  6
CONTINUOUS
 62
             7
100
AcDbLine
 10
282.531091
 20
33.744304
 11
282.531091
 21
47.344988
  0
LINE
  5
60
100
AcDbEntity
  8
LC-001-002-----0
  6
CONTINUOUS
 62
             7
100
AcDbLine
 10
271.17679299999998
 20
32.75093199999998
 11
268.81506000000002
 21
46.14499100000001
  0
LINE
  5
5F
100
AcDbEntity
  8
LC-001-002-----0
  6
CONTINUOUS
 62
             7
100
AcDbLine
 10
270.68439000000001
 20
32.664108
 11
268.32265599999988
 21
46.05816700000003
  0
LINE
  5
5E
100
AcDbEntity
  8
LC-001-002-----0
  6
CONTINUOUS
 62
             7
100
AcDbLine
 10
259.67508700000002
 20
29.71417400000001
 11
255.02337900000001
 21
42.49463600000001
  0
LINE
  5
5D
100
AcDbEntity
  8
LC-001-002-----0
  6
CONTINUOUS
 62
             7
100
AcDbLine
 10
259.205241
 20
29.54316399999999
 11
254.55353299999999
 21
42.32362599999999
  0
LINE
  5
5C
100
AcDbEntity
  8
LC-001-002-----0
  6
CONTINUOUS
 62
             7
100
AcDbLine
 10
248.87544500000001
 20
24.72630099999998
 11
242.07510300000001
 21
36.504839
  0
LINE
  5
5B
100
AcDbEntity
  8
LC-001-002-----0
  6
CONTINUOUS
 62
             7
100
AcDbLine
 10
248.442432
 20
24.47630099999998
 11
241.64209
 21
36.254839
  0
LINE
  5
5A
100
AcDbEntity
  8
LC-001-002-----0
  6
CONTINUOUS
 62
             7
100
AcDbLine
 10
239.106008
 20
17.93886700000002
 11
230.36365799999999
 21
28.357595
  0
LINE
  5
59
100
AcDbEntity
  8
LC-001-002-----0
  6
CONTINUOUS
 62
             7
100
AcDbLine
 10
238.72298599999999
 20
17.61747300000002
 11
229.98063500000001
 21
28.03620100000001
  0
LINE
  5
58
100
AcDbEntity
  8
LC-001-002-----0
  6
CONTINUOUS
 62
             7
100
AcDbLine
 10
230.66361699999999
 20
9.55810400000001
 11
220.244889
 21
18.300455
  0
LINE
  5
57
100
AcDbEntity
  8
LC-001-002-----0
  6
CONTINUOUS
 62
             7
100
AcDbLine
 10
230.34222299999999
 20
9.17508199999997
 11
219.923495
 21
17.91743300000002
  0
LINE
  5
56
100
AcDbEntity
  8
LC-001-002-----0
  6
CONTINUOUS
 62
             7
100
AcDbLine
 10
223.804789
 20
-0.16134099999999
 11
212.026252
 21
6.63900000000001
  0
LINE
  5
55
100
AcDbEntity
  8
LC-001-002-----0
  6
CONTINUOUS
 62
             7
100
AcDbLine
 10
223.554789
 20
-0.59435400000001
 11
211.776252
 21
6.20598799999999
  0
LINE
  5
54
100
AcDbEntity
  8
LC-001-002-----0
  6
CONTINUOUS
 62
             7
100
AcDbLine
 10
218.73792599999999
 20
-10.92415
 11
205.95746399999999
 21
-6.27244200000001
  0
LINE
  5
53
100
AcDbEntity
  8
LC-001-002-----0
  6
CONTINUOUS
 62
             7
100
AcDbLine
 10
218.56691599999999
 20
-11.39399600000002
 11
205.78645399999999
 21
-6.74228900000003
  0
LINE
  5
52
100
AcDbEntity
  8
LC-001-002-----0
  6
CONTINUOUS
 62
             7
100
AcDbLine
 10
215.61698200000001
 20
-22.403299
 11
202.22292400000001
 21
-20.04156499999999
  0
LINE
  5
51
100
AcDbEntity
  8
LC-001-002-----0
  6
CONTINUOUS
 62
             7
100
AcDbLine
 10
215.530158
 20
-22.89570300000003
 11
202.1361
 21
-20.53396900000001
  0
LINE
  5
50
100
AcDbEntity
  8
LC-001-002-----0
  6
CONTINUOUS
 62
             7
100
AcDbLine
 10
215.530158
 20
-46.10429699999997
 11
202.1361
 21
-48.46603099999999
  0
LINE
  5
4F
100
AcDbEntity
  8
LC-001-002-----0
  6
CONTINUOUS
 62
             7
100
AcDbLine
 10
215.61698200000001
 20
-46.596701
 11
202.22292400000001
 21
-48.95843500000001
  0
LINE
  5
4E
100
AcDbEntity
  8
LC-001-002-----0
  6
CONTINUOUS
 62
             7
100
AcDbLine
 10
218.56691599999999
 20
-57.60600399999998
 11
205.78645399999999
 21
-62.25771200000003
  0
LINE
  5
4D
100
AcDbEntity
  8
LC-001-002-----0
  6
CONTINUOUS
 62
             7
100
AcDbLine
 10
218.73792599999999
 20
-58.07585
 11
205.95746399999999
 21
-62.72755799999999
  0
LINE
  5
4C
100
AcDbEntity
  8
LC-001-002-----0
  6
CONTINUOUS
 62
             7
100
AcDbLine
 10
223.554789
 20
-68.40564599999999
 11
211.776252
 21
-75.20598799999999
  0
LINE
  5
4B
100
AcDbEntity
  8
LC-001-002-----0
  6
CONTINUOUS
 62
             7
100
AcDbLine
 10
223.804789
 20
-68.83865900000001
 11
212.026252
 21
-75.63900100000001
  0
LINE
  5
4A
100
AcDbEntity
  8
LC-001-002-----0
  6
CONTINUOUS
 62
             7
100
AcDbLine
 10
230.34222299999999
 20
-78.17508199999998
 11
219.923495
 21
-86.91743300000002
  0
LINE
  5
49
100
AcDbEntity
  8
LC-001-002-----0
  6
CONTINUOUS
 62
             7
100
AcDbLine
 10
230.66361699999999
 20
-78.55810500000001
 11
220.244889
 21
-87.300455
  0
LINE
  5
48
100
AcDbEntity
  8
LC-001-002-----0
  6
CONTINUOUS
 62
             7
100
AcDbLine
 10
238.72298599999999
 20
-86.61747400000002
 11
229.98063500000001
 21
-97.036202
  0
LINE
  5
47
100
AcDbEntity
  8
LC-001-002-----0
  6
CONTINUOUS
 62
             7
100
AcDbLine
 10
239.106008
 20
-86.93886700000002
 11
230.36365799999999
 21
-97.357595
  0
LINE
  5
46
100
AcDbEntity
  8
LC-001-002-----0
  6
CONTINUOUS
 62
             7
100
AcDbLine
 10
248.442432
 20
-93.47630199999998
 11
241.64209
 21
-105.254839
  0
LINE
  5
45
100
AcDbEntity
  8
LC-001-002-----0
  6
CONTINUOUS
 62
             7
100
AcDbLine
 10
248.87544500000001
 20
-93.72630199999998
 11
242.07510300000001
 21
-105.504839
  0
LINE
  5
44
100
AcDbEntity
  8
LC-001-002-----0
  6
CONTINUOUS
 62
             7
100
AcDbLine
 10
259.205241
 20
-98.54316499999999
 11
254.55353299999999
 21
-111.323626
  0
LINE
  5
43
100
AcDbEntity
  8
LC-001-002-----0
  6
CONTINUOUS
 62
             7
100
AcDbLine
 10
259.67508700000002
 20
-98.71417500000001
 11
255.02337900000001
 21
-111.494636
  0
LINE
  5
42
100
AcDbEntity
  8
LC-001-002-----0
  6
CONTINUOUS
 62
             7
100
AcDbLine
 10
270.68439000000001
 20
-101.664108
 11
268.32265599999988
 21
-115.058167
  0
LINE
  5
41
100
AcDbEntity
  8
LC-001-002-----0
  6
CONTINUOUS
 62
             7
100
AcDbLine
 10
271.17679299999998
 20
-101.750933
 11
268.81506000000002
 21
-115.144991
  0
LINE
  5
40
100
AcDbEntity
  8
LC-001-002-----0
  6
CONTINUOUS
 62
             7
100
AcDbLine
 10
282.531091
 20
-102.744305
 11
282.531091
 21
-116.344988
  0
LINE
  5
3F
100
AcDbEntity
  8
LC-001-002-----0
  6
CONTINUOUS
 62
             7
100
AcDbLine
 10
283.031091
 20
-102.744305
 11
283.031091
 21
-116.344988
  0
LINE
  5
3E
100
AcDbEntity
  8
LC-001-002-----0
  6
CONTINUOUS
 62
             7
100
AcDbLine
 10
294.38538799999992
 20
-101.750933
 11
296.74712199999999
 21
-115.144991
  0
LINE
  5
3D
100
AcDbEntity
  8
LC-001-002-----0
  6
CONTINUOUS
 62
             7
100
AcDbLine
 10
294.877792
 20
-101.664108
 11
297.23952600000001
 21
-115.058167
  0
LINE
  5
3C
100
AcDbEntity
  8
LC-001-002-----0
  6
CONTINUOUS
 62
             7
100
AcDbLine
 10
305.88709399999988
 20
-98.71417500000001
 11
310.53880199999992
 21
-111.494636
  0
LINE
  5
3B
100
AcDbEntity
  8
LC-001-002-----0
  6
CONTINUOUS
 62
             7
100
AcDbLine
 10
306.35694100000001
 20
-98.54316499999999
 11
311.00864799999999
 21
-111.323626
  0
LINE
  5
3A
100
AcDbEntity
  8
LC-001-002-----0
  6
CONTINUOUS
 62
             7
100
AcDbLine
 10
326.45617299999992
 20
-86.93886700000002
 11
335.19852400000002
 21
-97.357595
  0
LINE
  5
39
100
AcDbEntity
  8
LC-001-002-----0
  6
CONTINUOUS
 62
             7
100
AcDbLine
 10
326.83919500000002
 20
-86.61747400000002
 11
335.581546
 21
-97.036202
  0
LINE
  5
38
100
AcDbEntity
  8
LC-001-002-----0
  6
CONTINUOUS
 62
             7
100
AcDbLine
 10
334.89856400000002
 20
-78.55810500000001
 11
345.31729200000001
 21
-87.300455
  0
LINE
  5
37
100
AcDbEntity
  8
LC-001-002-----0
  6
CONTINUOUS
 62
             7
100
AcDbLine
 10
335.21995800000002
 20
-78.17508199999998
 11
345.63868600000001
 21
-86.91743300000002
  0
LINE
  5
36
100
AcDbEntity
  8
LC-001-002-----0
  6
CONTINUOUS
 62
             7
100
AcDbLine
 10
341.75739199999998
 20
-68.83865900000001
 11
353.53592900000001
 21
-75.63900100000001
  0
LINE
  5
35
100
AcDbEntity
  8
LC-001-002-----0
  6
CONTINUOUS
 62
             7
100
AcDbLine
 10
342.00739199999998
 20
-68.40564599999999
 11
353.78592900000001
 21
-75.20598799999999
  0
LINE
  5
34
100
AcDbEntity
  8
LC-001-002-----0
  6
CONTINUOUS
 62
             7
100
AcDbLine
 10
346.82425499999999
 20
-58.07585
 11
359.60471699999988
 21
-62.72755799999999
  0
LINE
  5
33
100
AcDbEntity
  8
LC-001-002-----0
  6
CONTINUOUS
 62
             7
100
AcDbLine
 10
346.99526500000002
 20
-57.60600399999998
 11
359.77572700000002
 21
-62.25771200000003
  0
LINE
  5
32
100
AcDbEntity
  8
LC-001-002-----0
  6
CONTINUOUS
 62
             7
100
AcDbLine
 10
349.945199
 20
-46.596701
 11
363.33925699999998
 21
-48.95843500000001
  0
LINE
  5
31
100
AcDbEntity
  8
LC-001-002-----0
  6
CONTINUOUS
 62
             7
100
AcDbLine
 10
350.03202299999998
 20
-46.10429699999997
 11
363.42608100000001
 21
-48.46603099999999
  0
ENDBLK
  5
B3
100
AcDbEntity
  8
0
100
AcDbBlockEnd
  0
BLOCK
  5
2C
100
AcDbEntity
  8
0
100
AcDbBlockBegin
  2
HL_830_BRANDSCHUTZELEMT__2
 70
             0
 10
112.66181400000001
 20
301.032015
 30
0.0
  3
HL_830_BRANDSCHUTZELEMT__2
  1

  0
ARC
  5
FE
100
AcDbEntity
  8
LC-003-002-RND-0
  6
CONTINUOUS
 62
             7
100
AcDbCircle
 10
-37.5
 20
-97.0
 40
6.0
100
AcDbArc
 50
180.0
 51
-90.0
  0
ARC
  5
FD
100
AcDbEntity
  8
LC-003-002-RND-0
  6
CONTINUOUS
 62
             7
100
AcDbCircle
 10
37.49999999999997
 20
-97.0
 40
6.0
100
AcDbArc
 50
-90.0
 51
0.0
  0
ARC
  5
FC
100
AcDbEntity
  8
LC-003-002-RND-0
  6
CONTINUOUS
 62
             7
100
AcDbCircle
 10
-48.5
 20
-64.19
 40
5.0
100
AcDbArc
 50
0.0
 51
90.0
  0
ARC
  5
FB
100
AcDbEntity
  8
LC-003-002-RND-0
  6
CONTINUOUS
 62
             7
100
AcDbCircle
 10
48.49999999999997
 20
-64.19
 40
5.0
100
AcDbArc
 50
90.0
 51
180.0
  0
ARC
  5
FA
100
AcDbEntity
  8
LC-003-002-RND-0
  6
CONTINUOUS
 62
             7
100
AcDbCircle
 10
63.00499999999997
 20
-53.19
 40
6.0
100
AcDbArc
 50
-90.0
 51
1.78395599999698
  0
ARC
  5
F9
100
AcDbEntity
  8
LC-003-002-RND-0
  6
CONTINUOUS
 62
             7
100
AcDbCircle
 10
-94.20931899999999
 20
29.0
 40
3.99999999999969
100
AcDbArc
 50
14.99999999999981
 51
90.0
  0
ARC
  5
F8
100
AcDbEntity
  8
LC-003-002-RND-0
  6
CONTINUOUS
 62
             7
100
AcDbCircle
 10
-94.20931899999999
 20
29.0
 40
4.99999999999976
100
AcDbArc
 50
15.00000000000532
 51
90.0
  0
ARC
  5
F7
100
AcDbEntity
  8
LC-003-002-RND-0
  6
CONTINUOUS
 62
             7
100
AcDbCircle
 10
55.723129
 20
28.0
 40
5.0
100
AcDbArc
 50
90.0
 51
172.36925999999607
  0
ARC
  5
F6
100
AcDbEntity
  8
LC-003-002-RND-0
  6
CONTINUOUS
 62
             7
100
AcDbCircle
 10
43.21510900000001
 20
29.0
 40
5.0
100
AcDbArc
 50
90.0
 51
172.36925999999607
  0
ARC
  5
F5
100
AcDbEntity
  8
LC-003-002-RND-0
  6
CONTINUOUS
 62
             7
100
AcDbCircle
 10
55.33946499999999
 20
29.0
 40
5.0
100
AcDbArc
 50
90.0
 51
172.36925999999599
  0
ARC
  5
F4
100
AcDbEntity
  8
LC-003-002-RND-0
  6
CONTINUOUS
 62
             7
100
AcDbCircle
 10
52.74999999999997
 20
-7.0
 40
2.0
100
AcDbArc
 50
0.0
 51
90.0
  0
ARC
  5
F3
100
AcDbEntity
  8
LC-002-100-D03-0
  6
CONTINUOUS
 62
             7
100
AcDbCircle
 10
52.74999999999997
 20
-18.54655300000002
 40
1.99999999999986
100
AcDbArc
 50
-60.00000099999625
 51
0.0
  0
ARC
  5
F2
100
AcDbEntity
  8
LC-003-002-RND-0
  6
CONTINUOUS
 62
             7
100
AcDbCircle
 10
-52.75
 20
-7.0
 40
2.0
100
AcDbArc
 50
90.0
 51
180.0
  0
ARC
  5
F1
100
AcDbEntity
  8
LC-002-100-D03-0
  6
CONTINUOUS
 62
             7
100
AcDbCircle
 10
-52.75
 20
-18.54655300000002
 40
2.0
100
AcDbArc
 50
180.0
 51
-119.99999900000307
  0
ARC
  5
F0
100
AcDbEntity
  8
LC-002-100-D03-0
  6
CONTINUOUS
 62
             7
100
AcDbCircle
 10
50.49999999999997
 20
-1.0
 40
1.0
100
AcDbArc
 50
0.0
 51
90.0
  0
ARC
  5
EF
100
AcDbEntity
  8
LC-002-100-D03-0
  6
CONTINUOUS
 62
             7
100
AcDbCircle
 10
-50.5
 20
-1.0
 40
1.0
100
AcDbArc
 50
90.0
 51
180.0
  0
ARC
  5
EE
100
AcDbEntity
  8
LC-001-002-----0
  6
CONTINUOUS
 62
             7
100
AcDbCircle
 10
-63.005
 20
-53.19
 40
5.9999999999995
100
AcDbArc
 50
178.21604400000302
 51
-90.0
  0
LINE
  5
ED
100
AcDbEntity
  8
1
  6
DOT_CENTER
 62
             2
100
AcDbLine
 10
45.99999999999997
 20
3.0
 11
45.99999999999997
 21
6.0
  0
LINE
  5
EC
100
AcDbEntity
  8
1
  6
DOT_CENTER
 62
             2
100
AcDbLine
 10
34.99999999999997
 20
-109.0
 11
34.99999999999997
 21
-106.0
  0
LINE
  5
EB
100
AcDbEntity
  8
1
  6
DOT_CENTER
 62
             2
100
AcDbLine
 10
-46.00000000000003
 20
6.0
 11
-46.00000000000003
 21
3.0
  0
LINE
  5
EA
100
AcDbEntity
  8
1
  6
DOT_CENTER
 62
             2
100
AcDbLine
 10
-35.00000000000003
 20
-106.0
 11
-35.00000000000003
 21
-109.0
  0
LINE
  5
E9
100
AcDbEntity
  8
1
  6
CONTINUOUS
 62
             3
100
AcDbLine
 10
-37.5
 20
-97.0
 11
37.49999999999997
 21
-97.0
  0
LINE
  5
E8
100
AcDbEntity
  8
1
  6
PHANTOM
 62
             2
100
AcDbLine
 10
-0.00000000000003
 20
4.92339325106201
 11
-0.00000000000003
 21
-108.308933391793
  0
LINE
  5
E7
100
AcDbEntity
  8
LC-001-002-----0
  6
CONTINUOUS
 62
             7
100
AcDbLine
 10
69.00209199999998
 20
-53.00321500000001
 11
-69.00209199999998
 21
-53.00321500000001
  0
LINE
  5
E6
100
AcDbEntity
  8
LC-001-002-----0
  6
CONTINUOUS
 62
             7
100
AcDbLine
 10
-48.75
 20
-23.16535499999998
 11
31.18160399999997
 21
-23.16535499999998
  0
LINE
  5
E5
100
AcDbEntity
  8
LC-001-002-----0
  6
CONTINUOUS
 62
             7
100
AcDbLine
 10
53.74999999999997
 20
-20.27860299999998
 11
43.692711
 21
-20.27860299999998
  0
LINE
  5
E4
100
AcDbEntity
  8
LC-001-002-----0
  6
CONTINUOUS
 62
             7
100
AcDbLine
 10
-48.75
 20
-49.337739
 11
48.74999999999997
 21
-49.337739
  0
LINE
  5
E3
100
AcDbEntity
  8
LC-002-100-D03-0
  6
CONTINUOUS
 62
             7
100
AcDbLine
 10
53.74999999999997
 20
-20.27860299999998
 11
48.74999999999997
 21
-23.16535499999998
  0
LINE
  5
E2
100
AcDbEntity
  8
LC-002-100-D03-0
  6
CONTINUOUS
 62
             7
100
AcDbLine
 10
50.49999999999997
 20
0.0
 11
48.49999999999997
 21
0.0
  0
LINE
  5
E1
100
AcDbEntity
  8
LC-002-100-D03-0
  6
CONTINUOUS
 62
             7
100
AcDbLine
 10
48.49999999999997
 20
0.0
 11
46.409528
 21
0.0
  0
LINE
  5
E0
100
AcDbEntity
  8
LC-001-002-----0
  6
CONTINUOUS
 62
             7
100
AcDbLine
 10
-43.5
 20
-64.19
 11
-43.5
 21
-97.0
  0
LINE
  5
DF
100
AcDbEntity
  8
LC-001-002-----0
  6
CONTINUOUS
 62
             7
100
AcDbLine
 10
43.49999999999997
 20
-97.0
 11
43.49999999999997
 21
-64.19
  0
LINE
  5
DE
100
AcDbEntity
  8
LC-001-002-----0
  6
CONTINUOUS
 62
             7
100
AcDbLine
 10
-37.5
 20
-103.0
 11
0.0
 21
-103.0
  0
LINE
  5
DD
100
AcDbEntity
  8
LC-001-002-----0
  6
CONTINUOUS
 62
             7
100
AcDbLine
 10
-63.005
 20
-59.19
 11
0.0
 21
-59.19
  0
LINE
  5
DC
100
AcDbEntity
  8
LC-001-002-----0
  6
CONTINUOUS
 62
             7
100
AcDbLine
 10
0.0
 20
-103.0
 11
37.49999999999997
 21
-103.0
  0
LINE
  5
DB
100
AcDbEntity
  8
LC-001-002-----0
  6
CONTINUOUS
 62
             7
100
AcDbLine
 10
0.0
 20
-59.19
 11
63.00504399999997
 21
-59.19
  0
LINE
  5
DA
100
AcDbEntity
  8
LC-001-002-----0
  6
CONTINUOUS
 62
             7
100
AcDbLine
 10
-117.371043
 20
33.0
 11
-117.371043
 21
34.0
  0
LINE
  5
D9
100
AcDbEntity
  8
LC-001-002-----0
  6
CONTINUOUS
 62
             7
100
AcDbLine
 10
-94.20931899999999
 20
33.0
 11
-117.371043
 21
33.0
  0
LINE
  5
D8
100
AcDbEntity
  8
LC-001-002-----0
  6
CONTINUOUS
 62
             7
100
AcDbLine
 10
-67.84831500000001
 20
-49.337739
 11
-89.37969000000001
 21
30.29409500000003
  0
LINE
  5
D7
100
AcDbEntity
  8
LC-001-002-----0
  6
CONTINUOUS
 62
             7
100
AcDbLine
 10
-94.20931899999999
 20
34.0
 11
-117.371043
 21
34.0
  0
LINE
  5
D6
100
AcDbEntity
  8
LC-001-002-----0
  6
CONTINUOUS
 62
             7
100
AcDbLine
 10
43.21510900000001
 20
34.0
 11
64.74769999999998
 21
34.0
  0
LINE
  5
D5
100
AcDbEntity
  8
LC-001-002-----0
  6
CONTINUOUS
 62
             7
100
AcDbLine
 10
55.723129
 20
33.0
 11
64.74769999999998
 21
33.0
  0
LINE
  5
D4
100
AcDbEntity
  8
LC-001-002-----0
  6
CONTINUOUS
 62
             7
100
AcDbLine
 10
64.74769999999998
 20
33.0
 11
64.74769999999998
 21
34.0
  0
LINE
  5
D3
100
AcDbEntity
  8
LC-001-002-----0
  6
CONTINUOUS
 62
             7
100
AcDbLine
 10
50.38374300000001
 20
29.66394100000002
 11
39.82498000000001
 21
-49.33773900000006
  0
LINE
  5
D2
100
AcDbEntity
  8
LC-001-002-----0
  6
CONTINUOUS
 62
             7
100
AcDbLine
 10
50.76740599999997
 20
28.66394100000002
 11
40.34261799999999
 21
-49.33773899999994
  0
LINE
  5
D1
100
AcDbEntity
  8
LC-001-002-----0
  6
CONTINUOUS
 62
             7
100
AcDbLine
 10
38.25938699999998
 20
29.66394100000002
 11
27.70062399999998
 21
-49.33773900000006
  0
LINE
  5
D0
100
AcDbEntity
  8
LC-001-002-----0
  6
CONTINUOUS
 62
             7
100
AcDbLine
 10
-69.00209199999998
 20
-53.00321500000001
 11
-82.00036900000001
 21
-49.62751700000001
  0
LINE
  5
CF
100
AcDbEntity
  8
LC-001-002-----0
  6
CONTINUOUS
 62
             7
100
AcDbLine
 10
-82.00036900000001
 20
-49.62751700000001
 11
-81.92272400000002
 21
-49.337739
  0
LINE
  5
CE
100
AcDbEntity
  8
LC-001-002-----0
  6
CONTINUOUS
 62
             7
100
AcDbLine
 10
69.00209199999998
 20
-53.00321500000001
 11
82.00036999999993
 21
-49.62751700000001
  0
LINE
  5
CD
100
AcDbEntity
  8
LC-001-002-----0
  6
CONTINUOUS
 62
             7
100
AcDbLine
 10
82.00036999999993
 20
-49.62751700000001
 11
81.92272399999999
 21
-49.337739
  0
LINE
  5
CC
100
AcDbEntity
  8
LC-001-002-----0
  6
CONTINUOUS
 62
             7
100
AcDbLine
 10
-81.92272400000002
 20
-49.337739
 11
-67.84831500000001
 21
-49.337739
  0
LINE
  5
CB
100
AcDbEntity
  8
LC-001-002-----0
  6
CONTINUOUS
 62
             7
100
AcDbLine
 10
54.74999999999997
 20
-18.54655300000002
 11
54.74999999999997
 21
-7.0
  0
LINE
  5
CA
100
AcDbEntity
  8
LC-001-002-----0
  6
CONTINUOUS
 62
             7
100
AcDbLine
 10
51.49999999999997
 20
-5.0
 11
51.49999999999997
 21
-1.0
  0
LINE
  5
C9
100
AcDbEntity
  8
LC-001-002-----0
  6
CONTINUOUS
 62
             7
100
AcDbLine
 10
52.74999999999997
 20
-5.0
 11
45.739655
 21
-5.0
  0
LINE
  5
C8
100
AcDbEntity
  8
LC-002-100-D03-0
  6
CONTINUOUS
 62
             7
100
AcDbLine
 10
-53.75
 20
-20.27860299999998
 11
-48.75
 21
-23.16535499999998
  0
LINE
  5
C7
100
AcDbEntity
  8
LC-002-100-D03-0
  6
CONTINUOUS
 62
             7
100
AcDbLine
 10
-50.5
 20
0.0
 11
-48.5
 21
0.0
  0
LINE
  5
C6
100
AcDbEntity
  8
LC-002-100-D03-0
  6
CONTINUOUS
 62
             7
100
AcDbLine
 10
-48.5
 20
0.0
 11
0.0
 21
0.0
  0
LINE
  5
C5
100
AcDbEntity
  8
LC-001-002-----0
  6
CONTINUOUS
 62
             7
100
AcDbLine
 10
-54.75
 20
-18.54655300000002
 11
-54.75
 21
-7.0
  0
LINE
  5
C4
100
AcDbEntity
  8
LC-001-002-----0
  6
CONTINUOUS
 62
             7
100
AcDbLine
 10
-51.5
 20
-5.0
 11
-51.5
 21
-1.0
  0
LINE
  5
C3
100
AcDbEntity
  8
LC-001-002-----0
  6
CONTINUOUS
 62
             7
100
AcDbLine
 10
-52.75
 20
-5.0
 11
0.0
 21
-5.0
  0
LINE
  5
C2
100
AcDbEntity
  8
LC-001-002-----0
  6
CONTINUOUS
 62
             7
100
AcDbLine
 10
48.74999999999997
 20
-49.337739
 11
48.74999999999997
 21
-23.16535499999998
  0
LINE
  5
C1
100
AcDbEntity
  8
LC-001-002-----0
  6
CONTINUOUS
 62
             7
100
AcDbLine
 10
-48.75
 20
-49.337739
 11
-48.75
 21
-23.16535499999998
  0
LINE
  5
C0
100
AcDbEntity
  8
LC-001-002-----0
  6
CONTINUOUS
 62
             7
100
AcDbLine
 10
-67.84831500000001
 20
-49.337739
 11
-48.75
 21
-49.337739
  0
LINE
  5
BF
100
AcDbEntity
  8
LC-001-002-----0
  6
CONTINUOUS
 62
             7
100
AcDbLine
 10
48.74999999999997
 20
-49.337739
 11
81.92272399999999
 21
-49.337739
  0
LINE
  5
BE
100
AcDbEntity
  8
LC-001-002-----0
  6
CONTINUOUS
 62
             7
100
AcDbLine
 10
-68.883591
 20
-49.337739
 11
-90.34561600000001
 21
30.03527600000001
  0
LINE
  5
BD
100
AcDbEntity
  8
LC-001-002-----0
  6
CONTINUOUS
 62
             7
100
AcDbLine
 10
43.305959
 20
-23.16535499999998
 11
48.74999999999997
 21
-23.16535499999998
  0
LINE
  5
BC
100
AcDbEntity
  8
LC-001-002-----0
  6
CONTINUOUS
 62
             7
100
AcDbLine
 10
31.56835499999997
 20
-20.27860299999998
 11
-53.75
 21
-20.27860299999998
  0
LINE
  5
BB
100
AcDbEntity
  8
LC-001-002-----0
  6
CONTINUOUS
 62
             7
100
AcDbLine
 10
33.61530000000002
 20
-5.0
 11
0.0
 21
-5.0
  0
LINE
  5
BA
100
AcDbEntity
  8
LC-002-100-D03-0
  6
CONTINUOUS
 62
             7
100
AcDbLine
 10
34.28517300000002
 20
0.0
 11
0.0
 21
0.0
  0
POINT
  5
B9
100
AcDbEntity
  8
LC-005-003-----0
 62
             7
100
AcDbPoint
 10
-48.5
 20
0.0
  0
POINT
  5
B8
100
AcDbEntity
  8
LC-005-003-----0
 62
             7
100
AcDbPoint
 10
49.49999999999997
 20
0.0
  0
POINT
  5
B7
100
AcDbEntity
  8
LC-005-003-----0
 62
             7
100
AcDbPoint
 10
37.49999999999997
 20
-103.0
  0
POINT
  5
B6
100
AcDbEntity
  8
LC-005-003-----0
 62
             7
100
AcDbPoint
 10
45.74999999999997
 20
-2.99960600000003
  0
POINT
  5
B5
100
AcDbEntity
  8
LC-005-003-----0
 62
             7
100
AcDbPoint
 10
50.49999999999997
 20
0.0
  0
POINT
  5
B4
100
AcDbEntity
  8
LC-005-003-----0
 62
             7
100
AcDbPoint
 10
64.74769999999998
 20
33.0
  0
ENDBLK
  5
FF
100
AcDbEntity
  8
0
100
AcDbBlockEnd
  0
BLOCK
  5
102
100
AcDbEntity
  8
0
100
AcDbBlockBegin
  2
*D2
 70
             1
 10
0.0
 20
0.0
 30
0.0
  3
*D2
  1

  0
LINE
  5
103
100
AcDbEntity
  8
0
  6
CONTINUOUS
 62
             4
100
AcDbLine
 10
-35.00000000000002
 20
-119.0
 11
34.99999999999998
 21
-119.0
  0
LINE
  5
104
100
AcDbEntity
  8
0
  6
CONTINUOUS
 62
             4
100
AcDbLine
 10
-35.00000000000002
 20
-109.0
 11
-35.00000000000002
 21
-121.0
  0
LINE
  5
105
100
AcDbEntity
  8
0
  6
CONTINUOUS
 62
             4
100
AcDbLine
 10
34.99999999999998
 20
-109.0
 11
34.99999999999998
 21
-121.0
  0
SOLID
  5
106
100
AcDbEntity
  8
0
 62
             4
100
AcDbTrace
 10
-28.00000000000002
 20
-118.07843251688823
 11
-28.00000000000002
 21
-119.92156748311177
 12
-35.00000000000002
 22
-119.0
 13
-35.00000000000002
 23
-119.0
  0
SOLID
  5
107
100
AcDbEntity
  8
0
 62
             4
100
AcDbTrace
 10
27.99999999999998
 20
-119.92156748311177
 11
27.99999999999998
 21
-118.07843251688823
 12
34.99999999999998
 22
-119.0
 13
34.99999999999998
 23
-119.0
  0
MTEXT
  5
109
100
AcDbEntity
  8
0
 62
             1
100
AcDbMText
 10
-17.58574829386813
 20
-117.00001391415265
 30
0.0
 40
7.0
 41
0.0
 71
             7
 72
             1
  1
\C1;Ø\C1;70
  7
CONVERTER_1
 11
0.99999999999706
 21
0.00000242406841
 31
0.0
  0
ENDBLK
  5
10A
100
AcDbEntity
  8
0
100
AcDbBlockEnd
  0
BLOCK
  5
10E
100
AcDbEntity
  8
0
100
AcDbBlockBegin
  2
*D3
 70
             1
 10
0.0
 20
0.0
 30
0.0
  3
*D3
  1

  0
LINE
  5
10F
100
AcDbEntity
  8
0
  6
CONTINUOUS
 62
             4
100
AcDbLine
 10
-43.5
 20
-135.9630842567
 11
43.49999999999997
 21
-135.9630842567
  0
LINE
  5
110
100
AcDbEntity
  8
0
  6
CONTINUOUS
 62
             4
100
AcDbLine
 10
-43.5
 20
-96.99999999999997
 11
-43.5
 21
-137.9630842567
  0
LINE
  5
111
100
AcDbEntity
  8
0
  6
CONTINUOUS
 62
             4
100
AcDbLine
 10
43.49999999999997
 20
-96.99999999999997
 11
43.49999999999997
 21
-137.9630842567
  0
SOLID
  5
112
100
AcDbEntity
  8
0
 62
             4
100
AcDbTrace
 10
-36.5
 20
-135.04151677358823
 11
-36.5
 21
-136.88465173981177
 12
-43.5
 22
-135.9630842567
 13
-43.5
 23
-135.9630842567
  0
SOLID
  5
113
100
AcDbEntity
  8
0
 62
             4
100
AcDbTrace
 10
36.49999999999997
 20
-136.88465173981177
 11
36.49999999999997
 21
-135.04151677358823
 12
43.49999999999997
 22
-135.9630842567
 13
43.49999999999997
 23
-135.9630842567
  0
MTEXT
  5
114
100
AcDbEntity
  8
0
 62
             1
100
AcDbMText
 10
5.27170894770185
 20
-133.96309817085265
 30
0.0
 40
7.0
 41
0.0
 71
             7
 72
             1
  1
\C1;Ø\C1;87
  7
CONVERTER_1
 11
0.99999999999706
 21
0.00000242406841
 31
0.0
  0
ENDBLK
  5
115
100
AcDbEntity
  8
0
100
AcDbBlockEnd
  0
BLOCK
  5
119
100
AcDbEntity
  8
0
100
AcDbBlockBegin
  2
*D4
 70
             1
 10
0.0
 20
0.0
 30
0.0
  3
*D4
  1

  0
LINE
  5
11A
100
AcDbEntity
  8
0
  6
CONTINUOUS
 62
             4
100
AcDbLine
 10
-69.00209190103701
 20
-149.86590541331
 11
69.00209199999998
 21
-149.86590541331
  0
LINE
  5
11B
100
AcDbEntity
  8
0
  6
CONTINUOUS
 62
             4
100
AcDbLine
 10
69.00209199999998
 20
-53.00321500000001
 11
69.00209199999998
 21
-151.86590541331
  0
LINE
  5
11C
100
AcDbEntity
  8
0
  6
CONTINUOUS
 62
             4
100
AcDbLine
 10
-69.00209190103701
 20
-53.00321474761
 11
-69.00209190103701
 21
-151.86590541331
  0
SOLID
  5
11D
100
AcDbEntity
  8
0
 62
             4
100
AcDbTrace
 10
-62.00209190103701
 20
-148.94433793019823
 11
-62.00209190103701
 21
-150.78747289642178
 12
-69.00209190103701
 22
-149.86590541331
 13
-69.00209190103701
 23
-149.86590541331
  0
SOLID
  5
11E
100
AcDbEntity
  8
0
 62
             4
100
AcDbTrace
 10
62.00209199999998
 20
-150.78747289642178
 11
62.00209199999998
 21
-148.94433793019823
 12
69.00209199999998
 22
-149.86590541331
 13
69.00209199999998
 23
-149.86590541331
  0
MTEXT
  5
11F
100
AcDbEntity
  8
0
 62
             1
100
AcDbMText
 10
-28.40777784836008
 20
-147.86591932746265
 30
0.0
 40
7.0
 41
0.0
 71
             7
 72
             1
  1
\C1;Ø\C1;138
  7
CONVERTER_1
 11
0.99999999999706
 21
0.00000242406841
 31
0.0
  0
ENDBLK
  5
120
100
AcDbEntity
  8
0
100
AcDbBlockEnd
  0
BLOCK
  5
124
100
AcDbEntity
  8
0
100
AcDbBlockBegin
  2
*D5
 70
             1
 10
0.0
 20
0.0
 30
0.0
  3
*D5
  1

  0
LINE
  5
125
100
AcDbEntity
  8
0
  6
CONTINUOUS
 62
             4
100
AcDbLine
 10
-82.00036900000001
 20
-163.932032946584
 11
82.00036999999992
 21
-163.932032946584
  0
LINE
  5
126
100
AcDbEntity
  8
0
  6
CONTINUOUS
 62
             4
100
AcDbLine
 10
82.00036999999992
 20
-49.627517
 11
82.00036999999992
 21
-165.932032946584
  0
LINE
  5
127
100
AcDbEntity
  8
0
  6
CONTINUOUS
 62
             4
100
AcDbLine
 10
-82.00036900000001
 20
-49.627517
 11
-82.00036900000001
 21
-165.932032946584
  0
SOLID
  5
128
100
AcDbEntity
  8
0
 62
             4
100
AcDbTrace
 10
-75.00036900000001
 20
-163.01046546347223
 11
-75.00036900000001
 21
-164.85360042969577
 12
-82.00036900000001
 22
-163.932032946584
 13
-82.00036900000001
 23
-163.932032946584
  0
SOLID
  5
129
100
AcDbEntity
  8
0
 62
             4
100
AcDbTrace
 10
75.00036999999992
 20
-164.85360042969577
 11
75.00036999999992
 21
-163.01046546347223
 12
82.00036999999992
 22
-163.932032946584
 13
82.00036999999992
 23
-163.932032946584
  0
MTEXT
  5
12A
100
AcDbEntity
  8
0
 62
             1
100
AcDbMText
 10
9.53629637414796
 20
-161.93204686073665
 30
0.0
 40
7.0
 41
0.0
 71
             7
 72
             1
  1
\C1;Ø\C1;164
  7
CONVERTER_1
 11
0.99999999999706
 21
0.00000242406841
 31
0.0
  0
ENDBLK
  5
12B
100
AcDbEntity
  8
0
100
AcDbBlockEnd
  0
BLOCK
  5
12F
100
AcDbEntity
  8
0
100
AcDbBlockBegin
  2
*D6
 70
             1
 10
0.0
 20
0.0
 30
0.0
  3
*D6
  1

  0
LINE
  5
130
100
AcDbEntity
  8
0
  6
CONTINUOUS
 62
             4
100
AcDbLine
 10
-46.00000000000003
 20
16.0
 11
45.99999999999997
 21
16.0
  0
LINE
  5
131
100
AcDbEntity
  8
0
  6
CONTINUOUS
 62
             4
100
AcDbLine
 10
-46.00000000000003
 20
6.0
 11
-46.00000000000003
 21
18.0
  0
LINE
  5
132
100
AcDbEntity
  8
0
  6
CONTINUOUS
 62
             4
100
AcDbLine
 10
45.99999999999997
 20
6.0
 11
45.99999999999997
 21
18.0
  0
SOLID
  5
133
100
AcDbEntity
  8
0
 62
             4
100
AcDbTrace
 10
-39.00000000000003
 20
16.92156748311177
 11
-39.00000000000003
 21
15.07843251688823
 12
-46.00000000000003
 22
16.0
 13
-46.00000000000003
 23
16.0
  0
SOLID
  5
134
100
AcDbEntity
  8
0
 62
             4
100
AcDbTrace
 10
38.99999999999997
 20
15.07843251688823
 11
38.99999999999997
 21
16.92156748311177
 12
45.99999999999997
 22
16.0
 13
45.99999999999997
 23
16.0
  0
MTEXT
  5
135
100
AcDbEntity
  8
0
 62
             1
100
AcDbMText
 10
-8.79441858557215
 20
17.99998608584735
 30
0.0
 40
7.0
 41
0.0
 71
             7
 72
             1
  1
\C1;Ø\C1;92
  7
CONVERTER_1
 11
0.99999999999706
 21
0.00000242406841
 31
0.0
  0
ENDBLK
  5
136
100
AcDbEntity
  8
0
100
AcDbBlockEnd
  0
BLOCK
  5
13A
100
AcDbEntity
  8
0
100
AcDbBlockBegin
  2
*D7
 70
             1
 10
0.0
 20
0.0
 30
0.0
  3
*D7
  1

  0
LINE
  5
13B
100
AcDbEntity
  8
0
  6
CONTINUOUS
 62
             4
100
AcDbLine
 10
74.74769999999998
 20
0.0
 11
74.74769999999998
 21
33.0
  0
LINE
  5
13C
100
AcDbEntity
  8
0
  6
CONTINUOUS
 62
             4
100
AcDbLine
 10
50.49999999999997
 20
0.0
 11
76.74769999999998
 21
0.0
  0
LINE
  5
13D
100
AcDbEntity
  8
0
  6
CONTINUOUS
 62
             4
100
AcDbLine
 10
64.74769999999998
 20
33.0
 11
76.74769999999998
 21
33.0
  0
SOLID
  5
13E
100
AcDbEntity
  8
0
 62
             4
100
AcDbTrace
 10
73.82613251688821
 20
7.0
 11
75.66926748311175
 21
7.0
 12
74.74769999999998
 22
0.0
 13
74.74769999999998
 23
0.0
  0
SOLID
  5
13F
100
AcDbEntity
  8
0
 62
             4
100
AcDbTrace
 10
75.66926748311175
 20
26.0
 11
73.82613251688821
 21
26.0
 12
74.74769999999998
 22
33.0
 13
74.74769999999998
 23
33.0
  0
MTEXT
  5
140
100
AcDbEntity
  8
0
 62
             1
100
AcDbMText
 10
72.74769999999998
 20
12.66609080273599
 30
0.0
 40
7.0
 41
0.0
 71
             7
 72
             1
  1
33
  7
CONVERTER_1
 11
0.0
 21
1.0
 31
0.0
  0
ENDBLK
  5
141
100
AcDbEntity
  8
0
100
AcDbBlockEnd
  0
BLOCK
  5
145
100
AcDbEntity
  8
0
100
AcDbBlockBegin
  2
*D8
 70
             1
 10
0.0
 20
0.0
 30
0.0
  3
*D8
  1

  0
LINE
  5
146
100
AcDbEntity
  8
0
  6
CONTINUOUS
 62
             4
100
AcDbLine
 10
106.179965595643
 20
0.0
 11
106.179965595643
 21
-53.00321500000001
  0
LINE
  5
147
100
AcDbEntity
  8
0
  6
CONTINUOUS
 62
             4
100
AcDbLine
 10
48.49999999999999
 20
0.0
 11
108.179965595643
 21
0.0
  0
LINE
  5
148
100
AcDbEntity
  8
0
  6
CONTINUOUS
 62
             4
100
AcDbLine
 10
69.00209199999999
 20
-53.00321500000001
 11
108.179965595643
 21
-53.00321500000001
  0
SOLID
  5
149
100
AcDbEntity
  8
0
 62
             4
100
AcDbTrace
 10
107.10153307875477
 20
-7.0
 11
105.25839811253122
 21
-7.0
 12
106.179965595643
 22
0.0
 13
106.179965595643
 23
0.0
  0
SOLID
  5
14A
100
AcDbEntity
  8
0
 62
             4
100
AcDbTrace
 10
105.25839811253122
 20
-46.00321500000001
 11
107.10153307875477
 21
-46.00321500000001
 12
106.179965595643
 22
-53.00321500000001
 13
106.179965595643
 23
-53.00321500000001
  0
MTEXT
  5
14B
100
AcDbEntity
  8
0
 62
             1
100
AcDbMText
 10
104.179965595643
 20
-37.01239662420852
 30
0.0
 40
7.0
 41
0.0
 71
             7
 72
             1
  1
53
  7
CONVERTER_1
 11
0.0
 21
1.0
 31
0.0
  0
ENDBLK
  5
14C
100
AcDbEntity
  8
0
100
AcDbBlockEnd
  0
BLOCK
  5
150
100
AcDbEntity
  8
0
100
AcDbBlockBegin
  2
*D9
 70
             1
 10
0.0
 20
0.0
 30
0.0
  3
*D9
  1

  0
LINE
  5
151
100
AcDbEntity
  8
0
  6
CONTINUOUS
 62
             4
100
AcDbLine
 10
122.002705882244
 20
0.0
 11
122.002705882244
 21
-103.0
  0
LINE
  5
152
100
AcDbEntity
  8
0
  6
CONTINUOUS
 62
             4
100
AcDbLine
 10
48.49999999999999
 20
0.0
 11
124.002705882244
 21
0.0
  0
LINE
  5
153
100
AcDbEntity
  8
0
  6
CONTINUOUS
 62
             4
100
AcDbLine
 10
37.49999999999999
 20
-103.0
 11
124.002705882244
 21
-103.0
  0
SOLID
  5
154
100
AcDbEntity
  8
0
 62
             4
100
AcDbTrace
 10
122.92427336535577
 20
-7.0
 11
121.08113839913223
 21
-7.0
 12
122.002705882244
 22
0.0
 13
122.002705882244
 23
0.0
  0
SOLID
  5
155
100
AcDbEntity
  8
0
 62
             4
100
AcDbTrace
 10
121.08113839913223
 20
-96.0
 11
122.92427336535577
 21
-96.0
 12
122.002705882244
 22
-103.0
 13
122.002705882244
 23
-103.0
  0
MTEXT
  5
156
100
AcDbEntity
  8
0
 62
             1
100
AcDbMText
 10
120.002705882244
 20
-66.42748702533399
 30
0.0
 40
7.0
 41
0.0
 71
             7
 72
             1
  1
103
  7
CONVERTER_1
 11
0.0
 21
1.0
 31
0.0
  0
ENDBLK
  5
157
100
AcDbEntity
  8
0
100
AcDbBlockEnd
  0
ENDSEC
  0
SECTION
  2
ENTITIES
  0
DIMENSION
  5
159
100
AcDbEntity
  8
1
100
AcDbDimension
  2
*D9
 10
122.002705882244
 20
0.0
 11
116.502705882244
 21
-59.07748702533399
 31
0.0
 53
90.0
  1
<>
  3
ME10_DIM_7
100
AcDbAlignedDimension
 13
37.49999999999997
 23
-103.0
 14
48.49999999999997
 24
0.0
 50
90.0
100
AcDbRotatedDimension
  0
DIMENSION
  5
14E
100
AcDbEntity
  8
1
100
AcDbDimension
  2
*D8
 10
106.179965595643
 20
0.0
 11
100.679965595643
 21
-31.76239662420852
 31
0.0
 53
90.0
  1
<>
  3
ME10_DIM_6
100
AcDbAlignedDimension
 13
69.00209199999998
 23
-53.00321500000001
 14
48.49999999999997
 24
0.0
 50
90.0
100
AcDbRotatedDimension
  0
DIMENSION
  5
143
100
AcDbEntity
  8
1
100
AcDbDimension
  2
*D7
 10
74.74769999999998
 20
0.0
 11
69.24769999999998
 21
17.91609080273599
 31
0.0
 53
90.0
  1
<>
  3
ME10_DIM_5
100
AcDbAlignedDimension
 13
64.74769999999998
 23
33.0
 14
50.49999999999997
 24
0.0
 50
90.0
100
AcDbRotatedDimension
  0
DIMENSION
  5
138
100
AcDbEntity
  8
1
100
AcDbDimension
  2
*D6
 10
-46.00000000000003
 20
16.0
 11
-2.00441858558901
 21
21.5
 31
0.0
 53
180.0
  1
<>
  3
ME10_DIM_4
100
AcDbAlignedDimension
 13
45.99999999999997
 23
6.0
 14
-46.00000000000003
 24
6.0
 50
180.0
100
AcDbRotatedDimension
  0
DIMENSION
  5
12D
100
AcDbEntity
  8
1
100
AcDbDimension
  2
*D5
 10
-82.00036900000001
 20
-163.932032946584
 11
18.4262963741311
 21
-158.432032946584
 31
0.0
 53
180.0
  1
<>
  3
ME10_DIM_3
100
AcDbAlignedDimension
 13
82.00036999999993
 23
-49.62751700000001
 14
-82.00036900000001
 24
-49.62751700000001
 50
180.0
100
AcDbRotatedDimension
  0
DIMENSION
  5
122
100
AcDbEntity
  8
1
100
AcDbDimension
  2
*D4
 10
-69.00209190103701
 20
-149.86590541331
 11
-19.51777784837694
 21
-144.36590541331
 31
0.0
 53
180.0
  1
<>
  3
ME10_DIM_2
100
AcDbAlignedDimension
 13
69.00209199999998
 23
-53.00321500000001
 14
-69.00209190103701
 24
-53.00321474761
 50
180.0
100
AcDbRotatedDimension
  0
DIMENSION
  5
117
100
AcDbEntity
  8
1
100
AcDbDimension
  2
*D3
 10
-43.5
 20
-135.9630842567
 11
12.06170894768499
 21
-130.4630842567
 31
0.0
 53
180.0
  1
<>
  3
ME10_DIM_1
100
AcDbAlignedDimension
 13
43.49999999999997
 23
-97.0
 14
-43.5
 24
-97.0
 50
180.0
100
AcDbRotatedDimension
  0
DIMENSION
  5
10C
100
AcDbEntity
  8
1
100
AcDbDimension
  2
*D2
 10
-35.00000000000002
 20
-119.0
 11
-10.79574829388499
 21
-113.5
 31
0.0
 53
180.0
  1
<>
  3
ME10_DIM_0
100
AcDbAlignedDimension
 13
34.99999999999997
 23
-109.0
 14
-35.00000000000003
 24
-109.0
 50
180.0
100
AcDbRotatedDimension
  0
INSERT
  5
2F
100
AcDbEntity
  8
1
100
AcDbBlockReference
  2
HL_830_BRANDSCHUTZELEMT__1
 10
395.442904
 20
270.13571000000002
  0
INSERT
  5
30
100
AcDbEntity
  8
1
100
AcDbBlockReference
  2
HL_830_BRANDSCHUTZELEMT__2
 10
112.66181400000001
 20
301.032015
  0
ENDSEC
  0
SECTION
  2
OBJECTS
  0
DICTIONARY
  5
19
100
AcDbDictionary
  3
ACAD_GROUP
350
1A
  3
ACAD_MLINESTYLE
350
1B
  0
DICTIONARY
  5
1A
102
{ACAD_REACTORS
330
19
102
}
100
AcDbDictionary
  0
DICTIONARY
  5
1B
102
{ACAD_REACTORS
330
19
102
}
100
AcDbDictionary
  3
STANDARD
350
1C
  0
MLINESTYLE
  5
1C
102
{ACAD_REACTORS
330
1B
102
}
100
AcDbMlineStyle
  2
STANDARD
 70
             0
  3

 62
             0
 51
90.0
 52
90.0
 71
             2
 49
0.5
 62
           256
  6
BYLAYER
 49
-0.5
 62
           256
  6
BYLAYER
  0
ENDSEC
  0
EOF
