  0
SECTION
  2
HEADER
  9
$ACADVER
  1
AC1015
  9
$ACADMAINTVER
 70
     6
  9
$DWGCODEPAGE
  3
ANSI_1252
  9
$INSBASE
 10
0.0
 20
0.0
 30
0.0
  9
$EXTMIN
 10
776.8931532557289
 20
-1689.08803659564
 30
0.0
  9
$EXTMAX
 10
1301.55663414104
 20
-1059.282287170551
 30
0.0
  9
$LIMMIN
 10
0.0
 20
0.0
  9
$LIMMAX
 10
12.0
 20
9.0
  9
$ORTHOMODE
 70
     0
  9
$REGENMODE
 70
     1
  9
$FILLMODE
 70
     1
  9
$QTEXTMODE
 70
     0
  9
$MIRRTEXT
 70
     1
  9
$LTSCALE
 40
1.0
  9
$ATTMODE
 70
     1
  9
$TEXTSIZE
 40
0.2
  9
$TRACEWID
 40
0.05
  9
$TEXTSTYLE
  7
Standard
  9
$CLAYER
  8
0
  9
$CELTYPE
  6
ByLayer
  9
$CECOLOR
 62
   256
  9
$CELTSCALE
 40
1.0
  9
$DISPSILH
 70
     0
  9
$DIMSCALE
 40
1.0
  9
$DIMASZ
 40
0.18
  9
$DIMEXO
 40
0.0625
  9
$DIMDLI
 40
0.38
  9
$DIMRND
 40
0.0
  9
$DIMDLE
 40
0.0
  9
$DIMEXE
 40
0.18
  9
$DIMTP
 40
0.0
  9
$DIMTM
 40
0.0
  9
$DIMTXT
 40
0.18
  9
$DIMCEN
 40
0.09
  9
$DIMTSZ
 40
0.0
  9
$DIMTOL
 70
     0
  9
$DIMLIM
 70
     0
  9
$DIMTIH
 70
     1
  9
$DIMTOH
 70
     1
  9
$DIMSE1
 70
     0
  9
$DIMSE2
 70
     0
  9
$DIMTAD
 70
     0
  9
$DIMZIN
 70
     0
  9
$DIMBLK
  1

  9
$DIMASO
 70
     1
  9
$DIMSHO
 70
     1
  9
$DIMPOST
  1

  9
$DIMAPOST
  1

  9
$DIMALT
 70
     0
  9
$DIMALTD
 70
     2
  9
$DIMALTF
 40
25.4
  9
$DIMLFAC
 40
1.0
  9
$DIMTOFL
 70
     0
  9
$DIMTVP
 40
0.0
  9
$DIMTIX
 70
     0
  9
$DIMSOXD
 70
     0
  9
$DIMSAH
 70
     0
  9
$DIMBLK1
  1

  9
$DIMBLK2
  1

  9
$DIMSTYLE
  2
Standard
  9
$DIMCLRD
 70
     0
  9
$DIMCLRE
 70
     0
  9
$DIMCLRT
 70
     0
  9
$DIMTFAC
 40
1.0
  9
$DIMGAP
 40
0.09
  9
$DIMJUST
 70
     0
  9
$DIMSD1
 70
     0
  9
$DIMSD2
 70
     0
  9
$DIMTOLJ
 70
     1
  9
$DIMTZIN
 70
     0
  9
$DIMALTZ
 70
     0
  9
$DIMALTTZ
 70
     0
  9
$DIMUPT
 70
     0
  9
$DIMDEC
 70
     4
  9
$DIMTDEC
 70
     4
  9
$DIMALTU
 70
     2
  9
$DIMALTTD
 70
     2
  9
$DIMTXSTY
  7
Standard
  9
$DIMAUNIT
 70
     0
  9
$DIMADEC
 70
     0
  9
$DIMALTRND
 40
0.0
  9
$DIMAZIN
 70
     0
  9
$DIMDSEP
 70
    46
  9
$DIMATFIT
 70
     3
  9
$DIMFRAC
 70
     0
  9
$DIMLDRBLK
  1

  9
$DIMLUNIT
 70
     2
  9
$DIMLWD
 70
    -2
  9
$DIMLWE
 70
    -2
  9
$DIMTMOVE
 70
     0
  9
$LUNITS
 70
     2
  9
$LUPREC
 70
     4
  9
$SKETCHINC
 40
0.1
  9
$FILLETRAD
 40
0.5
  9
$AUNITS
 70
     0
  9
$AUPREC
 70
     0
  9
$MENU
  1
.
  9
$ELEVATION
 40
0.0
  9
$PELEVATION
 40
0.0
  9
$THICKNESS
 40
0.0
  9
$LIMCHECK
 70
     0
  9
$CHAMFERA
 40
0.5
  9
$CHAMFERB
 40
0.5
  9
$CHAMFERC
 40
1.0
  9
$CHAMFERD
 40
0.0
  9
$SKPOLY
 70
     0
  9
$TDCREATE
 40
2454704.463414456
  9
$TDUCREATE
 40
2454704.380081123
  9
$TDUPDATE
 40
2454704.463414467
  9
$TDUUPDATE
 40
2454704.380081134
  9
$TDINDWG
 40
0.0000000116
  9
$TDUSRTIMER
 40
0.0000000116
  9
$USRTIMER
 70
     1
  9
$ANGBASE
 50
0.0
  9
$ANGDIR
 70
     0
  9
$PDMODE
 70
     0
  9
$PDSIZE
 40
0.0
  9
$PLINEWID
 40
0.0
  9
$SPLFRAME
 70
     0
  9
$SPLINETYPE
 70
     6
  9
$SPLINESEGS
 70
     8
  9
$HANDSEED
  5
28D
  9
$SURFTAB1
 70
     6
  9
$SURFTAB2
 70
     6
  9
$SURFTYPE
 70
     6
  9
$SURFU
 70
     6
  9
$SURFV
 70
     6
  9
$UCSBASE
  2

  9
$UCSNAME
  2

  9
$UCSORG
 10
0.0
 20
0.0
 30
0.0
  9
$UCSXDIR
 10
1.0
 20
0.0
 30
0.0
  9
$UCSYDIR
 10
0.0
 20
1.0
 30
0.0
  9
$UCSORTHOREF
  2

  9
$UCSORTHOVIEW
 70
     0
  9
$UCSORGTOP
 10
0.0
 20
0.0
 30
0.0
  9
$UCSORGBOTTOM
 10
0.0
 20
0.0
 30
0.0
  9
$UCSORGLEFT
 10
0.0
 20
0.0
 30
0.0
  9
$UCSORGRIGHT
 10
0.0
 20
0.0
 30
0.0
  9
$UCSORGFRONT
 10
0.0
 20
0.0
 30
0.0
  9
$UCSORGBACK
 10
0.0
 20
0.0
 30
0.0
  9
$PUCSBASE
  2

  9
$PUCSNAME
  2

  9
$PUCSORG
 10
0.0
 20
0.0
 30
0.0
  9
$PUCSXDIR
 10
1.0
 20
0.0
 30
0.0
  9
$PUCSYDIR
 10
0.0
 20
1.0
 30
0.0
  9
$PUCSORTHOREF
  2

  9
$PUCSORTHOVIEW
 70
     0
  9
$PUCSORGTOP
 10
0.0
 20
0.0
 30
0.0
  9
$PUCSORGBOTTOM
 10
0.0
 20
0.0
 30
0.0
  9
$PUCSORGLEFT
 10
0.0
 20
0.0
 30
0.0
  9
$PUCSORGRIGHT
 10
0.0
 20
0.0
 30
0.0
  9
$PUCSORGFRONT
 10
0.0
 20
0.0
 30
0.0
  9
$PUCSORGBACK
 10
0.0
 20
0.0
 30
0.0
  9
$USERI1
 70
     0
  9
$USERI2
 70
     0
  9
$USERI3
 70
     0
  9
$USERI4
 70
     0
  9
$USERI5
 70
     0
  9
$USERR1
 40
15.5
  9
$USERR2
 40
0.0
  9
$USERR3
 40
0.0
  9
$USERR4
 40
0.0
  9
$USERR5
 40
0.0
  9
$WORLDVIEW
 70
     1
  9
$SHADEDGE
 70
     3
  9
$SHADEDIF
 70
    70
  9
$TILEMODE
 70
     1
  9
$MAXACTVP
 70
    64
  9
$PINSBASE
 10
0.0
 20
0.0
 30
0.0
  9
$PLIMCHECK
 70
     0
  9
$PEXTMIN
 10
1.00000000000000E+20
 20
1.00000000000000E+20
 30
1.00000000000000E+20
  9
$PEXTMAX
 10
-1.00000000000000E+20
 20
-1.00000000000000E+20
 30
-1.00000000000000E+20
  9
$PLIMMIN
 10
0.0
 20
0.0
  9
$PLIMMAX
 10
12.0
 20
9.0
  9
$UNITMODE
 70
     0
  9
$VISRETAIN
 70
     1
  9
$PLINEGEN
 70
     0
  9
$PSLTSCALE
 70
     1
  9
$TREEDEPTH
 70
  3020
  9
$CMLSTYLE
  2
Standard
  9
$CMLJUST
 70
     0
  9
$CMLSCALE
 40
1.0
  9
$PROXYGRAPHICS
 70
     1
  9
$MEASUREMENT
 70
     1
  9
$CELWEIGHT
370
    -1
  9
$ENDCAPS
280
     0
  9
$JOINSTYLE
280
     0
  9
$LWDISPLAY
290
     0
  9
$INSUNITS
 70
     1
  9
$HYPERLINKBASE
  1

  9
$STYLESHEET
  1

  9
$XEDIT
290
     1
  9
$CEPSNTYPE
380
     0
  9
$PSTYLEMODE
290
     1
  9
$FINGERPRINTGUID
  2
{741D8862-8122-4292-BF65-2B22BF7AD30D}
  9
$VERSIONGUID
  2
{FAEB1C32-E019-11D5-929B-00C0DF256EC4}
  9
$EXTNAMES
290
     1
  9
$PSVPSCALE
 40
0.0
  9
$OLESTARTUP
290
     0
  0
ENDSEC
  0
SECTION
  2
CLASSES
  0
CLASS
  1
ACDBDICTIONARYWDFLT
  2
AcDbDictionaryWithDefault
  3
ObjectDBX Classes
 90
        0
280
     0
281
     0
  0
CLASS
  1
VISUALSTYLE
  2
AcDbVisualStyle
  3
ObjectDBX Classes
 90
     4095
280
     0
281
     0
  0
CLASS
  1

  2
exOdDbCircle
  3

 90
        0
280
     0
281
     1
  0
CLASS
  1

  2
exOdDbSpline
  3

 90
        0
280
     0
281
     1
  0
CLASS
  1
ACDBPLACEHOLDER
  2
AcDbPlaceHolder
  3
ObjectDBX Classes
 90
        0
280
     0
281
     0
  0
CLASS
  1
LAYOUT
  2
AcDbLayout
  3
ObjectDBX Classes
 90
        0
280
     0
281
     0
  0
ENDSEC
  0
SECTION
  2
TABLES
  0
TABLE
  2
VPORT
  5
8
330
0
100
AcDbSymbolTable
 70
     1
  0
VPORT
  5
29
330
8
100
AcDbSymbolTableRecord
100
AcDbViewportTableRecord
  2
*Active
 70
     0
 10
0.0
 20
0.0
 11
1.0
 21
1.0
 12
1039.224893698384
 22
-1374.185161883096
 13
0.0
 23
0.0
 14
0.5
 24
0.5
 15
0.5
 25
0.5
 16
0.0
 26
0.0
 36
1.0
 17
0.0
 27
0.0
 37
0.0
 40
692.786324367598
 41
1.60267857142857
 42
50.0
 43
0.0
 44
0.0
 50
0.0
 51
0.0
 71
     0
 72
   100
 73
     1
 74
     3
 75
     0
 76
     0
 77
     0
 78
     0
281
     0
 65
     1
110
0.0
120
0.0
130
0.0
111
1.0
121
0.0
131
0.0
112
0.0
122
1.0
132
0.0
 79
     0
146
0.0
  0
ENDTAB
  0
TABLE
  2
LTYPE
  5
5
330
0
100
AcDbSymbolTable
 70
     8
  0
LTYPE
  5
14
330
5
100
AcDbSymbolTableRecord
100
AcDbLinetypeTableRecord
  2
ByBlock
 70
     0
  3

 72
    65
 73
     0
 40
0.0
  0
LTYPE
  5
15
330
5
100
AcDbSymbolTableRecord
100
AcDbLinetypeTableRecord
  2
ByLayer
 70
     0
  3

 72
    65
 73
     0
 40
0.0
  0
LTYPE
  5
16
330
5
100
AcDbSymbolTableRecord
100
AcDbLinetypeTableRecord
  2
Continuous
 70
     0
  3
Solid line
 72
    65
 73
     0
 40
0.0
  0
LTYPE
  5
3B
330
5
100
AcDbSymbolTableRecord
100
AcDbLinetypeTableRecord
  2
DASHED
 70
     0
  3
Dashed
 72
    65
 73
     2
 40
15.0
 49
7.0
 74
     0
 49
-8.0
 74
     0
  0
LTYPE
  5
3C
330
5
100
AcDbSymbolTableRecord
100
AcDbLinetypeTableRecord
  2
DOTTED
 70
     0
  3
Dotted
 72
    65
 73
     2
 40
1.0
 49
0.0
 74
     0
 49
-1.0
 74
     0
  0
LTYPE
  5
3D
330
5
100
AcDbSymbolTableRecord
100
AcDbLinetypeTableRecord
  2
DOT_CENTER
 70
     0
  3
Dot_Center
 72
    65
 73
     4
 40
14.0
 49
12.0
 74
     0
 49
-1.0
 74
     0
 49
0.0
 74
     0
 49
-1.0
 74
     0
  0
LTYPE
  5
3E
330
5
100
AcDbSymbolTableRecord
100
AcDbLinetypeTableRecord
  2
LONG_DASHED
 70
     0
  3
Long_Dashed
 72
    65
 73
     2
 40
15.0
 49
10.0
 74
     0
 49
-5.0
 74
     0
  0
LTYPE
  5
3F
330
5
100
AcDbSymbolTableRecord
100
AcDbLinetypeTableRecord
  2
DASH_CENTER
 70
     0
  3
Dash_Center
 72
    65
 73
     4
 40
14.0
 49
11.0
 74
     0
 49
-1.0
 74
     0
 49
1.0
 74
     0
 49
-1.0
 74
     0
  0
LTYPE
  5
40
330
5
100
AcDbSymbolTableRecord
100
AcDbLinetypeTableRecord
  2
PHANTOM
 70
     0
  3
Phantom
 72
    65
 73
     6
 40
13.0
 49
10.0
 74
     0
 49
-1.0
 74
     0
 49
0.0
 74
     0
 49
-1.0
 74
     0
 49
0.0
 74
     0
 49
-1.0
 74
     0
  0
LTYPE
  5
41
330
5
100
AcDbSymbolTableRecord
100
AcDbLinetypeTableRecord
  2
CENTER_DASH_DASH
 70
     0
  3
Center_Dash_Dash
 72
    65
 73
     6
 40
14.0
 49
9.0
 74
     0
 49
-1.0
 74
     0
 49
1.0
 74
     0
 49
-1.0
 74
     0
 49
1.0
 74
     0
 49
-1.0
 74
     0
  0
ENDTAB
  0
TABLE
  2
LAYER
  5
2
330
0
100
AcDbSymbolTable
 70
     2
  0
LAYER
  5
10
330
2
100
AcDbSymbolTableRecord
100
AcDbLayerTableRecord
  2
0
 70
     0
 62
     7
  6
Continuous
370
    -3
390
F
  0
LAYER
  5
42
330
2
100
AcDbSymbolTableRecord
100
AcDbLayerTableRecord
  2
1
 70
     0
 62
     7
  6
Continuous
370
    -3
390
F
  0
ENDTAB
  0
TABLE
  2
STYLE
  5
3
330
0
100
AcDbSymbolTable
 70
     2
  0
STYLE
  5
11
330
3
100
AcDbSymbolTableRecord
100
AcDbTextStyleTableRecord
  2
Standard
 70
     0
 40
0.0
 41
1.0
 50
0.0
 71
     0
 42
0.2
  3
txt
  4

  0
STYLE
  5
260
330
3
100
AcDbSymbolTableRecord
100
AcDbTextStyleTableRecord
  2
CONVERTER_11
 70
     0
 40
0.0
 41
0.9
 50
0.0
 71
     0
 42
0.2
  3
txt.shx
  4

  0
ENDTAB
  0
TABLE
  2
VIEW
  5
6
330
0
100
AcDbSymbolTable
 70
     0
  0
ENDTAB
  0
TABLE
  2
UCS
  5
7
330
0
100
AcDbSymbolTable
 70
     0
  0
ENDTAB
  0
TABLE
  2
APPID
  5
9
330
0
100
AcDbSymbolTable
 70
     1
  0
APPID
  5
12
330
9
100
AcDbSymbolTableRecord
100
AcDbRegAppTableRecord
  2
ACAD
 70
     0
  0
ENDTAB
  0
TABLE
  2
DIMSTYLE
  5
A
330
0
100
AcDbSymbolTable
 70
     4
100
AcDbDimStyleTable
  0
DIMSTYLE
105
27
330
A
100
AcDbSymbolTableRecord
100
AcDbDimStyleTableRecord
  2
Standard
 70
     0
340
11
  0
DIMSTYLE
105
264
102
{ACAD_REACTORS
330
265
102
}
330
A
100
AcDbSymbolTableRecord
100
AcDbDimStyleTableRecord
  2
ME10_DIM_10
 70
     0
 41
10.0
 42
0.0
 44
2.0
 73
     0
 74
     0
 77
     1
 78
     8
140
10.0
147
2.0
172
     1
173
     1
176
     4
177
     4
178
     1
271
     2
340
260
  0
DIMSTYLE
105
26F
102
{ACAD_REACTORS
330
270
102
}
330
A
100
AcDbSymbolTableRecord
100
AcDbDimStyleTableRecord
  2
ME10_DIM_11
 70
     0
 41
10.0
 42
0.0
 44
2.0
 73
     0
 74
     0
 77
     1
 78
     8
140
10.0
147
2.0
172
     1
173
     1
176
     4
177
     4
178
     1
271
     2
340
260
  0
DIMSTYLE
105
27A
102
{ACAD_REACTORS
330
27B
102
}
330
A
100
AcDbSymbolTableRecord
100
AcDbDimStyleTableRecord
  2
ME10_DIM_12
 70
     0
 41
10.0
 42
0.0
 44
2.0
 73
     0
 74
     0
 77
     1
 78
     8
140
10.0
147
2.0
172
     1
173
     1
176
     4
177
     4
178
     1
271
     2
340
260
  0
ENDTAB
  0
TABLE
  2
BLOCK_RECORD
  5
1
330
0
100
AcDbSymbolTable
 70
    17
  0
BLOCK_RECORD
  5
1F
330
1
100
AcDbSymbolTableRecord
100
AcDbBlockTableRecord
  2
*Model_Space
340
22
  0
BLOCK_RECORD
  5
1B
330
1
100
AcDbSymbolTableRecord
100
AcDbBlockTableRecord
  2
*Paper_Space
340
1E
  0
BLOCK_RECORD
  5
23
330
1
100
AcDbSymbolTableRecord
100
AcDbBlockTableRecord
  2
*Paper_Space0
340
26
  0
BLOCK_RECORD
  5
43
330
1
100
AcDbSymbolTableRecord
100
AcDbBlockTableRecord
  2
HL83-Klemmring
340
0
102
{BLKREFS
331
64
102
}
  0
BLOCK_RECORD
  5
46
330
1
100
AcDbSymbolTableRecord
100
AcDbBlockTableRecord
  2
Bitumenmanschette
340
0
102
{BLKREFS
331
65
102
}
  0
BLOCK_RECORD
  5
49
330
1
100
AcDbSymbolTableRecord
100
AcDbBlockTableRecord
  2
Blechschraube6_3x19_2_3_2__1
340
0
102
{BLKREFS
331
66
102
}
  0
BLOCK_RECORD
  5
4C
330
1
100
AcDbSymbolTableRecord
100
AcDbBlockTableRecord
  2
Blechschraube6_3x19_2_3_2__2
340
0
102
{BLKREFS
331
67
102
}
  0
BLOCK_RECORD
  5
4F
330
1
100
AcDbSymbolTableRecord
100
AcDbBlockTableRecord
  2
Blechschraube6_3x19_2_3_2__3
340
0
102
{BLKREFS
331
68
102
}
  0
BLOCK_RECORD
  5
52
330
1
100
AcDbSymbolTableRecord
100
AcDbBlockTableRecord
  2
Blechschraube6_3x19_2_3_2__4
340
0
102
{BLKREFS
331
69
102
}
  0
BLOCK_RECORD
  5
55
330
1
100
AcDbSymbolTableRecord
100
AcDbBlockTableRecord
  2
Blechschraube6_3x19_2_3_2__5
340
0
102
{BLKREFS
331
6A
102
}
  0
BLOCK_RECORD
  5
58
330
1
100
AcDbSymbolTableRecord
100
AcDbBlockTableRecord
  2
Blechschraube6_3x19_2_3_2__6
340
0
102
{BLKREFS
331
6B
102
}
  0
BLOCK_RECORD
  5
5B
330
1
100
AcDbSymbolTableRecord
100
AcDbBlockTableRecord
  2
Bitumen-Folie
340
0
102
{BLKREFS
331
6C
102
}
  0
BLOCK_RECORD
  5
5E
330
1
100
AcDbSymbolTableRecord
100
AcDbBlockTableRecord
  2
HL_83_Lippendichtung
340
0
102
{BLKREFS
331
6D
102
}
  0
BLOCK_RECORD
  5
61
330
1
100
AcDbSymbolTableRecord
100
AcDbBlockTableRecord
  2
HL_83_Niroflansch
340
0
102
{BLKREFS
331
6E
102
}
  0
BLOCK_RECORD
  5
25A
330
1
100
AcDbSymbolTableRecord
100
AcDbBlockTableRecord
  2
*D12
340
0
  0
BLOCK_RECORD
  5
266
330
1
100
AcDbSymbolTableRecord
100
AcDbBlockTableRecord
  2
*D13
340
0
  0
BLOCK_RECORD
  5
271
330
1
100
AcDbSymbolTableRecord
100
AcDbBlockTableRecord
  2
*D14
340
0
  0
BLOCK_RECORD
  5
27C
330
1
100
AcDbSymbolTableRecord
100
AcDbBlockTableRecord
  2
*D15
340
0
102
{BLKREFS
331
283
102
}
  0
BLOCK_RECORD
  5
284
330
1
100
AcDbSymbolTableRecord
100
AcDbBlockTableRecord
  2
*D16
340
0
102
{BLKREFS
331
28B
102
}
  0
ENDTAB
  0
ENDSEC
  0
SECTION
  2
BLOCKS
  0
BLOCK
  5
20
330
1F
100
AcDbEntity
  8
0
100
AcDbBlockBegin
  2
*Model_Space
 70
     0
 71
     0
 10
0.0
 20
0.0
 30
0.0
  3
*Model_Space
  1

  0
ENDBLK
  5
21
330
1F
100
AcDbEntity
  8
0
100
AcDbBlockEnd
  0
BLOCK
  5
1C
330
1B
100
AcDbEntity
 67
     1
  8
0
100
AcDbBlockBegin
  2
*Paper_Space
 70
     0
 71
     0
 10
0.0
 20
0.0
 30
0.0
  3
*Paper_Space
  1

  0
ENDBLK
  5
1D
330
1B
100
AcDbEntity
 67
     1
  8
0
100
AcDbBlockEnd
  0
BLOCK
  5
24
330
23
100
AcDbEntity
  8
0
100
AcDbBlockBegin
  2
*Paper_Space0
 70
     0
 71
     0
 10
0.0
 20
0.0
 30
0.0
  3
*Paper_Space0
  1

  0
ENDBLK
  5
25
330
23
100
AcDbEntity
  8
0
100
AcDbBlockEnd
  0
BLOCK
  5
44
330
43
100
AcDbEntity
  8
0
100
AcDbBlockBegin
  2
HL83-Klemmring
 70
     0
 71
     0
 10
928.893153255729
 20
-1485.628145544491
 30
0.0
  3
HL83-Klemmring
  1

  0
LINE
  5
6F
330
43
100
AcDbEntity
  8
1
  6
PHANTOM
 62
     2
100
AcDbLine
 10
953.893153255729
 20
-1379.087820319741
 30
0.0
 11
953.893153255729
 21
-1396.168470769241
 31
0.0
  0
LINE
  5
70
330
43
100
AcDbEntity
  8
1
  6
PHANTOM
 62
     2
100
AcDbLine
 10
962.4334784804788
 20
-1387.628145544491
 30
0.0
 11
945.3528280309791
 21
-1387.628145544491
 31
0.0
  0
LINE
  5
71
330
43
100
AcDbEntity
  8
1
  6
PHANTOM
 62
     2
100
AcDbLine
 10
990.393153255729
 20
-1315.867965843477
 30
0.0
 11
990.393153255729
 21
-1332.948616292978
 31
0.0
  0
LINE
  5
72
330
43
100
AcDbEntity
  8
1
  6
PHANTOM
 62
     2
100
AcDbLine
 10
998.9334784804793
 20
-1324.408291068227
 30
0.0
 11
981.8528280309787
 21
-1324.408291068227
 31
0.0
  0
LINE
  5
73
330
43
100
AcDbEntity
  8
1
  6
PHANTOM
 62
     2
100
AcDbLine
 10
1063.393153255729
 20
-1315.867965843476
 30
0.0
 11
1063.393153255729
 21
-1332.948616292978
 31
0.0
  0
LINE
  5
74
330
43
100
AcDbEntity
  8
1
  6
PHANTOM
 62
     2
100
AcDbLine
 10
1071.93347848048
 20
-1324.408291068227
 30
0.0
 11
1054.852828030978
 21
-1324.408291068227
 31
0.0
  0
LINE
  5
75
330
43
100
AcDbEntity
  8
1
  6
PHANTOM
 62
     2
100
AcDbLine
 10
1099.893153255729
 20
-1379.087820319741
 30
0.0
 11
1099.893153255729
 21
-1396.168470769241
 31
0.0
  0
LINE
  5
76
330
43
100
AcDbEntity
  8
1
  6
PHANTOM
 62
     2
100
AcDbLine
 10
1108.433478480479
 20
-1387.628145544491
 30
0.0
 11
1091.352828030979
 21
-1387.628145544491
 31
0.0
  0
LINE
  5
77
330
43
100
AcDbEntity
  8
1
  6
PHANTOM
 62
     2
100
AcDbLine
 10
1063.393153255729
 20
-1442.307674796005
 30
0.0
 11
1063.393153255729
 21
-1459.388325245506
 31
0.0
  0
LINE
  5
78
330
43
100
AcDbEntity
  8
1
  6
PHANTOM
 62
     2
100
AcDbLine
 10
1071.933478480479
 20
-1450.848000020755
 30
0.0
 11
1054.852828030979
 21
-1450.848000020755
 31
0.0
  0
LINE
  5
79
330
43
100
AcDbEntity
  8
1
  6
PHANTOM
 62
     2
100
AcDbLine
 10
990.393153255729
 20
-1442.307674796004
 30
0.0
 11
990.393153255729
 21
-1459.388325245506
 31
0.0
  0
LINE
  5
7A
330
43
100
AcDbEntity
  8
1
  6
PHANTOM
 62
     2
100
AcDbLine
 10
998.9334784804795
 20
-1450.848000020755
 30
0.0
 11
981.8528280309785
 21
-1450.848000020755
 31
0.0
  0
LINE
  5
7B
330
43
100
AcDbEntity
  8
1
  6
DOT_CENTER
 62
     2
100
AcDbLine
 10
1026.893153255729
 20
-1279.828145544491
 30
0.0
 11
1026.893153255729
 21
-1495.428145544491
 31
0.0
  0
LINE
  5
7C
330
43
100
AcDbEntity
  8
1
  6
DOT_CENTER
 62
     2
100
AcDbLine
 10
1128.72567570256
 20
-1387.628145544491
 30
0.0
 11
925.4582216511789
 21
-1387.628145544491
 31
0.0
  0
LINE
  5
7D
330
43
100
AcDbEntity
  8
0
  6
Continuous
 62
     7
100
AcDbLine
 10
1025.161961255729
 20
-1312.128145544491
 30
0.0
 11
1022.786961255729
 21
-1312.128145544491
 31
0.0
  0
LINE
  5
7E
330
43
100
AcDbEntity
  8
0
  6
Continuous
 62
     7
100
AcDbLine
 10
1031.224461255729
 20
-1312.128145544491
 30
0.0
 11
1027.661961255729
 21
-1312.128145544491
 31
0.0
  0
LINE
  5
7F
330
43
100
AcDbEntity
  8
0
  6
Continuous
 62
     7
100
AcDbLine
 10
1036.161961255729
 20
-1312.128145544491
 30
0.0
 11
1035.536961255729
 21
-1312.128145544491
 31
0.0
  0
LINE
  5
80
330
43
100
AcDbEntity
  8
0
  6
Continuous
 62
     7
100
AcDbLine
 10
1026.099461255729
 20
-1312.628145544491
 30
0.0
 11
1025.849461255729
 21
-1312.378145544491
 31
0.0
  0
LINE
  5
81
330
43
100
AcDbEntity
  8
0
  6
Continuous
 62
     7
100
AcDbLine
 10
1025.661961255729
 20
-1317.003145544491
 30
0.0
 11
1026.036961255729
 21
-1316.815645544491
 31
0.0
  0
LINE
  5
82
330
43
100
AcDbEntity
  8
0
  6
Continuous
 62
     7
100
AcDbLine
 10
1027.661961255729
 20
-1312.128145544491
 30
0.0
 11
1027.661961255729
 21
-1317.128145544491
 31
0.0
  0
LINE
  5
83
330
43
100
AcDbEntity
  8
0
  6
Continuous
 62
     7
100
AcDbLine
 10
1017.536961255729
 20
-1316.190645544491
 30
0.0
 11
1017.786961255729
 21
-1316.503145544491
 31
0.0
  0
LINE
  5
84
330
43
100
AcDbEntity
  8
0
  6
Continuous
 62
     7
100
AcDbLine
 10
1018.161961255729
 20
-1312.440645544491
 30
0.0
 11
1017.786961255729
 21
-1312.753145544491
 31
0.0
  0
LINE
  5
85
330
43
100
AcDbEntity
  8
0
  6
Continuous
 62
     7
100
AcDbLine
 10
1018.474461255729
 20
-1316.253145544491
 30
0.0
 11
1018.286961255729
 21
-1316.128145544491
 31
0.0
  0
LINE
  5
86
330
43
100
AcDbEntity
  8
0
  6
Continuous
 62
     7
100
AcDbLine
 10
1018.849461255729
 20
-1312.190645544491
 30
0.0
 11
1018.411961255729
 21
-1312.315645544491
 31
0.0
  0
LINE
  5
87
330
43
100
AcDbEntity
  8
0
  6
Continuous
 62
     7
100
AcDbLine
 10
1018.161961255729
 20
-1316.815645544491
 30
0.0
 11
1018.411961255729
 21
-1316.940645544491
 31
0.0
  0
LINE
  5
88
330
43
100
AcDbEntity
  8
0
  6
Continuous
 62
     7
100
AcDbLine
 10
1018.411961255729
 20
-1312.315645544491
 30
0.0
 11
1018.161961255729
 21
-1312.440645544491
 31
0.0
  0
LINE
  5
89
330
43
100
AcDbEntity
  8
0
  6
Continuous
 62
     7
100
AcDbLine
 10
1018.849461255729
 20
-1316.378145544491
 30
0.0
 11
1018.474461255729
 21
-1316.253145544491
 31
0.0
  0
LINE
  5
8A
330
43
100
AcDbEntity
  8
0
  6
Continuous
 62
     7
100
AcDbLine
 10
1019.224461255729
 20
-1316.440645544491
 30
0.0
 11
1018.849461255729
 21
-1316.378145544491
 31
0.0
  0
LINE
  5
8B
330
43
100
AcDbEntity
  8
0
  6
Continuous
 62
     7
100
AcDbLine
 10
1018.411961255729
 20
-1316.940645544491
 30
0.0
 11
1018.849461255729
 21
-1317.065645544491
 31
0.0
  0
LINE
  5
8C
330
43
100
AcDbEntity
  8
0
  6
Continuous
 62
     7
100
AcDbLine
 10
1018.849461255729
 20
-1317.065645544491
 30
0.0
 11
1019.224461255729
 21
-1317.128145544491
 31
0.0
  0
LINE
  5
8D
330
43
100
AcDbEntity
  8
0
  6
Continuous
 62
     7
100
AcDbLine
 10
1019.599461255729
 20
-1312.128145544491
 30
0.0
 11
1019.224461255729
 21
-1312.128145544491
 31
0.0
  0
LINE
  5
8E
330
43
100
AcDbEntity
  8
0
  6
Continuous
 62
     7
100
AcDbLine
 10
1019.224461255729
 20
-1312.128145544491
 30
0.0
 11
1018.849461255729
 21
-1312.190645544491
 31
0.0
  0
LINE
  5
8F
330
43
100
AcDbEntity
  8
0
  6
Continuous
 62
     7
100
AcDbLine
 10
1020.411961255729
 20
-1316.940645544491
 30
0.0
 11
1020.661961255729
 21
-1316.815645544491
 31
0.0
  0
LINE
  5
90
330
43
100
AcDbEntity
  8
0
  6
Continuous
 62
     7
100
AcDbLine
 10
1020.536961255729
 20
-1316.128145544491
 30
0.0
 11
1020.349461255729
 21
-1316.253145544491
 31
0.0
  0
LINE
  5
91
330
43
100
AcDbEntity
  8
0
  6
Continuous
 62
     7
100
AcDbLine
 10
1019.599461255729
 20
-1317.128145544491
 30
0.0
 11
1019.974461255729
 21
-1317.065645544491
 31
0.0
  0
LINE
  5
92
330
43
100
AcDbEntity
  8
0
  6
Continuous
 62
     7
100
AcDbLine
 10
1019.974461255729
 20
-1316.378145544491
 30
0.0
 11
1019.599461255729
 21
-1316.440645544491
 31
0.0
  0
LINE
  5
93
330
43
100
AcDbEntity
  8
0
  6
Continuous
 62
     7
100
AcDbLine
 10
1019.974461255729
 20
-1317.065645544491
 30
0.0
 11
1020.411961255729
 21
-1316.940645544491
 31
0.0
  0
LINE
  5
94
330
43
100
AcDbEntity
  8
0
  6
Continuous
 62
     7
100
AcDbLine
 10
1020.349461255729
 20
-1316.253145544491
 30
0.0
 11
1019.974461255729
 21
-1316.378145544491
 31
0.0
  0
LINE
  5
95
330
43
100
AcDbEntity
  8
0
  6
Continuous
 62
     7
100
AcDbLine
 10
1021.036961255729
 20
-1316.503145544491
 30
0.0
 11
1021.286961255729
 21
-1316.190645544491
 31
0.0
  0
LINE
  5
96
330
43
100
AcDbEntity
  8
0
  6
Continuous
 62
     7
100
AcDbLine
 10
1021.286961255729
 20
-1313.003145544491
 30
0.0
 11
1021.036961255729
 21
-1312.690645544491
 31
0.0
  0
LINE
  5
97
330
43
100
AcDbEntity
  8
0
  6
Continuous
 62
     7
100
AcDbLine
 10
1020.411961255729
 20
-1312.315645544491
 30
0.0
 11
1019.974461255729
 21
-1312.190645544491
 31
0.0
  0
LINE
  5
98
330
43
100
AcDbEntity
  8
0
  6
Continuous
 62
     7
100
AcDbLine
 10
1020.724461255729
 20
-1312.440645544491
 30
0.0
 11
1020.411961255729
 21
-1312.315645544491
 31
0.0
  0
LINE
  5
99
330
43
100
AcDbEntity
  8
0
  6
Continuous
 62
     7
100
AcDbLine
 10
1019.974461255729
 20
-1312.190645544491
 30
0.0
 11
1019.599461255729
 21
-1312.128145544491
 31
0.0
  0
LINE
  5
9A
330
43
100
AcDbEntity
  8
0
  6
Continuous
 62
     7
100
AcDbLine
 10
1019.224461255729
 20
-1317.128145544491
 30
0.0
 11
1019.599461255729
 21
-1317.128145544491
 31
0.0
  0
LINE
  5
9B
330
43
100
AcDbEntity
  8
0
  6
Continuous
 62
     7
100
AcDbLine
 10
1019.599461255729
 20
-1316.440645544491
 30
0.0
 11
1019.224461255729
 21
-1316.440645544491
 31
0.0
  0
LINE
  5
9C
330
43
100
AcDbEntity
  8
0
  6
Continuous
 62
     7
100
AcDbLine
 10
1022.786961255729
 20
-1312.128145544491
 30
0.0
 11
1022.786961255729
 21
-1317.128145544491
 31
0.0
  0
LINE
  5
9D
330
43
100
AcDbEntity
  8
0
  6
Continuous
 62
     7
100
AcDbLine
 10
1021.036961255729
 20
-1312.690645544491
 30
0.0
 11
1020.724461255729
 21
-1312.440645544491
 31
0.0
  0
LINE
  5
9E
330
43
100
AcDbEntity
  8
0
  6
Continuous
 62
     7
100
AcDbLine
 10
1021.286961255729
 20
-1316.190645544491
 30
0.0
 11
1021.536961255729
 21
-1315.815645544491
 31
0.0
  0
LINE
  5
9F
330
43
100
AcDbEntity
  8
0
  6
Continuous
 62
     7
100
AcDbLine
 10
1021.724461255729
 20
-1314.003145544491
 30
0.0
 11
1021.536961255729
 21
-1313.440645544491
 31
0.0
  0
LINE
  5
A0
330
43
100
AcDbEntity
  8
0
  6
Continuous
 62
     7
100
AcDbLine
 10
1021.536961255729
 20
-1313.440645544491
 30
0.0
 11
1021.286961255729
 21
-1313.003145544491
 31
0.0
  0
LINE
  5
A1
330
43
100
AcDbEntity
  8
0
  6
Continuous
 62
     7
100
AcDbLine
 10
1017.786961255729
 20
-1316.503145544491
 30
0.0
 11
1018.161961255729
 21
-1316.815645544491
 31
0.0
  0
LINE
  5
A2
330
43
100
AcDbEntity
  8
0
  6
Continuous
 62
     7
100
AcDbLine
 10
1020.661961255729
 20
-1316.815645544491
 30
0.0
 11
1021.036961255729
 21
-1316.503145544491
 31
0.0
  0
LINE
  5
A3
330
43
100
AcDbEntity
  8
0
  6
Continuous
 62
     7
100
AcDbLine
 10
1025.849461255729
 20
-1312.378145544491
 30
0.0
 11
1025.474461255729
 21
-1312.190645544491
 31
0.0
  0
LINE
  5
A4
330
43
100
AcDbEntity
  8
0
  6
Continuous
 62
     7
100
AcDbLine
 10
1031.224461255729
 20
-1312.753145544491
 30
0.0
 11
1031.224461255729
 21
-1312.128145544491
 31
0.0
  0
LINE
  5
A5
330
43
100
AcDbEntity
  8
0
  6
Continuous
 62
     7
100
AcDbLine
 10
1028.349461255729
 20
-1312.753145544491
 30
0.0
 11
1031.224461255729
 21
-1312.753145544491
 31
0.0
  0
LINE
  5
A6
330
43
100
AcDbEntity
  8
0
  6
Continuous
 62
     7
100
AcDbLine
 10
1030.974461255729
 20
-1314.253145544491
 30
0.0
 11
1028.349461255729
 21
-1314.253145544491
 31
0.0
  0
LINE
  5
A7
330
43
100
AcDbEntity
  8
0
  6
Continuous
 62
     7
100
AcDbLine
 10
1017.286961255729
 20
-1315.815645544491
 30
0.0
 11
1017.536961255729
 21
-1316.190645544491
 31
0.0
  0
LINE
  5
A8
330
43
100
AcDbEntity
  8
0
  6
Continuous
 62
     7
100
AcDbLine
 10
1018.286961255729
 20
-1316.128145544491
 30
0.0
 11
1018.099461255729
 21
-1315.940645544491
 31
0.0
  0
LINE
  5
A9
330
43
100
AcDbEntity
  8
0
  6
Continuous
 62
     7
100
AcDbLine
 10
1021.099461255729
 20
-1314.815645544491
 30
0.0
 11
1021.036961255729
 21
-1315.253145544491
 31
0.0
  0
LINE
  5
AA
330
43
100
AcDbEntity
  8
0
  6
Continuous
 62
     7
100
AcDbLine
 10
1021.036961255729
 20
-1315.253145544491
 30
0.0
 11
1020.911961255729
 21
-1315.628145544491
 31
0.0
  0
LINE
  5
AB
330
43
100
AcDbEntity
  8
0
  6
Continuous
 62
     7
100
AcDbLine
 10
1020.911961255729
 20
-1315.628145544491
 30
0.0
 11
1020.724461255729
 21
-1315.940645544491
 31
0.0
  0
LINE
  5
AC
330
43
100
AcDbEntity
  8
0
  6
Continuous
 62
     7
100
AcDbLine
 10
1020.724461255729
 20
-1315.940645544491
 30
0.0
 11
1020.536961255729
 21
-1316.128145544491
 31
0.0
  0
LINE
  5
AD
330
43
100
AcDbEntity
  8
0
  6
Continuous
 62
     7
100
AcDbLine
 10
1017.911961255729
 20
-1315.628145544491
 30
0.0
 11
1017.786961255729
 21
-1315.253145544491
 31
0.0
  0
LINE
  5
AE
330
43
100
AcDbEntity
  8
0
  6
Continuous
 62
     7
100
AcDbLine
 10
1018.099461255729
 20
-1315.940645544491
 30
0.0
 11
1017.911961255729
 21
-1315.628145544491
 31
0.0
  0
LINE
  5
AF
330
43
100
AcDbEntity
  8
0
  6
Continuous
 62
     7
100
AcDbLine
 10
1021.724461255729
 20
-1315.253145544491
 30
0.0
 11
1021.786961255729
 21
-1314.815645544491
 31
0.0
  0
LINE
  5
B0
330
43
100
AcDbEntity
  8
0
  6
Continuous
 62
     7
100
AcDbLine
 10
1021.786961255729
 20
-1314.815645544491
 30
0.0
 11
1021.786961255729
 21
-1314.440645544491
 31
0.0
  0
LINE
  5
B1
330
43
100
AcDbEntity
  8
0
  6
Continuous
 62
     7
100
AcDbLine
 10
1021.786961255729
 20
-1314.440645544491
 30
0.0
 11
1021.724461255729
 21
-1314.003145544491
 31
0.0
  0
LINE
  5
B2
330
43
100
AcDbEntity
  8
0
  6
Continuous
 62
     7
100
AcDbLine
 10
1026.349461255729
 20
-1313.878145544491
 30
0.0
 11
1026.411961255729
 21
-1313.565645544491
 31
0.0
  0
LINE
  5
B3
330
43
100
AcDbEntity
  8
0
  6
Continuous
 62
     7
100
AcDbLine
 10
1026.536961255729
 20
-1315.003145544491
 30
0.0
 11
1026.286961255729
 21
-1314.628145544491
 31
0.0
  0
LINE
  5
B4
330
43
100
AcDbEntity
  8
0
  6
Continuous
 62
     7
100
AcDbLine
 10
1021.536961255729
 20
-1315.815645544491
 30
0.0
 11
1021.724461255729
 21
-1315.253145544491
 31
0.0
  0
LINE
  5
B5
330
43
100
AcDbEntity
  8
0
  6
Continuous
 62
     7
100
AcDbLine
 10
1017.099461255729
 20
-1315.253145544491
 30
0.0
 11
1017.286961255729
 21
-1315.815645544491
 31
0.0
  0
LINE
  5
B6
330
43
100
AcDbEntity
  8
0
  6
Continuous
 62
     7
100
AcDbLine
 10
1025.474461255729
 20
-1312.190645544491
 30
0.0
 11
1025.161961255729
 21
-1312.128145544491
 31
0.0
  0
LINE
  5
B7
330
43
100
AcDbEntity
  8
0
  6
Continuous
 62
     7
100
AcDbLine
 10
1025.161961255729
 20
-1317.128145544491
 30
0.0
 11
1025.661961255729
 21
-1317.003145544491
 31
0.0
  0
LINE
  5
B8
330
43
100
AcDbEntity
  8
0
  6
Continuous
 62
     7
100
AcDbLine
 10
1032.286961255729
 20
-1317.128145544491
 30
0.0
 11
1032.911961255729
 21
-1317.128145544491
 31
0.0
  0
LINE
  5
B9
330
43
100
AcDbEntity
  8
0
  6
Continuous
 62
     7
100
AcDbLine
 10
1031.286961255729
 20
-1317.128145544491
 30
0.0
 11
1031.286961255729
 21
-1316.503145544491
 31
0.0
  0
LINE
  5
BA
330
43
100
AcDbEntity
  8
0
  6
Continuous
 62
     7
100
AcDbLine
 10
1026.411961255729
 20
-1313.315645544491
 30
0.0
 11
1026.349461255729
 21
-1313.003145544491
 31
0.0
  0
LINE
  5
BB
330
43
100
AcDbEntity
  8
0
  6
Continuous
 62
     7
100
AcDbLine
 10
1026.349461255729
 20
-1316.503145544491
 30
0.0
 11
1026.536961255729
 21
-1316.190645544491
 31
0.0
  0
LINE
  5
BC
330
43
100
AcDbEntity
  8
0
  6
Continuous
 62
     7
100
AcDbLine
 10
1028.349461255729
 20
-1316.503145544491
 30
0.0
 11
1028.349461255729
 21
-1314.878145544491
 31
0.0
  0
LINE
  5
BD
330
43
100
AcDbEntity
  8
0
  6
Continuous
 62
     7
100
AcDbLine
 10
1031.286961255729
 20
-1316.503145544491
 30
0.0
 11
1028.349461255729
 21
-1316.503145544491
 31
0.0
  0
LINE
  5
BE
330
43
100
AcDbEntity
  8
0
  6
Continuous
 62
     7
100
AcDbLine
 10
1027.661961255729
 20
-1317.128145544491
 30
0.0
 11
1031.286961255729
 21
-1317.128145544491
 31
0.0
  0
LINE
  5
BF
330
43
100
AcDbEntity
  8
0
  6
Continuous
 62
     7
100
AcDbLine
 10
1035.474461255729
 20
-1317.128145544491
 30
0.0
 11
1036.161961255729
 21
-1317.128145544491
 31
0.0
  0
LINE
  5
C0
330
43
100
AcDbEntity
  8
0
  6
Continuous
 62
     7
100
AcDbLine
 10
1035.536961255729
 20
-1312.128145544491
 30
0.0
 11
1035.536961255729
 21
-1316.003145544491
 31
0.0
  0
LINE
  5
C1
330
43
100
AcDbEntity
  8
0
  6
Continuous
 62
     7
100
AcDbLine
 10
1032.974461255729
 20
-1312.128145544491
 30
0.0
 11
1032.286961255729
 21
-1312.128145544491
 31
0.0
  0
LINE
  5
C2
330
43
100
AcDbEntity
  8
0
  6
Continuous
 62
     7
100
AcDbLine
 10
1035.536961255729
 20
-1316.003145544491
 30
0.0
 11
1032.974461255729
 21
-1312.128145544491
 31
0.0
  0
LINE
  5
C3
330
43
100
AcDbEntity
  8
0
  6
Continuous
 62
     7
100
AcDbLine
 10
1032.286961255729
 20
-1312.128145544491
 30
0.0
 11
1032.286961255729
 21
-1317.128145544491
 31
0.0
  0
LINE
  5
C4
330
43
100
AcDbEntity
  8
0
  6
Continuous
 62
     7
100
AcDbLine
 10
1032.911961255729
 20
-1317.128145544491
 30
0.0
 11
1032.911961255729
 21
-1313.253145544491
 31
0.0
  0
LINE
  5
C5
330
43
100
AcDbEntity
  8
0
  6
Continuous
 62
     7
100
AcDbLine
 10
1036.161961255729
 20
-1317.128145544491
 30
0.0
 11
1036.161961255729
 21
-1312.128145544491
 31
0.0
  0
LINE
  5
C6
330
43
100
AcDbEntity
  8
0
  6
Continuous
 62
     7
100
AcDbLine
 10
1026.411961255729
 20
-1313.565645544491
 30
0.0
 11
1026.411961255729
 21
-1313.315645544491
 31
0.0
  0
LINE
  5
C7
330
43
100
AcDbEntity
  8
0
  6
Continuous
 62
     7
100
AcDbLine
 10
1026.661961255729
 20
-1315.440645544491
 30
0.0
 11
1026.536961255729
 21
-1315.003145544491
 31
0.0
  0
LINE
  5
C8
330
43
100
AcDbEntity
  8
0
  6
Continuous
 62
     7
100
AcDbLine
 10
1026.661961255729
 20
-1315.753145544491
 30
0.0
 11
1026.661961255729
 21
-1315.440645544491
 31
0.0
  0
LINE
  5
C9
330
43
100
AcDbEntity
  8
0
  6
Continuous
 62
     7
100
AcDbLine
 10
1026.536961255729
 20
-1316.190645544491
 30
0.0
 11
1026.661961255729
 21
-1315.753145544491
 31
0.0
  0
LINE
  5
CA
330
43
100
AcDbEntity
  8
0
  6
Continuous
 62
     7
100
AcDbLine
 10
1028.349461255729
 20
-1314.253145544491
 30
0.0
 11
1028.349461255729
 21
-1312.753145544491
 31
0.0
  0
LINE
  5
CB
330
43
100
AcDbEntity
  8
0
  6
Continuous
 62
     7
100
AcDbLine
 10
1030.974461255729
 20
-1314.878145544491
 30
0.0
 11
1030.974461255729
 21
-1314.253145544491
 31
0.0
  0
LINE
  5
CC
330
43
100
AcDbEntity
  8
0
  6
Continuous
 62
     7
100
AcDbLine
 10
1028.349461255729
 20
-1314.878145544491
 30
0.0
 11
1030.974461255729
 21
-1314.878145544491
 31
0.0
  0
LINE
  5
CD
330
43
100
AcDbEntity
  8
0
  6
Continuous
 62
     7
100
AcDbLine
 10
1032.911961255729
 20
-1313.253145544491
 30
0.0
 11
1035.474461255729
 21
-1317.128145544491
 31
0.0
  0
LINE
  5
CE
330
43
100
AcDbEntity
  8
0
  6
Continuous
 62
     7
100
AcDbLine
 10
1025.724461255729
 20
-1313.565645544491
 30
0.0
 11
1025.661961255729
 21
-1313.753145544491
 31
0.0
  0
LINE
  5
CF
330
43
100
AcDbEntity
  8
0
  6
Continuous
 62
     7
100
AcDbLine
 10
1026.349461255729
 20
-1313.003145544491
 30
0.0
 11
1026.099461255729
 21
-1312.628145544491
 31
0.0
  0
LINE
  5
D0
330
43
100
AcDbEntity
  8
0
  6
Continuous
 62
     7
100
AcDbLine
 10
1025.724461255729
 20
-1313.315645544491
 30
0.0
 11
1025.724461255729
 21
-1313.565645544491
 31
0.0
  0
LINE
  5
D1
330
43
100
AcDbEntity
  8
0
  6
Continuous
 62
     7
100
AcDbLine
 10
1025.661961255729
 20
-1313.128145544491
 30
0.0
 11
1025.724461255729
 21
-1313.315645544491
 31
0.0
  0
LINE
  5
D2
330
43
100
AcDbEntity
  8
0
  6
Continuous
 62
     7
100
AcDbLine
 10
1025.536961255729
 20
-1312.940645544491
 30
0.0
 11
1025.661961255729
 21
-1313.128145544491
 31
0.0
  0
LINE
  5
D3
330
43
100
AcDbEntity
  8
0
  6
Continuous
 62
     7
100
AcDbLine
 10
1025.349461255729
 20
-1312.815645544491
 30
0.0
 11
1025.536961255729
 21
-1312.940645544491
 31
0.0
  0
LINE
  5
D4
330
43
100
AcDbEntity
  8
0
  6
Continuous
 62
     7
100
AcDbLine
 10
1025.099461255729
 20
-1312.753145544491
 30
0.0
 11
1025.349461255729
 21
-1312.815645544491
 31
0.0
  0
LINE
  5
D5
330
43
100
AcDbEntity
  8
0
  6
Continuous
 62
     7
100
AcDbLine
 10
1025.661961255729
 20
-1313.753145544491
 30
0.0
 11
1025.536961255729
 21
-1313.940645544491
 31
0.0
  0
LINE
  5
D6
330
43
100
AcDbEntity
  8
0
  6
Continuous
 62
     7
100
AcDbLine
 10
1018.849461255729
 20
-1312.878145544491
 30
0.0
 11
1019.224461255729
 21
-1312.815645544491
 31
0.0
  0
LINE
  5
D7
330
43
100
AcDbEntity
  8
0
  6
Continuous
 62
     7
100
AcDbLine
 10
1019.599461255729
 20
-1312.815645544491
 30
0.0
 11
1019.974461255729
 21
-1312.878145544491
 31
0.0
  0
LINE
  5
D8
330
43
100
AcDbEntity
  8
0
  6
Continuous
 62
     7
100
AcDbLine
 10
1019.224461255729
 20
-1312.815645544491
 30
0.0
 11
1019.599461255729
 21
-1312.815645544491
 31
0.0
  0
LINE
  5
D9
330
43
100
AcDbEntity
  8
0
  6
Continuous
 62
     7
100
AcDbLine
 10
1017.786961255729
 20
-1312.753145544491
 30
0.0
 11
1017.536961255729
 21
-1313.065645544491
 31
0.0
  0
LINE
  5
DA
330
43
100
AcDbEntity
  8
0
  6
Continuous
 62
     7
100
AcDbLine
 10
1018.474461255729
 20
-1313.003145544491
 30
0.0
 11
1018.849461255729
 21
-1312.878145544491
 31
0.0
  0
LINE
  5
DB
330
43
100
AcDbEntity
  8
0
  6
Continuous
 62
     7
100
AcDbLine
 10
1023.474461255729
 20
-1312.753145544491
 30
0.0
 11
1025.099461255729
 21
-1312.753145544491
 31
0.0
  0
LINE
  5
DC
330
43
100
AcDbEntity
  8
0
  6
Continuous
 62
     7
100
AcDbLine
 10
1021.036961255729
 20
-1314.003145544491
 30
0.0
 11
1021.099461255729
 21
-1314.440645544491
 31
0.0
  0
LINE
  5
DD
330
43
100
AcDbEntity
  8
0
  6
Continuous
 62
     7
100
AcDbLine
 10
1021.099461255729
 20
-1314.440645544491
 30
0.0
 11
1021.099461255729
 21
-1314.815645544491
 31
0.0
  0
LINE
  5
DE
330
43
100
AcDbEntity
  8
0
  6
Continuous
 62
     7
100
AcDbLine
 10
1020.724461255729
 20
-1313.315645544491
 30
0.0
 11
1020.911961255729
 21
-1313.628145544491
 31
0.0
  0
LINE
  5
DF
330
43
100
AcDbEntity
  8
0
  6
Continuous
 62
     7
100
AcDbLine
 10
1020.536961255729
 20
-1313.128145544491
 30
0.0
 11
1020.724461255729
 21
-1313.315645544491
 31
0.0
  0
LINE
  5
E0
330
43
100
AcDbEntity
  8
0
  6
Continuous
 62
     7
100
AcDbLine
 10
1020.349461255729
 20
-1313.003145544491
 30
0.0
 11
1020.536961255729
 21
-1313.128145544491
 31
0.0
  0
LINE
  5
E1
330
43
100
AcDbEntity
  8
0
  6
Continuous
 62
     7
100
AcDbLine
 10
1019.974461255729
 20
-1312.878145544491
 30
0.0
 11
1020.349461255729
 21
-1313.003145544491
 31
0.0
  0
LINE
  5
E2
330
43
100
AcDbEntity
  8
0
  6
Continuous
 62
     7
100
AcDbLine
 10
1020.911961255729
 20
-1313.628145544491
 30
0.0
 11
1021.036961255729
 21
-1314.003145544491
 31
0.0
  0
LINE
  5
E3
330
43
100
AcDbEntity
  8
0
  6
Continuous
 62
     7
100
AcDbLine
 10
1023.474461255729
 20
-1314.128145544491
 30
0.0
 11
1023.474461255729
 21
-1312.753145544491
 31
0.0
  0
LINE
  5
E4
330
43
100
AcDbEntity
  8
0
  6
Continuous
 62
     7
100
AcDbLine
 10
1018.286961255729
 20
-1313.128145544491
 30
0.0
 11
1018.474461255729
 21
-1313.003145544491
 31
0.0
  0
LINE
  5
E5
330
43
100
AcDbEntity
  8
0
  6
Continuous
 62
     7
100
AcDbLine
 10
1017.536961255729
 20
-1313.065645544491
 30
0.0
 11
1017.286961255729
 21
-1313.440645544491
 31
0.0
  0
LINE
  5
E6
330
43
100
AcDbEntity
  8
0
  6
Continuous
 62
     7
100
AcDbLine
 10
1018.099461255729
 20
-1313.315645544491
 30
0.0
 11
1018.286961255729
 21
-1313.128145544491
 31
0.0
  0
LINE
  5
E7
330
43
100
AcDbEntity
  8
0
  6
Continuous
 62
     7
100
AcDbLine
 10
1017.911961255729
 20
-1313.628145544491
 30
0.0
 11
1018.099461255729
 21
-1313.315645544491
 31
0.0
  0
LINE
  5
E8
330
43
100
AcDbEntity
  8
0
  6
Continuous
 62
     7
100
AcDbLine
 10
1017.724461255729
 20
-1314.815645544491
 30
0.0
 11
1017.724461255729
 21
-1314.440645544491
 31
0.0
  0
LINE
  5
E9
330
43
100
AcDbEntity
  8
0
  6
Continuous
 62
     7
100
AcDbLine
 10
1017.036961255729
 20
-1314.440645544491
 30
0.0
 11
1017.036961255729
 21
-1314.815645544491
 31
0.0
  0
LINE
  5
EA
330
43
100
AcDbEntity
  8
0
  6
Continuous
 62
     7
100
AcDbLine
 10
1017.724461255729
 20
-1314.440645544491
 30
0.0
 11
1017.786961255729
 21
-1314.003145544491
 31
0.0
  0
LINE
  5
EB
330
43
100
AcDbEntity
  8
0
  6
Continuous
 62
     7
100
AcDbLine
 10
1017.099461255729
 20
-1314.003145544491
 30
0.0
 11
1017.036961255729
 21
-1314.440645544491
 31
0.0
  0
LINE
  5
EC
330
43
100
AcDbEntity
  8
0
  6
Continuous
 62
     7
100
AcDbLine
 10
1017.786961255729
 20
-1314.003145544491
 30
0.0
 11
1017.911961255729
 21
-1313.628145544491
 31
0.0
  0
LINE
  5
ED
330
43
100
AcDbEntity
  8
0
  6
Continuous
 62
     7
100
AcDbLine
 10
1017.036961255729
 20
-1314.815645544491
 30
0.0
 11
1017.099461255729
 21
-1315.253145544491
 31
0.0
  0
LINE
  5
EE
330
43
100
AcDbEntity
  8
0
  6
Continuous
 62
     7
100
AcDbLine
 10
1017.786961255729
 20
-1315.253145544491
 30
0.0
 11
1017.724461255729
 21
-1314.815645544491
 31
0.0
  0
LINE
  5
EF
330
43
100
AcDbEntity
  8
0
  6
Continuous
 62
     7
100
AcDbLine
 10
1017.286961255729
 20
-1313.440645544491
 30
0.0
 11
1017.099461255729
 21
-1314.003145544491
 31
0.0
  0
LINE
  5
F0
330
43
100
AcDbEntity
  8
0
  6
Continuous
 62
     7
100
AcDbLine
 10
1025.661961255729
 20
-1316.190645544491
 30
0.0
 11
1025.411961255729
 21
-1316.378145544491
 31
0.0
  0
LINE
  5
F1
330
43
100
AcDbEntity
  8
0
  6
Continuous
 62
     7
100
AcDbLine
 10
1025.536961255729
 20
-1313.940645544491
 30
0.0
 11
1025.349461255729
 21
-1314.065645544491
 31
0.0
  0
LINE
  5
F2
330
43
100
AcDbEntity
  8
0
  6
Continuous
 62
     7
100
AcDbLine
 10
1025.849461255729
 20
-1315.940645544491
 30
0.0
 11
1025.661961255729
 21
-1316.190645544491
 31
0.0
  0
LINE
  5
F3
330
43
100
AcDbEntity
  8
0
  6
Continuous
 62
     7
100
AcDbLine
 10
1025.411961255729
 20
-1316.378145544491
 30
0.0
 11
1025.099461255729
 21
-1316.440645544491
 31
0.0
  0
LINE
  5
F4
330
43
100
AcDbEntity
  8
0
  6
Continuous
 62
     7
100
AcDbLine
 10
1025.099461255729
 20
-1316.440645544491
 30
0.0
 11
1023.474461255729
 21
-1316.440645544491
 31
0.0
  0
LINE
  5
F5
330
43
100
AcDbEntity
  8
0
  6
Continuous
 62
     7
100
AcDbLine
 10
1025.661961255729
 20
-1314.940645544491
 30
0.0
 11
1025.849461255729
 21
-1315.190645544491
 31
0.0
  0
LINE
  5
F6
330
43
100
AcDbEntity
  8
0
  6
Continuous
 62
     7
100
AcDbLine
 10
1025.099461255729
 20
-1314.128145544491
 30
0.0
 11
1023.474461255729
 21
-1314.128145544491
 31
0.0
  0
LINE
  5
F7
330
43
100
AcDbEntity
  8
0
  6
Continuous
 62
     7
100
AcDbLine
 10
1025.911961255729
 20
-1315.440645544491
 30
0.0
 11
1025.911961255729
 21
-1315.690645544491
 31
0.0
  0
LINE
  5
F8
330
43
100
AcDbEntity
  8
0
  6
Continuous
 62
     7
100
AcDbLine
 10
1025.911961255729
 20
-1315.690645544491
 30
0.0
 11
1025.849461255729
 21
-1315.940645544491
 31
0.0
  0
LINE
  5
F9
330
43
100
AcDbEntity
  8
0
  6
Continuous
 62
     7
100
AcDbLine
 10
1025.849461255729
 20
-1315.190645544491
 30
0.0
 11
1025.911961255729
 21
-1315.440645544491
 31
0.0
  0
LINE
  5
FA
330
43
100
AcDbEntity
  8
0
  6
Continuous
 62
     7
100
AcDbLine
 10
1025.349461255729
 20
-1314.065645544491
 30
0.0
 11
1025.099461255729
 21
-1314.128145544491
 31
0.0
  0
LINE
  5
FB
330
43
100
AcDbEntity
  8
0
  6
Continuous
 62
     7
100
AcDbLine
 10
1025.099461255729
 20
-1314.690645544491
 30
0.0
 11
1025.411961255729
 21
-1314.753145544491
 31
0.0
  0
LINE
  5
FC
330
43
100
AcDbEntity
  8
0
  6
Continuous
 62
     7
100
AcDbLine
 10
1023.474461255729
 20
-1314.690645544491
 30
0.0
 11
1025.099461255729
 21
-1314.690645544491
 31
0.0
  0
LINE
  5
FD
330
43
100
AcDbEntity
  8
0
  6
Continuous
 62
     7
100
AcDbLine
 10
1023.474461255729
 20
-1316.440645544491
 30
0.0
 11
1023.474461255729
 21
-1314.690645544491
 31
0.0
  0
LINE
  5
FE
330
43
100
AcDbEntity
  8
0
  6
Continuous
 62
     7
100
AcDbLine
 10
1022.786961255729
 20
-1317.128145544491
 30
0.0
 11
1025.161961255729
 21
-1317.128145544491
 31
0.0
  0
LINE
  5
FF
330
43
100
AcDbEntity
  8
0
  6
Continuous
 62
     7
100
AcDbLine
 10
1026.099461255729
 20
-1314.253145544491
 30
0.0
 11
1026.349461255729
 21
-1313.878145544491
 31
0.0
  0
LINE
  5
100
330
43
100
AcDbEntity
  8
0
  6
Continuous
 62
     7
100
AcDbLine
 10
1025.974461255729
 20
-1314.378145544491
 30
0.0
 11
1026.099461255729
 21
-1314.253145544491
 31
0.0
  0
LINE
  5
101
330
43
100
AcDbEntity
  8
0
  6
Continuous
 62
     7
100
AcDbLine
 10
1026.286961255729
 20
-1314.628145544491
 30
0.0
 11
1025.974461255729
 21
-1314.378145544491
 31
0.0
  0
LINE
  5
102
330
43
100
AcDbEntity
  8
0
  6
Continuous
 62
     7
100
AcDbLine
 10
1026.036961255729
 20
-1316.815645544491
 30
0.0
 11
1026.349461255729
 21
-1316.503145544491
 31
0.0
  0
LINE
  5
103
330
43
100
AcDbEntity
  8
0
  6
Continuous
 62
     7
100
AcDbLine
 10
1025.411961255729
 20
-1314.753145544491
 30
0.0
 11
1025.661961255729
 21
-1314.940645544491
 31
0.0
  0
LINE
  5
104
330
43
100
AcDbEntity
  8
0
  6
Continuous
 62
     7
100
AcDbLine
 10
1032.793153255729
 20
-1461.02814554468
 30
0.0
 11
1036.49310134951
 21
-1461.02814554468
 31
0.0
  0
LINE
  5
105
330
43
100
AcDbEntity
  8
0
  6
Continuous
 62
     7
100
AcDbLine
 10
1036.49310134951
 20
-1460.22814554468
 30
0.0
 11
1032.793153255729
 21
-1460.22814554468
 31
0.0
  0
LINE
  5
106
330
43
100
AcDbEntity
  8
0
  6
Continuous
 62
     7
100
AcDbLine
 10
1026.093153255599
 20
-1458.528145544661
 30
0.0
 11
1026.093153255599
 21
-1460.228145544669
 31
0.0
  0
LINE
  5
107
330
43
100
AcDbEntity
  8
0
  6
Continuous
 62
     7
100
AcDbLine
 10
1026.093153255599
 20
-1460.228145544669
 30
0.0
 11
1023.69315325555
 21
-1460.228145544669
 31
0.0
  0
LINE
  5
108
330
43
100
AcDbEntity
  8
0
  6
Continuous
 62
     7
100
AcDbLine
 10
1023.69315325555
 20
-1460.228145544669
 30
0.0
 11
1023.69315325563
 21
-1458.528145544661
 31
0.0
  0
LINE
  5
109
330
43
100
AcDbEntity
  8
0
  6
Continuous
 62
     7
100
AcDbLine
 10
1026.893153255729
 20
-1462.728145544669
 30
0.0
 11
1026.893153255729
 21
-1458.528145544661
 31
0.0
  0
LINE
  5
10A
330
43
100
AcDbEntity
  8
0
  6
Continuous
 62
     7
100
AcDbLine
 10
1022.893153255649
 20
-1458.528145544661
 30
0.0
 11
1022.893153255631
 21
-1462.728145544662
 31
0.0
  0
LINE
  5
10B
330
43
100
AcDbEntity
  8
0
  6
Continuous
 62
     7
100
AcDbLine
 10
1023.693153255648
 20
-1462.728145544669
 30
0.0
 11
1023.693153255648
 21
-1461.02814554469
 31
0.0
  0
LINE
  5
10C
330
43
100
AcDbEntity
  8
0
  6
Continuous
 62
     7
100
AcDbLine
 10
1026.09315325569
 20
-1461.02814554469
 30
0.0
 11
1026.093153255588
 21
-1462.728145544669
 31
0.0
  0
LINE
  5
10D
330
43
100
AcDbEntity
  8
0
  6
Continuous
 62
     7
100
AcDbLine
 10
1023.693153255648
 20
-1461.02814554469
 30
0.0
 11
1026.09315325569
 21
-1461.02814554469
 31
0.0
  0
LINE
  5
10E
330
43
100
AcDbEntity
  8
0
  6
Continuous
 62
     7
100
AcDbLine
 10
1028.79315325564
 20
-1463.02814554469
 30
0.0
 11
1030.993153255589
 21
-1463.02814554469
 31
0.0
  0
LINE
  5
10F
330
43
100
AcDbEntity
  8
0
  6
Continuous
 62
     7
100
AcDbLine
 10
1020.993153255729
 20
-1460.22814554468
 30
0.0
 11
1017.293205161948
 21
-1460.22814554468
 31
0.0
  0
LINE
  5
110
330
43
100
AcDbEntity
  8
0
  6
Continuous
 62
     7
100
AcDbLine
 10
1030.993153255589
 20
-1462.228145544669
 30
0.0
 11
1029.19315325555
 21
-1462.228145544669
 31
0.0
  0
LINE
  5
111
330
43
100
AcDbEntity
  8
0
  6
Continuous
 62
     7
100
AcDbLine
 10
1017.293205161948
 20
-1461.02814554468
 30
0.0
 11
1020.993153255729
 21
-1461.02814554468
 31
0.0
  0
LINE
  5
112
330
43
100
AcDbEntity
  8
0
  6
Continuous
 62
     7
100
AcDbLine
 10
1029.19315325555
 20
-1462.228145544669
 30
0.0
 11
1029.19315325563
 21
-1458.528145544661
 31
0.0
  0
LINE
  5
113
330
43
100
AcDbEntity
  8
0
  6
Continuous
 62
     7
100
AcDbLine
 10
1028.393153255729
 20
-1458.528145544661
 30
0.0
 11
1028.39315325562
 21
-1462.628145544671
 31
0.0
  0
ARC
  5
114
330
43
100
AcDbEntity
  8
0
  6
Continuous
 62
     7
100
AcDbCircle
 10
1026.893153255729
 20
-1331.128145544491
 30
0.0
 40
4.000000000000072
100
AcDbArc
 50
140.4628006498289
 51
174.8274834499154
  0
ARC
  5
115
330
43
100
AcDbEntity
  8
0
  6
Continuous
 62
     7
100
AcDbCircle
 10
1026.893153255729
 20
-1331.128145544491
 30
0.0
 40
4.000000000000309
100
AcDbArc
 50
116.6369386231701
 51
116.9563840265304
  0
ARC
  5
116
330
43
100
AcDbEntity
  8
0
  6
Continuous
 62
     7
100
AcDbCircle
 10
1026.893153255729
 20
-1331.128145544491
 30
0.0
 40
3.999999999999701
100
AcDbArc
 50
116.9563840265304
 51
140.4628006498289
  0
ARC
  5
117
330
43
100
AcDbEntity
  8
0
  6
Continuous
 62
     7
100
AcDbCircle
 10
1026.893153255729
 20
-1331.128145544491
 30
0.0
 40
4.000000000000159
100
AcDbArc
 50
39.53719935017011
 51
63.04361597346966
  0
ARC
  5
118
330
43
100
AcDbEntity
  8
0
  6
Continuous
 62
     7
100
AcDbCircle
 10
1026.893153255729
 20
-1331.128145544491
 30
0.0
 40
4.000000000000309
100
AcDbArc
 50
63.36306137682996
 51
116.6369386231701
  0
ARC
  5
119
330
43
100
AcDbEntity
  8
0
  6
Continuous
 62
     7
100
AcDbCircle
 10
1026.893153255729
 20
-1387.628145544491
 30
0.0
 40
65.2360679774996
100
AcDbArc
 50
59.99999999999972
 51
120.0000000000003
  0
ARC
  5
11A
330
43
100
AcDbEntity
  8
0
  6
Continuous
 62
     7
100
AcDbCircle
 10
990.393153255729
 20
-1324.408291068227
 30
0.0
 40
7.763932022500289
100
AcDbArc
 50
-60.00000000000195
 51
119.9999999999972
  0
ARC
  5
11B
330
43
100
AcDbEntity
  8
0
  6
Continuous
 62
     7
100
AcDbCircle
 10
1063.393153255729
 20
-1324.408291068227
 30
0.0
 40
7.763932022500486
100
AcDbArc
 50
60.00000000000279
 51
-119.9999999999981
  0
ARC
  5
11C
330
43
100
AcDbEntity
  8
0
  6
Continuous
 62
     7
100
AcDbCircle
 10
990.393153255729
 20
-1450.848000020755
 30
0.0
 40
7.763932022500289
100
AcDbArc
 50
-119.9999999999981
 51
60.00000000000279
  0
ARC
  5
11D
330
43
100
AcDbEntity
  8
0
  6
Continuous
 62
     7
100
AcDbCircle
 10
1026.893153255729
 20
-1387.628145544491
 30
0.0
 40
57.00000000000045
100
AcDbArc
 50
-145.9923499030871
 51
-34.00765009691306
  0
ARC
  5
11E
330
43
100
AcDbEntity
  8
0
  6
Continuous
 62
     3
100
AcDbCircle
 10
1026.893153255729
 20
-1387.628145544491
 30
0.0
 40
59.12684447079097
100
AcDbArc
 50
-147.0093291701523
 51
-32.99067082984764
  0
ARC
  5
11F
330
43
100
AcDbEntity
  8
0
  6
Continuous
 62
     3
100
AcDbCircle
 10
1026.893153255729
 20
-1387.628145544491
 30
0.0
 40
60.09277029707983
100
AcDbArc
 50
-148.270885984754
 51
-31.72911401524596
  0
ARC
  5
120
330
43
100
AcDbEntity
  8
0
  6
Continuous
 62
     7
100
AcDbCircle
 10
1075.82358856955
 20
-1415.878145544493
 30
0.0
 40
3.999999999999273
100
AcDbArc
 50
-3.36306137679861
 51
-3.04361597343907
  0
ARC
  5
121
330
43
100
AcDbEntity
  8
0
  6
Continuous
 62
     7
100
AcDbCircle
 10
1075.82358856955
 20
-1415.878145544491
 30
0.0
 40
4.000000000000103
100
AcDbArc
 50
-56.63693862317974
 51
-3.36306137682787
  0
ARC
  5
122
330
43
100
AcDbEntity
  8
0
  6
Continuous
 62
     3
100
AcDbCircle
 10
1026.893153255729
 20
-1387.628145544491
 30
0.0
 40
60.10222252113287
100
AcDbArc
 50
-148.2901435839103
 51
-31.70985641608971
  0
ARC
  5
123
330
43
100
AcDbEntity
  8
0
  6
Continuous
 62
     7
100
AcDbCircle
 10
990.393153255729
 20
-1324.408291068227
 30
0.0
 40
7.763932022500486
100
AcDbArc
 50
119.9999999999972
 51
-60.00000000000195
  0
ARC
  5
124
330
43
100
AcDbEntity
  8
0
  6
Continuous
 62
     7
100
AcDbCircle
 10
1026.893153255729
 20
-1387.628145544491
 30
0.0
 40
80.76393202250037
100
AcDbArc
 50
119.9999999999998
 51
180.0
  0
ARC
  5
125
330
43
100
AcDbEntity
  8
0
  6
Continuous
 62
     7
100
AcDbCircle
 10
953.893153255729
 20
-1387.628145544491
 30
0.0
 40
7.76393202249983
100
AcDbArc
 50
180.0
 51
0.0
  0
ARC
  5
126
330
43
100
AcDbEntity
  8
0
  6
Continuous
 62
     7
100
AcDbCircle
 10
953.893153255729
 20
-1387.628145544491
 30
0.0
 40
7.76393202249983
100
AcDbArc
 50
0.0
 51
180.0
  0
ARC
  5
127
330
43
100
AcDbEntity
  8
0
  6
Continuous
 62
     7
100
AcDbCircle
 10
990.393153255729
 20
-1450.848000020755
 30
0.0
 40
7.763932022500486
100
AcDbArc
 50
60.00000000000279
 51
-119.9999999999981
  0
ARC
  5
128
330
43
100
AcDbEntity
  8
0
  6
Continuous
 62
     7
100
AcDbCircle
 10
1026.893153255729
 20
-1387.628145544491
 30
0.0
 40
56.99999999999944
100
AcDbArc
 50
94.00765009691274
 51
-154.0076500969128
  0
ARC
  5
129
330
43
100
AcDbEntity
  8
0
  6
Continuous
 62
     7
100
AcDbCircle
 10
977.9627179419081
 20
-1415.87814554449
 30
0.0
 40
4.000000000000988
100
AcDbArc
 50
-99.53719935016993
 51
-65.17251655010227
  0
ARC
  5
12A
330
43
100
AcDbEntity
  8
0
  6
Continuous
 62
     7
100
AcDbCircle
 10
977.9627179419081
 20
-1415.87814554449
 30
0.0
 40
4.000000000000988
100
AcDbArc
 50
-123.3630613768158
 51
-123.0436159734628
  0
ARC
  5
12B
330
43
100
AcDbEntity
  8
0
  6
Continuous
 62
     7
100
AcDbCircle
 10
977.9627179419081
 20
-1415.87814554449
 30
0.0
 40
4.000000000000594
100
AcDbArc
 50
-123.0436159734628
 51
-99.53719935016993
  0
ARC
  5
12C
330
43
100
AcDbEntity
  8
0
  6
Continuous
 62
     7
100
AcDbCircle
 10
977.9627179419081
 20
-1415.87814554449
 30
0.0
 40
3.999999999998961
100
AcDbArc
 50
125.1725165500966
 51
159.5371993501796
  0
ARC
  5
12D
330
43
100
AcDbEntity
  8
0
  6
Continuous
 62
     7
100
AcDbCircle
 10
977.9627179419081
 20
-1415.87814554449
 30
0.0
 40
3.999999999999832
100
AcDbArc
 50
-176.9563840265188
 51
-176.6369386231592
  0
ARC
  5
12E
330
43
100
AcDbEntity
  8
0
  6
Continuous
 62
     7
100
AcDbCircle
 10
977.9627179419081
 20
-1415.87814554449
 30
0.0
 40
3.999999999999075
100
AcDbArc
 50
159.5371993501796
 51
-176.9563840265188
  0
ARC
  5
12F
330
43
100
AcDbEntity
  8
0
  6
Continuous
 62
     7
100
AcDbCircle
 10
977.9627179419081
 20
-1415.87814554449
 30
0.0
 40
3.999999999999446
100
AcDbArc
 50
-176.6369386231592
 51
-123.3630613768158
  0
ARC
  5
130
330
43
100
AcDbEntity
  8
0
  6
Continuous
 62
     7
100
AcDbCircle
 10
1026.893153255729
 20
-1387.628145544491
 30
0.0
 40
65.23606797750017
100
AcDbArc
 50
180.0
 51
-120.0000000000003
  0
ARC
  5
131
330
43
100
AcDbEntity
  8
0
  6
Continuous
 62
     7
100
AcDbCircle
 10
1026.893153255729
 20
-1387.628145544491
 30
0.0
 40
65.2360679774996
100
AcDbArc
 50
120.0000000000003
 51
180.0
  0
ARC
  5
132
330
43
100
AcDbEntity
  8
0
  6
Continuous
 62
     3
100
AcDbCircle
 10
1026.893153255729
 20
-1387.628145544491
 30
0.0
 40
60.10222252113304
100
AcDbArc
 50
91.70985641608938
 51
-151.7098564160892
  0
ARC
  5
133
330
43
100
AcDbEntity
  8
0
  6
Continuous
 62
     7
100
AcDbCircle
 10
1026.893153255729
 20
-1387.628145544491
 30
0.0
 40
80.76393202249983
100
AcDbArc
 50
180.0
 51
-119.9999999999998
  0
ARC
  5
134
330
43
100
AcDbEntity
  8
0
  6
Continuous
 62
     3
100
AcDbCircle
 10
1026.893153255729
 20
-1387.628145544491
 30
0.0
 40
59.1268444707908
100
AcDbArc
 50
92.99067082984786
 51
-152.9906708298476
  0
ARC
  5
135
330
43
100
AcDbEntity
  8
0
  6
Continuous
 62
     3
100
AcDbCircle
 10
1026.893153255729
 20
-1387.628145544491
 30
0.0
 40
60.0927702970796
100
AcDbArc
 50
91.729114015246
 51
-151.7291140152462
  0
ARC
  5
136
330
43
100
AcDbEntity
  8
0
  6
Continuous
 62
     7
100
AcDbCircle
 10
1026.893153255729
 20
-1387.628145544491
 30
0.0
 40
80.76393202250037
100
AcDbArc
 50
60.00000000000023
 51
119.9999999999998
  0
ARC
  5
137
330
43
100
AcDbEntity
  8
0
  6
Continuous
 62
     7
100
AcDbCircle
 10
1026.893153255729
 20
-1387.628145544491
 30
0.0
 40
65.2360679774996
100
AcDbArc
 50
-120.0000000000003
 51
-59.99999999999972
  0
ARC
  5
138
330
43
100
AcDbEntity
  8
0
  6
Continuous
 62
     7
100
AcDbCircle
 10
1063.393153255729
 20
-1324.408291068227
 30
0.0
 40
7.763932022500289
100
AcDbArc
 50
-119.9999999999981
 51
60.00000000000279
  0
ARC
  5
139
330
43
100
AcDbEntity
  8
0
  6
Continuous
 62
     7
100
AcDbCircle
 10
1099.893153255729
 20
-1387.628145544491
 30
0.0
 40
7.763932022500057
100
AcDbArc
 50
0.0
 51
180.0
  0
ARC
  5
13A
330
43
100
AcDbEntity
  8
0
  6
Continuous
 62
     7
100
AcDbCircle
 10
1099.893153255729
 20
-1387.628145544491
 30
0.0
 40
7.763932022500057
100
AcDbArc
 50
180.0
 51
0.0
  0
ARC
  5
13B
330
43
100
AcDbEntity
  8
0
  6
Continuous
 62
     7
100
AcDbCircle
 10
1026.893153255729
 20
-1387.628145544491
 30
0.0
 40
56.99999999999986
100
AcDbArc
 50
-25.99234990308726
 51
85.99234990308715
  0
ARC
  5
13C
330
43
100
AcDbEntity
  8
0
  6
Continuous
 62
     7
100
AcDbCircle
 10
1026.893153255729
 20
-1331.128145544491
 30
0.0
 40
3.999999999999815
100
AcDbArc
 50
5.17251655008443
 51
39.53719935017011
  0
ARC
  5
13D
330
43
100
AcDbEntity
  8
0
  6
Continuous
 62
     3
100
AcDbCircle
 10
1026.893153255729
 20
-1387.628145544491
 30
0.0
 40
59.12684447079047
100
AcDbArc
 50
-27.00932917015231
 51
87.00932917015204
  0
ARC
  5
13E
330
43
100
AcDbEntity
  8
0
  6
Continuous
 62
     7
100
AcDbCircle
 10
1075.82358856955
 20
-1415.878145544491
 30
0.0
 40
3.999999999999393
100
AcDbArc
 50
20.4628006498326
 51
54.82748344991352
  0
ARC
  5
13F
330
43
100
AcDbEntity
  8
0
  6
Continuous
 62
     3
100
AcDbCircle
 10
1026.893153255729
 20
-1387.628145544491
 30
0.0
 40
60.09277029707974
100
AcDbArc
 50
-28.27088598475384
 51
88.27088598475402
  0
ARC
  5
140
330
43
100
AcDbEntity
  8
0
  6
Continuous
 62
     7
100
AcDbCircle
 10
1026.893153255729
 20
-1331.128145544491
 30
0.0
 40
3.999999999999701
100
AcDbArc
 50
63.04361597346966
 51
63.36306137682996
  0
ARC
  5
141
330
43
100
AcDbEntity
  8
0
  6
Continuous
 62
     3
100
AcDbCircle
 10
1026.893153255729
 20
-1387.628145544491
 30
0.0
 40
60.10222252113247
100
AcDbArc
 50
-28.2901435839107
 51
88.29014358391062
  0
ARC
  5
142
330
43
100
AcDbEntity
  8
0
  6
Continuous
 62
     7
100
AcDbCircle
 10
1026.893153255729
 20
-1387.628145544491
 30
0.0
 40
65.23606797749994
100
AcDbArc
 50
0.0
 51
59.99999999999972
  0
ARC
  5
143
330
43
100
AcDbEntity
  8
0
  6
Continuous
 62
     7
100
AcDbCircle
 10
1026.893153255729
 20
-1387.628145544491
 30
0.0
 40
80.76393202250006
100
AcDbArc
 50
0.0
 51
60.00000000000023
  0
ARC
  5
144
330
43
100
AcDbEntity
  8
0
  6
Continuous
 62
     7
100
AcDbCircle
 10
1075.82358856955
 20
-1415.878145544491
 30
0.0
 40
4.000000000000299
100
AcDbArc
 50
-114.8274834499091
 51
-80.4628006498279
  0
ARC
  5
145
330
43
100
AcDbEntity
  8
0
  6
Continuous
 62
     7
100
AcDbCircle
 10
1075.823588569546
 20
-1415.878145544493
 30
0.0
 40
4.000000000000224
100
AcDbArc
 50
-56.95638402646767
 51
-56.63693862311465
  0
ARC
  5
146
330
43
100
AcDbEntity
  8
0
  6
Continuous
 62
     7
100
AcDbCircle
 10
1075.82358856955
 20
-1415.878145544491
 30
0.0
 40
4.000000000000091
100
AcDbArc
 50
-80.4628006498279
 51
-56.9563840265328
  0
ARC
  5
147
330
43
100
AcDbEntity
  8
0
  6
Continuous
 62
     7
100
AcDbCircle
 10
1075.82358856955
 20
-1415.878145544491
 30
0.0
 40
3.999999999999557
100
AcDbArc
 50
-3.04361597346834
 51
20.4628006498326
  0
ARC
  5
148
330
43
100
AcDbEntity
  8
0
  6
Continuous
 62
     7
100
AcDbCircle
 10
1026.893153255729
 20
-1387.628145544491
 30
0.0
 40
65.2360679774996
100
AcDbArc
 50
-59.99999999999972
 51
0.0
  0
ARC
  5
149
330
43
100
AcDbEntity
  8
0
  6
Continuous
 62
     7
100
AcDbCircle
 10
1026.893153255729
 20
-1387.628145544491
 30
0.0
 40
80.76393202250037
100
AcDbArc
 50
-60.00000000000023
 51
0.0
  0
ARC
  5
14A
330
43
100
AcDbEntity
  8
0
  6
Continuous
 62
     7
100
AcDbCircle
 10
1030.993153255589
 20
-1462.62814554468
 30
0.0
 40
0.4000000000100954
100
AcDbArc
 50
-90.0
 51
90.0
  0
ARC
  5
14B
330
43
100
AcDbEntity
  8
0
  6
Continuous
 62
     7
100
AcDbCircle
 10
1036.49310134951
 20
-1460.62814554468
 30
0.0
 40
0.4000000000000909
100
AcDbArc
 50
-90.0
 51
90.0
  0
ARC
  5
14C
330
43
100
AcDbEntity
  8
0
  6
Continuous
 62
     7
100
AcDbCircle
 10
1028.79315325564
 20
-1462.628145544671
 30
0.0
 40
0.4000000000198725
100
AcDbArc
 50
180.0
 51
-90.0
  0
ARC
  5
14D
330
43
100
AcDbEntity
  8
0
  6
Continuous
 62
     7
100
AcDbCircle
 10
1023.29315325564
 20
-1462.728145544666
 30
0.0
 40
0.4000000000090722
100
AcDbArc
 50
179.9999999994463
 51
-0.0000000004234
  0
ARC
  5
14E
330
43
100
AcDbEntity
  8
0
  6
Continuous
 62
     7
100
AcDbCircle
 10
1026.493153255658
 20
-1462.728145544669
 30
0.0
 40
0.4000000000698947
100
AcDbArc
 50
180.0
 51
0.0
  0
ARC
  5
14F
330
43
100
AcDbEntity
  8
0
  6
Continuous
 62
     7
100
AcDbCircle
 10
1032.793153255729
 20
-1460.62814554468
 30
0.0
 40
0.3999999999998636
100
AcDbArc
 50
90.0
 51
-90.0
  0
ARC
  5
150
330
43
100
AcDbEntity
  8
0
  6
Continuous
 62
     7
100
AcDbCircle
 10
1017.293205161948
 20
-1460.62814554468
 30
0.0
 40
0.3999999999998636
100
AcDbArc
 50
90.0
 51
-90.0
  0
ARC
  5
151
330
43
100
AcDbEntity
  8
0
  6
Continuous
 62
     7
100
AcDbCircle
 10
1020.993153255729
 20
-1460.62814554468
 30
0.0
 40
0.4000000000000909
100
AcDbArc
 50
-90.0
 51
90.0
  0
ARC
  5
152
330
43
100
AcDbEntity
  8
0
  6
Continuous
 62
     7
100
AcDbCircle
 10
1026.493153255664
 20
-1458.528145544661
 30
0.0
 40
0.4000000000648924
100
AcDbArc
 50
0.0
 51
180.0
  0
ARC
  5
153
330
43
100
AcDbEntity
  8
0
  6
Continuous
 62
     7
100
AcDbCircle
 10
1023.29315325564
 20
-1458.528145544661
 30
0.0
 40
0.3999999999899728
100
AcDbArc
 50
0.0
 51
180.0
  0
ARC
  5
154
330
43
100
AcDbEntity
  8
0
  6
Continuous
 62
     7
100
AcDbCircle
 10
1028.79315325568
 20
-1458.528145544661
 30
0.0
 40
0.3999999999500687
100
AcDbArc
 50
0.0
 51
180.0
  0
ARC
  5
155
330
43
100
AcDbEntity
  8
0
  6
Continuous
 62
     7
100
AcDbCircle
 10
1026.893153255729
 20
-1387.628145544491
 30
0.0
 40
80.76393202250037
100
AcDbArc
 50
-119.9999999999998
 51
-60.00000000000023
  0
ARC
  5
156
330
43
100
AcDbEntity
  8
0
  6
Continuous
 62
     7
100
AcDbCircle
 10
1063.393153255729
 20
-1450.848000020755
 30
0.0
 40
7.763932022500289
100
AcDbArc
 50
-60.00000000000195
 51
119.9999999999972
  0
ARC
  5
157
330
43
100
AcDbEntity
  8
0
  6
Continuous
 62
     7
100
AcDbCircle
 10
1063.393153255729
 20
-1450.848000020755
 30
0.0
 40
7.763932022500486
100
AcDbArc
 50
119.9999999999972
 51
-60.00000000000195
  0
CIRCLE
  5
158
330
43
100
AcDbEntity
  8
0
  6
Continuous
 62
     7
100
AcDbCircle
 10
1026.893153255729
 20
-1387.628145544491
 30
0.0
 40
97.50000000000013
  0
CIRCLE
  5
159
330
43
100
AcDbEntity
  8
0
  6
Continuous
 62
     3
100
AcDbCircle
 10
1026.893153255729
 20
-1387.628145544491
 30
0.0
 40
94.11764705882366
  0
CIRCLE
  5
15A
330
43
100
AcDbEntity
  8
0
  6
Continuous
 62
     3
100
AcDbCircle
 10
1026.893153255729
 20
-1387.628145544491
 30
0.0
 40
88.35294117647076
  0
CIRCLE
  5
15B
330
43
100
AcDbEntity
  8
0
  6
Continuous
 62
     3
100
AcDbCircle
 10
1026.893153255729
 20
-1387.628145544491
 30
0.0
 40
86.11764705882321
  0
CIRCLE
  5
15C
330
43
100
AcDbEntity
  8
0
  6
Continuous
 62
     3
100
AcDbCircle
 10
990.393153255729
 20
-1324.408291068227
 30
0.0
 40
7.401923788646139
  0
CIRCLE
  5
15D
330
43
100
AcDbEntity
  8
0
  6
Continuous
 62
     3
100
AcDbCircle
 10
1063.393153255729
 20
-1324.408291068227
 30
0.0
 40
7.401923788646139
  0
CIRCLE
  5
15E
330
43
100
AcDbEntity
  8
0
  6
Continuous
 62
     3
100
AcDbCircle
 10
990.393153255729
 20
-1450.848000020755
 30
0.0
 40
7.401923788646139
  0
CIRCLE
  5
15F
330
43
100
AcDbEntity
  8
0
  6
Continuous
 62
     3
100
AcDbCircle
 10
990.393153255729
 20
-1324.408291068227
 30
0.0
 40
6.535898384862774
  0
CIRCLE
  5
160
330
43
100
AcDbEntity
  8
0
  6
Continuous
 62
     3
100
AcDbCircle
 10
953.893153255729
 20
-1387.628145544491
 30
0.0
 40
6.535898384861866
  0
CIRCLE
  5
161
330
43
100
AcDbEntity
  8
0
  6
Continuous
 62
     3
100
AcDbCircle
 10
953.893153255729
 20
-1387.628145544491
 30
0.0
 40
7.401923788646855
  0
CIRCLE
  5
162
330
43
100
AcDbEntity
  8
0
  6
Continuous
 62
     3
100
AcDbCircle
 10
990.393153255729
 20
-1450.848000020755
 30
0.0
 40
6.535898384861789
  0
CIRCLE
  5
163
330
43
100
AcDbEntity
  8
0
  6
Continuous
 62
     3
100
AcDbCircle
 10
1063.393153255729
 20
-1450.848000020755
 30
0.0
 40
6.535898384862578
  0
CIRCLE
  5
164
330
43
100
AcDbEntity
  8
0
  6
Continuous
 62
     3
100
AcDbCircle
 10
1063.393153255729
 20
-1324.408291068227
 30
0.0
 40
6.535898384861789
  0
CIRCLE
  5
165
330
43
100
AcDbEntity
  8
0
  6
Continuous
 62
     3
100
AcDbCircle
 10
1099.893153255729
 20
-1387.628145544491
 30
0.0
 40
6.535898384862094
  0
CIRCLE
  5
166
330
43
100
AcDbEntity
  8
0
  6
Continuous
 62
     3
100
AcDbCircle
 10
1099.893153255729
 20
-1387.628145544491
 30
0.0
 40
7.401923788647082
  0
CIRCLE
  5
167
330
43
100
AcDbEntity
  8
0
  6
Continuous
 62
     3
100
AcDbCircle
 10
1063.393153255729
 20
-1450.848000020755
 30
0.0
 40
7.401923788646139
  0
CIRCLE
  5
168
330
43
100
AcDbEntity
  8
0
  6
Continuous
 62
     3
100
AcDbCircle
 10
1026.893153255729
 20
-1387.628145544491
 30
0.0
 40
85.64705882352983
  0
CIRCLE
  5
169
330
43
100
AcDbEntity
  8
0
  6
Continuous
 62
     3
100
AcDbCircle
 10
1026.893153255729
 20
-1387.628145544491
 30
0.0
 40
87.8823529411765
  0
CIRCLE
  5
16A
330
43
100
AcDbEntity
  8
0
  6
Continuous
 62
     3
100
AcDbCircle
 10
1026.893153255729
 20
-1387.628145544491
 30
0.0
 40
93.6470588235293
  0
CIRCLE
  5
16B
330
43
100
AcDbEntity
  8
0
  6
Continuous
 62
     3
100
AcDbCircle
 10
1026.893153255729
 20
-1387.628145544491
 30
0.0
 40
95.50000000000016
  0
CIRCLE
  5
16C
330
43
100
AcDbEntity
  8
0
  6
Continuous
 62
     7
100
AcDbCircle
 10
1026.893153255729
 20
-1387.628145544491
 30
0.0
 40
97.99999999999996
  0
SPLINE
  5
16D
330
43
100
AcDbEntity
  8
0
  6
Continuous
 62
     7
100
AcDbSpline
210
0.0
220
0.0
230
1.0
 70
    11
 71
     3
 72
    79
 73
    75
 74
    73
 42
0.0000000001
 43
0.0000000001
 44
0.00000001
 40
0.0
 40
0.0
 40
0.0
 40
0.0
 40
0.390796732705094
 40
0.7791187161122903
 40
1.247745980703238
 40
1.714333364993088
 40
2.282167899467578
 40
2.849193372675872
 40
3.520315990722815
 40
4.191019167523552
 40
4.957257977259156
 40
5.723287034790681
 40
6.569377519585304
 40
7.4153540491497
 40
8.3213984759275
 40
9.227382887798004
 40
10.17051911290912
 40
11.11362912797274
 40
12.0693048815581
 40
13.02498063520103
 40
13.96809065034923
 40
14.91122687548583
 40
15.81721128735444
 40
16.72325571413387
 40
17.56923224370085
 40
18.41532272849631
 40
19.18135178602827
 40
19.9475905957651
 40
20.61829377256522
 40
21.28941639060701
 40
21.85644186381176
 40
22.42427639828581
 40
22.89086378257686
 40
23.35949104716796
 40
23.74781303057375
 40
24.13860976327453
 40
24.49679243110146
 40
24.85497509893853
 40
25.24577183165422
 40
25.63409381506469
 40
26.1027210796523
 40
26.56930846393442
 40
27.1371429984028
 40
27.70416847161312
 40
28.37529108966176
 40
29.04599426646019
 40
29.81223307619303
 40
30.57826213372311
 40
31.42435261851782
 40
32.2703291480839
 40
33.17637357486292
 40
34.08235798673125
 40
35.02549421186783
 40
35.96860422701621
 40
36.9242799806594
 40
37.87995573424462
 40
38.8230657493085
 40
39.76620197441947
 40
40.67218638628964
 40
41.57823081306683
 40
42.42420734263067
 40
43.27029782742498
 40
44.03632688495535
 40
44.80256569468732
 40
45.4732688714863
 40
46.14439148953855
 40
46.71141696275109
 40
47.27925149721875
 40
47.74583888149969
 40
48.21446614608708
 40
48.6027881294964
 40
48.9935848622079
 40
49.35176753004229
 40
49.70995019787168
 40
49.70995019787168
 40
49.70995019787168
 40
49.70995019787168
 10
1037.847507574914
 20
-1460.983407835606
 30
0.0
 10
1037.808110667508
 20
-1461.108174591579
 30
0.0
 10
1037.729566336534
 20
-1461.356918008786
 30
0.0
 10
1037.498972327828
 20
-1461.707947923888
 30
0.0
 10
1037.203716094483
 20
-1462.036952239542
 30
0.0
 10
1036.821642545357
 20
-1462.363084240825
 30
0.0
 10
1036.379004572439
 20
-1462.663026391801
 30
0.0
 10
1035.853496990792
 20
-1462.957837701098
 30
0.0
 10
1035.275717582261
 20
-1463.225713680493
 30
0.0
 10
1034.621164174078
 20
-1463.482244518662
 30
0.0
 10
1033.923010309245
 20
-1463.711064424495
 30
0.0
 10
1033.158621959008
 20
-1463.922274933653
 30
0.0
 10
1032.359605067335
 20
-1464.104925736756
 30
0.0
 10
1031.508251483712
 20
-1464.264792198047
 30
0.0
 10
1030.631706541013
 20
-1464.395285959989
 30
0.0
 10
1029.719048907878
 20
-1464.499231878421
 30
0.0
 10
1028.791074551541
 20
-1464.573180397436
 30
0.0
 10
1027.844684363618
 20
-1464.618306253817
 30
0.0
 10
1026.893153255691
 20
-1464.633097747192
 30
0.0
 10
1025.941622147675
 20
-1464.618306253822
 30
0.0
 10
1024.995231959873
 20
-1464.573180397396
 30
0.0
 10
1024.067257602865
 20
-1464.499231878551
 30
0.0
 10
1023.154599972
 20
-1464.395285959514
 30
0.0
 10
1022.278055021052
 20
-1464.264792199773
 30
0.0
 10
1021.426701466262
 20
-1464.10492573079
 30
0.0
 10
1020.627684471889
 20
-1463.92227495508
 30
0.0
 10
1019.863296470453
 20
-1463.711064352884
 30
0.0
 10
1019.165141384512
 20
-1463.482244772762
 30
0.0
 10
1018.510591996033
 20
-1463.225712862405
 30
0.0
 10
1017.93279876843
 20
-1462.957840569023
 30
0.0
 10
1017.407335232981
 20
-1462.663017511117
 30
0.0
 10
1016.96454823
 20
-1462.363115111491
 30
0.0
 10
1016.582938319243
 20
-1462.036859442203
 30
0.0
 10
1016.286115871419
 20
-1461.708272888829
 30
0.0
 10
1016.060439796025
 20
-1461.355931194874
 30
0.0
 10
1015.928586728145
 20
-1460.997421214348
 30
0.0
 10
1015.876207988939
 20
-1460.628145544663
 30
0.0
 10
1015.928586728146
 20
-1460.258869874973
 30
0.0
 10
1016.060439796022
 20
-1459.900359894435
 30
0.0
 10
1016.286115871417
 20
-1459.548018200474
 30
0.0
 10
1016.582938319241
 20
-1459.219431647103
 30
0.0
 10
1016.964548230001
 20
-1458.893175977827
 30
0.0
 10
1017.407335232986
 20
-1458.593273578214
 30
0.0
 10
1017.93279876843
 20
-1458.298450520295
 30
0.0
 10
1018.510591996028
 20
-1458.030578226894
 30
0.0
 10
1019.165141384511
 20
-1457.774046316543
 30
0.0
 10
1019.863296470455
 20
-1457.545226736437
 30
0.0
 10
1020.62768447189
 20
-1457.334016134247
 30
0.0
 10
1021.426701466263
 20
-1457.151365358541
 30
0.0
 10
1022.278055021052
 20
-1456.991498889561
 30
0.0
 10
1023.154599972
 20
-1456.861005129822
 30
0.0
 10
1024.067257602865
 20
-1456.757059210788
 30
0.0
 10
1024.995231959873
 20
-1456.683110691945
 30
0.0
 10
1025.941622147678
 20
-1456.637984835513
 30
0.0
 10
1026.893153255681
 20
-1456.623193342142
 30
0.0
 10
1027.844684363653
 20
-1456.637984835512
 30
0.0
 10
1028.791074551414
 20
-1456.683110691949
 30
0.0
 10
1029.719048908342
 20
-1456.757059210781
 30
0.0
 10
1030.631706539355
 20
-1456.861005129855
 30
0.0
 10
1031.508251489736
 20
-1456.991498889443
 30
0.0
 10
1032.359605046504
 20
-1457.151365358951
 30
0.0
 10
1033.158622033823
 20
-1457.334016132779
 30
0.0
 10
1033.923010059209
 20
-1457.545226741361
 30
0.0
 10
1034.621165061301
 20
-1457.774046299104
 30
0.0
 10
1035.275714725807
 20
-1458.03057828308
 30
0.0
 10
1035.85350700449
 20
-1458.298450323367
 30
0.0
 10
1036.378973564479
 20
-1458.593274188028
 30
0.0
 10
1036.821750333943
 20
-1458.893173858016
 30
0.0
 10
1037.203392081592
 20
-1459.219438019265
 30
0.0
 10
1037.500106981375
 20
-1459.547995885942
 30
0.0
 10
1037.726120758977
 20
-1459.900427656481
 30
0.0
 10
1037.856792765631
 20
-1460.258622608113
 30
0.0
 10
1037.913239108263
 20
-1460.628983244966
 30
0.0
 10
1037.86941808603
 20
-1460.865266305393
 30
0.0
 10
1037.847507574914
 20
-1460.983407835606
 30
0.0
 11
1037.847507574914
 21
-1460.983407835606
 31
0.0
 11
1037.712851903168
 21
-1461.350272846692
 31
0.0
 11
1037.5070787075
 21
-1461.679592379581
 31
0.0
 11
1037.195953831265
 21
-1462.030038986792
 31
0.0
 11
1036.842707324924
 21
-1462.334867943645
 31
0.0
 11
1036.374637680177
 21
-1462.65634401773
 31
0.0
 11
1035.880748389008
 21
-1462.934896087073
 31
0.0
 11
1035.272967278716
 21
-1463.21951458687
 31
0.0
 11
1034.648819710063
 21
-1463.465039664845
 31
0.0
 11
1033.921227769174
 21
-1463.705314260045
 31
0.0
 11
1033.183020244812
 21
-1463.909887396011
 31
0.0
 11
1032.358456817639
 21
-1464.099529857046
 31
0.0
 11
1031.527079364245
 21
-1464.256015698455
 31
0.0
 11
1030.6310172143
 21
-1464.390139248706
 31
0.0
 11
1029.730872509378
 21
-1464.492839125791
 31
0.0
 11
1028.790750343034
 21
-1464.568180027473
 31
0.0
 11
1027.84871050526
 21
-1464.613095999683
 31
0.0
 11
1026.8931532557
 21
-1464.628145544661
 31
0.0
 11
1025.937596006082
 21
-1464.61309599968
 31
0.0
 11
1024.995556168224
 21
-1464.568180027468
 31
0.0
 11
1024.055434001854
 21
-1464.492839125787
 31
0.0
 11
1023.155289296934
 21
-1464.390139248705
 31
0.0
 11
1022.259227146988
 21
-1464.256015698456
 31
0.0
 11
1021.427849693591
 21
-1464.099529857046
 31
0.0
 11
1020.603286266416
 21
-1463.90988739601
 31
0.0
 11
1019.865078742054
 21
-1463.705314260044
 31
0.0
 11
1019.137486801164
 21
-1463.465039664845
 31
0.0
 11
1018.513339232511
 21
-1463.21951458687
 31
0.0
 11
1017.905558122225
 21
-1462.934896087073
 31
0.0
 11
1017.41166883106
 21
-1462.656344017729
 31
0.0
 11
1016.943599186314
 21
-1462.334867943645
 31
0.0
 11
1016.590352679971
 21
-1462.030038986792
 31
0.0
 11
1016.279227803736
 21
-1461.679592379581
 31
0.0
 11
1016.073454608069
 21
-1461.350272846694
 31
0.0
 11
1015.938798936322
 21
-1460.983407835612
 31
0.0
 11
1015.893153255655
 21
-1460.628145544666
 31
0.0
 11
1015.938798936322
 21
-1460.27288325371
 31
0.0
 11
1016.073454608068
 21
-1459.906018242612
 31
0.0
 11
1016.279227803736
 21
-1459.57669870972
 31
0.0
 11
1016.590352679971
 21
-1459.226252102514
 31
0.0
 11
1016.943599186314
 21
-1458.921423145674
 31
0.0
 11
1017.41166883106
 21
-1458.5999470716
 31
0.0
 11
1017.905558122225
 21
-1458.321395002245
 31
0.0
 11
1018.513339232511
 21
-1458.036776502431
 31
0.0
 11
1019.137486801164
 21
-1457.791251424461
 31
0.0
 11
1019.865078742055
 21
-1457.550976829275
 31
0.0
 11
1020.603286266416
 21
-1457.346403693316
 31
0.0
 11
1021.427849693591
 21
-1457.156761232285
 31
0.0
 11
1022.259227146988
 21
-1457.000275390878
 31
0.0
 11
1023.155289296934
 21
-1456.866151840632
 31
0.0
 11
1024.055434001854
 21
-1456.763451963552
 31
0.0
 11
1024.995556168224
 21
-1456.688111061872
 31
0.0
 11
1025.937596006082
 21
-1456.643195089656
 31
0.0
 11
1026.8931532557
 21
-1456.628145544673
 31
0.0
 11
1027.84871050526
 21
-1456.643195089656
 31
0.0
 11
1028.790750343034
 21
-1456.688111061872
 31
0.0
 11
1029.730872509378
 21
-1456.763451963552
 31
0.0
 11
1030.6310172143
 21
-1456.866151840632
 31
0.0
 11
1031.527079364245
 21
-1457.000275390878
 31
0.0
 11
1032.358456817639
 21
-1457.156761232286
 31
0.0
 11
1033.183020244812
 21
-1457.34640369332
 31
0.0
 11
1033.921227769174
 21
-1457.550976829282
 31
0.0
 11
1034.648819710063
 21
-1457.791251424469
 31
0.0
 11
1035.272967278716
 21
-1458.03677650244
 31
0.0
 11
1035.880748389008
 21
-1458.321395002249
 31
0.0
 11
1036.374637680177
 21
-1458.599947071601
 31
0.0
 11
1036.842707324924
 21
-1458.921423145674
 31
0.0
 11
1037.195953831265
 21
-1459.226252102513
 31
0.0
 11
1037.5070787075
 21
-1459.57669870972
 31
0.0
 11
1037.712851903167
 21
-1459.906018242611
 31
0.0
 11
1037.847507574914
 21
-1460.272883253704
 31
0.0
 11
1037.893153255581
 21
-1460.628145544658
 31
0.0
 11
1037.847507574914
 21
-1460.983407835606
 31
0.0
  0
SPLINE
  5
16E
330
43
100
AcDbEntity
  8
0
  6
Continuous
 62
     7
100
AcDbSpline
210
0.0
220
0.0
230
1.0
 70
    11
 71
     3
 72
    91
 73
    87
 74
    85
 42
0.0000000001
 43
0.0000000001
 44
0.00000001
 40
0.0
 40
0.0
 40
0.0
 40
0.0
 40
0.2472640119627412
 40
0.493209463703882
 40
0.7446226463914074
 40
0.9851129147372563
 40
1.430384030780878
 40
1.873943008720662
 40
2.091811857859338
 40
2.30348169934238
 40
2.512865733038347
 40
2.722061233194129
 40
3.13947490823111
 40
3.55121276933452
 40
4.363404763979229
 40
5.169579150565278
 40
5.969930051554492
 40
6.767202185686523
 40
8.353971733841021
 40
9.936219975485136
 40
11.51479959783243
 40
13.09262492214194
 40
14.67079843889627
 40
16.25102634054085
 40
17.83345190330724
 40
19.42526957311301
 40
20.22511411266037
 40
21.03082140079679
 40
21.43716318820151
 40
21.84358134240976
 40
22.25438697292027
 40
22.67090570685018
 40
23.08645788445613
 40
23.51488235933437
 40
23.95848782812542
 40
24.40325870588321
 40
24.64019736604563
 40
24.88812562492455
 40
25.13387425478987
 40
25.38061105553346
 40
25.63769027475054
 40
25.9020573279941
 40
26.16863250845353
 40
26.42815796455271
 40
26.67542197652162
 40
26.92136742826778
 40
27.17278061095912
 40
27.41327087930879
 40
27.85854199535608
 40
28.30210097329733
 40
28.51996982243301
 40
28.73163966390826
 40
28.9410236975963
 40
29.15021919774466
 40
29.56763287277166
 40
29.97937073387764
 40
30.79156272853877
 40
31.59773711512764
 40
32.39808801611014
 40
33.19536015023959
 40
34.78212969839536
 40
36.36437794004003
 40
37.94295756248211
 40
39.52078288685492
 40
41.0989564035137
 40
42.67918430509452
 40
44.26160986786036
 40
45.85342753765986
 40
46.65327207719765
 40
47.45897936533198
 40
47.86532115274237
 40
48.27173930696036
 40
48.68254493747957
 40
49.09906367140898
 40
49.514615849003
 40
49.94304032387168
 40
50.38664579266199
 40
50.83141667042213
 40
51.0683553305872
 40
51.3162835894702
 40
51.56203221933986
 40
51.80876902008902
 40
52.06584823931018
 40
52.33021529255437
 40
52.59279589567433
 40
52.85638973788159
 40
52.85638973788159
 40
52.85638973788159
 40
52.85638973788159
 10
1038.33177435299
 20
-1461.107849338536
 30
0.0
 10
1038.308965394417
 20
-1461.187121095784
 30
0.0
 10
1038.263469108339
 20
-1461.345241885659
 30
0.0
 10
1038.164912707949
 20
-1461.573773570864
 30
0.0
 10
1038.044512955326
 20
-1461.788707236501
 30
0.0
 10
1037.864678966919
 20
-1462.044666772643
 30
0.0
 10
1037.615254482893
 20
-1462.327845634543
 30
0.0
 10
1037.344255665331
 20
-1462.579184391742
 30
0.0
 10
1037.114517356844
 20
-1462.758046245977
 30
0.0
 10
1036.941370759311
 20
-1462.88210783289
 30
0.0
 10
1036.767414711908
 20
-1462.99994395751
 30
0.0
 10
1036.531998551509
 20
-1463.149135782122
 30
0.0
 10
1036.23067447072
 20
-1463.319902162521
 30
0.0
 10
1035.741228617385
 20
-1463.564726364754
 30
0.0
 10
1035.118589447032
 20
-1463.831445027788
 30
0.0
 10
1034.357827801291
 20
-1464.099693725895
 30
0.0
 10
1033.588961637028
 20
-1464.326384442786
 30
0.0
 10
1032.558008598215
 20
-1464.580150389801
 30
0.0
 10
1031.257354884573
 20
-1464.823892330658
 30
0.0
 10
1029.685373929334
 20
-1465.013768274477
 30
0.0
 10
1028.108517891887
 20
-1465.117828045481
 30
0.0
 10
1026.529792218871
 20
-1465.13925072298
 30
0.0
 10
1024.951404142312
 20
-1465.081177820887
 30
0.0
 10
1023.376896709411
 20
-1464.937151325968
 30
0.0
 10
1021.808444027894
 20
-1464.703398962251
 30
0.0
 10
1020.513602822621
 20
-1464.416780194116
 30
0.0
 10
1019.489460187042
 20
-1464.120560982111
 30
0.0
 10
1018.855589238666
 20
-1463.900241767183
 30
0.0
 10
1018.35512911495
 20
-1463.698483324582
 30
0.0
 10
1017.982877148847
 20
-1463.531623051329
 30
0.0
 10
1017.613471085051
 20
-1463.350621958142
 30
0.0
 10
1017.25127341455
 20
-1463.149017036204
 30
0.0
 10
1016.89645044075
 20
-1462.923575289125
 30
0.0
 10
1016.549251837756
 20
-1462.670501326891
 30
0.0
 10
1016.220278713663
 20
-1462.378714670959
 30
0.0
 10
1015.968169052888
 20
-1462.099726676582
 30
0.0
 10
1015.782944094145
 20
-1461.850973957074
 30
0.0
 10
1015.656061369233
 20
-1461.642515043404
 30
0.0
 10
1015.55219417871
 20
-1461.418124824883
 30
0.0
 10
1015.469870412682
 20
-1461.181768225485
 30
0.0
 10
1015.412894709484
 20
-1460.931546672127
 30
0.0
 10
1015.386766942232
 20
-1460.669259740764
 30
0.0
 10
1015.401241201526
 20
-1460.40522204189
 30
0.0
 10
1015.44858648048
 20
-1460.151139650827
 30
0.0
 10
1015.524092565369
 20
-1459.911370661684
 30
0.0
 10
1015.621049907325
 20
-1459.682429443699
 30
0.0
 10
1015.741880259931
 20
-1459.467606058458
 30
0.0
 10
1015.921582322665
 20
-1459.211612734999
 30
0.0
 10
1016.171067365632
 20
-1458.928449382769
 30
0.0
 10
1016.442048980044
 20
-1458.677106219697
 30
0.0
 10
1016.671789490917
 20
-1458.49824492952
 30
0.0
 10
1016.844935664079
 20
-1458.374183233931
 30
0.0
 10
1017.018891822222
 20
-1458.256347137681
 30
0.0
 10
1017.254307946557
 20
-1458.107155303838
 30
0.0
 10
1017.555632044808
 20
-1457.936388927908
 30
0.0
 10
1018.045077891399
 20
-1457.691564723929
 30
0.0
 10
1018.66771706501
 20
-1457.424846061722
 30
0.0
 10
1019.428478709726
 20
-1457.156597363364
 30
0.0
 10
1020.197344874262
 20
-1456.929906646552
 30
0.0
 10
1021.228297912985
 20
-1456.676140699521
 30
0.0
 10
1022.528951626671
 20
-1456.432398758679
 30
0.0
 10
1024.10093258193
 20
-1456.242522814861
 30
0.0
 10
1025.677788619434
 20
-1456.138463043863
 30
0.0
 10
1027.256514292469
 20
-1456.117040366349
 30
0.0
 10
1028.834902368996
 20
-1456.175113268451
 30
0.0
 10
1030.409409801843
 20
-1456.319139763375
 30
0.0
 10
1031.977862483339
 20
-1456.552892127081
 30
0.0
 10
1033.272703688601
 20
-1456.839510895218
 30
0.0
 10
1034.296846324188
 20
-1457.135730107211
 30
0.0
 10
1034.930717272535
 20
-1457.356049322123
 30
0.0
 10
1035.43117739632
 20
-1457.557807764735
 30
0.0
 10
1035.803429362235
 20
-1457.724668037958
 30
0.0
 10
1036.172835426771
 20
-1457.905669131294
 30
0.0
 10
1036.535033094465
 20
-1458.107274052719
 30
0.0
 10
1036.889856078838
 20
-1458.332715801735
 30
0.0
 10
1037.237054640714
 20
-1458.585789756392
 30
0.0
 10
1037.566027924675
 20
-1458.877576441719
 30
0.0
 10
1037.818137077079
 20
-1459.156564342597
 30
0.0
 10
1038.00336313808
 20
-1459.405317264833
 30
0.0
 10
1038.130242261959
 20
-1459.613775516207
 30
0.0
 10
1038.234122993384
 20
-1459.838168225167
 30
0.0
 10
1038.316395413448
 20
-1460.074515381056
 30
0.0
 10
1038.373572636545
 20
-1460.324773997813
 30
0.0
 10
1038.398790545385
 20
-1460.585588383235
 30
0.0
 10
1038.387522803943
 20
-1460.850177378694
 30
0.0
 10
1038.350381010937
 20
-1461.021848491204
 30
0.0
 10
1038.33177435299
 20
-1461.107849338536
 30
0.0
 11
1038.33177435299
 21
-1461.107849338536
 31
0.0
 11
1038.258375074
 21
-1461.343968032111
 31
0.0
 11
1038.161888147612
 21
-1461.570196762091
 31
0.0
 11
1038.039041050623
 21
-1461.789553045772
 31
0.0
 11
1037.901530755512
 21
-1461.98685101309
 31
0.0
 11
1037.609520818309
 21
-1462.323000627633
 31
0.0
 11
1037.283559460869
 21
-1462.623822435963
 31
0.0
 11
1037.112016792333
 21
-1462.758135310612
 31
0.0
 11
1036.940217800998
 21
-1462.881784929979
 31
0.0
 11
1036.766777275736
 21
-1462.999088202583
 31
0.0
 11
1036.59003260215
 21
-1463.110999228155
 31
0.0
 11
1036.227345789607
 21
-1463.317620747158
 31
0.0
 11
1035.859465355992
 21
-1463.502531679309
 31
0.0
 11
1035.113553096895
 21
-1463.823889327257
 31
0.0
 11
1034.353842409824
 21
-1464.09362403681
 31
0.0
 11
1033.5864143669
 21
-1464.320815065787
 31
0.0
 11
1032.812496656757
 21
-1464.51237245612
 31
0.0
 11
1031.253342645409
 21
-1464.807120429562
 31
0.0
 11
1029.682849359017
 21
-1464.999631041174
 31
0.0
 11
1028.107729034644
 21
-1465.104080013582
 31
0.0
 11
1026.530056088087
 21
-1465.126007798086
 31
0.0
 11
1024.952989282696
 21
-1465.066915156245
 31
0.0
 11
1023.37938461716
 21
-1464.922386343414
 31
0.0
 11
1021.814752351736
 21
-1464.68575047189
 31
0.0
 11
1020.261402305625
 21
-1464.337918431745
 31
0.0
 11
1019.493428408892
 21
-1464.114384583346
 31
0.0
 11
1018.732894022531
 21
-1463.84839270129
 31
0.0
 11
1018.356165068323
 21
-1463.696113539051
 31
0.0
 11
1017.985185438426
 21
-1463.530132123609
 31
0.0
 11
1017.616813618778
 21
-1463.348298494849
 31
0.0
 11
1017.253060909253
 21
-1463.145390086873
 31
0.0
 11
1016.902497137772
 21
-1462.922256372616
 31
0.0
 11
1016.557518047769
 21
-1462.668215119793
 31
0.0
 11
1016.226283274809
 21
-1462.373139981696
 31
0.0
 11
1015.928801225982
 21
-1462.042495815972
 31
0.0
 11
1015.788095318328
 21
-1461.851860624491
 31
0.0
 11
1015.659839392066
 21
-1461.639684190999
 31
0.0
 11
1015.556067292201
 21
-1461.416920324157
 31
0.0
 11
1015.475315235319
 21
-1461.183771971921
 31
0.0
 11
1015.41863339372
 21
-1460.933019317326
 31
0.0
 11
1015.393614973839
 21
-1460.669838737672
 31
0.0
 11
1015.407166144566
 21
-1460.403608212358
 31
0.0
 11
1015.454532158245
 21
-1460.148441750785
 31
0.0
 11
1015.527931437234
 21
-1459.912323057203
 31
0.0
 11
1015.624418363622
 21
-1459.686094327218
 31
0.0
 11
1015.747265460612
 21
-1459.466738043533
 31
0.0
 11
1015.884775755724
 21
-1459.269440076212
 31
0.0
 11
1016.176785692931
 21
-1458.933290461667
 31
0.0
 11
1016.502747050378
 21
-1458.632468653342
 31
0.0
 11
1016.674289718915
 21
-1458.4981557787
 31
0.0
 11
1016.846088710248
 21
-1458.374506159342
 31
0.0
 11
1017.019529235505
 21
-1458.257202886745
 31
0.0
 11
1017.196273909084
 21
-1458.145291861176
 31
0.0
 11
1017.558960721614
 21
-1457.938670342171
 31
0.0
 11
1017.926841155225
 21
-1457.753759410005
 31
0.0
 11
1018.672753414334
 21
-1457.432401762045
 31
0.0
 11
1019.432464101412
 21
-1457.162667052502
 31
0.0
 11
1020.199892144332
 21
-1456.935476023536
 31
0.0
 11
1020.973809854474
 21
-1456.743918633209
 31
0.0
 11
1022.532963865824
 21
-1456.449170659773
 31
0.0
 11
1024.103457152218
 21
-1456.256660048168
 31
0.0
 11
1025.678577476685
 21
-1456.152211075758
 31
0.0
 11
1027.256250423306
 21
-1456.130283291247
 31
0.0
 11
1028.833317228601
 21
-1456.189375933092
 31
0.0
 11
1030.406921894073
 21
-1456.333904745924
 31
0.0
 11
1031.971554159497
 21
-1456.570540617444
 31
0.0
 11
1033.524904205603
 21
-1456.918372657586
 31
0.0
 11
1034.292878102329
 21
-1457.141906505974
 31
0.0
 11
1035.053412488691
 21
-1457.40789838802
 31
0.0
 11
1035.430141442905
 21
-1457.560177550258
 31
0.0
 11
1035.801121072809
 21
-1457.726158965707
 31
0.0
 11
1036.169492892462
 21
-1457.907992594479
 31
0.0
 11
1036.533245601985
 21
-1458.110901002458
 31
0.0
 11
1036.883809373458
 21
-1458.334034716705
 31
0.0
 11
1037.228788463458
 21
-1458.588075969515
 31
0.0
 11
1037.560023236423
 21
-1458.883151107606
 31
0.0
 11
1037.857505285254
 21
-1459.21379527333
 31
0.0
 11
1037.998211192909
 21
-1459.404430464813
 31
0.0
 11
1038.126467119173
 21
-1459.616606898308
 31
0.0
 11
1038.230239219037
 21
-1459.839370765155
 31
0.0
 11
1038.310991275919
 21
-1460.072519117397
 31
0.0
 11
1038.367673117517
 21
-1460.323271771996
 31
0.0
 11
1038.392691537398
 21
-1460.586452351652
 31
0.0
 11
1038.380155227231
 21
-1460.848733525323
 31
0.0
 11
1038.33177435299
 21
-1461.107849338536
 31
0.0
  0
ENDBLK
  5
45
330
43
100
AcDbEntity
  8
0
100
AcDbBlockEnd
  0
BLOCK
  5
47
330
46
100
AcDbEntity
  8
0
100
AcDbBlockBegin
  2
Bitumenmanschette
 70
     0
 71
     0
 10
765.7346702077593
 20
-1526.02988410083
 30
0.0
  3
Bitumenmanschette
  1

  0
LINE
  5
16F
330
46
100
AcDbEntity
  8
0
  6
Continuous
 62
     7
100
AcDbLine
 10
776.893153255729
 20
-1137.628145544487
 30
0.0
 11
1276.893153255729
 21
-1137.628145544487
 31
0.0
  0
LINE
  5
170
330
46
100
AcDbEntity
  8
0
  6
Continuous
 62
     7
100
AcDbLine
 10
1276.893153255729
 20
-1137.628145544487
 30
0.0
 11
1276.893153255729
 21
-1637.628145544491
 31
0.0
  0
LINE
  5
171
330
46
100
AcDbEntity
  8
0
  6
Continuous
 62
     7
100
AcDbLine
 10
1276.893153255729
 20
-1637.628145544491
 30
0.0
 11
776.8931532557289
 21
-1637.628145544491
 31
0.0
  0
LINE
  5
172
330
46
100
AcDbEntity
  8
0
  6
Continuous
 62
     7
100
AcDbLine
 10
776.8931532557289
 20
-1637.628145544491
 30
0.0
 11
776.893153255729
 21
-1137.628145544487
 31
0.0
  0
LINE
  5
173
330
46
100
AcDbEntity
  8
1
  6
PHANTOM
 62
     2
100
AcDbLine
 10
1026.893153255729
 20
-1637.628145544491
 30
0.0
 11
1026.893153255729
 21
-1137.628145544487
 31
0.0
  0
LINE
  5
174
330
46
100
AcDbEntity
  8
1
  6
PHANTOM
 62
     2
100
AcDbLine
 10
1276.893153255729
 20
-1387.628145544489
 30
0.0
 11
776.8931532557289
 21
-1387.628145544489
 31
0.0
  0
CIRCLE
  5
175
330
46
100
AcDbEntity
  8
0
  6
Continuous
 62
     7
100
AcDbCircle
 10
1026.893153255729
 20
-1387.628145544491
 30
0.0
 40
56.0
  0
ENDBLK
  5
48
330
46
100
AcDbEntity
  8
0
100
AcDbBlockEnd
  0
BLOCK
  5
4A
330
49
100
AcDbEntity
  8
0
100
AcDbBlockBegin
  2
Blechschraube6_3x19_2_3_2__1
 70
     0
 71
     0
 10
911.4706788032236
 20
-1324.822199263839
 30
0.0
  3
Blechschraube6_3x19_2_3_2__1
  1

  0
LINE
  5
176
330
49
100
AcDbEntity
  8
0
  6
Continuous
 62
     7
100
AcDbLine
 10
950.393153255729
 20
-1388.128145544491
 30
0.0
 11
950.393153255729
 21
-1387.128145544491
 31
0.0
  0
LINE
  5
177
330
49
100
AcDbEntity
  8
0
  6
Continuous
 62
     7
100
AcDbLine
 10
951.3931532557326
 20
-1388.128145544491
 30
0.0
 11
950.393153255729
 21
-1388.128145544491
 31
0.0
  0
LINE
  5
178
330
49
100
AcDbEntity
  8
0
  6
Continuous
 62
     7
100
AcDbLine
 10
957.393153255729
 20
-1388.128145544491
 30
0.0
 11
956.3931532557181
 21
-1388.128145544491
 31
0.0
  0
LINE
  5
179
330
49
100
AcDbEntity
  8
0
  6
Continuous
 62
     7
100
AcDbLine
 10
957.393153255729
 20
-1387.128145544491
 30
0.0
 11
957.393153255729
 21
-1388.128145544491
 31
0.0
  0
LINE
  5
17A
330
49
100
AcDbEntity
  8
0
  6
Continuous
 62
     7
100
AcDbLine
 10
953.393153255729
 20
-1391.128145544491
 30
0.0
 11
953.393153255729
 21
-1390.128145544487
 31
0.0
  0
LINE
  5
17B
330
49
100
AcDbEntity
  8
0
  6
Continuous
 62
     7
100
AcDbLine
 10
954.393153255729
 20
-1391.128145544491
 30
0.0
 11
953.393153255729
 21
-1391.128145544491
 31
0.0
  0
LINE
  5
17C
330
49
100
AcDbEntity
  8
0
  6
Continuous
 62
     7
100
AcDbLine
 10
954.393153255729
 20
-1390.12814554448
 30
0.0
 11
954.393153255729
 21
-1391.128145544491
 31
0.0
  0
LINE
  5
17D
330
49
100
AcDbEntity
  8
0
  6
Continuous
 62
     7
100
AcDbLine
 10
952.8073668181023
 20
-1388.713931982118
 30
0.0
 11
953.393153255729
 21
-1388.128145544491
 31
0.0
  0
LINE
  5
17E
330
49
100
AcDbEntity
  8
0
  6
Continuous
 62
     7
100
AcDbLine
 10
954.393153255729
 20
-1387.128145544491
 30
0.0
 11
954.393153255729
 21
-1388.128145544491
 31
0.0
  0
LINE
  5
17F
330
49
100
AcDbEntity
  8
0
  6
Continuous
 62
     7
100
AcDbLine
 10
954.393153255729
 20
-1388.128145544491
 30
0.0
 11
953.393153255729
 21
-1388.128145544491
 31
0.0
  0
LINE
  5
180
330
49
100
AcDbEntity
  8
0
  6
Continuous
 62
     7
100
AcDbLine
 10
954.393153255729
 20
-1388.128145544491
 30
0.0
 11
954.9789396933556
 21
-1388.713931982118
 31
0.0
  0
LINE
  5
181
330
49
100
AcDbEntity
  8
0
  6
Continuous
 62
     7
100
AcDbLine
 10
953.393153255729
 20
-1388.128145544491
 30
0.0
 11
953.393153255729
 21
-1387.128145544491
 31
0.0
  0
LINE
  5
182
330
49
100
AcDbEntity
  8
0
  6
Continuous
 62
     7
100
AcDbLine
 10
953.393153255729
 20
-1387.128145544491
 30
0.0
 11
952.8073668181023
 21
-1386.542359106864
 31
0.0
  0
LINE
  5
183
330
49
100
AcDbEntity
  8
0
  6
Continuous
 62
     7
100
AcDbLine
 10
953.393153255729
 20
-1387.128145544491
 30
0.0
 11
954.393153255729
 21
-1387.128145544491
 31
0.0
  0
LINE
  5
184
330
49
100
AcDbEntity
  8
0
  6
Continuous
 62
     7
100
AcDbLine
 10
950.393153255729
 20
-1387.128145544491
 30
0.0
 11
951.3931532557363
 21
-1387.128145544491
 31
0.0
  0
LINE
  5
185
330
49
100
AcDbEntity
  8
0
  6
Continuous
 62
     7
100
AcDbLine
 10
953.393153255729
 20
-1385.128145544502
 30
0.0
 11
953.393153255729
 21
-1384.128145544491
 31
0.0
  0
LINE
  5
186
330
49
100
AcDbEntity
  8
0
  6
Continuous
 62
     7
100
AcDbLine
 10
953.393153255729
 20
-1384.128145544491
 30
0.0
 11
954.393153255729
 21
-1384.128145544491
 31
0.0
  0
LINE
  5
187
330
49
100
AcDbEntity
  8
0
  6
Continuous
 62
     7
100
AcDbLine
 10
954.9789396933556
 20
-1386.542359106864
 30
0.0
 11
954.393153255729
 21
-1387.128145544491
 31
0.0
  0
LINE
  5
188
330
49
100
AcDbEntity
  8
0
  6
Continuous
 62
     7
100
AcDbLine
 10
956.3931532557253
 20
-1387.128145544491
 30
0.0
 11
957.393153255729
 21
-1387.128145544491
 31
0.0
  0
LINE
  5
189
330
49
100
AcDbEntity
  8
0
  6
Continuous
 62
     7
100
AcDbLine
 10
954.393153255729
 20
-1384.128145544491
 30
0.0
 11
954.393153255729
 21
-1385.128145544491
 31
0.0
  0
LINE
  5
18A
330
49
100
AcDbEntity
  8
1
  6
PHANTOM
 62
     2
100
AcDbLine
 10
959.8612383621127
 20
-1387.628145544491
 30
0.0
 11
947.9250681493453
 21
-1387.628145544491
 31
0.0
  0
LINE
  5
18B
330
49
100
AcDbEntity
  8
1
  6
PHANTOM
 62
     2
100
AcDbLine
 10
953.893153255729
 20
-1381.660060438107
 30
0.0
 11
953.893153255729
 21
-1393.596230650875
 31
0.0
  0
ARC
  5
18C
330
49
100
AcDbEntity
  8
0
  6
Continuous
 62
     7
100
AcDbCircle
 10
951.393153255729
 20
-1390.128145544491
 30
0.0
 40
2.0
100
AcDbArc
 50
0.00000000011073
 51
44.99999999999079
  0
ARC
  5
18D
330
49
100
AcDbEntity
  8
0
  6
Continuous
 62
     7
100
AcDbCircle
 10
951.393153255729
 20
-1390.128145544491
 30
0.0
 40
2.000000000000016
100
AcDbArc
 50
44.99999999999079
 51
89.99999999989578
  0
ARC
  5
18E
330
49
100
AcDbEntity
  8
0
  6
Continuous
 62
     7
100
AcDbCircle
 10
956.393153255729
 20
-1390.128145544491
 30
0.0
 40
2.0
100
AcDbArc
 50
90.00000000031267
 51
135.0000000000092
  0
ARC
  5
18F
330
49
100
AcDbEntity
  8
0
  6
Continuous
 62
     7
100
AcDbCircle
 10
956.393153255729
 20
-1390.128145544491
 30
0.0
 40
2.000000000000016
100
AcDbArc
 50
135.0000000000092
 51
179.9999999996873
  0
ARC
  5
190
330
49
100
AcDbEntity
  8
0
  6
Continuous
 62
     7
100
AcDbCircle
 10
951.393153255729
 20
-1385.128145544491
 30
0.0
 40
2.000000000000177
100
AcDbArc
 50
-44.9999999999954
 51
-0.00000000031918
  0
ARC
  5
191
330
49
100
AcDbEntity
  8
0
  6
Continuous
 62
     7
100
AcDbCircle
 10
951.393153255729
 20
-1385.128145544491
 30
0.0
 40
2.0
100
AcDbArc
 50
-89.99999999979156
 51
-44.9999999999954
  0
ARC
  5
192
330
49
100
AcDbEntity
  8
0
  6
Continuous
 62
     7
100
AcDbCircle
 10
956.393153255729
 20
-1385.128145544491
 30
0.0
 40
2.0
100
AcDbArc
 50
180.0
 51
-135.0000000000046
  0
ARC
  5
193
330
49
100
AcDbEntity
  8
0
  6
Continuous
 62
     7
100
AcDbCircle
 10
956.393153255729
 20
-1385.128145544491
 30
0.0
 40
2.000000000000177
100
AcDbArc
 50
-135.0000000000046
 51
-90.00000000010422
  0
CIRCLE
  5
194
330
49
100
AcDbEntity
  8
0
  6
Continuous
 62
     7
100
AcDbCircle
 10
953.893153255729
 20
-1387.628145544491
 30
0.0
 40
6.0
  0
CIRCLE
  5
195
330
49
100
AcDbEntity
  8
0
  6
Continuous
 62
     3
100
AcDbCircle
 10
953.893153255729
 20
-1387.628145544491
 30
0.0
 40
5.425531914894236
  0
ENDBLK
  5
4B
330
49
100
AcDbEntity
  8
0
100
AcDbBlockEnd
  0
BLOCK
  5
4D
330
4C
100
AcDbEntity
  8
0
100
AcDbBlockBegin
  2
Blechschraube6_3x19_2_3_2__2
 70
     0
 71
     0
 10
947.9706788032236
 20
-1388.042053740103
 30
0.0
  3
Blechschraube6_3x19_2_3_2__2
  1

  0
LINE
  5
196
330
4C
100
AcDbEntity
  8
1
  6
PHANTOM
 62
     2
100
AcDbLine
 10
990.393153255729
 20
-1444.879914914372
 30
0.0
 11
990.393153255729
 21
-1456.816085127139
 31
0.0
  0
LINE
  5
197
330
4C
100
AcDbEntity
  8
1
  6
PHANTOM
 62
     2
100
AcDbLine
 10
996.3612383621127
 20
-1450.848000020755
 30
0.0
 11
984.4250681493453
 21
-1450.848000020755
 31
0.0
  0
LINE
  5
198
330
4C
100
AcDbEntity
  8
0
  6
Continuous
 62
     7
100
AcDbLine
 10
990.893153255729
 20
-1447.348000020755
 30
0.0
 11
990.893153255729
 21
-1448.348000020755
 31
0.0
  0
LINE
  5
199
330
4C
100
AcDbEntity
  8
0
  6
Continuous
 62
     7
100
AcDbLine
 10
992.8931532557253
 20
-1450.348000020755
 30
0.0
 11
993.893153255729
 21
-1450.348000020755
 31
0.0
  0
LINE
  5
19A
330
4C
100
AcDbEntity
  8
0
  6
Continuous
 62
     7
100
AcDbLine
 10
991.4789396933556
 20
-1449.762213583128
 30
0.0
 11
990.893153255729
 21
-1450.348000020755
 31
0.0
  0
LINE
  5
19B
330
4C
100
AcDbEntity
  8
0
  6
Continuous
 62
     7
100
AcDbLine
 10
989.893153255729
 20
-1447.348000020755
 30
0.0
 11
990.893153255729
 21
-1447.348000020755
 31
0.0
  0
LINE
  5
19C
330
4C
100
AcDbEntity
  8
0
  6
Continuous
 62
     7
100
AcDbLine
 10
989.893153255729
 20
-1448.348000020766
 30
0.0
 11
989.893153255729
 21
-1447.348000020755
 31
0.0
  0
LINE
  5
19D
330
4C
100
AcDbEntity
  8
0
  6
Continuous
 62
     7
100
AcDbLine
 10
986.893153255729
 20
-1450.348000020755
 30
0.0
 11
987.8931532557363
 21
-1450.348000020755
 31
0.0
  0
LINE
  5
19E
330
4C
100
AcDbEntity
  8
0
  6
Continuous
 62
     7
100
AcDbLine
 10
989.893153255729
 20
-1450.348000020755
 30
0.0
 11
990.893153255729
 21
-1450.348000020755
 31
0.0
  0
LINE
  5
19F
330
4C
100
AcDbEntity
  8
0
  6
Continuous
 62
     7
100
AcDbLine
 10
989.893153255729
 20
-1450.348000020755
 30
0.0
 11
989.3073668181023
 21
-1449.762213583128
 31
0.0
  0
LINE
  5
1A0
330
4C
100
AcDbEntity
  8
0
  6
Continuous
 62
     7
100
AcDbLine
 10
989.893153255729
 20
-1451.348000020755
 30
0.0
 11
989.893153255729
 21
-1450.348000020755
 31
0.0
  0
LINE
  5
1A1
330
4C
100
AcDbEntity
  8
0
  6
Continuous
 62
     7
100
AcDbLine
 10
990.893153255729
 20
-1451.348000020755
 30
0.0
 11
991.4789396933556
 21
-1451.933786458382
 31
0.0
  0
LINE
  5
1A2
330
4C
100
AcDbEntity
  8
0
  6
Continuous
 62
     7
100
AcDbLine
 10
990.893153255729
 20
-1451.348000020755
 30
0.0
 11
989.893153255729
 21
-1451.348000020755
 31
0.0
  0
LINE
  5
1A3
330
4C
100
AcDbEntity
  8
0
  6
Continuous
 62
     7
100
AcDbLine
 10
990.893153255729
 20
-1450.348000020755
 30
0.0
 11
990.893153255729
 21
-1451.348000020755
 31
0.0
  0
LINE
  5
1A4
330
4C
100
AcDbEntity
  8
0
  6
Continuous
 62
     7
100
AcDbLine
 10
989.3073668181023
 20
-1451.933786458382
 30
0.0
 11
989.893153255729
 21
-1451.348000020755
 31
0.0
  0
LINE
  5
1A5
330
4C
100
AcDbEntity
  8
0
  6
Continuous
 62
     7
100
AcDbLine
 10
990.893153255729
 20
-1453.348000020744
 30
0.0
 11
990.893153255729
 21
-1454.348000020755
 31
0.0
  0
LINE
  5
1A6
330
4C
100
AcDbEntity
  8
0
  6
Continuous
 62
     7
100
AcDbLine
 10
990.893153255729
 20
-1454.348000020755
 30
0.0
 11
989.893153255729
 21
-1454.348000020755
 31
0.0
  0
LINE
  5
1A7
330
4C
100
AcDbEntity
  8
0
  6
Continuous
 62
     7
100
AcDbLine
 10
989.893153255729
 20
-1454.348000020755
 30
0.0
 11
989.893153255729
 21
-1453.348000020751
 31
0.0
  0
LINE
  5
1A8
330
4C
100
AcDbEntity
  8
0
  6
Continuous
 62
     7
100
AcDbLine
 10
993.893153255729
 20
-1450.348000020755
 30
0.0
 11
993.893153255729
 21
-1451.348000020755
 31
0.0
  0
LINE
  5
1A9
330
4C
100
AcDbEntity
  8
0
  6
Continuous
 62
     7
100
AcDbLine
 10
993.893153255729
 20
-1451.348000020755
 30
0.0
 11
992.8931532557181
 21
-1451.348000020755
 31
0.0
  0
LINE
  5
1AA
330
4C
100
AcDbEntity
  8
0
  6
Continuous
 62
     7
100
AcDbLine
 10
987.8931532557326
 20
-1451.348000020755
 30
0.0
 11
986.893153255729
 21
-1451.348000020755
 31
0.0
  0
LINE
  5
1AB
330
4C
100
AcDbEntity
  8
0
  6
Continuous
 62
     7
100
AcDbLine
 10
986.893153255729
 20
-1451.348000020755
 30
0.0
 11
986.893153255729
 21
-1450.348000020755
 31
0.0
  0
ARC
  5
1AC
330
4C
100
AcDbEntity
  8
0
  6
Continuous
 62
     7
100
AcDbCircle
 10
992.893153255729
 20
-1448.348000020755
 30
0.0
 40
2.000000000000016
100
AcDbArc
 50
-135.0000000000092
 51
-90.00000000010422
  0
ARC
  5
1AD
330
4C
100
AcDbEntity
  8
0
  6
Continuous
 62
     7
100
AcDbCircle
 10
992.893153255729
 20
-1448.348000020755
 30
0.0
 40
2.0
100
AcDbArc
 50
180.0
 51
-135.0000000000092
  0
ARC
  5
1AE
330
4C
100
AcDbEntity
  8
0
  6
Continuous
 62
     7
100
AcDbCircle
 10
987.893153255729
 20
-1448.348000020755
 30
0.0
 40
2.0
100
AcDbArc
 50
-89.99999999979156
 51
-44.99999999999079
  0
ARC
  5
1AF
330
4C
100
AcDbEntity
  8
0
  6
Continuous
 62
     7
100
AcDbCircle
 10
987.893153255729
 20
-1448.348000020755
 30
0.0
 40
2.000000000000016
100
AcDbArc
 50
-44.99999999999079
 51
-0.00000000031266
  0
ARC
  5
1B0
330
4C
100
AcDbEntity
  8
0
  6
Continuous
 62
     7
100
AcDbCircle
 10
992.893153255729
 20
-1453.348000020755
 30
0.0
 40
2.000000000000177
100
AcDbArc
 50
135.0000000000046
 51
179.9999999996808
  0
ARC
  5
1B1
330
4C
100
AcDbEntity
  8
0
  6
Continuous
 62
     7
100
AcDbCircle
 10
992.893153255729
 20
-1453.348000020755
 30
0.0
 40
2.0
100
AcDbArc
 50
90.00000000031267
 51
135.0000000000046
  0
ARC
  5
1B2
330
4C
100
AcDbEntity
  8
0
  6
Continuous
 62
     7
100
AcDbCircle
 10
987.893153255729
 20
-1453.348000020755
 30
0.0
 40
2.000000000000177
100
AcDbArc
 50
44.9999999999954
 51
89.99999999989578
  0
ARC
  5
1B3
330
4C
100
AcDbEntity
  8
0
  6
Continuous
 62
     7
100
AcDbCircle
 10
987.893153255729
 20
-1453.348000020755
 30
0.0
 40
2.0
100
AcDbArc
 50
0.00000000011725
 51
44.9999999999954
  0
CIRCLE
  5
1B4
330
4C
100
AcDbEntity
  8
0
  6
Continuous
 62
     3
100
AcDbCircle
 10
990.393153255729
 20
-1450.848000020755
 30
0.0
 40
5.425531914894236
  0
CIRCLE
  5
1B5
330
4C
100
AcDbEntity
  8
0
  6
Continuous
 62
     7
100
AcDbCircle
 10
990.393153255729
 20
-1450.848000020755
 30
0.0
 40
6.0
  0
ENDBLK
  5
4E
330
4C
100
AcDbEntity
  8
0
100
AcDbBlockEnd
  0
BLOCK
  5
50
330
4F
100
AcDbEntity
  8
0
100
AcDbBlockBegin
  2
Blechschraube6_3x19_2_3_2__3
 70
     0
 71
     0
 10
1020.970678803224
 20
-1388.042053740103
 30
0.0
  3
Blechschraube6_3x19_2_3_2__3
  1

  0
LINE
  5
1B6
330
4F
100
AcDbEntity
  8
0
  6
Continuous
 62
     7
100
AcDbLine
 10
1059.893153255729
 20
-1451.348000020755
 30
0.0
 11
1059.893153255729
 21
-1450.348000020755
 31
0.0
  0
LINE
  5
1B7
330
4F
100
AcDbEntity
  8
0
  6
Continuous
 62
     7
100
AcDbLine
 10
1060.893153255733
 20
-1451.348000020755
 30
0.0
 11
1059.893153255729
 21
-1451.348000020755
 31
0.0
  0
LINE
  5
1B8
330
4F
100
AcDbEntity
  8
0
  6
Continuous
 62
     7
100
AcDbLine
 10
1066.893153255729
 20
-1451.348000020755
 30
0.0
 11
1065.893153255718
 21
-1451.348000020755
 31
0.0
  0
LINE
  5
1B9
330
4F
100
AcDbEntity
  8
0
  6
Continuous
 62
     7
100
AcDbLine
 10
1066.893153255729
 20
-1450.348000020755
 30
0.0
 11
1066.893153255729
 21
-1451.348000020755
 31
0.0
  0
LINE
  5
1BA
330
4F
100
AcDbEntity
  8
0
  6
Continuous
 62
     7
100
AcDbLine
 10
1062.893153255729
 20
-1454.348000020755
 30
0.0
 11
1062.893153255729
 21
-1453.348000020751
 31
0.0
  0
LINE
  5
1BB
330
4F
100
AcDbEntity
  8
0
  6
Continuous
 62
     7
100
AcDbLine
 10
1063.893153255729
 20
-1454.348000020755
 30
0.0
 11
1062.893153255729
 21
-1454.348000020755
 31
0.0
  0
LINE
  5
1BC
330
4F
100
AcDbEntity
  8
0
  6
Continuous
 62
     7
100
AcDbLine
 10
1063.893153255729
 20
-1453.348000020744
 30
0.0
 11
1063.893153255729
 21
-1454.348000020755
 31
0.0
  0
LINE
  5
1BD
330
4F
100
AcDbEntity
  8
0
  6
Continuous
 62
     7
100
AcDbLine
 10
1062.307366818102
 20
-1451.933786458382
 30
0.0
 11
1062.893153255729
 21
-1451.348000020755
 31
0.0
  0
LINE
  5
1BE
330
4F
100
AcDbEntity
  8
0
  6
Continuous
 62
     7
100
AcDbLine
 10
1063.893153255729
 20
-1450.348000020755
 30
0.0
 11
1063.893153255729
 21
-1451.348000020755
 31
0.0
  0
LINE
  5
1BF
330
4F
100
AcDbEntity
  8
0
  6
Continuous
 62
     7
100
AcDbLine
 10
1063.893153255729
 20
-1451.348000020755
 30
0.0
 11
1062.893153255729
 21
-1451.348000020755
 31
0.0
  0
LINE
  5
1C0
330
4F
100
AcDbEntity
  8
0
  6
Continuous
 62
     7
100
AcDbLine
 10
1063.893153255729
 20
-1451.348000020755
 30
0.0
 11
1064.478939693356
 21
-1451.933786458382
 31
0.0
  0
LINE
  5
1C1
330
4F
100
AcDbEntity
  8
0
  6
Continuous
 62
     7
100
AcDbLine
 10
1062.893153255729
 20
-1451.348000020755
 30
0.0
 11
1062.893153255729
 21
-1450.348000020755
 31
0.0
  0
LINE
  5
1C2
330
4F
100
AcDbEntity
  8
0
  6
Continuous
 62
     7
100
AcDbLine
 10
1062.893153255729
 20
-1450.348000020755
 30
0.0
 11
1062.307366818102
 21
-1449.762213583128
 31
0.0
  0
LINE
  5
1C3
330
4F
100
AcDbEntity
  8
0
  6
Continuous
 62
     7
100
AcDbLine
 10
1062.893153255729
 20
-1450.348000020755
 30
0.0
 11
1063.893153255729
 21
-1450.348000020755
 31
0.0
  0
LINE
  5
1C4
330
4F
100
AcDbEntity
  8
0
  6
Continuous
 62
     7
100
AcDbLine
 10
1059.893153255729
 20
-1450.348000020755
 30
0.0
 11
1060.893153255736
 21
-1450.348000020755
 31
0.0
  0
LINE
  5
1C5
330
4F
100
AcDbEntity
  8
0
  6
Continuous
 62
     7
100
AcDbLine
 10
1062.893153255729
 20
-1448.348000020766
 30
0.0
 11
1062.893153255729
 21
-1447.348000020755
 31
0.0
  0
LINE
  5
1C6
330
4F
100
AcDbEntity
  8
0
  6
Continuous
 62
     7
100
AcDbLine
 10
1062.893153255729
 20
-1447.348000020755
 30
0.0
 11
1063.893153255729
 21
-1447.348000020755
 31
0.0
  0
LINE
  5
1C7
330
4F
100
AcDbEntity
  8
0
  6
Continuous
 62
     7
100
AcDbLine
 10
1064.478939693356
 20
-1449.762213583128
 30
0.0
 11
1063.893153255729
 21
-1450.348000020755
 31
0.0
  0
LINE
  5
1C8
330
4F
100
AcDbEntity
  8
0
  6
Continuous
 62
     7
100
AcDbLine
 10
1065.893153255725
 20
-1450.348000020755
 30
0.0
 11
1066.893153255729
 21
-1450.348000020755
 31
0.0
  0
LINE
  5
1C9
330
4F
100
AcDbEntity
  8
0
  6
Continuous
 62
     7
100
AcDbLine
 10
1063.893153255729
 20
-1447.348000020755
 30
0.0
 11
1063.893153255729
 21
-1448.348000020755
 31
0.0
  0
LINE
  5
1CA
330
4F
100
AcDbEntity
  8
1
  6
PHANTOM
 62
     2
100
AcDbLine
 10
1069.361238362113
 20
-1450.848000020755
 30
0.0
 11
1057.425068149345
 21
-1450.848000020755
 31
0.0
  0
LINE
  5
1CB
330
4F
100
AcDbEntity
  8
1
  6
PHANTOM
 62
     2
100
AcDbLine
 10
1063.393153255729
 20
-1444.879914914372
 30
0.0
 11
1063.393153255729
 21
-1456.816085127139
 31
0.0
  0
ARC
  5
1CC
330
4F
100
AcDbEntity
  8
0
  6
Continuous
 62
     7
100
AcDbCircle
 10
1060.893153255729
 20
-1453.348000020755
 30
0.0
 40
2.0
100
AcDbArc
 50
0.00000000011725
 51
45.0
  0
ARC
  5
1CD
330
4F
100
AcDbEntity
  8
0
  6
Continuous
 62
     7
100
AcDbCircle
 10
1060.893153255729
 20
-1453.348000020755
 30
0.0
 40
2.000000000000016
100
AcDbArc
 50
45.0
 51
89.99999999988275
  0
ARC
  5
1CE
330
4F
100
AcDbEntity
  8
0
  6
Continuous
 62
     7
100
AcDbCircle
 10
1065.893153255729
 20
-1453.348000020755
 30
0.0
 40
2.0
100
AcDbArc
 50
90.00000000031267
 51
134.9999999999954
  0
ARC
  5
1CF
330
4F
100
AcDbEntity
  8
0
  6
Continuous
 62
     7
100
AcDbCircle
 10
1065.893153255729
 20
-1453.348000020755
 30
0.0
 40
1.999999999999855
100
AcDbArc
 50
134.9999999999954
 51
179.9999999996808
  0
ARC
  5
1D0
330
4F
100
AcDbEntity
  8
0
  6
Continuous
 62
     7
100
AcDbCircle
 10
1060.893153255729
 20
-1448.348000020755
 30
0.0
 40
1.999999999999855
100
AcDbArc
 50
-44.9999999999954
 51
-0.00000000031266
  0
ARC
  5
1D1
330
4F
100
AcDbEntity
  8
0
  6
Continuous
 62
     7
100
AcDbCircle
 10
1060.893153255729
 20
-1448.348000020755
 30
0.0
 40
2.0
100
AcDbArc
 50
-89.99999999979808
 51
-44.9999999999954
  0
ARC
  5
1D2
330
4F
100
AcDbEntity
  8
0
  6
Continuous
 62
     7
100
AcDbCircle
 10
1065.893153255729
 20
-1448.348000020755
 30
0.0
 40
2.0
100
AcDbArc
 50
180.0
 51
-135.0
  0
ARC
  5
1D3
330
4F
100
AcDbEntity
  8
0
  6
Continuous
 62
     7
100
AcDbCircle
 10
1065.893153255729
 20
-1448.348000020755
 30
0.0
 40
1.999999999999694
100
AcDbArc
 50
-135.0
 51
-90.00000000011073
  0
CIRCLE
  5
1D4
330
4F
100
AcDbEntity
  8
0
  6
Continuous
 62
     7
100
AcDbCircle
 10
1063.393153255729
 20
-1450.848000020755
 30
0.0
 40
6.0
  0
CIRCLE
  5
1D5
330
4F
100
AcDbEntity
  8
0
  6
Continuous
 62
     3
100
AcDbCircle
 10
1063.393153255729
 20
-1450.848000020755
 30
0.0
 40
5.425531914894009
  0
ENDBLK
  5
51
330
4F
100
AcDbEntity
  8
0
100
AcDbBlockEnd
  0
BLOCK
  5
53
330
52
100
AcDbEntity
  8
0
100
AcDbBlockBegin
  2
Blechschraube6_3x19_2_3_2__4
 70
     0
 71
     0
 10
1057.470678803224
 20
-1324.822199263839
 30
0.0
  3
Blechschraube6_3x19_2_3_2__4
  1

  0
LINE
  5
1D6
330
52
100
AcDbEntity
  8
1
  6
PHANTOM
 62
     2
100
AcDbLine
 10
1099.893153255729
 20
-1381.660060438107
 30
0.0
 11
1099.893153255729
 21
-1393.596230650875
 31
0.0
  0
LINE
  5
1D7
330
52
100
AcDbEntity
  8
1
  6
PHANTOM
 62
     2
100
AcDbLine
 10
1105.861238362113
 20
-1387.628145544491
 30
0.0
 11
1093.925068149345
 21
-1387.628145544491
 31
0.0
  0
LINE
  5
1D8
330
52
100
AcDbEntity
  8
0
  6
Continuous
 62
     7
100
AcDbLine
 10
1100.393153255729
 20
-1384.128145544491
 30
0.0
 11
1100.393153255729
 21
-1385.128145544491
 31
0.0
  0
LINE
  5
1D9
330
52
100
AcDbEntity
  8
0
  6
Continuous
 62
     7
100
AcDbLine
 10
1102.393153255725
 20
-1387.128145544491
 30
0.0
 11
1103.393153255729
 21
-1387.128145544491
 31
0.0
  0
LINE
  5
1DA
330
52
100
AcDbEntity
  8
0
  6
Continuous
 62
     7
100
AcDbLine
 10
1100.978939693356
 20
-1386.542359106864
 30
0.0
 11
1100.393153255729
 21
-1387.128145544491
 31
0.0
  0
LINE
  5
1DB
330
52
100
AcDbEntity
  8
0
  6
Continuous
 62
     7
100
AcDbLine
 10
1099.393153255729
 20
-1384.128145544491
 30
0.0
 11
1100.393153255729
 21
-1384.128145544491
 31
0.0
  0
LINE
  5
1DC
330
52
100
AcDbEntity
  8
0
  6
Continuous
 62
     7
100
AcDbLine
 10
1099.393153255729
 20
-1385.128145544502
 30
0.0
 11
1099.393153255729
 21
-1384.128145544491
 31
0.0
  0
LINE
  5
1DD
330
52
100
AcDbEntity
  8
0
  6
Continuous
 62
     7
100
AcDbLine
 10
1096.393153255729
 20
-1387.128145544491
 30
0.0
 11
1097.393153255736
 21
-1387.128145544491
 31
0.0
  0
LINE
  5
1DE
330
52
100
AcDbEntity
  8
0
  6
Continuous
 62
     7
100
AcDbLine
 10
1099.393153255729
 20
-1387.128145544491
 30
0.0
 11
1100.393153255729
 21
-1387.128145544491
 31
0.0
  0
LINE
  5
1DF
330
52
100
AcDbEntity
  8
0
  6
Continuous
 62
     7
100
AcDbLine
 10
1099.393153255729
 20
-1387.128145544491
 30
0.0
 11
1098.807366818102
 21
-1386.542359106864
 31
0.0
  0
LINE
  5
1E0
330
52
100
AcDbEntity
  8
0
  6
Continuous
 62
     7
100
AcDbLine
 10
1099.393153255729
 20
-1388.128145544491
 30
0.0
 11
1099.393153255729
 21
-1387.128145544491
 31
0.0
  0
LINE
  5
1E1
330
52
100
AcDbEntity
  8
0
  6
Continuous
 62
     7
100
AcDbLine
 10
1100.393153255729
 20
-1388.128145544491
 30
0.0
 11
1100.978939693356
 21
-1388.713931982118
 31
0.0
  0
LINE
  5
1E2
330
52
100
AcDbEntity
  8
0
  6
Continuous
 62
     7
100
AcDbLine
 10
1100.393153255729
 20
-1388.128145544491
 30
0.0
 11
1099.393153255729
 21
-1388.128145544491
 31
0.0
  0
LINE
  5
1E3
330
52
100
AcDbEntity
  8
0
  6
Continuous
 62
     7
100
AcDbLine
 10
1100.393153255729
 20
-1387.128145544491
 30
0.0
 11
1100.393153255729
 21
-1388.128145544491
 31
0.0
  0
LINE
  5
1E4
330
52
100
AcDbEntity
  8
0
  6
Continuous
 62
     7
100
AcDbLine
 10
1098.807366818102
 20
-1388.713931982118
 30
0.0
 11
1099.393153255729
 21
-1388.128145544491
 31
0.0
  0
LINE
  5
1E5
330
52
100
AcDbEntity
  8
0
  6
Continuous
 62
     7
100
AcDbLine
 10
1100.393153255729
 20
-1390.12814554448
 30
0.0
 11
1100.393153255729
 21
-1391.128145544491
 31
0.0
  0
LINE
  5
1E6
330
52
100
AcDbEntity
  8
0
  6
Continuous
 62
     7
100
AcDbLine
 10
1100.393153255729
 20
-1391.128145544491
 30
0.0
 11
1099.393153255729
 21
-1391.128145544491
 31
0.0
  0
LINE
  5
1E7
330
52
100
AcDbEntity
  8
0
  6
Continuous
 62
     7
100
AcDbLine
 10
1099.393153255729
 20
-1391.128145544491
 30
0.0
 11
1099.393153255729
 21
-1390.128145544487
 31
0.0
  0
LINE
  5
1E8
330
52
100
AcDbEntity
  8
0
  6
Continuous
 62
     7
100
AcDbLine
 10
1103.393153255729
 20
-1387.128145544491
 30
0.0
 11
1103.393153255729
 21
-1388.128145544491
 31
0.0
  0
LINE
  5
1E9
330
52
100
AcDbEntity
  8
0
  6
Continuous
 62
     7
100
AcDbLine
 10
1103.393153255729
 20
-1388.128145544491
 30
0.0
 11
1102.393153255718
 21
-1388.128145544491
 31
0.0
  0
LINE
  5
1EA
330
52
100
AcDbEntity
  8
0
  6
Continuous
 62
     7
100
AcDbLine
 10
1097.393153255733
 20
-1388.128145544491
 30
0.0
 11
1096.393153255729
 21
-1388.128145544491
 31
0.0
  0
LINE
  5
1EB
330
52
100
AcDbEntity
  8
0
  6
Continuous
 62
     7
100
AcDbLine
 10
1096.393153255729
 20
-1388.128145544491
 30
0.0
 11
1096.393153255729
 21
-1387.128145544491
 31
0.0
  0
ARC
  5
1EC
330
52
100
AcDbEntity
  8
0
  6
Continuous
 62
     7
100
AcDbCircle
 10
1102.393153255729
 20
-1385.128145544491
 30
0.0
 40
1.999999999999855
100
AcDbArc
 50
-134.9999999999954
 51
-90.00000000011073
  0
ARC
  5
1ED
330
52
100
AcDbEntity
  8
0
  6
Continuous
 62
     7
100
AcDbCircle
 10
1102.393153255729
 20
-1385.128145544491
 30
0.0
 40
2.0
100
AcDbArc
 50
180.0
 51
-134.9999999999954
  0
ARC
  5
1EE
330
52
100
AcDbEntity
  8
0
  6
Continuous
 62
     7
100
AcDbCircle
 10
1097.393153255729
 20
-1385.128145544491
 30
0.0
 40
2.0
100
AcDbArc
 50
-89.99999999979808
 51
-45.0
  0
ARC
  5
1EF
330
52
100
AcDbEntity
  8
0
  6
Continuous
 62
     7
100
AcDbCircle
 10
1097.393153255729
 20
-1385.128145544491
 30
0.0
 40
2.000000000000016
100
AcDbArc
 50
-45.0
 51
-0.00000000031918
  0
ARC
  5
1F0
330
52
100
AcDbEntity
  8
0
  6
Continuous
 62
     7
100
AcDbCircle
 10
1102.393153255729
 20
-1390.128145544491
 30
0.0
 40
1.999999999999694
100
AcDbArc
 50
135.0
 51
179.9999999996873
  0
ARC
  5
1F1
330
52
100
AcDbEntity
  8
0
  6
Continuous
 62
     7
100
AcDbCircle
 10
1102.393153255729
 20
-1390.128145544491
 30
0.0
 40
2.0
100
AcDbArc
 50
90.00000000031267
 51
135.0
  0
ARC
  5
1F2
330
52
100
AcDbEntity
  8
0
  6
Continuous
 62
     7
100
AcDbCircle
 10
1097.393153255729
 20
-1390.128145544491
 30
0.0
 40
1.999999999999855
100
AcDbArc
 50
44.9999999999954
 51
89.99999999988275
  0
ARC
  5
1F3
330
52
100
AcDbEntity
  8
0
  6
Continuous
 62
     7
100
AcDbCircle
 10
1097.393153255729
 20
-1390.128145544491
 30
0.0
 40
2.0
100
AcDbArc
 50
0.00000000011073
 51
44.9999999999954
  0
CIRCLE
  5
1F4
330
52
100
AcDbEntity
  8
0
  6
Continuous
 62
     3
100
AcDbCircle
 10
1099.893153255729
 20
-1387.628145544491
 30
0.0
 40
5.425531914894009
  0
CIRCLE
  5
1F5
330
52
100
AcDbEntity
  8
0
  6
Continuous
 62
     7
100
AcDbCircle
 10
1099.893153255729
 20
-1387.628145544491
 30
0.0
 40
6.0
  0
ENDBLK
  5
54
330
52
100
AcDbEntity
  8
0
100
AcDbBlockEnd
  0
BLOCK
  5
56
330
55
100
AcDbEntity
  8
0
100
AcDbBlockBegin
  2
Blechschraube6_3x19_2_3_2__5
 70
     0
 71
     0
 10
1020.970678803224
 20
-1261.602344787575
 30
0.0
  3
Blechschraube6_3x19_2_3_2__5
  1

  0
LINE
  5
1F6
330
55
100
AcDbEntity
  8
1
  6
PHANTOM
 62
     2
100
AcDbLine
 10
1063.393153255729
 20
-1318.440205961844
 30
0.0
 11
1063.393153255729
 21
-1330.376376174611
 31
0.0
  0
LINE
  5
1F7
330
55
100
AcDbEntity
  8
1
  6
PHANTOM
 62
     2
100
AcDbLine
 10
1069.361238362113
 20
-1324.408291068227
 30
0.0
 11
1057.425068149345
 21
-1324.408291068227
 31
0.0
  0
LINE
  5
1F8
330
55
100
AcDbEntity
  8
0
  6
Continuous
 62
     7
100
AcDbLine
 10
1063.893153255729
 20
-1320.908291068227
 30
0.0
 11
1063.893153255729
 21
-1321.908291068227
 31
0.0
  0
LINE
  5
1F9
330
55
100
AcDbEntity
  8
0
  6
Continuous
 62
     7
100
AcDbLine
 10
1065.893153255725
 20
-1323.908291068227
 30
0.0
 11
1066.893153255729
 21
-1323.908291068227
 31
0.0
  0
LINE
  5
1FA
330
55
100
AcDbEntity
  8
0
  6
Continuous
 62
     7
100
AcDbLine
 10
1064.478939693356
 20
-1323.3225046306
 30
0.0
 11
1063.893153255729
 21
-1323.908291068227
 31
0.0
  0
LINE
  5
1FB
330
55
100
AcDbEntity
  8
0
  6
Continuous
 62
     7
100
AcDbLine
 10
1062.893153255729
 20
-1320.908291068227
 30
0.0
 11
1063.893153255729
 21
-1320.908291068227
 31
0.0
  0
LINE
  5
1FC
330
55
100
AcDbEntity
  8
0
  6
Continuous
 62
     7
100
AcDbLine
 10
1062.893153255729
 20
-1321.908291068238
 30
0.0
 11
1062.893153255729
 21
-1320.908291068227
 31
0.0
  0
LINE
  5
1FD
330
55
100
AcDbEntity
  8
0
  6
Continuous
 62
     7
100
AcDbLine
 10
1059.893153255729
 20
-1323.908291068227
 30
0.0
 11
1060.893153255736
 21
-1323.908291068227
 31
0.0
  0
LINE
  5
1FE
330
55
100
AcDbEntity
  8
0
  6
Continuous
 62
     7
100
AcDbLine
 10
1062.893153255729
 20
-1323.908291068227
 30
0.0
 11
1063.893153255729
 21
-1323.908291068227
 31
0.0
  0
LINE
  5
1FF
330
55
100
AcDbEntity
  8
0
  6
Continuous
 62
     7
100
AcDbLine
 10
1062.893153255729
 20
-1323.908291068227
 30
0.0
 11
1062.307366818102
 21
-1323.3225046306
 31
0.0
  0
LINE
  5
200
330
55
100
AcDbEntity
  8
0
  6
Continuous
 62
     7
100
AcDbLine
 10
1062.893153255729
 20
-1324.908291068227
 30
0.0
 11
1062.893153255729
 21
-1323.908291068227
 31
0.0
  0
LINE
  5
201
330
55
100
AcDbEntity
  8
0
  6
Continuous
 62
     7
100
AcDbLine
 10
1063.893153255729
 20
-1324.908291068227
 30
0.0
 11
1064.478939693356
 21
-1325.494077505854
 31
0.0
  0
LINE
  5
202
330
55
100
AcDbEntity
  8
0
  6
Continuous
 62
     7
100
AcDbLine
 10
1063.893153255729
 20
-1324.908291068227
 30
0.0
 11
1062.893153255729
 21
-1324.908291068227
 31
0.0
  0
LINE
  5
203
330
55
100
AcDbEntity
  8
0
  6
Continuous
 62
     7
100
AcDbLine
 10
1063.893153255729
 20
-1323.908291068227
 30
0.0
 11
1063.893153255729
 21
-1324.908291068227
 31
0.0
  0
LINE
  5
204
330
55
100
AcDbEntity
  8
0
  6
Continuous
 62
     7
100
AcDbLine
 10
1062.307366818102
 20
-1325.494077505854
 30
0.0
 11
1062.893153255729
 21
-1324.908291068227
 31
0.0
  0
LINE
  5
205
330
55
100
AcDbEntity
  8
0
  6
Continuous
 62
     7
100
AcDbLine
 10
1063.893153255729
 20
-1326.908291068216
 30
0.0
 11
1063.893153255729
 21
-1327.908291068227
 31
0.0
  0
LINE
  5
206
330
55
100
AcDbEntity
  8
0
  6
Continuous
 62
     7
100
AcDbLine
 10
1063.893153255729
 20
-1327.908291068227
 30
0.0
 11
1062.893153255729
 21
-1327.908291068227
 31
0.0
  0
LINE
  5
207
330
55
100
AcDbEntity
  8
0
  6
Continuous
 62
     7
100
AcDbLine
 10
1062.893153255729
 20
-1327.908291068227
 30
0.0
 11
1062.893153255729
 21
-1326.908291068223
 31
0.0
  0
LINE
  5
208
330
55
100
AcDbEntity
  8
0
  6
Continuous
 62
     7
100
AcDbLine
 10
1066.893153255729
 20
-1323.908291068227
 30
0.0
 11
1066.893153255729
 21
-1324.908291068227
 31
0.0
  0
LINE
  5
209
330
55
100
AcDbEntity
  8
0
  6
Continuous
 62
     7
100
AcDbLine
 10
1066.893153255729
 20
-1324.908291068227
 30
0.0
 11
1065.893153255718
 21
-1324.908291068227
 31
0.0
  0
LINE
  5
20A
330
55
100
AcDbEntity
  8
0
  6
Continuous
 62
     7
100
AcDbLine
 10
1060.893153255733
 20
-1324.908291068227
 30
0.0
 11
1059.893153255729
 21
-1324.908291068227
 31
0.0
  0
LINE
  5
20B
330
55
100
AcDbEntity
  8
0
  6
Continuous
 62
     7
100
AcDbLine
 10
1059.893153255729
 20
-1324.908291068227
 30
0.0
 11
1059.893153255729
 21
-1323.908291068227
 31
0.0
  0
ARC
  5
20C
330
55
100
AcDbEntity
  8
0
  6
Continuous
 62
     7
100
AcDbCircle
 10
1065.893153255729
 20
-1321.908291068227
 30
0.0
 40
1.999999999999694
100
AcDbArc
 50
-135.0
 51
-90.00000000011073
  0
ARC
  5
20D
330
55
100
AcDbEntity
  8
0
  6
Continuous
 62
     7
100
AcDbCircle
 10
1065.893153255729
 20
-1321.908291068227
 30
0.0
 40
2.0
100
AcDbArc
 50
180.0
 51
-135.0
  0
ARC
  5
20E
330
55
100
AcDbEntity
  8
0
  6
Continuous
 62
     7
100
AcDbCircle
 10
1060.893153255729
 20
-1321.908291068227
 30
0.0
 40
2.0
100
AcDbArc
 50
-89.99999999979808
 51
-44.9999999999954
  0
ARC
  5
20F
330
55
100
AcDbEntity
  8
0
  6
Continuous
 62
     7
100
AcDbCircle
 10
1060.893153255729
 20
-1321.908291068227
 30
0.0
 40
1.999999999999855
100
AcDbArc
 50
-44.9999999999954
 51
-0.00000000031266
  0
ARC
  5
210
330
55
100
AcDbEntity
  8
0
  6
Continuous
 62
     7
100
AcDbCircle
 10
1065.893153255729
 20
-1326.908291068227
 30
0.0
 40
1.999999999999855
100
AcDbArc
 50
134.9999999999954
 51
179.9999999996808
  0
ARC
  5
211
330
55
100
AcDbEntity
  8
0
  6
Continuous
 62
     7
100
AcDbCircle
 10
1065.893153255729
 20
-1326.908291068227
 30
0.0
 40
2.0
100
AcDbArc
 50
90.00000000031267
 51
134.9999999999954
  0
ARC
  5
212
330
55
100
AcDbEntity
  8
0
  6
Continuous
 62
     7
100
AcDbCircle
 10
1060.893153255729
 20
-1326.908291068227
 30
0.0
 40
2.000000000000016
100
AcDbArc
 50
45.0
 51
89.99999999988275
  0
ARC
  5
213
330
55
100
AcDbEntity
  8
0
  6
Continuous
 62
     7
100
AcDbCircle
 10
1060.893153255729
 20
-1326.908291068227
 30
0.0
 40
2.0
100
AcDbArc
 50
0.00000000011725
 51
45.0
  0
CIRCLE
  5
214
330
55
100
AcDbEntity
  8
0
  6
Continuous
 62
     3
100
AcDbCircle
 10
1063.393153255729
 20
-1324.408291068227
 30
0.0
 40
5.425531914894009
  0
CIRCLE
  5
215
330
55
100
AcDbEntity
  8
0
  6
Continuous
 62
     7
100
AcDbCircle
 10
1063.393153255729
 20
-1324.408291068227
 30
0.0
 40
6.0
  0
ENDBLK
  5
57
330
55
100
AcDbEntity
  8
0
100
AcDbBlockEnd
  0
BLOCK
  5
59
330
58
100
AcDbEntity
  8
0
100
AcDbBlockBegin
  2
Blechschraube6_3x19_2_3_2__6
 70
     0
 71
     0
 10
947.9706788032236
 20
-1261.602344787575
 30
0.0
  3
Blechschraube6_3x19_2_3_2__6
  1

  0
LINE
  5
216
330
58
100
AcDbEntity
  8
0
  6
Continuous
 62
     7
100
AcDbLine
 10
986.893153255729
 20
-1324.908291068227
 30
0.0
 11
986.893153255729
 21
-1323.908291068227
 31
0.0
  0
LINE
  5
217
330
58
100
AcDbEntity
  8
0
  6
Continuous
 62
     7
100
AcDbLine
 10
987.8931532557326
 20
-1324.908291068227
 30
0.0
 11
986.893153255729
 21
-1324.908291068227
 31
0.0
  0
LINE
  5
218
330
58
100
AcDbEntity
  8
0
  6
Continuous
 62
     7
100
AcDbLine
 10
993.893153255729
 20
-1324.908291068227
 30
0.0
 11
992.8931532557181
 21
-1324.908291068227
 31
0.0
  0
LINE
  5
219
330
58
100
AcDbEntity
  8
0
  6
Continuous
 62
     7
100
AcDbLine
 10
993.893153255729
 20
-1323.908291068227
 30
0.0
 11
993.893153255729
 21
-1324.908291068227
 31
0.0
  0
LINE
  5
21A
330
58
100
AcDbEntity
  8
0
  6
Continuous
 62
     7
100
AcDbLine
 10
989.893153255729
 20
-1327.908291068227
 30
0.0
 11
989.893153255729
 21
-1326.908291068223
 31
0.0
  0
LINE
  5
21B
330
58
100
AcDbEntity
  8
0
  6
Continuous
 62
     7
100
AcDbLine
 10
990.893153255729
 20
-1327.908291068227
 30
0.0
 11
989.893153255729
 21
-1327.908291068227
 31
0.0
  0
LINE
  5
21C
330
58
100
AcDbEntity
  8
0
  6
Continuous
 62
     7
100
AcDbLine
 10
990.893153255729
 20
-1326.908291068216
 30
0.0
 11
990.893153255729
 21
-1327.908291068227
 31
0.0
  0
LINE
  5
21D
330
58
100
AcDbEntity
  8
0
  6
Continuous
 62
     7
100
AcDbLine
 10
989.3073668181023
 20
-1325.494077505854
 30
0.0
 11
989.893153255729
 21
-1324.908291068227
 31
0.0
  0
LINE
  5
21E
330
58
100
AcDbEntity
  8
0
  6
Continuous
 62
     7
100
AcDbLine
 10
990.893153255729
 20
-1323.908291068227
 30
0.0
 11
990.893153255729
 21
-1324.908291068227
 31
0.0
  0
LINE
  5
21F
330
58
100
AcDbEntity
  8
0
  6
Continuous
 62
     7
100
AcDbLine
 10
990.893153255729
 20
-1324.908291068227
 30
0.0
 11
989.893153255729
 21
-1324.908291068227
 31
0.0
  0
LINE
  5
220
330
58
100
AcDbEntity
  8
0
  6
Continuous
 62
     7
100
AcDbLine
 10
990.893153255729
 20
-1324.908291068227
 30
0.0
 11
991.4789396933556
 21
-1325.494077505854
 31
0.0
  0
LINE
  5
221
330
58
100
AcDbEntity
  8
0
  6
Continuous
 62
     7
100
AcDbLine
 10
989.893153255729
 20
-1324.908291068227
 30
0.0
 11
989.893153255729
 21
-1323.908291068227
 31
0.0
  0
LINE
  5
222
330
58
100
AcDbEntity
  8
0
  6
Continuous
 62
     7
100
AcDbLine
 10
989.893153255729
 20
-1323.908291068227
 30
0.0
 11
989.3073668181023
 21
-1323.3225046306
 31
0.0
  0
LINE
  5
223
330
58
100
AcDbEntity
  8
0
  6
Continuous
 62
     7
100
AcDbLine
 10
989.893153255729
 20
-1323.908291068227
 30
0.0
 11
990.893153255729
 21
-1323.908291068227
 31
0.0
  0
LINE
  5
224
330
58
100
AcDbEntity
  8
0
  6
Continuous
 62
     7
100
AcDbLine
 10
986.893153255729
 20
-1323.908291068227
 30
0.0
 11
987.8931532557363
 21
-1323.908291068227
 31
0.0
  0
LINE
  5
225
330
58
100
AcDbEntity
  8
0
  6
Continuous
 62
     7
100
AcDbLine
 10
989.893153255729
 20
-1321.908291068238
 30
0.0
 11
989.893153255729
 21
-1320.908291068227
 31
0.0
  0
LINE
  5
226
330
58
100
AcDbEntity
  8
0
  6
Continuous
 62
     7
100
AcDbLine
 10
989.893153255729
 20
-1320.908291068227
 30
0.0
 11
990.893153255729
 21
-1320.908291068227
 31
0.0
  0
LINE
  5
227
330
58
100
AcDbEntity
  8
0
  6
Continuous
 62
     7
100
AcDbLine
 10
991.4789396933556
 20
-1323.3225046306
 30
0.0
 11
990.893153255729
 21
-1323.908291068227
 31
0.0
  0
LINE
  5
228
330
58
100
AcDbEntity
  8
0
  6
Continuous
 62
     7
100
AcDbLine
 10
992.8931532557253
 20
-1323.908291068227
 30
0.0
 11
993.893153255729
 21
-1323.908291068227
 31
0.0
  0
LINE
  5
229
330
58
100
AcDbEntity
  8
0
  6
Continuous
 62
     7
100
AcDbLine
 10
990.893153255729
 20
-1320.908291068227
 30
0.0
 11
990.893153255729
 21
-1321.908291068227
 31
0.0
  0
LINE
  5
22A
330
58
100
AcDbEntity
  8
1
  6
PHANTOM
 62
     2
100
AcDbLine
 10
996.3612383621127
 20
-1324.408291068227
 30
0.0
 11
984.4250681493453
 21
-1324.408291068227
 31
0.0
  0
LINE
  5
22B
330
58
100
AcDbEntity
  8
1
  6
PHANTOM
 62
     2
100
AcDbLine
 10
990.393153255729
 20
-1318.440205961844
 30
0.0
 11
990.393153255729
 21
-1330.376376174611
 31
0.0
  0
ARC
  5
22C
330
58
100
AcDbEntity
  8
0
  6
Continuous
 62
     7
100
AcDbCircle
 10
987.893153255729
 20
-1326.908291068227
 30
0.0
 40
2.0
100
AcDbArc
 50
0.00000000011725
 51
44.9999999999954
  0
ARC
  5
22D
330
58
100
AcDbEntity
  8
0
  6
Continuous
 62
     7
100
AcDbCircle
 10
987.893153255729
 20
-1326.908291068227
 30
0.0
 40
2.000000000000177
100
AcDbArc
 50
44.9999999999954
 51
89.99999999989578
  0
ARC
  5
22E
330
58
100
AcDbEntity
  8
0
  6
Continuous
 62
     7
100
AcDbCircle
 10
992.893153255729
 20
-1326.908291068227
 30
0.0
 40
2.0
100
AcDbArc
 50
90.00000000031267
 51
135.0000000000046
  0
ARC
  5
22F
330
58
100
AcDbEntity
  8
0
  6
Continuous
 62
     7
100
AcDbCircle
 10
992.893153255729
 20
-1326.908291068227
 30
0.0
 40
2.000000000000177
100
AcDbArc
 50
135.0000000000046
 51
179.9999999996808
  0
ARC
  5
230
330
58
100
AcDbEntity
  8
0
  6
Continuous
 62
     7
100
AcDbCircle
 10
987.893153255729
 20
-1321.908291068227
 30
0.0
 40
2.000000000000016
100
AcDbArc
 50
-44.99999999999079
 51
-0.00000000031266
  0
ARC
  5
231
330
58
100
AcDbEntity
  8
0
  6
Continuous
 62
     7
100
AcDbCircle
 10
987.893153255729
 20
-1321.908291068227
 30
0.0
 40
2.0
100
AcDbArc
 50
-89.99999999979156
 51
-44.99999999999079
  0
ARC
  5
232
330
58
100
AcDbEntity
  8
0
  6
Continuous
 62
     7
100
AcDbCircle
 10
992.893153255729
 20
-1321.908291068227
 30
0.0
 40
2.0
100
AcDbArc
 50
180.0
 51
-135.0000000000092
  0
ARC
  5
233
330
58
100
AcDbEntity
  8
0
  6
Continuous
 62
     7
100
AcDbCircle
 10
992.893153255729
 20
-1321.908291068227
 30
0.0
 40
2.000000000000016
100
AcDbArc
 50
-135.0000000000092
 51
-90.00000000010422
  0
CIRCLE
  5
234
330
58
100
AcDbEntity
  8
0
  6
Continuous
 62
     7
100
AcDbCircle
 10
990.393153255729
 20
-1324.408291068227
 30
0.0
 40
6.0
  0
CIRCLE
  5
235
330
58
100
AcDbEntity
  8
0
  6
Continuous
 62
     3
100
AcDbCircle
 10
990.393153255729
 20
-1324.408291068227
 30
0.0
 40
5.425531914894236
  0
ENDBLK
  5
5A
330
58
100
AcDbEntity
  8
0
100
AcDbBlockEnd
  0
BLOCK
  5
5C
330
5B
100
AcDbEntity
  8
0
100
AcDbBlockBegin
  2
Bitumen-Folie
 70
     0
 71
     0
 10
1026.893153255729
 20
-1086.840301724817
 30
0.0
  3
Bitumen-Folie
  1

  0
LINE
  5
236
330
5B
100
AcDbEntity
  8
1
  6
Continuous
 62
     7
100
AcDbLine
 10
1026.893153255729
 20
-1064.282287170551
 30
0.0
 11
1276.893153255729
 21
-1064.282287170551
 31
0.0
  0
LINE
  5
237
330
5B
100
AcDbEntity
  8
1
  6
Continuous
 62
     7
100
AcDbLine
 10
1276.893153255729
 20
-1064.282287170551
 30
0.0
 11
1276.893153255729
 21
-1060.282287170551
 31
0.0
  0
LINE
  5
238
330
5B
100
AcDbEntity
  8
1
  6
Continuous
 62
     7
100
AcDbLine
 10
776.893153255729
 20
-1064.282287170551
 30
0.0
 11
1026.893153255729
 21
-1064.282287170551
 31
0.0
  0
LINE
  5
239
330
5B
100
AcDbEntity
  8
1
  6
Continuous
 62
     7
100
AcDbLine
 10
776.893153255729
 20
-1060.282287170551
 30
0.0
 11
776.893153255729
 21
-1064.282287170551
 31
0.0
  0
LINE
  5
23A
330
5B
100
AcDbEntity
  8
1
  6
Continuous
 62
     7
100
AcDbLine
 10
776.893153255729
 20
-1060.282287170551
 30
0.0
 11
776.893153255729
 21
-1060.282287170551
 31
0.0
  0
LINE
  5
23B
330
5B
100
AcDbEntity
  8
1
  6
PHANTOM
 62
     2
100
AcDbLine
 10
1026.893153255729
 20
-1060.282287170551
 30
0.0
 11
1026.893153255729
 21
-1064.282287170551
 31
0.0
  0
LINE
  5
23C
330
5B
100
AcDbEntity
  8
1
  6
Continuous
 62
     7
100
AcDbLine
 10
776.893153255729
 20
-1060.282287170551
 30
0.0
 11
1276.893153255729
 21
-1060.282287170551
 31
0.0
  0
ENDBLK
  5
5D
330
5B
100
AcDbEntity
  8
0
100
AcDbBlockEnd
  0
BLOCK
  5
5F
330
5E
100
AcDbEntity
  8
0
100
AcDbBlockBegin
  2
HL_83_Lippendichtung
 70
     0
 71
     0
 10
1225.133531440708
 20
-1101.193164689394
 30
0.0
  3
HL_83_Lippendichtung
  1

  0
LINE
  5
23D
330
5E
100
AcDbEntity
  8
1
  6
Continuous
 62
     7
100
AcDbLine
 10
1026.893153255729
 20
-1093.693164689394
 30
0.0
 11
1116.393153255729
 21
-1093.693164689394
 31
0.0
  0
LINE
  5
23E
330
5E
100
AcDbEntity
  8
1
  6
Continuous
 62
     7
100
AcDbLine
 10
1116.893153255729
 20
-1101.193164689394
 30
0.0
 11
1117.893153255729
 21
-1100.193164689394
 31
0.0
  0
LINE
  5
23F
330
5E
100
AcDbEntity
  8
1
  6
Continuous
 62
     7
100
AcDbLine
 10
1117.893153255729
 20
-1100.193164689394
 30
0.0
 11
1117.893153255729
 21
-1094.559190093176
 31
0.0
  0
LINE
  5
240
330
5E
100
AcDbEntity
  8
1
  6
Continuous
 62
     7
100
AcDbLine
 10
1117.893153255729
 20
-1094.559190093176
 30
0.0
 11
1116.393153255729
 21
-1093.693164689394
 31
0.0
  0
LINE
  5
241
330
5E
100
AcDbEntity
  8
1
  6
Continuous
 62
     7
100
AcDbLine
 10
1026.893153255729
 20
-1101.193164689394
 30
0.0
 11
1116.893153255729
 21
-1101.193164689394
 31
0.0
  0
LINE
  5
242
330
5E
100
AcDbEntity
  8
1
  6
Continuous
 62
     7
100
AcDbLine
 10
937.393153255729
 20
-1093.693164689394
 30
0.0
 11
1026.893153255729
 21
-1093.693164689394
 31
0.0
  0
LINE
  5
243
330
5E
100
AcDbEntity
  8
1
  6
Continuous
 62
     7
100
AcDbLine
 10
935.893153255729
 20
-1100.193164689394
 30
0.0
 11
936.893153255729
 21
-1101.193164689394
 31
0.0
  0
LINE
  5
244
330
5E
100
AcDbEntity
  8
1
  6
Continuous
 62
     7
100
AcDbLine
 10
935.893153255729
 20
-1094.559190093176
 30
0.0
 11
935.893153255729
 21
-1100.193164689394
 31
0.0
  0
LINE
  5
245
330
5E
100
AcDbEntity
  8
1
  6
Continuous
 62
     7
100
AcDbLine
 10
937.393153255729
 20
-1093.693164689394
 30
0.0
 11
935.893153255729
 21
-1094.559190093176
 31
0.0
  0
LINE
  5
246
330
5E
100
AcDbEntity
  8
1
  6
Continuous
 62
     7
100
AcDbLine
 10
936.893153255729
 20
-1101.193164689394
 30
0.0
 11
1026.893153255729
 21
-1101.193164689394
 31
0.0
  0
LINE
  5
247
330
5E
100
AcDbEntity
  8
1
  6
Continuous
 62
     7
100
AcDbLine
 10
1117.893153255729
 20
-1094.559190093176
 30
0.0
 11
935.893153255729
 21
-1094.559190093176
 31
0.0
  0
LINE
  5
248
330
5E
100
AcDbEntity
  8
1
  6
Continuous
 62
     7
100
AcDbLine
 10
935.893153255729
 20
-1100.193164689394
 30
0.0
 11
1117.893153255729
 21
-1100.193164689394
 31
0.0
  0
LINE
  5
249
330
5E
100
AcDbEntity
  8
1
  6
PHANTOM
 62
     2
100
AcDbLine
 10
1026.893153255729
 20
-1101.193164689394
 30
0.0
 11
1026.893153255729
 21
-1093.693164689394
 31
0.0
  0
ENDBLK
  5
60
330
5E
100
AcDbEntity
  8
0
100
AcDbBlockEnd
  0
BLOCK
  5
62
330
61
100
AcDbEntity
  8
0
100
AcDbBlockBegin
  2
HL_83_Niroflansch
 70
     0
 71
     0
 10
1255.108533993738
 20
-1066.509167229081
 30
0.0
  3
HL_83_Niroflansch
  1

  0
LINE
  5
24A
330
61
100
AcDbEntity
  8
1
  6
Continuous
 62
     7
100
AcDbLine
 10
1090.325199826046
 20
-1065.282287170551
 30
0.0
 11
1090.719533932803
 21
-1065.282287170551
 31
0.0
  0
LINE
  5
24B
330
61
100
AcDbEntity
  8
1
  6
Continuous
 62
     7
100
AcDbLine
 10
963.0667725786552
 20
-1065.282287170551
 30
0.0
 11
963.4611066854122
 21
-1065.282287170551
 31
0.0
  0
LINE
  5
24C
330
61
100
AcDbEntity
  8
1
  6
Continuous
 62
     7
100
AcDbLine
 10
1105.987096893638
 20
-1065.282287170551
 30
0.0
 11
1117.893153255729
 21
-1065.282287170551
 31
0.0
  0
LINE
  5
24D
330
61
100
AcDbEntity
  8
1
  6
Continuous
 62
     7
100
AcDbLine
 10
1090.719533932803
 20
-1065.282287170551
 30
0.0
 11
1090.325199826046
 21
-1065.282287170551
 31
0.0
  0
LINE
  5
24E
330
61
100
AcDbEntity
  8
1
  6
Continuous
 62
     7
100
AcDbLine
 10
947.7471065587051
 20
-1065.282287170551
 30
0.0
 11
1105.987096893638
 21
-1065.282287170551
 31
0.0
  0
LINE
  5
24F
330
61
100
AcDbEntity
  8
1
  6
Continuous
 62
     7
100
AcDbLine
 10
935.8931502979358
 20
-1065.282287170551
 30
0.0
 11
947.7471065587051
 21
-1065.282287170551
 31
0.0
  0
LINE
  5
250
330
61
100
AcDbEntity
  8
1
  6
Continuous
 62
     7
100
AcDbLine
 10
947.7471065587051
 20
-1059.282287170551
 30
0.0
 11
935.8931502979358
 21
-1059.282287170551
 31
0.0
  0
LINE
  5
251
330
61
100
AcDbEntity
  8
1
  6
Continuous
 62
     7
100
AcDbLine
 10
1105.987096893638
 20
-1059.282287170551
 30
0.0
 11
947.7471065587051
 21
-1059.282287170551
 31
0.0
  0
LINE
  5
252
330
61
100
AcDbEntity
  8
1
  6
Continuous
 62
     7
100
AcDbLine
 10
1090.325199826046
 20
-1059.282287170551
 30
0.0
 11
1090.719533932803
 21
-1059.282287170551
 31
0.0
  0
LINE
  5
253
330
61
100
AcDbEntity
  8
1
  6
Continuous
 62
     7
100
AcDbLine
 10
1117.893153255729
 20
-1059.282287170551
 30
0.0
 11
1105.987096893638
 21
-1059.282287170551
 31
0.0
  0
LINE
  5
254
330
61
100
AcDbEntity
  8
1
  6
Continuous
 62
     7
100
AcDbLine
 10
963.4611066854122
 20
-1059.282287170551
 30
0.0
 11
963.0667725786552
 21
-1059.282287170551
 31
0.0
  0
LINE
  5
255
330
61
100
AcDbEntity
  8
1
  6
Continuous
 62
     7
100
AcDbLine
 10
1090.719533932803
 20
-1059.282287170551
 30
0.0
 11
1090.325199826046
 21
-1059.282287170551
 31
0.0
  0
ARC
  5
256
330
61
100
AcDbEntity
  8
1
  6
Continuous
 62
     7
100
AcDbCircle
 10
935.893153255729
 20
-1061.449568284029
 30
0.0
 40
3.832718886523116
100
AcDbArc
 50
-132.3461628366242
 51
-90.0000442164091
  0
ARC
  5
257
330
61
100
AcDbEntity
  8
1
  6
Continuous
 62
     7
100
AcDbCircle
 10
1117.893153255729
 20
-1061.449568284029
 30
0.0
 40
3.832718886521889
100
AcDbArc
 50
-90.0
 51
-47.65383716341846
  0
ARC
  5
258
330
61
100
AcDbEntity
  8
1
  6
Continuous
 62
     7
100
AcDbCircle
 10
1117.893153255729
 20
-1063.115006057074
 30
0.0
 40
3.832718886521352
100
AcDbArc
 50
47.65383716342991
 51
90.0
  0
ARC
  5
259
330
61
100
AcDbEntity
  8
1
  6
Continuous
 62
     7
100
AcDbCircle
 10
935.893153255729
 20
-1063.115006057074
 30
0.0
 40
3.832718886524167
100
AcDbArc
 50
90.0000442164091
 51
132.3461628366128
  0
ENDBLK
  5
63
330
61
100
AcDbEntity
  8
0
100
AcDbBlockEnd
  0
BLOCK
  5
262
330
25A
100
AcDbEntity
  8
0
100
AcDbBlockBegin
  2
*D12
 70
     1
 71
     0
 10
0.0
 20
0.0
 30
0.0
  3
*D12
  1

  0
LINE
  5
25B
330
25A
100
AcDbEntity
  8
1
  6
Continuous
 62
     4
100
AcDbLine
 10
953.893153255729
 20
-1665.37676986808
 30
0.0
 11
1099.893153255729
 21
-1665.37676986808
 31
0.0
  0
LINE
  5
25C
330
25A
100
AcDbEntity
  8
1
  6
Continuous
 62
     4
100
AcDbLine
 10
1099.893153255729
 20
-1396.168470769241
 30
0.0
 11
1099.893153255729
 21
-1667.37676986808
 31
0.0
  0
LINE
  5
25D
330
25A
100
AcDbEntity
  8
1
  6
Continuous
 62
     4
100
AcDbLine
 10
953.893153255729
 20
-1396.168470769241
 30
0.0
 11
953.893153255729
 21
-1667.37676986808
 31
0.0
  0
SOLID
  5
25E
330
25A
100
AcDbEntity
  8
1
 62
     4
100
AcDbTrace
 10
963.893153255729
 20
-1664.060244892206
 30
0.0
 11
963.893153255729
 21
-1666.693294843954
 31
0.0
 12
953.893153255729
 22
-1665.37676986808
 32
0.0
 13
953.893153255729
 23
-1665.37676986808
 33
0.0
  0
SOLID
  5
25F
330
25A
100
AcDbEntity
  8
1
 62
     4
100
AcDbTrace
 10
1089.893153255729
 20
-1666.693294843954
 30
0.0
 11
1089.893153255729
 21
-1664.060244892206
 31
0.0
 12
1099.893153255729
 22
-1665.37676986808
 32
0.0
 13
1099.893153255729
 23
-1665.37676986808
 33
0.0
  0
MTEXT
  5
261
330
25A
100
AcDbEntity
  8
1
 62
     1
100
AcDbMText
 10
992.70033124884
 20
-1663.37676986808
 30
0.0
 40
10.0
 41
0.0
 71
     7
 72
     1
  1
146
  7
CONVERTER_11
 11
0.9999999999970619
 21
2.424068405545306E-6
 31
0.0
 73
     1
 44
0.60024009603842
  0
ENDBLK
  5
263
330
25A
100
AcDbEntity
  8
0
100
AcDbBlockEnd
  0
BLOCK
  5
26D
330
266
100
AcDbEntity
  8
0
100
AcDbBlockBegin
  2
*D13
 70
     1
 71
     0
 10
0.0
 20
0.0
 30
0.0
  3
*D13
  1

  0
LINE
  5
267
330
266
100
AcDbEntity
  8
1
  6
Continuous
 62
     4
100
AcDbLine
 10
1299.55663414104
 20
-1137.628145544487
 30
0.0
 11
1299.55663414104
 21
-1637.628145544491
 31
0.0
  0
LINE
  5
268
330
266
100
AcDbEntity
  8
1
  6
Continuous
 62
     4
100
AcDbLine
 10
1276.893153255729
 20
-1137.628145544487
 30
0.0
 11
1301.55663414104
 21
-1137.628145544487
 31
0.0
  0
LINE
  5
269
330
266
100
AcDbEntity
  8
1
  6
Continuous
 62
     4
100
AcDbLine
 10
1276.893153255729
 20
-1637.628145544491
 30
0.0
 11
1301.55663414104
 21
-1637.628145544491
 31
0.0
  0
SOLID
  5
26A
330
266
100
AcDbEntity
  8
1
 62
     4
100
AcDbTrace
 10
1300.873159116914
 20
-1147.628145544487
 30
0.0
 11
1298.240109165166
 21
-1147.628145544487
 31
0.0
 12
1299.55663414104
 22
-1137.628145544487
 32
0.0
 13
1299.55663414104
 23
-1137.628145544487
 33
0.0
  0
SOLID
  5
26B
330
266
100
AcDbEntity
  8
1
 62
     4
100
AcDbTrace
 10
1298.240109165166
 20
-1627.628145544491
 30
0.0
 11
1300.873159116914
 21
-1627.628145544491
 31
0.0
 12
1299.55663414104
 22
-1637.628145544491
 32
0.0
 13
1299.55663414104
 23
-1637.628145544491
 33
0.0
  0
MTEXT
  5
26C
330
266
100
AcDbEntity
  8
1
 62
     1
100
AcDbMText
 10
1297.55663414104
 20
-1401.5647652628
 30
0.0
 40
10.0
 41
0.0
 71
     7
 72
     1
  1
500
  7
CONVERTER_11
 11
0.0
 21
1.0
 31
0.0
 73
     1
 44
0.60024009603842
  0
ENDBLK
  5
26E
330
266
100
AcDbEntity
  8
0
100
AcDbBlockEnd
  0
BLOCK
  5
278
330
271
100
AcDbEntity
  8
0
100
AcDbBlockBegin
  2
*D14
 70
     1
 71
     0
 10
0.0
 20
0.0
 30
0.0
  3
*D14
  1

  0
LINE
  5
272
330
271
100
AcDbEntity
  8
1
  6
Continuous
 62
     4
100
AcDbLine
 10
776.8931532557289
 20
-1687.08803659564
 30
0.0
 11
1276.893153255729
 21
-1687.08803659564
 31
0.0
  0
LINE
  5
273
330
271
100
AcDbEntity
  8
1
  6
Continuous
 62
     4
100
AcDbLine
 10
1276.893153255729
 20
-1637.628145544491
 30
0.0
 11
1276.893153255729
 21
-1689.08803659564
 31
0.0
  0
LINE
  5
274
330
271
100
AcDbEntity
  8
1
  6
Continuous
 62
     4
100
AcDbLine
 10
776.8931532557289
 20
-1637.628145544491
 30
0.0
 11
776.8931532557289
 21
-1689.08803659564
 31
0.0
  0
SOLID
  5
275
330
271
100
AcDbEntity
  8
1
 62
     4
100
AcDbTrace
 10
786.8931532557289
 20
-1685.771511619766
 30
0.0
 11
786.8931532557289
 21
-1688.404561571514
 31
0.0
 12
776.8931532557289
 22
-1687.08803659564
 32
0.0
 13
776.8931532557289
 23
-1687.08803659564
 33
0.0
  0
SOLID
  5
276
330
271
100
AcDbEntity
  8
1
 62
     4
100
AcDbTrace
 10
1266.893153255729
 20
-1688.404561571514
 30
0.0
 11
1266.893153255729
 21
-1685.771511619766
 31
0.0
 12
1276.893153255729
 22
-1687.08803659564
 32
0.0
 13
1276.893153255729
 23
-1687.08803659564
 33
0.0
  0
MTEXT
  5
277
330
271
100
AcDbEntity
  8
1
 62
     1
100
AcDbMText
 10
1031.333519787
 20
-1685.08803659564
 30
0.0
 40
10.0
 41
0.0
 71
     7
 72
     1
  1
500
  7
CONVERTER_11
 11
0.9999999999970619
 21
2.424068405545306E-6
 31
0.0
 73
     1
 44
0.60024009603842
  0
ENDBLK
  5
279
330
271
100
AcDbEntity
  8
0
100
AcDbBlockEnd
  0
BLOCK
  5
281
330
27C
100
AcDbEntity
  8
0
100
AcDbBlockBegin
  2
*D15
 70
     1
 71
     0
 10
0.0
 20
0.0
 30
0.0
  3
*D15
  1

  0
LINE
  5
27D
330
27C
100
AcDbEntity
  8
1
  6
Continuous
 62
     4
100
AcDbLine
 10
933.1355747023271
 20
-1450.703627816152
 30
0.0
 11
1150.829458767627
 21
-1304.249901761474
 31
0.0
  0
SOLID
  5
27E
330
27C
100
AcDbEntity
  8
1
 62
     4
100
AcDbTrace
 10
1115.767295167157
 20
-1326.251275817212
 30
0.0
 11
1117.237037605669
 21
-1328.435951814433
 31
0.0
 12
1108.20503554098
 22
-1332.925514901811
 32
0.0
 13
1108.20503554098
 23
-1332.925514901811
 33
0.0
  0
SOLID
  5
27F
330
27C
100
AcDbEntity
  8
1
 62
     4
100
AcDbTrace
 10
938.0190113443003
 20
-1449.005015271769
 30
0.0
 11
936.549268905788
 21
-1446.820339274548
 31
0.0
 12
945.5812709704777
 22
-1442.330776187171
 32
0.0
 13
945.5812709704777
 23
-1442.330776187171
 33
0.0
  0
MTEXT
  5
280
330
27C
100
AcDbEntity
  8
1
 62
     1
100
AcDbMText
 10
1118.681809188507
 20
-1323.466785653981
 30
0.0
 40
10.0
 41
0.0
 71
     7
 72
     1
  1
\C1;\U+00d8\C1;196
  7
CONVERTER_11
 11
0.8297130845433804
 21
0.5581901085987724
 31
0.0
 73
     1
 44
0.60024009603842
  0
ENDBLK
  5
282
330
27C
100
AcDbEntity
  8
0
100
AcDbBlockEnd
  0
BLOCK
  5
289
330
284
100
AcDbEntity
  8
0
100
AcDbBlockBegin
  2
*D16
 70
     1
 71
     0
 10
0.0
 20
0.0
 30
0.0
  3
*D16
  1

  0
LINE
  5
285
330
284
100
AcDbEntity
  8
1
  6
Continuous
 62
     4
100
AcDbLine
 10
1077.676441175582
 20
-1411.230214692117
 30
0.0
 11
976.1098653358761
 21
-1364.026076396865
 31
0.0
  0
SOLID
  5
286
330
284
100
AcDbEntity
  8
1
 62
     4
100
AcDbTrace
 10
985.7331794914777
 20
-1367.046848264235
 30
0.0
 11
984.6234397230794
 21
-1369.43461493936
 31
0.0
 12
976.1098653358761
 22
-1364.026076396865
 32
0.0
 13
976.1098653358761
 23
-1364.026076396865
 33
0.0
  0
SOLID
  5
287
330
284
100
AcDbEntity
  8
1
 62
     4
100
AcDbTrace
 10
1068.05312701998
 20
-1408.209442824747
 30
0.0
 11
1069.162866788379
 21
-1405.821676149622
 31
0.0
 12
1077.676441175582
 22
-1411.230214692117
 32
0.0
 13
1077.676441175582
 23
-1411.230214692117
 33
0.0
  0
MTEXT
  5
288
330
284
100
AcDbEntity
  8
1
 62
     1
100
AcDbMText
 10
985.5772147569729
 20
-1366.220677027241
 30
0.0
 40
10.0
 41
0.0
 71
     7
 72
     1
  1
\C1;\U+00d8\C1;112
  7
CONVERTER_11
 11
0.9068444271402292
 21
-0.4214655204933254
 31
0.0
 73
     1
 44
0.60024009603842
  0
ENDBLK
  5
28A
330
284
100
AcDbEntity
  8
0
100
AcDbBlockEnd
  0
ENDSEC
  0
SECTION
  2
ENTITIES
  0
INSERT
  5
64
330
1F
100
AcDbEntity
  8
0
100
AcDbBlockReference
  2
HL83-Klemmring
 10
928.893153255729
 20
-1485.628145544491
 30
0.0
  0
INSERT
  5
65
330
1F
100
AcDbEntity
  8
0
100
AcDbBlockReference
  2
Bitumenmanschette
 10
765.7346702077593
 20
-1526.02988410083
 30
0.0
  0
INSERT
  5
66
330
1F
100
AcDbEntity
  8
0
100
AcDbBlockReference
  2
Blechschraube6_3x19_2_3_2__1
 10
911.4706788032236
 20
-1324.822199263839
 30
0.0
  0
INSERT
  5
67
330
1F
100
AcDbEntity
  8
0
100
AcDbBlockReference
  2
Blechschraube6_3x19_2_3_2__2
 10
947.9706788032236
 20
-1388.042053740103
 30
0.0
  0
INSERT
  5
68
330
1F
100
AcDbEntity
  8
0
100
AcDbBlockReference
  2
Blechschraube6_3x19_2_3_2__3
 10
1020.970678803224
 20
-1388.042053740103
 30
0.0
  0
INSERT
  5
69
330
1F
100
AcDbEntity
  8
0
100
AcDbBlockReference
  2
Blechschraube6_3x19_2_3_2__4
 10
1057.470678803224
 20
-1324.822199263839
 30
0.0
  0
INSERT
  5
6A
330
1F
100
AcDbEntity
  8
0
100
AcDbBlockReference
  2
Blechschraube6_3x19_2_3_2__5
 10
1020.970678803224
 20
-1261.602344787575
 30
0.0
  0
INSERT
  5
6B
330
1F
100
AcDbEntity
  8
0
100
AcDbBlockReference
  2
Blechschraube6_3x19_2_3_2__6
 10
947.9706788032236
 20
-1261.602344787575
 30
0.0
  0
INSERT
  5
6C
330
1F
100
AcDbEntity
  8
1
100
AcDbBlockReference
  2
Bitumen-Folie
 10
1026.893153255729
 20
-1086.840301724817
 30
0.0
  0
INSERT
  5
6D
330
1F
100
AcDbEntity
  8
1
100
AcDbBlockReference
  2
HL_83_Lippendichtung
 10
1225.133531440708
 20
-1101.193164689394
 30
0.0
  0
INSERT
  5
6E
330
1F
100
AcDbEntity
  8
1
100
AcDbBlockReference
  2
HL_83_Niroflansch
 10
1255.108533993738
 20
-1066.509167229081
 30
0.0
  0
DIMENSION
  5
265
330
1F
100
AcDbEntity
  8
1
100
AcDbDimension
  2
*D12
 10
953.893153255729
 20
-1665.37676986808
 30
0.0
 11
1003.20033124884
 21
-1658.37676986808
 31
0.0
 70
    33
  1
<>
 71
     5
 42
-1.0
 53
0.00013888888889
  3
ME10_DIM_10
100
AcDbAlignedDimension
 13
1099.893153255729
 23
-1396.168470769241
 33
0.0
 14
953.893153255729
 24
-1396.168470769241
 34
0.0
  0
DIMENSION
  5
270
330
1F
100
AcDbEntity
  8
1
100
AcDbDimension
  2
*D13
 10
1299.55663414104
 20
-1137.628145544487
 30
0.0
 11
1292.55663414104
 21
-1389.5647652628
 31
0.0
 70
    32
  1
<>
 71
     5
 42
-1.0
 53
-90.0
  3
ME10_DIM_11
100
AcDbAlignedDimension
 13
1276.893153255729
 23
-1637.628145544491
 33
0.0
 14
1276.893153255729
 24
-1137.628145544487
 34
0.0
 50
-90.0
100
AcDbRotatedDimension
  0
DIMENSION
  5
27B
330
1F
100
AcDbEntity
  8
1
100
AcDbDimension
  2
*D14
 10
776.8931532557289
 20
-1687.08803659564
 30
0.0
 11
1043.333519787
 21
-1680.08803659564
 31
0.0
 70
    32
  1
<>
 71
     5
 42
-1.0
 53
0.00013888888889
  3
ME10_DIM_12
100
AcDbAlignedDimension
 13
1276.893153255729
 23
-1637.628145544491
 33
0.0
 14
776.8931532557289
 24
-1637.628145544491
 34
0.0
100
AcDbRotatedDimension
  0
INSERT
  5
283
330
1F
100
AcDbEntity
  8
1
100
AcDbBlockReference
  2
*D15
 10
0.0
 20
0.0
 30
0.0
  0
INSERT
  5
28B
330
1F
100
AcDbEntity
  8
1
100
AcDbBlockReference
  2
*D16
 10
0.0
 20
0.0
 30
0.0
  0
ENDSEC
  0
SECTION
  2
OBJECTS
  0
DICTIONARY
  5
C
330
0
100
AcDbDictionary
281
     1
  3
ACAD_GROUP
350
D
  3
ACAD_LAYOUT
350
1A
  3
ACAD_MLINESTYLE
350
17
  3
ACAD_PLOTSETTINGS
350
19
  3
ACAD_PLOTSTYLENAME
350
E
  3
ACAD_TABLESTYLE
350
28C
  3
ACAD_VISUALSTYLE
350
2A
  0
DICTIONARY
  5
D
102
{ACAD_REACTORS
330
C
102
}
330
C
100
AcDbDictionary
281
     1
  0
DICTIONARY
  5
1A
102
{ACAD_REACTORS
330
C
102
}
330
C
100
AcDbDictionary
281
     1
  3
Layout1
350
1E
  3
Layout2
350
26
  3
Model
350
22
  0
DICTIONARY
  5
17
102
{ACAD_REACTORS
330
C
102
}
330
C
100
AcDbDictionary
281
     1
  3
Standard
350
18
  0
DICTIONARY
  5
19
102
{ACAD_REACTORS
330
C
102
}
330
C
100
AcDbDictionary
281
     1
  0
ACDBDICTIONARYWDFLT
  5
E
102
{ACAD_REACTORS
330
C
102
}
330
C
100
AcDbDictionary
281
     1
  3
Normal
350
F
100
AcDbDictionaryWithDefault
340
F
  0
DICTIONARY
  5
28C
102
{ACAD_REACTORS
330
C
102
}
330
C
100
AcDbDictionary
281
     1
  0
DICTIONARY
  5
2A
102
{ACAD_REACTORS
330
C
102
}
330
C
100
AcDbDictionary
281
     1
  3
2dWireframe
350
2F
  3
3D Hidden
350
31
  3
3dWireframe
350
30
  3
Basic
350
32
  3
Brighten
350
36
  3
ColorChange
350
3A
  3
Conceptual
350
34
  3
Dim
350
35
  3
Facepattern
350
39
  3
Flat
350
2B
  3
FlatWithEdges
350
2C
  3
Gouraud
350
2D
  3
GouraudWithEdges
350
2E
  3
Linepattern
350
38
  3
Realistic
350
33
  3
Thicken
350
37
  0
LAYOUT
  5
1E
102
{ACAD_REACTORS
330
1A
102
}
330
1A
100
AcDbPlotSettings
  1

  2
none_device
  4

  6

 40
0.0
 41
0.0
 42
0.0
 43
0.0
 44
0.0
 45
0.0
 46
0.0
 47
0.0
 48
0.0
 49
0.0
140
0.0
141
0.0
142
1.0
143
1.0
 70
   688
 72
     0
 73
     0
 74
     5
  7

 75
    16
147
1.0
148
0.0
149
0.0
100
AcDbLayout
  1
Layout1
 70
     1
 71
     1
 10
0.0
 20
0.0
 11
12.0
 21
9.0
 12
0.0
 22
0.0
 32
0.0
 14
1.00000000000000E+20
 24
1.00000000000000E+20
 34
1.00000000000000E+20
 15
-1.00000000000000E+20
 25
-1.00000000000000E+20
 35
-1.00000000000000E+20
146
0.0
 13
0.0
 23
0.0
 33
0.0
 16
1.0
 26
0.0
 36
0.0
 17
0.0
 27
1.0
 37
0.0
 76
     0
330
1B
  0
LAYOUT
  5
26
102
{ACAD_REACTORS
330
1A
102
}
330
1A
100
AcDbPlotSettings
  1

  2
none_device
  4

  6

 40
0.0
 41
0.0
 42
0.0
 43
0.0
 44
0.0
 45
0.0
 46
0.0
 47
0.0
 48
0.0
 49
0.0
140
0.0
141
0.0
142
1.0
143
1.0
 70
   688
 72
     0
 73
     0
 74
     5
  7

 75
    16
147
1.0
148
0.0
149
0.0
100
AcDbLayout
  1
Layout2
 70
     1
 71
     2
 10
0.0
 20
0.0
 11
0.0
 21
0.0
 12
0.0
 22
0.0
 32
0.0
 14
0.0
 24
0.0
 34
0.0
 15
0.0
 25
0.0
 35
0.0
146
0.0
 13
0.0
 23
0.0
 33
0.0
 16
1.0
 26
0.0
 36
0.0
 17
0.0
 27
1.0
 37
0.0
 76
     0
330
23
  0
LAYOUT
  5
22
102
{ACAD_REACTORS
330
1A
102
}
330
1A
100
AcDbPlotSettings
  1

  2
none_device
  4

  6

 40
0.0
 41
0.0
 42
0.0
 43
0.0
 44
0.0
 45
0.0
 46
0.0
 47
0.0
 48
0.0
 49
0.0
140
0.0
141
0.0
142
1.0
143
1.0
 70
  1712
 72
     0
 73
     0
 74
     0
  7

 75
     0
147
1.0
148
0.0
149
0.0
100
AcDbLayout
  1
Model
 70
     1
 71
     0
 10
0.0
 20
0.0
 11
12.0
 21
9.0
 12
0.0
 22
0.0
 32
0.0
 14
776.8931532557289
 24
-1689.08803659564
 34
0.0
 15
1301.55663414104
 25
-1059.282287170551
 35
0.0
146
0.0
 13
0.0
 23
0.0
 33
0.0
 16
1.0
 26
0.0
 36
0.0
 17
0.0
 27
1.0
 37
0.0
 76
     0
330
1F
331
29
  0
MLINESTYLE
  5
18
102
{ACAD_REACTORS
330
17
102
}
330
17
100
AcDbMlineStyle
  2
Standard
 70
     0
  3

 62
   256
 51
90.0
 52
90.0
 71
     2
 49
0.5
 62
   256
  6
BYLAYER
 49
-0.5
 62
   256
  6
BYLAYER
  0
ACDBPLACEHOLDER
  5
F
102
{ACAD_REACTORS
330
E
102
}
330
E
  0
VISUALSTYLE
  5
2F
102
{ACAD_REACTORS
330
2A
102
}
330
2A
100
AcDbVisualStyle
  2
2dWireframe
 70
     4
 71
     0
 72
     2
 73
     0
 90
        0
 40
-0.6
 41
-30.0
 62
     5
 63
     7
 74
     1
 91
        4
 64
     7
 65
   257
 75
     1
175
     1
 42
1.0
 92
        0
 66
   257
 43
1.0
 76
     1
 77
     6
 78
     2
 67
     7
 79
     5
170
     0
171
     0
290
     0
174
     0
 93
        1
 44
0.0
173
     0
291
     0
 45
0.0
1001
ACAD
1000
AcDbSavedByObjectVersion
1070
     0
  0
VISUALSTYLE
  5
31
102
{ACAD_REACTORS
330
2A
102
}
330
2A
100
AcDbVisualStyle
  2
3D Hidden
 70
     6
 71
     1
 72
     2
 73
     2
 90
        0
 40
-0.6
 41
-30.0
 62
     5
 63
     7
 74
     2
 91
        2
 64
     7
 65
   257
 75
     2
175
     1
 42
40.0
 92
        0
 66
   257
 43
1.0
 76
     1
 77
     6
 78
     2
 67
     7
 79
     3
170
     0
171
     0
290
     0
174
     0
 93
        1
 44
0.0
173
     0
291
     0
 45
0.0
1001
ACAD
1000
AcDbSavedByObjectVersion
1070
     0
  0
VISUALSTYLE
  5
30
102
{ACAD_REACTORS
330
2A
102
}
330
2A
100
AcDbVisualStyle
  2
3dWireframe
 70
     5
 71
     0
 72
     2
 73
     0
 90
        0
 40
-0.6
 41
-30.0
 62
     5
 63
     7
 74
     1
 91
        4
 64
     7
 65
   257
 75
     1
175
     1
 42
1.0
 92
        0
 66
   257
 43
1.0
 76
     1
 77
     6
 78
     2
 67
     7
 79
     5
170
     0
171
     0
290
     0
174
     0
 93
        1
 44
0.0
173
     0
291
     0
 45
0.0
1001
ACAD
1000
AcDbSavedByObjectVersion
1070
     0
  0
VISUALSTYLE
  5
32
102
{ACAD_REACTORS
330
2A
102
}
330
2A
100
AcDbVisualStyle
  2
Basic
 70
     7
 71
     1
 72
     0
 73
     1
 90
        0
 40
-0.6
 41
-30.0
 62
     5
 63
     7
 74
     0
 91
        4
 64
     7
 65
   257
 75
     1
175
     1
 42
1.0
 92
        8
 66
     7
 43
1.0
 76
     1
 77
     6
 78
     2
 67
     7
 79
     5
170
     0
171
     0
290
     0
174
     0
 93
        1
 44
0.0
173
     0
291
     1
 45
0.0
1001
ACAD
1000
AcDbSavedByObjectVersion
1070
     0
  0
VISUALSTYLE
  5
36
102
{ACAD_REACTORS
330
2A
102
}
330
2A
100
AcDbVisualStyle
  2
Brighten
 70
    12
 71
     2
 72
     2
 73
     0
 90
        0
 40
-0.6
 41
-30.0
 62
     5
 63
     7
 74
     1
 91
        4
 64
     7
 65
   257
 75
     1
175
     1
 42
1.0
 92
        8
 66
     7
 43
1.0
 76
     1
 77
     6
 78
     2
 67
     7
 79
     5
170
     0
171
     0
290
     0
174
     0
 93
        1
 44
50.0
173
     0
291
     1
 45
0.0
1001
ACAD
1000
AcDbSavedByObjectVersion
1070
     0
  0
VISUALSTYLE
  5
3A
102
{ACAD_REACTORS
330
2A
102
}
330
2A
100
AcDbVisualStyle
  2
ColorChange
 70
    16
 71
     2
 72
     2
 73
     3
 90
        0
 40
-0.6
 41
-30.0
 62
     5
 63
     8
 74
     1
 91
        4
 64
     7
 65
   257
 75
     1
175
     1
 42
1.0
 92
        8
 66
     8
 43
1.0
 76
     1
 77
     6
 78
     2
 67
     7
 79
     5
170
     0
171
     0
290
     0
174
     0
 93
        1
 44
0.0
173
     0
291
     1
 45
0.0
1001
ACAD
1000
AcDbSavedByObjectVersion
1070
     0
  0
VISUALSTYLE
  5
34
102
{ACAD_REACTORS
330
2A
102
}
330
2A
100
AcDbVisualStyle
  2
Conceptual
 70
     9
 71
     3
 72
     2
 73
     0
 90
        0
 40
-0.6
 41
-30.0
 62
     5
 63
     7
 74
     2
 91
        2
 64
     7
 65
   257
 75
     1
175
     1
 42
40.0
 92
        8
 66
     7
 43
1.0
 76
     1
 77
     6
 78
     2
 67
     7
 79
     3
170
     0
171
     0
290
     0
174
     0
 93
        1
 44
0.0
173
     0
291
     0
 45
0.0
1001
ACAD
1000
AcDbSavedByObjectVersion
1070
     0
  0
VISUALSTYLE
  5
35
102
{ACAD_REACTORS
330
2A
102
}
330
2A
100
AcDbVisualStyle
  2
Dim
 70
    11
 71
     2
 72
     2
 73
     0
 90
        0
 40
-0.6
 41
-30.0
 62
     5
 63
     7
 74
     1
 91
        4
 64
     7
 65
   257
 75
     1
175
     1
 42
1.0
 92
        8
 66
     7
 43
1.0
 76
     1
 77
     6
 78
     2
 67
     7
 79
     5
170
     0
171
     0
290
     0
174
     0
 93
        1
 44
-50.0
173
     0
291
     1
 45
0.0
1001
ACAD
1000
AcDbSavedByObjectVersion
1070
     0
  0
VISUALSTYLE
  5
39
102
{ACAD_REACTORS
330
2A
102
}
330
2A
100
AcDbVisualStyle
  2
Facepattern
 70
    15
 71
     2
 72
     2
 73
     0
 90
        0
 40
-0.6
 41
-30.0
 62
     5
 63
     7
 74
     1
 91
        4
 64
     7
 65
   257
 75
     1
175
     1
 42
1.0
 92
        8
 66
     7
 43
1.0
 76
     1
 77
     6
 78
     2
 67
     7
 79
     5
170
     0
171
     0
290
     0
174
     0
 93
        1
 44
0.0
173
     0
291
     1
 45
0.0
1001
ACAD
1000
AcDbSavedByObjectVersion
1070
     0
  0
VISUALSTYLE
  5
2B
102
{ACAD_REACTORS
330
2A
102
}
330
2A
100
AcDbVisualStyle
  2
Flat
 70
     0
 71
     2
 72
     1
 73
     1
 90
        2
 40
-0.6
 41
30.0
 62
     5
 63
     7
 74
     0
 91
        4
 64
     7
 65
   257
 75
     1
175
     1
 42
1.0
 92
        8
 66
     7
 43
1.0
 76
     1
 77
     6
 78
     2
 67
     7
 79
     5
170
     0
171
     0
290
     0
174
     0
 93
       13
 44
0.0
173
     0
291
     1
 45
0.0
1001
ACAD
1000
AcDbSavedByObjectVersion
1070
     0
  0
VISUALSTYLE
  5
2C
102
{ACAD_REACTORS
330
2A
102
}
330
2A
100
AcDbVisualStyle
  2
FlatWithEdges
 70
     1
 71
     2
 72
     1
 73
     1
 90
        2
 40
-0.6
 41
30.0
 62
     5
 63
     7
 74
     1
 91
        4
 64
     7
 65
   257
 75
     1
175
     1
 42
1.0
 92
        0
 66
   257
 43
1.0
 76
     1
 77
     6
 78
     2
 67
     7
 79
     5
170
     0
171
     0
290
     0
174
     0
 93
       13
 44
0.0
173
     0
291
     1
 45
0.0
1001
ACAD
1000
AcDbSavedByObjectVersion
1070
     0
  0
VISUALSTYLE
  5
2D
102
{ACAD_REACTORS
330
2A
102
}
330
2A
100
AcDbVisualStyle
  2
Gouraud
 70
     2
 71
     2
 72
     2
 73
     1
 90
        2
 40
-0.6
 41
30.0
 62
     5
 63
     7
 74
     0
 91
        4
 64
     7
 65
   257
 75
     1
175
     1
 42
1.0
 92
        0
 66
     7
 43
1.0
 76
     1
 77
     6
 78
     2
 67
     7
 79
     5
170
     0
171
     0
290
     0
174
     0
 93
       13
 44
0.0
173
     0
291
     1
 45
0.0
1001
ACAD
1000
AcDbSavedByObjectVersion
1070
     0
  0
VISUALSTYLE
  5
2E
102
{ACAD_REACTORS
330
2A
102
}
330
2A
100
AcDbVisualStyle
  2
GouraudWithEdges
 70
     3
 71
     2
 72
     2
 73
     1
 90
        2
 40
-0.6
 41
30.0
 62
     5
 63
     7
 74
     1
 91
        4
 64
     7
 65
   257
 75
     1
175
     1
 42
1.0
 92
        0
 66
   257
 43
1.0
 76
     1
 77
     6
 78
     2
 67
     7
 79
     5
170
     0
171
     0
290
     0
174
     0
 93
       13
 44
0.0
173
     0
291
     1
 45
0.0
1001
ACAD
1000
AcDbSavedByObjectVersion
1070
     0
  0
VISUALSTYLE
  5
38
102
{ACAD_REACTORS
330
2A
102
}
330
2A
100
AcDbVisualStyle
  2
Linepattern
 70
    14
 71
     2
 72
     2
 73
     0
 90
        0
 40
-0.6
 41
-30.0
 62
     5
 63
     7
 74
     1
 91
        4
 64
     7
 65
   257
 75
     7
175
     7
 42
1.0
 92
        8
 66
     7
 43
1.0
 76
     1
 77
     6
 78
     2
 67
     7
 79
     5
170
     0
171
     0
290
     0
174
     0
 93
        1
 44
0.0
173
     0
291
     1
 45
0.0
1001
ACAD
1000
AcDbSavedByObjectVersion
1070
     0
  0
VISUALSTYLE
  5
33
102
{ACAD_REACTORS
330
2A
102
}
330
2A
100
AcDbVisualStyle
  2
Realistic
 70
     8
 71
     2
 72
     2
 73
     0
 90
        0
 40
-0.6
 41
-30.0
 62
     5
 63
     7
 74
     1
 91
        0
 64
     7
 65
   257
 75
     1
175
     1
 42
1.0
 92
        8
 66
     8
 43
1.0
 76
     1
 77
     6
 78
     2
 67
     7
 79
     5
170
     0
171
     0
290
     0
174
     0
 93
       13
 44
0.0
173
     0
291
     0
 45
0.0
1001
ACAD
1000
AcDbSavedByObjectVersion
1070
     0
  0
VISUALSTYLE
  5
37
102
{ACAD_REACTORS
330
2A
102
}
330
2A
100
AcDbVisualStyle
  2
Thicken
 70
    13
 71
     2
 72
     2
 73
     0
 90
        0
 40
-0.6
 41
-30.0
 62
     5
 63
     7
 74
     1
 91
        4
 64
     7
 65
   257
 75
     1
175
     1
 42
1.0
 92
       12
 66
     7
 43
1.0
 76
     1
 77
     6
 78
     2
 67
     7
 79
     5
170
     0
171
     0
290
     0
174
     0
 93
        1
 44
0.0
173
     0
291
     1
 45
0.0
1001
ACAD
1000
AcDbSavedByObjectVersion
1070
     0
  0
ENDSEC
  0
EOF
