  0
SECTION
  2
HEADER
  9
$ACADVER
  1
AC1014
  9
$ACADMAINTVER
 70
             0
  9
$DWGCODEPAGE
  3
ANSI_1252
  9
$INSBASE
 10
0.0
 20
0.0
 30
0.0
  9
$EXTMIN
 10
-135.24261200000001
 20
-196.04004610564499
 30
0.0
  9
$EXTMAX
 10
423.20670509999962
 20
81.59745099999998
 30
0.0
  9
$LIMMIN
 10
0.0
 20
0.0
  9
$LIMMAX
 10
0.0
 20
0.0
  9
$ORTHOMODE
 70
             0
  9
$REGENMODE
 70
             1
  9
$FILLMODE
 70
             1
  9
$QTEXTMODE
 70
             0
  9
$MIRRTEXT
 70
             1
  9
$DRAGMODE
 70
             2
  9
$LTSCALE
 40
1.0
  9
$OSMODE
 70
             0
  9
$ATTMODE
 70
             1
  9
$TEXTSIZE
 40
0.2
  9
$TRACEWID
 40
0.05
  9
$TEXTSTYLE
  7
STANDARD
  9
$CLAYER
  8
0
  9
$CELTYPE
  6
CONTINUOUS
  9
$CECOLOR
 62
           256
  9
$CELTSCALE
 40
1.0
  9
$DELOBJ
 70
             1
  9
$DISPSILH
 70
             0
  9
$DIMSCALE
 40
1.0
  9
$DIMASZ
 40
0.18
  9
$DIMEXO
 40
0.0625
  9
$DIMDLI
 40
0.38
  9
$DIMRND
 40
0.0
  9
$DIMDLE
 40
0.0
  9
$DIMEXE
 40
0.18
  9
$DIMTP
 40
0.0
  9
$DIMTM
 40
0.0
  9
$DIMTXT
 40
0.18
  9
$DIMCEN
 40
0.09
  9
$DIMTSZ
 40
0.0
  9
$DIMTOL
 70
             0
  9
$DIMLIM
 70
             0
  9
$DIMTIH
 70
             1
  9
$DIMTOH
 70
             1
  9
$DIMSE1
 70
             0
  9
$DIMSE2
 70
             0
  9
$DIMTAD
 70
             0
  9
$DIMZIN
 70
             0
  9
$DIMBLK
  1

  9
$DIMASO
 70
             1
  9
$DIMSHO
 70
             1
  9
$DIMPOST
  1

  9
$DIMAPOST
  1

  9
$DIMALT
 70
             0
  9
$DIMALTD
 70
             2
  9
$DIMALTF
 40
25.4
  9
$DIMLFAC
 40
1.0
  9
$DIMTOFL
 70
             0
  9
$DIMTVP
 40
0.0
  9
$DIMTIX
 70
             0
  9
$DIMSOXD
 70
             0
  9
$DIMSAH
 70
             0
  9
$DIMBLK1
  1

  9
$DIMBLK2
  1

  9
$DIMSTYLE
  2
STANDARD
  9
$DIMCLRD
 70
             0
  9
$DIMCLRE
 70
             0
  9
$DIMCLRT
 70
             0
  9
$DIMTFAC
 40
1.0
  9
$DIMGAP
 40
0.09
  9
$DIMJUST
 70
             0
  9
$DIMSD1
 70
             0
  9
$DIMSD2
 70
             0
  9
$DIMTOLJ
 70
             1
  9
$DIMTZIN
 70
             0
  9
$DIMALTZ
 70
             0
  9
$DIMALTTZ
 70
             0
  9
$DIMFIT
 70
             3
  9
$DIMUPT
 70
             0
  9
$DIMUNIT
 70
             2
  9
$DIMDEC
 70
             4
  9
$DIMTDEC
 70
             4
  9
$DIMALTU
 70
             2
  9
$DIMALTTD
 70
             2
  9
$DIMTXSTY
  7
STANDARD
  9
$DIMAUNIT
 70
             0
  9
$LUNITS
 70
             2
  9
$LUPREC
 70
             4
  9
$SKETCHINC
 40
0.1
  9
$FILLETRAD
 40
0.0
  9
$AUNITS
 70
             0
  9
$AUPREC
 70
             0
  9
$MENU
  1
acad
  9
$ELEVATION
 40
0.0
  9
$PELEVATION
 40
0.0
  9
$THICKNESS
 40
0.0
  9
$LIMCHECK
 70
             0
  9
$BLIPMODE
 70
             1
  9
$CHAMFERA
 40
0.0
  9
$CHAMFERB
 40
0.0
  9
$CHAMFERC
 40
0.0
  9
$CHAMFERD
 40
0.0
  9
$SKPOLY
 70
             0
  9
$TDCREATE
 40
0.000000000
  9
$TDUPDATE
 40
0.000000000
  9
$TDINDWG
 40
0.0000000000
  9
$TDUSRTIMER
 40
0.0000000000
  9
$USRTIMER
 70
             1
  9
$ANGBASE
 50
0.0
  9
$ANGDIR
 70
             0
  9
$PDMODE
 70
             0
  9
$PDSIZE
 40
0.0
  9
$PLINEWID
 40
0.0
  9
$COORDS
 70
             0
  9
$SPLFRAME
 70
             0
  9
$SPLINETYPE
 70
             6
  9
$SPLINESEGS
 70
             8
  9
$ATTDIA
 70
             0
  9
$ATTREQ
 70
             1
  9
$HANDLING
 70
             1
  9
$HANDSEED
  5
166
  9
$SURFTAB1
 70
             6
  9
$SURFTAB2
 70
             6
  9
$SURFTYPE
 70
             6
  9
$SURFU
 70
             6
  9
$SURFV
 70
             6
  9
$UCSNAME
  2

  9
$UCSORG
 10
0.0
 20
0.0
 30
0.0
  9
$UCSXDIR
 10
1.0
 20
0.0
 30
0.0
  9
$UCSYDIR
 10
0.0
 20
1.0
 30
0.0
  9
$PUCSNAME
  2

  9
$PUCSORG
 10
0.0
 20
0.0
 30
0.0
  9
$PUCSXDIR
 10
1.0
 20
0.0
 30
0.0
  9
$PUCSYDIR
 10
0.0
 20
1.0
 30
0.0
  9
$USERI1
 70
             0
  9
$USERI2
 70
             0
  9
$USERI3
 70
             0
  9
$USERI4
 70
             0
  9
$USERI5
 70
             0
  9
$USERR1
 40
12.01
  9
$USERR2
 40
0.0
  9
$USERR3
 40
0.0
  9
$USERR4
 40
0.0
  9
$USERR5
 40
0.0
  9
$WORLDVIEW
 70
             1
  9
$SHADEDGE
 70
             3
  9
$SHADEDIF
 70
            70
  9
$TILEMODE
 70
             1
  9
$MAXACTVP
 70
            16
  9
$PINSBASE
 10
0.0
 20
0.0
 30
0.0
  9
$PLIMCHECK
 70
             0
  9
$PEXTMIN
 10
1.00000000000000E+20
 20
1.00000000000000E+20
 30
1.00000000000000E+20
  9
$PEXTMAX
 10
-1.00000000000000E+20
 20
-1.00000000000000E+20
 30
-1.00000000000000E+20
  9
$PLIMMIN
 10
0.0
 20
0.0
  9
$PLIMMAX
 10
12.0
 20
9.0
  9
$UNITMODE
 70
             0
  9
$VISRETAIN
 70
             0
  9
$PLINEGEN
 70
             1
  9
$PSLTSCALE
 70
             0
  9
$TREEDEPTH
 70
          3020
  9
$PICKSTYLE
 70
             1
  9
$CMLSTYLE
  2
STANDARD
  9
$CMLJUST
 70
             0
  9
$CMLSCALE
 40
1.0
  9
$PROXYGRAPHICS
 70
             0
  9
$MEASUREMENT
 70
             1
  0
ENDSEC
  0
SECTION
  2
CLASSES
  0
CLASS
  1
LWPOLYLINE
  2
AcDbPolyline
  3
"AutoCAD"
 90
        0
280
             0
281
             1
  0
CLASS
  1
IMAGE
  2
AcDbRasterImage
  3
ISM
 90
      127
280
             0
281
             1
  0
CLASS
  1
OLE2FRAME
  2
AcDbOle2Frame
  3
""
 90
        0
280
             0
281
             1
  0
CLASS
  1
HATCH
  2
AcDbHatch
  3
"ACAD_SEDONA"
 90
        0
280
             0
281
             1
  0
CLASS
  1
DICTIONARYVAR
  2
AcDbDictionaryVar
  3
"AutoCAD"
 90
        0
280
             0
281
             0
  0
CLASS
  1
RASTERVARIABLES
  2
AcDbRasterVariables
  3
ISM
 90
        0
280
             0
281
             0
  0
CLASS
  1
IMAGEDEF
  2
AcDbRasterImageDef
  3
ISM
 90
        0
280
             0
281
             0
  0
CLASS
  1
IMAGEDEF_REACTOR
  2
AcDbRasterImageDefReactor
  3
ISM
 90
        1
280
             0
281
             0
  0
CLASS
  1
IDBUFFER
  2
AcDbIdBuffer
  3
"Acad"
 90
        0
280
             0
281
             0
  0
CLASS
  1
SPATIAL_FILTER
  2
AcDbSpatialFilter
  3
"Acad"
 90
        0
280
             0
281
             0
  0
CLASS
  1
XRECORD
  2
AcDbXrecord
  3
"<Built In>"
 90
        0
280
             0
281
             0
  0
CLASS
  1
SORTENTSTABLE
  2
AcDbSortentsTable
  3
"AutoCAD"
 90
        0
280
             0
281
             0
  0
CLASS
  1
LAYER_INDEX
  2
AcDbLayerIndex
  3
"Acad"
 90
        0
280
             0
281
             0
  0
CLASS
  1
SPATIAL_INDEX
  2
AcDbSpatialIndex
  3
"Acad"
 90
        0
280
             0
281
             0
  0
CLASS
  1
OBJECT_PTR
  2
CAseDLPNTableRecord
  3
"ASE-LPNTableRecord"
 90
        1
280
             0
281
             0
  0
CLASS
  1
LAYOUT
  2
AcDbLayout
  3
"AutoCAD 2000"
 90
        0
280
             0
281
             0
  0
CLASS
  1
PLOTSETTINGS
  2
AcDbPlotSettings
  3
"AutoCAD 2000"
 90
        0
280
             0
281
             0
  0
CLASS
  1
ACDBDICTIONARYWDFLT
  2
AcDbDictionaryWithDefault
  3
"AutoCAD 2000"
 90
        0
280
             0
281
             0
  0
CLASS
  1
ACDBPLACEHOLDER
  2
AcDbPlaceHolder
  3
"AutoCAD 2000"
 90
        0
280
             0
281
             0
  0
ENDSEC
  0
SECTION
  2
TABLES
  0
TABLE
  2
VPORT
  5
7
100
AcDbSymbolTable
 70
             1
  0
VPORT
  5
15
100
AcDbSymbolTableRecord
100
AcDbViewportTableRecord
  2
*ACTIVE
 70
             0
 10
0.0
 20
0.0
 11
1.0
 21
1.0
 12
143.98204654999981
 22
-57.22129755282251
 13
0.0
 23
0.0
 14
1.0
 24
1.0
 15
0.0
 25
0.0
 16
0.0
 26
0.0
 36
1.0
 17
0.0
 27
0.0
 37
0.0
 40
383.29223324077992
 41
1.60267857142857
 42
50.0
 43
0.0
 44
0.0
 50
0.0
 51
0.0
 71
             0
 72
           100
 73
             1
 74
             1
 75
             0
 76
             0
 77
             0
 78
             0
  0
ENDTAB
  0
TABLE
  2
LTYPE
  5
4
100
AcDbSymbolTable
 70
            11
  0
LTYPE
  5
11
100
AcDbSymbolTableRecord
100
AcDbLinetypeTableRecord
  2
BYBLOCK
 70
            64
  3

 72
            65
 73
             0
 40
0.0
  0
LTYPE
  5
12
100
AcDbSymbolTableRecord
100
AcDbLinetypeTableRecord
  2
BYLAYER
 70
            64
  3

 72
            65
 73
             0
 40
0.0
  0
LTYPE
  5
13
100
AcDbSymbolTableRecord
100
AcDbLinetypeTableRecord
  2
CONTINUOUS
 70
            64
  3
Solid line
 72
            65
 73
             0
 40
0.0
  0
LTYPE
  5
1D
100
AcDbSymbolTableRecord
100
AcDbLinetypeTableRecord
  2
DASHED
 70
            64
  3
Dashed
 72
            65
 73
             2
 40
15.0
 49
7.0
 74
             0
 49
-8.0
 74
             0
  0
LTYPE
  5
1E
100
AcDbSymbolTableRecord
100
AcDbLinetypeTableRecord
  2
DOTTED
 70
            64
  3
Dotted
 72
            65
 73
             2
 40
1.0
 49
0.0
 74
             0
 49
-1.0
 74
             0
  0
LTYPE
  5
1F
100
AcDbSymbolTableRecord
100
AcDbLinetypeTableRecord
  2
DOT_CENTER
 70
            64
  3
Dot_Center
 72
            65
 73
             4
 40
14.0
 49
12.0
 74
             0
 49
-1.0
 74
             0
 49
0.0
 74
             0
 49
-1.0
 74
             0
  0
LTYPE
  5
20
100
AcDbSymbolTableRecord
100
AcDbLinetypeTableRecord
  2
LONG_DASHED
 70
            64
  3
Long_Dashed
 72
            65
 73
             2
 40
15.0
 49
10.0
 74
             0
 49
-5.0
 74
             0
  0
LTYPE
  5
21
100
AcDbSymbolTableRecord
100
AcDbLinetypeTableRecord
  2
DASH_CENTER
 70
            64
  3
Dash_Center
 72
            65
 73
             4
 40
14.0
 49
11.0
 74
             0
 49
-1.0
 74
             0
 49
1.0
 74
             0
 49
-1.0
 74
             0
  0
LTYPE
  5
22
100
AcDbSymbolTableRecord
100
AcDbLinetypeTableRecord
  2
PHANTOM
 70
            64
  3
Phantom
 72
            65
 73
             6
 40
13.0
 49
10.0
 74
             0
 49
-1.0
 74
             0
 49
0.0
 74
             0
 49
-1.0
 74
             0
 49
0.0
 74
             0
 49
-1.0
 74
             0
  0
LTYPE
  5
23
100
AcDbSymbolTableRecord
100
AcDbLinetypeTableRecord
  2
CENTER_DASH_DASH
 70
            64
  3
Center_Dash_Dash
 72
            65
 73
             6
 40
14.0
 49
9.0
 74
             0
 49
-1.0
 74
             0
 49
1.0
 74
             0
 49
-1.0
 74
             0
 49
1.0
 74
             0
 49
-1.0
 74
             0
  0
LTYPE
  5
24
100
AcDbSymbolTableRecord
100
AcDbLinetypeTableRecord
  2
DASHDOT
 70
            64
  3
DASHDOT
 72
            65
 73
             4
 40
16.0
 49
10.0
 74
             0
 49
-3.0
 74
             0
 49
0.0
 74
             0
 49
-3.0
 74
             0
  0
ENDTAB
  0
TABLE
  2
LAYER
  5
2
100
AcDbSymbolTable
 70
             7
  0
LAYER
  5
14
100
AcDbSymbolTableRecord
100
AcDbLayerTableRecord
  2
0
 70
             0
 62
             7
  6
CONTINUOUS
  0
LAYER
  5
25
100
AcDbSymbolTableRecord
100
AcDbLayerTableRecord
  2
1
 70
             0
 62
             7
  6
CONTINUOUS
  0
LAYER
  5
26
100
AcDbSymbolTableRecord
100
AcDbLayerTableRecord
  2
LC-001-002-----0
 70
             0
 62
             7
  6
CONTINUOUS
  0
LAYER
  5
27
100
AcDbSymbolTableRecord
100
AcDbLayerTableRecord
  2
LC-002-100-D03-0
 70
             0
 62
             7
  6
CONTINUOUS
  0
LAYER
  5
28
100
AcDbSymbolTableRecord
100
AcDbLayerTableRecord
  2
LC-003-002-RND-0
 70
             0
 62
             7
  6
CONTINUOUS
  0
LAYER
  5
29
100
AcDbSymbolTableRecord
100
AcDbLayerTableRecord
  2
LC-006-003-----0
 70
             0
 62
             7
  6
CONTINUOUS
  0
LAYER
  5
2A
100
AcDbSymbolTableRecord
100
AcDbLayerTableRecord
  2
LC-008-007-KH--0
 70
             0
 62
             7
  6
CONTINUOUS
  0
ENDTAB
  0
TABLE
  2
STYLE
  5
3
100
AcDbSymbolTable
 70
             2
  0
STYLE
  5
17
100
AcDbSymbolTableRecord
100
AcDbTextStyleTableRecord
  2
STANDARD
 70
             0
 40
0.0
 41
1.0
 50
0.0
 71
             0
 42
0.0
  3
txt
  4

  0
STYLE
  5
113
100
AcDbSymbolTableRecord
100
AcDbTextStyleTableRecord
  2
CONVERTER_1
 70
             0
 40
0.0
 41
0.9
 50
0.0
 71
             0
 42
0.0
  3
txt.shx
  4

  0
ENDTAB
  0
TABLE
  2
VIEW
  5
5
100
AcDbSymbolTable
 70
             0
  0
ENDTAB
  0
TABLE
  2
UCS
  5
6
100
AcDbSymbolTable
 70
             0
  0
ENDTAB
  0
TABLE
  2
APPID
  5
8
100
AcDbSymbolTable
 70
             1
  0
APPID
  5
16
100
AcDbSymbolTableRecord
100
AcDbRegAppTableRecord
  2
ACAD
 70
             0
  0
ENDTAB
  0
TABLE
  2
DIMSTYLE
  5
9
100
AcDbSymbolTable
 70
             9
  0
DIMSTYLE
105
18
100
AcDbSymbolTableRecord
100
AcDbDimStyleTableRecord
  2
STANDARD
 70
             0
  3

  4

  5

  6

  7

 40
1.0
 41
0.18
 42
0.0625
 43
0.38
 44
0.18
 45
0.0
 46
0.0
 47
0.0
 48
0.0
 71
             0
 72
             0
 73
             1
 74
             1
 75
             0
 76
             0
 77
             0
 78
             0
140
0.18
141
0.09
142
0.0
143
25.4
144
1.0
145
0.0
146
1.0
147
0.09
170
             0
171
             2
172
             0
173
             0
174
             0
175
             0
176
             0
177
             0
178
             0
270
             2
271
             4
272
             4
273
             2
274
             2
275
             0
280
             0
281
             0
282
             0
283
             1
284
             0
285
             0
286
             0
287
             3
288
             0
340
17
  0
DIMSTYLE
105
116
100
AcDbSymbolTableRecord
100
AcDbDimStyleTableRecord
  2
ME10_DIM_0
 70
             0
  3
Ø<>
  4

  5

  6

  7

 40
1.0
 41
7.0
 42
0.0
 43
0.38
 44
2.0
 45
0.0
 46
0.0
 47
0.0
 48
0.0
 71
             0
 72
             0
 73
             0
 74
             0
 75
             0
 76
             0
 77
             1
 78
             8
140
7.0
141
0.09
142
0.0
143
25.4
144
1.0
145
0.0
146
1.0
147
0.625
170
             0
171
             2
172
             1
173
             1
174
             0
175
             0
176
             4
177
             4
178
             1
270
             2
271
             2
272
             4
273
             2
274
             2
275
             0
280
             0
281
             0
282
             0
283
             1
284
             0
285
             0
286
             0
287
             3
288
             0
340
113
  0
DIMSTYLE
105
121
100
AcDbSymbolTableRecord
100
AcDbDimStyleTableRecord
  2
ME10_DIM_1
 70
             0
  3
Ø<>
  4

  5

  6

  7

 40
1.0
 41
7.0
 42
0.0
 43
0.38
 44
2.0
 45
0.0
 46
0.0
 47
0.0
 48
0.0
 71
             0
 72
             0
 73
             0
 74
             0
 75
             0
 76
             0
 77
             1
 78
             8
140
7.0
141
0.09
142
0.0
143
25.4
144
1.0
145
0.0
146
1.0
147
0.625
170
             0
171
             2
172
             1
173
             1
174
             0
175
             0
176
             4
177
             4
178
             1
270
             2
271
             2
272
             4
273
             2
274
             2
275
             0
280
             0
281
             0
282
             0
283
             1
284
             0
285
             0
286
             0
287
             3
288
             0
340
113
  0
DIMSTYLE
105
12C
100
AcDbSymbolTableRecord
100
AcDbDimStyleTableRecord
  2
ME10_DIM_2
 70
             0
  3
Ø<>
  4

  5

  6

  7

 40
1.0
 41
7.0
 42
0.0
 43
0.38
 44
2.0
 45
0.0
 46
0.0
 47
0.0
 48
0.0
 71
             0
 72
             0
 73
             0
 74
             0
 75
             0
 76
             0
 77
             1
 78
             8
140
7.0
141
0.09
142
0.0
143
25.4
144
1.0
145
0.0
146
1.0
147
0.625
170
             0
171
             2
172
             1
173
             1
174
             0
175
             0
176
             4
177
             4
178
             1
270
             2
271
             2
272
             4
273
             2
274
             2
275
             0
280
             0
281
             0
282
             0
283
             1
284
             0
285
             0
286
             0
287
             3
288
             0
340
113
  0
DIMSTYLE
105
137
100
AcDbSymbolTableRecord
100
AcDbDimStyleTableRecord
  2
ME10_DIM_3
 70
             0
  3
Ø<>
  4

  5

  6

  7

 40
1.0
 41
7.0
 42
0.0
 43
0.38
 44
2.0
 45
0.0
 46
0.0
 47
0.0
 48
0.0
 71
             0
 72
             0
 73
             0
 74
             0
 75
             0
 76
             0
 77
             1
 78
             8
140
7.0
141
0.09
142
0.0
143
25.4
144
1.0
145
0.0
146
1.0
147
0.625
170
             0
171
             2
172
             1
173
             1
174
             0
175
             0
176
             4
177
             4
178
             1
270
             2
271
             2
272
             4
273
             2
274
             2
275
             0
280
             0
281
             0
282
             0
283
             1
284
             0
285
             0
286
             0
287
             3
288
             0
340
113
  0
DIMSTYLE
105
142
100
AcDbSymbolTableRecord
100
AcDbDimStyleTableRecord
  2
ME10_DIM_4
 70
             0
  3
DN<>
  4

  5

  6

  7

 40
1.0
 41
7.0
 42
0.0
 43
0.38
 44
2.0
 45
0.0
 46
0.0
 47
0.0
 48
0.0
 71
             0
 72
             0
 73
             0
 74
             0
 75
             0
 76
             0
 77
             1
 78
             8
140
7.0
141
0.09
142
0.0
143
25.4
144
1.0
145
0.0
146
1.0
147
0.625
170
             0
171
             2
172
             1
173
             1
174
             0
175
             0
176
             4
177
             4
178
             1
270
             2
271
             2
272
             4
273
             2
274
             2
275
             0
280
             0
281
             0
282
             0
283
             1
284
             0
285
             0
286
             0
287
             3
288
             0
340
113
  0
DIMSTYLE
105
14D
100
AcDbSymbolTableRecord
100
AcDbDimStyleTableRecord
  2
ME10_DIM_5
 70
             0
  3

  4

  5

  6

  7

 40
1.0
 41
7.0
 42
0.0
 43
0.38
 44
2.0
 45
0.0
 46
0.0
 47
0.0
 48
0.0
 71
             0
 72
             0
 73
             0
 74
             0
 75
             0
 76
             0
 77
             1
 78
             8
140
7.0
141
0.09
142
0.0
143
25.4
144
1.0
145
0.0
146
1.0
147
0.625
170
             0
171
             2
172
             1
173
             1
174
             0
175
             0
176
             4
177
             4
178
             1
270
             2
271
             2
272
             4
273
             2
274
             2
275
             0
280
             0
281
             0
282
             0
283
             1
284
             0
285
             0
286
             0
287
             3
288
             0
340
113
  0
DIMSTYLE
105
158
100
AcDbSymbolTableRecord
100
AcDbDimStyleTableRecord
  2
ME10_DIM_6
 70
             0
  3

  4

  5

  6

  7

 40
1.0
 41
7.0
 42
0.0
 43
0.38
 44
2.0
 45
0.0
 46
0.0
 47
0.0
 48
0.0
 71
             0
 72
             0
 73
             0
 74
             0
 75
             0
 76
             0
 77
             1
 78
             8
140
7.0
141
0.09
142
0.0
143
25.4
144
1.0
145
0.0
146
1.0
147
0.625
170
             0
171
             2
172
             1
173
             1
174
             0
175
             0
176
             4
177
             4
178
             1
270
             2
271
             2
272
             4
273
             2
274
             2
275
             0
280
             0
281
             0
282
             0
283
             1
284
             0
285
             0
286
             0
287
             3
288
             0
340
113
  0
DIMSTYLE
105
163
100
AcDbSymbolTableRecord
100
AcDbDimStyleTableRecord
  2
ME10_DIM_7
 70
             0
  3

  4

  5

  6

  7

 40
1.0
 41
7.0
 42
0.0
 43
0.38
 44
2.0
 45
0.0
 46
0.0
 47
0.0
 48
0.0
 71
             0
 72
             0
 73
             0
 74
             0
 75
             0
 76
             0
 77
             1
 78
             8
140
7.0
141
0.09
142
0.0
143
25.4
144
1.0
145
0.0
146
1.0
147
0.625
170
             0
171
             2
172
             1
173
             1
174
             0
175
             0
176
             4
177
             4
178
             1
270
             2
271
             2
272
             4
273
             2
274
             2
275
             0
280
             0
281
             0
282
             0
283
             1
284
             0
285
             0
286
             0
287
             3
288
             0
340
113
  0
ENDTAB
  0
TABLE
  2
BLOCK_RECORD
  5
1
100
AcDbSymbolTable
 70
            10
  0
BLOCK_RECORD
  5
A
100
AcDbSymbolTableRecord
100
AcDbBlockTableRecord
  2
*MODEL_SPACE
  0
BLOCK_RECORD
  5
B
100
AcDbSymbolTableRecord
100
AcDbBlockTableRecord
  2
*PAPER_SPACE
  0
BLOCK_RECORD
  5
2B
100
AcDbSymbolTableRecord
100
AcDbBlockTableRecord
  2
HL_840_BRANDSCHUTZELEMT__1
  0
BLOCK_RECORD
  5
2D
100
AcDbSymbolTableRecord
100
AcDbBlockTableRecord
  2
HL_840_BRANDSCHUTZELEMT__2
  0
BLOCK_RECORD
  5
10C
100
AcDbSymbolTableRecord
100
AcDbBlockTableRecord
  2
*D2
  0
BLOCK_RECORD
  5
118
100
AcDbSymbolTableRecord
100
AcDbBlockTableRecord
  2
*D3
  0
BLOCK_RECORD
  5
123
100
AcDbSymbolTableRecord
100
AcDbBlockTableRecord
  2
*D4
  0
BLOCK_RECORD
  5
12E
100
AcDbSymbolTableRecord
100
AcDbBlockTableRecord
  2
*D5
  0
BLOCK_RECORD
  5
139
100
AcDbSymbolTableRecord
100
AcDbBlockTableRecord
  2
*D6
  0
BLOCK_RECORD
  5
144
100
AcDbSymbolTableRecord
100
AcDbBlockTableRecord
  2
*D7
  0
BLOCK_RECORD
  5
14F
100
AcDbSymbolTableRecord
100
AcDbBlockTableRecord
  2
*D8
  0
BLOCK_RECORD
  5
15A
100
AcDbSymbolTableRecord
100
AcDbBlockTableRecord
  2
*D9
  0
ENDTAB
  0
ENDSEC
  0
SECTION
  2
BLOCKS
  0
BLOCK
  5
D
100
AcDbEntity
  8
0
100
AcDbBlockBegin
  2
*MODEL_SPACE
 70
             0
 10
0.0
 20
0.0
 30
0.0
  3
*MODEL_SPACE
  1

  0
ENDBLK
  5
E
100
AcDbEntity
  8
0
100
AcDbBlockEnd
  0
BLOCK
  5
F
100
AcDbEntity
 67
             1
  8
0
100
AcDbBlockBegin
  2
*PAPER_SPACE
 70
             0
 10
0.0
 20
0.0
 30
0.0
  3
*PAPER_SPACE
  1

  0
ENDBLK
  5
10
100
AcDbEntity
 67
             1
  8
0
100
AcDbBlockEnd
  0
BLOCK
  5
2C
100
AcDbEntity
  8
0
100
AcDbBlockBegin
  2
HL_840_BRANDSCHUTZELEMT__1
 70
             0
 10
-135.24261200000001
 20
-113.001086
 30
0.0
  3
HL_840_BRANDSCHUTZELEMT__1
  1

  0
ARC
  5
7F
100
AcDbEntity
  8
LC-003-002-RND-0
  6
CONTINUOUS
 62
             7
100
AcDbCircle
 10
49.0
 20
-123.001086
 40
5.99999999999999
100
AcDbArc
 50
-90.0
 51
0.0
  0
ARC
  5
7E
100
AcDbEntity
  8
LC-003-002-RND-0
  6
CONTINUOUS
 62
             7
100
AcDbCircle
 10
60.0
 20
-68.00108599999999
 40
5.0
100
AcDbArc
 50
90.0
 51
180.0
  0
ARC
  5
7D
100
AcDbEntity
  8
LC-003-002-RND-0
  6
CONTINUOUS
 62
             7
100
AcDbCircle
 10
72.5
 20
-57.00108599999999
 40
6.0
100
AcDbArc
 50
-90.0
 51
0.0
  0
ARC
  5
7C
100
AcDbEntity
  8
LC-003-002-RND-0
  6
CONTINUOUS
 62
             7
100
AcDbCircle
 10
-60.0
 20
-68.00108599999999
 40
5.0
100
AcDbArc
 50
0.0
 51
90.0
  0
ARC
  5
7B
100
AcDbEntity
  8
LC-003-002-RND-0
  6
CONTINUOUS
 62
             7
100
AcDbCircle
 10
-49.0
 20
-123.001086
 40
6.0
100
AcDbArc
 50
180.0
 51
-90.0
  0
ARC
  5
7A
100
AcDbEntity
  8
LC-003-002-RND-0
  6
CONTINUOUS
 62
             7
100
AcDbCircle
 10
-72.50000000000003
 20
-57.00108599999999
 40
6.0
100
AcDbArc
 50
180.0
 51
-90.0
  0
ARC
  5
79
100
AcDbEntity
  8
LC-003-002-RND-0
  6
CONTINUOUS
 62
             7
100
AcDbCircle
 10
57.26611800000001
 20
25.99891400000001
 40
1.0
100
AcDbArc
 50
90.0
 51
172.36926000001634
  0
ARC
  5
78
100
AcDbEntity
  8
LC-003-002-RND-0
  6
CONTINUOUS
 62
             7
100
AcDbCircle
 10
45.633059
 20
25.99891400000001
 40
2.0
100
AcDbArc
 50
90.0
 51
172.36925999999099
  0
ARC
  5
77
100
AcDbEntity
  8
LC-003-002-RND-0
  6
CONTINUOUS
 62
             7
100
AcDbCircle
 10
57.75741399999998
 20
25.99891400000001
 40
2.0
100
AcDbArc
 50
90.0
 51
172.36925999999073
  0
ARC
  5
76
100
AcDbEntity
  8
LC-003-002-RND-0
  6
CONTINUOUS
 62
             7
100
AcDbCircle
 10
-100.77506
 20
23.29891400000003
 40
1.00000000000004
100
AcDbArc
 50
15.0000000000274
 51
90.0
  0
ARC
  5
75
100
AcDbEntity
  8
LC-003-002-RND-0
  6
CONTINUOUS
 62
             7
100
AcDbCircle
 10
-100.77506
 20
23.29891400000003
 40
1.99999999999984
100
AcDbArc
 50
14.99999999999888
 51
90.0
  0
ARC
  5
74
100
AcDbEntity
  8
LC-003-002-RND-0
  6
CONTINUOUS
 62
             7
100
AcDbCircle
 10
59.75
 20
-8.0
 40
3.5
100
AcDbArc
 50
0.0
 51
90.0
  0
ARC
  5
73
100
AcDbEntity
  8
LC-003-002-RND-0
  6
CONTINUOUS
 62
             7
100
AcDbCircle
 10
59.75
 20
-16.5
 40
3.5
100
AcDbArc
 50
-90.0
 51
0.0
  0
ARC
  5
72
100
AcDbEntity
  8
LC-003-002-RND-0
  6
CONTINUOUS
 62
             7
100
AcDbCircle
 10
59.25
 20
-3.5
 40
1.0
100
AcDbArc
 50
180.0
 51
-90.0
  0
ARC
  5
71
100
AcDbEntity
  8
LC-003-002-RND-0
  6
CONTINUOUS
 62
             7
100
AcDbCircle
 10
59.0
 20
-21.0
 40
1.0
100
AcDbArc
 50
90.0
 51
180.0
  0
ARC
  5
70
100
AcDbEntity
  8
LC-003-002-RND-0
  6
CONTINUOUS
 62
             7
100
AcDbCircle
 10
-59.75
 20
-8.0
 40
3.5
100
AcDbArc
 50
90.0
 51
180.0
  0
ARC
  5
6F
100
AcDbEntity
  8
LC-003-002-RND-0
  6
CONTINUOUS
 62
             7
100
AcDbCircle
 10
-59.75
 20
-16.5
 40
3.50000000000003
100
AcDbArc
 50
180.0
 51
-90.0
  0
ARC
  5
6E
100
AcDbEntity
  8
LC-003-002-RND-0
  6
CONTINUOUS
 62
             7
100
AcDbCircle
 10
-59.25
 20
-3.5
 40
1.0
100
AcDbArc
 50
-90.0
 51
0.0
  0
ARC
  5
6D
100
AcDbEntity
  8
LC-003-002-RND-0
  6
CONTINUOUS
 62
             7
100
AcDbCircle
 10
-59.0
 20
-21.0
 40
1.0
100
AcDbArc
 50
0.0
 51
90.0
  0
LINE
  5
6C
100
AcDbEntity
  8
1
  6
PHANTOM
 62
             2
100
AcDbLine
 10
0.0
 20
-133.75222212194001
 11
0.0
 21
4.91234575506712
  0
LINE
  5
6B
100
AcDbEntity
  8
1
  6
DOT_CENTER
 62
             2
100
AcDbLine
 10
55.0
 20
6.0
 11
55.0
 21
3.0
  0
LINE
  5
6A
100
AcDbEntity
  8
1
  6
DOT_CENTER
 62
             2
100
AcDbLine
 10
-55.0
 20
6.0
 11
-55.0
 21
3.0
  0
LINE
  5
69
100
AcDbEntity
  8
1
  6
DOT_CENTER
 62
             2
100
AcDbLine
 10
46.5
 20
-135.00108599999999
 11
46.5
 21
-132.00108599999999
  0
LINE
  5
68
100
AcDbEntity
  8
1
  6
DOT_CENTER
 62
             2
100
AcDbLine
 10
-46.5
 20
-135.00108599999999
 11
-46.5
 21
-132.00108599999999
  0
LINE
  5
67
100
AcDbEntity
  8
1
  6
CONTINUOUS
 62
             3
100
AcDbLine
 10
-49.0
 20
-123.001086
 11
49.0
 21
-123.001086
  0
LINE
  5
66
100
AcDbEntity
  8
LC-001-002-----0
  6
CONTINUOUS
 62
             7
100
AcDbLine
 10
-78.50000000000003
 20
-57.00108599999999
 11
77.5
 21
-57.00108599999999
  0
LINE
  5
65
100
AcDbEntity
  8
LC-001-002-----0
  6
CONTINUOUS
 62
             7
100
AcDbLine
 10
-59.0
 20
-20.0
 11
37.473613
 21
-20.0
  0
LINE
  5
64
100
AcDbEntity
  8
LC-001-002-----0
  6
CONTINUOUS
 62
             7
100
AcDbLine
 10
59.25
 20
-4.5
 11
51.53361899999999
 21
-4.5
  0
LINE
  5
63
100
AcDbEntity
  8
LC-002-100-D03-0
  6
CONTINUOUS
 62
             7
100
AcDbLine
 10
58.25
 20
0.0
 11
56.19410599999998
 21
0.0
  0
LINE
  5
62
100
AcDbEntity
  8
LC-002-100-D03-0
  6
CONTINUOUS
 62
             7
100
AcDbLine
 10
56.19410599999998
 20
0.0
 11
52.09558199999998
 21
0.0
  0
LINE
  5
61
100
AcDbEntity
  8
LC-001-002-----0
  6
CONTINUOUS
 62
             7
100
AcDbLine
 10
55.0
 20
-123.001086
 11
55.0
 21
-68.00108599999999
  0
LINE
  5
60
100
AcDbEntity
  8
LC-001-002-----0
  6
CONTINUOUS
 62
             7
100
AcDbLine
 10
0.0
 20
-129.00108599999999
 11
49.0
 21
-129.00108599999999
  0
LINE
  5
5F
100
AcDbEntity
  8
LC-001-002-----0
  6
CONTINUOUS
 62
             7
100
AcDbLine
 10
0.0
 20
-63.00108599999999
 11
72.50004300000001
 21
-63.00108599999999
  0
LINE
  5
5E
100
AcDbEntity
  8
LC-001-002-----0
  6
CONTINUOUS
 62
             7
100
AcDbLine
 10
78.5
 20
-57.00108599999999
 11
77.79999999999996
 21
-57.00108599999999
  0
LINE
  5
5D
100
AcDbEntity
  8
LC-001-002-----0
  6
CONTINUOUS
 62
             7
100
AcDbLine
 10
-135.24261200000001
 20
24.29891400000003
 11
-135.24261200000001
 21
25.29891400000003
  0
LINE
  5
5C
100
AcDbEntity
  8
LC-001-002-----0
  6
CONTINUOUS
 62
             7
100
AcDbLine
 10
-100.77506
 20
24.29891400000003
 11
-135.24261200000001
 21
24.29891400000003
  0
LINE
  5
5B
100
AcDbEntity
  8
LC-001-002-----0
  6
CONTINUOUS
 62
             7
100
AcDbLine
 10
-77.73864600000002
 20
-52.24674399999998
 11
-98.84320799999999
 21
23.816552
  0
LINE
  5
5A
100
AcDbEntity
  8
LC-001-002-----0
  6
CONTINUOUS
 62
             7
100
AcDbLine
 10
45.633059
 20
27.99891400000001
 11
73.15119299999998
 21
27.99891400000001
  0
LINE
  5
59
100
AcDbEntity
  8
LC-001-002-----0
  6
CONTINUOUS
 62
             7
100
AcDbLine
 10
57.26611800000001
 20
26.99891400000001
 11
73.15119299999998
 21
26.99891400000001
  0
LINE
  5
58
100
AcDbEntity
  8
LC-001-002-----0
  6
CONTINUOUS
 62
             7
100
AcDbLine
 10
73.15119299999998
 20
26.99891400000001
 11
73.15119299999998
 21
27.99891400000001
  0
LINE
  5
57
100
AcDbEntity
  8
LC-001-002-----0
  6
CONTINUOUS
 62
             7
100
AcDbLine
 10
55.775126
 20
26.26449000000002
 11
45.63341599999995
 21
-52.24674399999998
  0
LINE
  5
56
100
AcDbEntity
  8
LC-001-002-----0
  6
CONTINUOUS
 62
             7
100
AcDbLine
 10
56.27497299999999
 20
26.13170200000002
 11
46.03984099999997
 21
-52.24674399999992
  0
LINE
  5
55
100
AcDbEntity
  8
LC-001-002-----0
  6
CONTINUOUS
 62
             7
100
AcDbLine
 10
43.65076999999997
 20
26.26449000000002
 11
33.50905999999998
 21
-52.24674399999998
  0
LINE
  5
54
100
AcDbEntity
  8
LC-001-002-----0
  6
CONTINUOUS
 62
             7
100
AcDbLine
 10
-78.77392300000003
 20
-52.24674399999998
 11
-99.80913400000003
 21
23.55773299999993
  0
LINE
  5
53
100
AcDbEntity
  8
LC-001-002-----0
  6
CONTINUOUS
 62
             7
100
AcDbLine
 10
-55.0
 20
-123.001086
 11
-55.0
 21
-68.00108599999999
  0
LINE
  5
52
100
AcDbEntity
  8
LC-001-002-----0
  6
CONTINUOUS
 62
             7
100
AcDbLine
 10
0.0
 20
-129.00108599999999
 11
-49.0
 21
-129.00108599999999
  0
LINE
  5
51
100
AcDbEntity
  8
LC-001-002-----0
  6
CONTINUOUS
 62
             7
100
AcDbLine
 10
0.0
 20
-63.00108599999999
 11
-72.50004400000003
 21
-63.00108599999999
  0
LINE
  5
50
100
AcDbEntity
  8
LC-001-002-----0
  6
CONTINUOUS
 62
             7
100
AcDbLine
 10
77.79999999999996
 20
-57.00108599999999
 11
94.53698099999997
 21
-52.53652199999993
  0
LINE
  5
4F
100
AcDbEntity
  8
LC-001-002-----0
  6
CONTINUOUS
 62
             7
100
AcDbLine
 10
94.45933499999998
 20
-52.24674399999998
 11
94.53698099999997
 21
-52.53652199999993
  0
LINE
  5
4E
100
AcDbEntity
  8
LC-001-002-----0
  6
CONTINUOUS
 62
             7
100
AcDbLine
 10
-77.80000000000001
 20
-57.00108599999999
 11
-94.53698100000001
 21
-52.53652199999993
  0
LINE
  5
4D
100
AcDbEntity
  8
LC-001-002-----0
  6
CONTINUOUS
 62
             7
100
AcDbLine
 10
-94.45933600000002
 20
-52.24674399999998
 11
-94.53698100000001
 21
-52.53652199999993
  0
LINE
  5
4C
100
AcDbEntity
  8
LC-001-002-----0
  6
CONTINUOUS
 62
             7
100
AcDbLine
 10
72.05311699999999
 20
26.99891400000001
 11
72.05311699999999
 21
27.99891400000001
  0
LINE
  5
4B
100
AcDbEntity
  8
LC-001-002-----0
  6
CONTINUOUS
 62
             7
100
AcDbLine
 10
94.45933499999998
 20
-52.24674399999998
 11
0.0
 21
-52.24674399999998
  0
LINE
  5
4A
100
AcDbEntity
  8
LC-001-002-----0
  6
CONTINUOUS
 62
             7
100
AcDbLine
 10
-78.77392300000003
 20
-52.24674399999998
 11
-94.45933600000002
 21
-52.24674399999998
  0
LINE
  5
49
100
AcDbEntity
  8
LC-001-002-----0
  6
CONTINUOUS
 62
             7
100
AcDbLine
 10
0.0
 20
-52.24674399999998
 11
-78.77392300000003
 21
-52.24674399999998
  0
LINE
  5
48
100
AcDbEntity
  8
LC-001-002-----0
  6
CONTINUOUS
 62
             7
100
AcDbLine
 10
-100.77506
 20
25.29891400000003
 11
-135.24261200000001
 21
25.29891400000003
  0
LINE
  5
47
100
AcDbEntity
  8
LC-001-002-----0
  6
CONTINUOUS
 62
             7
100
AcDbLine
 10
63.25
 20
-8.0
 11
63.25
 21
-16.5
  0
LINE
  5
46
100
AcDbEntity
  8
LC-001-002-----0
  6
CONTINUOUS
 62
             7
100
AcDbLine
 10
58.0
 20
-21.0
 11
58.0
 21
-52.24674399999998
  0
LINE
  5
45
100
AcDbEntity
  8
LC-001-002-----0
  6
CONTINUOUS
 62
             7
100
AcDbLine
 10
58.25
 20
0.0
 11
58.25
 21
-3.5
  0
LINE
  5
44
100
AcDbEntity
  8
LC-001-002-----0
  6
CONTINUOUS
 62
             7
100
AcDbLine
 10
59.75
 20
-4.5
 11
59.25
 21
-4.5
  0
LINE
  5
43
100
AcDbEntity
  8
LC-001-002-----0
  6
CONTINUOUS
 62
             7
100
AcDbLine
 10
59.75
 20
-20.0
 11
59.0
 21
-20.0
  0
LINE
  5
42
100
AcDbEntity
  8
LC-002-100-D03-0
  6
CONTINUOUS
 62
             7
100
AcDbLine
 10
-58.25
 20
0.0
 11
-56.19410700000003
 21
0.0
  0
LINE
  5
41
100
AcDbEntity
  8
LC-002-100-D03-0
  6
CONTINUOUS
 62
             7
100
AcDbLine
 10
-56.19410700000003
 20
0.0
 11
0.0
 21
0.0
  0
LINE
  5
40
100
AcDbEntity
  8
LC-001-002-----0
  6
CONTINUOUS
 62
             7
100
AcDbLine
 10
-63.25000000000003
 20
-8.0
 11
-63.25000000000003
 21
-16.5
  0
LINE
  5
3F
100
AcDbEntity
  8
LC-001-002-----0
  6
CONTINUOUS
 62
             7
100
AcDbLine
 10
-58.0
 20
-21.0
 11
-58.0
 21
-52.24674399999998
  0
LINE
  5
3E
100
AcDbEntity
  8
LC-001-002-----0
  6
CONTINUOUS
 62
             7
100
AcDbLine
 10
-58.25
 20
0.0
 11
-58.25
 21
-3.5
  0
LINE
  5
3D
100
AcDbEntity
  8
LC-001-002-----0
  6
CONTINUOUS
 62
             7
100
AcDbLine
 10
-59.75
 20
-4.5
 11
-59.25
 21
-4.5
  0
LINE
  5
3C
100
AcDbEntity
  8
LC-001-002-----0
  6
CONTINUOUS
 62
             7
100
AcDbLine
 10
-59.75
 20
-20.0
 11
-59.0
 21
-20.0
  0
LINE
  5
3B
100
AcDbEntity
  8
LC-002-100-D03-0
  6
CONTINUOUS
 62
             7
100
AcDbLine
 10
39.971226
 20
0.0
 11
0.0
 21
0.0
  0
LINE
  5
3A
100
AcDbEntity
  8
LC-001-002-----0
  6
CONTINUOUS
 62
             7
100
AcDbLine
 10
39.40926300000001
 20
-4.5
 11
-59.25
 21
-4.5
  0
LINE
  5
39
100
AcDbEntity
  8
LC-001-002-----0
  6
CONTINUOUS
 62
             7
100
AcDbLine
 10
49.59796899999998
 20
-20.0
 11
59.0
 21
-20.0
  0
POINT
  5
38
100
AcDbEntity
  8
LC-006-003-----0
 62
             7
100
AcDbPoint
 10
77.5
 20
-57.00108599999999
  0
POINT
  5
37
100
AcDbEntity
  8
LC-006-003-----0
 62
             7
100
AcDbPoint
 10
58.25
 20
0.0
  0
POINT
  5
36
100
AcDbEntity
  8
LC-006-003-----0
 62
             7
100
AcDbPoint
 10
58.25
 20
0.0
  0
POINT
  5
35
100
AcDbEntity
  8
LC-006-003-----0
 62
             7
100
AcDbPoint
 10
49.0
 20
-129.00108599999999
  0
POINT
  5
34
100
AcDbEntity
  8
LC-006-003-----0
 62
             7
100
AcDbPoint
 10
58.25
 20
0.0
  0
POINT
  5
33
100
AcDbEntity
  8
LC-006-003-----0
 62
             7
100
AcDbPoint
 10
73.15119299999998
 20
26.99891400000001
  0
ENDBLK
  5
80
100
AcDbEntity
  8
0
100
AcDbBlockEnd
  0
BLOCK
  5
2E
100
AcDbEntity
  8
0
100
AcDbBlockBegin
  2
HL_840_BRANDSCHUTZELEMT__2
 70
             0
 10
184.055915
 20
-157.39962299999999
 30
0.0
  3
HL_840_BRANDSCHUTZELEMT__2
  1

  0
CIRCLE
  5
109
100
AcDbEntity
  8
1
  6
CONTINUOUS
 62
             7
100
AcDbCircle
 10
319.29852599999998
 20
-37.90108600000002
 40
46.5
  0
CIRCLE
  5
108
100
AcDbEntity
  8
LC-001-002-----0
  6
CONTINUOUS
 62
             7
100
AcDbCircle
 10
319.29852599999998
 20
-37.90108600000002
 40
63.25
  0
CIRCLE
  5
107
100
AcDbEntity
  8
LC-001-002-----0
  6
CONTINUOUS
 62
             7
100
AcDbCircle
 10
319.29852599999998
 20
-37.90108600000002
 40
58.25
  0
CIRCLE
  5
106
100
AcDbEntity
  8
LC-001-002-----0
  6
CONTINUOUS
 62
             7
100
AcDbCircle
 10
319.29852599999998
 20
-37.90108600000002
 40
55.5
  0
CIRCLE
  5
105
100
AcDbEntity
  8
LC-008-007-KH--0
  6
DASHDOT
 62
            44
100
AcDbCircle
 10
319.29852599999998
 20
-37.90108600000002
 40
55.2000000000001
  0
CIRCLE
  5
104
100
AcDbEntity
  8
LC-001-002-----0
  6
CONTINUOUS
 62
             7
100
AcDbCircle
 10
319.29852599999998
 20
-37.90108600000002
 40
54.85166600000014
  0
ARC
  5
103
100
AcDbEntity
  8
LC-001-002-----0
  6
CONTINUOUS
 62
             7
100
AcDbCircle
 10
319.29852599999998
 20
-37.90108600000002
 40
69.49999999999966
100
AcDbArc
 50
66.40241300000018
 51
173.59758700000046
  0
ARC
  5
102
100
AcDbEntity
  8
LC-001-002-----0
  6
CONTINUOUS
 62
             7
100
AcDbCircle
 10
319.29852599999998
 20
-37.90108600000002
 40
77.4999999999996
100
AcDbArc
 50
65.7391699999999
 51
174.26083000000037
  0
ARC
  5
101
100
AcDbEntity
  8
LC-001-002-----0
  6
CONTINUOUS
 62
             7
100
AcDbCircle
 10
319.29852599999998
 20
-37.90108600000002
 40
94.46198100000046
100
AcDbArc
 50
64.70604100000008
 51
69.84836299999995
  0
ARC
  5
100
100
AcDbEntity
  8
LC-001-002-----0
  6
CONTINUOUS
 62
             7
100
AcDbCircle
 10
319.29852599999998
 20
-37.90108600000002
 40
69.50000000000054
100
AcDbArc
 50
-53.59758699999972
 51
53.59758699999975
  0
ARC
  5
FF
100
AcDbEntity
  8
LC-001-002-----0
  6
CONTINUOUS
 62
             7
100
AcDbCircle
 10
319.29852599999998
 20
-37.90108600000002
 40
77.50000000000033
100
AcDbArc
 50
-54.2608299999997
 51
54.26082999999972
  0
ARC
  5
FE
100
AcDbEntity
  8
LC-001-002-----0
  6
CONTINUOUS
 62
             7
100
AcDbCircle
 10
319.29852599999998
 20
-37.90108600000002
 40
69.50000000000014
100
AcDbArc
 50
-173.59758699999966
 51
-66.40241300000015
  0
ARC
  5
FD
100
AcDbEntity
  8
LC-001-002-----0
  6
CONTINUOUS
 62
             7
100
AcDbCircle
 10
319.29852599999998
 20
-37.90108600000002
 40
77.50000000000026
100
AcDbArc
 50
-174.26083000000037
 51
-65.73916999999989
  0
ARC
  5
FC
100
AcDbEntity
  8
LC-001-002-----0
  6
CONTINUOUS
 62
             7
100
AcDbCircle
 10
319.29852599999998
 20
-37.90108600000002
 40
94.46198099999977
100
AcDbArc
 50
-175.29395899999992
 51
-170.15163700000022
  0
ARC
  5
FB
100
AcDbEntity
  8
LC-001-002-----0
  6
CONTINUOUS
 62
             7
100
AcDbCircle
 10
319.29852599999998
 20
-37.90108600000002
 40
94.46198099999974
100
AcDbArc
 50
0.15163699999991
 51
9.8483629999998
  0
ARC
  5
FA
100
AcDbEntity
  8
LC-001-002-----0
  6
CONTINUOUS
 62
             7
100
AcDbCircle
 10
319.29852599999998
 20
-37.90108600000002
 40
94.46198099999967
100
AcDbArc
 50
-9.84836299999977
 51
-0.15163699999988
  0
ARC
  5
F9
100
AcDbEntity
  8
LC-001-002-----0
  6
CONTINUOUS
 62
             7
100
AcDbCircle
 10
319.29852599999998
 20
-37.90108600000002
 40
94.46198099999991
100
AcDbArc
 50
-19.84836300000022
 51
-10.15163699999978
  0
ARC
  5
F8
100
AcDbEntity
  8
LC-001-002-----0
  6
CONTINUOUS
 62
             7
100
AcDbCircle
 10
319.29852599999998
 20
-37.90108600000002
 40
94.46198100000009
100
AcDbArc
 50
-29.84836299999969
 51
-20.15163699999975
  0
ARC
  5
F7
100
AcDbEntity
  8
LC-001-002-----0
  6
CONTINUOUS
 62
             7
100
AcDbCircle
 10
319.29852599999998
 20
-37.90108600000002
 40
94.46198099999984
100
AcDbArc
 50
-39.84836299999994
 51
-30.15163700000016
  0
ARC
  5
F6
100
AcDbEntity
  8
LC-001-002-----0
  6
CONTINUOUS
 62
             7
100
AcDbCircle
 10
319.29852599999998
 20
-37.90108600000002
 40
94.46198100000001
100
AcDbArc
 50
-49.84836299999997
 51
-40.15163699999989
  0
ARC
  5
F5
100
AcDbEntity
  8
LC-001-002-----0
  6
CONTINUOUS
 62
             7
100
AcDbCircle
 10
319.29852599999998
 20
-37.90108600000002
 40
94.46198100000042
100
AcDbArc
 50
-69.84836300000015
 51
-64.70604100000008
  0
ARC
  5
F4
100
AcDbEntity
  8
LC-001-002-----0
  6
CONTINUOUS
 62
             7
100
AcDbCircle
 10
319.29852599999998
 20
-37.90108600000002
 40
94.46198100000018
100
AcDbArc
 50
-79.84836300000012
 51
-70.15163699999972
  0
ARC
  5
F3
100
AcDbEntity
  8
LC-001-002-----0
  6
CONTINUOUS
 62
             7
100
AcDbCircle
 10
319.29852599999998
 20
-37.90108600000002
 40
94.46198099999963
100
AcDbArc
 50
-89.84836300000006
 51
-80.15163700000019
  0
ARC
  5
F2
100
AcDbEntity
  8
LC-001-002-----0
  6
CONTINUOUS
 62
             7
100
AcDbCircle
 10
319.29852599999998
 20
-37.90108600000002
 40
94.4619809999995
100
AcDbArc
 50
-99.84836299999972
 51
-90.15163699999987
  0
ARC
  5
F1
100
AcDbEntity
  8
LC-001-002-----0
  6
CONTINUOUS
 62
             7
100
AcDbCircle
 10
319.29852599999998
 20
-37.90108600000002
 40
94.46198099999975
100
AcDbArc
 50
-109.84836300000018
 51
-100.15163699999978
  0
ARC
  5
F0
100
AcDbEntity
  8
LC-001-002-----0
  6
CONTINUOUS
 62
             7
100
AcDbCircle
 10
319.29852599999998
 20
-37.90108600000002
 40
94.46198100000001
100
AcDbArc
 50
-119.84836299999964
 51
-110.15163699999998
  0
ARC
  5
EF
100
AcDbEntity
  8
LC-001-002-----0
  6
CONTINUOUS
 62
             7
100
AcDbCircle
 10
319.29852599999998
 20
-37.90108600000002
 40
94.4619809999998
100
AcDbArc
 50
-129.84836299999998
 51
-120.15163700000012
  0
ARC
  5
EE
100
AcDbEntity
  8
LC-001-002-----0
  6
CONTINUOUS
 62
             7
100
AcDbCircle
 10
319.29852599999998
 20
-37.90108600000002
 40
94.46198099999988
100
AcDbArc
 50
-139.84836300000003
 51
-130.15163699999997
  0
ARC
  5
ED
100
AcDbEntity
  8
LC-001-002-----0
  6
CONTINUOUS
 62
             7
100
AcDbCircle
 10
319.29852599999998
 20
-37.90108600000002
 40
94.46198099999958
100
AcDbArc
 50
-149.84836299999984
 51
-140.15163700000005
  0
ARC
  5
EC
100
AcDbEntity
  8
LC-001-002-----0
  6
CONTINUOUS
 62
             7
100
AcDbCircle
 10
319.29852599999998
 20
-37.90108600000002
 40
94.46198100000036
100
AcDbArc
 50
-159.84836300000026
 51
-150.15163700000028
  0
ARC
  5
EB
100
AcDbEntity
  8
LC-001-002-----0
  6
CONTINUOUS
 62
             7
100
AcDbCircle
 10
319.29852599999998
 20
-37.90108600000002
 40
94.46198100000015
100
AcDbArc
 50
-169.84836300000021
 51
-160.15163699999977
  0
ARC
  5
EA
100
AcDbEntity
  8
LC-001-002-----0
  6
CONTINUOUS
 62
             7
100
AcDbCircle
 10
319.29852599999998
 20
-37.90108600000002
 40
94.46198099999953
100
AcDbArc
 50
170.15163700000019
 51
175.29395899999989
  0
ARC
  5
E9
100
AcDbEntity
  8
LC-001-002-----0
  6
CONTINUOUS
 62
             7
100
AcDbCircle
 10
319.29852599999998
 20
-37.90108600000002
 40
94.46198099999982
100
AcDbArc
 50
160.15163699999974
 51
169.84836300000018
  0
ARC
  5
E8
100
AcDbEntity
  8
LC-001-002-----0
  6
CONTINUOUS
 62
             7
100
AcDbCircle
 10
319.29852599999998
 20
-37.90108600000002
 40
94.46198099999998
100
AcDbArc
 50
150.15163700000028
 51
159.84836300000021
  0
ARC
  5
E7
100
AcDbEntity
  8
LC-001-002-----0
  6
CONTINUOUS
 62
             7
100
AcDbCircle
 10
319.29852599999998
 20
-37.90108600000002
 40
94.4619809999998
100
AcDbArc
 50
140.15163700000005
 51
149.84836299999981
  0
ARC
  5
E6
100
AcDbEntity
  8
LC-001-002-----0
  6
CONTINUOUS
 62
             7
100
AcDbCircle
 10
319.29852599999998
 20
-37.90108600000002
 40
94.46198099999994
100
AcDbArc
 50
130.15163699999997
 51
139.84836300000001
  0
ARC
  5
E5
100
AcDbEntity
  8
LC-001-002-----0
  6
CONTINUOUS
 62
             7
100
AcDbCircle
 10
319.29852599999998
 20
-37.90108600000002
 40
94.46198099999954
100
AcDbArc
 50
120.15163700000009
 51
129.84836299999995
  0
ARC
  5
E4
100
AcDbEntity
  8
LC-001-002-----0
  6
CONTINUOUS
 62
             7
100
AcDbCircle
 10
319.29852599999998
 20
-37.90108600000002
 40
94.46198099999945
100
AcDbArc
 50
110.15163699999997
 51
119.84836299999964
  0
ARC
  5
E3
100
AcDbEntity
  8
LC-001-002-----0
  6
CONTINUOUS
 62
             7
100
AcDbCircle
 10
319.29852599999998
 20
-37.90108600000002
 40
94.46198100000018
100
AcDbArc
 50
100.15163699999978
 51
109.84836300000018
  0
ARC
  5
E2
100
AcDbEntity
  8
LC-001-002-----0
  6
CONTINUOUS
 62
             7
100
AcDbCircle
 10
319.29852599999998
 20
-37.90108600000002
 40
94.46198099999967
100
AcDbArc
 50
90.15163699999987
 51
99.84836299999971
  0
ARC
  5
E1
100
AcDbEntity
  8
LC-001-002-----0
  6
CONTINUOUS
 62
             7
100
AcDbCircle
 10
319.29852599999998
 20
-37.90108600000002
 40
94.46198099999958
100
AcDbArc
 50
80.15163700000019
 51
89.84836300000006
  0
ARC
  5
E0
100
AcDbEntity
  8
LC-001-002-----0
  6
CONTINUOUS
 62
             7
100
AcDbCircle
 10
319.29852599999998
 20
-37.90108600000002
 40
94.46198099999982
100
AcDbArc
 50
70.15163699999972
 51
79.84836300000012
  0
ARC
  5
DF
100
AcDbEntity
  8
LC-001-002-----0
  6
CONTINUOUS
 62
             7
100
AcDbCircle
 10
319.29852599999998
 20
-37.90108600000002
 40
94.46198099999984
100
AcDbArc
 50
50.15163700000007
 51
55.29395900000016
  0
ARC
  5
DE
100
AcDbEntity
  8
LC-001-002-----0
  6
CONTINUOUS
 62
             7
100
AcDbCircle
 10
319.29852599999998
 20
-37.90108600000002
 40
94.46198100000007
100
AcDbArc
 50
40.15163699999992
 51
49.84836299999998
  0
ARC
  5
DD
100
AcDbEntity
  8
LC-001-002-----0
  6
CONTINUOUS
 62
             7
100
AcDbCircle
 10
319.29852599999998
 20
-37.90108600000002
 40
94.46198099999963
100
AcDbArc
 50
30.15163700000019
 51
39.84836299999994
  0
ARC
  5
DC
100
AcDbEntity
  8
LC-001-002-----0
  6
CONTINUOUS
 62
             7
100
AcDbCircle
 10
319.29852599999998
 20
-37.90108600000002
 40
94.46198100000044
100
AcDbArc
 50
20.15163699999978
 51
29.84836299999969
  0
ARC
  5
DB
100
AcDbEntity
  8
LC-001-002-----0
  6
CONTINUOUS
 62
             7
100
AcDbCircle
 10
319.29852599999998
 20
-37.90108600000002
 40
94.46198100000018
100
AcDbArc
 50
10.15163699999981
 51
19.84836300000025
  0
ARC
  5
DA
100
AcDbEntity
  8
LC-001-002-----0
  6
CONTINUOUS
 62
             7
100
AcDbCircle
 10
319.29852599999998
 20
-37.90108600000002
 40
94.46198100000018
100
AcDbArc
 50
-55.29395900000014
 51
-50.15163700000004
  0
LINE
  5
D9
100
AcDbEntity
  8
1
  6
PHANTOM
 62
             2
100
AcDbLine
 10
319.29852599999998
 20
66.00709309999951
 11
319.29852599999998
 21
-141.80926509999961
  0
LINE
  5
D8
100
AcDbEntity
  8
1
  6
PHANTOM
 62
             2
100
AcDbLine
 10
423.20670509999962
 20
-37.90108600000002
 11
215.39034690000051
 21
-37.90108600000002
  0
LINE
  5
D7
100
AcDbEntity
  8
LC-001-002-----0
  6
CONTINUOUS
 62
             7
100
AcDbLine
 10
184.055915
 20
-33.15108600000002
 11
184.055915
 21
-42.65108600000002
  0
LINE
  5
D6
100
AcDbEntity
  8
LC-006-003-----0
  6
CONTINUOUS
 62
             2
100
AcDbLine
 10
220.058121
 20
-30.15108600000002
 11
220.058121
 21
-45.65108600000002
  0
LINE
  5
D5
100
AcDbEntity
  8
LC-006-003-----0
  6
CONTINUOUS
 62
             2
100
AcDbLine
 10
243.905599
 20
-30.15108600000002
 11
243.905599
 21
-45.65108600000002
  0
LINE
  5
D4
100
AcDbEntity
  8
LC-001-002-----0
  6
CONTINUOUS
 62
             7
100
AcDbLine
 10
357.39692400000001
 20
12.58727499999998
 11
392.131529
 21
72.74937499999999
  0
LINE
  5
D3
100
AcDbEntity
  8
LC-001-002-----0
  6
CONTINUOUS
 62
             7
100
AcDbLine
 10
378.70813500000008
 20
80.49937499999999
 11
343.97353100000009
 21
20.33727499999998
  0
LINE
  5
D2
100
AcDbEntity
  8
LC-001-002-----0
  6
CONTINUOUS
 62
             7
100
AcDbLine
 10
256.52512400000001
 20
-30.15108600000002
 11
187.055915
 21
-30.15108600000002
  0
LINE
  5
D1
100
AcDbEntity
  8
LC-001-002-----0
  6
CONTINUOUS
 62
             7
100
AcDbLine
 10
343.97353100000009
 20
-96.13944700000002
 11
378.70813500000008
 21
-156.301547
  0
LINE
  5
D0
100
AcDbEntity
  8
LC-001-002-----0
  6
CONTINUOUS
 62
             7
100
AcDbLine
 10
187.055915
 20
-45.65108600000002
 11
256.52512400000001
 21
-45.65108600000002
  0
LINE
  5
CF
100
AcDbEntity
  8
LC-001-002-----0
  6
CONTINUOUS
 62
             7
100
AcDbLine
 10
357.39692400000001
 20
-88.38944700000002
 11
392.131529
 21
-148.551547
  0
LINE
  5
CE
100
AcDbEntity
  8
LC-001-002-----0
  6
CONTINUOUS
 62
             7
100
AcDbLine
 10
187.055915
 20
-30.15108600000002
 11
184.055915
 21
-33.15108600000002
  0
LINE
  5
CD
100
AcDbEntity
  8
LC-001-002-----0
  6
CONTINUOUS
 62
             7
100
AcDbLine
 10
184.055915
 20
-42.65108600000002
 11
187.055915
 21
-45.65108600000002
  0
LINE
  5
CC
100
AcDbEntity
  8
LC-001-002-----0
  6
CONTINUOUS
 62
             7
100
AcDbLine
 10
396.79812299999998
 20
-38.15108600000002
 11
413.76050700000008
 21
-38.15108600000002
  0
LINE
  5
CB
100
AcDbEntity
  8
LC-001-002-----0
  6
CONTINUOUS
 62
             7
100
AcDbLine
 10
396.79812299999998
 20
-37.65108600000002
 11
413.76050700000008
 21
-37.65108600000002
  0
LINE
  5
CA
100
AcDbEntity
  8
LC-001-002-----0
  6
CONTINUOUS
 62
             7
100
AcDbLine
 10
395.66414200000008
 20
-24.68962399999998
 11
412.36883
 21
-21.74413700000002
  0
LINE
  5
C9
100
AcDbEntity
  8
LC-001-002-----0
  6
CONTINUOUS
 62
             7
100
AcDbLine
 10
392.20983100000001
 20
-11.62958600000002
 11
408.14925799999997
 21
-5.82810899999998
  0
LINE
  5
C8
100
AcDbEntity
  8
LC-001-002-----0
  6
CONTINUOUS
 62
             7
100
AcDbLine
 10
386.54014600000011
 20
0.632206
 11
401.23000200000001
 21
9.11339800000002
  0
LINE
  5
C7
100
AcDbEntity
  8
LC-001-002-----0
  6
CONTINUOUS
 62
             7
100
AcDbLine
 10
378.827359
 20
11.723184
 11
391.82129900000012
 21
22.62639400000001
  0
LINE
  5
C6
100
AcDbEntity
  8
LC-001-002-----0
  6
CONTINUOUS
 62
             7
100
AcDbLine
 10
369.30581799999999
 20
21.306353
 11
380.20902799999999
 21
34.30029300000001
  0
LINE
  5
C5
100
AcDbEntity
  8
LC-001-002-----0
  6
CONTINUOUS
 62
             7
100
AcDbLine
 10
346.03987300000011
 20
34.83920799999999
 11
351.84134999999998
 21
50.77863600000001
  0
LINE
  5
C4
100
AcDbEntity
  8
LC-001-002-----0
  6
CONTINUOUS
 62
             7
100
AcDbLine
 10
333.00239199999999
 20
38.37770599999999
 11
335.94787900000011
 21
55.08239300000003
  0
LINE
  5
C3
100
AcDbEntity
  8
LC-001-002-----0
  6
CONTINUOUS
 62
             7
100
AcDbLine
 10
319.54852599999998
 20
39.59851099999997
 11
319.54852599999998
 21
56.56089500000002
  0
LINE
  5
C2
100
AcDbEntity
  8
LC-001-002-----0
  6
CONTINUOUS
 62
             7
100
AcDbLine
 10
306.08706500000011
 20
38.46453000000003
 11
303.14157699999998
 21
55.169217
  0
LINE
  5
C1
100
AcDbEntity
  8
LC-001-002-----0
  6
CONTINUOUS
 62
             7
100
AcDbLine
 10
293.02702600000009
 20
35.01021800000001
 11
287.225549
 21
50.94964599999997
  0
LINE
  5
C0
100
AcDbEntity
  8
LC-001-002-----0
  6
CONTINUOUS
 62
             7
100
AcDbLine
 10
280.76523400000008
 20
29.34053399999999
 11
272.284042
 21
44.03038900000001
  0
LINE
  5
BF
100
AcDbEntity
  8
LC-001-002-----0
  6
CONTINUOUS
 62
             7
100
AcDbLine
 10
269.67425700000001
 20
21.627746
 11
258.77104700000012
 21
34.62168700000001
  0
LINE
  5
BE
100
AcDbEntity
  8
LC-001-002-----0
  6
CONTINUOUS
 62
             7
100
AcDbLine
 10
260.09108800000001
 20
12.10620599999999
 11
247.097148
 21
23.00941599999999
  0
LINE
  5
BD
100
AcDbEntity
  8
LC-001-002-----0
  6
CONTINUOUS
 62
             7
100
AcDbLine
 10
252.306907
 20
1.06521900000001
 11
237.61733799999999
 21
9.546246
  0
LINE
  5
BC
100
AcDbEntity
  8
LC-001-002-----0
  6
CONTINUOUS
 62
             7
100
AcDbLine
 10
246.55823200000009
 20
-11.15974
 11
230.61880500000001
 21
-5.35826200000002
  0
LINE
  5
BB
100
AcDbEntity
  8
LC-001-002-----0
  6
CONTINUOUS
 62
             7
100
AcDbLine
 10
243.01973500000011
 20
-24.19722000000002
 11
226.31504699999999
 21
-21.251733
  0
LINE
  5
BA
100
AcDbEntity
  8
LC-001-002-----0
  6
CONTINUOUS
 62
             7
100
AcDbLine
 10
242.93291099999999
 20
-51.112548
 11
226.22822300000001
 21
-54.05803500000002
  0
LINE
  5
B9
100
AcDbEntity
  8
LC-001-002-----0
  6
CONTINUOUS
 62
             7
100
AcDbLine
 10
246.38722200000001
 20
-64.17258600000002
 11
230.448106
 21
-69.97395
  0
LINE
  5
B8
100
AcDbEntity
  8
LC-001-002-----0
  6
CONTINUOUS
 62
             7
100
AcDbLine
 10
252.056907
 20
-76.43437799999998
 11
237.367051
 21
-84.91557
  0
LINE
  5
B7
100
AcDbEntity
  8
LC-001-002-----0
  6
CONTINUOUS
 62
             7
100
AcDbLine
 10
259.76969400000007
 20
-87.52535499999999
 11
246.77575400000001
 21
-98.42856599999999
  0
LINE
  5
B6
100
AcDbEntity
  8
LC-001-002-----0
  6
CONTINUOUS
 62
             7
100
AcDbLine
 10
269.29123499999997
 20
-97.10852399999999
 11
258.38802400000009
 21
-110.102465
  0
LINE
  5
B5
100
AcDbEntity
  8
LC-001-002-----0
  6
CONTINUOUS
 62
             7
100
AcDbLine
 10
280.332222
 20
-104.892706
 11
271.85102999999998
 21
-119.582561
  0
LINE
  5
B4
100
AcDbEntity
  8
LC-001-002-----0
  6
CONTINUOUS
 62
             7
100
AcDbLine
 10
292.55718000000002
 20
-110.64138
 11
286.75570299999998
 21
-126.58080699999999
  0
LINE
  5
B3
100
AcDbEntity
  8
LC-001-002-----0
  6
CONTINUOUS
 62
             7
100
AcDbLine
 10
305.59466100000009
 20
-114.179878
 11
302.64917400000002
 21
-130.88456500000001
  0
LINE
  5
B2
100
AcDbEntity
  8
LC-001-002-----0
  6
CONTINUOUS
 62
             7
100
AcDbLine
 10
319.04852599999998
 20
-115.400683
 11
319.04852599999998
 21
-132.363067
  0
LINE
  5
B1
100
AcDbEntity
  8
LC-001-002-----0
  6
CONTINUOUS
 62
             7
100
AcDbLine
 10
332.50998800000002
 20
-114.266702
 11
335.45547500000009
 21
-130.97138899999999
  0
LINE
  5
B0
100
AcDbEntity
  8
LC-001-002-----0
  6
CONTINUOUS
 62
             7
100
AcDbLine
 10
345.57002599999998
 20
-110.81238999999999
 11
351.37150400000007
 21
-126.751817
  0
LINE
  5
AF
100
AcDbEntity
  8
LC-001-002-----0
  6
CONTINUOUS
 62
             7
100
AcDbLine
 10
368.92279600000012
 20
-97.42991799999999
 11
379.82600600000001
 21
-110.423858
  0
LINE
  5
AE
100
AcDbEntity
  8
LC-001-002-----0
  6
CONTINUOUS
 62
             7
100
AcDbLine
 10
378.50596500000012
 20
-87.90837800000003
 11
391.49990500000001
 21
-98.81158799999997
  0
LINE
  5
AD
100
AcDbEntity
  8
LC-001-002-----0
  6
CONTINUOUS
 62
             7
100
AcDbLine
 10
386.29014600000011
 20
-76.867391
 11
400.98000200000001
 21
-85.34858300000002
  0
LINE
  5
AC
100
AcDbEntity
  8
LC-001-002-----0
  6
CONTINUOUS
 62
             7
100
AcDbLine
 10
392.03882099999998
 20
-64.64243199999999
 11
407.97824800000001
 21
-70.44390900000002
  0
LINE
  5
AB
100
AcDbEntity
  8
LC-001-002-----0
  6
CONTINUOUS
 62
             7
100
AcDbLine
 10
395.57731799999999
 20
-51.60495200000003
 11
412.28200600000002
 21
-54.55043899999998
  0
LINE
  5
AA
100
AcDbEntity
  8
LC-001-002-----0
  6
CONTINUOUS
 62
             7
100
AcDbLine
 10
395.57731799999999
 20
-24.19722000000002
 11
412.28200600000002
 21
-21.251733
  0
LINE
  5
A9
100
AcDbEntity
  8
LC-001-002-----0
  6
CONTINUOUS
 62
             7
100
AcDbLine
 10
392.03882099999998
 20
-11.15974
 11
407.97824800000001
 21
-5.35826200000002
  0
LINE
  5
A8
100
AcDbEntity
  8
LC-001-002-----0
  6
CONTINUOUS
 62
             7
100
AcDbLine
 10
386.29014600000011
 20
1.06521900000001
 11
400.98000200000001
 21
9.54641099999998
  0
LINE
  5
A7
100
AcDbEntity
  8
LC-001-002-----0
  6
CONTINUOUS
 62
             7
100
AcDbLine
 10
378.50596500000012
 20
12.10620599999999
 11
391.49990500000001
 21
23.00941599999999
  0
LINE
  5
A6
100
AcDbEntity
  8
LC-001-002-----0
  6
CONTINUOUS
 62
             7
100
AcDbLine
 10
368.92279600000012
 20
21.627746
 11
379.82600600000001
 21
34.62168700000001
  0
LINE
  5
A5
100
AcDbEntity
  8
LC-001-002-----0
  6
CONTINUOUS
 62
             7
100
AcDbLine
 10
345.57002599999998
 20
35.01021800000001
 11
351.37150400000007
 21
50.94964599999997
  0
LINE
  5
A4
100
AcDbEntity
  8
LC-001-002-----0
  6
CONTINUOUS
 62
             7
100
AcDbLine
 10
332.50998800000002
 20
38.46453000000003
 11
335.45547500000009
 21
55.169217
  0
LINE
  5
A3
100
AcDbEntity
  8
LC-001-002-----0
  6
CONTINUOUS
 62
             7
100
AcDbLine
 10
319.04852599999998
 20
39.59851099999997
 11
319.04852599999998
 21
56.56089500000002
  0
LINE
  5
A2
100
AcDbEntity
  8
LC-001-002-----0
  6
CONTINUOUS
 62
             7
100
AcDbLine
 10
305.59466100000009
 20
38.37770599999999
 11
302.64917400000002
 21
55.08239300000003
  0
LINE
  5
A1
100
AcDbEntity
  8
LC-001-002-----0
  6
CONTINUOUS
 62
             7
100
AcDbLine
 10
292.55718000000002
 20
34.83920799999999
 11
286.75570299999998
 21
50.77863600000001
  0
LINE
  5
A0
100
AcDbEntity
  8
LC-001-002-----0
  6
CONTINUOUS
 62
             7
100
AcDbLine
 10
280.332222
 20
29.09053399999999
 11
271.85102999999998
 21
43.78038900000001
  0
LINE
  5
9F
100
AcDbEntity
  8
LC-001-002-----0
  6
CONTINUOUS
 62
             7
100
AcDbLine
 10
269.29123499999997
 20
21.306353
 11
258.38802400000009
 21
34.30029300000001
  0
LINE
  5
9E
100
AcDbEntity
  8
LC-001-002-----0
  6
CONTINUOUS
 62
             7
100
AcDbLine
 10
259.76969400000007
 20
11.723184
 11
246.77575400000001
 21
22.62639400000001
  0
LINE
  5
9D
100
AcDbEntity
  8
LC-001-002-----0
  6
CONTINUOUS
 62
             7
100
AcDbLine
 10
252.056907
 20
0.632206
 11
237.367051
 21
9.11339800000002
  0
LINE
  5
9C
100
AcDbEntity
  8
LC-001-002-----0
  6
CONTINUOUS
 62
             7
100
AcDbLine
 10
246.38722200000001
 20
-11.62958600000002
 11
230.44779500000001
 21
-5.82810899999998
  0
LINE
  5
9B
100
AcDbEntity
  8
LC-001-002-----0
  6
CONTINUOUS
 62
             7
100
AcDbLine
 10
242.93291099999999
 20
-24.68962399999998
 11
226.22822300000001
 21
-21.74413700000002
  0
LINE
  5
9A
100
AcDbEntity
  8
LC-001-002-----0
  6
CONTINUOUS
 62
             7
100
AcDbLine
 10
243.01973500000011
 20
-51.60495200000003
 11
226.31504699999999
 21
-54.55043899999998
  0
LINE
  5
99
100
AcDbEntity
  8
LC-001-002-----0
  6
CONTINUOUS
 62
             7
100
AcDbLine
 10
246.55823200000009
 20
-64.64243199999999
 11
230.61880500000001
 21
-70.44390900000002
  0
LINE
  5
98
100
AcDbEntity
  8
LC-001-002-----0
  6
CONTINUOUS
 62
             7
100
AcDbLine
 10
252.306907
 20
-76.867391
 11
237.617051
 21
-85.34858300000002
  0
LINE
  5
97
100
AcDbEntity
  8
LC-001-002-----0
  6
CONTINUOUS
 62
             7
100
AcDbLine
 10
260.09108800000001
 20
-87.90837800000003
 11
247.097148
 21
-98.81158799999997
  0
LINE
  5
96
100
AcDbEntity
  8
LC-001-002-----0
  6
CONTINUOUS
 62
             7
100
AcDbLine
 10
269.67425700000001
 20
-97.42991799999999
 11
258.77104700000012
 21
-110.423858
  0
LINE
  5
95
100
AcDbEntity
  8
LC-001-002-----0
  6
CONTINUOUS
 62
             7
100
AcDbLine
 10
280.76523400000008
 20
-105.142706
 11
272.284042
 21
-119.832561
  0
LINE
  5
94
100
AcDbEntity
  8
LC-001-002-----0
  6
CONTINUOUS
 62
             7
100
AcDbLine
 10
293.02702600000009
 20
-110.81238999999999
 11
287.225549
 21
-126.751817
  0
LINE
  5
93
100
AcDbEntity
  8
LC-001-002-----0
  6
CONTINUOUS
 62
             7
100
AcDbLine
 10
306.08706500000011
 20
-114.266702
 11
303.14157699999998
 21
-130.97138899999999
  0
LINE
  5
92
100
AcDbEntity
  8
LC-001-002-----0
  6
CONTINUOUS
 62
             7
100
AcDbLine
 10
319.54852599999998
 20
-115.400683
 11
319.54852599999998
 21
-132.363067
  0
LINE
  5
91
100
AcDbEntity
  8
LC-001-002-----0
  6
CONTINUOUS
 62
             7
100
AcDbLine
 10
333.00239199999999
 20
-114.179878
 11
335.94787900000011
 21
-130.88456500000001
  0
LINE
  5
90
100
AcDbEntity
  8
LC-001-002-----0
  6
CONTINUOUS
 62
             7
100
AcDbLine
 10
346.03987300000011
 20
-110.64138
 11
351.84134999999998
 21
-126.58080699999999
  0
LINE
  5
8F
100
AcDbEntity
  8
LC-001-002-----0
  6
CONTINUOUS
 62
             7
100
AcDbLine
 10
369.30581799999999
 20
-97.10852399999999
 11
380.20902799999999
 21
-110.102465
  0
LINE
  5
8E
100
AcDbEntity
  8
LC-001-002-----0
  6
CONTINUOUS
 62
             7
100
AcDbLine
 10
378.827359
 20
-87.52535499999999
 11
391.82129900000012
 21
-98.42856599999999
  0
LINE
  5
8D
100
AcDbEntity
  8
LC-001-002-----0
  6
CONTINUOUS
 62
             7
100
AcDbLine
 10
386.54014600000011
 20
-76.43437799999998
 11
401.23000200000001
 21
-84.91557
  0
LINE
  5
8C
100
AcDbEntity
  8
LC-001-002-----0
  6
CONTINUOUS
 62
             7
100
AcDbLine
 10
392.20983100000001
 20
-64.17258600000002
 11
408.14925799999997
 21
-69.974063
  0
LINE
  5
8B
100
AcDbEntity
  8
LC-001-002-----0
  6
CONTINUOUS
 62
             7
100
AcDbLine
 10
395.66414200000008
 20
-51.112548
 11
412.36883
 21
-54.05803500000002
  0
LINE
  5
8A
100
AcDbEntity
  8
LC-006-003-----0
  6
CONTINUOUS
 62
             2
100
AcDbLine
 10
350.28329300000013
 20
-107.068276
 11
363.70668699999999
 21
-99.31827600000003
  0
LINE
  5
89
100
AcDbEntity
  8
LC-006-003-----0
  6
CONTINUOUS
 62
             2
100
AcDbLine
 10
363.70668699999999
 20
23.51610399999998
 11
350.28329300000013
 21
31.26610399999998
  0
LINE
  5
88
100
AcDbEntity
  8
LC-001-002-----0
  6
CONTINUOUS
 62
             7
100
AcDbLine
 10
382.80621200000007
 20
-157.39962299999999
 11
391.03345300000001
 21
-152.64962299999999
  0
LINE
  5
87
100
AcDbEntity
  8
LC-001-002-----0
  6
CONTINUOUS
 62
             7
100
AcDbLine
 10
378.70813500000008
 20
-156.301547
 11
382.80621200000007
 21
-157.39962299999999
  0
LINE
  5
86
100
AcDbEntity
  8
LC-001-002-----0
  6
CONTINUOUS
 62
             7
100
AcDbLine
 10
391.03345300000001
 20
-152.64962299999999
 11
392.131529
 21
-148.551547
  0
LINE
  5
85
100
AcDbEntity
  8
LC-001-002-----0
  6
CONTINUOUS
 62
             7
100
AcDbLine
 10
391.03345300000001
 20
76.84745099999998
 11
382.80621200000007
 21
81.59745099999998
  0
LINE
  5
84
100
AcDbEntity
  8
LC-001-002-----0
  6
CONTINUOUS
 62
             7
100
AcDbLine
 10
392.131529
 20
72.74937499999999
 11
391.03345300000001
 21
76.84745099999998
  0
LINE
  5
83
100
AcDbEntity
  8
LC-001-002-----0
  6
CONTINUOUS
 62
             7
100
AcDbLine
 10
382.80621200000007
 20
81.59745099999998
 11
378.70813500000008
 21
80.49937499999999
  0
LINE
  5
82
100
AcDbEntity
  8
LC-006-003-----0
  6
CONTINUOUS
 62
             2
100
AcDbLine
 10
362.20703200000003
 20
-127.720798
 11
375.63042600000011
 21
-119.970798
  0
LINE
  5
81
100
AcDbEntity
  8
LC-006-003-----0
  6
CONTINUOUS
 62
             2
100
AcDbLine
 10
375.63042600000011
 20
44.16862600000002
 11
362.20703200000003
 21
51.91862600000002
  0
ENDBLK
  5
10A
100
AcDbEntity
  8
0
100
AcDbBlockEnd
  0
BLOCK
  5
10D
100
AcDbEntity
  8
0
100
AcDbBlockBegin
  2
*D2
 70
             1
 10
0.0
 20
0.0
 30
0.0
  3
*D2
  1

  0
LINE
  5
10E
100
AcDbEntity
  8
0
  6
CONTINUOUS
 62
             4
100
AcDbLine
 10
-46.5
 20
-149.06669318377499
 11
46.5
 21
-149.06669318377499
  0
LINE
  5
10F
100
AcDbEntity
  8
0
  6
CONTINUOUS
 62
             4
100
AcDbLine
 10
-46.5
 20
-135.00108599999999
 11
-46.5
 21
-151.06669318377499
  0
LINE
  5
110
100
AcDbEntity
  8
0
  6
CONTINUOUS
 62
             4
100
AcDbLine
 10
46.5
 20
-135.00108599999999
 11
46.5
 21
-151.06669318377499
  0
SOLID
  5
111
100
AcDbEntity
  8
0
 62
             4
100
AcDbTrace
 10
-39.5
 20
-148.14512570066321
 11
-39.5
 21
-149.98826066688676
 12
-46.5
 22
-149.06669318377499
 13
-46.5
 23
-149.06669318377499
  0
SOLID
  5
112
100
AcDbEntity
  8
0
 62
             4
100
AcDbTrace
 10
39.5
 20
-149.98826066688676
 11
39.5
 21
-148.14512570066321
 12
46.5
 22
-149.06669318377499
 13
46.5
 23
-149.06669318377499
  0
MTEXT
  5
114
100
AcDbEntity
  8
0
 62
             1
100
AcDbMText
 10
8.81467172116861
 20
-147.06670709792763
 30
0.0
 40
7.0
 41
0.0
 71
             7
 72
             1
  1
\C1;Ø\C1;93
  7
CONVERTER_1
 11
0.99999999999706
 21
0.00000242406841
 31
0.0
  0
ENDBLK
  5
115
100
AcDbEntity
  8
0
100
AcDbBlockEnd
  0
BLOCK
  5
119
100
AcDbEntity
  8
0
100
AcDbBlockBegin
  2
*D3
 70
             1
 10
0.0
 20
0.0
 30
0.0
  3
*D3
  1

  0
LINE
  5
11A
100
AcDbEntity
  8
0
  6
CONTINUOUS
 62
             4
100
AcDbLine
 10
-55.0
 20
-162.85029658989399
 11
55.0
 21
-162.85029658989399
  0
LINE
  5
11B
100
AcDbEntity
  8
0
  6
CONTINUOUS
 62
             4
100
AcDbLine
 10
-55.0
 20
-123.00108600000002
 11
-55.0
 21
-164.85029658989399
  0
LINE
  5
11C
100
AcDbEntity
  8
0
  6
CONTINUOUS
 62
             4
100
AcDbLine
 10
55.0
 20
-123.00108600000002
 11
55.0
 21
-164.85029658989399
  0
SOLID
  5
11D
100
AcDbEntity
  8
0
 62
             4
100
AcDbTrace
 10
-48.0
 20
-161.92872910678221
 11
-48.0
 21
-163.77186407300576
 12
-55.0
 22
-162.85029658989399
 13
-55.0
 23
-162.85029658989399
  0
SOLID
  5
11E
100
AcDbEntity
  8
0
 62
             4
100
AcDbTrace
 10
48.0
 20
-163.77186407300576
 11
48.0
 21
-161.92872910678221
 12
55.0
 22
-162.85029658989399
 13
55.0
 23
-162.85029658989399
  0
MTEXT
  5
11F
100
AcDbEntity
  8
0
 62
             1
100
AcDbMText
 10
-21.58847616119038
 20
-160.85031050404663
 30
0.0
 40
7.0
 41
0.0
 71
             7
 72
             1
  1
\C1;Ø\C1;110
  7
CONVERTER_1
 11
0.99999999999706
 21
0.00000242406841
 31
0.0
  0
ENDBLK
  5
120
100
AcDbEntity
  8
0
100
AcDbBlockEnd
  0
BLOCK
  5
124
100
AcDbEntity
  8
0
100
AcDbBlockBegin
  2
*D4
 70
             1
 10
0.0
 20
0.0
 30
0.0
  3
*D4
  1

  0
LINE
  5
125
100
AcDbEntity
  8
0
  6
CONTINUOUS
 62
             4
100
AcDbLine
 10
78.5
 20
-179.427908883714
 11
-78.50000000000003
 21
-179.427908883714
  0
LINE
  5
126
100
AcDbEntity
  8
0
  6
CONTINUOUS
 62
             4
100
AcDbLine
 10
78.5
 20
-57.001086
 11
78.5
 21
-181.427908883714
  0
LINE
  5
127
100
AcDbEntity
  8
0
  6
CONTINUOUS
 62
             4
100
AcDbLine
 10
-78.50000000000003
 20
-57.001086
 11
-78.50000000000003
 21
-181.427908883714
  0
SOLID
  5
128
100
AcDbEntity
  8
0
 62
             4
100
AcDbTrace
 10
71.5
 20
-180.34947636682577
 11
71.5
 21
-178.50634140060222
 12
78.5
 22
-179.427908883714
 13
78.5
 23
-179.427908883714
  0
SOLID
  5
129
100
AcDbEntity
  8
0
 62
             4
100
AcDbTrace
 10
-71.50000000000003
 20
-178.50634140060222
 11
-71.50000000000003
 21
-180.34947636682577
 12
-78.50000000000003
 22
-179.427908883714
 13
-78.50000000000003
 23
-179.427908883714
  0
MTEXT
  5
12A
100
AcDbEntity
  8
0
 62
             1
100
AcDbMText
 10
6.21299625258096
 20
-177.42792279786664
 30
0.0
 40
7.0
 41
0.0
 71
             7
 72
             1
  1
\C1;Ø\C1;157
  7
CONVERTER_1
 11
0.99999999999706
 21
0.00000242406841
 31
0.0
  0
ENDBLK
  5
12B
100
AcDbEntity
  8
0
100
AcDbBlockEnd
  0
BLOCK
  5
12F
100
AcDbEntity
  8
0
100
AcDbBlockBegin
  2
*D5
 70
             1
 10
0.0
 20
0.0
 30
0.0
  3
*D5
  1

  0
LINE
  5
130
100
AcDbEntity
  8
0
  6
CONTINUOUS
 62
             4
100
AcDbLine
 10
94.459335
 20
-194.04004610564499
 11
-94.53698100000001
 21
-194.04004610564499
  0
LINE
  5
131
100
AcDbEntity
  8
0
  6
CONTINUOUS
 62
             4
100
AcDbLine
 10
94.459335
 20
-52.24674399999998
 11
94.459335
 21
-196.04004610564499
  0
LINE
  5
132
100
AcDbEntity
  8
0
  6
CONTINUOUS
 62
             4
100
AcDbLine
 10
-94.53698100000001
 20
-52.53652199999988
 11
-94.53698100000001
 21
-196.04004610564499
  0
SOLID
  5
133
100
AcDbEntity
  8
0
 62
             4
100
AcDbTrace
 10
87.459335
 20
-194.96161358875676
 11
87.459335
 21
-193.11847862253322
 12
94.459335
 22
-194.04004610564499
 13
94.459335
 23
-194.04004610564499
  0
SOLID
  5
134
100
AcDbEntity
  8
0
 62
             4
100
AcDbTrace
 10
-87.53698100000001
 20
-193.11847862253322
 11
-87.53698100000001
 21
-194.96161358875676
 12
-94.53698100000001
 22
-194.04004610564499
 13
-94.53698100000001
 23
-194.04004610564499
  0
MTEXT
  5
135
100
AcDbEntity
  8
0
 62
             1
100
AcDbMText
 10
-22.42679270240475
 20
-192.04006001979764
 30
0.0
 40
7.0
 41
0.0
 71
             7
 72
             1
  1
\C1;Ø\C1;189
  7
CONVERTER_1
 11
0.99999999999706
 21
0.00000242406841
 31
0.0
  0
ENDBLK
  5
136
100
AcDbEntity
  8
0
100
AcDbBlockEnd
  0
BLOCK
  5
13A
100
AcDbEntity
  8
0
100
AcDbBlockBegin
  2
*D6
 70
             1
 10
0.0
 20
0.0
 30
0.0
  3
*D6
  1

  0
LINE
  5
13B
100
AcDbEntity
  8
0
  6
CONTINUOUS
 62
             4
100
AcDbLine
 10
-55.00000000000001
 20
16.0
 11
54.99999999999999
 21
16.0
  0
LINE
  5
13C
100
AcDbEntity
  8
0
  6
CONTINUOUS
 62
             4
100
AcDbLine
 10
-55.00000000000001
 20
6.0
 11
-55.00000000000001
 21
18.0
  0
LINE
  5
13D
100
AcDbEntity
  8
0
  6
CONTINUOUS
 62
             4
100
AcDbLine
 10
54.99999999999999
 20
6.0
 11
54.99999999999999
 21
18.0
  0
SOLID
  5
13E
100
AcDbEntity
  8
0
 62
             4
100
AcDbTrace
 10
-48.00000000000001
 20
16.92156748311177
 11
-48.00000000000001
 21
15.07843251688823
 12
-55.00000000000001
 22
16.0
 13
-55.00000000000001
 23
16.0
  0
SOLID
  5
13F
100
AcDbEntity
  8
0
 62
             4
100
AcDbTrace
 10
47.99999999999999
 20
15.07843251688823
 11
47.99999999999999
 21
16.92156748311177
 12
54.99999999999999
 22
16.0
 13
54.99999999999999
 23
16.0
  0
MTEXT
  5
140
100
AcDbEntity
  8
0
 62
             1
100
AcDbMText
 10
-10.7581119470883
 20
17.9999721716947
 30
0.0
 40
7.0
 41
0.0
 71
             7
 72
             1
  1
\C1;DN\C1;110
  7
CONVERTER_1
 11
0.99999999999706
 21
0.00000242406841
 31
0.0
  0
ENDBLK
  5
141
100
AcDbEntity
  8
0
100
AcDbBlockEnd
  0
BLOCK
  5
145
100
AcDbEntity
  8
0
100
AcDbBlockBegin
  2
*D7
 70
             1
 10
0.0
 20
0.0
 30
0.0
  3
*D7
  1

  0
LINE
  5
146
100
AcDbEntity
  8
0
  6
CONTINUOUS
 62
             4
100
AcDbLine
 10
110.711141207255
 20
0.0
 11
110.711141207255
 21
27.99891400000001
  0
LINE
  5
147
100
AcDbEntity
  8
0
  6
CONTINUOUS
 62
             4
100
AcDbLine
 10
58.25
 20
0.0
 11
112.711141207255
 21
0.0
  0
LINE
  5
148
100
AcDbEntity
  8
0
  6
CONTINUOUS
 62
             4
100
AcDbLine
 10
73.15119299999998
 20
27.99891400000001
 11
112.711141207255
 21
27.99891400000001
  0
SOLID
  5
149
100
AcDbEntity
  8
0
 62
             4
100
AcDbTrace
 10
109.78957372414322
 20
7.0
 11
111.63270869036677
 21
7.0
 12
110.711141207255
 22
0.0
 13
110.711141207255
 23
0.0
  0
SOLID
  5
14A
100
AcDbEntity
  8
0
 62
             4
100
AcDbTrace
 10
111.63270869036677
 20
20.99891400000001
 11
109.78957372414322
 21
20.99891400000001
 12
110.711141207255
 22
27.99891400000001
 13
110.711141207255
 23
27.99891400000001
  0
MTEXT
  5
14B
100
AcDbEntity
  8
0
 62
             1
100
AcDbMText
 10
108.711141207255
 20
10.08327745646693
 30
0.0
 40
7.0
 41
0.0
 71
             7
 72
             1
  1
28
  7
CONVERTER_1
 11
0.0
 21
1.0
 31
0.0
  0
ENDBLK
  5
14C
100
AcDbEntity
  8
0
100
AcDbBlockEnd
  0
BLOCK
  5
150
100
AcDbEntity
  8
0
100
AcDbBlockBegin
  2
*D8
 70
             1
 10
0.0
 20
0.0
 30
0.0
  3
*D8
  1

  0
LINE
  5
151
100
AcDbEntity
  8
0
  6
CONTINUOUS
 62
             4
100
AcDbLine
 10
110.711141207255
 20
0.0
 11
110.711141207255
 21
-57.00108599999999
  0
LINE
  5
152
100
AcDbEntity
  8
0
  6
CONTINUOUS
 62
             4
100
AcDbLine
 10
58.25
 20
0.0
 11
112.711141207255
 21
0.0
  0
LINE
  5
153
100
AcDbEntity
  8
0
  6
CONTINUOUS
 62
             4
100
AcDbLine
 10
77.5
 20
-57.00108599999999
 11
112.711141207255
 21
-57.00108599999999
  0
SOLID
  5
154
100
AcDbEntity
  8
0
 62
             4
100
AcDbTrace
 10
111.63270869036677
 20
-7.0
 11
109.78957372414322
 21
-7.0
 12
110.711141207255
 22
0.0
 13
110.711141207255
 23
0.0
  0
SOLID
  5
155
100
AcDbEntity
  8
0
 62
             4
100
AcDbTrace
 10
109.78957372414322
 20
-50.00108599999999
 11
111.63270869036677
 21
-50.00108599999999
 12
110.711141207255
 22
-57.00108599999999
 13
110.711141207255
 23
-57.00108599999999
  0
MTEXT
  5
156
100
AcDbEntity
  8
0
 62
             1
100
AcDbMText
 10
108.711141207255
 20
-34.4763920566771
 30
0.0
 40
7.0
 41
0.0
 71
             7
 72
             1
  1
57
  7
CONVERTER_1
 11
0.0
 21
1.0
 31
0.0
  0
ENDBLK
  5
157
100
AcDbEntity
  8
0
100
AcDbBlockEnd
  0
BLOCK
  5
15B
100
AcDbEntity
  8
0
100
AcDbBlockBegin
  2
*D9
 70
             1
 10
0.0
 20
0.0
 30
0.0
  3
*D9
  1

  0
LINE
  5
15C
100
AcDbEntity
  8
0
  6
CONTINUOUS
 62
             4
100
AcDbLine
 10
124.577495853757
 20
0.0
 11
124.577495853757
 21
-129.00108599999999
  0
LINE
  5
15D
100
AcDbEntity
  8
0
  6
CONTINUOUS
 62
             4
100
AcDbLine
 10
58.25
 20
0.0
 11
126.577495853757
 21
0.0
  0
LINE
  5
15E
100
AcDbEntity
  8
0
  6
CONTINUOUS
 62
             4
100
AcDbLine
 10
49.0
 20
-129.00108599999999
 11
126.577495853757
 21
-129.00108599999999
  0
SOLID
  5
15F
100
AcDbEntity
  8
0
 62
             4
100
AcDbTrace
 10
125.49906333686877
 20
-7.0
 11
123.65592837064523
 21
-7.0
 12
124.577495853757
 22
0.0
 13
124.577495853757
 23
0.0
  0
SOLID
  5
160
100
AcDbEntity
  8
0
 62
             4
100
AcDbTrace
 10
123.65592837064523
 20
-122.00108599999999
 11
125.49906333686877
 21
-122.00108599999999
 12
124.577495853757
 22
-129.00108599999999
 13
124.577495853757
 23
-129.00108599999999
  0
MTEXT
  5
161
100
AcDbEntity
  8
0
 62
             1
100
AcDbMText
 10
122.577495853757
 20
-77.95112871970073
 30
0.0
 40
7.0
 41
0.0
 71
             7
 72
             1
  1
129
  7
CONVERTER_1
 11
0.0
 21
1.0
 31
0.0
  0
ENDBLK
  5
162
100
AcDbEntity
  8
0
100
AcDbBlockEnd
  0
ENDSEC
  0
SECTION
  2
ENTITIES
  0
DIMENSION
  5
164
100
AcDbEntity
  8
1
100
AcDbDimension
  2
*D9
 10
124.577495853757
 20
0.0
 11
119.077495853757
 21
-70.60112871970074
 31
0.0
 53
90.0
  1
<>
  3
ME10_DIM_7
100
AcDbAlignedDimension
 13
49.0
 23
-129.00108599999999
 14
58.25
 24
0.0
 50
90.0
100
AcDbRotatedDimension
  0
DIMENSION
  5
159
100
AcDbEntity
  8
1
100
AcDbDimension
  2
*D8
 10
110.711141207255
 20
0.0
 11
105.211141207255
 21
-29.2263920566771
 31
0.0
 53
90.0
  1
<>
  3
ME10_DIM_6
100
AcDbAlignedDimension
 13
77.5
 23
-57.00108599999999
 14
58.25
 24
0.0
 50
90.0
100
AcDbRotatedDimension
  0
DIMENSION
  5
14E
100
AcDbEntity
  8
1
100
AcDbDimension
  2
*D7
 10
110.711141207255
 20
0.0
 11
105.211141207255
 21
15.33327745646693
 31
0.0
 53
90.0
  1
<>
  3
ME10_DIM_5
100
AcDbAlignedDimension
 13
73.15119299999998
 23
27.99891400000001
 14
58.25
 24
0.0
 50
90.0
100
AcDbRotatedDimension
  0
DIMENSION
  5
143
100
AcDbEntity
  8
1
100
AcDbDimension
  2
*D6
 10
-55.00000000000001
 20
16.0
 11
-0.67811194712203
 21
21.5
 31
0.0
 53
180.0
  1
<>
  3
ME10_DIM_4
100
AcDbAlignedDimension
 13
55.0
 23
6.0
 14
-55.0
 24
6.0
 50
180.0
100
AcDbRotatedDimension
  0
DIMENSION
  5
138
100
AcDbEntity
  8
1
100
AcDbDimension
  2
*D5
 10
94.459335
 20
-194.04004610564499
 11
-13.53679270242161
 21
-188.54004610564499
 31
0.0
 53
180.0
  1
<>
  3
ME10_DIM_3
100
AcDbAlignedDimension
 13
-94.53698100000001
 23
-52.53652199999993
 14
94.45933499999998
 24
-52.24674399999998
 50
180.0
100
AcDbRotatedDimension
  0
DIMENSION
  5
12D
100
AcDbEntity
  8
1
100
AcDbDimension
  2
*D4
 10
78.5
 20
-179.427908883714
 11
15.1029962525641
 21
-173.927908883714
 31
0.0
 53
180.0
  1
<>
  3
ME10_DIM_2
100
AcDbAlignedDimension
 13
-78.50000000000003
 23
-57.00108599999999
 14
78.5
 24
-57.00108599999999
 50
180.0
100
AcDbRotatedDimension
  0
DIMENSION
  5
122
100
AcDbEntity
  8
1
100
AcDbDimension
  2
*D3
 10
-55.0
 20
-162.85029658989399
 11
-13.74847616120724
 21
-157.35029658989399
 31
0.0
 53
180.0
  1
<>
  3
ME10_DIM_1
100
AcDbAlignedDimension
 13
55.0
 23
-123.001086
 14
-55.0
 24
-123.001086
 50
180.0
100
AcDbRotatedDimension
  0
DIMENSION
  5
117
100
AcDbEntity
  8
1
100
AcDbDimension
  2
*D2
 10
-46.5
 20
-149.06669318377499
 11
15.60467172115175
 21
-143.56669318377499
 31
0.0
 53
180.0
  1
<>
  3
ME10_DIM_0
100
AcDbAlignedDimension
 13
46.5
 23
-135.00108599999999
 14
-46.5
 24
-135.00108599999999
 50
180.0
100
AcDbRotatedDimension
  0
INSERT
  5
31
100
AcDbEntity
  8
1
100
AcDbBlockReference
  2
HL_840_BRANDSCHUTZELEMT__1
 10
-135.24261200000001
 20
-113.001086
  0
INSERT
  5
32
100
AcDbEntity
  8
1
100
AcDbBlockReference
  2
HL_840_BRANDSCHUTZELEMT__2
 10
184.055915
 20
-157.39962299999999
  0
ENDSEC
  0
SECTION
  2
OBJECTS
  0
DICTIONARY
  5
19
100
AcDbDictionary
  3
ACAD_GROUP
350
1A
  3
ACAD_MLINESTYLE
350
1B
  0
DICTIONARY
  5
1A
102
{ACAD_REACTORS
330
19
102
}
100
AcDbDictionary
  0
DICTIONARY
  5
1B
102
{ACAD_REACTORS
330
19
102
}
100
AcDbDictionary
  3
STANDARD
350
1C
  0
MLINESTYLE
  5
1C
102
{ACAD_REACTORS
330
1B
102
}
100
AcDbMlineStyle
  2
STANDARD
 70
             0
  3

 62
             0
 51
90.0
 52
90.0
 71
             2
 49
0.5
 62
           256
  6
BYLAYER
 49
-0.5
 62
           256
  6
BYLAYER
  0
ENDSEC
  0
EOF
