  0
SECTION
  2
HEADER
  9
$ACADVER
  1
AC1015
  9
$ACADMAINTVER
 70
     6
  9
$DWGCODEPAGE
  3
ANSI_1252
  9
$INSBASE
 10
0.0
 20
0.0
 30
0.0
  9
$EXTMIN
 10
-24.44593930527418
 20
-171.51881758433
 30
0.0
  9
$EXTMAX
 10
544.7154380662189
 20
647.2420199691725
 30
0.0
  9
$LIMMIN
 10
0.0
 20
0.0
  9
$LIMMAX
 10
12.0
 20
9.0
  9
$ORTHOMODE
 70
     0
  9
$REGENMODE
 70
     1
  9
$FILLMODE
 70
     1
  9
$QTEXTMODE
 70
     0
  9
$MIRRTEXT
 70
     1
  9
$LTSCALE
 40
1.0
  9
$ATTMODE
 70
     1
  9
$TEXTSIZE
 40
0.2
  9
$TRACEWID
 40
0.05
  9
$TEXTSTYLE
  7
Standard
  9
$CLAYER
  8
0
  9
$CELTYPE
  6
ByLayer
  9
$CECOLOR
 62
   256
  9
$CELTSCALE
 40
1.0
  9
$DISPSILH
 70
     0
  9
$DIMSCALE
 40
1.0
  9
$DIMASZ
 40
0.18
  9
$DIMEXO
 40
0.0625
  9
$DIMDLI
 40
0.38
  9
$DIMRND
 40
0.0
  9
$DIMDLE
 40
0.0
  9
$DIMEXE
 40
0.18
  9
$DIMTP
 40
0.0
  9
$DIMTM
 40
0.0
  9
$DIMTXT
 40
0.18
  9
$DIMCEN
 40
0.09
  9
$DIMTSZ
 40
0.0
  9
$DIMTOL
 70
     0
  9
$DIMLIM
 70
     0
  9
$DIMTIH
 70
     1
  9
$DIMTOH
 70
     1
  9
$DIMSE1
 70
     0
  9
$DIMSE2
 70
     0
  9
$DIMTAD
 70
     0
  9
$DIMZIN
 70
     0
  9
$DIMBLK
  1

  9
$DIMASO
 70
     1
  9
$DIMSHO
 70
     1
  9
$DIMPOST
  1

  9
$DIMAPOST
  1

  9
$DIMALT
 70
     0
  9
$DIMALTD
 70
     2
  9
$DIMALTF
 40
25.4
  9
$DIMLFAC
 40
1.0
  9
$DIMTOFL
 70
     0
  9
$DIMTVP
 40
0.0
  9
$DIMTIX
 70
     0
  9
$DIMSOXD
 70
     0
  9
$DIMSAH
 70
     0
  9
$DIMBLK1
  1

  9
$DIMBLK2
  1

  9
$DIMSTYLE
  2
Standard
  9
$DIMCLRD
 70
     0
  9
$DIMCLRE
 70
     0
  9
$DIMCLRT
 70
     0
  9
$DIMTFAC
 40
1.0
  9
$DIMGAP
 40
0.09
  9
$DIMJUST
 70
     0
  9
$DIMSD1
 70
     0
  9
$DIMSD2
 70
     0
  9
$DIMTOLJ
 70
     1
  9
$DIMTZIN
 70
     0
  9
$DIMALTZ
 70
     0
  9
$DIMALTTZ
 70
     0
  9
$DIMUPT
 70
     0
  9
$DIMDEC
 70
     4
  9
$DIMTDEC
 70
     4
  9
$DIMALTU
 70
     2
  9
$DIMALTTD
 70
     2
  9
$DIMTXSTY
  7
Standard
  9
$DIMAUNIT
 70
     0
  9
$DIMADEC
 70
     0
  9
$DIMALTRND
 40
0.0
  9
$DIMAZIN
 70
     0
  9
$DIMDSEP
 70
    46
  9
$DIMATFIT
 70
     3
  9
$DIMFRAC
 70
     0
  9
$DIMLDRBLK
  1

  9
$DIMLUNIT
 70
     2
  9
$DIMLWD
 70
    -2
  9
$DIMLWE
 70
    -2
  9
$DIMTMOVE
 70
     0
  9
$LUNITS
 70
     2
  9
$LUPREC
 70
     4
  9
$SKETCHINC
 40
0.1
  9
$FILLETRAD
 40
0.5
  9
$AUNITS
 70
     0
  9
$AUPREC
 70
     0
  9
$MENU
  1
.
  9
$ELEVATION
 40
0.0
  9
$PELEVATION
 40
0.0
  9
$THICKNESS
 40
0.0
  9
$LIMCHECK
 70
     0
  9
$CHAMFERA
 40
0.5
  9
$CHAMFERB
 40
0.5
  9
$CHAMFERC
 40
1.0
  9
$CHAMFERD
 40
0.0
  9
$SKPOLY
 70
     0
  9
$TDCREATE
 40
2456723.45304684
  9
$TDUCREATE
 40
2456723.411380174
  9
$TDUPDATE
 40
2456723.453047199
  9
$TDUUPDATE
 40
2456723.411380532
  9
$TDINDWG
 40
0.0000000116
  9
$TDUSRTIMER
 40
0.0000000116
  9
$USRTIMER
 70
     1
  9
$ANGBASE
 50
0.0
  9
$ANGDIR
 70
     0
  9
$PDMODE
 70
     0
  9
$PDSIZE
 40
0.0
  9
$PLINEWID
 40
0.0
  9
$SPLFRAME
 70
     0
  9
$SPLINETYPE
 70
     6
  9
$SPLINESEGS
 70
     8
  9
$HANDSEED
  5
336
  9
$SURFTAB1
 70
     6
  9
$SURFTAB2
 70
     6
  9
$SURFTYPE
 70
     6
  9
$SURFU
 70
     6
  9
$SURFV
 70
     6
  9
$UCSBASE
  2

  9
$UCSNAME
  2

  9
$UCSORG
 10
0.0
 20
0.0
 30
0.0
  9
$UCSXDIR
 10
1.0
 20
0.0
 30
0.0
  9
$UCSYDIR
 10
0.0
 20
1.0
 30
0.0
  9
$UCSORTHOREF
  2

  9
$UCSORTHOVIEW
 70
     0
  9
$UCSORGTOP
 10
0.0
 20
0.0
 30
0.0
  9
$UCSORGBOTTOM
 10
0.0
 20
0.0
 30
0.0
  9
$UCSORGLEFT
 10
0.0
 20
0.0
 30
0.0
  9
$UCSORGRIGHT
 10
0.0
 20
0.0
 30
0.0
  9
$UCSORGFRONT
 10
0.0
 20
0.0
 30
0.0
  9
$UCSORGBACK
 10
0.0
 20
0.0
 30
0.0
  9
$PUCSBASE
  2

  9
$PUCSNAME
  2

  9
$PUCSORG
 10
0.0
 20
0.0
 30
0.0
  9
$PUCSXDIR
 10
1.0
 20
0.0
 30
0.0
  9
$PUCSYDIR
 10
0.0
 20
1.0
 30
0.0
  9
$PUCSORTHOREF
  2

  9
$PUCSORTHOVIEW
 70
     0
  9
$PUCSORGTOP
 10
0.0
 20
0.0
 30
0.0
  9
$PUCSORGBOTTOM
 10
0.0
 20
0.0
 30
0.0
  9
$PUCSORGLEFT
 10
0.0
 20
0.0
 30
0.0
  9
$PUCSORGRIGHT
 10
0.0
 20
0.0
 30
0.0
  9
$PUCSORGFRONT
 10
0.0
 20
0.0
 30
0.0
  9
$PUCSORGBACK
 10
0.0
 20
0.0
 30
0.0
  9
$USERI1
 70
     0
  9
$USERI2
 70
     0
  9
$USERI3
 70
     0
  9
$USERI4
 70
     0
  9
$USERI5
 70
     0
  9
$USERR1
 40
18.1
  9
$USERR2
 40
0.0
  9
$USERR3
 40
0.0
  9
$USERR4
 40
0.0
  9
$USERR5
 40
0.0
  9
$WORLDVIEW
 70
     1
  9
$SHADEDGE
 70
     3
  9
$SHADEDIF
 70
    70
  9
$TILEMODE
 70
     1
  9
$MAXACTVP
 70
    64
  9
$PINSBASE
 10
0.0
 20
0.0
 30
0.0
  9
$PLIMCHECK
 70
     0
  9
$PEXTMIN
 10
1.00000000000000E+20
 20
1.00000000000000E+20
 30
1.00000000000000E+20
  9
$PEXTMAX
 10
-1.00000000000000E+20
 20
-1.00000000000000E+20
 30
-1.00000000000000E+20
  9
$PLIMMIN
 10
0.0
 20
0.0
  9
$PLIMMAX
 10
12.0
 20
9.0
  9
$UNITMODE
 70
     0
  9
$VISRETAIN
 70
     1
  9
$PLINEGEN
 70
     0
  9
$PSLTSCALE
 70
     1
  9
$TREEDEPTH
 70
  3020
  9
$CMLSTYLE
  2
Standard
  9
$CMLJUST
 70
     0
  9
$CMLSCALE
 40
1.0
  9
$PROXYGRAPHICS
 70
     1
  9
$MEASUREMENT
 70
     1
  9
$CELWEIGHT
370
    -1
  9
$ENDCAPS
280
     0
  9
$JOINSTYLE
280
     0
  9
$LWDISPLAY
290
     0
  9
$INSUNITS
 70
     1
  9
$HYPERLINKBASE
  1

  9
$STYLESHEET
  1

  9
$XEDIT
290
     1
  9
$CEPSNTYPE
380
     0
  9
$PSTYLEMODE
290
     1
  9
$FINGERPRINTGUID
  2
{7C8EA72F-09D4-468C-A464-E4DAC6C4297B}
  9
$VERSIONGUID
  2
{FAEB1C32-E019-11D5-929B-00C0DF256EC4}
  9
$EXTNAMES
290
     1
  9
$PSVPSCALE
 40
0.0
  9
$OLESTARTUP
290
     0
  0
ENDSEC
  0
SECTION
  2
CLASSES
  0
CLASS
  1
ACDBDICTIONARYWDFLT
  2
AcDbDictionaryWithDefault
  3
ObjectDBX Classes
 90
        0
280
     0
281
     0
  0
CLASS
  1
VISUALSTYLE
  2
AcDbVisualStyle
  3
ObjectDBX Classes
 90
     4095
280
     0
281
     0
  0
CLASS
  1
MATERIAL
  2
AcDbMaterial
  3
ObjectDBX Classes
 90
     1153
280
     0
281
     0
  0
CLASS
  1
DICTIONARYVAR
  2
AcDbDictionaryVar
  3
ObjectDBX Classes
 90
        0
280
     0
281
     0
  0
CLASS
  1
ACDBPLACEHOLDER
  2
AcDbPlaceHolder
  3
ObjectDBX Classes
 90
        0
280
     0
281
     0
  0
CLASS
  1
LAYOUT
  2
AcDbLayout
  3
ObjectDBX Classes
 90
        0
280
     0
281
     0
  0
ENDSEC
  0
SECTION
  2
TABLES
  0
TABLE
  2
VPORT
  5
8
330
0
100
AcDbSymbolTable
 70
     1
  0
VPORT
  5
29
330
8
100
AcDbSymbolTableRecord
100
AcDbViewportTableRecord
  2
*Active
 70
     0
 10
0.0
 20
0.0
 11
1.0
 21
1.0
 12
260.1347493804724
 22
237.8616011924212
 13
0.0
 23
0.0
 14
0.5
 24
0.5
 15
0.5
 25
0.5
 16
0.0
 26
0.0
 36
1.0
 17
0.0
 27
0.0
 37
0.0
 40
900.6369213088528
 41
1.60267857142857
 42
50.0
 43
0.0
 44
0.0
 50
0.0
 51
0.0
 71
     0
 72
   100
 73
     1
 74
     3
 75
     0
 76
     0
 77
     0
 78
     0
281
     0
 65
     1
110
0.0
120
0.0
130
0.0
111
1.0
121
0.0
131
0.0
112
0.0
122
1.0
132
0.0
 79
     0
146
0.0
  0
ENDTAB
  0
TABLE
  2
LTYPE
  5
5
330
0
100
AcDbSymbolTable
 70
     8
  0
LTYPE
  5
14
330
5
100
AcDbSymbolTableRecord
100
AcDbLinetypeTableRecord
  2
ByBlock
 70
     0
  3

 72
    65
 73
     0
 40
0.0
  0
LTYPE
  5
15
330
5
100
AcDbSymbolTableRecord
100
AcDbLinetypeTableRecord
  2
ByLayer
 70
     0
  3

 72
    65
 73
     0
 40
0.0
  0
LTYPE
  5
16
330
5
100
AcDbSymbolTableRecord
100
AcDbLinetypeTableRecord
  2
Continuous
 70
     0
  3
Solid line
 72
    65
 73
     0
 40
0.0
  0
LTYPE
  5
3F
330
5
100
AcDbSymbolTableRecord
100
AcDbLinetypeTableRecord
  2
DASHED
 70
     0
  3
Dashed
 72
    65
 73
     2
 40
15.0
 49
7.0
 74
     0
 49
-8.0
 74
     0
  0
LTYPE
  5
40
330
5
100
AcDbSymbolTableRecord
100
AcDbLinetypeTableRecord
  2
DOTTED
 70
     0
  3
Dotted
 72
    65
 73
     2
 40
1.0
 49
0.0
 74
     0
 49
-1.0
 74
     0
  0
LTYPE
  5
41
330
5
100
AcDbSymbolTableRecord
100
AcDbLinetypeTableRecord
  2
DOT_CENTER
 70
     0
  3
Dot_Center
 72
    65
 73
     4
 40
14.0
 49
12.0
 74
     0
 49
-1.0
 74
     0
 49
0.0
 74
     0
 49
-1.0
 74
     0
  0
LTYPE
  5
42
330
5
100
AcDbSymbolTableRecord
100
AcDbLinetypeTableRecord
  2
LONG_DASHED
 70
     0
  3
Long_Dashed
 72
    65
 73
     2
 40
15.0
 49
10.0
 74
     0
 49
-5.0
 74
     0
  0
LTYPE
  5
43
330
5
100
AcDbSymbolTableRecord
100
AcDbLinetypeTableRecord
  2
DASH_CENTER
 70
     0
  3
Dash_Center
 72
    65
 73
     4
 40
14.0
 49
11.0
 74
     0
 49
-1.0
 74
     0
 49
1.0
 74
     0
 49
-1.0
 74
     0
  0
LTYPE
  5
44
330
5
100
AcDbSymbolTableRecord
100
AcDbLinetypeTableRecord
  2
PHANTOM
 70
     0
  3
Phantom
 72
    65
 73
     6
 40
13.0
 49
10.0
 74
     0
 49
-1.0
 74
     0
 49
0.0
 74
     0
 49
-1.0
 74
     0
 49
0.0
 74
     0
 49
-1.0
 74
     0
  0
LTYPE
  5
45
330
5
100
AcDbSymbolTableRecord
100
AcDbLinetypeTableRecord
  2
CENTER_DASH_DASH
 70
     0
  3
Center_Dash_Dash
 72
    65
 73
     6
 40
14.0
 49
9.0
 74
     0
 49
-1.0
 74
     0
 49
1.0
 74
     0
 49
-1.0
 74
     0
 49
1.0
 74
     0
 49
-1.0
 74
     0
  0
ENDTAB
  0
TABLE
  2
LAYER
  5
2
330
0
100
AcDbSymbolTable
 70
     2
  0
LAYER
  5
10
330
2
100
AcDbSymbolTableRecord
100
AcDbLayerTableRecord
  2
0
 70
     0
 62
     7
  6
Continuous
370
    -3
390
F
  0
LAYER
  5
46
330
2
100
AcDbSymbolTableRecord
100
AcDbLayerTableRecord
  2
1
 70
     0
 62
     7
  6
Continuous
370
    -3
390
F
  0
ENDTAB
  0
TABLE
  2
STYLE
  5
3
330
0
100
AcDbSymbolTable
 70
     2
  0
STYLE
  5
11
330
3
100
AcDbSymbolTableRecord
100
AcDbTextStyleTableRecord
  2
Standard
 70
     0
 40
0.0
 41
1.0
 50
0.0
 71
     0
 42
0.2
  3
txt
  4

  0
STYLE
  5
1D9
330
3
100
AcDbSymbolTableRecord
100
AcDbTextStyleTableRecord
  2
CONVERTER_11
 70
     0
 40
0.0
 41
0.9
 50
0.0
 71
     0
 42
0.2
  3
txt.shx
  4

  0
ENDTAB
  0
TABLE
  2
VIEW
  5
6
330
0
100
AcDbSymbolTable
 70
     0
  0
ENDTAB
  0
TABLE
  2
UCS
  5
7
330
0
100
AcDbSymbolTable
 70
     0
  0
ENDTAB
  0
TABLE
  2
APPID
  5
9
330
0
100
AcDbSymbolTable
 70
     1
  0
APPID
  5
12
330
9
100
AcDbSymbolTableRecord
100
AcDbRegAppTableRecord
  2
ACAD
 70
     0
  0
ENDTAB
  0
TABLE
  2
DIMSTYLE
  5
A
330
0
100
AcDbSymbolTable
 70
     3
100
AcDbDimStyleTable
  0
DIMSTYLE
105
27
330
A
100
AcDbSymbolTableRecord
100
AcDbDimStyleTableRecord
  2
Standard
 70
     0
178
     0
340
11
  0
DIMSTYLE
105
1E4
102
{ACAD_REACTORS
330
1E5
102
}
330
A
100
AcDbSymbolTableRecord
100
AcDbDimStyleTableRecord
  2
ME10_DIM_10
 70
     0
 41
15.0
 42
0.0
 44
2.0
 73
     0
 74
     0
 77
     1
 78
     8
140
15.0
147
2.0
172
     1
173
     1
174
     1
175
     1
176
     4
177
     4
271
     2
178
     1
271
     2
340
1D9
  0
DIMSTYLE
105
1EF
102
{ACAD_REACTORS
330
1F0
102
}
330
A
100
AcDbSymbolTableRecord
100
AcDbDimStyleTableRecord
  2
ME10_DIM_11
 70
     0
 41
15.0
 42
0.0
 44
2.0
 73
     0
 74
     0
 77
     1
 78
     8
140
15.0
147
2.0
172
     1
173
     1
174
     1
175
     1
176
     4
177
     4
271
     2
178
     1
271
     2
340
1D9
  0
ENDTAB
  0
TABLE
  2
BLOCK_RECORD
  5
1
330
0
100
AcDbSymbolTable
 70
    16
  0
BLOCK_RECORD
  5
1F
330
1
100
AcDbSymbolTableRecord
100
AcDbBlockTableRecord
  2
*Model_Space
340
22
  0
BLOCK_RECORD
  5
1B
330
1
100
AcDbSymbolTableRecord
100
AcDbBlockTableRecord
  2
*Paper_Space
340
1E
  0
BLOCK_RECORD
  5
23
330
1
100
AcDbSymbolTableRecord
100
AcDbBlockTableRecord
  2
*Paper_Space0
340
26
  0
BLOCK_RECORD
  5
47
330
1
100
AcDbSymbolTableRecord
100
AcDbBlockTableRecord
  2
HL062B_3E-Tragring__1
340
0
102
{BLKREFS
331
51
102
}
  0
BLOCK_RECORD
  5
4A
330
1
100
AcDbSymbolTableRecord
100
AcDbBlockTableRecord
  2
HL084_5E-Vlieskaschierte-Folie__2
340
0
102
{BLKREFS
331
52
102
}
  0
BLOCK_RECORD
  5
4D
330
1
100
AcDbSymbolTableRecord
100
AcDbBlockTableRecord
  2
HL084_2E_Edelstahlflansch__3
340
0
102
{BLKREFS
331
53
102
}
  0
BLOCK_RECORD
  5
50
330
1
100
AcDbSymbolTableRecord
100
AcDbBlockTableRecord
  2
HL84_M-Zeichnungen-WEB__4
340
0
102
{BLKREFS
331
57
102
}
  0
BLOCK_RECORD
  5
56
330
1
100
AcDbSymbolTableRecord
100
AcDbBlockTableRecord
  2
Vordans2
340
0
102
{BLKREFS
331
75
102
}
  0
BLOCK_RECORD
  5
5A
330
1
100
AcDbSymbolTableRecord
100
AcDbBlockTableRecord
  2
Bauschutz
340
0
102
{BLKREFS
331
6A
102
}
  0
BLOCK_RECORD
  5
5D
330
1
100
AcDbSymbolTableRecord
100
AcDbBlockTableRecord
  2
HL084_5E-Vlieskaschierte-Folie__5
340
0
102
{BLKREFS
331
6B
102
}
  0
BLOCK_RECORD
  5
60
330
1
100
AcDbSymbolTableRecord
100
AcDbBlockTableRecord
  2
HL062B_3E-Tragring__6
340
0
102
{BLKREFS
331
6C
102
}
  0
BLOCK_RECORD
  5
63
330
1
100
AcDbSymbolTableRecord
100
AcDbBlockTableRecord
  2
HL084_4E-Klemmring
340
0
102
{BLKREFS
331
6D
102
}
  0
BLOCK_RECORD
  5
66
330
1
100
AcDbSymbolTableRecord
100
AcDbBlockTableRecord
  2
HL084_2E_Edelstahlflansch__7
340
0
102
{BLKREFS
331
6E
102
}
  0
BLOCK_RECORD
  5
69
330
1
100
AcDbSymbolTableRecord
100
AcDbBlockTableRecord
  2
HL84_M-Zeichnungen-WEB__8
340
0
102
{BLKREFS
331
72
102
}
  0
BLOCK_RECORD
  5
71
330
1
100
AcDbSymbolTableRecord
100
AcDbBlockTableRecord
  2
Untsicht1
340
0
102
{BLKREFS
331
76
102
}
  0
BLOCK_RECORD
  5
1DB
330
1
100
AcDbSymbolTableRecord
100
AcDbBlockTableRecord
  2
*D13
340
0
  0
BLOCK_RECORD
  5
1E6
330
1
100
AcDbSymbolTableRecord
100
AcDbBlockTableRecord
  2
*D14
340
0
  0
BLOCK_RECORD
  5
1F1
330
1
100
AcDbSymbolTableRecord
100
AcDbBlockTableRecord
  2
*D15
340
0
102
{BLKREFS
331
1F8
102
}
  0
ENDTAB
  0
ENDSEC
  0
SECTION
  2
BLOCKS
  0
BLOCK
  5
20
330
1F
100
AcDbEntity
  8
0
100
AcDbBlockBegin
  2
*Model_Space
 70
     0
 10
0.0
 20
0.0
 30
0.0
  3
*Model_Space
  1

  0
ENDBLK
  5
21
330
1F
100
AcDbEntity
  8
0
100
AcDbBlockEnd
  0
BLOCK
  5
1C
330
1B
100
AcDbEntity
 67
     1
  8
0
100
AcDbBlockBegin
  2
*Paper_Space
 70
     0
 10
0.0
 20
0.0
 30
0.0
  3
*Paper_Space
  1

  0
ENDBLK
  5
1D
330
1B
100
AcDbEntity
 67
     1
  8
0
100
AcDbBlockEnd
  0
BLOCK
  5
24
330
23
100
AcDbEntity
  8
0
100
AcDbBlockBegin
  2
*Paper_Space0
 70
     0
 10
0.0
 20
0.0
 30
0.0
  3
*Paper_Space0
  1

  0
ENDBLK
  5
25
330
23
100
AcDbEntity
  8
0
100
AcDbBlockEnd
  0
BLOCK
  5
48
330
47
100
AcDbEntity
  8
0
100
AcDbBlockBegin
  2
HL062B_3E-Tragring__1
 70
     0
 10
162.5000000000032
 20
53.50013250248995
 30
0.0
  3
HL062B_3E-Tragring__1
  1

  0
LINE
  5
77
330
47
100
AcDbEntity
  8
0
  6
Continuous
 62
     7
100
AcDbLine
 10
302.4382737388829
 20
102.1353859321318
 30
0.0
 11
297.4199191989411
 21
93.48575485841292
 31
0.0
  0
LINE
  5
78
330
47
100
AcDbEntity
  8
0
  6
Continuous
 62
     7
100
AcDbLine
 10
284.6245771776187
 20
71.12405948464371
 30
0.0
 11
282.6878477940759
 21
74.49506265543155
 31
0.0
  0
LINE
  5
79
330
47
100
AcDbEntity
  8
0
  6
Continuous
 62
     7
100
AcDbLine
 10
303.2846242132509
 20
92.97345913201622
 30
0.0
 11
304.5469672633828
 21
92.24107125066001
 31
0.0
  0
LINE
  5
7A
330
47
100
AcDbEntity
  8
0
  6
Continuous
 62
     7
100
AcDbLine
 10
307.0561445333537
 20
96.56588678751953
 30
0.0
 11
305.7938014832218
 21
97.29827466887572
 31
0.0
  0
LINE
  5
7B
330
47
100
AcDbEntity
  8
0
  6
Continuous
 62
     7
100
AcDbLine
 10
304.4270029218556
 20
96.93514701549802
 30
0.0
 11
302.9214965598731
 21
94.34025769338233
 31
0.0
  0
LINE
  5
7C
330
47
100
AcDbEntity
  8
0
  6
Continuous
 62
     7
100
AcDbLine
 10
298.3277383323853
 20
90.06875845499766
 30
0.0
 11
301.690496764183
 21
88.11774876462891
 31
0.0
  0
LINE
  5
7D
330
47
100
AcDbEntity
  8
0
  6
Continuous
 62
     7
100
AcDbLine
 10
311.6129647610989
 20
124.3503665279661
 30
0.0
 11
315.5007038350105
 21
124.342121788976
 31
0.0
  0
LINE
  5
7E
330
47
100
AcDbEntity
  8
0
  6
Continuous
 62
     7
100
AcDbLine
 10
309.218028574096
 20
101.0921953752074
 30
0.0
 11
305.8552701422981
 21
103.0432050655761
 31
0.0
  0
LINE
  5
7F
330
47
100
AcDbEntity
  8
0
  6
Continuous
 62
     7
100
AcDbLine
 10
313.4618885597329
 20
133.3464657483494
 30
0.0
 11
313.4555264657548
 21
130.346472494397
 31
0.0
  0
LINE
  5
80
330
47
100
AcDbEntity
  8
0
  6
Continuous
 62
     7
100
AcDbLine
 10
315.5325143049012
 20
139.3420880587383
 30
0.0
 11
311.6447752309896
 21
139.3503327977283
 31
0.0
  0
LINE
  5
81
330
47
100
AcDbEntity
  8
0
  6
Continuous
 62
     7
100
AcDbLine
 10
309.1394791077141
 20
136.8556401644164
 30
0.0
 11
309.118272127787
 21
126.8556626512416
 31
0.0
  0
LINE
  5
82
330
47
100
AcDbEntity
  8
0
  6
Continuous
 62
     7
100
AcDbLine
 10
314.4534035190796
 20
129.3443540450868
 30
0.0
 11
315.9128186094627
 21
129.3412590594744
 31
0.0
  0
LINE
  5
83
330
47
100
AcDbEntity
  8
0
  6
Continuous
 62
     7
100
AcDbLine
 10
315.9234220994262
 20
134.3412478160618
 30
0.0
 11
314.4640070090431
 21
134.3443428016742
 31
0.0
  0
LINE
  5
84
330
47
100
AcDbEntity
  8
0
  6
Continuous
 62
     7
100
AcDbLine
 10
303.0806696759965
 20
169.3970355752286
 30
0.0
 11
304.5751565679664
 21
166.7957841591348
 31
0.0
  0
LINE
  5
85
330
47
100
AcDbEntity
  8
0
  6
Continuous
 62
     7
100
AcDbLine
 10
305.9404026706544
 20
166.4268626510935
 30
0.0
 11
307.2058407063987
 21
167.1538898601204
 31
0.0
  0
LINE
  5
86
330
47
100
AcDbEntity
  8
0
  6
Continuous
 62
     7
100
AcDbLine
 10
305.977504306909
 20
160.6817232160952
 30
0.0
 11
309.3485074776968
 21
162.618452599638
 31
0.0
  0
LINE
  5
87
330
47
100
AcDbEntity
  8
0
  6
Continuous
 62
     7
100
AcDbLine
 10
304.7150292197823
 20
171.4893088869435
 30
0.0
 11
303.4495911840378
 21
170.7622816779166
 31
0.0
  0
LINE
  5
88
330
47
100
AcDbEntity
  8
0
  6
Continuous
 62
     7
100
AcDbLine
 10
167.5465964809235
 20
134.6559109598933
 30
0.0
 11
166.0871813905405
 21
134.6590059455056
 31
0.0
  0
LINE
  5
89
330
47
100
AcDbEntity
  8
0
  6
Continuous
 62
     7
100
AcDbLine
 10
166.0765779005769
 20
129.6590171889182
 30
0.0
 11
167.53599299096
 21
129.6559222033059
 31
0.0
  0
LINE
  5
8A
330
47
100
AcDbEntity
  8
0
  6
Continuous
 62
     7
100
AcDbLine
 10
248.649765974525
 20
202.6130972635871
 30
0.0
 11
248.658010713515
 21
206.5008363374987
 31
0.0
  0
LINE
  5
8B
330
47
100
AcDbEntity
  8
0
  6
Continuous
 62
     7
100
AcDbLine
 10
233.6580444437528
 20
206.5326468073894
 30
0.0
 11
233.6497997047628
 21
202.6449077334779
 31
0.0
  0
LINE
  5
8C
330
47
100
AcDbEntity
  8
0
  6
Continuous
 62
     7
100
AcDbLine
 10
239.6536667541427
 20
204.4620210622211
 30
0.0
 11
242.6536600080951
 21
204.455658968243
 31
0.0
  0
LINE
  5
8D
330
47
100
AcDbEntity
  8
0
  6
Continuous
 62
     7
100
AcDbLine
 10
238.6588846864302
 20
206.9235546019145
 30
0.0
 11
238.6557897008179
 21
205.4641395115314
 31
0.0
  0
LINE
  5
8E
330
47
100
AcDbEntity
  8
0
  6
Continuous
 62
     7
100
AcDbLine
 10
243.6557784574054
 20
205.4535360215677
 30
0.0
 11
243.6588734430176
 21
206.9129511119509
 31
0.0
  0
LINE
  5
8F
330
47
100
AcDbEntity
  8
0
  6
Continuous
 62
     7
100
AcDbLine
 10
170.3870352389042
 20
139.649898477013
 30
0.0
 11
166.4992961649926
 21
139.658143216003
 31
0.0
  0
LINE
  5
90
330
47
100
AcDbEntity
  8
0
  6
Continuous
 62
     7
100
AcDbLine
 10
184.417233923047
 20
93.72539996513459
 30
0.0
 11
179.435610949814
 21
102.3962380187807
 31
0.0
  0
LINE
  5
91
330
47
100
AcDbEntity
  8
0
  6
Continuous
 62
     7
100
AcDbLine
 10
176.0224956930943
 20
103.3185417888839
 30
0.0
 11
172.6514925223065
 21
101.3818124053411
 31
0.0
  0
LINE
  5
92
330
47
100
AcDbEntity
  8
0
  6
Continuous
 62
     7
100
AcDbLine
 10
176.059597329349
 20
97.57340235388561
 30
0.0
 11
174.7941592936047
 21
96.84637514485868
 31
0.0
  0
LINE
  5
93
330
47
100
AcDbEntity
  8
0
  6
Continuous
 62
     7
100
AcDbLine
 10
178.9193303240068
 20
94.60322942975047
 30
0.0
 11
177.4248434320369
 21
97.2044808458443
 31
0.0
  0
LINE
  5
94
330
47
100
AcDbEntity
  8
0
  6
Continuous
 62
     7
100
AcDbLine
 10
177.2849707802212
 20
92.51095611803564
 30
0.0
 11
178.5504088159655
 21
93.23798332706258
 31
0.0
  0
LINE
  5
95
330
47
100
AcDbEntity
  8
0
  6
Continuous
 62
     7
100
AcDbLine
 10
180.123926982156
 20
88.37555532487193
 30
0.0
 11
183.4949301529437
 21
90.31228470841478
 31
0.0
  0
LINE
  5
96
330
47
100
AcDbEntity
  8
0
  6
Continuous
 62
     7
100
AcDbLine
 10
166.467485695102
 20
124.6581769462408
 30
0.0
 11
170.3552247690134
 21
124.6499322072507
 31
0.0
  0
LINE
  5
97
330
47
100
AcDbEntity
  8
0
  6
Continuous
 62
     7
100
AcDbLine
 10
270.8647465703593
 20
193.4384062413712
 30
0.0
 11
279.5143776440781
 21
188.4200517014294
 31
0.0
  0
LINE
  5
98
330
47
100
AcDbEntity
  8
0
  6
Continuous
 62
     7
100
AcDbLine
 10
297.5827660769563
 20
170.2748650398445
 30
0.0
 11
302.5643890501893
 21
161.6040269861985
 31
0.0
  0
LINE
  5
99
330
47
100
AcDbEntity
  8
0
  6
Continuous
 62
     7
100
AcDbLine
 10
301.8760730178474
 20
175.6247096801072
 30
0.0
 11
298.5050698470596
 21
173.6879802965643
 31
0.0
  0
LINE
  5
9A
330
47
100
AcDbEntity
  8
0
  6
Continuous
 62
     7
100
AcDbLine
 10
280.0266733704758
 20
194.2847567157386
 30
0.0
 11
280.759061251832
 21
195.5470997658707
 31
0.0
  0
LINE
  5
9B
330
47
100
AcDbEntity
  8
0
  6
Continuous
 62
     7
100
AcDbLine
 10
276.4342457149724
 20
198.0562770358416
 30
0.0
 11
275.7018578336162
 21
196.7939339857096
 31
0.0
  0
LINE
  5
9C
330
47
100
AcDbEntity
  8
0
  6
Continuous
 62
     7
100
AcDbLine
 10
282.9313740474934
 20
189.3278708348737
 30
0.0
 11
284.8823837378621
 21
192.6906292666714
 31
0.0
  0
LINE
  5
9D
330
47
100
AcDbEntity
  8
0
  6
Continuous
 62
     7
100
AcDbLine
 10
276.064985486994
 20
195.4271354243435
 30
0.0
 11
278.6598748091096
 21
193.921629062361
 31
0.0
  0
LINE
  5
9E
330
47
100
AcDbEntity
  8
0
  6
Continuous
 62
     7
100
AcDbLine
 10
271.9079371272837
 20
200.2181610765843
 30
0.0
 11
269.956927436915
 21
196.8554026447865
 31
0.0
  0
LINE
  5
9F
330
47
100
AcDbEntity
  8
0
  6
Continuous
 62
     7
100
AcDbLine
 10
206.5732698513976
 20
196.9405351731425
 30
0.0
 11
205.8462426423707
 21
198.2059732088868
 31
0.0
  0
LINE
  5
A0
330
47
100
AcDbEntity
  8
0
  6
Continuous
 62
     7
100
AcDbLine
 10
201.5108236155476
 20
195.7151617222703
 30
0.0
 11
202.2378508245745
 21
194.4497236865259
 31
0.0
  0
LINE
  5
A1
330
47
100
AcDbEntity
  8
0
  6
Continuous
 62
     7
100
AcDbLine
 10
203.6030969272625
 20
194.0808021784847
 30
0.0
 11
206.2043483433562
 21
195.5752890704545
 31
0.0
  0
LINE
  5
A2
330
47
100
AcDbEntity
  8
0
  6
Continuous
 62
     7
100
AcDbLine
 10
202.7252674626465
 20
188.5828985794444
 30
0.0
 11
211.3961055162926
 21
193.5645215526773
 31
0.0
  0
LINE
  5
A3
330
47
100
AcDbEntity
  8
0
  6
Continuous
 62
     7
100
AcDbLine
 10
197.3754228223839
 20
192.8762055203355
 30
0.0
 11
199.3121522059268
 21
189.5052023495477
 31
0.0
  0
LINE
  5
A4
330
47
100
AcDbEntity
  8
0
  6
Continuous
 62
     7
100
AcDbLine
 10
212.3184092863959
 20
196.9776368093972
 30
0.0
 11
210.381679902853
 21
200.3486399801849
 31
0.0
  0
LINE
  5
A5
330
47
100
AcDbEntity
  8
0
  6
Continuous
 62
     7
100
AcDbLine
 10
236.1444923380747
 20
200.1396116102023
 30
0.0
 11
246.1444698512495
 21
200.1184046302752
 31
0.0
  0
LINE
  5
A6
330
47
100
AcDbEntity
  8
0
  6
Continuous
 62
     7
100
AcDbLine
 10
179.56172626112
 20
161.8648790728473
 30
0.0
 11
184.5800808010618
 21
170.5145101465662
 31
0.0
  0
LINE
  5
A7
330
47
100
AcDbEntity
  8
0
  6
Continuous
 62
     7
100
AcDbLine
 10
168.5381114402701
 20
130.6537992566307
 30
0.0
 11
168.5444735342483
 21
133.6537925105831
 31
0.0
  0
LINE
  5
A8
330
47
100
AcDbEntity
  8
0
  6
Continuous
 62
     7
100
AcDbLine
 10
178.7153757867525
 20
171.0268058729637
 30
0.0
 11
177.4530327366205
 21
171.7591937543199
 31
0.0
  0
LINE
  5
A9
330
47
100
AcDbEntity
  8
0
  6
Continuous
 62
     7
100
AcDbLine
 10
174.9438554666496
 20
167.4343782174605
 30
0.0
 11
176.2061985167816
 21
166.7019903361043
 31
0.0
  0
LINE
  5
AA
330
47
100
AcDbEntity
  8
0
  6
Continuous
 62
     7
100
AcDbLine
 10
177.5729970781477
 20
167.065117989482
 30
0.0
 11
179.0785034401302
 21
169.6600073115976
 31
0.0
  0
LINE
  5
AB
330
47
100
AcDbEntity
  8
0
  6
Continuous
 62
     7
100
AcDbLine
 10
183.6722616676174
 20
173.9315065499815
 30
0.0
 11
180.3095032358197
 21
175.8825162403502
 31
0.0
  0
LINE
  5
AC
330
47
100
AcDbEntity
  8
0
  6
Continuous
 62
     7
100
AcDbLine
 10
172.781971425907
 20
162.9080696297717
 30
0.0
 11
176.1447298577047
 21
160.957059939403
 31
0.0
  0
LINE
  5
AD
330
47
100
AcDbEntity
  8
0
  6
Continuous
 62
     7
100
AcDbLine
 10
172.860520892289
 20
127.1446248405627
 30
0.0
 11
172.8817278722161
 21
137.1446023537375
 31
0.0
  0
LINE
  5
AE
330
47
100
AcDbEntity
  8
0
  6
Continuous
 62
     7
100
AcDbLine
 10
242.3463332458609
 20
59.53824394275844
 30
0.0
 11
239.3463399919085
 21
59.54460603673657
 31
0.0
  0
LINE
  5
AF
330
47
100
AcDbEntity
  8
0
  6
Continuous
 62
     7
100
AcDbLine
 10
233.3502340254785
 20
61.38716774139236
 30
0.0
 11
233.3419892864885
 21
57.4994286674808
 31
0.0
  0
LINE
  5
B0
330
47
100
AcDbEntity
  8
0
  6
Continuous
 62
     7
100
AcDbLine
 10
248.3419555562508
 20
57.4676181975902
 30
0.0
 11
248.3502002952408
 21
61.35535727150176
 31
0.0
  0
LINE
  5
B1
330
47
100
AcDbEntity
  8
0
  6
Continuous
 62
     7
100
AcDbLine
 10
238.3442215425983
 20
58.5467289834118
 30
0.0
 11
238.3411265569859
 21
57.08731389302866
 31
0.0
  0
LINE
  5
B2
330
47
100
AcDbEntity
  8
0
  6
Continuous
 62
     7
100
AcDbLine
 10
243.3411153135733
 20
57.07671040306509
 30
0.0
 11
243.3442102991857
 21
58.53612549344823
 31
0.0
  0
LINE
  5
B3
330
47
100
AcDbEntity
  8
0
  6
Continuous
 62
     7
100
AcDbLine
 10
275.4267301486059
 20
67.05972983183734
 30
0.0
 11
276.1537573576329
 21
65.79429179609303
 31
0.0
  0
LINE
  5
B4
330
47
100
AcDbEntity
  8
0
  6
Continuous
 62
     7
100
AcDbLine
 10
269.6815907136067
 20
67.02262819558221
 30
0.0
 11
271.6183200971495
 21
63.65162502479437
 31
0.0
  0
LINE
  5
B5
330
47
100
AcDbEntity
  8
0
  6
Continuous
 62
     7
100
AcDbLine
 10
279.2747325373561
 20
75.41736642553487
 30
0.0
 11
270.60389448371
 21
70.43574345230198
 31
0.0
  0
LINE
  5
B6
330
47
100
AcDbEntity
  8
0
  6
Continuous
 62
     7
100
AcDbLine
 10
280.4891763844559
 20
68.28510328270951
 30
0.0
 11
279.762149175429
 21
69.55054131845384
 31
0.0
  0
LINE
  5
B7
330
47
100
AcDbEntity
  8
0
  6
Continuous
 62
     7
100
AcDbLine
 10
210.0920628727199
 20
63.78210392839506
 30
0.0
 11
212.0430725630885
 21
67.14486236019286
 31
0.0
  0
LINE
  5
B8
330
47
100
AcDbEntity
  8
0
  6
Continuous
 62
     7
100
AcDbLine
 10
245.8555076619288
 20
63.86065339477725
 30
0.0
 11
235.8555301487541
 21
63.88186037470432
 31
0.0
  0
LINE
  5
B9
330
47
100
AcDbEntity
  8
0
  6
Continuous
 62
     7
100
AcDbLine
 10
278.3969030727411
 20
69.91946282649516
 30
0.0
 11
275.7956516566473
 21
68.42497593452526
 31
0.0
  0
LINE
  5
BA
330
47
100
AcDbEntity
  8
0
  6
Continuous
 62
     7
100
AcDbLine
 10
199.0686259525101
 20
74.67239417010558
 30
0.0
 11
197.1176162621413
 21
71.30963573830779
 31
0.0
  0
LINE
  5
BB
330
47
100
AcDbEntity
  8
0
  6
Continuous
 62
     7
100
AcDbLine
 10
201.9733266295278
 20
69.7155082892406
 30
0.0
 11
201.2409387481716
 21
68.45316523910866
 31
0.0
  0
LINE
  5
BC
330
47
100
AcDbEntity
  8
0
  6
Continuous
 62
     7
100
AcDbLine
 10
205.9350145130096
 20
68.57312958063577
 30
0.0
 11
203.3401251908938
 21
70.0786359426183
 31
0.0
  0
LINE
  5
BD
330
47
100
AcDbEntity
  8
0
  6
Continuous
 62
     7
100
AcDbLine
 10
205.5657542850311
 20
65.94398796913772
 30
0.0
 11
206.2981421663873
 21
67.20633101926967
 31
0.0
  0
LINE
  5
BE
330
47
100
AcDbEntity
  8
0
  6
Continuous
 62
     7
100
AcDbLine
 10
211.1352534296443
 20
70.56185876360807
 30
0.0
 11
202.4856223559253
 21
75.58021330354987
 31
0.0
  0
ARC
  5
BF
330
47
100
AcDbEntity
  8
0
  6
Continuous
 62
     7
100
AcDbCircle
 10
307.5579799873479
 20
97.43084989489142
 30
0.0
 40
1.000000000000004
100
AcDbArc
 50
239.8784928643176
 51
332.5532673520532
  0
ARC
  5
C0
330
47
100
AcDbEntity
  8
0
  6
Continuous
 62
     7
100
AcDbCircle
 10
241.0000000000031
 20
132.0001325024899
 30
0.0
 40
75.99999999999866
100
AcDbArc
 50
327.2037183765827
 51
332.5532673520537
  0
ARC
  5
C1
330
47
100
AcDbEntity
  8
0
  6
Continuous
 62
     7
100
AcDbCircle
 10
285.4916609829833
 20
71.62222178196704
 30
0.0
 40
1.000000000000046
100
AcDbArc
 50
209.8784928643195
 51
306.3859964560621
  0
ARC
  5
C2
330
47
100
AcDbEntity
  8
0
  6
Continuous
 62
     7
100
AcDbCircle
 10
241.0000000000017
 20
132.0001325024888
 30
0.0
 40
75.99999999999913
100
AcDbArc
 50
304.2068288088157
 51
306.3859964560634
  0
ARC
  5
C3
330
47
100
AcDbEntity
  8
0
  6
Continuous
 62
     7
100
AcDbCircle
 10
241.0000000000031
 20
132.0001325024899
 30
0.0
 40
75.99999999999868
100
AcDbArc
 50
332.5532673520537
 51
334.6598747460247
  0
ARC
  5
C4
330
47
100
AcDbEntity
  8
0
  6
Continuous
 62
     7
100
AcDbCircle
 10
303.786459667245
 20
93.83842223938811
 30
0.0
 40
1.000000000000036
100
AcDbArc
 50
149.8784928643177
 51
239.8784928643205
  0
ARC
  5
C5
330
47
100
AcDbEntity
  8
0
  6
Continuous
 62
     7
100
AcDbCircle
 10
301.1886613101889
 20
87.25278565725705
 30
0.0
 40
1.000000000000105
100
AcDbArc
 50
323.3709892725758
 51
59.87849286431963
  0
ARC
  5
C6
330
47
100
AcDbEntity
  8
0
  6
Continuous
 62
     7
100
AcDbCircle
 10
241.0000000000012
 20
132.0001325024871
 30
0.0
 40
75.99999999999879
100
AcDbArc
 50
323.3709892725754
 51
327.2037183765853
  0
ARC
  5
C7
330
47
100
AcDbEntity
  8
0
  6
Continuous
 62
     7
100
AcDbCircle
 10
304.0451318093886
 20
91.37610814328814
 30
0.0
 40
0.9999999999999548
100
AcDbArc
 50
327.2037183765822
 51
59.87849286431722
  0
ARC
  5
C8
330
47
100
AcDbEntity
  8
0
  6
Continuous
 62
     7
100
AcDbCircle
 10
299.5823269673708
 20
92.23116622342742
 30
0.0
 40
2.499999999999991
100
AcDbArc
 50
149.8784928643177
 51
239.8784928643179
  0
ARC
  5
C9
330
47
100
AcDbEntity
  8
0
  6
Continuous
 62
     7
100
AcDbCircle
 10
305.2919660292276
 20
96.4333115615037
 30
0.0
 40
1.000000000000115
100
AcDbArc
 50
59.8784928643213
 51
149.8784928643144
  0
ARC
  5
CA
330
47
100
AcDbEntity
  8
0
  6
Continuous
 62
     7
100
AcDbCircle
 10
241.0000000000031
 20
132.0001325024899
 30
0.0
 40
75.99999999999918
100
AcDbArc
 50
306.385996456062
 51
323.3709892725728
  0
ARC
  5
CB
330
47
100
AcDbEntity
  8
0
  6
Continuous
 62
     7
100
AcDbCircle
 10
241.0000000000031
 20
132.0001325024899
 30
0.0
 40
75.99999999999858
100
AcDbArc
 50
353.3709892725735
 51
356.1113111782429
  0
ARC
  5
CC
330
47
100
AcDbEntity
  8
0
  6
Continuous
 62
     7
100
AcDbCircle
 10
315.4985831370178
 20
123.3421240376585
 30
0.0
 40
1.000000000000011
100
AcDbArc
 50
353.3709892725752
 51
89.87849286432136
  0
ARC
  5
CD
330
47
100
AcDbEntity
  8
0
  6
Continuous
 62
     7
100
AcDbCircle
 10
241.000000000011
 20
132.0001325025063
 30
0.0
 40
75.99999999999852
100
AcDbArc
 50
334.659874746011
 51
334.690875067863
  0
ARC
  5
CE
330
47
100
AcDbEntity
  8
0
  6
Continuous
 62
     7
100
AcDbCircle
 10
241.0000000000031
 20
132.0001325024899
 30
0.0
 40
75.99999999999866
100
AcDbArc
 50
334.6908750678766
 51
336.3859964560625
  0
ARC
  5
CF
330
47
100
AcDbEntity
  8
0
  6
Continuous
 62
     7
100
AcDbCircle
 10
309.7198640280902
 20
101.9571584825792
 30
0.0
 40
0.9999999999999303
100
AcDbArc
 50
239.8784928643151
 51
336.3859964560636
  0
ARC
  5
D0
330
47
100
AcDbEntity
  8
0
  6
Continuous
 62
     7
100
AcDbCircle
 10
304.6006815073127
 20
100.8807972971464
 30
0.0
 40
2.499999999999929
100
AcDbArc
 50
59.87849286431956
 51
149.8784928643204
  0
ARC
  5
D1
330
47
100
AcDbEntity
  8
0
  6
Continuous
 62
     7
100
AcDbCircle
 10
314.4618863110504
 20
133.3443450503567
 30
0.0
 40
1.00000000000001
100
AcDbArc
 50
89.87849286432136
 51
179.8784928643198
  0
ARC
  5
D2
330
47
100
AcDbEntity
  8
0
  6
Continuous
 62
     7
100
AcDbCircle
 10
314.4555242170723
 20
130.3443517964043
 30
0.0
 40
1.00000000000001
100
AcDbArc
 50
179.8784928643198
 51
269.8784928643181
  0
ARC
  5
D3
330
47
100
AcDbEntity
  8
0
  6
Continuous
 62
     7
100
AcDbCircle
 10
311.6394734860078
 20
136.8503384194346
 30
0.0
 40
2.499999999999998
100
AcDbArc
 50
89.8784928643181
 51
179.8784928643181
  0
ARC
  5
D4
330
47
100
AcDbEntity
  8
0
  6
Continuous
 62
     7
100
AcDbCircle
 10
311.6182665060807
 20
126.8503609062597
 30
0.0
 40
2.499999999999998
100
AcDbArc
 50
179.8784928643158
 51
269.8784928643181
  0
ARC
  5
D5
330
47
100
AcDbEntity
  8
0
  6
Continuous
 62
     7
100
AcDbCircle
 10
241.0000000000031
 20
132.0001325024899
 30
0.0
 40
75.99999999999842
100
AcDbArc
 50
2.55326735205443
 51
6.38599645606316
  0
ARC
  5
D6
330
47
100
AcDbEntity
  8
0
  6
Continuous
 62
     7
100
AcDbCircle
 10
315.91069791147
 20
128.3412613081569
 30
0.0
 40
0.9999999999999418
100
AcDbArc
 50
357.2037183765871
 51
89.8784928643181
  0
ARC
  5
D7
330
47
100
AcDbEntity
  8
0
  6
Continuous
 62
     7
100
AcDbCircle
 10
315.9255427974189
 20
135.3412455673794
 30
0.0
 40
1.000000000000096
100
AcDbArc
 50
269.8784928643181
 51
2.55326735205431
  0
ARC
  5
D8
330
47
100
AcDbEntity
  8
0
  6
Continuous
 62
     7
100
AcDbCircle
 10
241.000000000003
 20
132.0001325024885
 30
0.0
 40
75.99999999999855
100
AcDbArc
 50
356.1199031685885
 51
357.2037183765845
  0
LINE
  5
D9
330
47
100
AcDbEntity
  8
0
  6
Continuous
 62
     7
100
AcDbLine
 10
316.8250241959708
 20
126.845939483143
 30
0.0
 11
316.8257962585693
 21
126.8573101495219
 31
0.0
  0
ARC
  5
DA
330
47
100
AcDbEntity
  8
0
  6
Continuous
 62
     7
100
AcDbCircle
 10
241.0000000000031
 20
132.0001325024899
 30
0.0
 40
75.9999999999984
100
AcDbArc
 50
357.2037183765835
 51
2.55326735205443
  0
LINE
  5
DB
330
47
100
AcDbEntity
  8
0
  6
Continuous
 62
     7
100
AcDbLine
 10
315.1269529113168
 20
148.7689980599344
 30
0.0
 11
315.1244374435846
 21
148.7801138395579
 31
0.0
  0
ARC
  5
DC
330
47
100
AcDbEntity
  8
0
  6
Continuous
 62
     7
100
AcDbCircle
 10
315.5346350028939
 20
140.3420858100557
 30
0.0
 40
0.9999999999998966
100
AcDbArc
 50
269.8784928643213
 51
6.38599645606361
  0
ARC
  5
DD
330
47
100
AcDbEntity
  8
0
  6
Continuous
 62
     7
100
AcDbCircle
 10
241.0000000000031
 20
132.0001325024899
 30
0.0
 40
75.99999999999854
100
AcDbArc
 50
6.38599645606316
 51
12.74680038625296
  0
ARC
  5
DE
330
47
100
AcDbEntity
  8
0
  6
Continuous
 62
     7
100
AcDbCircle
 10
304.2168669224589
 20
172.3563926923081
 30
0.0
 40
1.000000000000056
100
AcDbArc
 50
299.8784928643238
 51
32.55326735205563
  0
ARC
  5
DF
330
47
100
AcDbEntity
  8
0
  6
Continuous
 62
     7
100
AcDbCircle
 10
241.0000000000031
 20
132.0001325024899
 30
0.0
 40
75.99999999999856
100
AcDbArc
 50
27.20371837658337
 51
32.55326735205428
  0
ARC
  5
E0
330
47
100
AcDbEntity
  8
0
  6
Continuous
 62
     7
100
AcDbCircle
 10
241.0000000000031
 20
132.0001325024899
 30
0.0
 40
75.99999999999862
100
AcDbArc
 50
32.55326735205428
 51
34.17582848696387
  0
ARC
  5
E1
330
47
100
AcDbEntity
  8
0
  6
Continuous
 62
     7
100
AcDbCircle
 10
241.0000000000031
 20
132.0001325024899
 30
0.0
 40
75.99999999999855
100
AcDbArc
 50
12.75539237659727
 51
23.37098927257412
  0
ARC
  5
E2
330
47
100
AcDbEntity
  8
0
  6
Continuous
 62
     7
100
AcDbCircle
 10
304.7320985636008
 20
162.8494327295067
 30
0.0
 40
2.499999999999973
100
AcDbArc
 50
209.8784928643178
 51
299.8784928643181
  0
ARC
  5
E3
330
47
100
AcDbEntity
  8
0
  6
Continuous
 62
     7
100
AcDbCircle
 10
307.704003003722
 20
166.2868060547557
 30
0.0
 40
1.000000000000023
100
AcDbArc
 50
27.20371837659334
 51
119.8784928643158
  0
ARC
  5
E4
330
47
100
AcDbEntity
  8
0
  6
Continuous
 62
     7
100
AcDbCircle
 10
309.8466697750201
 20
161.7513687942734
 30
0.0
 40
1.000000000000091
100
AcDbArc
 50
23.37098927257203
 51
119.8784928643182
  0
ARC
  5
E5
330
47
100
AcDbEntity
  8
0
  6
Continuous
 62
     7
100
AcDbCircle
 10
241.0000000000031
 20
132.0001325024899
 30
0.0
 40
75.99999999999856
100
AcDbArc
 50
23.37098927257412
 51
27.20371837658337
  0
ARC
  5
E6
330
47
100
AcDbEntity
  8
0
  6
Continuous
 62
     7
100
AcDbCircle
 10
305.442240373331
 20
167.2939464564581
 30
0.0
 40
0.9999999999999752
100
AcDbArc
 50
209.878492864319
 51
299.8784928643246
  0
ARC
  5
E7
330
47
100
AcDbEntity
  8
0
  6
Continuous
 62
     7
100
AcDbCircle
 10
241.0000000000017
 20
132.0001325024888
 30
0.0
 40
76.0000000000006
100
AcDbArc
 50
154.690875067877
 51
156.3859964560629
  0
ARC
  5
E8
330
47
100
AcDbEntity
  8
0
  6
Continuous
 62
     7
100
AcDbCircle
 10
166.4653649971093
 20
123.6581791949233
 30
0.0
 40
1.00000000000001
100
AcDbArc
 50
89.87849286431974
 51
186.3859964560638
  0
ARC
  5
E9
330
47
100
AcDbEntity
  8
0
  6
Continuous
 62
     7
100
AcDbCircle
 10
166.0893020885331
 20
135.6590036968231
 30
0.0
 40
1.000000000000031
100
AcDbArc
 50
177.2037183765824
 51
269.8784928643263
  0
ARC
  5
EA
330
47
100
AcDbEntity
  8
0
  6
Continuous
 62
     7
100
AcDbCircle
 10
166.0744572025841
 20
128.6590194376007
 30
0.0
 40
1.000000000000011
100
AcDbArc
 50
89.87849286431486
 51
182.5532673520526
  0
ARC
  5
EB
330
47
100
AcDbEntity
  8
0
  6
Continuous
 62
     7
100
AcDbCircle
 10
241.0000000000031
 20
132.0001325024899
 30
0.0
 40
76.00000000000162
100
AcDbArc
 50
177.2037183765834
 51
182.5532673520541
  0
ARC
  5
EC
330
47
100
AcDbEntity
  8
0
  6
Continuous
 62
     7
100
AcDbCircle
 10
241.0000000000031
 20
132.0001325024899
 30
0.0
 40
76.00000000000158
100
AcDbArc
 50
186.3859964560635
 51
192.7468003862531
  0
ARC
  5
ED
330
47
100
AcDbEntity
  8
0
  6
Continuous
 62
     7
100
AcDbCircle
 10
166.5014168629853
 20
140.6581409673205
 30
0.0
 40
1.000000000000013
100
AcDbArc
 50
173.3709892725744
 51
269.8784928643181
  0
ARC
  5
EE
330
47
100
AcDbEntity
  8
0
  6
Continuous
 62
     7
100
AcDbCircle
 10
241.0000000000031
 20
132.0001325024899
 30
0.0
 40
76.0000000000015
100
AcDbArc
 50
156.385996456064
 51
173.3709892725743
  0
ARC
  5
EF
330
47
100
AcDbEntity
  8
0
  6
Continuous
 62
     7
100
AcDbCircle
 10
241.0000000000031
 20
132.0001325024899
 30
0.0
 40
75.99999999999868
100
AcDbArc
 50
336.3859964560625
 51
353.3709892725735
  0
ARC
  5
F0
330
47
100
AcDbEntity
  8
0
  6
Continuous
 62
     7
100
AcDbCircle
 10
271.0429740199118
 20
200.7199965305784
 30
0.0
 40
0.9999999999999367
100
AcDbArc
 50
329.8784928643211
 51
66.38599645606021
  0
ARC
  5
F1
330
47
100
AcDbEntity
  8
0
  6
Continuous
 62
     7
100
AcDbCircle
 10
246.1497715962314
 20
202.6183990085689
 30
0.0
 40
2.499999999999998
100
AcDbArc
 50
269.8784928643162
 51
359.8784928643181
  0
ARC
  5
F2
330
47
100
AcDbEntity
  8
0
  6
Continuous
 62
     7
100
AcDbCircle
 10
241.0000000000017
 20
132.0001325024901
 30
0.0
 40
75.9999999999997
100
AcDbArc
 50
83.37098927257398
 51
86.11131117824344
  0
ARC
  5
F3
330
47
100
AcDbEntity
  8
0
  6
Continuous
 62
     7
100
AcDbCircle
 10
249.6580084648325
 20
206.498715639506
 30
0.0
 40
1.000000000000013
100
AcDbArc
 50
83.3709892725744
 51
179.8784928643198
  0
ARC
  5
F4
330
47
100
AcDbEntity
  8
0
  6
Continuous
 62
     7
100
AcDbCircle
 10
241.0000000000017
 20
132.0001325024901
 30
0.0
 40
75.99999999999962
100
AcDbArc
 50
64.69087506787746
 51
66.38599645606327
  0
ARC
  5
F5
330
47
100
AcDbEntity
  8
0
  6
Continuous
 62
     7
100
AcDbCircle
 10
244.6588711943352
 20
206.9108304139581
 30
0.0
 40
1.000000000000055
100
AcDbArc
 50
87.20371837658736
 51
179.8784928643149
  0
ARC
  5
F6
330
47
100
AcDbEntity
  8
0
  6
Continuous
 62
     7
100
AcDbCircle
 10
241.0000000000017
 20
132.0001325024901
 30
0.0
 40
75.99999999999972
100
AcDbArc
 50
92.55326735205401
 51
96.38599645606352
  0
ARC
  5
F7
330
47
100
AcDbEntity
  8
0
  6
Continuous
 62
     7
100
AcDbCircle
 10
237.6588869351386
 20
206.9256752999343
 30
0.0
 40
0.9999999999741758
100
AcDbArc
 50
359.8784928627631
 51
92.55326735360548
  0
ARC
  5
F8
330
47
100
AcDbEntity
  8
0
  6
Continuous
 62
     7
100
AcDbCircle
 10
241.0000000000017
 20
132.0001325024901
 30
0.0
 40
75.9999999999997
100
AcDbArc
 50
96.38599645606352
 51
102.7468003862531
  0
LINE
  5
F9
330
47
100
AcDbEntity
  8
0
  6
Continuous
 62
     7
100
AcDbLine
 10
246.154193019348
 20
207.825156698459
 30
0.0
 11
246.1428223529691
 21
207.8259287610575
 31
0.0
  0
ARC
  5
FA
330
47
100
AcDbEntity
  8
0
  6
Continuous
 62
     7
100
AcDbCircle
 10
241.0000000000017
 20
132.0001325024901
 30
0.0
 40
75.9999999999997
100
AcDbArc
 50
86.11990316858797
 51
87.20371837658313
  0
ARC
  5
FB
330
47
100
AcDbEntity
  8
0
  6
Continuous
 62
     7
100
AcDbCircle
 10
241.0000000000017
 20
132.0001325024901
 30
0.0
 40
75.99999999999967
100
AcDbArc
 50
87.20371837658313
 51
92.55326735205401
  0
ARC
  5
FC
330
47
100
AcDbEntity
  8
0
  6
Continuous
 62
     7
100
AcDbCircle
 10
239.6557874521354
 20
205.4620188135386
 30
0.0
 40
1.000000000000011
100
AcDbArc
 50
179.8784928643132
 51
269.8784928643198
  0
ARC
  5
FD
330
47
100
AcDbEntity
  8
0
  6
Continuous
 62
     7
100
AcDbCircle
 10
236.1497940830564
 20
202.6396059884961
 30
0.0
 40
2.499999999999884
100
AcDbArc
 50
179.8784928643181
 51
269.8784928643207
  0
ARC
  5
FE
330
47
100
AcDbEntity
  8
0
  6
Continuous
 62
     7
100
AcDbCircle
 10
232.6580466924315
 20
206.5347675053779
 30
0.0
 40
1.00000000000381
100
AcDbArc
 50
359.8784928645596
 51
96.38599645582086
  0
LINE
  5
FF
330
47
100
AcDbEntity
  8
0
  6
Continuous
 62
     7
100
AcDbLine
 10
224.2311344425567
 20
206.127085413805
 30
0.0
 11
224.2200186629331
 21
206.1245699460727
 31
0.0
  0
ARC
  5
100
330
47
100
AcDbEntity
  8
0
  6
Continuous
 62
     7
100
AcDbCircle
 10
242.6557807060878
 20
205.4556567195605
 30
0.0
 40
1.00000000000001
100
AcDbArc
 50
269.8784928643198
 51
359.8784928643132
  0
ARC
  5
101
330
47
100
AcDbEntity
  8
0
  6
Continuous
 62
     7
100
AcDbCircle
 10
241.0000000000017
 20
132.0001325024901
 30
0.0
 40
75.99999999999969
100
AcDbArc
 50
66.38599645606327
 51
83.37098927257398
  0
ARC
  5
102
330
47
100
AcDbEntity
  8
0
  6
Continuous
 62
     7
100
AcDbCircle
 10
241.0000000000017
 20
132.0001325024888
 30
0.0
 40
76.00000000000092
100
AcDbArc
 50
113.3709892725738
 51
117.2037183765829
  0
ARC
  5
103
330
47
100
AcDbEntity
  8
0
  6
Continuous
 62
     7
100
AcDbCircle
 10
211.2487637082177
 20
200.8468022775083
 30
0.0
 40
0.9999999999999495
100
AcDbArc
 50
113.3709892725738
 51
209.87849286432
  0
ARC
  5
104
330
47
100
AcDbEntity
  8
0
  6
Continuous
 62
     7
100
AcDbCircle
 10
241.0000000000017
 20
132.0001325024901
 30
0.0
 40
75.99999999999977
100
AcDbArc
 50
102.7553923765975
 51
113.3709892725741
  0
ARC
  5
105
330
47
100
AcDbEntity
  8
0
  6
Continuous
 62
     7
100
AcDbCircle
 10
178.0522465186422
 20
94.10506713242717
 30
0.0
 40
0.9999999999999893
100
AcDbArc
 50
299.8784928643204
 51
29.87849286431889
  0
ARC
  5
106
330
47
100
AcDbEntity
  8
0
  6
Continuous
 62
     7
100
AcDbCircle
 10
172.1533302249832
 20
102.2488962107057
 30
0.0
 40
1.000000000000028
100
AcDbArc
 50
203.3709892725718
 51
299.87849286432
  0
ARC
  5
107
330
47
100
AcDbEntity
  8
0
  6
Continuous
 62
     7
100
AcDbCircle
 10
177.7831330775444
 20
91.64387231267105
 30
0.0
 40
0.9999999999999327
100
AcDbArc
 50
119.8784928643148
 51
212.5532673520554
  0
ARC
  5
108
330
47
100
AcDbEntity
  8
0
  6
Continuous
 62
     7
100
AcDbCircle
 10
174.2959969962813
 20
97.71345895022333
 30
0.0
 40
1.000000000000028
100
AcDbArc
 50
207.2037183765831
 51
299.8784928643231
  0
ARC
  5
109
330
47
100
AcDbEntity
  8
0
  6
Continuous
 62
     7
100
AcDbCircle
 10
241.0000000000031
 20
132.0001325024899
 30
0.0
 40
76.0000000000015
100
AcDbArc
 50
207.2037183765827
 51
212.5532673520535
  0
ARC
  5
10A
330
47
100
AcDbEntity
  8
0
  6
Continuous
 62
     7
100
AcDbCircle
 10
176.5577596266723
 20
96.7063185485211
 30
0.0
 40
0.9999999999999574
100
AcDbArc
 50
29.87849286431395
 51
119.878492864321
  0
ARC
  5
10B
330
47
100
AcDbEntity
  8
0
  6
Continuous
 62
     7
100
AcDbCircle
 10
241.0000000000011
 20
132.0001325024929
 30
0.0
 40
76.00000000000138
100
AcDbArc
 50
212.5532673520562
 51
214.1758284869654
  0
ARC
  5
10C
330
47
100
AcDbEntity
  8
0
  6
Continuous
 62
     7
100
AcDbCircle
 10
241.0000000000312
 20
132.0001325024485
 30
0.0
 40
76.00000000000138
100
AcDbArc
 50
214.1758284869249
 51
214.206828808777
  0
LINE
  5
10D
330
47
100
AcDbEntity
  8
0
  6
Continuous
 62
     7
100
AcDbLine
 10
166.8730470886864
 20
115.2312669450446
 30
0.0
 11
166.8755625564186
 21
115.2201511654211
 31
0.0
  0
ARC
  5
10E
330
47
100
AcDbEntity
  8
0
  6
Continuous
 62
     7
100
AcDbCircle
 10
241.0000000000031
 20
132.0001325024899
 30
0.0
 40
76.00000000000163
100
AcDbArc
 50
192.7553923765973
 51
203.3709892725737
  0
ARC
  5
10F
330
47
100
AcDbEntity
  8
0
  6
Continuous
 62
     7
100
AcDbCircle
 10
241.0000000000031
 20
132.0001325024899
 30
0.0
 40
76.00000000000146
100
AcDbArc
 50
203.3709892725737
 51
207.2037183765827
  0
ARC
  5
110
330
47
100
AcDbEntity
  8
0
  6
Continuous
 62
     7
100
AcDbCircle
 10
177.2679014364025
 20
101.1508322754724
 30
0.0
 40
2.500000000000005
100
AcDbArc
 50
29.87849286432037
 51
119.8784928643179
  0
ARC
  5
111
330
47
100
AcDbEntity
  8
0
  6
Continuous
 62
     7
100
AcDbCircle
 10
182.2495244096355
 20
92.47999422182632
 30
0.0
 40
2.499999999999986
100
AcDbArc
 50
299.8784928643176
 51
29.87849286431952
  0
ARC
  5
112
330
47
100
AcDbEntity
  8
0
  6
Continuous
 62
     7
100
AcDbCircle
 10
241.0000000000031
 20
132.0001325024899
 30
0.0
 40
75.99999999999872
100
AcDbArc
 50
34.20682880881597
 51
36.38599645606387
  0
ARC
  5
113
330
47
100
AcDbEntity
  8
0
  6
Continuous
 62
     7
100
AcDbCircle
 10
240.9999999999741
 20
132.0001325025326
 30
0.0
 40
75.99999999999856
100
AcDbArc
 50
34.17582848692495
 51
34.20682880877705
  0
ARC
  5
114
330
47
100
AcDbEntity
  8
0
  6
Continuous
 62
     7
100
AcDbCircle
 10
241.0000000000017
 20
132.0001325024901
 30
0.0
 40
75.99999999999964
100
AcDbArc
 50
53.37098927257379
 51
57.20371837658283
  0
ARC
  5
115
330
47
100
AcDbEntity
  8
0
  6
Continuous
 62
     7
100
AcDbCircle
 10
299.7504755903678
 20
171.5202707831528
 30
0.0
 40
2.499999999999948
100
AcDbArc
 50
119.8784928643181
 51
209.8784928643201
  0
ARC
  5
116
330
47
100
AcDbEntity
  8
0
  6
Continuous
 62
     7
100
AcDbCircle
 10
301.3779107205241
 20
176.4917934854718
 30
0.0
 40
0.9999999999999752
100
AcDbArc
 50
299.878492864319
 51
36.38599645606371
  0
ARC
  5
117
330
47
100
AcDbEntity
  8
0
  6
Continuous
 62
     7
100
AcDbCircle
 10
240.9999999999929
 20
132.0001325024947
 30
0.0
 40
75.99999999999932
100
AcDbArc
 50
64.65987474601806
 51
64.69087506786998
  0
ARC
  5
118
330
47
100
AcDbEntity
  8
0
  6
Continuous
 62
     7
100
AcDbCircle
 10
241.0000000000017
 20
132.0001325024901
 30
0.0
 40
75.99999999999964
100
AcDbArc
 50
62.55326735205376
 51
64.65987474602555
  0
ARC
  5
119
330
47
100
AcDbEntity
  8
0
  6
Continuous
 62
     7
100
AcDbCircle
 10
280.7689662790637
 20
190.5824594698592
 30
0.0
 40
2.500000000000129
100
AcDbArc
 50
239.8784928643162
 51
329.8784928643175
  0
ARC
  5
11A
330
47
100
AcDbEntity
  8
0
  6
Continuous
 62
     7
100
AcDbCircle
 10
281.6240243592038
 20
195.0452643118763
 30
0.0
 40
1.000000000000143
100
AcDbArc
 50
57.20371837658044
 51
149.8784928643053
  0
ARC
  5
11B
330
47
100
AcDbEntity
  8
0
  6
Continuous
 62
     7
100
AcDbCircle
 10
241.0000000000017
 20
132.0001325024901
 30
0.0
 40
75.99999999999966
100
AcDbArc
 50
57.20371837658283
 51
62.55326735205376
  0
ARC
  5
11C
330
47
100
AcDbEntity
  8
0
  6
Continuous
 62
     7
100
AcDbCircle
 10
279.1617102631038
 20
194.7865921697328
 30
0.0
 40
0.9999999999999303
100
AcDbArc
 50
239.8784928643151
 51
329.8784928643201
  0
ARC
  5
11D
330
47
100
AcDbEntity
  8
0
  6
Continuous
 62
     7
100
AcDbCircle
 10
285.7473468452341
 20
192.1887938126774
 30
0.0
 40
0.9999999999998377
100
AcDbArc
 50
53.37098927257455
 51
149.8784928643316
  0
ARC
  5
11E
330
47
100
AcDbEntity
  8
0
  6
Continuous
 62
     7
100
AcDbCircle
 10
275.5692826076005
 20
198.5581124898358
 30
0.0
 40
1.000000000000029
100
AcDbArc
 50
329.8784928643184
 51
62.55326735204955
  0
ARC
  5
11F
330
47
100
AcDbEntity
  8
0
  6
Continuous
 62
     7
100
AcDbCircle
 10
276.5668209409881
 20
196.2920985317154
 30
0.0
 40
1.000000000000029
100
AcDbArc
 50
149.8784928643184
 51
239.8784928643205
  0
ARC
  5
120
330
47
100
AcDbEntity
  8
0
  6
Continuous
 62
     7
100
AcDbCircle
 10
241.0000000000031
 20
132.0001325024899
 30
0.0
 40
75.99999999999872
100
AcDbArc
 50
36.38599645606387
 51
53.37098927257472
  0
ARC
  5
121
330
47
100
AcDbEntity
  8
0
  6
Continuous
 62
     7
100
AcDbCircle
 10
303.9477534813612
 20
169.8951978725519
 30
0.0
 40
1.00000000000013
100
AcDbArc
 50
119.8784928643214
 51
209.8784928643157
  0
ARC
  5
122
330
47
100
AcDbEntity
  8
0
  6
Continuous
 62
     7
100
AcDbCircle
 10
272.1193352053447
 20
195.600814009801
 30
0.0
 40
2.499999999999984
100
AcDbArc
 50
149.878492864318
 51
239.8784928643196
  0
ARC
  5
123
330
47
100
AcDbEntity
  8
0
  6
Continuous
 62
     7
100
AcDbCircle
 10
241.0000000000052
 20
132.0001325024913
 30
0.0
 40
76.00000000000081
100
AcDbArc
 50
124.1758284869662
 51
124.2068288088183
  0
ARC
  5
124
330
47
100
AcDbEntity
  8
0
  6
Continuous
 62
     7
100
AcDbCircle
 10
241.0000000000031
 20
132.0001325024899
 30
0.0
 40
76.00000000000077
100
AcDbArc
 50
124.2068288088164
 51
126.3859964560645
  0
ARC
  5
125
330
47
100
AcDbEntity
  8
0
  6
Continuous
 62
     7
100
AcDbCircle
 10
200.643739810183
 20
195.216999424947
 30
0.0
 40
0.9999999999999752
100
AcDbArc
 50
29.878492864319
 51
122.5532673520548
  0
ARC
  5
126
330
47
100
AcDbEntity
  8
0
  6
Continuous
 62
     7
100
AcDbCircle
 10
205.706186046033
 20
196.4423728758192
 30
0.0
 40
1.000000000000031
100
AcDbArc
 50
299.8784928643115
 51
29.8784928643196
  0
ARC
  5
127
330
47
100
AcDbEntity
  8
0
  6
Continuous
 62
     7
100
AcDbCircle
 10
203.1049346299391
 20
194.9478859838492
 30
0.0
 40
0.9999999999999752
100
AcDbArc
 50
209.878492864319
 51
299.8784928643271
  0
ARC
  5
128
330
47
100
AcDbEntity
  8
0
  6
Continuous
 62
     7
100
AcDbCircle
 10
201.4798617193383
 20
190.7506080928559
 30
0.0
 40
2.499999999999963
100
AcDbArc
 50
209.8784928643187
 51
299.8784928643183
  0
ARC
  5
129
330
47
100
AcDbEntity
  8
0
  6
Continuous
 62
     7
100
AcDbCircle
 10
241.0000000000017
 20
132.0001325024901
 30
0.0
 40
75.99999999999986
100
AcDbArc
 50
117.2037183765833
 51
122.5532673520541
  0
ARC
  5
12A
330
47
100
AcDbEntity
  8
0
  6
Continuous
 62
     7
100
AcDbCircle
 10
206.7133264477353
 20
198.7041355062101
 30
0.0
 40
1.000000000000047
100
AcDbArc
 50
117.2037183765853
 51
209.8784928643182
  0
ARC
  5
12B
330
47
100
AcDbEntity
  8
0
  6
Continuous
 62
     7
100
AcDbCircle
 10
241.0000000000031
 20
132.0001325024899
 30
0.0
 40
76.00000000000075
100
AcDbArc
 50
122.5532673520549
 51
124.1758284869643
  0
ARC
  5
12C
330
47
100
AcDbEntity
  8
0
  6
Continuous
 62
     7
100
AcDbCircle
 10
210.1506997729844
 20
195.7322310660888
 30
0.0
 40
2.499999999999948
100
AcDbArc
 50
299.8784928643181
 51
29.87849286432263
  0
ARC
  5
12D
330
47
100
AcDbEntity
  8
0
  6
Continuous
 62
     7
100
AcDbCircle
 10
170.3605265139952
 20
127.1499265855445
 30
0.0
 40
2.500000000000097
100
AcDbArc
 50
269.8784928643181
 51
359.8784928643181
  0
ARC
  5
12E
330
47
100
AcDbEntity
  8
0
  6
Continuous
 62
     7
100
AcDbCircle
 10
167.5444757829309
 20
133.6559132085758
 30
0.0
 40
0.9999999999999252
100
AcDbArc
 50
359.8784928643181
 51
89.87849286432463
  0
ARC
  5
12F
330
47
100
AcDbEntity
  8
0
  6
Continuous
 62
     7
100
AcDbCircle
 10
167.5381136889527
 20
130.6559199546234
 30
0.0
 40
1.000000000000039
100
AcDbArc
 50
269.8784928643198
 51
359.8784928643181
  0
ARC
  5
130
330
47
100
AcDbEntity
  8
0
  6
Continuous
 62
     7
100
AcDbCircle
 10
180.8113386898139
 20
176.7474793477221
 30
0.0
 40
0.9999999999999909
100
AcDbArc
 50
143.3709892725709
 51
239.8784928643176
  0
ARC
  5
131
330
47
100
AcDbEntity
  8
0
  6
Continuous
 62
     7
100
AcDbCircle
 10
241.0000000000017
 20
132.0001325024888
 30
0.0
 40
76.00000000000071
100
AcDbArc
 50
143.3709892725734
 51
147.2037183765825
  0
ARC
  5
132
330
47
100
AcDbEntity
  8
0
  6
Continuous
 62
     7
100
AcDbCircle
 10
182.417673032632
 20
171.7690987815517
 30
0.0
 40
2.500000000000057
100
AcDbArc
 50
329.878492864319
 51
59.87849286432071
  0
ARC
  5
133
330
47
100
AcDbEntity
  8
0
  6
Continuous
 62
     7
100
AcDbCircle
 10
176.7080339707757
 20
167.5669534434762
 30
0.0
 40
0.999999999999947
100
AcDbArc
 50
239.8784928643232
 51
329.8784928643209
  0
ARC
  5
134
330
47
100
AcDbEntity
  8
0
  6
Continuous
 62
     7
100
AcDbCircle
 10
177.9548681906147
 20
172.6241568616918
 30
0.0
 40
1.000000000000072
100
AcDbArc
 50
147.2037183765778
 51
239.8784928643176
  0
ARC
  5
135
330
47
100
AcDbEntity
  8
0
  6
Continuous
 62
     7
100
AcDbCircle
 10
174.4420200126554
 20
166.5694151100886
 30
0.0
 40
1.000000000000004
100
AcDbArc
 50
59.87849286431762
 51
152.5532673520583
  0
ARC
  5
136
330
47
100
AcDbEntity
  8
0
  6
Continuous
 62
     7
100
AcDbCircle
 10
241.0000000000031
 20
132.0001325024899
 30
0.0
 40
76.00000000000132
100
AcDbArc
 50
147.2037183765838
 51
152.5532673520546
  0
ARC
  5
137
330
47
100
AcDbEntity
  8
0
  6
Continuous
 62
     7
100
AcDbCircle
 10
178.2135403327583
 20
170.1618427655918
 30
0.0
 40
1.000000000000004
100
AcDbArc
 50
329.8784928643176
 51
59.87849286431762
  0
ARC
  5
138
330
47
100
AcDbEntity
  8
0
  6
Continuous
 62
     7
100
AcDbCircle
 10
241.0000000000031
 20
132.0001325024899
 30
0.0
 40
76.00000000000142
100
AcDbArc
 50
152.5532673520546
 51
154.6598747460263
  0
ARC
  5
139
330
47
100
AcDbEntity
  8
0
  6
Continuous
 62
     7
100
AcDbCircle
 10
240.9999999999801
 20
132.000132502441
 30
0.0
 40
76.00000000000145
100
AcDbArc
 50
154.6598747459856
 51
154.6908750678374
  0
ARC
  5
13A
330
47
100
AcDbEntity
  8
0
  6
Continuous
 62
     7
100
AcDbCircle
 10
196.5083390170193
 20
192.3780432230122
 30
0.0
 40
0.9999999999999999
100
AcDbArc
 50
29.87849286431819
 51
126.3859964560672
  0
ARC
  5
13B
330
47
100
AcDbEntity
  8
0
  6
Continuous
 62
     7
100
AcDbCircle
 10
241.0000000000031
 20
132.0001325024899
 30
0.0
 40
76.0000000000008
100
AcDbArc
 50
126.3859964560645
 51
143.3709892725747
  0
ARC
  5
13C
330
47
100
AcDbEntity
  8
0
  6
Continuous
 62
     7
100
AcDbCircle
 10
172.2801359719128
 20
162.0431065223998
 30
0.0
 40
0.9999999999999898
100
AcDbArc
 50
59.87849286431904
 51
156.3859964560643
  0
ARC
  5
13D
330
47
100
AcDbEntity
  8
0
  6
Continuous
 62
     7
100
AcDbCircle
 10
177.3993184926902
 20
163.1194677078327
 30
0.0
 40
2.499999999999998
100
AcDbArc
 50
239.8784928643175
 51
329.8784928643198
  0
ARC
  5
13E
330
47
100
AcDbEntity
  8
0
  6
Continuous
 62
     7
100
AcDbCircle
 10
170.3817334939224
 20
137.1499040987193
 30
0.0
 40
2.499999999999969
100
AcDbArc
 50
359.8784928643181
 51
89.87849286431876
  0
ARC
  5
13F
330
47
100
AcDbEntity
  8
0
  6
Continuous
 62
     7
100
AcDbCircle
 10
237.3411288056685
 20
57.08943459102136
 30
0.0
 40
1.000000000000021
100
AcDbArc
 50
267.2037183765775
 51
359.8784928643194
  0
ARC
  5
140
330
47
100
AcDbEntity
  8
0
  6
Continuous
 62
     7
100
AcDbCircle
 10
244.3411130648909
 20
57.07458970507241
 30
0.0
 40
1.000000000000096
100
AcDbArc
 50
179.8784928643206
 51
272.5532673520476
  0
ARC
  5
141
330
47
100
AcDbEntity
  8
0
  6
Continuous
 62
     7
100
AcDbCircle
 10
240.9999999999999
 20
132.00013250249
 30
0.0
 40
76.00000000000016
100
AcDbArc
 50
266.1199031685895
 51
267.2037183765846
  0
ARC
  5
142
330
47
100
AcDbEntity
  8
0
  6
Continuous
 62
     7
100
AcDbCircle
 10
241.0000000000017
 20
132.0001325024901
 30
0.0
 40
76.00000000000031
100
AcDbArc
 50
272.553267352054
 51
276.3859964560635
  0
LINE
  5
143
330
47
100
AcDbEntity
  8
0
  6
Continuous
 62
     7
100
AcDbLine
 10
235.8458069806556
 20
56.17510830652046
 30
0.0
 11
235.8571776470345
 21
56.17433624392201
 31
0.0
  0
ARC
  5
144
330
47
100
AcDbEntity
  8
0
  6
Continuous
 62
     7
100
AcDbCircle
 10
241.0000000000017
 20
132.0001325024901
 30
0.0
 40
76.00000000000034
100
AcDbArc
 50
267.2037183765833
 51
272.553267352054
  0
ARC
  5
145
330
47
100
AcDbEntity
  8
0
  6
Continuous
 62
     7
100
AcDbCircle
 10
241.0000000000031
 20
132.0001325024899
 30
0.0
 40
76.0000000000003
100
AcDbArc
 50
263.370989272573
 51
266.1113111782425
  0
ARC
  5
146
330
47
100
AcDbEntity
  8
0
  6
Continuous
 62
     7
100
AcDbCircle
 10
241.0000000000017
 20
132.0001325024901
 30
0.0
 40
76.00000000000038
100
AcDbArc
 50
244.690875067877
 51
246.3859964560636
  0
ARC
  5
147
330
47
100
AcDbEntity
  8
0
  6
Continuous
 62
     7
100
AcDbCircle
 10
241.0000000000017
 20
132.0001325024901
 30
0.0
 40
76.00000000000036
100
AcDbArc
 50
246.3859964560636
 51
263.3709892725741
  0
ARC
  5
148
330
47
100
AcDbEntity
  8
0
  6
Continuous
 62
     7
100
AcDbCircle
 10
232.341991535171
 20
57.50154936547354
 30
0.0
 40
1.00000000000001
100
AcDbArc
 50
263.370989272576
 51
359.8784928643173
  0
ARC
  5
149
330
47
100
AcDbEntity
  8
0
  6
Continuous
 62
     7
100
AcDbCircle
 10
239.3442192939157
 20
58.5446082854191
 30
0.0
 40
0.9999999999999822
100
AcDbArc
 50
89.87849286431323
 51
179.8784928643193
  0
ARC
  5
14A
330
47
100
AcDbEntity
  8
0
  6
Continuous
 62
     7
100
AcDbCircle
 10
235.8502284037723
 20
61.38186599641063
 30
0.0
 40
2.499999999999976
100
AcDbArc
 50
89.8784928643181
 51
179.8784928643199
  0
ARC
  5
14B
330
47
100
AcDbEntity
  8
0
  6
Continuous
 62
     7
100
AcDbCircle
 10
210.9570259800917
 20
63.2802684744009
 30
0.0
 40
0.9999999999998843
100
AcDbArc
 50
149.8784928643165
 51
246.3859964560667
  0
ARC
  5
14C
330
47
100
AcDbEntity
  8
0
  6
Continuous
 62
     7
100
AcDbCircle
 10
242.3442125478682
 20
58.53824619144092
 30
0.0
 40
1.00000000000001
100
AcDbArc
 50
359.8784928643202
 51
89.87849286431975
  0
ARC
  5
14D
330
47
100
AcDbEntity
  8
0
  6
Continuous
 62
     7
100
AcDbCircle
 10
245.8502059169471
 20
61.36065901648352
 30
0.0
 40
2.499999999999997
100
AcDbArc
 50
359.8784928643192
 51
89.87849286432008
  0
ARC
  5
14E
330
47
100
AcDbEntity
  8
0
  6
Continuous
 62
     7
100
AcDbCircle
 10
249.3419533075683
 20
57.46549749959745
 30
0.0
 40
1.00000000000001
100
AcDbArc
 50
179.8784928643165
 51
276.3859964560583
  0
LINE
  5
14F
330
47
100
AcDbEntity
  8
0
  6
Continuous
 62
     7
100
AcDbLine
 10
257.768865557447
 20
57.87317959117468
 30
0.0
 11
257.7799813370704
 21
57.87569505890696
 31
0.0
  0
ARC
  5
150
330
47
100
AcDbEntity
  8
0
  6
Continuous
 62
     7
100
AcDbCircle
 10
241.0000000000017
 20
132.0001325024901
 30
0.0
 40
76.00000000000027
100
AcDbArc
 50
276.3859964560635
 51
282.7468003862532
  0
ARC
  5
151
330
47
100
AcDbEntity
  8
0
  6
Continuous
 62
     7
100
AcDbCircle
 10
270.7512362917849
 20
63.15346272747111
 30
0.0
 40
1.000000000000039
100
AcDbArc
 50
293.3709892725733
 51
29.87849286431759
  0
ARC
  5
152
330
47
100
AcDbEntity
  8
0
  6
Continuous
 62
     7
100
AcDbCircle
 10
241.0000000000017
 20
132.0001325024888
 30
0.0
 40
75.99999999999906
100
AcDbArc
 50
293.3709892725737
 51
297.2037183765837
  0
ARC
  5
153
330
47
100
AcDbEntity
  8
0
  6
Continuous
 62
     7
100
AcDbCircle
 10
241.0000000000017
 20
132.0001325024901
 30
0.0
 40
76.00000000000028
100
AcDbArc
 50
282.7553923765975
 51
293.3709892725733
  0
ARC
  5
154
330
47
100
AcDbEntity
  8
0
  6
Continuous
 62
     7
100
AcDbCircle
 10
275.2866735522683
 20
65.29612949876972
 30
0.0
 40
0.999999999999957
100
AcDbArc
 50
297.2037183765806
 51
29.87849286432041
  0
ARC
  5
155
330
47
100
AcDbEntity
  8
0
  6
Continuous
 62
     7
100
AcDbCircle
 10
241.0000000000031
 20
132.0001325024899
 30
0.0
 40
75.99999999999939
100
AcDbArc
 50
297.2037183765824
 51
302.5532673520533
  0
ARC
  5
156
330
47
100
AcDbEntity
  8
0
  6
Continuous
 62
     7
100
AcDbCircle
 10
278.8950653700644
 20
69.05237902113059
 30
0.0
 40
0.999999999999954
100
AcDbArc
 50
29.87849286431688
 51
119.8784928643194
  0
ARC
  5
157
330
47
100
AcDbEntity
  8
0
  6
Continuous
 62
     7
100
AcDbCircle
 10
209.8806647946588
 20
68.39945099517831
 30
0.0
 40
2.499999999999945
100
AcDbArc
 50
329.8784928643183
 51
59.87849286431796
  0
ARC
  5
158
330
47
100
AcDbEntity
  8
0
  6
Continuous
 62
     7
100
AcDbCircle
 10
281.3562601898205
 20
68.7832655800328
 30
0.0
 40
0.9999999999999752
100
AcDbArc
 50
209.878492864319
 51
302.553267352062
  0
ARC
  5
159
330
47
100
AcDbEntity
  8
0
  6
Continuous
 62
     7
100
AcDbCircle
 10
276.2938139539706
 20
67.55789212916062
 30
0.0
 40
1.000000000000024
100
AcDbArc
 50
119.8784928643174
 51
209.8784928643151
  0
ARC
  5
15A
330
47
100
AcDbEntity
  8
0
  6
Continuous
 62
     7
100
AcDbCircle
 10
271.8493002270182
 20
68.26803393889044
 30
0.0
 40
2.499999999999986
100
AcDbArc
 50
119.8784928643176
 51
209.8784928643183
  0
ARC
  5
15B
330
47
100
AcDbEntity
  8
0
  6
Continuous
 62
     7
100
AcDbCircle
 10
241.0000000000148
 20
132.0001325024843
 30
0.0
 40
76.00000000000078
100
AcDbArc
 50
244.6598747460143
 51
244.6908750678662
  0
ARC
  5
15C
330
47
100
AcDbEntity
  8
0
  6
Continuous
 62
     7
100
AcDbCircle
 10
240.9999999999718
 20
132.0001325024686
 30
0.0
 40
75.99999999999923
100
AcDbArc
 50
304.1758284869908
 51
304.2068288088429
  0
ARC
  5
15D
330
47
100
AcDbEntity
  8
0
  6
Continuous
 62
     7
100
AcDbCircle
 10
280.5201382806644
 20
73.24965691212293
 30
0.0
 40
2.500000000000136
100
AcDbArc
 50
29.87849286432691
 51
119.8784928643153
  0
ARC
  5
15E
330
47
100
AcDbEntity
  8
0
  6
Continuous
 62
     7
100
AcDbCircle
 10
241.0000000000031
 20
132.0001325024899
 30
0.0
 40
75.99999999999929
100
AcDbArc
 50
302.5532673520533
 51
304.1758284869622
  0
ARC
  5
15F
330
47
100
AcDbEntity
  8
0
  6
Continuous
 62
     7
100
AcDbCircle
 10
196.2526531547695
 20
71.81147119230198
 30
0.0
 40
1.000000000000025
100
AcDbArc
 50
233.3709892725724
 51
329.8784928643159
  0
ARC
  5
160
330
47
100
AcDbEntity
  8
0
  6
Continuous
 62
     7
100
AcDbCircle
 10
241.0000000000017
 20
132.0001325024901
 30
0.0
 40
76.00000000000034
100
AcDbArc
 50
233.3709892725743
 51
237.2037183765834
  0
ARC
  5
161
330
47
100
AcDbEntity
  8
0
  6
Continuous
 62
     7
100
AcDbCircle
 10
202.8382897368998
 20
69.21367283524638
 30
0.0
 40
0.9999999999999145
100
AcDbArc
 50
59.87849286432971
 51
149.8784928643202
  0
ARC
  5
162
330
47
100
AcDbEntity
  8
0
  6
Continuous
 62
     7
100
AcDbCircle
 10
201.2310337209398
 20
73.41780553512012
 30
0.0
 40
2.500000000000022
100
AcDbArc
 50
59.87849286431779
 51
149.8784928643183
  0
ARC
  5
163
330
47
100
AcDbEntity
  8
0
  6
Continuous
 62
     7
100
AcDbCircle
 10
180.6220892794793
 20
87.50847151950731
 30
0.0
 40
0.9999999999999999
100
AcDbArc
 50
119.8784928643182
 51
216.3859964560621
  0
ARC
  5
164
330
47
100
AcDbEntity
  8
0
  6
Continuous
 62
     7
100
AcDbCircle
 10
241.0000000000031
 20
132.0001325024899
 30
0.0
 40
76.00000000000139
100
AcDbArc
 50
214.2068288088148
 51
216.385996456063
  0
ARC
  5
165
330
47
100
AcDbEntity
  8
0
  6
Continuous
 62
     7
100
AcDbCircle
 10
205.4331790590153
 20
67.70816647326384
 30
0.0
 40
1.000000000000088
100
AcDbArc
 50
329.8784928643223
 51
59.87849286431282
  0
ARC
  5
166
330
47
100
AcDbEntity
  8
0
  6
Continuous
 62
     7
100
AcDbCircle
 10
206.430717392403
 20
65.44215251514353
 30
0.0
 40
1.000000000000022
100
AcDbArc
 50
149.8784928643192
 51
242.5532673520489
  0
ARC
  5
167
330
47
100
AcDbEntity
  8
0
  6
Continuous
 62
     7
100
AcDbCircle
 10
241.0000000000031
 20
132.0001325024899
 30
0.0
 40
76.00000000000087
100
AcDbArc
 50
242.5532673520531
 51
244.659874746024
  0
ARC
  5
168
330
47
100
AcDbEntity
  8
0
  6
Continuous
 62
     7
100
AcDbCircle
 10
200.3759756407997
 20
68.95500069310283
 30
0.0
 40
0.9999999999999999
100
AcDbArc
 50
237.2037183765887
 51
329.878492864319
  0
ARC
  5
169
330
47
100
AcDbEntity
  8
0
  6
Continuous
 62
     7
100
AcDbCircle
 10
241.0000000000031
 20
132.0001325024899
 30
0.0
 40
76.00000000000092
100
AcDbArc
 50
237.2037183765825
 51
242.5532673520531
  0
ARC
  5
16A
330
47
100
AcDbEntity
  8
0
  6
Continuous
 62
     7
100
AcDbCircle
 10
241.0000000000031
 20
132.0001325024899
 30
0.0
 40
76.00000000000134
100
AcDbArc
 50
216.385996456063
 51
233.3709892725733
  0
ARC
  5
16B
330
47
100
AcDbEntity
  8
0
  6
Continuous
 62
     7
100
AcDbCircle
 10
241.000000000003
 20
132.0001325024912
 30
0.0
 40
76.00000000000156
100
AcDbArc
 50
182.553267352055
 51
186.3859964560645
  0
ARC
  5
16C
330
47
100
AcDbEntity
  8
0
  6
Continuous
 62
     7
100
AcDbCircle
 10
241.0000000000031
 20
132.0001325024899
 30
0.0
 40
76.00000000000155
100
AcDbArc
 50
173.3709892725743
 51
176.1113111782437
  0
LINE
  5
16D
330
47
100
AcDbEntity
  8
0
  6
Continuous
 62
     7
100
AcDbLine
 10
165.1749758040323
 20
137.154325521836
 30
0.0
 11
165.1742037414338
 21
137.1429548554571
 31
0.0
  0
ARC
  5
16E
330
47
100
AcDbEntity
  8
0
  6
Continuous
 62
     7
100
AcDbCircle
 10
241.000000000003
 20
132.0001325024885
 30
0.0
 40
76.0000000000016
100
AcDbArc
 50
176.1199031685871
 51
177.2037183765823
  0
CIRCLE
  5
16F
330
47
100
AcDbEntity
  8
0
  6
Continuous
 62
     7
100
AcDbCircle
 10
241.0000000000031
 20
132.0001325024899
 30
0.0
 40
78.49999999999994
  0
CIRCLE
  5
170
330
47
100
AcDbEntity
  8
0
  6
Continuous
 62
     3
100
AcDbCircle
 10
241.0000000000031
 20
132.0001325024899
 30
0.0
 40
77.00000000000007
  0
ENDBLK
  5
49
330
47
100
AcDbEntity
  8
0
100
AcDbBlockEnd
  0
BLOCK
  5
4B
330
4A
100
AcDbEntity
  8
0
100
AcDbBlockBegin
  2
HL084_5E-Vlieskaschierte-Folie__2
 70
     0
 10
-8.99999999999835
 20
-117.9998674975101
 30
0.0
  3
HL084_5E-Vlieskaschierte-Folie__2
  1

  0
LINE
  5
171
330
4A
100
AcDbEntity
  8
0
  6
Continuous
 62
     7
100
AcDbLine
 10
491.0000000000014
 20
382.00013250249
 30
0.0
 11
491.0000000000014
 21
-117.9998674975101
 31
0.0
  0
LINE
  5
172
330
4A
100
AcDbEntity
  8
0
  6
Continuous
 62
     7
100
AcDbLine
 10
491.0000000000014
 20
-117.9998674975101
 30
0.0
 11
-8.99999999999835
 21
-117.9998674975101
 31
0.0
  0
LINE
  5
173
330
4A
100
AcDbEntity
  8
0
  6
Continuous
 62
     7
100
AcDbLine
 10
-8.99999999999835
 20
-117.9998674975101
 30
0.0
 11
-8.99999999999835
 21
382.00013250249
 31
0.0
  0
LINE
  5
174
330
4A
100
AcDbEntity
  8
0
  6
Continuous
 62
     7
100
AcDbLine
 10
-8.99999999999835
 20
382.00013250249
 30
0.0
 11
491.0000000000014
 21
382.00013250249
 31
0.0
  0
CIRCLE
  5
175
330
4A
100
AcDbEntity
  8
0
  6
Continuous
 62
     7
100
AcDbCircle
 10
241.0000000000017
 20
132.00013250249
 30
0.0
 40
66.00000000000009
  0
ENDBLK
  5
4C
330
4A
100
AcDbEntity
  8
0
100
AcDbBlockEnd
  0
BLOCK
  5
4E
330
4D
100
AcDbEntity
  8
0
100
AcDbBlockBegin
  2
HL084_2E_Edelstahlflansch__3
 70
     0
 10
131.0010001000215
 20
22.0011326025097
 30
0.0
  3
HL084_2E_Edelstahlflansch__3
  1

  0
LINE
  5
176
330
4D
100
AcDbEntity
  8
1
  6
DOT_CENTER
 62
     2
100
AcDbLine
 10
501.321030563118
 20
132.0001325024898
 30
0.0
 11
-24.44593930527418
 21
132.0001325024898
 31
0.0
  0
LINE
  5
177
330
4D
100
AcDbEntity
  8
1
  6
DOT_CENTER
 62
     2
100
AcDbLine
 10
241.0000000000015
 20
392.080252101471
 30
0.0
 11
241.0000000000015
 21
-128.941528508181
 31
0.0
  0
ARC
  5
178
330
4D
100
AcDbEntity
  8
0
  6
Continuous
 62
     7
100
AcDbCircle
 10
241.0000000000015
 20
132.0001325024898
 30
0.0
 40
74.80000000000008
100
AcDbArc
 50
65.6330604547943
 51
84.12392527384296
  0
ARC
  5
179
330
4D
100
AcDbEntity
  8
0
  6
Continuous
 62
     7
100
AcDbCircle
 10
241.0000000000015
 20
132.0001325024898
 30
0.0
 40
75.99999999999996
100
AcDbArc
 50
327.2037183765835
 51
332.5532673520543
  0
ARC
  5
17A
330
4D
100
AcDbEntity
  8
0
  6
Continuous
 62
     7
100
AcDbCircle
 10
241.0000000000015
 20
132.0001325024898
 30
0.0
 40
76.00000000000007
100
AcDbArc
 50
304.2068288088154
 51
306.385996456063
  0
ARC
  5
17B
330
4D
100
AcDbEntity
  8
0
  6
Continuous
 62
     7
100
AcDbCircle
 10
241.0000000000015
 20
132.0001325024898
 30
0.0
 40
76.00000000000006
100
AcDbArc
 50
332.5532673520543
 51
334.6598747460253
  0
ARC
  5
17C
330
4D
100
AcDbEntity
  8
0
  6
Continuous
 62
     7
100
AcDbCircle
 10
241.0000000000002
 20
132.0001325024879
 30
0.0
 40
76.00000000000007
100
AcDbArc
 50
323.3709892725754
 51
327.2037183765852
  0
ARC
  5
17D
330
4D
100
AcDbEntity
  8
0
  6
Continuous
 62
     7
100
AcDbCircle
 10
241.0000000000015
 20
132.0001325024898
 30
0.0
 40
76.00000000000004
100
AcDbArc
 50
306.385996456063
 51
323.3709892725736
  0
ARC
  5
17E
330
4D
100
AcDbEntity
  8
0
  6
Continuous
 62
     7
100
AcDbCircle
 10
241.0000000000015
 20
132.0001325024898
 30
0.0
 40
74.80000000000004
100
AcDbArc
 50
305.6330604547936
 51
324.1239252738427
  0
ARC
  5
17F
330
4D
100
AcDbEntity
  8
0
  6
Continuous
 62
     7
100
AcDbCircle
 10
241.0000000000015
 20
132.0001325024898
 30
0.0
 40
76.00000000000016
100
AcDbArc
 50
353.3709892725737
 51
356.1113111782431
  0
ARC
  5
180
330
4D
100
AcDbEntity
  8
0
  6
Continuous
 62
     7
100
AcDbCircle
 10
241.0000000000097
 20
132.000132502507
 30
0.0
 40
76.0
100
AcDbArc
 50
334.659874746011
 51
334.6908750678629
  0
ARC
  5
181
330
4D
100
AcDbEntity
  8
0
  6
Continuous
 62
     7
100
AcDbCircle
 10
241.0000000000021
 20
132.0001325024911
 30
0.0
 40
76.00000000000007
100
AcDbArc
 50
334.6908750678761
 51
336.3859964560619
  0
ARC
  5
182
330
4D
100
AcDbEntity
  8
0
  6
Continuous
 62
     7
100
AcDbCircle
 10
241.0000000000015
 20
132.0001325024898
 30
0.0
 40
74.80000000000008
100
AcDbArc
 50
335.6330604547939
 51
354.1239252738428
  0
ARC
  5
183
330
4D
100
AcDbEntity
  8
0
  6
Continuous
 62
     7
100
AcDbCircle
 10
241.0000000000015
 20
132.0001325024898
 30
0.0
 40
74.80000000000008
100
AcDbArc
 50
5.63306045479394
 51
24.12392527384285
  0
ARC
  5
184
330
4D
100
AcDbEntity
  8
0
  6
Continuous
 62
     7
100
AcDbCircle
 10
241.0000000000015
 20
132.0001325024898
 30
0.0
 40
76.00000000000003
100
AcDbArc
 50
2.55326735205444
 51
6.38599645606309
  0
ARC
  5
185
330
4D
100
AcDbEntity
  8
0
  6
Continuous
 62
     7
100
AcDbCircle
 10
241.0000000000014
 20
132.0001325024876
 30
0.0
 40
76.00000000000011
100
AcDbArc
 50
356.1199031685892
 51
357.2037183765853
  0
LINE
  5
186
330
4D
100
AcDbEntity
  8
0
  6
Continuous
 62
     7
100
AcDbLine
 10
316.8250241959708
 20
126.845939483143
 30
0.0
 11
316.8257962585693
 21
126.8573101495219
 31
0.0
  0
ARC
  5
187
330
4D
100
AcDbEntity
  8
0
  6
Continuous
 62
     7
100
AcDbCircle
 10
241.0000000000015
 20
132.0001325024898
 30
0.0
 40
75.99999999999999
100
AcDbArc
 50
357.2037183765836
 51
2.55326735205444
  0
LINE
  5
188
330
4D
100
AcDbEntity
  8
0
  6
Continuous
 62
     7
100
AcDbLine
 10
315.1269529113168
 20
148.7689980599344
 30
0.0
 11
315.1244374435846
 21
148.7801138395579
 31
0.0
  0
ARC
  5
189
330
4D
100
AcDbEntity
  8
0
  6
Continuous
 62
     7
100
AcDbCircle
 10
241.0000000000015
 20
132.0001325024898
 30
0.0
 40
76.00000000000013
100
AcDbArc
 50
6.38599645606309
 51
12.74680038625276
  0
ARC
  5
18A
330
4D
100
AcDbEntity
  8
0
  6
Continuous
 62
     7
100
AcDbCircle
 10
241.0000000000015
 20
132.0001325024898
 30
0.0
 40
76.00000000000003
100
AcDbArc
 50
27.20371837658288
 51
32.55326735205369
  0
ARC
  5
18B
330
4D
100
AcDbEntity
  8
0
  6
Continuous
 62
     7
100
AcDbCircle
 10
241.0000000000015
 20
132.0001325024898
 30
0.0
 40
76.0
100
AcDbArc
 50
32.55326735205369
 51
34.17582848696325
  0
ARC
  5
18C
330
4D
100
AcDbEntity
  8
0
  6
Continuous
 62
     7
100
AcDbCircle
 10
241.0000000000015
 20
132.0001325024898
 30
0.0
 40
76.00000000000013
100
AcDbArc
 50
12.75539237659707
 51
23.3709892725737
  0
ARC
  5
18D
330
4D
100
AcDbEntity
  8
0
  6
Continuous
 62
     7
100
AcDbCircle
 10
241.0000000000015
 20
132.0001325024898
 30
0.0
 40
76.00000000000006
100
AcDbArc
 50
23.3709892725737
 51
27.20371837658288
  0
ARC
  5
18E
330
4D
100
AcDbEntity
  8
0
  6
Continuous
 62
     7
100
AcDbCircle
 10
241.0000000000002
 20
132.0001325024879
 30
0.0
 40
75.99999999999962
100
AcDbArc
 50
154.6908750678759
 51
156.3859964560618
  0
ARC
  5
18F
330
4D
100
AcDbEntity
  8
0
  6
Continuous
 62
     7
100
AcDbCircle
 10
241.0000000000015
 20
132.0001325024898
 30
0.0
 40
76.00000000000004
100
AcDbArc
 50
177.2037183765833
 51
182.5532673520541
  0
ARC
  5
190
330
4D
100
AcDbEntity
  8
0
  6
Continuous
 62
     7
100
AcDbCircle
 10
241.0000000000015
 20
132.0001325024898
 30
0.0
 40
76.0
100
AcDbArc
 50
186.3859964560636
 51
192.7468003862533
  0
ARC
  5
191
330
4D
100
AcDbEntity
  8
0
  6
Continuous
 62
     7
100
AcDbCircle
 10
241.0000000000015
 20
132.0001325024898
 30
0.0
 40
76.00000000000007
100
AcDbArc
 50
156.3859964560635
 51
173.3709892725741
  0
ARC
  5
192
330
4D
100
AcDbEntity
  8
0
  6
Continuous
 62
     7
100
AcDbCircle
 10
241.0000000000015
 20
132.0001325024898
 30
0.0
 40
76.0000000000001
100
AcDbArc
 50
336.3859964560631
 51
353.3709892725737
  0
ARC
  5
193
330
4D
100
AcDbEntity
  8
0
  6
Continuous
 62
     7
100
AcDbCircle
 10
241.0000000000015
 20
132.0001325024898
 30
0.0
 40
76.00000000000001
100
AcDbArc
 50
83.37098927257387
 51
86.1113111782433
  0
ARC
  5
194
330
4D
100
AcDbEntity
  8
0
  6
Continuous
 62
     7
100
AcDbCircle
 10
241.0000000000015
 20
132.0001325024898
 30
0.0
 40
75.99999999999996
100
AcDbArc
 50
64.69087506787743
 51
66.3859964560632
  0
ARC
  5
195
330
4D
100
AcDbEntity
  8
0
  6
Continuous
 62
     7
100
AcDbCircle
 10
241.0000000000015
 20
132.0001325024898
 30
0.0
 40
75.99999999999999
100
AcDbArc
 50
92.55326735205384
 51
96.38599645606334
  0
ARC
  5
196
330
4D
100
AcDbEntity
  8
0
  6
Continuous
 62
     7
100
AcDbCircle
 10
241.0000000000015
 20
132.0001325024898
 30
0.0
 40
75.99999999999996
100
AcDbArc
 50
96.38599645606334
 51
102.7468003862529
  0
LINE
  5
197
330
4D
100
AcDbEntity
  8
0
  6
Continuous
 62
     7
100
AcDbLine
 10
246.154193019348
 20
207.825156698459
 30
0.0
 11
246.1428223529691
 21
207.8259287610575
 31
0.0
  0
ARC
  5
198
330
4D
100
AcDbEntity
  8
0
  6
Continuous
 62
     7
100
AcDbCircle
 10
241.0000000000015
 20
132.0001325024898
 30
0.0
 40
76.00000000000001
100
AcDbArc
 50
86.11990316858784
 51
87.203718376583
  0
ARC
  5
199
330
4D
100
AcDbEntity
  8
0
  6
Continuous
 62
     7
100
AcDbCircle
 10
241.0000000000015
 20
132.0001325024898
 30
0.0
 40
75.99999999999997
100
AcDbArc
 50
87.203718376583
 51
92.55326735205384
  0
LINE
  5
19A
330
4D
100
AcDbEntity
  8
0
  6
Continuous
 62
     7
100
AcDbLine
 10
224.2311344425567
 20
206.127085413805
 30
0.0
 11
224.2200186629331
 21
206.1245699460727
 31
0.0
  0
ARC
  5
19B
330
4D
100
AcDbEntity
  8
0
  6
Continuous
 62
     7
100
AcDbCircle
 10
241.0000000000015
 20
132.0001325024898
 30
0.0
 40
74.8
100
AcDbArc
 50
95.6330604547942
 51
114.1239252738431
  0
ARC
  5
19C
330
4D
100
AcDbEntity
  8
0
  6
Continuous
 62
     7
100
AcDbCircle
 10
241.0000000000015
 20
132.0001325024898
 30
0.0
 40
76.00000000000003
100
AcDbArc
 50
66.3859964560632
 51
83.37098927257387
  0
ARC
  5
19D
330
4D
100
AcDbEntity
  8
0
  6
Continuous
 62
     7
100
AcDbCircle
 10
241.0000000000015
 20
132.0001325024898
 30
0.0
 40
75.99999999999993
100
AcDbArc
 50
113.3709892725739
 51
117.2037183765831
  0
ARC
  5
19E
330
4D
100
AcDbEntity
  8
0
  6
Continuous
 62
     7
100
AcDbCircle
 10
241.0000000000015
 20
132.0001325024898
 30
0.0
 40
76.0
100
AcDbArc
 50
102.7553923765973
 51
113.3709892725739
  0
ARC
  5
19F
330
4D
100
AcDbEntity
  8
0
  6
Continuous
 62
     7
100
AcDbCircle
 10
241.0000000000015
 20
132.0001325024898
 30
0.0
 40
76.00000000000004
100
AcDbArc
 50
207.2037183765832
 51
212.5532673520541
  0
ARC
  5
1A0
330
4D
100
AcDbEntity
  8
0
  6
Continuous
 62
     7
100
AcDbCircle
 10
240.9999999999999
 20
132.0001325024922
 30
0.0
 40
75.99999999999996
100
AcDbArc
 50
212.5532673520563
 51
214.1758284869655
  0
ARC
  5
1A1
330
4D
100
AcDbEntity
  8
0
  6
Continuous
 62
     7
100
AcDbCircle
 10
241.0000000000301
 20
132.0001325024477
 30
0.0
 40
76.00000000000001
100
AcDbArc
 50
214.1758284869249
 51
214.206828808777
  0
LINE
  5
1A2
330
4D
100
AcDbEntity
  8
0
  6
Continuous
 62
     7
100
AcDbLine
 10
166.8730470886864
 20
115.2312669450446
 30
0.0
 11
166.8755625564186
 21
115.2201511654211
 31
0.0
  0
ARC
  5
1A3
330
4D
100
AcDbEntity
  8
0
  6
Continuous
 62
     7
100
AcDbCircle
 10
241.0000000000015
 20
132.0001325024898
 30
0.0
 40
76.00000000000006
100
AcDbArc
 50
192.7553923765975
 51
203.3709892725741
  0
ARC
  5
1A4
330
4D
100
AcDbEntity
  8
0
  6
Continuous
 62
     7
100
AcDbCircle
 10
241.0000000000014
 20
132.0001325024876
 30
0.0
 40
75.99999999999899
100
AcDbArc
 50
203.3709892725726
 51
207.2037183765818
  0
ARC
  5
1A5
330
4D
100
AcDbEntity
  8
0
  6
Continuous
 62
     7
100
AcDbCircle
 10
241.0000000000015
 20
132.0001325024898
 30
0.0
 40
74.79999999999994
100
AcDbArc
 50
185.6330604547944
 51
204.1239252738433
  0
ARC
  5
1A6
330
4D
100
AcDbEntity
  8
0
  6
Continuous
 62
     7
100
AcDbCircle
 10
241.0000000000015
 20
132.0001325024898
 30
0.0
 40
74.79999999999994
100
AcDbArc
 50
155.6330604547942
 51
174.1239252738432
  0
ARC
  5
1A7
330
4D
100
AcDbEntity
  8
0
  6
Continuous
 62
     7
100
AcDbCircle
 10
241.0000000000015
 20
132.0001325024898
 30
0.0
 40
76.00000000000009
100
AcDbArc
 50
34.20682880881535
 51
36.38599645606321
  0
ARC
  5
1A8
330
4D
100
AcDbEntity
  8
0
  6
Continuous
 62
     7
100
AcDbCircle
 10
240.999999999973
 20
132.0001325025318
 30
0.0
 40
75.99999999999993
100
AcDbArc
 50
34.17582848692498
 51
34.20682880877708
  0
ARC
  5
1A9
330
4D
100
AcDbEntity
  8
0
  6
Continuous
 62
     7
100
AcDbCircle
 10
241.0000000000015
 20
132.0001325024898
 30
0.0
 40
75.99999999999999
100
AcDbArc
 50
53.37098927257379
 51
57.20371837658283
  0
ARC
  5
1AA
330
4D
100
AcDbEntity
  8
0
  6
Continuous
 62
     7
100
AcDbCircle
 10
240.9999999999926
 20
132.000132502494
 30
0.0
 40
76.00000000000004
100
AcDbArc
 50
64.65987474601809
 51
64.69087506787
  0
ARC
  5
1AB
330
4D
100
AcDbEntity
  8
0
  6
Continuous
 62
     7
100
AcDbCircle
 10
241.0000000000015
 20
132.0001325024898
 30
0.0
 40
75.99999999999999
100
AcDbArc
 50
62.55326735205372
 51
64.65987474602551
  0
ARC
  5
1AC
330
4D
100
AcDbEntity
  8
0
  6
Continuous
 62
     7
100
AcDbCircle
 10
241.0000000000015
 20
132.0001325024898
 30
0.0
 40
76.00000000000001
100
AcDbArc
 50
57.20371837658283
 51
62.55326735205372
  0
ARC
  5
1AD
330
4D
100
AcDbEntity
  8
0
  6
Continuous
 62
     7
100
AcDbCircle
 10
241.0000000000015
 20
132.0001325024898
 30
0.0
 40
76.00000000000006
100
AcDbArc
 50
36.38599645606321
 51
53.37098927257379
  0
ARC
  5
1AE
330
4D
100
AcDbEntity
  8
0
  6
Continuous
 62
     7
100
AcDbCircle
 10
241.0000000000047
 20
132.000132502492
 30
0.0
 40
75.99999999999996
100
AcDbArc
 50
124.1758284869662
 51
124.2068288088182
  0
ARC
  5
1AF
330
4D
100
AcDbEntity
  8
0
  6
Continuous
 62
     7
100
AcDbCircle
 10
241.0000000000015
 20
132.0001325024898
 30
0.0
 40
75.99999999999994
100
AcDbArc
 50
124.2068288088153
 51
126.3859964560635
  0
ARC
  5
1B0
330
4D
100
AcDbEntity
  8
0
  6
Continuous
 62
     7
100
AcDbCircle
 10
241.0000000000015
 20
132.0001325024898
 30
0.0
 40
76.00000000000001
100
AcDbArc
 50
117.2037183765831
 51
122.5532673520539
  0
ARC
  5
1B1
330
4D
100
AcDbEntity
  8
0
  6
Continuous
 62
     7
100
AcDbCircle
 10
241.0000000000015
 20
132.0001325024898
 30
0.0
 40
75.99999999999997
100
AcDbArc
 50
122.5532673520539
 51
124.1758284869633
  0
ARC
  5
1B2
330
4D
100
AcDbEntity
  8
0
  6
Continuous
 62
     7
100
AcDbCircle
 10
241.0000000000015
 20
132.0001325024898
 30
0.0
 40
75.99999999999996
100
AcDbArc
 50
143.370989272574
 51
147.2037183765831
  0
ARC
  5
1B3
330
4D
100
AcDbEntity
  8
0
  6
Continuous
 62
     7
100
AcDbCircle
 10
241.0000000000015
 20
132.0001325024898
 30
0.0
 40
76.00000000000004
100
AcDbArc
 50
147.2037183765831
 51
152.553267352054
  0
ARC
  5
1B4
330
4D
100
AcDbEntity
  8
0
  6
Continuous
 62
     7
100
AcDbCircle
 10
241.0000000000021
 20
132.0001325024911
 30
0.0
 40
75.99999999999999
100
AcDbArc
 50
152.5532673520551
 51
154.6598747460268
  0
ARC
  5
1B5
330
4D
100
AcDbEntity
  8
0
  6
Continuous
 62
     7
100
AcDbCircle
 10
240.9999999999787
 20
132.0001325024416
 30
0.0
 40
75.99999999999994
100
AcDbArc
 50
154.6598747459855
 51
154.6908750678374
  0
ARC
  5
1B6
330
4D
100
AcDbEntity
  8
0
  6
Continuous
 62
     7
100
AcDbCircle
 10
241.0000000000015
 20
132.0001325024898
 30
0.0
 40
75.99999999999993
100
AcDbArc
 50
126.3859964560635
 51
143.370989272574
  0
ARC
  5
1B7
330
4D
100
AcDbEntity
  8
0
  6
Continuous
 62
     7
100
AcDbCircle
 10
241.0000000000015
 20
132.0001325024898
 30
0.0
 40
74.79999999999991
100
AcDbArc
 50
125.6330604547944
 51
144.1239252738431
  0
ARC
  5
1B8
330
4D
100
AcDbEntity
  8
0
  6
Continuous
 62
     7
100
AcDbCircle
 10
241.0000000000015
 20
132.0001325024898
 30
0.0
 40
74.80000000000004
100
AcDbArc
 50
35.63306045479379
 51
54.12392527384288
  0
ARC
  5
1B9
330
4D
100
AcDbEntity
  8
0
  6
Continuous
 62
     7
100
AcDbCircle
 10
240.9999999999999
 20
132.0001325024899
 30
0.0
 40
76.00000000000004
100
AcDbArc
 50
266.1199031685895
 51
267.2037183765846
  0
ARC
  5
1BA
330
4D
100
AcDbEntity
  8
0
  6
Continuous
 62
     7
100
AcDbCircle
 10
241.0000000000015
 20
132.0001325024898
 30
0.0
 40
76.00000000000004
100
AcDbArc
 50
272.5532673520542
 51
276.3859964560637
  0
LINE
  5
1BB
330
4D
100
AcDbEntity
  8
0
  6
Continuous
 62
     7
100
AcDbLine
 10
235.8458069806556
 20
56.17510830652046
 30
0.0
 11
235.8571776470345
 21
56.17433624392201
 31
0.0
  0
ARC
  5
1BC
330
4D
100
AcDbEntity
  8
0
  6
Continuous
 62
     7
100
AcDbCircle
 10
241.0000000000015
 20
132.0001325024898
 30
0.0
 40
76.00000000000004
100
AcDbArc
 50
267.2037183765834
 51
272.5532673520542
  0
ARC
  5
1BD
330
4D
100
AcDbEntity
  8
0
  6
Continuous
 62
     7
100
AcDbCircle
 10
241.0000000000027
 20
132.0001325024897
 30
0.0
 40
76.00000000000004
100
AcDbArc
 50
263.3709892725734
 51
266.1113111782429
  0
ARC
  5
1BE
330
4D
100
AcDbEntity
  8
0
  6
Continuous
 62
     7
100
AcDbCircle
 10
241.0000000000015
 20
132.0001325024898
 30
0.0
 40
76.00000000000004
100
AcDbArc
 50
244.6908750678771
 51
246.3859964560637
  0
ARC
  5
1BF
330
4D
100
AcDbEntity
  8
0
  6
Continuous
 62
     7
100
AcDbCircle
 10
241.0000000000015
 20
132.0001325024898
 30
0.0
 40
76.00000000000001
100
AcDbArc
 50
246.3859964560637
 51
263.3709892725742
  0
ARC
  5
1C0
330
4D
100
AcDbEntity
  8
0
  6
Continuous
 62
     7
100
AcDbCircle
 10
241.0000000000015
 20
132.0001325024898
 30
0.0
 40
74.80000000000001
100
AcDbArc
 50
245.6330604547944
 51
264.1239252738435
  0
LINE
  5
1C1
330
4D
100
AcDbEntity
  8
0
  6
Continuous
 62
     7
100
AcDbLine
 10
257.768865557447
 20
57.87317959117468
 30
0.0
 11
257.7799813370704
 21
57.87569505890696
 31
0.0
  0
ARC
  5
1C2
330
4D
100
AcDbEntity
  8
0
  6
Continuous
 62
     7
100
AcDbCircle
 10
241.0000000000015
 20
132.0001325024898
 30
0.0
 40
76.00000000000001
100
AcDbArc
 50
276.3859964560637
 51
282.7468003862534
  0
ARC
  5
1C3
330
4D
100
AcDbEntity
  8
0
  6
Continuous
 62
     7
100
AcDbCircle
 10
241.0000000000015
 20
132.0001325024898
 30
0.0
 40
74.80000000000001
100
AcDbArc
 50
275.6330604547946
 51
294.1239252738426
  0
ARC
  5
1C4
330
4D
100
AcDbEntity
  8
0
  6
Continuous
 62
     7
100
AcDbCircle
 10
241.0000000000015
 20
132.0001325024898
 30
0.0
 40
76.00000000000004
100
AcDbArc
 50
293.3709892725735
 51
297.2037183765835
  0
ARC
  5
1C5
330
4D
100
AcDbEntity
  8
0
  6
Continuous
 62
     7
100
AcDbCircle
 10
241.0000000000015
 20
132.0001325024898
 30
0.0
 40
76.00000000000006
100
AcDbArc
 50
282.7553923765977
 51
293.3709892725735
  0
ARC
  5
1C6
330
4D
100
AcDbEntity
  8
0
  6
Continuous
 62
     7
100
AcDbCircle
 10
241.0000000000015
 20
132.0001325024898
 30
0.0
 40
76.00000000000004
100
AcDbArc
 50
297.2037183765835
 51
302.5532673520544
  0
ARC
  5
1C7
330
4D
100
AcDbEntity
  8
0
  6
Continuous
 62
     7
100
AcDbCircle
 10
241.0000000000146
 20
132.0001325024836
 30
0.0
 40
76.00000000000007
100
AcDbArc
 50
244.6598747460142
 51
244.6908750678662
  0
ARC
  5
1C8
330
4D
100
AcDbEntity
  8
0
  6
Continuous
 62
     7
100
AcDbCircle
 10
240.9999999999713
 20
132.0001325024693
 30
0.0
 40
76.00000000000011
100
AcDbArc
 50
304.1758284869908
 51
304.2068288088429
  0
ARC
  5
1C9
330
4D
100
AcDbEntity
  8
0
  6
Continuous
 62
     7
100
AcDbCircle
 10
241.0000000000027
 20
132.0001325024897
 30
0.0
 40
75.99999999999933
100
AcDbArc
 50
302.5532673520536
 51
304.1758284869626
  0
ARC
  5
1CA
330
4D
100
AcDbEntity
  8
0
  6
Continuous
 62
     7
100
AcDbCircle
 10
241.0000000000015
 20
132.0001325024898
 30
0.0
 40
76.0
100
AcDbArc
 50
233.3709892725743
 51
237.2037183765835
  0
ARC
  5
1CB
330
4D
100
AcDbEntity
  8
0
  6
Continuous
 62
     7
100
AcDbCircle
 10
241.0000000000015
 20
132.0001325024898
 30
0.0
 40
76.00000000000003
100
AcDbArc
 50
214.2068288088154
 51
216.3859964560637
  0
ARC
  5
1CC
330
4D
100
AcDbEntity
  8
0
  6
Continuous
 62
     7
100
AcDbCircle
 10
241.0000000000015
 20
132.0001325024898
 30
0.0
 40
76.00000000000004
100
AcDbArc
 50
242.5532673520542
 51
244.6598747460251
  0
ARC
  5
1CD
330
4D
100
AcDbEntity
  8
0
  6
Continuous
 62
     7
100
AcDbCircle
 10
241.0000000000015
 20
132.0001325024898
 30
0.0
 40
75.99999999999999
100
AcDbArc
 50
237.2037183765835
 51
242.5532673520542
  0
ARC
  5
1CE
330
4D
100
AcDbEntity
  8
0
  6
Continuous
 62
     7
100
AcDbCircle
 10
241.0000000000015
 20
132.0001325024898
 30
0.0
 40
76.0
100
AcDbArc
 50
216.3859964560637
 51
233.3709892725743
  0
ARC
  5
1CF
330
4D
100
AcDbEntity
  8
0
  6
Continuous
 62
     7
100
AcDbCircle
 10
241.0000000000015
 20
132.0001325024898
 30
0.0
 40
74.80000000000001
100
AcDbArc
 50
215.6330604547944
 51
234.1239252738433
  0
ARC
  5
1D0
330
4D
100
AcDbEntity
  8
0
  6
Continuous
 62
     7
100
AcDbCircle
 10
241.0000000000021
 20
132.0001325024911
 30
0.0
 40
76.00000000000065
100
AcDbArc
 50
182.553267352055
 51
186.3859964560645
  0
ARC
  5
1D1
330
4D
100
AcDbEntity
  8
0
  6
Continuous
 62
     7
100
AcDbCircle
 10
241.0000000000015
 20
132.0001325024898
 30
0.0
 40
75.99999999999997
100
AcDbArc
 50
173.3709892725741
 51
176.1113111782436
  0
LINE
  5
1D2
330
4D
100
AcDbEntity
  8
0
  6
Continuous
 62
     7
100
AcDbLine
 10
165.1749758040323
 20
137.154325521836
 30
0.0
 11
165.1742037414338
 21
137.1429548554571
 31
0.0
  0
ARC
  5
1D3
330
4D
100
AcDbEntity
  8
0
  6
Continuous
 62
     7
100
AcDbCircle
 10
241.0000000000014
 20
132.0001325024886
 30
0.0
 40
75.99999999999999
100
AcDbArc
 50
176.1199031685871
 51
177.2037183765823
  0
CIRCLE
  5
1D4
330
4D
100
AcDbEntity
  8
0
  6
Continuous
 62
     7
100
AcDbCircle
 10
241.0000000000015
 20
132.0001325024898
 30
0.0
 40
78.50000000000003
  0
CIRCLE
  5
1D5
330
4D
100
AcDbEntity
  8
0
  6
Continuous
 62
     3
100
AcDbCircle
 10
241.0000000000015
 20
132.0001325024898
 30
0.0
 40
85.37783315493908
  0
CIRCLE
  5
1D6
330
4D
100
AcDbEntity
  8
0
  6
Continuous
 62
     7
100
AcDbCircle
 10
241.0000000000015
 20
132.0001325024898
 30
0.0
 40
105.5262389627584
  0
CIRCLE
  5
1D7
330
4D
100
AcDbEntity
  8
0
  6
Continuous
 62
     7
100
AcDbCircle
 10
241.0000000000015
 20
132.0001325024898
 30
0.0
 40
108.9597979746448
  0
CIRCLE
  5
1D8
330
4D
100
AcDbEntity
  8
0
  6
Continuous
 62
     7
100
AcDbCircle
 10
241.0000000000015
 20
132.0001325024898
 30
0.0
 40
109.99899989998
  0
ENDBLK
  5
4F
330
4D
100
AcDbEntity
  8
0
100
AcDbBlockEnd
  0
BLOCK
  5
54
330
50
100
AcDbEntity
  8
0
100
AcDbBlockBegin
  2
HL84_M-Zeichnungen-WEB__4
 70
     0
 10
-8.99999999999835
 20
-117.9998674975101
 30
0.0
  3
HL84_M-Zeichnungen-WEB__4
  1

  0
INSERT
  5
51
330
50
100
AcDbEntity
  8
0
100
AcDbBlockReference
  2
HL062B_3E-Tragring__1
 10
162.5000000000032
 20
53.50013250248995
 30
0.0
  0
INSERT
  5
52
330
50
100
AcDbEntity
  8
0
100
AcDbBlockReference
  2
HL084_5E-Vlieskaschierte-Folie__2
 10
-8.99999999999835
 20
-117.9998674975101
 30
0.0
  0
INSERT
  5
53
330
50
100
AcDbEntity
  8
0
100
AcDbBlockReference
  2
HL084_2E_Edelstahlflansch__3
 10
131.0010001000215
 20
22.0011326025097
 30
0.0
  0
ENDBLK
  5
55
330
50
100
AcDbEntity
  8
0
100
AcDbBlockEnd
  0
BLOCK
  5
58
330
56
100
AcDbEntity
  8
0
100
AcDbBlockBegin
  2
Vordans2
 70
     0
 10
241.0000000000014
 20
132.00004350083
 30
0.0
  3
Vordans2
  1

  0
INSERT
  5
57
330
56
100
AcDbEntity
  8
0
100
AcDbBlockReference
  2
HL84_M-Zeichnungen-WEB__4
 10
-8.99999999999835
 20
-117.9998674975101
 30
0.0
  0
MTEXT
  5
1DA
330
56
100
AcDbEntity
  8
1
 62
     1
100
AcDbMText
 10
241.0000000000006
 20
-122.9998674975101
 30
0.0
 40
3.5
 41
0.0
 71
     2
 72
     1
  1
 
  7
CONVERTER_11
 73
     1
 44
1.32052821128451
  0
DIMENSION
  5
1E5
330
56
100
AcDbEntity
  8
1
100
AcDbDimension
  2
*D13
 10
542.7154380662189
 20
-117.9998674975101
 30
0.0
 11
533.2154380662189
 21
174.169940753824
 31
0.0
 70
    32
  1
<>
 71
     5
 42
-1.0
 53
90.0
  3
ME10_DIM_10
100
AcDbAlignedDimension
 13
491.0000000000014
 23
382.00013250249
 33
0.0
 14
491.0000000000014
 24
-117.9998674975101
 34
0.0
 50
90.0
100
AcDbRotatedDimension
  0
DIMENSION
  5
1F0
330
56
100
AcDbEntity
  8
1
100
AcDbDimension
  2
*D14
 10
-8.99999999999829
 20
-169.51881758433
 30
0.0
 11
283.4826203435849
 21
-160.01881758433
 31
0.0
 70
    32
  1
<>
 71
     5
 42
-1.0
 53
0.00013888888889
  3
ME10_DIM_11
100
AcDbAlignedDimension
 13
491.0000000000014
 23
-117.9998674975101
 33
0.0
 14
-8.99999999999835
 24
-117.9998674975101
 34
0.0
100
AcDbRotatedDimension
  0
INSERT
  5
1F8
330
56
100
AcDbEntity
  8
1
100
AcDbBlockReference
  2
*D15
 10
0.0
 20
0.0
 30
0.0
  0
ENDBLK
  5
59
330
56
100
AcDbEntity
  8
0
100
AcDbBlockEnd
  0
BLOCK
  5
5B
330
5A
100
AcDbEntity
  8
0
100
AcDbBlockBegin
  2
Bauschutz
 70
     0
 10
130.0000000000012
 20
633.2407956310606
 30
0.0
  3
Bauschutz
  1

  0
LINE
  5
1F9
330
5A
100
AcDbEntity
  8
0
  6
Continuous
 62
     7
100
AcDbLine
 10
309.000000000001
 20
645.2407956310606
 30
0.0
 11
351.000000000001
 21
645.2407956310603
 31
0.0
  0
LINE
  5
1FA
330
5A
100
AcDbEntity
  8
0
  6
Continuous
 62
     7
100
AcDbLine
 10
319.6000000000012
 20
643.2407956310606
 30
0.0
 11
351.000000000001
 21
643.2407956310609
 31
0.0
  0
LINE
  5
1FB
330
5A
100
AcDbEntity
  8
0
  6
Continuous
 62
     7
100
AcDbLine
 10
131.0000000000011
 20
645.2407956310603
 30
0.0
 11
173.0000000000011
 21
645.2407956310606
 31
0.0
  0
LINE
  5
1FC
330
5A
100
AcDbEntity
  8
0
  6
Continuous
 62
     7
100
AcDbLine
 10
131.0000000000011
 20
643.2407956310609
 30
0.0
 11
162.4000000000009
 21
643.2407956310606
 31
0.0
  0
LINE
  5
1FD
330
5A
100
AcDbEntity
  8
0
  6
Continuous
 62
     7
100
AcDbLine
 10
162.4000000000009
 20
643.2407956310606
 30
0.0
 11
319.6000000000012
 21
643.2407956310606
 31
0.0
  0
LINE
  5
1FE
330
5A
100
AcDbEntity
  8
0
  6
Continuous
 62
     7
100
AcDbLine
 10
162.4000000000009
 20
633.2407956310606
 30
0.0
 11
319.6000000000012
 21
633.2407956310606
 31
0.0
  0
LINE
  5
1FF
330
5A
100
AcDbEntity
  8
0
  6
Continuous
 62
     7
100
AcDbLine
 10
162.4000000000009
 20
633.2407956310606
 30
0.0
 11
162.4000000000009
 21
643.2407956310606
 31
0.0
  0
LINE
  5
200
330
5A
100
AcDbEntity
  8
0
  6
Continuous
 62
     7
100
AcDbLine
 10
319.6000000000012
 20
633.2407956310606
 30
0.0
 11
319.6000000000012
 21
643.2407956310606
 31
0.0
  0
LINE
  5
201
330
5A
100
AcDbEntity
  8
0
  6
Continuous
 62
     7
100
AcDbLine
 10
173.0000000000011
 20
645.2407956310606
 30
0.0
 11
309.000000000001
 21
645.2407956310606
 31
0.0
  0
LINE
  5
202
330
5A
100
AcDbEntity
  8
0
  6
Continuous
 62
     7
100
AcDbLine
 10
175.0001484130472
 20
647.2407956310606
 30
0.0
 11
173.0000000000011
 21
645.2407956310606
 31
0.0
  0
LINE
  5
203
330
5A
100
AcDbEntity
  8
0
  6
Continuous
 62
     7
100
AcDbLine
 10
307.0000000000011
 20
647.2407956310606
 30
0.0
 11
309.000000000001
 21
645.2407956310606
 31
0.0
  0
LINE
  5
204
330
5A
100
AcDbEntity
  8
0
  6
Continuous
 62
     7
100
AcDbLine
 10
307.0000000000011
 20
647.2407956310606
 30
0.0
 11
175.0001484130472
 21
647.2407956310606
 31
0.0
  0
LINE
  5
205
330
5A
100
AcDbEntity
  8
1
  6
DOT_CENTER
 62
     2
100
AcDbLine
 10
241.0012986354899
 20
647.2420199691725
 30
0.0
 11
241.0012614874906
 21
645.2395341435711
 31
0.0
  0
LINE
  5
206
330
5A
100
AcDbEntity
  8
1
  6
DOT_CENTER
 62
     2
100
AcDbLine
 10
241.0000000000011
 20
633.2407956310606
 30
0.0
 11
241.0000000000011
 21
643.2407956310606
 31
0.0
  0
ARC
  5
207
330
5A
100
AcDbEntity
  8
0
  6
Continuous
 62
     7
100
AcDbCircle
 10
131.000000000001
 20
644.2407956310606
 30
0.0
 40
0.9999999999997726
100
AcDbArc
 50
89.99999999999349
 51
270.0000000000065
  0
ARC
  5
208
330
5A
100
AcDbEntity
  8
0
  6
Continuous
 62
     7
100
AcDbCircle
 10
351.000000000001
 20
644.2407956310608
 30
0.0
 40
0.9999999999998863
100
AcDbArc
 50
270.0
 51
90.0
  0
ENDBLK
  5
5C
330
5A
100
AcDbEntity
  8
0
100
AcDbBlockEnd
  0
BLOCK
  5
5E
330
5D
100
AcDbEntity
  8
0
100
AcDbBlockBegin
  2
HL084_5E-Vlieskaschierte-Folie__5
 70
     0
 10
-8.99999999999881
 20
470.3160382381766
 30
0.0
  3
HL084_5E-Vlieskaschierte-Folie__5
  1

  0
LINE
  5
209
330
5D
100
AcDbEntity
  8
0
  6
Continuous
 62
     7
100
AcDbLine
 10
-8.99999999999881
 20
470.3160382381766
 30
0.0
 11
-8.99999999999881
 21
471.3160382381766
 31
0.0
  0
LINE
  5
20A
330
5D
100
AcDbEntity
  8
0
  6
Continuous
 62
     7
100
AcDbLine
 10
491.000000000001
 20
471.3160382381766
 30
0.0
 11
-8.99999999999881
 21
471.3160382381766
 31
0.0
  0
LINE
  5
20B
330
5D
100
AcDbEntity
  8
0
  6
Continuous
 62
     7
100
AcDbLine
 10
491.000000000001
 20
470.3160382381766
 30
0.0
 11
491.000000000001
 21
471.3160382381766
 31
0.0
  0
LINE
  5
20C
330
5D
100
AcDbEntity
  8
0
  6
Continuous
 62
     7
100
AcDbLine
 10
491.000000000001
 20
470.3160382381766
 30
0.0
 11
-8.99999999999881
 21
470.3160382381766
 31
0.0
  0
ENDBLK
  5
5F
330
5D
100
AcDbEntity
  8
0
100
AcDbBlockEnd
  0
BLOCK
  5
61
330
60
100
AcDbEntity
  8
0
100
AcDbBlockBegin
  2
HL062B_3E-Tragring__6
 70
     0
 10
162.5000000000011
 20
580.8160382381766
 30
0.0
  3
HL062B_3E-Tragring__6
  1

  0
LINE
  5
20D
330
60
100
AcDbEntity
  8
0
  6
Continuous
 62
     7
100
AcDbLine
 10
319.5000000000011
 20
600.8160382381766
 30
0.0
 11
162.5000000000011
 21
600.8160382381766
 31
0.0
  0
LINE
  5
20E
330
60
100
AcDbEntity
  8
0
  6
Continuous
 62
     7
100
AcDbLine
 10
319.5000000000011
 20
583.3160382381767
 30
0.0
 11
162.5000000000011
 21
583.3160382381767
 31
0.0
  0
LINE
  5
20F
330
60
100
AcDbEntity
  8
0
  6
Continuous
 62
     7
100
AcDbLine
 10
317.0000000000011
 20
580.8160382381766
 30
0.0
 11
165.0000000000011
 21
580.8160382381766
 31
0.0
  0
LINE
  5
210
330
60
100
AcDbEntity
  8
0
  6
Continuous
 62
     7
100
AcDbLine
 10
319.5000000000011
 20
600.8160382381766
 30
0.0
 11
319.5000000000011
 21
583.3160382381767
 31
0.0
  0
LINE
  5
211
330
60
100
AcDbEntity
  8
0
  6
Continuous
 62
     7
100
AcDbLine
 10
162.5000000000011
 20
600.8160382381766
 30
0.0
 11
162.5000000000011
 21
583.3160382381767
 31
0.0
  0
LINE
  5
212
330
60
100
AcDbEntity
  8
0
  6
Continuous
 62
     7
100
AcDbLine
 10
317.0000000000011
 20
580.8160382381766
 30
0.0
 11
319.5000000000011
 21
583.3160382381767
 31
0.0
  0
LINE
  5
213
330
60
100
AcDbEntity
  8
0
  6
Continuous
 62
     7
100
AcDbLine
 10
165.0000000000011
 20
580.8160382381766
 30
0.0
 11
162.5000000000011
 21
583.3160382381767
 31
0.0
  0
LINE
  5
214
330
60
100
AcDbEntity
  8
1
  6
DOT_CENTER
 62
     2
100
AcDbLine
 10
241.0000000000006
 20
603.383366799963
 30
0.0
 11
241.0000000000006
 21
577.744224131894
 31
0.0
  0
ENDBLK
  5
62
330
60
100
AcDbEntity
  8
0
100
AcDbBlockEnd
  0
BLOCK
  5
64
330
63
100
AcDbEntity
  8
0
100
AcDbBlockBegin
  2
HL084_4E-Klemmring
 70
     0
 10
148.498832500001
 20
434.4999759058236
 30
0.0
  3
HL084_4E-Klemmring
  1

  0
LINE
  5
215
330
63
100
AcDbEntity
  8
0
  6
Continuous
 62
     7
100
AcDbLine
 10
328.6413135000013
 20
434.4999759058245
 30
0.0
 11
153.3586865000009
 21
434.4999759058236
 31
0.0
  0
LINE
  5
216
330
63
100
AcDbEntity
  8
0
  6
Continuous
 62
     7
100
AcDbLine
 10
151.6404154417883
 20
441.3728359058235
 30
0.0
 11
330.3597855000012
 21
441.3728359058245
 31
0.0
  0
LINE
  5
217
330
63
100
AcDbEntity
  8
0
  6
Continuous
 62
     3
100
AcDbLine
 10
332.5709241282058
 20
441.5274541249021
 30
0.0
 11
149.4290758717963
 21
441.5274541249005
 31
0.0
  0
LINE
  5
218
330
63
100
AcDbEntity
  8
0
  6
Continuous
 62
     3
100
AcDbLine
 10
333.5011675000013
 20
442.525018164361
 30
0.0
 11
148.498832500001
 21
442.5250181643596
 31
0.0
  0
LINE
  5
219
330
63
100
AcDbEntity
  8
0
  6
Continuous
 62
     7
100
AcDbLine
 10
333.5011675000013
 20
442.525018164361
 30
0.0
 11
333.5011675000013
 21
450.2132415273687
 31
0.0
  0
LINE
  5
21A
330
63
100
AcDbEntity
  8
0
  6
Continuous
 62
     7
100
AcDbLine
 10
330.3597855000012
 20
441.3728359058245
 30
0.0
 11
332.5709241282058
 21
441.5274541249021
 31
0.0
  0
LINE
  5
21B
330
63
100
AcDbEntity
  8
0
  6
Continuous
 62
     7
100
AcDbLine
 10
328.6415958491901
 20
441.3728359058245
 30
0.0
 11
328.6413135000013
 21
434.4999759058245
 31
0.0
  0
LINE
  5
21C
330
63
100
AcDbEntity
  8
0
  6
Continuous
 62
     7
100
AcDbLine
 10
148.498832500001
 20
442.5250181643596
 30
0.0
 11
148.4990405057591
 21
450.2132415273678
 31
0.0
  0
LINE
  5
21D
330
63
100
AcDbEntity
  8
0
  6
Continuous
 62
     7
100
AcDbLine
 10
151.6404154417883
 20
441.3728359058235
 30
0.0
 11
149.4290758717963
 21
441.5274541249005
 31
0.0
  0
LINE
  5
21E
330
63
100
AcDbEntity
  8
0
  6
Continuous
 62
     7
100
AcDbLine
 10
153.3584041508121
 20
441.3728359058236
 30
0.0
 11
153.3586865000009
 21
434.4999759058236
 31
0.0
  0
LINE
  5
21F
330
63
100
AcDbEntity
  8
0
  6
Continuous
 62
     7
100
AcDbLine
 10
148.4990405057591
 20
450.2132415273678
 30
0.0
 11
333.5011675000013
 21
450.2132415273687
 31
0.0
  0
LINE
  5
220
330
63
100
AcDbEntity
  8
1
  6
DOT_CENTER
 62
     2
100
AcDbLine
 10
240.9998492691107
 20
431.3812930333955
 30
0.0
 11
241.0001480369637
 21
453.4671622791104
 31
0.0
  0
ARC
  5
221
330
63
100
AcDbEntity
  8
0
  6
Continuous
 62
     7
100
AcDbCircle
 10
332.5011675000012
 20
442.525018164361
 30
0.0
 40
1.000000000000008
100
AcDbArc
 50
274.0000088715424
 51
0.0
  0
ARC
  5
222
330
63
100
AcDbEntity
  8
0
  6
Continuous
 62
     7
100
AcDbCircle
 10
149.498832500001
 20
442.5250181643597
 30
0.0
 40
1.0
100
AcDbArc
 50
180.0000000000065
 51
265.9999911284525
  0
ENDBLK
  5
65
330
63
100
AcDbEntity
  8
0
100
AcDbBlockEnd
  0
BLOCK
  5
67
330
66
100
AcDbEntity
  8
0
100
AcDbBlockBegin
  2
HL084_2E_Edelstahlflansch__7
 70
     0
 10
131.001000100021
 20
522.3160382381755
 30
0.0
  3
HL084_2E_Edelstahlflansch__7
  1

  0
LINE
  5
223
330
66
100
AcDbEntity
  8
0
  6
Continuous
 62
     7
100
AcDbLine
 10
173.2403488971042
 20
525.8160382381767
 30
0.0
 11
172.6886986780416
 21
525.8160382381767
 31
0.0
  0
LINE
  5
224
330
66
100
AcDbEntity
  8
0
  6
Continuous
 62
     7
100
AcDbLine
 10
168.0849117047764
 20
525.8160382381767
 30
0.0
 11
167.3794072349411
 21
525.8160382381767
 31
0.0
  0
LINE
  5
225
330
66
100
AcDbEntity
  8
0
  6
Continuous
 62
     7
100
AcDbLine
 10
172.6886986780416
 20
525.8160382381767
 30
0.0
 11
168.0849117047764
 21
525.8160382381767
 31
0.0
  0
LINE
  5
226
330
66
100
AcDbEntity
  8
0
  6
Continuous
 62
     7
100
AcDbLine
 10
173.2403488971042
 20
525.8160382381767
 30
0.0
 11
178.4609893420855
 21
525.8160382381767
 31
0.0
  0
LINE
  5
227
330
66
100
AcDbEntity
  8
0
  6
Continuous
 62
     7
100
AcDbLine
 10
208.5922401228825
 20
522.3160382381767
 30
0.0
 11
208.4726913237099
 21
522.3160382381766
 31
0.0
  0
LINE
  5
228
330
66
100
AcDbEntity
  8
0
  6
Continuous
 62
     7
100
AcDbLine
 10
178.1469681949876
 20
522.3160382381766
 30
0.0
 11
208.4726913237099
 21
522.3160382381766
 31
0.0
  0
LINE
  5
229
330
66
100
AcDbEntity
  8
0
  6
Continuous
 62
     7
100
AcDbLine
 10
173.910919476796
 20
523.0160382381766
 30
0.0
 11
177.2691753981385
 21
523.0160382381766
 31
0.0
  0
LINE
  5
22A
330
66
100
AcDbEntity
  8
0
  6
Continuous
 62
     3
100
AcDbLine
 10
173.910919476796
 20
523.0160382381766
 30
0.0
 11
173.910919476796
 21
522.3160382381767
 31
0.0
  0
LINE
  5
22B
330
66
100
AcDbEntity
  8
0
  6
Continuous
 62
     7
100
AcDbLine
 10
173.910919476796
 20
522.3160382381767
 30
0.0
 11
178.1469681949876
 21
522.3160382381766
 31
0.0
  0
LINE
  5
22C
330
66
100
AcDbEntity
  8
0
  6
Continuous
 62
     7
100
AcDbLine
 10
208.5922401228825
 20
523.0160382381766
 30
0.0
 11
208.5922401228825
 21
522.3160382381767
 31
0.0
  0
LINE
  5
22D
330
66
100
AcDbEntity
  8
0
  6
Continuous
 62
     3
100
AcDbLine
 10
316.5000000000011
 20
529.6160382381765
 30
0.0
 11
165.5000000000011
 21
529.6160382381765
 31
0.0
  0
LINE
  5
22E
330
66
100
AcDbEntity
  8
0
  6
Continuous
 62
     3
100
AcDbLine
 10
326.3900498394463
 20
552.3864699602441
 30
0.0
 11
155.6099501605559
 21
552.3864699602441
 31
0.0
  0
LINE
  5
22F
330
66
100
AcDbEntity
  8
0
  6
Continuous
 62
     7
100
AcDbLine
 10
317.0000000000011
 20
522.3160382381755
 30
0.0
 11
316.8257962585687
 21
522.3160382381755
 31
0.0
  0
LINE
  5
230
330
66
100
AcDbEntity
  8
0
  6
Continuous
 62
     7
100
AcDbLine
 10
282.7463656437319
 20
525.8160382381767
 30
0.0
 11
282.7463656437319
 21
525.6160382381765
 31
0.0
  0
LINE
  5
231
330
66
100
AcDbEntity
  8
0
  6
Continuous
 62
     7
100
AcDbLine
 10
283.7258281712367
 20
522.3160382381767
 30
0.0
 11
283.512887601053
 21
522.3160382381767
 31
0.0
  0
LINE
  5
232
330
66
100
AcDbEntity
  8
0
  6
Continuous
 62
     7
100
AcDbLine
 10
283.512887601053
 20
523.0160382381766
 30
0.0
 11
283.725828171237
 21
523.0160382381766
 31
0.0
  0
LINE
  5
233
330
66
100
AcDbEntity
  8
0
  6
Continuous
 62
     3
100
AcDbLine
 10
283.2980158627944
 20
525.6160382381765
 30
0.0
 11
309.3113013219603
 21
525.6160382381765
 31
0.0
  0
LINE
  5
234
330
66
100
AcDbEntity
  8
0
  6
Continuous
 62
     7
100
AcDbLine
 10
283.2980158627944
 20
525.6160382381765
 30
0.0
 11
283.2980158627944
 21
525.8160382381767
 31
0.0
  0
LINE
  5
235
330
66
100
AcDbEntity
  8
0
  6
Continuous
 62
     7
100
AcDbLine
 10
283.6918148031289
 20
525.3160382381767
 30
0.0
 11
283.5343185839828
 21
525.316038238177
 31
0.0
  0
LINE
  5
236
330
66
100
AcDbEntity
  8
0
  6
Continuous
 62
     7
100
AcDbLine
 10
283.6918148031289
 20
525.3160382381767
 30
0.0
 11
309.5476040431489
 21
525.3160382381767
 31
0.0
  0
LINE
  5
237
330
66
100
AcDbEntity
  8
0
  6
Continuous
 62
     7
100
AcDbLine
 10
283.5343185839828
 20
524.616038238177
 30
0.0
 11
283.6918148031289
 21
524.6160382381765
 31
0.0
  0
LINE
  5
238
330
66
100
AcDbEntity
  8
0
  6
Continuous
 62
     7
100
AcDbLine
 10
283.7258281712367
 20
522.3160382381767
 30
0.0
 11
309.6875111667138
 21
522.3160382381767
 31
0.0
  0
LINE
  5
239
330
66
100
AcDbEntity
  8
0
  6
Continuous
 62
     3
100
AcDbLine
 10
283.9324890372781
 20
523.0767501217858
 30
0.0
 11
283.9324890372781
 21
522.3475196243905
 31
0.0
  0
LINE
  5
23A
330
66
100
AcDbEntity
  8
0
  6
Continuous
 62
     3
100
AcDbLine
 10
320.200000000001
 20
546.0874294807587
 30
0.0
 11
247.1221123085915
 21
546.0874294807587
 31
0.0
  0
LINE
  5
23B
330
66
100
AcDbEntity
  8
0
  6
Continuous
 62
     7
100
AcDbLine
 10
314.2080158718664
 20
522.3160382381767
 30
0.0
 11
314.1824760195435
 21
522.3160382381767
 31
0.0
  0
LINE
  5
23C
330
66
100
AcDbEntity
  8
0
  6
Continuous
 62
     3
100
AcDbLine
 10
314.2080158718664
 20
523.0160382381766
 30
0.0
 11
314.2080158718664
 21
522.3160382381767
 31
0.0
  0
LINE
  5
23D
330
66
100
AcDbEntity
  8
0
  6
Continuous
 62
     7
100
AcDbLine
 10
315.6975442171238
 20
523.0160382381766
 30
0.0
 11
315.6975442171238
 21
522.3160382381767
 31
0.0
  0
LINE
  5
23E
330
66
100
AcDbEntity
  8
0
  6
Continuous
 62
     7
100
AcDbLine
 10
314.2080158718664
 20
522.3160382381767
 30
0.0
 11
315.6975442171238
 21
522.3160382381767
 31
0.0
  0
LINE
  5
23F
330
66
100
AcDbEntity
  8
0
  6
Continuous
 62
     7
100
AcDbLine
 10
314.1824760195435
 20
523.0160382381766
 30
0.0
 11
314.1824760195435
 21
522.3160382381767
 31
0.0
  0
LINE
  5
240
330
66
100
AcDbEntity
  8
0
  6
Continuous
 62
     7
100
AcDbLine
 10
316.8257962585687
 20
522.3160382381755
 30
0.0
 11
315.6975442171238
 21
522.3160382381767
 31
0.0
  0
LINE
  5
241
330
66
100
AcDbEntity
  8
0
  6
Continuous
 62
     3
100
AcDbLine
 10
316.9903034945268
 20
523.0330356783466
 30
0.0
 11
316.9903034945267
 21
522.3250342111196
 31
0.0
  0
LINE
  5
242
330
66
100
AcDbEntity
  8
0
  6
Continuous
 62
     7
100
AcDbLine
 10
316.5000000000011
 20
529.6160382381765
 30
0.0
 11
316.5000000000011
 21
525.6160382381753
 31
0.0
  0
LINE
  5
243
330
66
100
AcDbEntity
  8
0
  6
Continuous
 62
     7
100
AcDbLine
 10
316.8250241959703
 20
525.3160382381767
 30
0.0
 11
316.800000000001
 21
525.3160382381773
 31
0.0
  0
LINE
  5
244
330
66
100
AcDbEntity
  8
0
  6
Continuous
 62
     7
100
AcDbLine
 10
316.800000000001
 20
525.3160382381773
 30
0.0
 11
316.6234949157561
 21
525.3160382381767
 31
0.0
  0
LINE
  5
245
330
66
100
AcDbEntity
  8
0
  6
Continuous
 62
     7
100
AcDbLine
 10
315.1244374435841
 20
524.6160382381754
 30
0.0
 11
316.6234949157561
 21
524.6160382381765
 31
0.0
  0
LINE
  5
246
330
66
100
AcDbEntity
  8
0
  6
Continuous
 62
     7
100
AcDbLine
 10
317.0000000000011
 20
525.3160382381755
 30
0.0
 11
316.8250241959703
 21
525.3160382381767
 31
0.0
  0
LINE
  5
247
330
66
100
AcDbEntity
  8
0
  6
Continuous
 62
     7
100
AcDbLine
 10
315.1269529113163
 20
523.0160382381755
 30
0.0
 11
315.6975442171238
 21
523.0160382381766
 31
0.0
  0
LINE
  5
248
330
66
100
AcDbEntity
  8
0
  6
Continuous
 62
     7
100
AcDbLine
 10
315.6975442171238
 20
523.0160382381766
 30
0.0
 11
316.8257962585688
 21
523.0160382381755
 31
0.0
  0
LINE
  5
249
330
66
100
AcDbEntity
  8
0
  6
Continuous
 62
     7
100
AcDbLine
 10
316.6234949157561
 20
524.6160382381765
 30
0.0
 11
316.8250241959703
 21
524.6160382381765
 31
0.0
  0
LINE
  5
24A
330
66
100
AcDbEntity
  8
0
  6
Continuous
 62
     7
100
AcDbLine
 10
313.9150882952259
 20
525.8160382381767
 30
0.0
 11
313.9150882952259
 21
525.6160382381765
 31
0.0
  0
LINE
  5
24B
330
66
100
AcDbEntity
  8
0
  6
Continuous
 62
     7
100
AcDbLine
 10
315.6156750476121
 20
525.8160382381767
 30
0.0
 11
315.6156750476121
 21
525.6160382381765
 31
0.0
  0
LINE
  5
24C
330
66
100
AcDbEntity
  8
0
  6
Continuous
 62
     7
100
AcDbLine
 10
314.9229081633699
 20
524.6160382381765
 30
0.0
 11
315.1244374435841
 21
524.6160382381754
 31
0.0
  0
LINE
  5
24D
330
66
100
AcDbEntity
  8
0
  6
Continuous
 62
     7
100
AcDbLine
 10
314.1824760195435
 20
523.0160382381766
 30
0.0
 11
314.2080158718664
 21
523.0160382381766
 31
0.0
  0
LINE
  5
24E
330
66
100
AcDbEntity
  8
0
  6
Continuous
 62
     7
100
AcDbLine
 10
314.2080158718664
 20
523.0160382381766
 30
0.0
 11
315.1269529113163
 21
523.0160382381755
 31
0.0
  0
LINE
  5
24F
330
66
100
AcDbEntity
  8
0
  6
Continuous
 62
     7
100
AcDbLine
 10
309.5476040431489
 20
525.3160382381767
 30
0.0
 11
309.7051002622948
 21
525.3160382381767
 31
0.0
  0
LINE
  5
250
330
66
100
AcDbEntity
  8
0
  6
Continuous
 62
     3
100
AcDbLine
 10
316.3211795174474
 20
525.6160382381765
 30
0.0
 11
316.5000000000011
 21
525.6160382381753
 31
0.0
  0
LINE
  5
251
330
66
100
AcDbEntity
  8
0
  6
Continuous
 62
     7
100
AcDbLine
 10
315.6156750476121
 20
525.8160382381767
 30
0.0
 11
316.3211795174474
 21
525.8160382381767
 31
0.0
  0
LINE
  5
252
330
66
100
AcDbEntity
  8
0
  6
Continuous
 62
     7
100
AcDbLine
 10
313.9150882952259
 20
525.8160382381767
 30
0.0
 11
315.6156750476121
 21
525.8160382381767
 31
0.0
  0
LINE
  5
253
330
66
100
AcDbEntity
  8
0
  6
Continuous
 62
     7
100
AcDbLine
 10
313.9150882952259
 20
525.8160382381767
 30
0.0
 11
309.3113013219603
 21
525.8160382381767
 31
0.0
  0
LINE
  5
254
330
66
100
AcDbEntity
  8
0
  6
Continuous
 62
     7
100
AcDbLine
 10
309.3113013219603
 20
525.8160382381767
 30
0.0
 11
309.3113013219603
 21
525.6160382381765
 31
0.0
  0
LINE
  5
255
330
66
100
AcDbEntity
  8
0
  6
Continuous
 62
     7
100
AcDbLine
 10
316.3211795174474
 20
525.6160382381765
 30
0.0
 11
316.3211795174474
 21
525.8160382381767
 31
0.0
  0
LINE
  5
256
330
66
100
AcDbEntity
  8
0
  6
Continuous
 62
     3
100
AcDbLine
 10
313.9150882952259
 20
525.6160382381765
 30
0.0
 11
315.6156750476121
 21
525.6160382381765
 31
0.0
  0
LINE
  5
257
330
66
100
AcDbEntity
  8
0
  6
Continuous
 62
     7
100
AcDbLine
 10
326.3900498394463
 20
552.3864699602441
 30
0.0
 11
346.5610108389084
 21
552.7385553941541
 31
0.0
  0
LINE
  5
258
330
66
100
AcDbEntity
  8
0
  6
Continuous
 62
     7
100
AcDbLine
 10
224.3137811682948
 20
525.8160382381767
 30
0.0
 11
235.752044475293
 21
525.8160382381767
 31
0.0
  0
LINE
  5
259
330
66
100
AcDbEntity
  8
0
  6
Continuous
 62
     7
100
AcDbLine
 10
224.2356435056362
 20
524.6160382381718
 30
0.0
 11
235.8301821379516
 21
524.6160382381773
 31
0.0
  0
LINE
  5
25A
330
66
100
AcDbEntity
  8
0
  6
Continuous
 62
     3
100
AcDbLine
 10
224.313781168295
 20
525.6160382381765
 30
0.0
 11
235.752044475293
 21
525.6160382381765
 31
0.0
  0
LINE
  5
25B
330
66
100
AcDbEntity
  8
0
  6
Continuous
 62
     7
100
AcDbLine
 10
225.6498725704087
 20
522.3160382381767
 30
0.0
 11
224.2311344425564
 21
522.3160382381767
 31
0.0
  0
LINE
  5
25C
330
66
100
AcDbEntity
  8
0
  6
Continuous
 62
     7
100
AcDbLine
 10
224.2311344425562
 20
523.0160382381741
 30
0.0
 11
225.6498725704087
 21
523.0160382381766
 31
0.0
  0
LINE
  5
25D
330
66
100
AcDbEntity
  8
0
  6
Continuous
 62
     3
100
AcDbLine
 10
225.6498725704087
 20
523.0160382381766
 30
0.0
 11
225.6498725704087
 21
522.3160382381767
 31
0.0
  0
LINE
  5
25E
330
66
100
AcDbEntity
  8
0
  6
Continuous
 62
     7
100
AcDbLine
 10
224.3137811682948
 20
525.8160382381767
 30
0.0
 11
224.2590824349094
 21
525.8160382381767
 31
0.0
  0
LINE
  5
25F
330
66
100
AcDbEntity
  8
0
  6
Continuous
 62
     7
100
AcDbLine
 10
224.2590824349094
 20
525.8160382381767
 30
0.0
 11
224.2590824349094
 21
525.6160382381765
 31
0.0
  0
LINE
  5
260
330
66
100
AcDbEntity
  8
0
  6
Continuous
 62
     7
100
AcDbLine
 10
224.3137811682948
 20
525.8160382381767
 30
0.0
 11
224.313781168295
 21
525.6160382381765
 31
0.0
  0
LINE
  5
261
330
66
100
AcDbEntity
  8
0
  6
Continuous
 62
     7
100
AcDbLine
 10
224.2200186629329
 20
524.6160382381768
 30
0.0
 11
224.2356435056362
 21
524.6160382381718
 31
0.0
  0
LINE
  5
262
330
66
100
AcDbEntity
  8
0
  6
Continuous
 62
     7
100
AcDbLine
 10
224.2356435056362
 20
525.3160382381773
 30
0.0
 11
224.2200186629327
 21
525.3160382381767
 31
0.0
  0
LINE
  5
263
330
66
100
AcDbEntity
  8
0
  6
Continuous
 62
     3
100
AcDbLine
 10
224.2072043312416
 20
522.3250342111197
 30
0.0
 11
224.2072043312419
 21
523.0330356783466
 31
0.0
  0
LINE
  5
264
330
66
100
AcDbEntity
  8
0
  6
Continuous
 62
     7
100
AcDbLine
 10
209.3192537585736
 20
525.8160382381767
 30
0.0
 11
208.8469890725544
 21
525.8160382381767
 31
0.0
  0
LINE
  5
265
330
66
100
AcDbEntity
  8
0
  6
Continuous
 62
     7
100
AcDbLine
 10
208.8469890725544
 20
525.8160382381767
 30
0.0
 11
208.8469890725544
 21
525.6160382381765
 31
0.0
  0
LINE
  5
266
330
66
100
AcDbEntity
  8
0
  6
Continuous
 62
     7
100
AcDbLine
 10
209.3192537585736
 20
525.8160382381767
 30
0.0
 11
209.3192537585736
 21
525.6160382381765
 31
0.0
  0
LINE
  5
267
330
66
100
AcDbEntity
  8
0
  6
Continuous
 62
     7
100
AcDbLine
 10
208.4726913237101
 20
523.0160382381764
 30
0.0
 11
208.5922401228825
 21
523.0160382381766
 31
0.0
  0
LINE
  5
268
330
66
100
AcDbEntity
  8
0
  6
Continuous
 62
     7
100
AcDbLine
 10
178.1238602583198
 20
525.3160382381767
 30
0.0
 11
178.2586918960387
 21
525.3160382381764
 31
0.0
  0
LINE
  5
269
330
66
100
AcDbEntity
  8
0
  6
Continuous
 62
     7
100
AcDbLine
 10
208.5098599887887
 20
524.6160382381768
 30
0.0
 11
208.6446916265076
 21
524.616038238177
 31
0.0
  0
LINE
  5
26A
330
66
100
AcDbEntity
  8
0
  6
Continuous
 62
     3
100
AcDbLine
 10
208.3038201147958
 20
522.3475196243908
 30
0.0
 11
208.3038201147967
 21
523.0767501217858
 31
0.0
  0
LINE
  5
26B
330
66
100
AcDbEntity
  8
0
  6
Continuous
 62
     7
100
AcDbLine
 10
178.4609893420855
 20
525.6160382381765
 30
0.0
 11
178.4609893420855
 21
525.8160382381767
 31
0.0
  0
LINE
  5
26C
330
66
100
AcDbEntity
  8
0
  6
Continuous
 62
     7
100
AcDbLine
 10
208.6446916265076
 20
525.3160382381767
 30
0.0
 11
208.5098599887887
 21
525.3160382381767
 31
0.0
  0
LINE
  5
26D
330
66
100
AcDbEntity
  8
0
  6
Continuous
 62
     3
100
AcDbLine
 10
178.4609893420855
 20
525.6160382381765
 30
0.0
 11
208.8469890725544
 21
525.6160382381765
 31
0.0
  0
LINE
  5
26E
330
66
100
AcDbEntity
  8
0
  6
Continuous
 62
     7
100
AcDbLine
 10
178.2586918960387
 20
525.3160382381764
 30
0.0
 11
208.5098599887887
 21
525.3160382381767
 31
0.0
  0
LINE
  5
26F
330
66
100
AcDbEntity
  8
0
  6
Continuous
 62
     7
100
AcDbLine
 10
224.2590824349094
 20
525.8160382381767
 30
0.0
 11
209.3192537585736
 21
525.8160382381767
 31
0.0
  0
LINE
  5
270
330
66
100
AcDbEntity
  8
0
  6
Continuous
 62
     3
100
AcDbLine
 10
173.2403488971042
 20
525.6160382381765
 30
0.0
 11
178.4609893420855
 21
525.6160382381765
 31
0.0
  0
LINE
  5
271
330
66
100
AcDbEntity
  8
0
  6
Continuous
 62
     7
100
AcDbLine
 10
172.4523959568532
 20
524.6160382381765
 30
0.0
 11
177.2690532755294
 21
524.616038238177
 31
0.0
  0
LINE
  5
272
330
66
100
AcDbEntity
  8
0
  6
Continuous
 62
     7
100
AcDbLine
 10
173.2403488971042
 20
525.8160382381767
 30
0.0
 11
173.2403488971042
 21
525.6160382381765
 31
0.0
  0
LINE
  5
273
330
66
100
AcDbEntity
  8
0
  6
Continuous
 62
     7
100
AcDbLine
 10
172.6886986780416
 20
525.8160382381767
 30
0.0
 11
172.6886986780416
 21
525.6160382381765
 31
0.0
  0
LINE
  5
274
330
66
100
AcDbEntity
  8
0
  6
Continuous
 62
     7
100
AcDbLine
 10
172.4523959568532
 20
525.3160382381767
 30
0.0
 11
172.2948997377071
 21
525.3160382381767
 31
0.0
  0
LINE
  5
275
330
66
100
AcDbEntity
  8
0
  6
Continuous
 62
     7
100
AcDbLine
 10
172.2948997377071
 20
524.6160382381765
 30
0.0
 11
172.4523959568532
 21
524.6160382381765
 31
0.0
  0
LINE
  5
276
330
66
100
AcDbEntity
  8
0
  6
Continuous
 62
     7
100
AcDbLine
 10
173.910919476796
 20
522.3160382381767
 30
0.0
 11
172.3124888332881
 21
522.3160382381767
 31
0.0
  0
LINE
  5
277
330
66
100
AcDbEntity
  8
0
  6
Continuous
 62
     7
100
AcDbLine
 10
172.312488833288
 20
523.0160382381766
 30
0.0
 11
173.910919476796
 21
523.0160382381766
 31
0.0
  0
LINE
  5
278
330
66
100
AcDbEntity
  8
0
  6
Continuous
 62
     3
100
AcDbLine
 10
172.0542255035569
 20
522.3475196243908
 30
0.0
 11
172.0542255035579
 21
523.0767501217858
 31
0.0
  0
LINE
  5
279
330
66
100
AcDbEntity
  8
0
  6
Continuous
 62
     7
100
AcDbLine
 10
166.873047088686
 20
523.016038238176
 30
0.0
 11
167.8175239804588
 21
523.0160382381766
 31
0.0
  0
LINE
  5
27A
330
66
100
AcDbEntity
  8
0
  6
Continuous
 62
     7
100
AcDbLine
 10
167.0770918366324
 20
525.3160382381767
 30
0.0
 11
166.8755625564182
 21
525.3160382381767
 31
0.0
  0
LINE
  5
27B
330
66
100
AcDbEntity
  8
0
  6
Continuous
 62
     7
100
AcDbLine
 10
167.3794072349411
 20
525.8160382381767
 30
0.0
 11
167.3794072349411
 21
525.6160382381765
 31
0.0
  0
LINE
  5
27C
330
66
100
AcDbEntity
  8
0
  6
Continuous
 62
     7
100
AcDbLine
 10
166.8755625564181
 20
524.6160382381768
 30
0.0
 11
167.0770918366324
 21
524.6160382381765
 31
0.0
  0
LINE
  5
27D
330
66
100
AcDbEntity
  8
0
  6
Continuous
 62
     7
100
AcDbLine
 10
165.0000000000011
 20
525.3160382381773
 30
0.0
 11
165.200000000001
 21
525.3160382381761
 31
0.0
  0
LINE
  5
27E
330
66
100
AcDbEntity
  8
0
  6
Continuous
 62
     7
100
AcDbLine
 10
165.0000000000011
 20
522.3160382381773
 30
0.0
 11
166.3008380599908
 21
522.3160382381767
 31
0.0
  0
LINE
  5
27F
330
66
100
AcDbEntity
  8
0
  6
Continuous
 62
     3
100
AcDbLine
 10
166.7102832578598
 20
522.3250342111197
 30
0.0
 11
166.7102832578618
 21
523.0330356783466
 31
0.0
  0
LINE
  5
280
330
66
100
AcDbEntity
  8
0
  6
Continuous
 62
     7
100
AcDbLine
 10
165.200000000001
 20
525.3160382381761
 30
0.0
 11
166.8755625564182
 21
525.3160382381767
 31
0.0
  0
LINE
  5
281
330
66
100
AcDbEntity
  8
0
  6
Continuous
 62
     7
100
AcDbLine
 10
167.8175239804588
 20
522.3160382381767
 30
0.0
 11
166.873047088686
 21
522.3160382381773
 31
0.0
  0
LINE
  5
282
330
66
100
AcDbEntity
  8
0
  6
Continuous
 62
     7
100
AcDbLine
 10
166.3024557828783
 20
522.3160382381767
 30
0.0
 11
166.873047088686
 21
522.3160382381773
 31
0.0
  0
LINE
  5
283
330
66
100
AcDbEntity
  8
0
  6
Continuous
 62
     3
100
AcDbLine
 10
165.5000000000011
 20
525.6160382381753
 30
0.0
 11
167.3794072349411
 21
525.6160382381765
 31
0.0
  0
LINE
  5
284
330
66
100
AcDbEntity
  8
0
  6
Continuous
 62
     7
100
AcDbLine
 10
167.8175239804588
 20
523.0160382381766
 30
0.0
 11
167.8175239804588
 21
522.3160382381767
 31
0.0
  0
LINE
  5
285
330
66
100
AcDbEntity
  8
0
  6
Continuous
 62
     7
100
AcDbLine
 10
168.0849117047764
 20
525.8160382381767
 30
0.0
 11
168.0849117047764
 21
525.6160382381765
 31
0.0
  0
LINE
  5
286
330
66
100
AcDbEntity
  8
0
  6
Continuous
 62
     7
100
AcDbLine
 10
165.5000000000011
 20
529.6160382381765
 30
0.0
 11
165.5000000000011
 21
525.6160382381753
 31
0.0
  0
LINE
  5
287
330
66
100
AcDbEntity
  8
0
  6
Continuous
 62
     7
100
AcDbLine
 10
155.6099501605559
 20
552.3864699602441
 30
0.0
 11
135.4389891610937
 21
552.7385553941541
 31
0.0
  0
LINE
  5
288
330
66
100
AcDbEntity
  8
0
  6
Continuous
 62
     7
100
AcDbLine
 10
317.0000000000011
 20
530.1160382381765
 30
0.0
 11
246.8747542355173
 21
530.1160382381765
 31
0.0
  0
LINE
  5
289
330
66
100
AcDbEntity
  8
0
  6
Continuous
 62
     3
100
AcDbLine
 10
320.2000000000011
 20
533.3160382381767
 30
0.0
 11
247.1221123085915
 21
533.3160382381767
 31
0.0
  0
LINE
  5
28A
330
66
100
AcDbEntity
  8
0
  6
Continuous
 62
     7
100
AcDbLine
 10
320.200000000001
 20
546.0874294807587
 30
0.0
 11
320.2000000000011
 21
533.3160382381767
 31
0.0
  0
LINE
  5
28B
330
66
100
AcDbEntity
  8
0
  6
Continuous
 62
     3
100
AcDbLine
 10
247.1221123085915
 20
533.3160382381767
 30
0.0
 11
161.8000000000012
 21
533.3160382381767
 31
0.0
  0
LINE
  5
28C
330
66
100
AcDbEntity
  8
0
  6
Continuous
 62
     7
100
AcDbLine
 10
225.6498725704087
 20
523.0160382381766
 30
0.0
 11
235.8550308226959
 21
523.0160382381766
 31
0.0
  0
LINE
  5
28D
330
66
100
AcDbEntity
  8
0
  6
Continuous
 62
     7
100
AcDbLine
 10
225.6498725704087
 20
522.3160382381767
 30
0.0
 11
235.8571776470338
 21
522.3160382381773
 31
0.0
  0
LINE
  5
28E
330
66
100
AcDbEntity
  8
0
  6
Continuous
 62
     7
100
AcDbLine
 10
235.752044475293
 20
525.8160382381767
 30
0.0
 11
235.8067432086784
 21
525.8160382381767
 31
0.0
  0
LINE
  5
28F
330
66
100
AcDbEntity
  8
0
  6
Continuous
 62
     7
100
AcDbLine
 10
235.752044475293
 20
525.8160382381767
 30
0.0
 11
235.752044475293
 21
525.6160382381765
 31
0.0
  0
LINE
  5
290
330
66
100
AcDbEntity
  8
0
  6
Continuous
 62
     7
100
AcDbLine
 10
282.7463656437319
 20
525.8160382381767
 30
0.0
 11
283.2980158627944
 21
525.8160382381767
 31
0.0
  0
LINE
  5
291
330
66
100
AcDbEntity
  8
0
  6
Continuous
 62
     7
100
AcDbLine
 10
272.6807462414282
 20
525.8160382381767
 30
0.0
 11
282.7463656437319
 21
525.8160382381767
 31
0.0
  0
LINE
  5
292
330
66
100
AcDbEntity
  8
0
  6
Continuous
 62
     7
100
AcDbLine
 10
274.0771110369541
 20
523.0160382381766
 30
0.0
 11
283.512887601053
 21
523.0160382381766
 31
0.0
  0
LINE
  5
293
330
66
100
AcDbEntity
  8
0
  6
Continuous
 62
     7
100
AcDbLine
 10
274.0771110369541
 20
522.3160382381767
 30
0.0
 11
283.512887601053
 21
522.3160382381767
 31
0.0
  0
LINE
  5
294
330
66
100
AcDbEntity
  8
0
  6
Continuous
 62
     7
100
AcDbLine
 10
283.512887601053
 20
523.0160382381766
 30
0.0
 11
283.512887601053
 21
522.3160382381767
 31
0.0
  0
LINE
  5
295
330
66
100
AcDbEntity
  8
0
  6
Continuous
 62
     7
100
AcDbLine
 10
273.490140011213
 20
524.6160382381765
 30
0.0
 11
283.5343185839828
 21
524.616038238177
 31
0.0
  0
LINE
  5
296
330
66
100
AcDbEntity
  8
0
  6
Continuous
 62
     3
100
AcDbLine
 10
272.6807462414282
 20
525.6160382381765
 30
0.0
 11
282.7463656437319
 21
525.6160382381765
 31
0.0
  0
LINE
  5
297
330
66
100
AcDbEntity
  8
0
  6
Continuous
 62
     7
100
AcDbLine
 10
235.8067432086784
 20
525.6160382381765
 30
0.0
 11
235.8067432086784
 21
525.8160382381767
 31
0.0
  0
LINE
  5
298
330
66
100
AcDbEntity
  8
0
  6
Continuous
 62
     7
100
AcDbLine
 10
257.7688655574462
 20
522.3160382381767
 30
0.0
 11
235.8571776470338
 21
522.3160382381773
 31
0.0
  0
LINE
  5
299
330
66
100
AcDbEntity
  8
0
  6
Continuous
 62
     7
100
AcDbLine
 10
235.8458069806551
 20
525.3160382381773
 30
0.0
 11
235.8301821379516
 21
525.3160382381792
 31
0.0
  0
LINE
  5
29A
330
66
100
AcDbEntity
  8
0
  6
Continuous
 62
     7
100
AcDbLine
 10
235.8301821379516
 20
524.6160382381773
 30
0.0
 11
235.8458069806551
 21
524.6160382381765
 31
0.0
  0
LINE
  5
29B
330
66
100
AcDbEntity
  8
0
  6
Continuous
 62
     7
100
AcDbLine
 10
235.8550308226958
 20
522.3177525360763
 30
0.0
 11
235.8571776470338
 21
522.3160382381773
 31
0.0
  0
LINE
  5
29C
330
66
100
AcDbEntity
  8
0
  6
Continuous
 62
     7
100
AcDbLine
 10
235.8550308226958
 20
523.0192490411201
 30
0.0
 11
235.8550308226958
 21
522.3177525360763
 31
0.0
  0
LINE
  5
29D
330
66
100
AcDbEntity
  8
0
  6
Continuous
 62
     3
100
AcDbLine
 10
235.858621312346
 20
523.0330356783466
 30
0.0
 11
235.858621312346
 21
522.3250342111196
 31
0.0
  0
LINE
  5
29E
330
66
100
AcDbEntity
  8
0
  6
Continuous
 62
     7
100
AcDbLine
 10
257.7643564943665
 20
525.3160382381767
 30
0.0
 11
235.8458069806551
 21
525.3160382381773
 31
0.0
  0
LINE
  5
29F
330
66
100
AcDbEntity
  8
0
  6
Continuous
 62
     3
100
AcDbLine
 10
235.8067432086784
 20
525.6160382381765
 30
0.0
 11
257.7409175650933
 21
525.6160382381765
 31
0.0
  0
LINE
  5
2A0
330
66
100
AcDbEntity
  8
0
  6
Continuous
 62
     7
100
AcDbLine
 10
274.0771110369541
 20
522.3160382381767
 30
0.0
 11
273.4077598771191
 21
522.3160382381767
 31
0.0
  0
LINE
  5
2A1
330
66
100
AcDbEntity
  8
0
  6
Continuous
 62
     7
100
AcDbLine
 10
273.4077598771191
 20
523.0160382381766
 30
0.0
 11
273.4077598771191
 21
522.3160382381767
 31
0.0
  0
LINE
  5
2A2
330
66
100
AcDbEntity
  8
0
  6
Continuous
 62
     3
100
AcDbLine
 10
274.0771110369541
 20
523.0160382381766
 30
0.0
 11
274.0771110369541
 21
522.3160382381767
 31
0.0
  0
LINE
  5
2A3
330
66
100
AcDbEntity
  8
0
  6
Continuous
 62
     7
100
AcDbLine
 10
257.7409175650933
 20
525.8160382381767
 30
0.0
 11
257.7409175650933
 21
525.6160382381765
 31
0.0
  0
LINE
  5
2A4
330
66
100
AcDbEntity
  8
0
  6
Continuous
 62
     7
100
AcDbLine
 10
272.6807462414282
 20
525.8160382381767
 30
0.0
 11
272.6807462414282
 21
525.6160382381765
 31
0.0
  0
LINE
  5
2A5
330
66
100
AcDbEntity
  8
0
  6
Continuous
 62
     7
100
AcDbLine
 10
257.77998133707
 20
525.3160382381767
 30
0.0
 11
257.7643564943665
 21
525.3160382381767
 31
0.0
  0
LINE
  5
2A6
330
66
100
AcDbEntity
  8
0
  6
Continuous
 62
     7
100
AcDbLine
 10
272.6807462414282
 20
525.8160382381767
 30
0.0
 11
257.7409175650933
 21
525.8160382381767
 31
0.0
  0
LINE
  5
2A7
330
66
100
AcDbEntity
  8
0
  6
Continuous
 62
     7
100
AcDbLine
 10
273.5273086762915
 20
523.0160382381766
 30
0.0
 11
274.0771110369541
 21
523.0160382381766
 31
0.0
  0
LINE
  5
2A8
330
66
100
AcDbEntity
  8
0
  6
Continuous
 62
     7
100
AcDbLine
 10
273.4077598771191
 20
523.0160382381766
 30
0.0
 11
273.5273086762915
 21
523.0160382381766
 31
0.0
  0
LINE
  5
2A9
330
66
100
AcDbEntity
  8
0
  6
Continuous
 62
     7
100
AcDbLine
 10
273.3553083734941
 20
524.6160382381765
 30
0.0
 11
273.490140011213
 21
524.6160382381765
 31
0.0
  0
LINE
  5
2AA
330
66
100
AcDbEntity
  8
0
  6
Continuous
 62
     7
100
AcDbLine
 10
346.5610108389084
 20
552.7385553941541
 30
0.0
 11
135.4389891610937
 21
552.7385553941541
 31
0.0
  0
LINE
  5
2AB
330
66
100
AcDbEntity
  8
0
  6
Continuous
 62
     7
100
AcDbLine
 10
350.9989998999811
 20
554.8160382381766
 30
0.0
 11
131.001000100021
 21
554.8160382381766
 31
0.0
  0
LINE
  5
2AC
330
66
100
AcDbEntity
  8
0
  6
Continuous
 62
     7
100
AcDbLine
 10
246.8747542355173
 20
530.1160382381765
 30
0.0
 11
165.0000000000012
 21
530.1160382381765
 31
0.0
  0
LINE
  5
2AD
330
66
100
AcDbEntity
  8
0
  6
Continuous
 62
     7
100
AcDbLine
 10
161.8000000000012
 20
546.0874294807587
 30
0.0
 11
161.8000000000012
 21
533.3160382381767
 31
0.0
  0
LINE
  5
2AE
330
66
100
AcDbEntity
  8
0
  6
Continuous
 62
     3
100
AcDbLine
 10
247.1221123085915
 20
546.0874294807587
 30
0.0
 11
161.8000000000012
 21
546.0874294807587
 31
0.0
  0
LINE
  5
2AF
330
66
100
AcDbEntity
  8
1
  6
DOT_CENTER
 62
     2
100
AcDbLine
 10
241.0000000000006
 20
558.424525565156
 30
0.0
 11
241.0000000000006
 21
518.82482351179
 31
0.0
  0
LINE
  5
2B0
330
66
100
AcDbEntity
  8
1
  6
DOT_CENTER
 62
     2
100
AcDbLine
 10
241.0000000000011
 20
529.6160382381765
 30
0.0
 11
241.0000000000011
 21
525.6160382381753
 31
0.0
  0
ARC
  5
2B1
330
66
100
AcDbEntity
  8
0
  6
Continuous
 62
     7
100
AcDbCircle
 10
316.8254158428487
 20
523.8316453136008
 30
0.0
 40
1.515607123167315
100
AcDbArc
 50
270.0143811777542
 51
276.2457498231564
  0
ARC
  5
2B2
330
66
100
AcDbEntity
  8
0
  6
Continuous
 62
     7
100
AcDbCircle
 10
316.8254252914184
 20
523.8242069076805
 30
0.0
 40
0.8081687546460199
100
AcDbArc
 50
270.0263000180092
 51
281.7718191556931
  0
ARC
  5
2B3
330
66
100
AcDbEntity
  8
0
  6
Continuous
 62
     7
100
AcDbCircle
 10
315.1257104256341
 20
523.8157304501265
 30
0.0
 40
0.7996931771784127
100
AcDbArc
 50
270.089020659885
 51
281.8345657763178
  0
ARC
  5
2B4
330
66
100
AcDbEntity
  8
0
  6
Continuous
 62
     7
100
AcDbCircle
 10
316.800000000001
 20
525.6160382381773
 30
0.0
 40
0.2999999999998977
100
AcDbArc
 50
180.0000000003908
 51
270.0
  0
ARC
  5
2B5
330
66
100
AcDbEntity
  8
0
  6
Continuous
 62
     7
100
AcDbCircle
 10
326.5000000000011
 20
546.0874294807588
 30
0.0
 40
6.29999999999999
100
AcDbArc
 50
90.99999999999898
 51
180.000000000001
  0
ARC
  5
2B6
330
66
100
AcDbEntity
  8
0
  6
Continuous
 62
     7
100
AcDbCircle
 10
317.0000000000011
 20
533.3160382381767
 30
0.0
 40
3.200000000000159
100
AcDbArc
 50
270.0
 51
0.0
  0
ARC
  5
2B7
330
66
100
AcDbEntity
  8
0
  6
Continuous
 62
     7
100
AcDbCircle
 10
317.0000000000011
 20
523.8160382381755
 30
0.0
 40
1.5
100
AcDbArc
 50
270.0
 51
90.0
  0
ARC
  5
2B8
330
66
100
AcDbEntity
  8
0
  6
Continuous
 62
     7
100
AcDbCircle
 10
346.0000000000011
 20
559.7160382381765
 30
0.0
 40
6.999999999999832
100
AcDbArc
 50
274.5968662171123
 51
315.5729959991951
  0
ARC
  5
2B9
330
66
100
AcDbEntity
  8
0
  6
Continuous
 62
     7
100
AcDbCircle
 10
224.2314067998418
 20
523.041765590981
 30
0.0
 40
0.0257287943933121
100
AcDbArc
 50
199.8345461749148
 51
269.3934727682378
  0
ARC
  5
2BA
330
66
100
AcDbEntity
  8
0
  6
Continuous
 62
     7
100
AcDbCircle
 10
166.874304659136
 20
523.8157296164666
 30
0.0
 40
1.499691905558882
100
AcDbArc
 50
263.7209961353767
 51
269.9519544731811
  0
ARC
  5
2BB
330
66
100
AcDbEntity
  8
0
  6
Continuous
 62
     7
100
AcDbCircle
 10
166.8742895743658
 20
523.8157304501271
 30
0.0
 40
0.7996931771785334
100
AcDbArc
 50
258.1654342238596
 51
269.9109793402882
  0
ARC
  5
2BC
330
66
100
AcDbEntity
  8
0
  6
Continuous
 62
     7
100
AcDbCircle
 10
165.200000000001
 20
525.6160382381761
 30
0.0
 40
0.2999999999999545
100
AcDbArc
 50
270.0
 51
359.999999999848
  0
ARC
  5
2BD
330
66
100
AcDbEntity
  8
0
  6
Continuous
 62
     7
100
AcDbCircle
 10
165.0000000000011
 20
529.6160382381768
 30
0.0
 40
0.5
100
AcDbArc
 50
359.999999999974
 51
89.99999999999022
  0
ARC
  5
2BE
330
66
100
AcDbEntity
  8
0
  6
Continuous
 62
     7
100
AcDbCircle
 10
165.0000000000011
 20
533.3160382381767
 30
0.0
 40
3.199999999999903
100
AcDbArc
 50
180.0
 51
270.0000000000015
  0
ARC
  5
2BF
330
66
100
AcDbEntity
  8
0
  6
Continuous
 62
     7
100
AcDbCircle
 10
165.0000000000011
 20
523.8160382381773
 30
0.0
 40
1.5
100
AcDbArc
 50
90.0
 51
270.0
  0
ARC
  5
2C0
330
66
100
AcDbEntity
  8
0
  6
Continuous
 62
     7
100
AcDbCircle
 10
136.0000000000011
 20
559.7160382381765
 30
0.0
 40
6.999999999999984
100
AcDbArc
 50
224.4270040008043
 51
265.4031337828868
  0
ARC
  5
2C1
330
66
100
AcDbEntity
  8
0
  6
Continuous
 62
     7
100
AcDbCircle
 10
317.0000000000011
 20
529.6160382381768
 30
0.0
 40
0.4999999999997726
100
AcDbArc
 50
90.0
 51
180.0000000000261
  0
ARC
  5
2C2
330
66
100
AcDbEntity
  8
0
  6
Continuous
 62
     7
100
AcDbCircle
 10
155.5000000000011
 20
546.0874294807588
 30
0.0
 40
6.300000000000097
100
AcDbArc
 50
359.999999999999
 51
89.00000000000077
  0
SPLINE
  5
2C3
330
66
100
AcDbEntity
  8
0
  6
Continuous
 62
     7
100
AcDbSpline
210
0.0
220
0.0
230
1.0
 70
     8
 71
     3
 72
     9
 73
     5
 74
     3
 42
0.000000001
 43
0.0000000001
 44
0.00000001
 40
0.0
 40
0.0
 40
0.0
 40
0.0
 40
0.0769129093756053
 40
0.1722252896794367
 40
0.1722252896794367
 40
0.1722252896794367
 40
0.1722252896794367
 10
208.4726913237099
 20
522.3160382381766
 30
0.0
 10
208.4470476804614
 20
522.3178926441101
 30
0.0
 10
208.3896258026885
 20
522.3220450957278
 30
0.0
 10
208.3343890584788
 20
522.3384441179669
 30
0.0
 10
208.3038201147958
 20
522.3475196243908
 30
0.0
 11
208.4726913237099
 21
522.3160382381766
 31
0.0
 11
208.3961961899727
 21
522.3240438770804
 31
0.0
 11
208.3038201147958
 21
522.3475196243908
 31
0.0
  0
SPLINE
  5
2C4
330
66
100
AcDbEntity
  8
0
  6
Continuous
 62
     7
100
AcDbSpline
210
0.0
220
0.0
230
1.0
 70
     8
 71
     3
 72
     9
 73
     5
 74
     3
 42
0.000000001
 43
0.0000000001
 44
0.00000001
 40
0.0
 40
0.0
 40
0.0
 40
0.0
 40
0.109826710958213
 40
0.2319488284593835
 40
0.2319488284593835
 40
0.2319488284593835
 40
0.2319488284593835
 10
177.9178203843276
 20
522.3475196243905
 30
0.0
 10
177.9534015044273
 20
522.3384099301215
 30
0.0
 10
178.0285471538505
 20
522.3191707055415
 30
0.0
 10
178.1061237576628
 20
522.3171186462957
 30
0.0
 10
178.1469681949876
 20
522.3160382381766
 30
0.0
 11
177.9178203843276
 21
522.3475196243905
 31
0.0
 11
178.0251087615756
 21
522.3240438770804
 31
0.0
 11
178.1469681949876
 21
522.3160382381766
 31
0.0
  0
SPLINE
  5
2C5
330
66
100
AcDbEntity
  8
0
  6
Continuous
 62
     7
100
AcDbSpline
210
0.0
220
0.0
230
1.0
 70
     8
 71
     3
 72
    11
 73
     7
 74
     5
 42
0.000000001
 43
0.0000000001
 44
0.00000001
 40
0.0
 40
0.0
 40
0.0
 40
0.0
 40
0.0795777822077721
 40
0.1706917292726399
 40
0.2777165607302741
 40
0.3955911738904122
 40
0.3955911738904122
 40
0.3955911738904122
 40
0.3955911738904122
 10
178.2586918960387
 20
525.3160382381764
 30
0.0
 10
178.2853747016962
 20
525.3210481405845
 30
0.0
 10
178.342608439105
 20
525.3317942304448
 30
0.0
 10
178.4082220722399
 20
525.4040963424305
 30
0.0
 10
178.4520835071296
 20
525.5011952204925
 30
0.0
 10
178.4579267698923
 20
525.5765455278905
 30
0.0
 10
178.4609893420855
 20
525.6160382381765
 30
0.0
 11
178.2586918960387
 21
525.3160382381764
 31
0.0
 11
178.3350658229873
 21
525.3383910310874
 31
0.0
 11
178.4003793035239
 21
525.4019197786128
 31
0.0
 11
178.4448318757305
 21
525.499276257873
 31
0.0
 11
178.4609893420855
 21
525.6160382381765
 31
0.0
  0
SPLINE
  5
2C6
330
66
100
AcDbEntity
  8
0
  6
Continuous
 62
     7
100
AcDbSpline
210
0.0
220
0.0
230
1.0
 70
     8
 71
     3
 72
    15
 73
    11
 74
     9
 42
0.000000001
 43
0.0000000001
 44
0.00000001
 40
0.0
 40
0.0
 40
0.0
 40
0.0
 40
0.1773185692565978
 40
0.3659112956994057
 40
0.5688684568955329
 40
0.7868776783622219
 40
1.019557971097865
 40
1.264527124885416
 40
1.518640487957161
 40
1.779421570800265
 40
1.779421570800265
 40
1.779421570800265
 40
1.779421570800265
 10
177.9178203843276
 20
522.3475196243905
 30
0.0
 10
177.8625271069768
 20
522.3690699745242
 30
0.0
 10
177.7484249360072
 20
522.4135408887132
 30
0.0
 10
177.5955973083875
 20
522.5294365330792
 30
0.0
 10
177.4572653188636
 20
522.6791784090025
 30
0.0
 10
177.3374465521871
 20
522.8623572860075
 30
0.0
 10
177.2402695311575
 20
523.0737247855343
 30
0.0
 10
177.1682561061146
 20
523.3073364319963
 30
0.0
 10
177.1222746486523
 20
523.5573412576377
 30
0.0
 10
177.1164163474028
 20
523.7290646565302
 30
0.0
 10
177.1134492719639
 20
523.8160382381767
 30
0.0
 11
177.9178203843276
 21
522.3475196243905
 31
0.0
 11
177.7556507475
 21
522.4192335368992
 31
0.0
 11
177.6032455235364
 21
522.5303184868187
 31
0.0
 11
177.4649503538962
 21
522.678864966554
 31
0.0
 11
177.3447356072416
 21
522.8607342490999
 31
0.0
 11
177.2466651003656
 21
523.0717373167929
 31
0.0
 11
177.1737128714202
 21
523.3055916699575
 31
0.0
 11
177.1288402208603
 21
523.555711732619
 31
0.0
 11
177.1134492719639
 21
523.8160382381767
 31
0.0
  0
SPLINE
  5
2C7
330
66
100
AcDbEntity
  8
0
  6
Continuous
 62
     7
100
AcDbSpline
210
0.0
220
0.0
230
1.0
 70
     8
 71
     3
 72
    15
 73
    11
 74
     9
 42
0.000000001
 43
0.0000000001
 44
0.00000001
 40
0.0
 40
0.0
 40
0.0
 40
0.0
 40
0.3502261851519103
 40
0.5895854497927074
 40
0.8715983914713588
 40
1.126649900437241
 40
1.311810902192917
 40
1.585809968832711
 40
1.750925300793069
 40
1.986955807725427
 40
1.986955807725427
 40
1.986955807725427
 40
1.986955807725427
 10
177.1134492719639
 20
523.8160382381767
 30
0.0
 10
177.1185924709059
 20
523.932934883446
 30
0.0
 10
177.1272507593464
 20
524.129723598176
 30
0.0
 10
177.1915851411529
 20
524.4140915899511
 30
0.0
 10
177.2796969750569
 20
524.6583431797912
 30
0.0
 10
177.3974692774376
 20
524.8697553612708
 30
0.0
 10
177.5454556504938
 20
525.0572228677664
 30
0.0
 10
177.7064531330972
 20
525.1927061792603
 30
0.0
 10
177.9105154146346
 20
525.2943265961243
 30
0.0
 10
178.0448305007413
 20
525.3079955556839
 30
0.0
 10
178.1238602583198
 20
525.3160382381767
 30
0.0
 11
177.1134492719639
 21
523.8160382381767
 31
0.0
 11
177.1411796682962
 21
524.165164866192
 31
0.0
 11
177.192796309701
 21
524.3988924416897
 31
0.0
 11
177.2900993793126
 21
524.6635873831389
 31
0.0
 11
177.4153879772862
 21
524.8857450746334
 31
0.0
 11
177.5308332918036
 21
525.0305103203823
 31
0.0
 11
177.742117013864
 21
525.2049657001465
 31
0.0
 11
177.8912954882936
 21
525.2757389787812
 31
0.0
 11
178.1238602583198
 21
525.3160382381767
 31
0.0
  0
SPLINE
  5
2C8
330
66
100
AcDbEntity
  8
0
  6
Continuous
 62
     7
100
AcDbSpline
210
0.0
220
0.0
230
1.0
 70
     8
 71
     3
 72
    15
 73
    11
 74
     9
 42
0.000000001
 43
0.0000000001
 44
0.00000001
 40
0.0
 40
0.0
 40
0.0
 40
0.0
 40
0.1996844739980544
 40
0.3949299239342612
 40
0.5840789832229996
 40
0.7644481611346904
 40
0.9355696608308179
 40
1.098090934451341
 40
1.25384741169113
 40
1.406844948696741
 40
1.406844948696741
 40
1.406844948696741
 40
1.406844948696741
 10
282.7463656437319
 20
525.6160382381765
 30
0.0
 10
282.7493906214689
 20
525.549407498875
 30
0.0
 10
282.7553733453413
 20
525.4176272354899
 30
0.0
 10
282.8030036693692
 20
525.2275455893562
 30
0.0
 10
282.8768087610581
 20
525.0535619939982
 30
0.0
 10
282.9757456155862
 20
524.9017030735474
 30
0.0
 10
283.0958235121172
 20
524.7777475815252
 30
0.0
 10
283.2319825351879
 20
524.6862040598237
 30
0.0
 10
283.380050306619
 20
524.6272790235921
 30
0.0
 10
283.4832030724335
 20
524.6197627743647
 30
0.0
 10
283.5343185839828
 20
524.616038238177
 30
0.0
 11
282.7463656437319
 21
525.6160382381765
 31
0.0
 11
282.7621445130606
 21
525.4169781575714
 31
0.0
 11
282.8083736122645
 21
525.2272845728221
 31
0.0
 11
282.8830214995393
 21
525.0534885435451
 31
0.0
 11
282.982122212553
 21
524.9027832368874
 31
0.0
 11
283.1017476264254
 21
524.7804217698207
 31
0.0
 11
283.2368495646755
 21
524.6900855559816
 31
0.0
 11
283.3824814034476
 21
524.6348456343268
 31
0.0
 11
283.5343185839828
 21
524.616038238177
 31
0.0
  0
SPLINE
  5
2C9
330
66
100
AcDbEntity
  8
0
  6
Continuous
 62
     7
100
AcDbSpline
210
0.0
220
0.0
230
1.0
 70
     8
 71
     3
 72
    11
 73
     7
 74
     5
 42
0.000000001
 43
0.0000000001
 44
0.00000001
 40
0.0
 40
0.0
 40
0.0
 40
0.0
 40
0.0919697441049867
 40
0.1912492873532095
 40
0.3015872816294562
 40
0.4198647845575041
 40
0.4198647845575041
 40
0.4198647845575041
 40
0.4198647845575041
 10
283.5343185839828
 20
525.316038238177
 30
0.0
 10
283.5034356494534
 20
525.3207915936028
 30
0.0
 10
283.4392151937924
 20
525.3306761172136
 30
0.0
 10
283.3613793085767
 20
525.4014478953466
 30
0.0
 10
283.3086975229241
 20
525.4997798874883
 30
0.0
 10
283.3016579035191
 20
525.5763984999135
 30
0.0
 10
283.2980158627944
 20
525.6160382381765
 30
0.0
 11
283.5343185839828
 21
525.316038238177
 31
0.0
 11
283.4451065493355
 21
525.3383910310876
 31
0.0
 11
283.3688141715389
 21
525.4019197786128
 31
0.0
 11
283.316889325321
 21
525.499276257873
 31
0.0
 11
283.2980158627944
 21
525.6160382381765
 31
0.0
  0
SPLINE
  5
2CA
330
66
100
AcDbEntity
  8
0
  6
Continuous
 62
     7
100
AcDbSpline
210
0.0
220
0.0
230
1.0
 70
     8
 71
     3
 72
     9
 73
     5
 74
     3
 42
0.000000001
 43
0.0000000001
 44
0.00000001
 40
0.0
 40
0.0
 40
0.0
 40
0.0
 40
0.099110046809453
 40
0.2168905639412432
 40
0.2168905639412432
 40
0.2168905639412432
 40
0.2168905639412432
 10
283.725828171237
 20
523.0160382381766
 30
0.0
 10
283.7589390565657
 20
523.0195120856282
 30
0.0
 10
283.8313982917048
 20
523.0271142076097
 30
0.0
 10
283.896912256916
 20
523.0592817888731
 30
0.0
 10
283.9324890372781
 20
523.0767501217858
 30
0.0
 11
283.725828171237
 21
523.0160382381766
 31
0.0
 11
283.8237105752005
 21
523.0315893348006
 31
0.0
 11
283.9324890372781
 21
523.0767501217858
 31
0.0
  0
SPLINE
  5
2CB
330
66
100
AcDbEntity
  8
0
  6
Continuous
 62
     7
100
AcDbSpline
210
0.0
220
0.0
230
1.0
 70
     8
 71
     3
 72
     9
 73
     5
 74
     3
 42
0.000000001
 43
0.0000000001
 44
0.00000001
 40
0.0
 40
0.0
 40
0.0
 40
0.0
 40
0.1127024890757711
 40
0.2094646999082251
 40
0.2094646999082251
 40
0.2094646999082251
 40
0.2094646999082251
 10
283.9324890372781
 20
522.3475196243905
 30
0.0
 10
283.8959326068662
 20
522.3384253586285
 30
0.0
 10
283.8279901667501
 20
522.3215231105993
 30
0.0
 10
283.7581095299775
 20
522.3177713531798
 30
0.0
 10
283.7258281712367
 20
522.3160382381767
 30
0.0
 11
283.9324890372781
 21
522.3475196243905
 31
0.0
 11
283.8222586400406
 21
522.3240438770804
 31
0.0
 11
283.7258281712367
 21
522.3160382381767
 31
0.0
  0
SPLINE
  5
2CC
330
66
100
AcDbEntity
  8
0
  6
Continuous
 62
     7
100
AcDbSpline
210
0.0
220
0.0
230
1.0
 70
     8
 71
     3
 72
    15
 73
    11
 74
     9
 42
0.000000001
 43
0.0000000001
 44
0.00000001
 40
0.0
 40
0.0
 40
0.0
 40
0.0
 40
0.1214653103717733
 40
0.2463188957432695
 40
0.3763571353692363
 40
0.513209019553389
 40
0.6573851746725607
 40
0.8085074888455737
 40
0.9657142483472391
 40
1.125033905239301
 40
1.125033905239301
 40
1.125033905239301
 40
1.125033905239301
 10
283.6918148031289
 20
524.6160382381765
 30
0.0
 10
283.7323920278482
 20
524.6130820981796
 30
0.0
 10
283.8146783772235
 20
524.6070873427647
 30
0.0
 10
283.9329907795133
 20
524.5602122759531
 30
0.0
 10
284.0420945957923
 20
524.4870715642401
 30
0.0
 10
284.1380028263462
 20
524.3878191247405
 30
0.0
 10
284.2171464087147
 20
524.2664845040376
 30
0.0
 10
284.2762067503875
 20
524.1270360148935
 30
0.0
 10
284.3141284945481
 20
523.9747988184164
 30
0.0
 10
284.3190278763973
 20
523.8691934132935
 30
0.0
 10
284.3214939124743
 20
523.8160382381767
 30
0.0
 11
283.6918148031289
 21
524.6160382381765
 31
0.0
 11
283.8123663705149
 21
524.6011673877496
 31
0.0
 11
283.9291682121734
 21
524.5570567480736
 31
0.0
 11
284.0373335945049
 21
524.4848750708976
 31
0.0
 11
284.1329500606339
 21
524.3869673076766
 31
0.0
 11
284.2121702296834
 21
524.2665059908019
 31
0.0
 11
284.2717514660249
 21
524.1276246374559
 31
0.0
 11
284.3088342984439
 21
523.9748541273127
 31
0.0
 11
284.3214939124743
 21
523.8160382381767
 31
0.0
  0
SPLINE
  5
2CD
330
66
100
AcDbEntity
  8
0
  6
Continuous
 62
     7
100
AcDbSpline
210
0.0
220
0.0
230
1.0
 70
     8
 71
     3
 72
    11
 73
     7
 74
     5
 42
0.000000001
 43
0.0000000001
 44
0.00000001
 40
0.0
 40
0.0
 40
0.0
 40
0.0
 40
0.2369194653133625
 40
0.4641007848329661
 40
0.6770059844980783
 40
0.8734408969516073
 40
0.8734408969516073
 40
0.8734408969516073
 40
0.8734408969516073
 10
284.3214939124743
 20
523.8160382381767
 30
0.0
 10
284.3161844039802
 20
523.7368089947828
 30
0.0
 10
284.305783610229
 20
523.5816070846763
 30
0.0
 10
284.2234483258708
 20
523.3687527824385
 30
0.0
 10
284.1019241995781
 20
523.1896311758424
 30
0.0
 10
283.9874318489321
 20
523.1133541030681
 30
0.0
 10
283.9324890372781
 20
523.0767501217858
 30
0.0
 11
284.3214939124743
 21
523.8160382381767
 31
0.0
 11
284.2935668606654
 21
523.5807704909383
 31
0.0
 11
284.2135846519172
 21
523.3681341832748
 31
0.0
 11
284.0889485119487
 21
523.1955234708321
 31
0.0
 11
283.9324890372781
 21
523.0767501217858
 31
0.0
  0
SPLINE
  5
2CE
330
66
100
AcDbEntity
  8
0
  6
Continuous
 62
     7
100
AcDbSpline
210
0.0
220
0.0
230
1.0
 70
     8
 71
     3
 72
     9
 73
     5
 74
     3
 42
0.000000001
 43
0.0000000001
 44
0.00000001
 40
0.0
 40
0.0
 40
0.0
 40
0.0
 40
0.1355032893279804
 40
0.2607203315093763
 40
0.2607203315093763
 40
0.2607203315093763
 40
0.2607203315093763
 10
309.6875111667138
 20
522.3160382381767
 30
0.0
 10
309.7327876525487
 20
522.3171997004765
 30
0.0
 10
309.8199036199991
 20
522.3194344766911
 30
0.0
 10
309.9049358020748
 20
522.3384074164735
 30
0.0
 10
309.945774496445
 20
522.3475196243908
 30
0.0
 11
309.6875111667138
 21
522.3160382381767
 31
0.0
 11
309.8227777602976
 21
522.3240438770804
 31
0.0
 11
309.945774496445
 21
522.3475196243908
 31
0.0
  0
SPLINE
  5
2CF
330
66
100
AcDbEntity
  8
0
  6
Continuous
 62
     7
100
AcDbSpline
210
0.0
220
0.0
230
1.0
 70
     8
 71
     3
 72
    15
 73
    11
 74
     9
 42
0.000000001
 43
0.0000000001
 44
0.00000001
 40
0.0
 40
0.0
 40
0.0
 40
0.0
 40
0.2739677960867508
 40
0.5478417244060789
 40
0.8219335322659851
 40
1.096063542086835
 40
1.370385127980418
 40
1.644837629668869
 40
1.919510876070054
 40
2.196193334959619
 40
2.196193334959619
 40
2.196193334959619
 40
2.196193334959619
 10
316.9903034945267
 20
522.3250342111196
 30
0.0
 10
317.0806697612527
 20
522.3397822244574
 30
0.0
 10
317.2613713302303
 20
522.3692732123363
 30
0.0
 10
317.5171128826285
 20
522.4737141802515
 30
0.0
 10
317.7503411971658
 20
522.6198226547949
 30
0.0
 10
317.9537809258568
 20
522.8060195216815
 30
0.0
 10
318.1196188411201
 20
523.0265496204499
 30
0.0
 10
318.242413528353
 20
523.2733759838729
 30
0.0
 10
318.3210713075152
 20
523.5396601362722
 30
0.0
 10
318.3311037817778
 20
523.7236886623946
 30
0.0
 10
318.3361382915139
 20
523.8160382381767
 30
0.0
 11
316.9903034945267
 21
522.3250342111196
 31
0.0
 11
317.2588407526325
 21
522.37931215425
 31
0.0
 11
317.5132881394314
 21
522.4806208752318
 31
0.0
 11
317.7453464062593
 21
522.6264813591581
 31
0.0
 11
317.9474578305101
 21
522.8116791864935
 31
0.0
 11
318.1124062783101
 21
523.0308693843659
 31
0.0
 11
318.2349907677691
 21
523.2764243059157
 31
0.0
 11
318.3103362444991
 21
523.5405614908495
 31
0.0
 11
318.3361382915139
 21
523.8160382381767
 31
0.0
  0
SPLINE
  5
2D0
330
66
100
AcDbEntity
  8
0
  6
Continuous
 62
     7
100
AcDbSpline
210
0.0
220
0.0
230
1.0
 70
     8
 71
     3
 72
    11
 73
     7
 74
     5
 42
0.000000001
 43
0.0000000001
 44
0.00000001
 40
0.0
 40
0.0
 40
0.0
 40
0.0
 40
0.2728333333440361
 40
0.545221406808216
 40
0.8174625990190449
 40
1.089535852946017
 40
1.089535852946017
 40
1.089535852946017
 40
1.089535852946017
 10
317.6310287475808
 20
523.8160382381766
 30
0.0
 10
317.6217839013335
 20
523.724575482488
 30
0.0
 10
317.6033092820319
 20
523.5417992397446
 30
0.0
 10
317.4605103862927
 20
523.301446290751
 30
0.0
 10
317.2527215154918
 20
523.1151475583232
 30
0.0
 10
317.0777581761319
 20
523.0604006701449
 30
0.0
 10
316.9903034945268
 20
523.0330356783466
 30
0.0
 11
317.6310287475808
 21
523.8160382381766
 31
0.0
 11
317.5840709254644
 21
523.5472762770937
 31
0.0
 11
317.4496218796014
 21
523.3103823800943
 31
0.0
 11
317.2435540198522
 21
523.1324742417194
 31
0.0
 11
316.9903034945268
 21
523.0330356783466
 31
0.0
  0
SPLINE
  5
2D1
330
66
100
AcDbEntity
  8
0
  6
Continuous
 62
     7
100
AcDbSpline
210
0.0
220
0.0
230
1.0
 70
     8
 71
     3
 72
    15
 73
    11
 74
     9
 42
0.000000001
 43
0.0000000001
 44
0.00000001
 40
0.0
 40
0.0
 40
0.0
 40
0.0
 40
0.1361714463537167
 40
0.2728012472679053
 40
0.4093247899832371
 40
0.5457515101642081
 40
0.6820562930873983
 40
0.8186144522157793
 40
0.9562440064238986
 40
1.093414795237525
 40
1.093414795237525
 40
1.093414795237525
 40
1.093414795237525
 10
315.2897167421405
 20
523.0330356783466
 30
0.0
 10
315.333748739114
 20
523.0444823943967
 30
0.0
 10
315.4219609410803
 20
523.0674143702075
 30
0.0
 10
315.5447240920054
 20
523.129166134033
 30
0.0
 10
315.6558999372579
 20
523.2093012715106
 30
0.0
 10
315.7516906266529
 20
523.3074243976541
 30
0.0
 10
315.8292572261892
 20
523.4205249313139
 30
0.0
 10
315.8863061467363
 20
523.545448030211
 30
0.0
 10
315.9232670194905
 20
523.6785580464041
 30
0.0
 10
315.9280530047661
 20
523.7702625391737
 30
0.0
 10
315.9304419951946
 20
523.8160382381767
 30
0.0
 11
315.2897167421405
 21
523.0330356783466
 31
0.0
 11
315.4202194310302
 21
523.0719164108355
 31
0.0
 11
315.5428097634237
 21
523.1322431326504
 31
0.0
 11
315.6533738654511
 21
523.2123321921705
 31
0.0
 11
315.7486791883764
 21
523.3099495357651
 31
0.0
 11
315.8257681014901
 21
523.4223608060811
 31
0.0
 11
315.8828160849605
 21
523.5464319905451
 31
0.0
 11
315.9183153621655
 21
523.6794045290744
 31
0.0
 11
315.9304419951946
 21
523.8160382381767
 31
0.0
  0
SPLINE
  5
2D2
330
66
100
AcDbEntity
  8
0
  6
Continuous
 62
     7
100
AcDbSpline
210
0.0
220
0.0
230
1.0
 70
     8
 71
     3
 72
    15
 73
    11
 74
     9
 42
0.000000001
 43
0.0000000001
 44
0.00000001
 40
0.0
 40
0.0
 40
0.0
 40
0.0
 40
0.1568802550009107
 40
0.3143919415610511
 40
0.4716250031960776
 40
0.6287738981499795
 40
0.7857946799532558
 40
0.9430675743093386
 40
1.101476897629529
 40
1.259285747851462
 40
1.259285747851462
 40
1.259285747851462
 40
1.259285747851462
 10
316.8250241959703
 20
524.6160382381765
 30
0.0
 10
316.8773911954705
 20
524.6130508295478
 30
0.0
 10
316.9823359663986
 20
524.6070639737632
 30
0.0
 10
317.1339579870235
 20
524.560186154377
 30
0.0
 10
317.2739322566864
 20
524.4866918781598
 30
0.0
 10
317.3968445239778
 20
524.3871105954855
 30
0.0
 10
317.4980852018309
 20
524.2655313129299
 30
0.0
 10
317.5733679494094
 20
524.1261836072053
 30
0.0
 10
317.6217030664238
 20
523.9742779646192
 30
0.0
 10
317.6279241297525
 20
523.8687179974895
 30
0.0
 10
317.6310287475808
 20
523.8160382381766
 30
0.0
 11
316.8250241959703
 21
524.6160382381765
 31
0.0
 11
316.9811612361007
 21
524.600785709509
 31
0.0
 11
317.1320874883745
 21
524.5557168911719
 31
0.0
 11
317.2711353017666
 21
524.4823142906257
 31
0.0
 11
317.3932627671074
 21
524.3834170820741
 31
0.0
 11
317.4936783023787
 21
524.2627015210915
 31
0.0
 11
317.5687069039795
 21
524.1244789731385
 31
0.0
 11
317.6152247943016
 21
523.9730537432705
 31
0.0
 11
317.6310287475808
 21
523.8160382381766
 31
0.0
  0
SPLINE
  5
2D3
330
66
100
AcDbEntity
  8
0
  6
Continuous
 62
     7
100
AcDbSpline
210
0.0
220
0.0
230
1.0
 70
     8
 71
     3
 72
    15
 73
    11
 74
     9
 42
0.000000001
 43
0.0000000001
 44
0.00000001
 40
0.0
 40
0.0
 40
0.0
 40
0.0
 40
0.1573182952330715
 40
0.315232124913727
 40
0.4727134129094595
 40
0.6299453129523837
 40
0.7868160760475185
 40
0.9437711712000967
 40
1.101848109336296
 40
1.259289952899367
 40
1.259289952899367
 40
1.259289952899367
 40
1.259289952899367
 10
315.9304419951946
 20
523.8160382381767
 30
0.0
 10
315.9273591166594
 20
523.8685538926269
 30
0.0
 10
315.9211816748387
 20
523.9737840000998
 30
0.0
 10
315.8730834834715
 20
524.1254795304488
 30
0.0
 10
315.7979565082488
 20
524.2648877617557
 30
0.0
 10
315.6967828579041
 20
524.3865872119911
 30
0.0
 10
315.5740530294878
 20
524.4862039711318
 30
0.0
 10
315.4341693167931
 20
524.5598668537946
 30
0.0
 10
315.2823139785102
 20
524.6069963590144
 30
0.0
 10
315.1769922898239
 20
524.6130283304221
 30
0.0
 10
315.1244374435841
 20
524.6160382381754
 30
0.0
 11
315.9304419951946
 21
523.8160382381767
 31
0.0
 11
315.9147435037866
 21
523.9725713144053
 31
0.0
 11
315.8685163986253
 21
524.1235674501063
 31
0.0
 11
315.7935366938133
 21
524.2620535521507
 31
0.0
 11
315.6930848263335
 21
524.3830134346808
 31
0.0
 11
315.5712611954403
 21
524.4818437930367
 31
0.0
 11
315.432548484158
 21
524.5552855122764
 31
0.0
 11
315.2811278020962
 21
524.6006737929821
 31
0.0
 11
315.1244374435841
 21
524.6160382381754
 31
0.0
  0
SPLINE
  5
2D4
330
66
100
AcDbEntity
  8
0
  6
Continuous
 62
     7
100
AcDbSpline
210
0.0
220
0.0
230
1.0
 70
     8
 71
     3
 72
    15
 73
    11
 74
     9
 42
0.000000001
 43
0.0000000001
 44
0.00000001
 40
0.0
 40
0.0
 40
0.0
 40
0.0
 40
0.1961272252558474
 40
0.3930442565967405
 40
0.5896137115520782
 40
0.7860777530698395
 40
0.9823824907120804
 40
1.179002089571216
 40
1.377038550273753
 40
1.574323293931871
 40
1.574323293931871
 40
1.574323293931871
 40
1.574323293931871
 10
314.9229081633699
 20
524.6160382381765
 30
0.0
 10
314.8574404752191
 20
524.6197730007151
 30
0.0
 10
314.7262414613712
 20
524.6272575801404
 30
0.0
 10
314.536685915002
 20
524.6858542927619
 30
0.0
 10
314.3616812188331
 20
524.7777098447217
 30
0.0
 10
314.207993247096
 20
524.902171376202
 30
0.0
 10
314.0813829291073
 20
525.0541327359565
 30
0.0
 10
313.9872210324289
 20
525.2283173549304
 30
0.0
 10
313.9267564900772
 20
525.4182142581592
 30
0.0
 10
313.9189727550392
 20
525.5501805571901
 30
0.0
 10
313.9150882952259
 20
525.6160382381765
 30
0.0
 11
314.9229081633699
 21
524.6160382381765
 31
0.0
 11
314.7277099391792
 21
524.6351050263341
 31
0.0
 11
314.5390228332908
 21
524.6914388000738
 31
0.0
 11
314.3651756158175
 21
524.7831813541533
 31
0.0
 11
314.2124686785266
 21
524.9067884392799
 31
0.0
 11
314.0868916381835
 21
525.0576723600469
 31
0.0
 11
313.9930490026364
 21
525.230452066789
 31
0.0
 11
313.9348599292732
 21
525.4197467373876
 31
0.0
 11
313.9150882952259
 21
525.6160382381765
 31
0.0
  0
SPLINE
  5
2D5
330
66
100
AcDbEntity
  8
0
  6
Continuous
 62
     7
100
AcDbSpline
210
0.0
220
0.0
230
1.0
 70
     8
 71
     3
 72
    11
 73
     7
 74
     5
 42
0.000000001
 43
0.0000000001
 44
0.00000001
 40
0.0
 40
0.0
 40
0.0
 40
0.0
 40
0.1176151975382094
 40
0.2346282626079992
 40
0.3518819564247175
 40
0.4698432728127533
 40
0.4698432728127533
 40
0.4698432728127533
 40
0.4698432728127533
 10
316.6234949157561
 20
525.3160382381767
 30
0.0
 10
316.5840346090188
 20
525.3206229205592
 30
0.0
 10
316.5053160161962
 20
525.3297688280228
 30
0.0
 10
316.4052863204184
 20
525.3981914932473
 30
0.0
 10
316.335420573403
 20
525.4975402215758
 30
0.0
 10
316.3259360425304
 20
525.5764597575364
 30
0.0
 10
316.3211795174474
 20
525.6160382381765
 30
0.0
 11
316.6234949157561
 21
525.3160382381767
 31
0.0
 11
316.5081346077797
 21
525.3389584155824
 31
0.0
 11
316.4103762530937
 21
525.4032651986031
 31
0.0
 11
316.3447979048481
 21
525.500465557774
 31
0.0
 11
316.3211795174474
 21
525.6160382381765
 31
0.0
  0
SPLINE
  5
2D6
330
66
100
AcDbEntity
  8
0
  6
Continuous
 62
     7
100
AcDbSpline
210
0.0
220
0.0
230
1.0
 70
     8
 71
     3
 72
    11
 73
     7
 74
     5
 42
0.000000001
 43
0.0000000001
 44
0.00000001
 40
0.0
 40
0.0
 40
0.0
 40
0.0
 40
0.1182306736143236
 40
0.22842229238992
 40
0.3277278025014932
 40
0.419831947578731
 40
0.419831947578731
 40
0.419831947578731
 40
0.419831947578731
 10
309.3113013219603
 20
525.6160382381765
 30
0.0
 10
309.3149510626117
 20
525.5764183907471
 30
0.0
 10
309.3220023950101
 20
525.4998726367495
 30
0.0
 10
309.3745671685747
 20
525.4015379860525
 30
0.0
 10
309.4524308828045
 20
525.330801571338
 30
0.0
 10
309.5166854673762
 20
525.3208343465411
 30
0.0
 10
309.5476040431489
 20
525.3160382381767
 30
0.0
 11
309.3113013219603
 21
525.6160382381765
 31
0.0
 11
309.3301767451754
 21
525.4993240123007
 31
0.0
 11
309.3819801843383
 21
525.4020686923147
 31
0.0
 11
309.4582841238583
 21
525.3385132510766
 31
0.0
 11
309.5476040431489
 21
525.3160382381767
 31
0.0
  0
SPLINE
  5
2D7
330
66
100
AcDbEntity
  8
0
  6
Continuous
 62
     7
100
AcDbSpline
210
0.0
220
0.0
230
1.0
 70
     8
 71
     3
 72
    15
 73
    11
 74
     9
 42
0.000000001
 43
0.0000000001
 44
0.00000001
 40
0.0
 40
0.0
 40
0.0
 40
0.0
 40
0.1974911916569895
 40
0.3941276376753946
 40
0.5911120979516147
 40
0.7875632288498566
 40
0.9840829815344154
 40
1.18039681802406
 40
1.376718624911803
 40
1.574345179119045
 40
1.574345179119045
 40
1.574345179119045
 40
1.574345179119045
 10
315.6156750476121
 20
525.6160382381765
 30
0.0
 10
315.6194741390939
 20
525.5500991747306
 30
0.0
 10
315.6270558938724
 20
525.4185064348057
 30
0.0
 10
315.6876138190087
 20
525.2289340127469
 30
0.0
 10
315.7814837532841
 20
525.0549567851281
 30
0.0
 10
315.9080010094348
 20
524.9026473440832
 30
0.0
 10
316.0617334516316
 20
524.778270311464
 30
0.0
 10
316.2363254429213
 20
524.6862487986119
 30
0.0
 10
316.4260133524078
 20
524.6273024193233
 30
0.0
 10
316.5575225424271
 20
524.619801241656
 30
0.0
 10
316.6234949157561
 20
524.6160382381765
 30
0.0
 11
315.6156750476121
 21
525.6160382381765
 31
0.0
 11
315.6353068312123
 21
525.4195252244249
 31
0.0
 11
315.6931414583277
 21
525.2315862752449
 31
0.0
 11
315.7870295057142
 21
525.0584160907155
 31
0.0
 11
315.9125458552742
 21
524.9072913296308
 31
0.0
 11
316.0652735933451
 21
524.7836213987677
 31
0.0
 11
316.2387788405169
 21
524.6917788583548
 31
0.0
 11
316.4268132151521
 21
524.6353401609424
 31
0.0
 11
316.6234949157561
 21
524.6160382381765
 31
0.0
  0
SPLINE
  5
2D8
330
66
100
AcDbEntity
  8
0
  6
Continuous
 62
     7
100
AcDbSpline
210
0.0
220
0.0
230
1.0
 70
     8
 71
     3
 72
    15
 73
    11
 74
     9
 42
0.000000001
 43
0.0000000001
 44
0.00000001
 40
0.0
 40
0.0
 40
0.0
 40
0.0
 40
0.3481633291172009
 40
0.5909864589944644
 40
0.8333766889910859
 40
1.180968135196248
 40
1.544685844188061
 40
1.769959998286165
 40
2.003528582384988
 40
2.360658103803851
 40
2.360658103803851
 40
2.360658103803851
 40
2.360658103803851
 10
318.3361382915139
 20
523.8160382381767
 30
0.0
 10
318.3284159997335
 20
523.9323937146969
 30
0.0
 10
318.3153078577076
 20
524.1299001858561
 30
0.0
 10
318.2256348739973
 20
524.3950506082084
 30
0.0
 10
318.0981108934348
 20
524.6425402416482
 30
0.0
 10
317.8972956533655
 20
524.8929587555655
 30
0.0
 10
317.647617312267
 20
525.0858490587609
 30
0.0
 10
317.4016684811587
 20
525.2084267351378
 30
0.0
 10
317.1417685897936
 20
525.2948726620624
 30
0.0
 10
316.9443694979051
 20
525.3080633202621
 30
0.0
 10
316.8250241959703
 20
525.3160382381767
 30
0.0
 11
318.3361382915139
 21
523.8160382381767
 31
0.0
 11
318.2954504612624
 21
524.1618159204206
 31
0.0
 11
318.2200562414192
 21
524.3926378968567
 31
0.0
 11
318.1084999370825
 21
524.607831333684
 31
0.0
 11
317.8911760172352
 21
524.8791063393226
 31
0.0
 11
317.6034288126993
 21
525.1015745833035
 31
0.0
 11
317.4019905471249
 21
525.2024263073172
 31
0.0
 11
317.1796780455664
 21
525.2740603481069
 31
0.0
 11
316.8250241959703
 21
525.3160382381767
 31
0.0
  0
SPLINE
  5
2D9
330
66
100
AcDbEntity
  8
0
  6
Continuous
 62
     7
100
AcDbSpline
210
0.0
220
0.0
230
1.0
 70
     8
 71
     3
 72
    15
 73
    11
 74
     9
 42
0.000000001
 43
0.0000000001
 44
0.00000001
 40
0.0
 40
0.0
 40
0.0
 40
0.0
 40
0.2025498986938611
 40
0.4123887749247709
 40
0.6318468773024031
 40
0.8616181902181304
 40
1.1017125567461
 40
1.350609086666926
 40
1.606162279674748
 40
1.867108830461474
 40
1.867108830461474
 40
1.867108830461474
 40
1.867108830461474
 10
283.9324890372781
 20
522.3475196243905
 30
0.0
 10
283.996770915371
 20
522.3688798325317
 30
0.0
 10
284.1276479194464
 20
522.4123689324794
 30
0.0
 10
284.3064770427358
 20
522.5274817024917
 30
0.0
 10
284.4685155684141
 20
522.6770427519623
 30
0.0
 10
284.6090880021815
 20
522.860233562358
 30
0.0
 10
284.723192561108
 20
523.0719997378326
 30
0.0
 10
284.8077094670401
 20
523.3060835557369
 30
0.0
 10
284.861708999037
 20
523.55670135965
 30
0.0
 10
284.8685932115644
 20
523.728992914693
 30
0.0
 10
284.872071253521
 20
523.8160382381767
 30
0.0
 11
283.9324890372781
 21
522.3475196243905
 31
0.0
 11
284.121918648108
 21
522.4192335368992
 31
0.0
 11
284.2999424929449
 21
522.5303184868187
 31
0.0
 11
284.461484447882
 21
522.678864966554
 31
0.0
 11
284.6019067434502
 21
522.8607342490999
 31
0.0
 11
284.7164624538458
 21
523.0717373167929
 31
0.0
 11
284.8016776187105
 21
523.3055916699575
 31
0.0
 11
284.8540931565309
 21
523.555711732619
 31
0.0
 11
284.872071253521
 21
523.8160382381767
 31
0.0
  0
SPLINE
  5
2DA
330
66
100
AcDbEntity
  8
0
  6
Continuous
 62
     7
100
AcDbSpline
210
0.0
220
0.0
230
1.0
 70
     8
 71
     3
 72
    15
 73
    11
 74
     9
 42
0.000000001
 43
0.0000000001
 44
0.00000001
 40
0.0
 40
0.0
 40
0.0
 40
0.0
 40
0.2999295695921985
 40
0.5920592605289539
 40
0.8784635131346713
 40
1.14615514238276
 40
1.402741947996264
 40
1.646399757424
 40
1.879893926161163
 40
2.109253071089261
 40
2.109253071089261
 40
2.109253071089261
 40
2.109253071089261
 10
284.872071253521
 20
523.8160382381767
 30
0.0
 10
284.867541071261
 20
523.916121654784
 30
0.0
 10
284.8585985030988
 20
524.1136857474766
 30
0.0
 10
284.7870633593304
 20
524.3995581729996
 30
0.0
 10
284.6767871251025
 20
524.6604319160572
 30
0.0
 10
284.5282580229037
 20
524.8879946421974
 30
0.0
 10
284.3490998977227
 20
525.073405343519
 30
0.0
 10
284.1450397621196
 20
525.2107932346812
 30
0.0
 10
283.9230802780289
 20
525.2991864888785
 30
0.0
 10
283.7684427969333
 20
525.3104545483936
 30
0.0
 10
283.6918148031289
 20
525.3160382381767
 30
0.0
 11
284.872071253521
 21
523.8160382381767
 31
0.0
 11
284.8484028056977
 21
524.1150324691472
 31
0.0
 11
284.779386341764
 21
524.3988924416897
 31
0.0
 11
284.666517451455
 21
524.6621185989867
 31
0.0
 11
284.5193780332454
 21
524.8857450746334
 31
0.0
 11
284.3401859405453
 21
525.0693941520685
 31
0.0
 11
284.1377273404495
 21
525.2049657001465
 31
0.0
 11
283.9194332644288
 21
525.2878344217364
 31
0.0
 11
283.6918148031289
 21
525.3160382381767
 31
0.0
  0
SPLINE
  5
2DB
330
66
100
AcDbEntity
  8
0
  6
Continuous
 62
     7
100
AcDbSpline
210
0.0
220
0.0
230
1.0
 70
     8
 71
     3
 72
    13
 73
     9
 74
     7
 42
0.000000001
 43
0.0000000001
 44
0.00000001
 40
0.0
 40
0.0
 40
0.0
 40
0.0
 40
0.2594040427960909
 40
0.5149750551809835
 40
0.7643926032906339
 40
1.004646159168922
 40
1.452452299726084
 40
1.863422280808222
 40
1.863422280808222
 40
1.863422280808222
 40
1.863422280808222
 10
310.8853567126869
 20
523.8160382381767
 30
0.0
 10
310.8820120310563
 20
523.7294902140843
 30
0.0
 10
310.8753720752859
 20
523.5576730259463
 30
0.0
 10
310.8212281817396
 20
523.3075425524935
 30
0.0
 10
310.7372959296954
 20
523.0726350775693
 30
0.0
 10
310.5880019305897
 20
522.7982888814148
 30
0.0
 10
310.3425688800365
 20
522.5088692521352
 30
0.0
 10
310.0742022055016
 20
522.3997425435057
 30
0.0
 10
309.945774496445
 20
522.3475196243908
 30
0.0
 11
310.8853567126869
 21
523.8160382381767
 31
0.0
 11
310.867751946374
 21
523.5572322689975
 31
0.0
 11
310.8153868950253
 21
523.3070834246147
 31
0.0
 11
310.7303402782999
 21
523.0726134116321
 31
0.0
 11
310.6156802197301
 21
522.8614858604981
 31
0.0
 11
310.3135183010971
 21
522.5309884808942
 31
0.0
 11
309.945774496445
 21
522.3475196243908
 31
0.0
  0
SPLINE
  5
2DC
330
66
100
AcDbEntity
  8
0
  6
Continuous
 62
     7
100
AcDbSpline
210
0.0
220
0.0
230
1.0
 70
     8
 71
     3
 72
    15
 73
    11
 74
     9
 42
0.000000001
 43
0.0000000001
 44
0.00000001
 40
0.0
 40
0.0
 40
0.0
 40
0.0
 40
0.1972377047924719
 40
0.4617877443776056
 40
0.7162172381002023
 40
0.9621491822036514
 40
1.276621969931964
 40
1.515910790288475
 40
1.746710044366349
 40
2.109106265232919
 40
2.109106265232919
 40
2.109106265232919
 40
2.109106265232919
 10
309.7051002622948
 20
525.3160382381767
 30
0.0
 10
309.770957769354
 20
525.3119368647607
 30
0.0
 10
309.9251483148572
 20
525.3023344056681
 30
0.0
 10
310.1521524386953
 20
525.2157463720614
 30
0.0
 10
310.3645856485369
 20
525.0718291135857
 30
0.0
 10
310.5536671079265
 20
524.8744277724245
 30
0.0
 10
310.6969802135955
 20
524.6471052344525
 30
0.0
 10
310.7960140387034
 20
524.4044072059422
 30
0.0
 10
310.8682719355189
 20
524.1351491204385
 30
0.0
 10
310.8788775289777
 20
523.9370570569
 30
0.0
 10
310.8853567126869
 20
523.8160382381767
 30
0.0
 11
309.7051002622948
 21
525.3160382381767
 31
0.0
 11
309.9012448166364
 21
525.2953011303448
 31
0.0
 11
310.15007032612
 21
525.20545352729
 31
0.0
 11
310.3610365860939
 21
525.0632297399916
 31
0.0
 11
310.5320595603404
 21
524.8864992556051
 31
0.0
 11
310.7009922482877
 21
524.6212543087207
 31
0.0
 11
310.7922828423098
 21
524.4000639672873
 31
0.0
 11
310.8506607396338
 21
524.176769729285
 31
0.0
 11
310.8853567126869
 21
523.8160382381767
 31
0.0
  0
SPLINE
  5
2DD
330
66
100
AcDbEntity
  8
0
  6
Continuous
 62
     7
100
AcDbSpline
210
0.0
220
0.0
230
1.0
 70
     8
 71
     3
 72
     9
 73
     5
 74
     3
 42
0.000000001
 43
0.0000000001
 44
0.00000001
 40
0.0
 40
0.0
 40
0.0
 40
0.0
 40
0.0149506325226657
 40
0.0263133717057802
 40
0.0263133717057802
 40
0.0263133717057802
 40
0.0263133717057802
 10
224.2311344425564
 20
522.3160382381767
 30
0.0
 10
224.2259489510701
 20
522.3161666813477
 30
0.0
 10
224.2168224022053
 20
522.3163927619044
 30
0.0
 10
224.2101050424426
 20
522.3224280312234
 30
0.0
 10
224.2072043312416
 20
522.3250342111197
 30
0.0
 11
224.2311344425564
 21
522.3160382381767
 31
0.0
 11
224.2163557154872
 21
522.3182989262373
 31
0.0
 11
224.2072043312416
 21
522.3250342111197
 31
0.0
  0
SPLINE
  5
2DE
330
66
100
AcDbEntity
  8
0
  6
Continuous
 62
     7
100
AcDbSpline
210
0.0
220
0.0
230
1.0
 70
     8
 71
     3
 72
    15
 73
    11
 74
     9
 42
0.000000001
 43
0.0000000001
 44
0.00000001
 40
0.0
 40
0.0
 40
0.0
 40
0.0
 40
0.0243429669283785
 40
0.0825452587919299
 40
0.1752726513031717
 40
0.2994454629979103
 40
0.4506431825533911
 40
0.6235760122698343
 40
0.8129244364645399
 40
1.009221926973406
 40
1.009221926973406
 40
1.009221926973406
 40
1.009221926973406
 10
224.2356435056362
 20
524.6160382381718
 30
0.0
 10
224.2411405453618
 20
524.622160899181
 30
0.0
 10
224.2597806303335
 20
524.6429223913009
 30
0.0
 10
224.2662254920497
 20
524.7040678398736
 30
0.0
 10
224.2818652636852
 20
524.7928736835111
 30
0.0
 10
224.2917209066076
 20
524.9159573866722
 30
0.0
 10
224.3015425812916
 20
525.0647997250958
 30
0.0
 10
224.3083848607999
 20
525.2359288430671
 30
0.0
 10
224.3129228972927
 20
525.4220486662537
 30
0.0
 10
224.3134916572728
 20
525.5506028955161
 30
0.0
 10
224.313781168295
 20
525.6160382381765
 30
0.0
 11
224.2356435056362
 21
524.6160382381718
 31
0.0
 11
224.2507774928453
 21
524.6351050263336
 31
0.0
 11
224.2654066640831
 21
524.691438800074
 31
0.0
 11
224.27888527833
 21
524.7831813541533
 31
0.0
 11
224.2907248575333
 21
524.90678843928
 31
0.0
 11
224.3004610184547
 21
525.0576723600469
 31
0.0
 11
224.3077367672578
 21
525.230452066789
 31
0.0
 11
224.3122482462717
 21
525.4197467373875
 31
0.0
 11
224.313781168295
 21
525.6160382381765
 31
0.0
  0
SPLINE
  5
2DF
330
66
100
AcDbEntity
  8
0
  6
Continuous
 62
     7
100
AcDbSpline
210
0.0
220
0.0
230
1.0
 70
     8
 71
     3
 72
    13
 73
     9
 74
     7
 42
0.000000001
 43
0.0000000001
 44
0.00000001
 40
0.0
 40
0.0
 40
0.0
 40
0.0
 40
0.0782737116473438
 40
0.1507219673628168
 40
0.2127761321250383
 40
0.2601993411548525
 40
0.290536600069907
 40
0.3025673787018509
 40
0.3025673787018509
 40
0.3025673787018509
 40
0.3025673787018509
 10
224.2590824349094
 20
525.6160382381765
 30
0.0
 10
224.2589431197515
 20
525.5899390372458
 30
0.0
 10
224.2586748715564
 20
525.5396830464085
 30
0.0
 10
224.256152638487
 20
525.468883971355
 30
0.0
 10
224.2533619112985
 20
525.4080410020302
 30
0.0
 10
224.247406314097
 20
525.3623485308611
 30
0.0
 10
224.245619951052
 20
525.3313783229116
 30
0.0
 10
224.2378498804582
 20
525.3194308358429
 30
0.0
 10
224.2356435056362
 20
525.3160382381773
 30
0.0
 11
224.2590824349094
 21
525.6160382381765
 31
0.0
 11
224.2582549841333
 21
525.5377689037267
 31
0.0
 11
224.2558933823264
 21
525.465359148876
 31
0.0
 11
224.2521787552712
 21
525.4034162647021
 31
0.0
 11
224.247335077403
 21
525.3562410644282
 31
0.0
 11
224.2417040758951
 21
525.3264309816888
 31
0.0
 11
224.2356435056362
 21
525.3160382381773
 31
0.0
  0
SPLINE
  5
2E0
330
66
100
AcDbEntity
  8
0
  6
Continuous
 62
     7
100
AcDbSpline
210
0.0
220
0.0
230
1.0
 70
     8
 71
     3
 72
    15
 73
    11
 74
     9
 42
0.000000001
 43
0.0000000001
 44
0.00000001
 40
0.0
 40
0.0
 40
0.0
 40
0.0
 40
0.1565378122371197
 40
0.3075764775094449
 40
0.4461845389286316
 40
0.5673948883964305
 40
0.6666755546566374
 40
0.740900532389851
 40
0.7877825145372975
 40
0.8073695080761466
 40
0.8073695080761466
 40
0.8073695080761466
 40
0.8073695080761466
 10
224.1575280197675
 20
523.8160382381767
 30
0.0
 10
224.1577578318416
 20
523.8682197616517
 30
0.0
 10
224.1582093695495
 20
523.9707496805988
 30
0.0
 10
224.1618197557871
 20
524.1194199310067
 30
0.0
 10
224.1672770535325
 20
524.2563481733586
 30
0.0
 10
224.1751273488634
 20
524.3755759604339
 30
0.0
 10
224.183002691079
 20
524.4741190944866
 30
0.0
 10
224.1955007749808
 20
524.5452757266247
 30
0.0
 10
224.2006310360263
 20
524.5943558615234
 30
0.0
 10
224.2156058952938
 20
524.6111031612322
 30
0.0
 10
224.2200186629329
 20
524.6160382381768
 30
0.0
 11
224.1575280197675
 21
523.8160382381767
 31
0.0
 11
224.1587451454312
 21
523.9725713144053
 31
0.0
 11
224.1623291965727
 21
524.1235674501063
 31
0.0
 11
224.168142476372
 21
524.2620535521506
 31
0.0
 11
224.1759306480311
 21
524.3830134346807
 31
0.0
 11
224.1853758019474
 21
524.4818437930367
 31
0.0
 11
224.1961303895312
 21
524.5552855122764
 31
0.0
 11
224.2078702435949
 21
524.6006737929823
 31
0.0
 11
224.2200186629329
 21
524.6160382381768
 31
0.0
  0
SPLINE
  5
2E1
330
66
100
AcDbEntity
  8
0
  6
Continuous
 62
     7
100
AcDbSpline
210
0.0
220
0.0
230
1.0
 70
     8
 71
     3
 72
    15
 73
    11
 74
     9
 42
0.000000001
 43
0.0000000001
 44
0.00000001
 40
0.0
 40
0.0
 40
0.0
 40
0.0
 40
0.1304000769178996
 40
0.2670730841028318
 40
0.4138804521263499
 40
0.5734349866176802
 40
0.7462680444056047
 40
0.9312577333933385
 40
1.126363661714771
 40
1.325425157245617
 40
1.325425157245617
 40
1.325425157245617
 40
1.325425157245617
 10
208.6446916265076
 20
524.616038238177
 30
0.0
 10
208.6882813623156
 20
524.6197941299525
 30
0.0
 10
208.777557727536
 20
524.6274866053152
 30
0.0
 10
208.9048479235045
 20
524.687026123974
 30
0.0
 10
209.0215273591011
 20
524.7789640855163
 30
0.0
 10
209.1237844025549
 20
524.9031728891077
 30
0.0
 10
209.2080724702369
 20
525.0545613025821
 30
0.0
 10
209.2710039415715
 20
525.228431620829
 30
0.0
 10
209.3113998706422
 20
525.4181607796892
 30
0.0
 10
209.3166183440004
 20
525.5496392786605
 30
0.0
 10
209.3192537585736
 20
525.6160382381765
 30
0.0
 11
208.6446916265076
 21
524.616038238177
 31
0.0
 11
208.7737593663387
 21
524.6346312455114
 31
0.0
 11
208.898819307315
 21
524.6897631193613
 31
0.0
 11
209.014654820148
 21
524.7799547935218
 31
0.0
 11
209.1170846416711
 21
524.9022895047102
 31
0.0
 11
209.2019931499541
 21
525.0528279095025
 31
0.0
 11
209.2658852373292
 21
525.2264337453578
 31
0.0
 11
209.3056665564122
 21
525.417440995278
 31
0.0
 11
209.3192537585736
 21
525.6160382381765
 31
0.0
  0
SPLINE
  5
2E2
330
66
100
AcDbEntity
  8
0
  6
Continuous
 62
     7
100
AcDbSpline
210
0.0
220
0.0
230
1.0
 70
     8
 71
     3
 72
     9
 73
     5
 74
     3
 42
0.000000001
 43
0.0000000001
 44
0.00000001
 40
0.0
 40
0.0
 40
0.0
 40
0.0
 40
0.101726049125732
 40
0.180982444281531
 40
0.180982444281531
 40
0.180982444281531
 40
0.180982444281531
 10
208.3038201147967
 20
523.0767501217858
 30
0.0
 10
208.333401525045
 20
523.0593420550852
 30
0.0
 10
208.3860302934554
 20
523.0283711032062
 30
0.0
 10
208.4462984867963
 20
523.0197942374203
 30
0.0
 10
208.4726913237101
 20
523.0160382381764
 30
0.0
 11
208.3038201147967
 21
523.0767501217858
 31
0.0
 11
208.3949778773779
 21
523.0316009063118
 31
0.0
 11
208.4726913237101
 21
523.0160382381764
 31
0.0
  0
SPLINE
  5
2E3
330
66
100
AcDbEntity
  8
0
  6
Continuous
 62
     7
100
AcDbSpline
210
0.0
220
0.0
230
1.0
 70
     8
 71
     3
 72
    15
 73
    11
 74
     9
 42
0.000000001
 43
0.0000000001
 44
0.00000001
 40
0.0
 40
0.0
 40
0.0
 40
0.0
 40
0.1588113782608888
 40
0.3144915766328283
 40
0.4625704890189085
 40
0.6009375578234798
 40
0.7283311170389764
 40
0.8455527975081357
 40
0.9553162581426953
 40
1.060003132252745
 40
1.060003132252745
 40
1.060003132252745
 40
1.060003132252745
 10
207.9707952035464
 20
523.8160382381767
 30
0.0
 10
207.972882776152
 20
523.8690111060033
 30
0.0
 10
207.9770167748068
 20
523.9739124094148
 30
0.0
 10
208.0091080017089
 20
524.1254784919743
 30
0.0
 10
208.0592546584021
 20
524.2645705723759
 30
0.0
 10
208.1265145148895
 20
524.3857514872803
 30
0.0
 10
208.2080783540759
 20
524.4851497265447
 30
0.0
 10
208.3012457850457
 20
524.5588845539105
 30
0.0
 10
208.4031775699899
 20
524.6068037876645
 30
0.0
 10
208.4748648554506
 20
524.6130090572997
 30
0.0
 10
208.5098599887887
 20
524.6160382381768
 30
0.0
 11
207.9707952035464
 21
523.8160382381767
 31
0.0
 11
207.9815674295044
 21
523.9744838483185
 31
0.0
 11
208.0131496590776
 21
524.1269269085902
 31
0.0
 11
208.0641151438156
 21
524.2659588606402
 31
0.0
 11
208.1319319747732
 21
524.3865670003102
 31
0.0
 11
208.2135575034856
 21
524.4843749362342
 31
0.0
 11
208.3058958167785
 21
524.5565868391348
 31
0.0
 11
208.4062521939829
 21
524.6010459891268
 31
0.0
 11
208.5098599887887
 21
524.6160382381768
 31
0.0
  0
SPLINE
  5
2E4
330
66
100
AcDbEntity
  8
0
  6
Continuous
 62
     7
100
AcDbSpline
210
0.0
220
0.0
230
1.0
 70
     8
 71
     3
 72
    11
 73
     7
 74
     5
 42
0.000000001
 43
0.0000000001
 44
0.00000001
 40
0.0
 40
0.0
 40
0.0
 40
0.0
 40
0.1788668085545629
 40
0.3809105535634432
 40
0.6047120710732479
 40
0.8418382268359057
 40
0.8418382268359057
 40
0.8418382268359057
 40
0.8418382268359057
 10
208.3038201147967
 20
523.0767501217858
 30
0.0
 10
208.2564741610084
 20
523.1137960734221
 30
0.0
 10
208.1556473402322
 20
523.1926882729389
 30
0.0
 10
208.0539281842089
 20
523.3713289372474
 30
0.0
 10
207.9841629067266
 20
523.5827184244557
 30
0.0
 10
207.975336155143
 20
523.7367804093119
 30
0.0
 10
207.9707952035464
 20
523.8160382381767
 30
0.0
 11
208.3038201147967
 21
523.0767501217858
 31
0.0
 11
208.1698864970539
 21
523.1953044217771
 31
0.0
 11
208.0636253238927
 21
523.3671480700905
 31
0.0
 11
207.9949191583155
 21
523.5801423965031
 31
0.0
 11
207.9707952035464
 21
523.8160382381767
 31
0.0
  0
SPLINE
  5
2E5
330
66
100
AcDbEntity
  8
0
  6
Continuous
 62
     7
100
AcDbSpline
210
0.0
220
0.0
230
1.0
 70
     8
 71
     3
 72
    11
 73
     7
 74
     5
 42
0.000000001
 43
0.0000000001
 44
0.00000001
 40
0.0
 40
0.0
 40
0.0
 40
0.0
 40
0.1178275398158922
 40
0.2247171937801868
 40
0.3158568489319109
 40
0.395557655149645
 40
0.395557655149645
 40
0.395557655149645
 40
0.395557655149645
 10
208.8469890725544
 20
525.6160382381765
 30
0.0
 10
208.8439191521609
 20
525.576565025422
 30
0.0
 10
208.8380642777335
 20
525.5012828856119
 30
0.0
 10
208.7943061368149
 20
525.4041870931339
 30
0.0
 10
208.7286667136308
 20
525.3319204566981
 30
0.0
 10
208.6714053194687
 20
525.3210905975707
 30
0.0
 10
208.6446916265076
 20
525.3160382381767
 30
0.0
 11
208.8469890725544
 21
525.6160382381765
 31
0.0
 11
208.8308299276649
 21
525.4993240123007
 31
0.0
 11
208.7864812913633
 21
525.4020686923147
 31
0.0
 11
208.7211579128995
 21
525.3385132510766
 31
0.0
 11
208.6446916265076
 21
525.3160382381767
 31
0.0
  0
SPLINE
  5
2E6
330
66
100
AcDbEntity
  8
0
  6
Continuous
 62
     7
100
AcDbSpline
210
0.0
220
0.0
230
1.0
 70
     8
 71
     3
 72
    13
 73
     9
 74
     7
 42
0.000000001
 43
0.0000000001
 44
0.00000001
 40
0.0
 40
0.0
 40
0.0
 40
0.0
 40
0.2592444328060781
 40
0.5133784958428047
 40
0.7588926133249472
 40
0.9917234443028008
 40
1.411417869469924
 40
1.775800373877743
 40
1.775800373877743
 40
1.775800373877743
 40
1.775800373877743
 10
207.4994490024329
 20
523.8160382381767
 30
0.0
 10
207.5022998420014
 20
523.7295606863561
 30
0.0
 10
207.5079453381195
 20
523.5583102769365
 30
0.0
 10
207.5540799243225
 20
523.3087952646383
 30
0.0
 10
207.6255022242631
 20
523.0743245032567
 30
0.0
 10
207.7516855028649
 20
522.8035966470063
 30
0.0
 10
207.9544049197019
 20
522.5160838623251
 30
0.0
 10
208.1929578737092
 20
522.4010015782434
 30
0.0
 10
208.3038201147958
 20
522.3475196243908
 30
0.0
 11
207.4994490024329
 21
523.8160382381767
 31
0.0
 11
207.5145203450118
 21
523.5572322689976
 31
0.0
 11
207.5593497743839
 21
523.3070834246147
 31
0.0
 11
207.6321577102041
 21
523.0726134116321
 31
0.0
 11
207.730317548972
 21
522.8614858604981
 31
0.0
 11
207.9889966878521
 21
522.5309884808943
 31
0.0
 11
208.3038201147958
 21
522.3475196243908
 31
0.0
  0
SPLINE
  5
2E7
330
66
100
AcDbEntity
  8
0
  6
Continuous
 62
     7
100
AcDbSpline
210
0.0
220
0.0
230
1.0
 70
     8
 71
     3
 72
    15
 73
    11
 74
     9
 42
0.000000001
 43
0.0000000001
 44
0.00000001
 40
0.0
 40
0.0
 40
0.0
 40
0.0
 40
0.1691352309359471
 40
0.4003847038704233
 40
0.6493368469249322
 40
0.8597157612601894
 40
1.133770966006661
 40
1.396465293283006
 40
1.687251035978419
 40
1.987293406747189
 40
1.987293406747189
 40
1.987293406747189
 40
1.987293406747189
 10
208.5098599887887
 20
525.3160382381767
 30
0.0
 10
208.4533493344827
 20
525.3118853294056
 30
0.0
 10
208.3195747145737
 20
525.3020543575848
 30
0.0
 10
208.117808069554
 20
525.2110053057604
 30
0.0
 10
207.9380446245358
 20
525.0643524701434
 30
0.0
 10
207.7841059250292
 20
524.8728639757519
 30
0.0
 10
207.6635346603932
 20
524.6533305507132
 30
0.0
 10
207.5707056523421
 20
524.3928130305887
 30
0.0
 10
207.5110533591285
 20
524.1132123638155
 30
0.0
 10
207.5033573089818
 20
523.9161255472056
 30
0.0
 10
207.4994490024329
 20
523.8160382381767
 30
0.0
 11
208.5098599887887
 21
525.3160382381767
 31
0.0
 11
208.3419990476942
 21
525.2953154835644
 31
0.0
 11
208.1289235906534
 21
525.20545352729
 31
0.0
 11
207.9348050093856
 21
525.0495845211694
 31
0.0
 11
207.8019047306439
 21
524.8864992556051
 31
0.0
 11
207.6685862921481
 21
524.6470573012804
 31
0.0
 11
207.5791290254826
 21
524.4000639672873
 31
0.0
 11
207.5198383347931
 21
524.1153870248897
 31
0.0
 11
207.4994490024329
 21
523.8160382381767
 31
0.0
  0
SPLINE
  5
2E8
330
66
100
AcDbEntity
  8
0
  6
Continuous
 62
     7
100
AcDbSpline
210
0.0
220
0.0
230
1.0
 70
     8
 71
     3
 72
    15
 73
    11
 74
     9
 42
0.000000001
 43
0.0000000001
 44
0.00000001
 40
0.0
 40
0.0
 40
0.0
 40
0.0
 40
0.0401756871015396
 40
0.1012465598586708
 40
0.1817930674007641
 40
0.2796896729079258
 40
0.3922597220206877
 40
0.5164097192750238
 40
0.6494107386444646
 40
0.7860476848576989
 40
0.7860476848576989
 40
0.7860476848576989
 40
0.7860476848576989
 10
224.2072043312419
 20
523.0330356783466
 30
0.0
 10
224.2035851509674
 20
523.0459425553361
 30
0.0
 10
224.1944644601833
 20
523.0784691121459
 30
0.0
 10
224.1865204686737
 20
523.1386977307457
 30
0.0
 10
224.1779654565586
 20
523.2180289078699
 30
0.0
 10
224.1709672779512
 20
523.3148171913472
 30
0.0
 10
224.1651264779723
 20
523.4262001355349
 30
0.0
 10
224.1608478971776
 20
523.5493735479299
 30
0.0
 10
224.158065900029
 20
523.680612063543
 30
0.0
 10
224.1577089225066
 20
523.7704921845352
 30
0.0
 10
224.1575280197675
 20
523.8160382381767
 30
0.0
 11
224.2072043312419
 21
523.0330356783466
 31
0.0
 11
224.1970862780036
 21
523.0719164108355
 31
0.0
 11
224.1875816806638
 21
523.1322431326503
 31
0.0
 11
224.1790094935305
 21
523.2123321921705
 31
0.0
 11
224.1716203405601
 21
523.3099495357651
 31
0.0
 11
224.1656435309357
 21
523.4223608060811
 31
0.0
 11
224.1612205221931
 21
523.5464319905451
 31
0.0
 11
224.1584682143308
 21
523.6794045290744
 31
0.0
 11
224.1575280197675
 21
523.8160382381767
 31
0.0
  0
SPLINE
  5
2E9
330
66
100
AcDbEntity
  8
0
  6
Continuous
 62
     7
100
AcDbSpline
210
0.0
220
0.0
230
1.0
 70
     8
 71
     3
 72
    17
 73
    13
 74
    11
 42
0.000000001
 43
0.0000000001
 44
0.00000001
 40
0.0
 40
0.0
 40
0.0
 40
0.0
 40
0.2741364530377364
 40
0.5382616862968438
 40
0.7846373425945472
 40
1.004213926789441
 40
1.101693599885055
 40
1.189958054972674
 40
1.268952586148921
 40
1.337502057986546
 40
1.440932261144527
 40
1.499179079900312
 40
1.499179079900312
 40
1.499179079900312
 40
1.499179079900312
 10
224.1028599055312
 20
523.8160382381767
 30
0.0
 10
224.10322838825
 20
523.7246585547502
 30
0.0
 10
224.1039518831303
 20
523.5452362926729
 30
0.0
 10
224.1098414267854
 20
523.2837422395206
 30
0.0
 10
224.1189786297824
 20
523.0405441766956
 30
0.0
 10
224.1296587113788
 20
522.8530234672892
 30
0.0
 10
224.1399202086651
 20
522.7182960280564
 30
0.0
 10
224.1480274111296
 20
522.6304353435705
 30
0.0
 10
224.1564714139174
 20
522.5522327370932
 30
0.0
 10
224.1683039383724
 20
522.4695664552265
 30
0.0
 10
224.1787163425126
 20
522.3928111376122
 30
0.0
 10
224.1996592933257
 20
522.3429849286294
 30
0.0
 10
224.2072043312416
 20
522.3250342111197
 30
0.0
 11
224.1028599055312
 21
523.8160382381767
 31
0.0
 11
224.1048256641123
 21
523.5419088359888
 31
0.0
 11
224.1106592106783
 21
523.2778480311911
 31
0.0
 11
224.1201530003862
 21
523.0316553587421
 31
0.0
 11
224.1329405049129
 21
522.812451444475
 31
0.0
 11
224.1404249860337
 21
522.7152595250565
 31
0.0
 11
224.1485528199745
 21
522.6273700926056
 31
0.0
 11
224.157324955077
 21
522.548864133671
 31
0.0
 11
224.1666069984393
 21
522.480945993654
 31
0.0
 11
224.1863383850157
 21
522.3794153131918
 31
0.0
 11
224.2072043312416
 21
522.3250342111197
 31
0.0
  0
SPLINE
  5
2EA
330
66
100
AcDbEntity
  8
0
  6
Continuous
 62
     7
100
AcDbSpline
210
0.0
220
0.0
230
1.0
 70
     8
 71
     3
 72
    32
 73
    28
 74
    26
 42
0.000000001
 43
0.0000000001
 44
0.00000001
 40
0.0
 40
0.0
 40
0.0
 40
0.0
 40
0.0035679006485439
 40
0.0101444305966348
 40
0.0223724337449975
 40
0.0435249887930229
 40
0.0768832310911874
 40
0.1256815151671535
 40
0.1460217764786985
 40
0.1780060352393597
 40
0.2230597706849269
 40
0.2826245081806543
 40
0.3581545220659085
 40
0.451114128463674
 40
0.549397254513457
 40
0.6454740489595457
 40
0.7358542053932546
 40
0.8170407524202279
 40
0.8855323520040874
 40
0.9378246972051687
 40
1.044779352886374
 40
1.146213006078264
 40
1.240560947918249
 40
1.326256595506011
 40
1.401731886047462
 40
1.465417574568432
 40
1.515743473117696
 40
1.515743473117696
 40
1.515743473117696
 40
1.515743473117696
 10
224.2200186629327
 20
525.3160382381767
 30
0.0
 10
224.2188158640469
 20
525.3159468024361
 30
0.0
 10
224.2153960044052
 20
525.3156868461604
 30
0.0
 10
224.2092513961418
 20
525.3107581860855
 30
0.0
 10
224.2020513627564
 20
525.2995612430011
 30
0.0
 10
224.1935450409042
 20
525.2788569515542
 30
0.0
 10
224.1840678886172
 20
525.2457430063417
 30
0.0
 10
224.1770238158254
 20
525.2122783666034
 30
0.0
 10
224.1709970513122
 20
525.1791158645368
 30
0.0
 10
224.1658311959774
 20
525.1470665074719
 30
0.0
 10
224.1595111877399
 20
525.1019704020009
 30
0.0
 10
224.1523404592849
 20
525.0423467747092
 30
0.0
 10
224.1446250450995
 20
524.9667175186622
 30
0.0
 10
224.1370553193076
 20
524.8781122898287
 30
0.0
 10
224.1302477597663
 20
524.7825788321443
 30
0.0
 10
224.1245558915435
 20
524.6878347681917
 30
0.0
 10
224.11998574773
 20
524.5987364924122
 30
0.0
 10
224.1164470179174
 20
524.5187948195088
 30
0.0
 10
224.1138471848055
 20
524.4515212476981
 30
0.0
 10
224.1112452184333
 20
524.3756528532936
 30
0.0
 10
224.1087223817431
 20
524.2887951903451
 30
0.0
 10
224.1064337713483
 20
524.187908489935
 30
0.0
 10
224.1048261716327
 20
524.0940960944536
 30
0.0
 10
224.1037802682105
 20
524.008929247061
 30
0.0
 10
224.1031838253658
 20
523.9339792417325
 30
0.0
 10
224.1029006349366
 20
523.87081741616
 30
0.0
 10
224.1028723815439
 20
523.8328135426221
 30
0.0
 10
224.1028599055312
 20
523.8160382381767
 30
0.0
 11
224.2200186629327
 21
525.3160382381767
 31
0.0
 11
224.2164886537161
 21
525.3155196428193
 31
0.0
 11
224.2110208334926
 21
525.3118653741003
 31
0.0
 11
224.2038957491064
 21
525.3019277080505
 31
0.0
 11
224.1953939474015
 21
525.2825589207001
 31
0.0
 11
224.1857959752221
 21
525.2506112880792
 31
0.0
 11
224.1753823794125
 21
525.2029370862188
 31
0.0
 11
224.1717428051234
 21
525.1829250966567
 31
0.0
 11
224.1666146118115
 21
525.151354628872
 31
0.0
 11
224.1603079138256
 21
525.1067444884334
 31
0.0
 11
224.1531328255148
 21
525.0476134809095
 31
0.0
 11
224.145399461228
 21
524.9724804118691
 31
0.0
 11
224.1374179353139
 21
524.8798640868804
 31
0.0
 11
224.1303795598341
 21
524.7818333053485
 31
0.0
 11
224.1245862950902
 21
524.685931331916
 31
0.0
 11
224.1199399118633
 21
524.5956706882473
 31
0.0
 11
224.1163421809347
 21
524.5145638960073
 31
0.0
 11
224.1136948730856
 21
524.4461234768604
 31
0.0
 11
224.1118997590972
 21
524.3938619524711
 31
0.0
 11
224.1087852298942
 21
524.2869526541075
 31
0.0
 11
224.1064773525153
 21
524.1855452594084
 31
0.0
 11
224.1048567601762
 21
524.0912112368682
 31
0.0
 11
224.1038040860925
 21
524.0055220549807
 31
0.0
 11
224.10319996348
 21
523.9300491822403
 31
0.0
 11
224.1029250255544
 21
523.8663640871409
 31
0.0
 11
224.1028599055312
 21
523.8160382381767
 31
0.0
  0
SPLINE
  5
2EB
330
66
100
AcDbEntity
  8
0
  6
Continuous
 62
     7
100
AcDbSpline
210
0.0
220
0.0
230
1.0
 70
     8
 71
     3
 72
    11
 73
     7
 74
     5
 42
0.000000001
 43
0.0000000001
 44
0.00000001
 40
0.0
 40
0.0
 40
0.0
 40
0.0
 40
0.1182306736143281
 40
0.2284222923898979
 40
0.3277278025014274
 40
0.4198319475785273
 40
0.4198319475785273
 40
0.4198319475785273
 40
0.4198319475785273
 10
172.6886986780416
 20
525.6160382381765
 30
0.0
 10
172.6850489373901
 20
525.576418390747
 30
0.0
 10
172.6779976049917
 20
525.4998726367496
 30
0.0
 10
172.6254328314272
 20
525.4015379860525
 30
0.0
 10
172.5475691171974
 20
525.3308015713383
 30
0.0
 10
172.4833145326259
 20
525.3208343465409
 30
0.0
 10
172.4523959568532
 20
525.3160382381767
 30
0.0
 11
172.6886986780416
 21
525.6160382381765
 31
0.0
 11
172.6698232548264
 21
525.4993240123007
 31
0.0
 11
172.6180198156636
 21
525.4020686923147
 31
0.0
 11
172.5417158761437
 21
525.3385132510766
 31
0.0
 11
172.4523959568532
 21
525.3160382381767
 31
0.0
  0
SPLINE
  5
2EC
330
66
100
AcDbEntity
  8
0
  6
Continuous
 62
     7
100
AcDbSpline
210
0.0
220
0.0
230
1.0
 70
     8
 71
     3
 72
    15
 73
    11
 74
     9
 42
0.000000001
 43
0.0000000001
 44
0.00000001
 40
0.0
 40
0.0
 40
0.0
 40
0.0
 40
0.1519056038045464
 40
0.3080448267023775
 40
0.4706563368393646
 40
0.641774361619821
 40
0.8220484009853843
 40
1.011016466094127
 40
1.207594897180709
 40
1.406825314021547
 40
1.406825314021547
 40
1.406825314021547
 40
1.406825314021547
 10
172.4523959568532
 20
524.6160382381765
 30
0.0
 10
172.5031419764699
 20
524.6197352559641
 30
0.0
 10
172.6060483087802
 20
524.6272323415623
 30
0.0
 10
172.7540119639785
 20
524.685822098302
 30
0.0
 10
172.8904926600347
 20
524.7772054732874
 30
0.0
 10
173.0105094025585
 20
524.9012208776
 30
0.0
 10
173.1096040104755
 20
525.0528502199134
 30
0.0
 10
173.1835877611321
 20
525.2271640764981
 30
0.0
 10
173.2311121066017
 20
525.4175096820787
 30
0.0
 10
173.2372562494625
 20
525.5495671167621
 30
0.0
 10
173.2403488971042
 20
525.6160382381765
 30
0.0
 11
172.4523959568532
 21
524.6160382381765
 31
0.0
 11
172.603159393247
 21
524.6346312455113
 31
0.0
 11
172.7492413381349
 21
524.6897631193611
 31
0.0
 11
172.8845482707116
 21
524.7799547935219
 31
0.0
 11
173.0041960766021
 21
524.9022895047103
 31
0.0
 11
173.1033773166593
 21
525.0528279095026
 31
0.0
 11
173.178009371607
 21
525.2264337453577
 31
0.0
 11
173.2244777484228
 21
525.417440995278
 31
0.0
 11
173.2403488971042
 21
525.6160382381765
 31
0.0
  0
SPLINE
  5
2ED
330
66
100
AcDbEntity
  8
0
  6
Continuous
 62
     7
100
AcDbSpline
210
0.0
220
0.0
230
1.0
 70
     8
 71
     3
 72
     9
 73
     5
 74
     3
 42
0.000000001
 43
0.0000000001
 44
0.00000001
 40
0.0
 40
0.0
 40
0.0
 40
0.0
 40
0.1355032893279804
 40
0.2607203315094321
 40
0.2607203315094321
 40
0.2607203315094321
 40
0.2607203315094321
 10
172.3124888332881
 20
522.3160382381767
 30
0.0
 10
172.2672123474532
 20
522.3171997004769
 30
0.0
 10
172.1800963800028
 20
522.319434476691
 30
0.0
 10
172.0950641979271
 20
522.3384074164735
 30
0.0
 10
172.0542255035569
 20
522.3475196243908
 30
0.0
 11
172.3124888332881
 21
522.3160382381767
 31
0.0
 11
172.1772222397043
 21
522.3240438770804
 31
0.0
 11
172.0542255035569
 21
522.3475196243908
 31
0.0
  0
SPLINE
  5
2EE
330
66
100
AcDbEntity
  8
0
  6
Continuous
 62
     7
100
AcDbSpline
210
0.0
220
0.0
230
1.0
 70
     8
 71
     3
 72
     9
 73
     5
 74
     3
 42
0.000000001
 43
0.0000000001
 44
0.00000001
 40
0.0
 40
0.0
 40
0.0
 40
0.0
 40
0.1294443016571268
 40
0.2672738654140623
 40
0.2672738654140623
 40
0.2672738654140623
 40
0.2672738654140623
 10
172.0542255035579
 20
523.0767501217858
 30
0.0
 10
172.0940745471971
 20
523.0592357654804
 30
0.0
 10
172.1763540183296
 20
523.0230725106678
 30
0.0
 10
172.2661712726659
 20
523.0184315233454
 30
0.0
 10
172.312488833288
 20
523.0160382381766
 30
0.0
 11
172.0542255035579
 21
523.0767501217858
 31
0.0
 11
172.1755406958775
 21
523.031600906312
 31
0.0
 11
172.312488833288
 21
523.0160382381766
 31
0.0
  0
SPLINE
  5
2EF
330
66
100
AcDbEntity
  8
0
  6
Continuous
 62
     7
100
AcDbSpline
210
0.0
220
0.0
230
1.0
 70
     8
 71
     3
 72
    15
 73
    11
 74
     9
 42
0.000000001
 43
0.0000000001
 44
0.00000001
 40
0.0
 40
0.0
 40
0.0
 40
0.0
 40
0.1589444668866602
 40
0.3157878179654766
 40
0.4670293729569921
 40
0.6113262254246167
 40
0.747918059371516
 40
0.8777191744855504
 40
1.003092652974406
 40
1.125041513451446
 40
1.125041513451446
 40
1.125041513451446
 40
1.125041513451446
 10
171.6652206283616
 20
523.8160382381767
 30
0.0
 10
171.6676702545816
 20
523.8690680375206
 30
0.0
 10
171.672537139237
 20
523.9744266245079
 30
0.0
 10
171.7102905645331
 20
524.1264867439745
 30
0.0
 10
171.7692461802682
 20
524.2659381701123
 30
0.0
 10
171.8483198561351
 20
524.3873099008795
 30
0.0
 10
171.944046960143
 20
524.4865540062356
 30
0.0
 10
172.053041459572
 20
524.5598568723341
 30
0.0
 10
172.171537875614
 20
524.607010647077
 30
0.0
 10
172.2541604687037
 20
524.6130569530002
 30
0.0
 10
172.2948997377071
 20
524.6160382381765
 30
0.0
 11
171.6652206283616
 21
523.8160382381767
 31
0.0
 11
171.6778036162186
 21
523.9744838483186
 31
0.0
 11
171.7146946740901
 21
524.1269269085902
 31
0.0
 11
171.7742272236384
 21
524.2659588606402
 31
0.0
 11
171.8534437536086
 21
524.3865670003103
 31
0.0
 11
171.9487901602494
 21
524.4843749362342
 31
0.0
 11
172.0566501215463
 21
524.5565868391348
 31
0.0
 11
172.1738759466145
 21
524.6010459891266
 31
0.0
 11
172.2948997377071
 21
524.6160382381765
 31
0.0
  0
SPLINE
  5
2F0
330
66
100
AcDbEntity
  8
0
  6
Continuous
 62
     7
100
AcDbSpline
210
0.0
220
0.0
230
1.0
 70
     8
 71
     3
 72
    11
 73
     7
 74
     5
 42
0.000000001
 43
0.0000000001
 44
0.00000001
 40
0.0
 40
0.0
 40
0.0
 40
0.0
 40
0.1962927966894471
 40
0.4082758253106805
 40
0.6358884444669647
 40
0.8734613989101112
 40
0.8734613989101112
 40
0.8734613989101112
 40
0.8734613989101112
 10
172.0542255035579
 20
523.0767501217858
 30
0.0
 10
171.9992741998333
 20
523.1132667318077
 30
0.0
 10
171.8849791902457
 20
523.189218838316
 30
0.0
 10
171.763608467008
 20
523.3681853985033
 30
0.0
 10
171.6811497725983
 20
523.5810381068833
 30
0.0
 10
171.6706055938422
 20
523.736594625976
 30
0.0
 10
171.6652206283616
 20
523.8160382381767
 30
0.0
 11
172.0542255035579
 21
523.0767501217858
 31
0.0
 11
171.8977782574374
 21
523.1953044217771
 31
0.0
 11
171.7736550672275
 21
523.3671480700905
 31
0.0
 11
171.693399709557
 21
523.5801423965031
 31
0.0
 11
171.6652206283616
 21
523.8160382381767
 31
0.0
  0
SPLINE
  5
2F1
330
66
100
AcDbEntity
  8
0
  6
Continuous
 62
     7
100
AcDbSpline
210
0.0
220
0.0
230
1.0
 70
     8
 71
     3
 72
    11
 73
     7
 74
     5
 42
0.000000001
 43
0.0000000001
 44
0.00000001
 40
0.0
 40
0.0
 40
0.0
 40
0.0
 40
0.1178761501591161
 40
0.2350079996500045
 40
0.3521016011418162
 40
0.4698344081451788
 40
0.4698344081451788
 40
0.4698344081451788
 40
0.4698344081451788
 10
167.3794072349411
 20
525.6160382381765
 30
0.0
 10
167.3746618363256
 20
525.5764882507682
 30
0.0
 10
167.3652009887811
 20
525.4976380080496
 30
0.0
 10
167.2954114415642
 20
525.3982911746546
 30
0.0
 10
167.1953649119588
 20
525.3298444271891
 30
0.0
 10
167.1165876742314
 20
525.3206486402386
 30
0.0
 10
167.0770918366324
 20
525.3160382381767
 30
0.0
 11
167.3794072349411
 21
525.6160382381765
 31
0.0
 11
167.3558322228518
 21
525.5005436231592
 31
0.0
 11
167.2903635488883
 21
525.4034162647021
 31
0.0
 11
167.1925564017522
 21
525.3390371195107
 31
0.0
 11
167.0770918366324
 21
525.3160382381767
 31
0.0
  0
SPLINE
  5
2F2
330
66
100
AcDbEntity
  8
0
  6
Continuous
 62
     7
100
AcDbSpline
210
0.0
220
0.0
230
1.0
 70
     8
 71
     3
 72
    15
 73
    11
 74
     9
 42
0.000000001
 43
0.0000000001
 44
0.00000001
 40
0.0
 40
0.0
 40
0.0
 40
0.0
 40
0.1361714463538036
 40
0.2728012472678911
 40
0.4093247899832458
 40
0.545751510164217
 40
0.6820562930873751
 40
0.8186144522157324
 40
0.9562440064237419
 40
1.093414795237489
 40
1.093414795237489
 40
1.093414795237489
 40
1.093414795237489
 10
166.7102832578618
 20
523.0330356783466
 30
0.0
 10
166.6662512608883
 20
523.0444823943969
 30
0.0
 10
166.5780390589221
 20
523.0674143702076
 30
0.0
 10
166.4552759079968
 20
523.129166134033
 30
0.0
 10
166.3441000627444
 20
523.2093012715106
 30
0.0
 10
166.2483093733493
 20
523.3074243976544
 30
0.0
 10
166.1707427738131
 20
523.4205249313138
 30
0.0
 10
166.1136938532662
 20
523.5454480302111
 30
0.0
 10
166.0767329805118
 20
523.6785580464036
 30
0.0
 10
166.0719469952362
 20
523.7702625391738
 30
0.0
 10
166.0695580048077
 20
523.8160382381767
 30
0.0
 11
166.7102832578618
 21
523.0330356783466
 31
0.0
 11
166.579780568972
 21
523.0719164108356
 31
0.0
 11
166.4571902365785
 21
523.1322431326504
 31
0.0
 11
166.3466261345512
 21
523.2123321921705
 31
0.0
 11
166.2513208116258
 21
523.3099495357651
 31
0.0
 11
166.1742318985122
 21
523.4223608060811
 31
0.0
 11
166.1171839150419
 21
523.5464319905451
 31
0.0
 11
166.0816846378368
 21
523.6794045290743
 31
0.0
 11
166.0695580048077
 21
523.8160382381767
 31
0.0
  0
SPLINE
  5
2F3
330
66
100
AcDbEntity
  8
0
  6
Continuous
 62
     7
100
AcDbSpline
210
0.0
220
0.0
230
1.0
 70
     8
 71
     3
 72
    15
 73
    11
 74
     9
 42
0.000000001
 43
0.0000000001
 44
0.00000001
 40
0.0
 40
0.0
 40
0.0
 40
0.0
 40
0.1573182952331818
 40
0.3152321249137285
 40
0.4727134129094881
 40
0.6299453129524122
 40
0.7868160760475912
 40
0.9437711712000941
 40
1.101848109336364
 40
1.25928995289945
 40
1.25928995289945
 40
1.25928995289945
 40
1.25928995289945
 10
166.0695580048077
 20
523.8160382381767
 30
0.0
 10
166.0726408833428
 20
523.8685538926269
 30
0.0
 10
166.0788183251637
 20
523.9737840001001
 30
0.0
 10
166.1269165165307
 20
524.1254795304488
 30
0.0
 10
166.2020434917536
 20
524.2648877617556
 30
0.0
 10
166.3032171420982
 20
524.3865872119912
 30
0.0
 10
166.4259469705146
 20
524.4862039711315
 30
0.0
 10
166.5658306832092
 20
524.5598668537946
 30
0.0
 10
166.7176860214921
 20
524.6069963590147
 30
0.0
 10
166.8230077101783
 20
524.613028330423
 30
0.0
 10
166.8755625564181
 20
524.6160382381768
 30
0.0
 11
166.0695580048077
 21
523.8160382381767
 31
0.0
 11
166.0852564962157
 21
523.9725713144054
 31
0.0
 11
166.131483601377
 21
524.1235674501063
 31
0.0
 11
166.206463306189
 21
524.2620535521507
 31
0.0
 11
166.3069151736688
 21
524.3830134346808
 31
0.0
 11
166.428738804562
 21
524.4818437930367
 31
0.0
 11
166.5674515158444
 21
524.5552855122764
 31
0.0
 11
166.7188721979061
 21
524.6006737929824
 31
0.0
 11
166.8755625564181
 21
524.6160382381768
 31
0.0
  0
SPLINE
  5
2F4
330
66
100
AcDbEntity
  8
0
  6
Continuous
 62
     7
100
AcDbSpline
210
0.0
220
0.0
230
1.0
 70
    24
 71
     3
 72
     9
 73
     5
 74
     3
 42
0.000000001
 43
0.0000000001
 44
0.00000001
 40
0.0
 40
0.0
 40
0.0
 40
0.0
 40
0.000808861443744
 40
0.0016177228874881
 40
0.0016177228874881
 40
0.0016177228874881
 40
0.0016177228874881
 10
166.3024557828783
 20
522.3160382381767
 30
0.0
 10
166.302186162397
 20
522.3160382381767
 30
0.0
 10
166.3016469214346
 20
522.3160382381768
 30
0.0
 10
166.3011076804721
 20
522.3160382381767
 30
0.0
 10
166.3008380599908
 20
522.3160382381767
 30
0.0
 11
166.3024557828783
 21
522.3160382381767
 31
0.0
 11
166.3016469214346
 21
522.3160382381767
 31
0.0
 11
166.3008380599908
 21
522.3160382381767
 31
0.0
  0
SPLINE
  5
2F5
330
66
100
AcDbEntity
  8
0
  6
Continuous
 62
     7
100
AcDbSpline
210
0.0
220
0.0
230
1.0
 70
     8
 71
     3
 72
    15
 73
    11
 74
     9
 42
0.000000001
 43
0.0000000001
 44
0.00000001
 40
0.0
 40
0.0
 40
0.0
 40
0.0
 40
0.1961272252557626
 40
0.3930442565966609
 40
0.5896137115519706
 40
0.7860777530698477
 40
0.9823824907120012
 40
1.179002089571137
 40
1.377038550273573
 40
1.574323293931805
 40
1.574323293931805
 40
1.574323293931805
 40
1.574323293931805
 10
167.0770918366324
 20
524.6160382381765
 30
0.0
 10
167.1425595247832
 20
524.6197730007152
 30
0.0
 10
167.2737585386312
 20
524.6272575801402
 30
0.0
 10
167.4633140850002
 20
524.6858542927622
 30
0.0
 10
167.6383187811692
 20
524.7777098447217
 30
0.0
 10
167.7920067529063
 20
524.902171376202
 30
0.0
 10
167.918617070895
 20
525.0541327359566
 30
0.0
 10
168.0127789675735
 20
525.2283173549303
 30
0.0
 10
168.073243509925
 20
525.4182142581591
 30
0.0
 10
168.0810272449633
 20
525.5501805571901
 30
0.0
 10
168.0849117047764
 20
525.6160382381765
 30
0.0
 11
167.0770918366324
 21
524.6160382381765
 31
0.0
 11
167.272290060823
 21
524.6351050263341
 31
0.0
 11
167.4609771667114
 21
524.6914388000739
 31
0.0
 11
167.6348243841848
 21
524.7831813541533
 31
0.0
 11
167.7875313214757
 21
524.90678843928
 31
0.0
 11
167.9131083618188
 21
525.0576723600469
 31
0.0
 11
168.0069509973659
 21
525.230452066789
 31
0.0
 11
168.0651400707292
 21
525.4197467373875
 31
0.0
 11
168.0849117047764
 21
525.6160382381765
 31
0.0
  0
SPLINE
  5
2F6
330
66
100
AcDbEntity
  8
0
  6
Continuous
 62
     7
100
AcDbSpline
210
0.0
220
0.0
230
1.0
 70
     8
 71
     3
 72
    17
 73
    13
 74
    11
 42
0.000000001
 43
0.0000000001
 44
0.00000001
 40
0.0
 40
0.0
 40
0.0
 40
0.0
 40
0.2752994222719312
 40
0.5498705998278657
 40
0.8248343477854503
 40
1.09915777485327
 40
1.236144085566796
 40
1.372944944467843
 40
1.51065671234275
 40
1.648300133238576
 40
1.922300930490101
 40
2.196869229366361
 40
2.196869229366361
 40
2.196869229366361
 40
2.196869229366361
 10
165.3644484608746
 20
523.8160382381767
 30
0.0
 10
165.3693265086598
 20
523.724135583821
 30
0.0
 10
165.3790697148278
 20
523.5405733849228
 30
0.0
 10
165.4578384863101
 20
523.2746672501179
 30
0.0
 10
165.5800104060065
 20
523.027417459313
 30
0.0
 10
165.7186230909917
 20
522.843546555805
 30
0.0
 10
165.847501900331
 20
522.7137726365816
 30
0.0
 10
165.9527693017989
 20
522.6255343755058
 30
0.0
 10
166.0658197928767
 20
522.5470725550466
 30
0.0
 10
166.225279650304
 20
522.4568862233667
 30
0.0
 10
166.4387642489209
 20
522.3691965584811
 30
0.0
 10
166.6197145221352
 20
522.3397651378518
 30
0.0
 10
166.7102832578598
 20
522.3250342111197
 30
0.0
 11
165.3644484608746
 21
523.8160382381767
 31
0.0
 11
165.38980282248
 21
523.5419088359888
 31
0.0
 11
165.4650439281255
 21
523.2778480311911
 31
0.0
 11
165.5874948636421
 21
523.0316553587421
 31
0.0
 11
165.7524281453324
 21
522.812451444475
 31
0.0
 11
165.8489630111017
 21
522.7152595250566
 31
0.0
 11
165.9537958439739
 21
522.6273700926056
 31
0.0
 11
166.0669388756643
 21
522.5488641336709
 31
0.0
 11
166.1866587060146
 21
522.4809459936539
 31
0.0
 11
166.4411542046149
 21
522.3794153131918
 31
0.0
 11
166.7102832578598
 21
522.3250342111197
 31
0.0
  0
SPLINE
  5
2F7
330
66
100
AcDbEntity
  8
0
  6
Continuous
 62
     7
100
AcDbSpline
210
0.0
220
0.0
230
1.0
 70
     8
 71
     3
 72
    15
 73
    11
 74
     9
 42
0.000000001
 43
0.0000000001
 44
0.00000001
 40
0.0
 40
0.0
 40
0.0
 40
0.0
 40
0.2948670152341119
 40
0.5894965867749493
 40
0.9364934909631779
 40
1.178858013946758
 40
1.404410364935267
 40
1.768490316646362
 40
2.06360220294723
 40
2.360868312780078
 40
2.360868312780078
 40
2.360868312780078
 40
2.360868312780078
 10
166.8755625564182
 20
525.3160382381767
 30
0.0
 10
166.7771151144759
 20
525.3105030362552
 30
0.0
 10
166.5802995074784
 20
525.2994370752921
 30
0.0
 10
166.2794475299804
 20
525.2060046601878
 30
0.0
 10
166.0188072737772
 20
525.0636294013716
 30
0.0
 10
165.8098881250517
 20
524.8881142551322
 30
0.0
 10
165.6270765564952
 20
524.6782396455933
 30
0.0
 10
165.4795502501777
 20
524.419733551421
 30
0.0
 10
165.38187315147
 20
524.1130651591036
 30
0.0
 10
165.3702707505948
 20
523.9152869570056
 30
0.0
 10
165.3644484608746
 20
523.8160382381767
 30
0.0
 11
166.8755625564182
 21
525.3160382381767
 31
0.0
 11
166.5820811428338
 21
525.2874862237445
 31
0.0
 11
166.2998436029572
 21
525.2029370862188
 31
0.0
 11
165.9958174626283
 21
525.0356799224054
 31
0.0
 11
165.8101780595587
 21
524.8798640868804
 31
0.0
 11
165.662085998616
 21
524.7097388241557
 31
0.0
 11
165.4810445263175
 21
524.3938619524711
 31
0.0
 11
165.3942277681538
 21
524.1118089838085
 31
0.0
 11
165.3644484608746
 21
523.8160382381767
 31
0.0
  0
SPLINE
  5
2F8
330
66
100
AcDbEntity
  8
0
  6
Continuous
 62
     7
100
AcDbSpline
210
0.0
220
0.0
230
1.0
 70
     8
 71
     3
 72
    13
 73
     9
 74
     7
 42
0.000000001
 43
0.0000000001
 44
0.00000001
 40
0.0
 40
0.0
 40
0.0
 40
0.0
 40
0.2594040427959775
 40
0.5149750551809698
 40
0.764392603290727
 40
1.004646159168943
 40
1.452452299726086
 40
1.863422280808197
 40
1.863422280808197
 40
1.863422280808197
 40
1.863422280808197
 10
171.114643287315
 20
523.8160382381767
 30
0.0
 10
171.1179879689457
 20
523.7294902140842
 30
0.0
 10
171.1246279247161
 20
523.5576730259465
 30
0.0
 10
171.1787718182624
 20
523.3075425524934
 30
0.0
 10
171.2627040703064
 20
523.0726350775694
 30
0.0
 10
171.4119980694124
 20
522.7982888814147
 30
0.0
 10
171.6574311199652
 20
522.5088692521354
 30
0.0
 10
171.9257977945004
 20
522.3997425435057
 30
0.0
 10
172.0542255035569
 20
522.3475196243908
 30
0.0
 11
171.114643287315
 21
523.8160382381767
 31
0.0
 11
171.1322480536279
 21
523.5572322689976
 31
0.0
 11
171.1846131049766
 21
523.3070834246147
 31
0.0
 11
171.269659721702
 21
523.072613411632
 31
0.0
 11
171.3843197802719
 21
522.8614858604981
 31
0.0
 11
171.6864816989048
 21
522.5309884808942
 31
0.0
 11
172.0542255035569
 21
522.3475196243908
 31
0.0
  0
SPLINE
  5
2F9
330
66
100
AcDbEntity
  8
0
  6
Continuous
 62
     7
100
AcDbSpline
210
0.0
220
0.0
230
1.0
 70
     8
 71
     3
 72
    15
 73
    11
 74
     9
 42
0.000000001
 43
0.0000000001
 44
0.00000001
 40
0.0
 40
0.0
 40
0.0
 40
0.0
 40
0.2594887787449768
 40
0.4617693759313245
 40
0.7432682191492438
 40
0.9620611867520181
 40
1.178907728825946
 40
1.51582168853206
 40
1.746620942399861
 40
2.109017162826017
 40
2.109017162826017
 40
2.109017162826017
 40
2.109017162826017
 10
172.2948997377071
 20
525.3160382381767
 30
0.0
 10
172.2081033322364
 20
525.3090726353391
 30
0.0
 10
172.0536460886577
 20
525.2966770882692
 30
0.0
 10
171.8223070076293
 20
525.2004828064544
 30
0.0
 10
171.6282748326592
 20
525.0656812134168
 30
0.0
 10
171.4638851984545
 20
524.8905193493692
 30
0.0
 10
171.31844027147
 20
524.6769012523532
 30
0.0
 10
171.2123535063337
 20
524.435877923825
 30
0.0
 10
171.1317658766377
 20
524.1351865647804
 30
0.0
 10
171.1211368107946
 20
523.9370712571894
 30
0.0
 10
171.114643287315
 20
523.8160382381767
 30
0.0
 11
172.2948997377071
 21
525.3160382381767
 31
0.0
 11
172.0378999554806
 21
525.2801838059106
 31
0.0
 11
171.849929673882
 21
525.20545352729
 31
0.0
 11
171.6183925764702
 21
525.045353018164
 31
0.0
 11
171.4679404396615
 21
524.8864992556051
 31
0.0
 11
171.3455492469966
 21
524.7074941740597
 31
0.0
 11
171.2077171576921
 21
524.4000639672873
 31
0.0
 11
171.1493392603686
 21
524.1767697292872
 31
0.0
 11
171.114643287315
 21
523.8160382381767
 31
0.0
  0
SPLINE
  5
2FA
330
66
100
AcDbEntity
  8
0
  6
Continuous
 62
     7
100
AcDbSpline
210
0.0
220
0.0
230
1.0
 70
     8
 71
     3
 72
    15
 73
    11
 74
     9
 42
0.000000001
 43
0.0000000001
 44
0.00000001
 40
0.0
 40
0.0
 40
0.0
 40
0.0
 40
0.1965189124353271
 40
0.3845113453797312
 40
0.557834455748022
 40
0.709272214124412
 40
0.8335077390767844
 40
0.9263302110136236
 40
0.9846213866701721
 40
1.009220093549584
 40
1.009220093549584
 40
1.009220093549584
 40
1.009220093549584
 10
235.752044475293
 20
525.6160382381765
 30
0.0
 10
235.7523271340429
 20
525.5505290283672
 30
0.0
 10
235.7528801745196
 20
525.4223528945261
 30
0.0
 10
235.7574264962027
 20
525.2364809803072
 30
0.0
 10
235.7642500686346
 20
525.0655943047918
 30
0.0
 10
235.7740525113717
 20
524.916517044187
 30
0.0
 10
235.7839352063166
 20
524.7933087883473
 30
0.0
 10
235.7995475956411
 20
524.7044031698003
 30
0.0
 10
235.8059635244797
 20
524.6431237968596
 30
0.0
 10
235.8246397248564
 20
524.6222367569654
 30
0.0
 10
235.8301821379516
 20
524.6160382381773
 30
0.0
 11
235.752044475293
 21
525.6160382381765
 31
0.0
 11
235.7535665545185
 21
525.4195252244249
 31
0.0
 11
235.7580505528264
 21
525.2315862752449
 31
0.0
 11
235.765329822472
 21
525.0584160907155
 31
0.0
 11
235.7750612779533
 21
524.9072913296308
 31
0.0
 11
235.7869024698699
 21
524.7836213987677
 31
0.0
 11
235.8003545706883
 21
524.6917788583548
 31
0.0
 11
235.8149331347729
 21
524.6353401609425
 31
0.0
 11
235.8301821379516
 21
524.6160382381773
 31
0.0
  0
SPLINE
  5
2FB
330
66
100
AcDbEntity
  8
0
  6
Continuous
 62
     7
100
AcDbSpline
210
0.0
220
0.0
230
1.0
 70
     8
 71
     3
 72
    13
 73
     9
 74
     7
 42
0.000000001
 43
0.0000000001
 44
0.00000001
 40
0.0
 40
0.0
 40
0.0
 40
0.0
 40
0.0119932686594679
 40
0.0422558209174402
 40
0.0896437795088806
 40
0.1517377836501274
 40
0.2242536169324373
 40
0.3025713881642254
 40
0.3025713881642254
 40
0.3025713881642254
 40
0.3025713881642254
 10
235.8301821379516
 20
525.3160382381792
 30
0.0
 10
235.8279771926089
 20
525.3194170015548
 30
0.0
 10
235.8202085012425
 20
525.3313213698349
 30
0.0
 10
235.8184321803573
 20
525.3622487521081
 30
0.0
 10
235.8124712901198
 20
525.4079132094994
 30
0.0
 10
235.8096783793617
 20
525.4687822742575
 30
0.0
 10
235.8071518557903
 20
525.5396309765847
 30
0.0
 10
235.8068828779443
 20
525.5899242932363
 30
0.0
 10
235.8067432086784
 20
525.6160382381765
 30
0.0
 11
235.8301821379516
 21
525.3160382381792
 31
0.0
 11
235.8241256693624
 21
525.3263899373651
 31
0.0
 11
235.8185021531089
 21
525.3561254055355
 31
0.0
 11
235.8136587544624
 21
525.4032651986031
 31
0.0
 11
235.8099380049246
 21
525.465247626458
 31
0.0
 11
235.8075722128255
 21
525.5377248581157
 31
0.0
 11
235.8067432086784
 21
525.6160382381765
 31
0.0
  0
SPLINE
  5
2FC
330
66
100
AcDbEntity
  8
0
  6
Continuous
 62
     7
100
AcDbSpline
210
0.0
220
0.0
230
1.0
 70
     8
 71
     3
 72
     9
 73
     5
 74
     3
 42
0.000000001
 43
0.0000000001
 44
0.00000001
 40
0.0
 40
0.0
 40
0.0
 40
0.0
 40
0.0051161745058129
 40
0.0081823559775832
 40
0.0081823559775832
 40
0.0081823559775832
 40
0.0081823559775832
 10
235.858621312346
 20
522.3250342111196
 30
0.0
 10
235.8575985283202
 20
522.3236409634587
 30
0.0
 10
235.8559627970654
 20
522.3214127174576
 30
0.0
 10
235.8552848594018
 20
522.3187502481362
 30
0.0
 10
235.8550308226958
 20
522.3177525360763
 30
0.0
 11
235.858621312346
 21
522.3250342111196
 31
0.0
 11
235.8559274351247
 21
522.3206846961764
 31
0.0
 11
235.8550308226958
 21
522.3177525360763
 31
0.0
  0
SPLINE
  5
2FD
330
66
100
AcDbEntity
  8
0
  6
Continuous
 62
     7
100
AcDbSpline
210
0.0
220
0.0
230
1.0
 70
     8
 71
     3
 72
     9
 73
     5
 74
     3
 42
0.000000001
 43
0.0000000001
 44
0.00000001
 40
0.0
 40
0.0
 40
0.0
 40
0.0
 40
0.0056175903401872
 40
0.0142871766283329
 40
0.0142871766283329
 40
0.0142871766283329
 40
0.0142871766283329
 10
235.8550308226958
 20
523.0192490411201
 30
0.0
 10
235.8552757404856
 20
523.0211107712385
 30
0.0
 10
235.8558986586298
 20
523.0258456920635
 30
0.0
 10
235.8575930987435
 20
523.030320393072
 30
0.0
 10
235.858621312346
 20
523.0330356783466
 30
0.0
 11
235.8550308226958
 21
523.0192490411201
 31
0.0
 11
235.8559312389403
 21
523.0247940010378
 31
0.0
 11
235.858621312346
 21
523.0330356783466
 31
0.0
  0
SPLINE
  5
2FE
330
66
100
AcDbEntity
  8
0
  6
Continuous
 62
     7
100
AcDbSpline
210
0.0
220
0.0
230
1.0
 70
     8
 71
     3
 72
    27
 73
    23
 74
    21
 42
0.000000001
 43
0.0000000001
 44
0.00000001
 40
0.0
 40
0.0
 40
0.0
 40
0.0
 40
0.1494062727379113
 40
0.2831826952116737
 40
0.3999273240735872
 40
0.4982341755551377
 40
0.5766937445461574
 40
0.7086266488600834
 40
0.8229447680134112
 40
0.92001629680647
 40
1.000204822630297
 40
1.063869144988778
 40
1.171488014232169
 40
1.255639673710647
 40
1.318560027794276
 40
1.362463769287922
 40
1.389538088909189
 40
1.443851945946202
 40
1.478868208887086
 40
1.499299460739743
 40
1.509977912458366
 40
1.515534412639388
 40
1.515534412639388
 40
1.515534412639388
 40
1.515534412639388
 10
235.9629657380567
 20
523.8160382381767
 30
0.0
 10
235.9628553965879
 20
523.8658404633646
 30
0.0
 10
235.9626462669523
 20
523.9602349496446
 30
0.0
 10
235.9610772610991
 20
524.0935366209162
 30
0.0
 10
235.9589719665175
 20
524.2097941304236
 30
0.0
 10
235.9565789342833
 20
524.3076025393651
 30
0.0
 10
235.9534995963254
 20
524.4104565460083
 30
0.0
 10
235.9495141121805
 20
524.5186216840732
 30
0.0
 10
235.9442355972164
 20
524.6329423874853
 30
0.0
 10
235.9388471878922
 20
524.7299870008562
 30
0.0
 10
235.9336545338506
 20
524.810128327215
 30
0.0
 10
235.92748856288
 20
524.8937257503183
 30
0.0
 10
235.9201556700066
 20
524.978559959821
 30
0.0
 10
235.9111778870197
 20
525.0629860513313
 30
0.0
 10
235.9030668659913
 20
525.1261336256233
 30
0.0
 10
235.8963499355478
 20
525.1702573996604
 30
0.0
 10
235.8890515899433
 20
525.2113974656614
 30
0.0
 10
235.8810000790652
 20
525.2492710082179
 30
0.0
 10
235.8703867784207
 20
525.2846401131335
 30
0.0
 10
235.8611010367047
 20
525.3042524752086
 30
0.0
 10
235.8530820390392
 20
525.314594994486
 30
0.0
 10
235.847662012366
 20
525.3156702276217
 30
0.0
 10
235.8458069806551
 20
525.3160382381773
 30
0.0
 11
235.9629657380567
 21
523.8160382381767
 31
0.0
 11
235.9623836768216
 21
523.9654433701312
 31
0.0
 11
235.9608595543016
 21
524.0992111101498
 31
0.0
 11
235.9587264622743
 21
524.2159362500593
 31
0.0
 11
235.9563174925174
 21
524.314213581686
 31
0.0
 11
235.9539657368087
 21
524.3926378968567
 31
0.0
 11
235.9490787185367
 21
524.5244802583633
 31
0.0
 11
235.9437784465044
 21
524.638675439861
 31
0.0
 11
235.9383718299264
 21
524.735596284852
 31
0.0
 11
235.9331657780174
 21
524.8156156368384
 31
0.0
 11
235.928467199992
 21
524.8791063393226
 31
0.0
 11
235.9190868655921
 21
524.9863156221668
 31
0.0
 11
235.9100817561561
 21
525.0699840737
 31
0.0
 11
235.9019740915846
 21
525.1323798806105
 31
0.0
 11
235.895286091778
 21
525.1757712295868
 31
0.0
 11
235.8905399766367
 21
525.2024263073172
 31
0.0
 11
235.8787562867268
 21
525.2554464891493
 31
0.0
 11
235.868009445542
 21
525.2887728156305
 31
0.0
 11
235.858681149714
 21
525.3069502442813
 31
0.0
 11
235.8511530958745
 21
525.3145237326232
 31
0.0
 11
235.8458069806551
 21
525.3160382381773
 31
0.0
  0
SPLINE
  5
2FF
330
66
100
AcDbEntity
  8
0
  6
Continuous
 62
     7
100
AcDbSpline
210
0.0
220
0.0
230
1.0
 70
     8
 71
     3
 72
    11
 73
     7
 74
     5
 42
0.000000001
 43
0.0000000001
 44
0.00000001
 40
0.0
 40
0.0
 40
0.0
 40
0.0
 40
0.2687866211396635
 40
0.5059097507079068
 40
0.6845338276672501
 40
0.7858923769217798
 40
0.7858923769217798
 40
0.7858923769217798
 40
0.7858923769217798
 10
235.9082976238205
 20
523.8160382381767
 30
0.0
 10
235.9077679887061
 20
523.7264149595903
 30
0.0
 10
235.9067711188488
 20
523.5577261676381
 30
0.0
 10
235.8955869838232
 20
523.3299946664833
 30
0.0
 10
235.8856154503347
 20
523.1573869111548
 30
0.0
 10
235.8657962230637
 20
523.0660876039473
 30
0.0
 10
235.858621312346
 20
523.0330356783466
 30
0.0
 11
235.9082976238205
 21
523.8160382381767
 31
0.0
 11
235.9046569191869
 21
523.5472762770937
 31
0.0
 11
235.8942328994563
 21
523.3103823800943
 31
0.0
 11
235.8782561744295
 21
523.1324742417194
 31
0.0
 11
235.858621312346
 21
523.0330356783466
 31
0.0
  0
SPLINE
  5
300
330
66
100
AcDbEntity
  8
0
  6
Continuous
 62
     7
100
AcDbSpline
210
0.0
220
0.0
230
1.0
 70
     8
 71
     3
 72
    15
 73
    11
 74
     9
 42
0.000000001
 43
0.0000000001
 44
0.00000001
 40
0.0
 40
0.0
 40
0.0
 40
0.0
 40
0.058134069800937
 40
0.1613456855059061
 40
0.3083116189539592
 40
0.4941711989396955
 40
0.7137341585077974
 40
0.9594729390483376
 40
1.223674712614066
 40
1.499158726182825
 40
1.499158726182825
 40
1.499158726182825
 40
1.499158726182825
 10
235.858621312346
 20
522.3250342111196
 30
0.0
 10
235.8661380495139
 20
522.3429552856486
 30
0.0
 10
235.8870000690436
 20
522.392693549028
 30
0.0
 10
235.9013982700396
 20
522.495313503546
 30
0.0
 10
235.9198576456795
 20
522.63912289184
 30
0.0
 10
235.9343028909496
 20
522.8228891297086
 30
0.0
 10
235.9468166579441
 20
523.0395326583994
 30
0.0
 10
235.9559485357843
 20
523.282561306121
 30
0.0
 10
235.961842213354
 20
523.5443111986987
 30
0.0
 10
235.9625860418012
 20
523.7242089587593
 30
0.0
 10
235.9629657380567
 20
523.8160382381767
 30
0.0
 11
235.858621312346
 21
522.3250342111196
 31
0.0
 11
235.8794413758796
 21
522.3793121542499
 31
0.0
 11
235.8991690322817
 21
522.4806208752318
 31
0.0
 11
235.9171608293714
 21
522.6264813591582
 31
0.0
 11
235.932830806504
 21
522.8116791864935
 31
0.0
 11
235.94561948688
 21
523.0308693843659
 31
0.0
 11
235.955123631209
 21
523.2764243059157
 31
0.0
 11
235.960965269809
 21
523.5405614908495
 31
0.0
 11
235.9629657380567
 21
523.8160382381767
 31
0.0
  0
SPLINE
  5
301
330
66
100
AcDbEntity
  8
0
  6
Continuous
 62
     7
100
AcDbSpline
210
0.0
220
0.0
230
1.0
 70
     8
 71
     3
 72
     9
 73
     5
 74
     3
 42
0.000000001
 43
0.0000000001
 44
0.00000001
 40
0.0
 40
0.0
 40
0.0
 40
0.0
 40
0.0149506325226657
 40
0.0263133717058031
 40
0.0263133717058031
 40
0.0263133717058031
 40
0.0263133717058031
 10
257.7688655574462
 20
522.3160382381767
 30
0.0
 10
257.7740510489326
 20
522.3161666813479
 30
0.0
 10
257.7831775977973
 20
522.3163927619044
 30
0.0
 10
257.7898949575599
 20
522.3224280312234
 30
0.0
 10
257.792795668761
 20
522.3250342111197
 30
0.0
 11
257.7688655574462
 21
522.3160382381767
 31
0.0
 11
257.7836442845154
 21
522.3182989262373
 31
0.0
 11
257.792795668761
 21
522.3250342111197
 31
0.0
  0
SPLINE
  5
302
330
66
100
AcDbEntity
  8
0
  6
Continuous
 62
     7
100
AcDbSpline
210
0.0
220
0.0
230
1.0
 70
     8
 71
     3
 72
     9
 73
     5
 74
     3
 42
0.000000001
 43
0.0000000001
 44
0.00000001
 40
0.0
 40
0.0
 40
0.0
 40
0.0
 40
0.1017260491258089
 40
0.1809824442815577
 40
0.1809824442815577
 40
0.1809824442815577
 40
0.1809824442815577
 10
273.696179885205
 20
523.0767501217858
 30
0.0
 10
273.6665984749567
 20
523.0593420550852
 30
0.0
 10
273.6139697065462
 20
523.0283711032064
 30
0.0
 10
273.5537015132053
 20
523.0197942374207
 30
0.0
 10
273.5273086762915
 20
523.0160382381766
 30
0.0
 11
273.696179885205
 21
523.0767501217858
 31
0.0
 11
273.6050221226237
 21
523.031600906312
 31
0.0
 11
273.5273086762915
 21
523.0160382381766
 31
0.0
  0
SPLINE
  5
303
330
66
100
AcDbEntity
  8
0
  6
Continuous
 62
     7
100
AcDbSpline
210
0.0
220
0.0
230
1.0
 70
     8
 71
     3
 72
    13
 73
     9
 74
     7
 42
0.000000001
 43
0.0000000001
 44
0.00000001
 40
0.0
 40
0.0
 40
0.0
 40
0.0
 40
0.0782737116473435
 40
0.1507219673628183
 40
0.2127761321250399
 40
0.2601993411549671
 40
0.2905366000701387
 40
0.3025673787023485
 40
0.3025673787023485
 40
0.3025673787023485
 40
0.3025673787023485
 10
257.7409175650933
 20
525.6160382381765
 30
0.0
 10
257.7410568802512
 20
525.589939037246
 30
0.0
 10
257.7413251284461
 20
525.5396830464086
 30
0.0
 10
257.7438473615158
 20
525.4688839713547
 30
0.0
 10
257.7466380887041
 20
525.4080410020306
 30
0.0
 10
257.7525936859058
 20
525.3623485308606
 30
0.0
 10
257.7543800489507
 20
525.3313783229116
 30
0.0
 10
257.7621501195446
 20
525.3194308358425
 30
0.0
 10
257.7643564943665
 20
525.3160382381767
 30
0.0
 11
257.7409175650933
 21
525.6160382381765
 31
0.0
 11
257.7417450158694
 21
525.5377689037267
 31
0.0
 11
257.7441066176763
 21
525.465359148876
 31
0.0
 11
257.7478212447315
 21
525.4034162647021
 31
0.0
 11
257.7526649225997
 21
525.3562410644281
 31
0.0
 11
257.7582959241076
 21
525.3264309816885
 31
0.0
 11
257.7643564943665
 21
525.3160382381767
 31
0.0
  0
SPLINE
  5
304
330
66
100
AcDbEntity
  8
0
  6
Continuous
 62
     7
100
AcDbSpline
210
0.0
220
0.0
230
1.0
 70
     8
 71
     3
 72
    17
 73
    13
 74
    11
 42
0.000000001
 43
0.0000000001
 44
0.00000001
 40
0.0
 40
0.0
 40
0.0
 40
0.0
 40
0.274136453037737
 40
0.5382616862968457
 40
0.7846373425944333
 40
1.004213926789438
 40
1.101693599885053
 40
1.189958054972678
 40
1.268952586148925
 40
1.337502057986546
 40
1.440932261144517
 40
1.499179079900331
 40
1.499179079900331
 40
1.499179079900331
 40
1.499179079900331
 10
257.8971400944715
 20
523.8160382381767
 30
0.0
 10
257.8967716117527
 20
523.7246585547501
 30
0.0
 10
257.8960481168724
 20
523.5452362926733
 30
0.0
 10
257.8901585732171
 20
523.2837422395205
 30
0.0
 10
257.8810213702203
 20
523.0405441766954
 30
0.0
 10
257.8703412886239
 20
522.8530234672894
 30
0.0
 10
257.8600797913375
 20
522.7182960280563
 30
0.0
 10
257.851972588873
 20
522.6304353435705
 30
0.0
 10
257.8435285860852
 20
522.5522327370932
 30
0.0
 10
257.8316960616302
 20
522.4695664552264
 30
0.0
 10
257.8212836574902
 20
522.392811137612
 30
0.0
 10
257.800340706677
 20
522.3429849286294
 30
0.0
 10
257.792795668761
 20
522.3250342111197
 30
0.0
 11
257.8971400944715
 21
523.8160382381767
 31
0.0
 11
257.8951743358904
 21
523.5419088359888
 31
0.0
 11
257.8893407893243
 21
523.2778480311911
 31
0.0
 11
257.8798469996164
 21
523.0316553587422
 31
0.0
 11
257.8670594950898
 21
522.812451444475
 31
0.0
 11
257.859575013969
 21
522.7152595250565
 31
0.0
 11
257.8514471800281
 21
522.6273700926056
 31
0.0
 11
257.8426750449256
 21
522.548864133671
 31
0.0
 11
257.8333930015634
 21
522.480945993654
 31
0.0
 11
257.8136616149869
 21
522.3794153131918
 31
0.0
 11
257.792795668761
 21
522.3250342111197
 31
0.0
  0
SPLINE
  5
305
330
66
100
AcDbEntity
  8
0
  6
Continuous
 62
     7
100
AcDbSpline
210
0.0
220
0.0
230
1.0
 70
     8
 71
     3
 72
    28
 73
    24
 74
    22
 42
0.000000001
 43
0.0000000001
 44
0.00000001
 40
0.0
 40
0.0
 40
0.0
 40
0.0
 40
0.003567900649442
 40
0.0101444305993075
 40
0.022372433749023
 40
0.0435249887974216
 40
0.0768832310938518
 40
0.1256815151654173
 40
0.1460217764774859
 40
0.1780060352380121
 40
0.2230597706829449
 40
0.2826245081780361
 40
0.3581545220623041
 40
0.4511141284584971
 40
0.5493972545075
 40
0.6454740489524612
 40
0.735854205384698
 40
0.8170407524095273
 40
0.8855323519907943
 40
0.9378246971881588
 40
1.123827486612083
 40
1.317608438350041
 40
1.515741252778146
 40
1.515741252778146
 40
1.515741252778146
 40
1.515741252778146
 10
257.77998133707
 20
525.3160382381767
 30
0.0
 10
257.781184135956
 20
525.315946802436
 30
0.0
 10
257.7846039955987
 20
525.3156868461597
 30
0.0
 10
257.7907486038623
 20
525.3107581860831
 30
0.0
 10
257.7979486372477
 20
525.2995612429974
 30
0.0
 10
257.8064549590993
 20
525.2788569515501
 30
0.0
 10
257.8159321113851
 20
525.2457430063394
 30
0.0
 10
257.8229761841766
 20
525.2122783666027
 30
0.0
 10
257.8290029486886
 20
525.1791158645375
 30
0.0
 10
257.8341688040246
 20
525.1470665074727
 30
0.0
 10
257.8404888122552
 20
525.101970402002
 30
0.0
 10
257.8476595407438
 20
525.0423467747114
 30
0.0
 10
257.8553749547479
 20
524.9667175186626
 30
0.0
 10
257.8629446814132
 20
524.8781122898449
 30
0.0
 10
257.8697522374097
 20
524.7825788321011
 30
0.0
 10
257.875444118435
 20
524.6878347683678
 30
0.0
 10
257.8800142189227
 20
524.598736491851
 30
0.0
 10
257.8835530854786
 20
524.5187948212813
 30
0.0
 10
257.8861525262054
 20
524.4515212427824
 30
0.0
 10
257.889659571053
 20
524.3493189398546
 30
0.0
 10
257.8934388846678
 20
524.205340238264
 30
0.0
 10
257.8965501836702
 20
524.0127213441668
 30
0.0
 10
257.8969420039805
 20
523.8820828160318
 30
0.0
 10
257.8971400944715
 20
523.8160382381767
 30
0.0
 11
257.77998133707
 21
525.3160382381767
 31
0.0
 11
257.7835113462881
 21
525.3155196428185
 31
0.0
 11
257.7889791665123
 21
525.3118653740979
 31
0.0
 11
257.7961042508985
 21
525.3019277080463
 31
0.0
 11
257.8046060526029
 21
525.282558920695
 31
0.0
 11
257.8142040247815
 21
525.2506112880753
 31
0.0
 11
257.8246176205901
 21
525.2029370862188
 31
0.0
 11
257.8282571948793
 21
525.182925096656
 31
0.0
 11
257.8333853881912
 21
525.1513546288712
 31
0.0
 11
257.839692086177
 21
525.1067444884327
 31
0.0
 11
257.8468671744878
 21
525.0476134809089
 31
0.0
 11
257.8546005387747
 21
524.9724804118687
 31
0.0
 11
257.8625820646888
 21
524.8798640868804
 31
0.0
 11
257.8696204401687
 21
524.7818333053478
 31
0.0
 11
257.8754137049126
 21
524.6859313319147
 31
0.0
 11
257.8800600881395
 21
524.5956706882455
 31
0.0
 11
257.883657819068
 21
524.5145638960054
 31
0.0
 11
257.8863051269171
 21
524.4461234768589
 31
0.0
 11
257.8881002409055
 21
524.3938619524711
 31
0.0
 11
257.8930644649482
 21
524.2079254198885
 31
0.0
 11
257.8961067078839
 21
524.0141683502775
 31
0.0
 11
257.8971400944715
 21
523.8160382381767
 31
0.0
  0
SPLINE
  5
306
330
66
100
AcDbEntity
  8
0
  6
Continuous
 62
     7
100
AcDbSpline
210
0.0
220
0.0
230
1.0
 70
     8
 71
     3
 72
    15
 73
    11
 74
     9
 42
0.000000001
 43
0.0000000001
 44
0.00000001
 40
0.0
 40
0.0
 40
0.0
 40
0.0
 40
0.1304000769179602
 40
0.2670730841029382
 40
0.4138804521264787
 40
0.5734349866179833
 40
0.7462680444059078
 40
0.9312577333933889
 40
1.126363661714933
 40
1.325425157245775
 40
1.325425157245775
 40
1.325425157245775
 40
1.325425157245775
 10
273.3553083734941
 20
524.6160382381765
 30
0.0
 10
273.3117186376859
 20
524.6197941299521
 30
0.0
 10
273.2224422724659
 20
524.627486605315
 30
0.0
 10
273.0951520764971
 20
524.6870261239737
 30
0.0
 10
272.9784726409005
 20
524.7789640855165
 30
0.0
 10
272.8762155974468
 20
524.9031728891077
 30
0.0
 10
272.7919275297648
 20
525.0545613025822
 30
0.0
 10
272.7289960584302
 20
525.2284316208289
 30
0.0
 10
272.6886001293597
 20
525.4181607796891
 30
0.0
 10
272.6833816560013
 20
525.5496392786605
 30
0.0
 10
272.6807462414282
 20
525.6160382381765
 30
0.0
 11
273.3553083734941
 21
524.6160382381765
 31
0.0
 11
273.226240633663
 21
524.6346312455112
 31
0.0
 11
273.1011806926867
 21
524.6897631193611
 31
0.0
 11
272.9853451798537
 21
524.7799547935217
 31
0.0
 11
272.8829153583306
 21
524.9022895047103
 31
0.0
 11
272.7980068500476
 21
525.0528279095026
 31
0.0
 11
272.7341147626725
 21
525.2264337453577
 31
0.0
 11
272.6943334435896
 21
525.417440995278
 31
0.0
 11
272.6807462414282
 21
525.6160382381765
 31
0.0
  0
SPLINE
  5
307
330
66
100
AcDbEntity
  8
0
  6
Continuous
 62
     7
100
AcDbSpline
210
0.0
220
0.0
230
1.0
 70
     8
 71
     3
 72
    15
 73
    11
 74
     9
 42
0.000000001
 43
0.0000000001
 44
0.00000001
 40
0.0
 40
0.0
 40
0.0
 40
0.0
 40
0.019472629195979
 40
0.066035747785962
 40
0.1402257906835689
 40
0.2395752464850571
 40
0.3605415989594321
 40
0.4988864979785855
 40
0.6503546720754548
 40
0.8073749622412396
 40
0.8073749622412396
 40
0.8073749622412396
 40
0.8073749622412396
 10
235.8458069806551
 20
524.6160382381765
 30
0.0
 10
235.850204009973
 20
524.6111403664705
 30
0.0
 10
235.8651152703037
 20
524.5945306749771
 30
0.0
 10
235.8702687313675
 20
524.5456111632204
 30
0.0
 10
235.8827784393715
 20
524.4745594033104
 30
0.0
 10
235.8906596942424
 20
524.3760828703327
 30
0.0
 10
235.898513380472
 20
524.2570027728906
 30
0.0
 10
235.9039837824513
 20
524.1201006013174
 30
0.0
 10
235.9076116341213
 20
523.9712145700075
 30
0.0
 10
235.9080662288803
 20
523.8683806106876
 30
0.0
 10
235.9082976238205
 20
523.8160382381767
 30
0.0
 11
235.8458069806551
 21
524.6160382381765
 31
0.0
 11
235.8579125004567
 21
524.600785709509
 31
0.0
 11
235.8696140206979
 21
524.555716891172
 31
0.0
 11
235.8803945892099
 21
524.4823142906257
 31
0.0
 11
235.8898632998295
 21
524.3834170820741
 31
0.0
 11
235.8976486546024
 21
524.2627015210913
 31
0.0
 11
235.9034657254371
 21
524.1244789731386
 31
0.0
 11
235.9070723215526
 21
523.9730537432705
 31
0.0
 11
235.9082976238205
 21
523.8160382381767
 31
0.0
  0
SPLINE
  5
308
330
66
100
AcDbEntity
  8
0
  6
Continuous
 62
     7
100
AcDbSpline
210
0.0
220
0.0
230
1.0
 70
     8
 71
     3
 72
    11
 73
     7
 74
     5
 42
0.000000001
 43
0.0000000001
 44
0.00000001
 40
0.0
 40
0.0
 40
0.0
 40
0.0
 40
0.1788668085544991
 40
0.3809105535633943
 40
0.6047120710732723
 40
0.8418382268358199
 40
0.8418382268358199
 40
0.8418382268358199
 40
0.8418382268358199
 10
273.696179885205
 20
523.0767501217858
 30
0.0
 10
273.7435258389933
 20
523.1137960734221
 30
0.0
 10
273.8443526597695
 20
523.1926882729389
 30
0.0
 10
273.9460718157929
 20
523.3713289372474
 30
0.0
 10
274.0158370932749
 20
523.5827184244558
 30
0.0
 10
274.0246638448586
 20
523.736780409312
 30
0.0
 10
274.0292047964552
 20
523.8160382381767
 30
0.0
 11
273.696179885205
 21
523.0767501217858
 31
0.0
 11
273.8301135029478
 21
523.1953044217771
 31
0.0
 11
273.9363746761089
 21
523.3671480700905
 31
0.0
 11
274.0050808416861
 21
523.5801423965032
 31
0.0
 11
274.0292047964552
 21
523.8160382381767
 31
0.0
  0
SPLINE
  5
309
330
66
100
AcDbEntity
  8
0
  6
Continuous
 62
     7
100
AcDbSpline
210
0.0
220
0.0
230
1.0
 70
     8
 71
     3
 72
    15
 73
    11
 74
     9
 42
0.000000001
 43
0.0000000001
 44
0.00000001
 40
0.0
 40
0.0
 40
0.0
 40
0.0
 40
0.1588113782609926
 40
0.314491576632721
 40
0.4625704890188012
 40
0.6009375578236558
 40
0.7283311170390833
 40
0.8455527975082903
 40
0.9553162581427636
 40
1.060003132252769
 40
1.060003132252769
 40
1.060003132252769
 40
1.060003132252769
 10
274.0292047964552
 20
523.8160382381767
 30
0.0
 10
274.0271172238496
 20
523.8690111060035
 30
0.0
 10
274.0229832251949
 20
523.9739124094147
 30
0.0
 10
273.9908919982929
 20
524.1254784919743
 30
0.0
 10
273.9407453415994
 20
524.2645705723755
 30
0.0
 10
273.8734854851124
 20
524.3857514872807
 30
0.0
 10
273.7919216459256
 20
524.4851497265449
 30
0.0
 10
273.6987542149561
 20
524.5588845539107
 30
0.0
 10
273.5968224300118
 20
524.6068037876643
 30
0.0
 10
273.525135144551
 20
524.6130090572995
 30
0.0
 10
273.490140011213
 20
524.6160382381765
 30
0.0
 11
274.0292047964552
 21
523.8160382381767
 31
0.0
 11
274.0184325704973
 21
523.9744838483186
 31
0.0
 11
273.986850340924
 21
524.1269269085901
 31
0.0
 11
273.9358848561861
 21
524.2659588606401
 31
0.0
 11
273.8680680252285
 21
524.3865670003104
 31
0.0
 11
273.7864424965161
 21
524.4843749362343
 31
0.0
 11
273.6941041832232
 21
524.556586839135
 31
0.0
 11
273.5937478060187
 21
524.6010459891266
 31
0.0
 11
273.490140011213
 21
524.6160382381765
 31
0.0
  0
ENDBLK
  5
68
330
66
100
AcDbEntity
  8
0
100
AcDbBlockEnd
  0
BLOCK
  5
6F
330
69
100
AcDbEntity
  8
0
100
AcDbBlockBegin
  2
HL84_M-Zeichnungen-WEB__8
 70
     0
 10
-8.99999999999881
 20
434.4999759058236
 30
0.0
  3
HL84_M-Zeichnungen-WEB__8
  1

  0
INSERT
  5
6A
330
69
100
AcDbEntity
  8
0
100
AcDbBlockReference
  2
Bauschutz
 10
130.0000000000012
 20
633.2407956310606
 30
0.0
  0
INSERT
  5
6B
330
69
100
AcDbEntity
  8
0
100
AcDbBlockReference
  2
HL084_5E-Vlieskaschierte-Folie__5
 10
-8.99999999999881
 20
470.3160382381766
 30
0.0
  0
INSERT
  5
6C
330
69
100
AcDbEntity
  8
0
100
AcDbBlockReference
  2
HL062B_3E-Tragring__6
 10
162.5000000000011
 20
580.8160382381766
 30
0.0
  0
INSERT
  5
6D
330
69
100
AcDbEntity
  8
0
100
AcDbBlockReference
  2
HL084_4E-Klemmring
 10
148.498832500001
 20
434.4999759058236
 30
0.0
  0
INSERT
  5
6E
330
69
100
AcDbEntity
  8
0
100
AcDbBlockReference
  2
HL084_2E_Edelstahlflansch__7
 10
131.001000100021
 20
522.3160382381755
 30
0.0
  0
ENDBLK
  5
70
330
69
100
AcDbEntity
  8
0
100
AcDbBlockEnd
  0
BLOCK
  5
73
330
71
100
AcDbEntity
  8
0
100
AcDbBlockBegin
  2
Untsicht1
 70
     0
 10
241.000000000001
 20
517.6580202205314
 30
0.0
  3
Untsicht1
  1

  0
INSERT
  5
72
330
71
100
AcDbEntity
  8
0
100
AcDbBlockReference
  2
HL84_M-Zeichnungen-WEB__8
 10
-8.99999999999881
 20
434.4999759058236
 30
0.0
  0
MTEXT
  5
30A
330
71
100
AcDbEntity
  8
1
 62
     1
100
AcDbMText
 10
241.0000000000006
 20
429.499975905824
 30
0.0
 40
3.5
 41
0.0
 71
     2
 72
     1
  1
 
  7
CONVERTER_11
 73
     1
 44
1.32052821128451
  0
ENDBLK
  5
74
330
71
100
AcDbEntity
  8
0
100
AcDbBlockEnd
  0
BLOCK
  5
1E2
330
1DB
100
AcDbEntity
  8
0
100
AcDbBlockBegin
  2
*D13
 70
     1
 10
0.0
 20
0.0
 30
0.0
  3
*D13
  1

  0
LINE
  5
1DC
330
1DB
100
AcDbEntity
  8
1
  6
Continuous
 62
     4
100
AcDbLine
 10
542.7154380662189
 20
-117.9998674975101
 30
0.0
 11
542.7154380662189
 21
382.0001325024901
 31
0.0
  0
LINE
  5
1DD
330
1DB
100
AcDbEntity
  8
1
  6
Continuous
 62
     4
100
AcDbLine
 10
491.0000000000014
 20
-117.9998674975101
 30
0.0
 11
544.7154380662189
 21
-117.9998674975101
 31
0.0
  0
LINE
  5
1DE
330
1DB
100
AcDbEntity
  8
1
  6
Continuous
 62
     4
100
AcDbLine
 10
491.0000000000014
 20
382.0001325024901
 30
0.0
 11
544.7154380662189
 21
382.0001325024901
 31
0.0
  0
SOLID
  5
1DF
330
1DB
100
AcDbEntity
  8
1
 62
     4
100
AcDbTrace
 10
540.740650602408
 20
-102.9998674975101
 30
0.0
 11
544.6902255300298
 21
-102.9998674975101
 31
0.0
 12
542.7154380662189
 22
-117.9998674975101
 32
0.0
 13
542.7154380662189
 23
-117.9998674975101
 33
0.0
  0
SOLID
  5
1E0
330
1DB
100
AcDbEntity
  8
1
 62
     4
100
AcDbTrace
 10
544.6902255300298
 20
367.0001325024901
 30
0.0
 11
540.740650602408
 21
367.0001325024901
 31
0.0
 12
542.7154380662189
 22
382.0001325024901
 32
0.0
 13
542.7154380662189
 23
382.0001325024901
 33
0.0
  0
MTEXT
  5
1E1
330
1DB
100
AcDbEntity
  8
1
 62
     1
100
AcDbMText
 10
540.7154380662189
 20
156.169940753824
 30
0.0
 40
15.0
 41
0.0
 71
     7
 72
     1
  1
500
  7
CONVERTER_11
 11
0.0
 21
1.0
 31
0.0
 73
     1
 44
0.60024009603842
  0
ENDBLK
  5
1E3
330
1DB
100
AcDbEntity
  8
0
100
AcDbBlockEnd
  0
BLOCK
  5
1ED
330
1E6
100
AcDbEntity
  8
0
100
AcDbBlockBegin
  2
*D14
 70
     1
 10
0.0
 20
0.0
 30
0.0
  3
*D14
  1

  0
LINE
  5
1E7
330
1E6
100
AcDbEntity
  8
1
  6
Continuous
 62
     4
100
AcDbLine
 10
-8.99999999999829
 20
-169.51881758433
 30
0.0
 11
491.0000000000014
 21
-169.51881758433
 31
0.0
  0
LINE
  5
1E8
330
1E6
100
AcDbEntity
  8
1
  6
Continuous
 62
     4
100
AcDbLine
 10
-8.99999999999829
 20
-117.9998674975101
 30
0.0
 11
-8.99999999999829
 21
-171.51881758433
 31
0.0
  0
LINE
  5
1E9
330
1E6
100
AcDbEntity
  8
1
  6
Continuous
 62
     4
100
AcDbLine
 10
491.0000000000014
 20
-117.9998674975101
 30
0.0
 11
491.0000000000014
 21
-171.51881758433
 31
0.0
  0
SOLID
  5
1EA
330
1E6
100
AcDbEntity
  8
1
 62
     4
100
AcDbTrace
 10
6.00000000000171
 20
-167.5440301205191
 30
0.0
 11
6.00000000000171
 21
-171.4936050481409
 31
0.0
 12
-8.99999999999829
 22
-169.51881758433
 32
0.0
 13
-8.99999999999829
 23
-169.51881758433
 33
0.0
  0
SOLID
  5
1EB
330
1E6
100
AcDbEntity
  8
1
 62
     4
100
AcDbTrace
 10
476.0000000000014
 20
-171.4936050481409
 30
0.0
 11
476.0000000000014
 21
-167.5440301205191
 31
0.0
 12
491.0000000000014
 22
-169.51881758433
 32
0.0
 13
491.0000000000014
 23
-169.51881758433
 33
0.0
  0
MTEXT
  5
1EC
330
1E6
100
AcDbEntity
  8
1
 62
     1
100
AcDbMText
 10
265.4826203435849
 20
-167.51881758433
 30
0.0
 40
15.0
 41
0.0
 71
     7
 72
     1
  1
500
  7
CONVERTER_11
 11
0.9999999999970619
 21
2.424068405545306E-6
 31
0.0
 73
     1
 44
0.60024009603842
  0
ENDBLK
  5
1EE
330
1E6
100
AcDbEntity
  8
0
100
AcDbBlockEnd
  0
BLOCK
  5
1F6
330
1F1
100
AcDbEntity
  8
0
100
AcDbBlockBegin
  2
*D15
 70
     1
 10
0.0
 20
0.0
 30
0.0
  3
*D15
  1

  0
LINE
  5
1F2
330
1F1
100
AcDbEntity
  8
1
  6
Continuous
 62
     4
100
AcDbLine
 10
139.4563147203706
 20
46.88336004061739
 30
0.0
 11
399.0684369463309
 21
264.4975413163827
 31
0.0
  0
SOLID
  5
1F3
330
1F1
100
AcDbEntity
  8
1
 62
     4
100
AcDbTrace
 10
335.52729137842
 20
213.8123623106427
 30
0.0
 11
338.0644808718447
 21
210.78551385336
 31
0.0
 12
325.3002878161319
 22
202.6630043172795
 32
0.0
 13
325.3002878161319
 23
202.6630043172795
 33
0.0
  0
SOLID
  5
1F4
330
1F1
100
AcDbEntity
  8
1
 62
     4
100
AcDbTrace
 10
146.4727086215832
 20
50.18790269433695
 30
0.0
 11
143.9355191281585
 21
53.21475115161966
 31
0.0
 12
156.6997121838713
 22
61.33726068770008
 32
0.0
 13
156.6997121838713
 23
61.33726068770008
 33
0.0
  0
MTEXT
  5
1F5
330
1F1
100
AcDbEntity
  8
1
 62
     1
100
AcDbMText
 10
351.3414286093395
 20
227.1011153481068
 30
0.0
 40
15.0
 41
0.0
 71
     7
 72
     1
  1
\C1; {\Fgdt;n}\C1;220
  7
CONVERTER_11
 11
0.7663732206000317
 21
0.6423955843147859
 31
0.0
 73
     1
 44
0.60024009603842
  0
ENDBLK
  5
1F7
330
1F1
100
AcDbEntity
  8
0
100
AcDbBlockEnd
  0
ENDSEC
  0
SECTION
  2
ENTITIES
  0
INSERT
  5
75
330
1F
100
AcDbEntity
  8
0
100
AcDbBlockReference
  2
Vordans2
 10
241.0000000000014
 20
132.00004350083
 30
0.0
  0
INSERT
  5
76
330
1F
100
AcDbEntity
  8
0
100
AcDbBlockReference
  2
Untsicht1
 10
241.000000000001
 20
517.6580202205314
 30
0.0
  0
ENDSEC
  0
SECTION
  2
OBJECTS
  0
DICTIONARY
  5
C
330
0
100
AcDbDictionary
281
     1
  3
ACAD_GROUP
350
D
  3
ACAD_LAYOUT
350
1A
  3
ACAD_MATERIAL
350
3B
  3
ACAD_MLEADERSTYLE
350
30D
  3
ACAD_MLINESTYLE
350
17
  3
ACAD_PLOTSETTINGS
350
19
  3
ACAD_PLOTSTYLENAME
350
E
  3
ACAD_VISUALSTYLE
350
2A
  3
AcDbVariableDictionary
350
30B
  0
DICTIONARY
  5
D
102
{ACAD_REACTORS
330
C
102
}
330
C
100
AcDbDictionary
281
     1
  0
DICTIONARY
  5
1A
102
{ACAD_REACTORS
330
C
102
}
330
C
100
AcDbDictionary
281
     1
  3
Layout1
350
1E
  3
Layout2
350
26
  3
Model
350
22
  0
DICTIONARY
  5
3B
102
{ACAD_REACTORS
330
C
102
}
330
C
100
AcDbDictionary
281
     1
  3
ByBlock
350
3D
  3
ByLayer
350
3C
  3
Global
350
3E
  0
DICTIONARY
  5
30D
102
{ACAD_REACTORS
330
C
102
}
330
C
100
AcDbDictionary
281
     1
  0
DICTIONARY
  5
17
102
{ACAD_REACTORS
330
C
102
}
330
C
100
AcDbDictionary
281
     1
  3
Standard
350
18
  0
DICTIONARY
  5
19
102
{ACAD_REACTORS
330
C
102
}
330
C
100
AcDbDictionary
281
     1
  0
ACDBDICTIONARYWDFLT
  5
E
102
{ACAD_REACTORS
330
C
102
}
330
C
100
AcDbDictionary
281
     1
  3
Normal
350
F
100
AcDbDictionaryWithDefault
340
F
  0
DICTIONARY
  5
2A
102
{ACAD_REACTORS
330
C
102
}
330
C
100
AcDbDictionary
281
     1
  3
2dWireframe
350
2F
  3
3D Hidden
350
31
  3
3dWireframe
350
30
  3
Basic
350
32
  3
Brighten
350
36
  3
ColorChange
350
3A
  3
Conceptual
350
34
  3
Dim
350
35
  3
Facepattern
350
39
  3
Flat
350
2B
  3
FlatWithEdges
350
2C
  3
Gouraud
350
2D
  3
GouraudWithEdges
350
2E
  3
Linepattern
350
38
  3
Realistic
350
33
  3
Thicken
350
37
  0
DICTIONARY
  5
30B
102
{ACAD_REACTORS
330
C
102
}
330
C
100
AcDbDictionary
281
     1
  3
DIMASSOC
350
30E
  3
HIDETEXT
350
30F
  0
LAYOUT
  5
1E
102
{ACAD_REACTORS
330
1A
102
}
330
1A
100
AcDbPlotSettings
  1

  2
none_device
  4

  6

 40
0.0
 41
0.0
 42
0.0
 43
0.0
 44
0.0
 45
0.0
 46
0.0
 47
0.0
 48
0.0
 49
0.0
140
0.0
141
0.0
142
1.0
143
1.0
 70
   688
 72
     0
 73
     0
 74
     5
  7

 75
    16
147
1.0
148
0.0
149
0.0
100
AcDbLayout
  1
Layout1
 70
     1
 71
     1
 10
0.0
 20
0.0
 11
12.0
 21
9.0
 12
0.0
 22
0.0
 32
0.0
 14
1.00000000000000E+20
 24
1.00000000000000E+20
 34
1.00000000000000E+20
 15
-1.00000000000000E+20
 25
-1.00000000000000E+20
 35
-1.00000000000000E+20
146
0.0
 13
0.0
 23
0.0
 33
0.0
 16
1.0
 26
0.0
 36
0.0
 17
0.0
 27
1.0
 37
0.0
 76
     0
330
1B
  0
LAYOUT
  5
26
102
{ACAD_REACTORS
330
1A
102
}
330
1A
100
AcDbPlotSettings
  1

  2
none_device
  4

  6

 40
0.0
 41
0.0
 42
0.0
 43
0.0
 44
0.0
 45
0.0
 46
0.0
 47
0.0
 48
0.0
 49
0.0
140
0.0
141
0.0
142
1.0
143
1.0
 70
   688
 72
     0
 73
     0
 74
     5
  7

 75
    16
147
1.0
148
0.0
149
0.0
100
AcDbLayout
  1
Layout2
 70
     1
 71
     2
 10
0.0
 20
0.0
 11
0.0
 21
0.0
 12
0.0
 22
0.0
 32
0.0
 14
0.0
 24
0.0
 34
0.0
 15
0.0
 25
0.0
 35
0.0
146
0.0
 13
0.0
 23
0.0
 33
0.0
 16
1.0
 26
0.0
 36
0.0
 17
0.0
 27
1.0
 37
0.0
 76
     0
330
23
  0
LAYOUT
  5
22
102
{ACAD_REACTORS
330
1A
102
}
330
1A
100
AcDbPlotSettings
  1

  2
none_device
  4

  6

 40
0.0
 41
0.0
 42
0.0
 43
0.0
 44
0.0
 45
0.0
 46
0.0
 47
0.0
 48
0.0
 49
0.0
140
0.0
141
0.0
142
1.0
143
1.0
 70
  1712
 72
     0
 73
     0
 74
     0
  7

 75
     0
147
1.0
148
0.0
149
0.0
100
AcDbLayout
  1
Model
 70
     1
 71
     0
 10
0.0
 20
0.0
 11
12.0
 21
9.0
 12
0.0
 22
0.0
 32
0.0
 14
-24.44593930527418
 24
-171.51881758433
 34
0.0
 15
544.7154380662189
 25
647.2420199691725
 35
0.0
146
0.0
 13
0.0
 23
0.0
 33
0.0
 16
1.0
 26
0.0
 36
0.0
 17
0.0
 27
1.0
 37
0.0
 76
     0
330
1F
331
29
  0
MATERIAL
  5
3D
102
{ACAD_REACTORS
330
3B
102
}
102
{ACAD_XDICTIONARY
360
332
102
}
330
3B
100
AcDbMaterial
  1
ByBlock
  0
MATERIAL
  5
3C
102
{ACAD_REACTORS
330
3B
102
}
102
{ACAD_XDICTIONARY
360
330
102
}
330
3B
100
AcDbMaterial
  1
ByLayer
  0
MATERIAL
  5
3E
102
{ACAD_REACTORS
330
3B
102
}
102
{ACAD_XDICTIONARY
360
334
102
}
330
3B
100
AcDbMaterial
  1
Global
  0
MLINESTYLE
  5
18
102
{ACAD_REACTORS
330
17
102
}
330
17
100
AcDbMlineStyle
  2
Standard
 70
     0
  3

 62
   256
 51
90.0
 52
90.0
 71
     2
 49
0.5
 62
   256
  6
BYLAYER
 49
-0.5
 62
   256
  6
BYLAYER
  0
ACDBPLACEHOLDER
  5
F
102
{ACAD_REACTORS
330
E
102
}
330
E
  0
VISUALSTYLE
  5
2F
102
{ACAD_REACTORS
330
2A
102
}
102
{ACAD_XDICTIONARY
360
318
102
}
330
2A
100
AcDbVisualStyle
  2
2dWireframe
 70
     4
 71
     0
 72
     2
 73
     0
 90
        0
 40
-0.6
 41
-30.0
 62
     5
 63
     7
 74
     1
 91
        4
 64
     7
 65
   257
 75
     1
175
     1
 42
1.0
 92
        0
 66
   257
 43
1.0
 76
     1
 77
     6
 78
     2
 67
     7
 79
     5
170
     0
171
     0
290
     0
174
     0
 93
        1
 44
0.0
173
     0
291
     0
 45
0.0
1001
ACAD
1000
AcDbSavedByObjectVersion
1070
     0
  0
VISUALSTYLE
  5
31
102
{ACAD_REACTORS
330
2A
102
}
102
{ACAD_XDICTIONARY
360
31C
102
}
330
2A
100
AcDbVisualStyle
  2
3D Hidden
 70
     6
 71
     1
 72
     2
 73
     2
 90
        0
 40
-0.6
 41
-30.0
 62
     5
 63
     7
 74
     2
 91
        2
 64
     7
 65
   257
 75
     2
175
     1
 42
40.0
 92
        0
 66
   257
 43
1.0
 76
     1
 77
     6
 78
     2
 67
     7
 79
     3
170
     0
171
     0
290
     0
174
     0
 93
        1
 44
0.0
173
     0
291
     0
 45
0.0
1001
ACAD
1000
AcDbSavedByObjectVersion
1070
     0
  0
VISUALSTYLE
  5
30
102
{ACAD_REACTORS
330
2A
102
}
102
{ACAD_XDICTIONARY
360
31A
102
}
330
2A
100
AcDbVisualStyle
  2
3dWireframe
 70
     5
 71
     0
 72
     2
 73
     0
 90
        0
 40
-0.6
 41
-30.0
 62
     5
 63
     7
 74
     1
 91
        4
 64
     7
 65
   257
 75
     1
175
     1
 42
1.0
 92
        0
 66
   257
 43
1.0
 76
     1
 77
     6
 78
     2
 67
     7
 79
     5
170
     0
171
     0
290
     0
174
     0
 93
        1
 44
0.0
173
     0
291
     0
 45
0.0
1001
ACAD
1000
AcDbSavedByObjectVersion
1070
     0
  0
VISUALSTYLE
  5
32
102
{ACAD_REACTORS
330
2A
102
}
102
{ACAD_XDICTIONARY
360
31E
102
}
330
2A
100
AcDbVisualStyle
  2
Basic
 70
     7
 71
     1
 72
     0
 73
     1
 90
        0
 40
-0.6
 41
-30.0
 62
     5
 63
     7
 74
     0
 91
        4
 64
     7
 65
   257
 75
     1
175
     1
 42
1.0
 92
        8
 66
     7
 43
1.0
 76
     1
 77
     6
 78
     2
 67
     7
 79
     5
170
     0
171
     0
290
     0
174
     0
 93
        1
 44
0.0
173
     0
291
     1
 45
0.0
1001
ACAD
1000
AcDbSavedByObjectVersion
1070
     0
  0
VISUALSTYLE
  5
36
102
{ACAD_REACTORS
330
2A
102
}
102
{ACAD_XDICTIONARY
360
326
102
}
330
2A
100
AcDbVisualStyle
  2
Brighten
 70
    12
 71
     2
 72
     2
 73
     0
 90
        0
 40
-0.6
 41
-30.0
 62
     5
 63
     7
 74
     1
 91
        4
 64
     7
 65
   257
 75
     1
175
     1
 42
1.0
 92
        8
 66
     7
 43
1.0
 76
     1
 77
     6
 78
     2
 67
     7
 79
     5
170
     0
171
     0
290
     0
174
     0
 93
        1
 44
50.0
173
     0
291
     1
 45
0.0
1001
ACAD
1000
AcDbSavedByObjectVersion
1070
     0
  0
VISUALSTYLE
  5
3A
102
{ACAD_REACTORS
330
2A
102
}
102
{ACAD_XDICTIONARY
360
32E
102
}
330
2A
100
AcDbVisualStyle
  2
ColorChange
 70
    16
 71
     2
 72
     2
 73
     3
 90
        0
 40
-0.6
 41
-30.0
 62
     5
 63
     8
 74
     1
 91
        4
 64
     7
 65
   257
 75
     1
175
     1
 42
1.0
 92
        8
 66
     8
 43
1.0
 76
     1
 77
     6
 78
     2
 67
     7
 79
     5
170
     0
171
     0
290
     0
174
     0
 93
        1
 44
0.0
173
     0
291
     1
 45
0.0
1001
ACAD
1000
AcDbSavedByObjectVersion
1070
     0
  0
VISUALSTYLE
  5
34
102
{ACAD_REACTORS
330
2A
102
}
102
{ACAD_XDICTIONARY
360
322
102
}
330
2A
100
AcDbVisualStyle
  2
Conceptual
 70
     9
 71
     3
 72
     2
 73
     0
 90
        0
 40
-0.6
 41
-30.0
 62
     5
 63
     7
 74
     2
 91
        2
 64
     7
 65
   257
 75
     1
175
     1
 42
40.0
 92
        8
 66
     7
 43
1.0
 76
     1
 77
     6
 78
     2
 67
     7
 79
     3
170
     0
171
     0
290
     0
174
     0
 93
        1
 44
0.0
173
     0
291
     0
 45
0.0
1001
ACAD
1000
AcDbSavedByObjectVersion
1070
     0
  0
VISUALSTYLE
  5
35
102
{ACAD_REACTORS
330
2A
102
}
102
{ACAD_XDICTIONARY
360
324
102
}
330
2A
100
AcDbVisualStyle
  2
Dim
 70
    11
 71
     2
 72
     2
 73
     0
 90
        0
 40
-0.6
 41
-30.0
 62
     5
 63
     7
 74
     1
 91
        4
 64
     7
 65
   257
 75
     1
175
     1
 42
1.0
 92
        8
 66
     7
 43
1.0
 76
     1
 77
     6
 78
     2
 67
     7
 79
     5
170
     0
171
     0
290
     0
174
     0
 93
        1
 44
-50.0
173
     0
291
     1
 45
0.0
1001
ACAD
1000
AcDbSavedByObjectVersion
1070
     0
  0
VISUALSTYLE
  5
39
102
{ACAD_REACTORS
330
2A
102
}
102
{ACAD_XDICTIONARY
360
32C
102
}
330
2A
100
AcDbVisualStyle
  2
Facepattern
 70
    15
 71
     2
 72
     2
 73
     0
 90
        0
 40
-0.6
 41
-30.0
 62
     5
 63
     7
 74
     1
 91
        4
 64
     7
 65
   257
 75
     1
175
     1
 42
1.0
 92
        8
 66
     7
 43
1.0
 76
     1
 77
     6
 78
     2
 67
     7
 79
     5
170
     0
171
     0
290
     0
174
     0
 93
        1
 44
0.0
173
     0
291
     1
 45
0.0
1001
ACAD
1000
AcDbSavedByObjectVersion
1070
     0
  0
VISUALSTYLE
  5
2B
102
{ACAD_REACTORS
330
2A
102
}
102
{ACAD_XDICTIONARY
360
310
102
}
330
2A
100
AcDbVisualStyle
  2
Flat
 70
     0
 71
     2
 72
     1
 73
     1
 90
        2
 40
-0.6
 41
30.0
 62
     5
 63
     7
 74
     0
 91
        4
 64
     7
 65
   257
 75
     1
175
     1
 42
1.0
 92
        8
 66
     7
 43
1.0
 76
     1
 77
     6
 78
     2
 67
     7
 79
     5
170
     0
171
     0
290
     0
174
     0
 93
       13
 44
0.0
173
     0
291
     1
 45
0.0
1001
ACAD
1000
AcDbSavedByObjectVersion
1070
     0
  0
VISUALSTYLE
  5
2C
102
{ACAD_REACTORS
330
2A
102
}
102
{ACAD_XDICTIONARY
360
312
102
}
330
2A
100
AcDbVisualStyle
  2
FlatWithEdges
 70
     1
 71
     2
 72
     1
 73
     1
 90
        2
 40
-0.6
 41
30.0
 62
     5
 63
     7
 74
     1
 91
        4
 64
     7
 65
   257
 75
     1
175
     1
 42
1.0
 92
        0
 66
   257
 43
1.0
 76
     1
 77
     6
 78
     2
 67
     7
 79
     5
170
     0
171
     0
290
     0
174
     0
 93
       13
 44
0.0
173
     0
291
     1
 45
0.0
1001
ACAD
1000
AcDbSavedByObjectVersion
1070
     0
  0
VISUALSTYLE
  5
2D
102
{ACAD_REACTORS
330
2A
102
}
102
{ACAD_XDICTIONARY
360
314
102
}
330
2A
100
AcDbVisualStyle
  2
Gouraud
 70
     2
 71
     2
 72
     2
 73
     1
 90
        2
 40
-0.6
 41
30.0
 62
     5
 63
     7
 74
     0
 91
        4
 64
     7
 65
   257
 75
     1
175
     1
 42
1.0
 92
        0
 66
     7
 43
1.0
 76
     1
 77
     6
 78
     2
 67
     7
 79
     5
170
     0
171
     0
290
     0
174
     0
 93
       13
 44
0.0
173
     0
291
     1
 45
0.0
1001
ACAD
1000
AcDbSavedByObjectVersion
1070
     0
  0
VISUALSTYLE
  5
2E
102
{ACAD_REACTORS
330
2A
102
}
102
{ACAD_XDICTIONARY
360
316
102
}
330
2A
100
AcDbVisualStyle
  2
GouraudWithEdges
 70
     3
 71
     2
 72
     2
 73
     1
 90
        2
 40
-0.6
 41
30.0
 62
     5
 63
     7
 74
     1
 91
        4
 64
     7
 65
   257
 75
     1
175
     1
 42
1.0
 92
        0
 66
   257
 43
1.0
 76
     1
 77
     6
 78
     2
 67
     7
 79
     5
170
     0
171
     0
290
     0
174
     0
 93
       13
 44
0.0
173
     0
291
     1
 45
0.0
1001
ACAD
1000
AcDbSavedByObjectVersion
1070
     0
  0
VISUALSTYLE
  5
38
102
{ACAD_REACTORS
330
2A
102
}
102
{ACAD_XDICTIONARY
360
32A
102
}
330
2A
100
AcDbVisualStyle
  2
Linepattern
 70
    14
 71
     2
 72
     2
 73
     0
 90
        0
 40
-0.6
 41
-30.0
 62
     5
 63
     7
 74
     1
 91
        4
 64
     7
 65
   257
 75
     7
175
     7
 42
1.0
 92
        8
 66
     7
 43
1.0
 76
     1
 77
     6
 78
     2
 67
     7
 79
     5
170
     0
171
     0
290
     0
174
     0
 93
        1
 44
0.0
173
     0
291
     1
 45
0.0
1001
ACAD
1000
AcDbSavedByObjectVersion
1070
     0
  0
VISUALSTYLE
  5
33
102
{ACAD_REACTORS
330
2A
102
}
102
{ACAD_XDICTIONARY
360
320
102
}
330
2A
100
AcDbVisualStyle
  2
Realistic
 70
     8
 71
     2
 72
     2
 73
     0
 90
        0
 40
-0.6
 41
-30.0
 62
     5
 63
     7
 74
     1
 91
        0
 64
     7
 65
   257
 75
     1
175
     1
 42
1.0
 92
        8
 66
     8
 43
1.0
 76
     1
 77
     6
 78
     2
 67
     7
 79
     5
170
     0
171
     0
290
     0
174
     0
 93
       13
 44
0.0
173
     0
291
     0
 45
0.0
1001
ACAD
1000
AcDbSavedByObjectVersion
1070
     0
  0
VISUALSTYLE
  5
37
102
{ACAD_REACTORS
330
2A
102
}
102
{ACAD_XDICTIONARY
360
328
102
}
330
2A
100
AcDbVisualStyle
  2
Thicken
 70
    13
 71
     2
 72
     2
 73
     0
 90
        0
 40
-0.6
 41
-30.0
 62
     5
 63
     7
 74
     1
 91
        4
 64
     7
 65
   257
 75
     1
175
     1
 42
1.0
 92
       12
 66
     7
 43
1.0
 76
     1
 77
     6
 78
     2
 67
     7
 79
     5
170
     0
171
     0
290
     0
174
     0
 93
        1
 44
0.0
173
     0
291
     1
 45
0.0
1001
ACAD
1000
AcDbSavedByObjectVersion
1070
     0
  0
DICTIONARYVAR
  5
30E
102
{ACAD_REACTORS
330
30B
102
}
330
30B
100
DictionaryVariables
280
     0
  1
2
  0
DICTIONARYVAR
  5
30F
102
{ACAD_REACTORS
330
30B
102
}
330
30B
100
DictionaryVariables
280
     0
  1
1
  0
DICTIONARY
  5
332
330
3D
100
AcDbDictionary
280
     1
281
     1
  3
ACAD_XREC_ROUNDTRIP
360
333
  0
DICTIONARY
  5
330
330
3C
100
AcDbDictionary
280
     1
281
     1
  3
ACAD_XREC_ROUNDTRIP
360
331
  0
DICTIONARY
  5
334
330
3E
100
AcDbDictionary
280
     1
281
     1
  3
ACAD_XREC_ROUNDTRIP
360
335
  0
DICTIONARY
  5
318
330
2F
100
AcDbDictionary
280
     1
281
     1
  3
ACAD_XREC_ROUNDTRIP
360
319
  0
DICTIONARY
  5
31C
330
31
100
AcDbDictionary
280
     1
281
     1
  3
ACAD_XREC_ROUNDTRIP
360
31D
  0
DICTIONARY
  5
31A
330
30
100
AcDbDictionary
280
     1
281
     1
  3
ACAD_XREC_ROUNDTRIP
360
31B
  0
DICTIONARY
  5
31E
330
32
100
AcDbDictionary
280
     1
281
     1
  3
ACAD_XREC_ROUNDTRIP
360
31F
  0
DICTIONARY
  5
326
330
36
100
AcDbDictionary
280
     1
281
     1
  3
ACAD_XREC_ROUNDTRIP
360
327
  0
DICTIONARY
  5
32E
330
3A
100
AcDbDictionary
280
     1
281
     1
  3
ACAD_XREC_ROUNDTRIP
360
32F
  0
DICTIONARY
  5
322
330
34
100
AcDbDictionary
280
     1
281
     1
  3
ACAD_XREC_ROUNDTRIP
360
323
  0
DICTIONARY
  5
324
330
35
100
AcDbDictionary
280
     1
281
     1
  3
ACAD_XREC_ROUNDTRIP
360
325
  0
DICTIONARY
  5
32C
330
39
100
AcDbDictionary
280
     1
281
     1
  3
ACAD_XREC_ROUNDTRIP
360
32D
  0
DICTIONARY
  5
310
330
2B
100
AcDbDictionary
280
     1
281
     1
  3
ACAD_XREC_ROUNDTRIP
360
311
  0
DICTIONARY
  5
312
330
2C
100
AcDbDictionary
280
     1
281
     1
  3
ACAD_XREC_ROUNDTRIP
360
313
  0
DICTIONARY
  5
314
330
2D
100
AcDbDictionary
280
     1
281
     1
  3
ACAD_XREC_ROUNDTRIP
360
315
  0
DICTIONARY
  5
316
330
2E
100
AcDbDictionary
280
     1
281
     1
  3
ACAD_XREC_ROUNDTRIP
360
317
  0
DICTIONARY
  5
32A
330
38
100
AcDbDictionary
280
     1
281
     1
  3
ACAD_XREC_ROUNDTRIP
360
32B
  0
DICTIONARY
  5
320
330
33
100
AcDbDictionary
280
     1
281
     1
  3
ACAD_XREC_ROUNDTRIP
360
321
  0
DICTIONARY
  5
328
330
37
100
AcDbDictionary
280
     1
281
     1
  3
ACAD_XREC_ROUNDTRIP
360
329
  0
XRECORD
  5
333
102
{ACAD_REACTORS
330
332
102
}
330
332
100
AcDbXrecord
280
     1
102
MATERIAL
148
0.0
149
0.0
149
0.0
 93
        0
 94
      127
282
     0
 72
     1
 77
     1
171
     1
175
     1
179
     1
273
     0
  0
XRECORD
  5
331
102
{ACAD_REACTORS
330
330
102
}
330
330
100
AcDbXrecord
280
     1
102
MATERIAL
148
0.0
149
0.0
149
0.0
 93
        0
 94
      127
282
     0
 72
     1
 77
     1
171
     1
175
     1
179
     1
273
     0
  0
XRECORD
  5
335
102
{ACAD_REACTORS
330
334
102
}
330
334
100
AcDbXrecord
280
     1
102
MATERIAL
148
0.0
149
0.0
149
0.0
 93
        0
 94
      127
282
     0
 72
     1
 77
     1
171
     1
175
     1
179
     1
273
     0
  0
XRECORD
  5
319
102
{ACAD_REACTORS
330
318
102
}
330
318
100
AcDbXrecord
280
     1
102
RTVSPropertyOp0
 70
     1
102
RTVSPropertyOp1
 70
     1
102
RTVSPropertyOp2
 70
     1
102
RTVSPropertyOp3
 70
     1
102
RTVSPropertyOp4
 70
     1
102
RTVSPropertyOp5
 70
     1
102
RTVSPropertyOp6
 70
     1
102
RTVSPropertyOp7
 70
     1
102
RTVSPropertyOp8
 70
     1
102
RTVSPropertyOp9
 70
     1
102
RTVSPropertyOp10
 70
     1
102
RTVSPropertyOp11
 70
     1
102
RTVSPropertyOp12
 70
     1
102
RTVSPropertyOp13
 70
     1
102
RTVSPropertyOp14
 70
     1
102
RTVSPropertyOp15
 70
     1
102
RTVSPropertyOp16
 70
     1
102
RTVSPropertyOp17
 70
     1
102
RTVSPropertyOp18
 70
     1
102
RTVSPropertyOp19
 70
     1
102
RTVSPropertyOp20
 70
     1
102
RTVSPropertyOp21
 70
     1
102
RTVSPropertyOp22
 70
     1
102
RTVSPropertyOp23
 70
     1
102
RTVSPropertyOp24
 70
     1
102
RTVSPropertyOp25
 70
     1
102
RTVSPropertyOp26
 70
     1
102
RTVSPropertyOp27
 70
     1
102
RTVSPropertyOp28
 70
     1
102
RTVSPropertyOp29
 70
     1
102
RTVSPropertyOp30
 70
     1
102
RTVSPropertyOp31
 70
     1
102
RTVSPropertyOp32
 70
     1
  0
XRECORD
  5
31D
102
{ACAD_REACTORS
330
31C
102
}
330
31C
100
AcDbXrecord
280
     1
102
RTVSPropertyOp0
 70
     1
102
RTVSPropertyOp1
 70
     1
102
RTVSPropertyOp2
 70
     1
102
RTVSPropertyOp3
 70
     1
102
RTVSPropertyOp4
 70
     1
102
RTVSPropertyOp5
 70
     1
102
RTVSPropertyOp6
 70
     1
102
RTVSPropertyOp7
 70
     1
102
RTVSPropertyOp8
 70
     1
102
RTVSPropertyOp9
 70
     1
102
RTVSPropertyOp10
 70
     1
102
RTVSPropertyOp11
 70
     1
102
RTVSPropertyOp12
 70
     1
102
RTVSPropertyOp13
 70
     1
102
RTVSPropertyOp14
 70
     1
102
RTVSPropertyOp15
 70
     1
102
RTVSPropertyOp16
 70
     1
102
RTVSPropertyOp17
 70
     1
102
RTVSPropertyOp18
 70
     1
102
RTVSPropertyOp19
 70
     1
102
RTVSPropertyOp20
 70
     1
102
RTVSPropertyOp21
 70
     1
102
RTVSPropertyOp22
 70
     1
102
RTVSPropertyOp23
 70
     1
102
RTVSPropertyOp24
 70
     1
102
RTVSPropertyOp25
 70
     1
102
RTVSPropertyOp26
 70
     1
102
RTVSPropertyOp27
 70
     1
102
RTVSPropertyOp28
 70
     1
102
RTVSPropertyOp29
 70
     1
102
RTVSPropertyOp30
 70
     1
102
RTVSPropertyOp31
 70
     1
102
RTVSPropertyOp32
 70
     1
  0
XRECORD
  5
31B
102
{ACAD_REACTORS
330
31A
102
}
330
31A
100
AcDbXrecord
280
     1
102
RTVSPropertyOp0
 70
     1
102
RTVSPropertyOp1
 70
     1
102
RTVSPropertyOp2
 70
     1
102
RTVSPropertyOp3
 70
     1
102
RTVSPropertyOp4
 70
     1
102
RTVSPropertyOp5
 70
     1
102
RTVSPropertyOp6
 70
     1
102
RTVSPropertyOp7
 70
     1
102
RTVSPropertyOp8
 70
     1
102
RTVSPropertyOp9
 70
     1
102
RTVSPropertyOp10
 70
     1
102
RTVSPropertyOp11
 70
     1
102
RTVSPropertyOp12
 70
     1
102
RTVSPropertyOp13
 70
     1
102
RTVSPropertyOp14
 70
     1
102
RTVSPropertyOp15
 70
     1
102
RTVSPropertyOp16
 70
     1
102
RTVSPropertyOp17
 70
     1
102
RTVSPropertyOp18
 70
     1
102
RTVSPropertyOp19
 70
     1
102
RTVSPropertyOp20
 70
     1
102
RTVSPropertyOp21
 70
     1
102
RTVSPropertyOp22
 70
     1
102
RTVSPropertyOp23
 70
     1
102
RTVSPropertyOp24
 70
     1
102
RTVSPropertyOp25
 70
     1
102
RTVSPropertyOp26
 70
     1
102
RTVSPropertyOp27
 70
     1
102
RTVSPropertyOp28
 70
     1
102
RTVSPropertyOp29
 70
     1
102
RTVSPropertyOp30
 70
     1
102
RTVSPropertyOp31
 70
     1
102
RTVSPropertyOp32
 70
     1
  0
XRECORD
  5
31F
102
{ACAD_REACTORS
330
31E
102
}
330
31E
100
AcDbXrecord
280
     1
102
RTVSPropertyOp0
 70
     1
102
RTVSPropertyOp1
 70
     1
102
RTVSPropertyOp2
 70
     1
102
RTVSPropertyOp3
 70
     1
102
RTVSPropertyOp4
 70
     1
102
RTVSPropertyOp5
 70
     1
102
RTVSPropertyOp6
 70
     1
102
RTVSPropertyOp7
 70
     1
102
RTVSPropertyOp8
 70
     1
102
RTVSPropertyOp9
 70
     1
102
RTVSPropertyOp10
 70
     1
102
RTVSPropertyOp11
 70
     1
102
RTVSPropertyOp12
 70
     1
102
RTVSPropertyOp13
 70
     1
102
RTVSPropertyOp14
 70
     1
102
RTVSPropertyOp15
 70
     1
102
RTVSPropertyOp16
 70
     1
102
RTVSPropertyOp17
 70
     1
102
RTVSPropertyOp18
 70
     1
102
RTVSPropertyOp19
 70
     1
102
RTVSPropertyOp20
 70
     1
102
RTVSPropertyOp21
 70
     1
102
RTVSPropertyOp22
 70
     1
102
RTVSPropertyOp23
 70
     1
102
RTVSPropertyOp24
 70
     1
102
RTVSPropertyOp25
 70
     1
102
RTVSPropertyOp26
 70
     1
102
RTVSPropertyOp27
 70
     1
102
RTVSPropertyOp28
 70
     1
102
RTVSPropertyOp29
 70
     1
102
RTVSPropertyOp30
 70
     1
102
RTVSPropertyOp31
 70
     1
102
RTVSPropertyOp32
 70
     1
  0
XRECORD
  5
327
102
{ACAD_REACTORS
330
326
102
}
330
326
100
AcDbXrecord
280
     1
102
RTVSPropertyOp0
 70
     1
102
RTVSPropertyOp1
 70
     1
102
RTVSPropertyOp2
 70
     1
102
RTVSPropertyOp3
 70
     1
102
RTVSPropertyOp4
 70
     1
102
RTVSPropertyOp5
 70
     1
102
RTVSPropertyOp6
 70
     1
102
RTVSPropertyOp7
 70
     1
102
RTVSPropertyOp8
 70
     1
102
RTVSPropertyOp9
 70
     1
102
RTVSPropertyOp10
 70
     1
102
RTVSPropertyOp11
 70
     1
102
RTVSPropertyOp12
 70
     1
102
RTVSPropertyOp13
 70
     1
102
RTVSPropertyOp14
 70
     1
102
RTVSPropertyOp15
 70
     1
102
RTVSPropertyOp16
 70
     1
102
RTVSPropertyOp17
 70
     1
102
RTVSPropertyOp18
 70
     1
102
RTVSPropertyOp19
 70
     1
102
RTVSPropertyOp20
 70
     1
102
RTVSPropertyOp21
 70
     1
102
RTVSPropertyOp22
 70
     1
102
RTVSPropertyOp23
 70
     1
102
RTVSPropertyOp24
 70
     1
102
RTVSPropertyOp25
 70
     1
102
RTVSPropertyOp26
 70
     1
102
RTVSPropertyOp27
 70
     1
102
RTVSPropertyOp28
 70
     1
102
RTVSPropertyOp29
 70
     1
102
RTVSPropertyOp30
 70
     1
102
RTVSPropertyOp31
 70
     1
102
RTVSPropertyOp32
 70
     1
  0
XRECORD
  5
32F
102
{ACAD_REACTORS
330
32E
102
}
330
32E
100
AcDbXrecord
280
     1
102
RTVSPropertyOp0
 70
     1
102
RTVSPropertyOp1
 70
     1
102
RTVSPropertyOp2
 70
     1
102
RTVSPropertyOp3
 70
     1
102
RTVSPropertyOp4
 70
     1
102
RTVSPropertyOp5
 70
     1
102
RTVSPropertyOp6
 70
     1
102
RTVSPropertyOp7
 70
     1
102
RTVSPropertyOp8
 70
     1
102
RTVSPropertyOp9
 70
     1
102
RTVSPropertyOp10
 70
     1
102
RTVSPropertyOp11
 70
     1
102
RTVSPropertyOp12
 70
     1
102
RTVSPropertyOp13
 70
     1
102
RTVSPropertyOp14
 70
     1
102
RTVSPropertyOp15
 70
     1
102
RTVSPropertyOp16
 70
     1
102
RTVSPropertyOp17
 70
     1
102
RTVSPropertyOp18
 70
     1
102
RTVSPropertyOp19
 70
     1
102
RTVSPropertyOp20
 70
     1
102
RTVSPropertyOp21
 70
     1
102
RTVSPropertyOp22
 70
     1
102
RTVSPropertyOp23
 70
     1
102
RTVSPropertyOp24
 70
     1
102
RTVSPropertyOp25
 70
     1
102
RTVSPropertyOp26
 70
     1
102
RTVSPropertyOp27
 70
     1
102
RTVSPropertyOp28
 70
     1
102
RTVSPropertyOp29
 70
     1
102
RTVSPropertyOp30
 70
     1
102
RTVSPropertyOp31
 70
     1
102
RTVSPropertyOp32
 70
     1
  0
XRECORD
  5
323
102
{ACAD_REACTORS
330
322
102
}
330
322
100
AcDbXrecord
280
     1
102
RTVSPropertyOp0
 70
     1
102
RTVSPropertyOp1
 70
     1
102
RTVSPropertyOp2
 70
     1
102
RTVSPropertyOp3
 70
     1
102
RTVSPropertyOp4
 70
     1
102
RTVSPropertyOp5
 70
     1
102
RTVSPropertyOp6
 70
     1
102
RTVSPropertyOp7
 70
     1
102
RTVSPropertyOp8
 70
     1
102
RTVSPropertyOp9
 70
     1
102
RTVSPropertyOp10
 70
     1
102
RTVSPropertyOp11
 70
     1
102
RTVSPropertyOp12
 70
     1
102
RTVSPropertyOp13
 70
     1
102
RTVSPropertyOp14
 70
     1
102
RTVSPropertyOp15
 70
     1
102
RTVSPropertyOp16
 70
     1
102
RTVSPropertyOp17
 70
     1
102
RTVSPropertyOp18
 70
     1
102
RTVSPropertyOp19
 70
     1
102
RTVSPropertyOp20
 70
     1
102
RTVSPropertyOp21
 70
     1
102
RTVSPropertyOp22
 70
     1
102
RTVSPropertyOp23
 70
     1
102
RTVSPropertyOp24
 70
     1
102
RTVSPropertyOp25
 70
     1
102
RTVSPropertyOp26
 70
     1
102
RTVSPropertyOp27
 70
     1
102
RTVSPropertyOp28
 70
     1
102
RTVSPropertyOp29
 70
     1
102
RTVSPropertyOp30
 70
     1
102
RTVSPropertyOp31
 70
     1
102
RTVSPropertyOp32
 70
     1
  0
XRECORD
  5
325
102
{ACAD_REACTORS
330
324
102
}
330
324
100
AcDbXrecord
280
     1
102
RTVSPropertyOp0
 70
     1
102
RTVSPropertyOp1
 70
     1
102
RTVSPropertyOp2
 70
     1
102
RTVSPropertyOp3
 70
     1
102
RTVSPropertyOp4
 70
     1
102
RTVSPropertyOp5
 70
     1
102
RTVSPropertyOp6
 70
     1
102
RTVSPropertyOp7
 70
     1
102
RTVSPropertyOp8
 70
     1
102
RTVSPropertyOp9
 70
     1
102
RTVSPropertyOp10
 70
     1
102
RTVSPropertyOp11
 70
     1
102
RTVSPropertyOp12
 70
     1
102
RTVSPropertyOp13
 70
     1
102
RTVSPropertyOp14
 70
     1
102
RTVSPropertyOp15
 70
     1
102
RTVSPropertyOp16
 70
     1
102
RTVSPropertyOp17
 70
     1
102
RTVSPropertyOp18
 70
     1
102
RTVSPropertyOp19
 70
     1
102
RTVSPropertyOp20
 70
     1
102
RTVSPropertyOp21
 70
     1
102
RTVSPropertyOp22
 70
     1
102
RTVSPropertyOp23
 70
     1
102
RTVSPropertyOp24
 70
     1
102
RTVSPropertyOp25
 70
     1
102
RTVSPropertyOp26
 70
     1
102
RTVSPropertyOp27
 70
     1
102
RTVSPropertyOp28
 70
     1
102
RTVSPropertyOp29
 70
     1
102
RTVSPropertyOp30
 70
     1
102
RTVSPropertyOp31
 70
     1
102
RTVSPropertyOp32
 70
     1
  0
XRECORD
  5
32D
102
{ACAD_REACTORS
330
32C
102
}
330
32C
100
AcDbXrecord
280
     1
102
RTVSPropertyOp0
 70
     1
102
RTVSPropertyOp1
 70
     1
102
RTVSPropertyOp2
 70
     1
102
RTVSPropertyOp3
 70
     1
102
RTVSPropertyOp4
 70
     1
102
RTVSPropertyOp5
 70
     1
102
RTVSPropertyOp6
 70
     1
102
RTVSPropertyOp7
 70
     1
102
RTVSPropertyOp8
 70
     1
102
RTVSPropertyOp9
 70
     1
102
RTVSPropertyOp10
 70
     1
102
RTVSPropertyOp11
 70
     1
102
RTVSPropertyOp12
 70
     1
102
RTVSPropertyOp13
 70
     1
102
RTVSPropertyOp14
 70
     1
102
RTVSPropertyOp15
 70
     1
102
RTVSPropertyOp16
 70
     1
102
RTVSPropertyOp17
 70
     1
102
RTVSPropertyOp18
 70
     1
102
RTVSPropertyOp19
 70
     1
102
RTVSPropertyOp20
 70
     1
102
RTVSPropertyOp21
 70
     1
102
RTVSPropertyOp22
 70
     1
102
RTVSPropertyOp23
 70
     1
102
RTVSPropertyOp24
 70
     1
102
RTVSPropertyOp25
 70
     1
102
RTVSPropertyOp26
 70
     1
102
RTVSPropertyOp27
 70
     1
102
RTVSPropertyOp28
 70
     1
102
RTVSPropertyOp29
 70
     1
102
RTVSPropertyOp30
 70
     1
102
RTVSPropertyOp31
 70
     1
102
RTVSPropertyOp32
 70
     1
  0
XRECORD
  5
311
102
{ACAD_REACTORS
330
310
102
}
330
310
100
AcDbXrecord
280
     1
102
RTVSPropertyOp0
 70
     1
102
RTVSPropertyOp1
 70
     1
102
RTVSPropertyOp2
 70
     1
102
RTVSPropertyOp3
 70
     1
102
RTVSPropertyOp4
 70
     1
102
RTVSPropertyOp5
 70
     1
102
RTVSPropertyOp6
 70
     1
102
RTVSPropertyOp7
 70
     1
102
RTVSPropertyOp8
 70
     1
102
RTVSPropertyOp9
 70
     1
102
RTVSPropertyOp10
 70
     1
102
RTVSPropertyOp11
 70
     1
102
RTVSPropertyOp12
 70
     1
102
RTVSPropertyOp13
 70
     1
102
RTVSPropertyOp14
 70
     1
102
RTVSPropertyOp15
 70
     1
102
RTVSPropertyOp16
 70
     1
102
RTVSPropertyOp17
 70
     1
102
RTVSPropertyOp18
 70
     1
102
RTVSPropertyOp19
 70
     1
102
RTVSPropertyOp20
 70
     1
102
RTVSPropertyOp21
 70
     1
102
RTVSPropertyOp22
 70
     1
102
RTVSPropertyOp23
 70
     1
102
RTVSPropertyOp24
 70
     1
102
RTVSPropertyOp25
 70
     1
102
RTVSPropertyOp26
 70
     1
102
RTVSPropertyOp27
 70
     1
102
RTVSPropertyOp28
 70
     1
102
RTVSPropertyOp29
 70
     1
102
RTVSPropertyOp30
 70
     1
102
RTVSPropertyOp31
 70
     1
102
RTVSPropertyOp32
 70
     1
  0
XRECORD
  5
313
102
{ACAD_REACTORS
330
312
102
}
330
312
100
AcDbXrecord
280
     1
102
RTVSPropertyOp0
 70
     1
102
RTVSPropertyOp1
 70
     1
102
RTVSPropertyOp2
 70
     1
102
RTVSPropertyOp3
 70
     1
102
RTVSPropertyOp4
 70
     1
102
RTVSPropertyOp5
 70
     1
102
RTVSPropertyOp6
 70
     1
102
RTVSPropertyOp7
 70
     1
102
RTVSPropertyOp8
 70
     1
102
RTVSPropertyOp9
 70
     1
102
RTVSPropertyOp10
 70
     1
102
RTVSPropertyOp11
 70
     1
102
RTVSPropertyOp12
 70
     1
102
RTVSPropertyOp13
 70
     1
102
RTVSPropertyOp14
 70
     1
102
RTVSPropertyOp15
 70
     1
102
RTVSPropertyOp16
 70
     1
102
RTVSPropertyOp17
 70
     1
102
RTVSPropertyOp18
 70
     1
102
RTVSPropertyOp19
 70
     1
102
RTVSPropertyOp20
 70
     1
102
RTVSPropertyOp21
 70
     1
102
RTVSPropertyOp22
 70
     1
102
RTVSPropertyOp23
 70
     1
102
RTVSPropertyOp24
 70
     1
102
RTVSPropertyOp25
 70
     1
102
RTVSPropertyOp26
 70
     1
102
RTVSPropertyOp27
 70
     1
102
RTVSPropertyOp28
 70
     1
102
RTVSPropertyOp29
 70
     1
102
RTVSPropertyOp30
 70
     1
102
RTVSPropertyOp31
 70
     1
102
RTVSPropertyOp32
 70
     1
  0
XRECORD
  5
315
102
{ACAD_REACTORS
330
314
102
}
330
314
100
AcDbXrecord
280
     1
102
RTVSPropertyOp0
 70
     1
102
RTVSPropertyOp1
 70
     1
102
RTVSPropertyOp2
 70
     1
102
RTVSPropertyOp3
 70
     1
102
RTVSPropertyOp4
 70
     1
102
RTVSPropertyOp5
 70
     1
102
RTVSPropertyOp6
 70
     1
102
RTVSPropertyOp7
 70
     1
102
RTVSPropertyOp8
 70
     1
102
RTVSPropertyOp9
 70
     1
102
RTVSPropertyOp10
 70
     1
102
RTVSPropertyOp11
 70
     1
102
RTVSPropertyOp12
 70
     1
102
RTVSPropertyOp13
 70
     1
102
RTVSPropertyOp14
 70
     1
102
RTVSPropertyOp15
 70
     1
102
RTVSPropertyOp16
 70
     1
102
RTVSPropertyOp17
 70
     1
102
RTVSPropertyOp18
 70
     1
102
RTVSPropertyOp19
 70
     1
102
RTVSPropertyOp20
 70
     1
102
RTVSPropertyOp21
 70
     1
102
RTVSPropertyOp22
 70
     1
102
RTVSPropertyOp23
 70
     1
102
RTVSPropertyOp24
 70
     1
102
RTVSPropertyOp25
 70
     1
102
RTVSPropertyOp26
 70
     1
102
RTVSPropertyOp27
 70
     1
102
RTVSPropertyOp28
 70
     1
102
RTVSPropertyOp29
 70
     1
102
RTVSPropertyOp30
 70
     1
102
RTVSPropertyOp31
 70
     1
102
RTVSPropertyOp32
 70
     1
  0
XRECORD
  5
317
102
{ACAD_REACTORS
330
316
102
}
330
316
100
AcDbXrecord
280
     1
102
RTVSPropertyOp0
 70
     1
102
RTVSPropertyOp1
 70
     1
102
RTVSPropertyOp2
 70
     1
102
RTVSPropertyOp3
 70
     1
102
RTVSPropertyOp4
 70
     1
102
RTVSPropertyOp5
 70
     1
102
RTVSPropertyOp6
 70
     1
102
RTVSPropertyOp7
 70
     1
102
RTVSPropertyOp8
 70
     1
102
RTVSPropertyOp9
 70
     1
102
RTVSPropertyOp10
 70
     1
102
RTVSPropertyOp11
 70
     1
102
RTVSPropertyOp12
 70
     1
102
RTVSPropertyOp13
 70
     1
102
RTVSPropertyOp14
 70
     1
102
RTVSPropertyOp15
 70
     1
102
RTVSPropertyOp16
 70
     1
102
RTVSPropertyOp17
 70
     1
102
RTVSPropertyOp18
 70
     1
102
RTVSPropertyOp19
 70
     1
102
RTVSPropertyOp20
 70
     1
102
RTVSPropertyOp21
 70
     1
102
RTVSPropertyOp22
 70
     1
102
RTVSPropertyOp23
 70
     1
102
RTVSPropertyOp24
 70
     1
102
RTVSPropertyOp25
 70
     1
102
RTVSPropertyOp26
 70
     1
102
RTVSPropertyOp27
 70
     1
102
RTVSPropertyOp28
 70
     1
102
RTVSPropertyOp29
 70
     1
102
RTVSPropertyOp30
 70
     1
102
RTVSPropertyOp31
 70
     1
102
RTVSPropertyOp32
 70
     1
  0
XRECORD
  5
32B
102
{ACAD_REACTORS
330
32A
102
}
330
32A
100
AcDbXrecord
280
     1
102
RTVSPropertyOp0
 70
     1
102
RTVSPropertyOp1
 70
     1
102
RTVSPropertyOp2
 70
     1
102
RTVSPropertyOp3
 70
     1
102
RTVSPropertyOp4
 70
     1
102
RTVSPropertyOp5
 70
     1
102
RTVSPropertyOp6
 70
     1
102
RTVSPropertyOp7
 70
     1
102
RTVSPropertyOp8
 70
     1
102
RTVSPropertyOp9
 70
     1
102
RTVSPropertyOp10
 70
     1
102
RTVSPropertyOp11
 70
     1
102
RTVSPropertyOp12
 70
     1
102
RTVSPropertyOp13
 70
     1
102
RTVSPropertyOp14
 70
     1
102
RTVSPropertyOp15
 70
     1
102
RTVSPropertyOp16
 70
     1
102
RTVSPropertyOp17
 70
     1
102
RTVSPropertyOp18
 70
     1
102
RTVSPropertyOp19
 70
     1
102
RTVSPropertyOp20
 70
     1
102
RTVSPropertyOp21
 70
     1
102
RTVSPropertyOp22
 70
     1
102
RTVSPropertyOp23
 70
     1
102
RTVSPropertyOp24
 70
     1
102
RTVSPropertyOp25
 70
     1
102
RTVSPropertyOp26
 70
     1
102
RTVSPropertyOp27
 70
     1
102
RTVSPropertyOp28
 70
     1
102
RTVSPropertyOp29
 70
     1
102
RTVSPropertyOp30
 70
     1
102
RTVSPropertyOp31
 70
     1
102
RTVSPropertyOp32
 70
     1
  0
XRECORD
  5
321
102
{ACAD_REACTORS
330
320
102
}
330
320
100
AcDbXrecord
280
     1
102
RTVSPropertyOp0
 70
     1
102
RTVSPropertyOp1
 70
     1
102
RTVSPropertyOp2
 70
     1
102
RTVSPropertyOp3
 70
     1
102
RTVSPropertyOp4
 70
     1
102
RTVSPropertyOp5
 70
     1
102
RTVSPropertyOp6
 70
     1
102
RTVSPropertyOp7
 70
     1
102
RTVSPropertyOp8
 70
     1
102
RTVSPropertyOp9
 70
     1
102
RTVSPropertyOp10
 70
     1
102
RTVSPropertyOp11
 70
     1
102
RTVSPropertyOp12
 70
     1
102
RTVSPropertyOp13
 70
     1
102
RTVSPropertyOp14
 70
     1
102
RTVSPropertyOp15
 70
     1
102
RTVSPropertyOp16
 70
     1
102
RTVSPropertyOp17
 70
     1
102
RTVSPropertyOp18
 70
     1
102
RTVSPropertyOp19
 70
     1
102
RTVSPropertyOp20
 70
     1
102
RTVSPropertyOp21
 70
     1
102
RTVSPropertyOp22
 70
     1
102
RTVSPropertyOp23
 70
     1
102
RTVSPropertyOp24
 70
     1
102
RTVSPropertyOp25
 70
     1
102
RTVSPropertyOp26
 70
     1
102
RTVSPropertyOp27
 70
     1
102
RTVSPropertyOp28
 70
     1
102
RTVSPropertyOp29
 70
     1
102
RTVSPropertyOp30
 70
     1
102
RTVSPropertyOp31
 70
     1
102
RTVSPropertyOp32
 70
     1
  0
XRECORD
  5
329
102
{ACAD_REACTORS
330
328
102
}
330
328
100
AcDbXrecord
280
     1
102
RTVSPropertyOp0
 70
     1
102
RTVSPropertyOp1
 70
     1
102
RTVSPropertyOp2
 70
     1
102
RTVSPropertyOp3
 70
     1
102
RTVSPropertyOp4
 70
     1
102
RTVSPropertyOp5
 70
     1
102
RTVSPropertyOp6
 70
     1
102
RTVSPropertyOp7
 70
     1
102
RTVSPropertyOp8
 70
     1
102
RTVSPropertyOp9
 70
     1
102
RTVSPropertyOp10
 70
     1
102
RTVSPropertyOp11
 70
     1
102
RTVSPropertyOp12
 70
     1
102
RTVSPropertyOp13
 70
     1
102
RTVSPropertyOp14
 70
     1
102
RTVSPropertyOp15
 70
     1
102
RTVSPropertyOp16
 70
     1
102
RTVSPropertyOp17
 70
     1
102
RTVSPropertyOp18
 70
     1
102
RTVSPropertyOp19
 70
     1
102
RTVSPropertyOp20
 70
     1
102
RTVSPropertyOp21
 70
     1
102
RTVSPropertyOp22
 70
     1
102
RTVSPropertyOp23
 70
     1
102
RTVSPropertyOp24
 70
     1
102
RTVSPropertyOp25
 70
     1
102
RTVSPropertyOp26
 70
     1
102
RTVSPropertyOp27
 70
     1
102
RTVSPropertyOp28
 70
     1
102
RTVSPropertyOp29
 70
     1
102
RTVSPropertyOp30
 70
     1
102
RTVSPropertyOp31
 70
     1
102
RTVSPropertyOp32
 70
     1
  0
ENDSEC
  0
EOF
