  0
SECTION
  2
HEADER
  9
$ACADVER
  1
AC1014
  9
$ACADMAINTVER
 70
             0
  9
$DWGCODEPAGE
  3
ANSI_1252
  9
$INSBASE
 10
0.0
 20
0.0
 30
0.0
  9
$EXTMIN
 10
-184.72346899999999
 20
-223.82985099999999
 30
0.0
  9
$EXTMAX
 10
516.90239859999997
 20
108.620582
 30
0.0
  9
$LIMMIN
 10
0.0
 20
0.0
  9
$LIMMAX
 10
0.0
 20
0.0
  9
$ORTHOMODE
 70
             0
  9
$REGENMODE
 70
             1
  9
$FILLMODE
 70
             1
  9
$QTEXTMODE
 70
             0
  9
$MIRRTEXT
 70
             1
  9
$DRAGMODE
 70
             2
  9
$LTSCALE
 40
1.0
  9
$OSMODE
 70
             0
  9
$ATTMODE
 70
             1
  9
$TEXTSIZE
 40
0.2
  9
$TRACEWID
 40
0.05
  9
$TEXTSTYLE
  7
STANDARD
  9
$CLAYER
  8
0
  9
$CELTYPE
  6
CONTINUOUS
  9
$CECOLOR
 62
           256
  9
$CELTSCALE
 40
1.0
  9
$DELOBJ
 70
             1
  9
$DISPSILH
 70
             0
  9
$DIMSCALE
 40
1.0
  9
$DIMASZ
 40
0.18
  9
$DIMEXO
 40
0.0625
  9
$DIMDLI
 40
0.38
  9
$DIMRND
 40
0.0
  9
$DIMDLE
 40
0.0
  9
$DIMEXE
 40
0.18
  9
$DIMTP
 40
0.0
  9
$DIMTM
 40
0.0
  9
$DIMTXT
 40
0.18
  9
$DIMCEN
 40
0.09
  9
$DIMTSZ
 40
0.0
  9
$DIMTOL
 70
             0
  9
$DIMLIM
 70
             0
  9
$DIMTIH
 70
             1
  9
$DIMTOH
 70
             1
  9
$DIMSE1
 70
             0
  9
$DIMSE2
 70
             0
  9
$DIMTAD
 70
             0
  9
$DIMZIN
 70
             0
  9
$DIMBLK
  1

  9
$DIMASO
 70
             1
  9
$DIMSHO
 70
             1
  9
$DIMPOST
  1

  9
$DIMAPOST
  1

  9
$DIMALT
 70
             0
  9
$DIMALTD
 70
             2
  9
$DIMALTF
 40
25.4
  9
$DIMLFAC
 40
1.0
  9
$DIMTOFL
 70
             0
  9
$DIMTVP
 40
0.0
  9
$DIMTIX
 70
             0
  9
$DIMSOXD
 70
             0
  9
$DIMSAH
 70
             0
  9
$DIMBLK1
  1

  9
$DIMBLK2
  1

  9
$DIMSTYLE
  2
STANDARD
  9
$DIMCLRD
 70
             0
  9
$DIMCLRE
 70
             0
  9
$DIMCLRT
 70
             0
  9
$DIMTFAC
 40
1.0
  9
$DIMGAP
 40
0.09
  9
$DIMJUST
 70
             0
  9
$DIMSD1
 70
             0
  9
$DIMSD2
 70
             0
  9
$DIMTOLJ
 70
             1
  9
$DIMTZIN
 70
             0
  9
$DIMALTZ
 70
             0
  9
$DIMALTTZ
 70
             0
  9
$DIMFIT
 70
             3
  9
$DIMUPT
 70
             0
  9
$DIMUNIT
 70
             2
  9
$DIMDEC
 70
             4
  9
$DIMTDEC
 70
             4
  9
$DIMALTU
 70
             2
  9
$DIMALTTD
 70
             2
  9
$DIMTXSTY
  7
STANDARD
  9
$DIMAUNIT
 70
             0
  9
$LUNITS
 70
             2
  9
$LUPREC
 70
             4
  9
$SKETCHINC
 40
0.1
  9
$FILLETRAD
 40
0.0
  9
$AUNITS
 70
             0
  9
$AUPREC
 70
             0
  9
$MENU
  1
acad
  9
$ELEVATION
 40
0.0
  9
$PELEVATION
 40
0.0
  9
$THICKNESS
 40
0.0
  9
$LIMCHECK
 70
             0
  9
$BLIPMODE
 70
             1
  9
$CHAMFERA
 40
0.0
  9
$CHAMFERB
 40
0.0
  9
$CHAMFERC
 40
0.0
  9
$CHAMFERD
 40
0.0
  9
$SKPOLY
 70
             0
  9
$TDCREATE
 40
0.000000000
  9
$TDUPDATE
 40
0.000000000
  9
$TDINDWG
 40
0.0000000000
  9
$TDUSRTIMER
 40
0.0000000000
  9
$USRTIMER
 70
             1
  9
$ANGBASE
 50
0.0
  9
$ANGDIR
 70
             0
  9
$PDMODE
 70
             0
  9
$PDSIZE
 40
0.0
  9
$PLINEWID
 40
0.0
  9
$COORDS
 70
             0
  9
$SPLFRAME
 70
             0
  9
$SPLINETYPE
 70
             6
  9
$SPLINESEGS
 70
             8
  9
$ATTDIA
 70
             0
  9
$ATTREQ
 70
             1
  9
$HANDLING
 70
             1
  9
$HANDSEED
  5
13F
  9
$SURFTAB1
 70
             6
  9
$SURFTAB2
 70
             6
  9
$SURFTYPE
 70
             6
  9
$SURFU
 70
             6
  9
$SURFV
 70
             6
  9
$UCSNAME
  2

  9
$UCSORG
 10
0.0
 20
0.0
 30
0.0
  9
$UCSXDIR
 10
1.0
 20
0.0
 30
0.0
  9
$UCSYDIR
 10
0.0
 20
1.0
 30
0.0
  9
$PUCSNAME
  2

  9
$PUCSORG
 10
0.0
 20
0.0
 30
0.0
  9
$PUCSXDIR
 10
1.0
 20
0.0
 30
0.0
  9
$PUCSYDIR
 10
0.0
 20
1.0
 30
0.0
  9
$USERI1
 70
             0
  9
$USERI2
 70
             0
  9
$USERI3
 70
             0
  9
$USERI4
 70
             0
  9
$USERI5
 70
             0
  9
$USERR1
 40
12.01
  9
$USERR2
 40
0.0
  9
$USERR3
 40
0.0
  9
$USERR4
 40
0.0
  9
$USERR5
 40
0.0
  9
$WORLDVIEW
 70
             1
  9
$SHADEDGE
 70
             3
  9
$SHADEDIF
 70
            70
  9
$TILEMODE
 70
             1
  9
$MAXACTVP
 70
            16
  9
$PINSBASE
 10
0.0
 20
0.0
 30
0.0
  9
$PLIMCHECK
 70
             0
  9
$PEXTMIN
 10
1.00000000000000E+20
 20
1.00000000000000E+20
 30
1.00000000000000E+20
  9
$PEXTMAX
 10
-1.00000000000000E+20
 20
-1.00000000000000E+20
 30
-1.00000000000000E+20
  9
$PLIMMIN
 10
0.0
 20
0.0
  9
$PLIMMAX
 10
12.0
 20
9.0
  9
$UNITMODE
 70
             0
  9
$VISRETAIN
 70
             0
  9
$PLINEGEN
 70
             1
  9
$PSLTSCALE
 70
             0
  9
$TREEDEPTH
 70
          3020
  9
$PICKSTYLE
 70
             1
  9
$CMLSTYLE
  2
STANDARD
  9
$CMLJUST
 70
             0
  9
$CMLSCALE
 40
1.0
  9
$PROXYGRAPHICS
 70
             0
  9
$MEASUREMENT
 70
             1
  0
ENDSEC
  0
SECTION
  2
CLASSES
  0
CLASS
  1
LWPOLYLINE
  2
AcDbPolyline
  3
"AutoCAD"
 90
        0
280
             0
281
             1
  0
CLASS
  1
IMAGE
  2
AcDbRasterImage
  3
ISM
 90
      127
280
             0
281
             1
  0
CLASS
  1
OLE2FRAME
  2
AcDbOle2Frame
  3
""
 90
        0
280
             0
281
             1
  0
CLASS
  1
HATCH
  2
AcDbHatch
  3
"ACAD_SEDONA"
 90
        0
280
             0
281
             1
  0
CLASS
  1
DICTIONARYVAR
  2
AcDbDictionaryVar
  3
"AutoCAD"
 90
        0
280
             0
281
             0
  0
CLASS
  1
RASTERVARIABLES
  2
AcDbRasterVariables
  3
ISM
 90
        0
280
             0
281
             0
  0
CLASS
  1
IMAGEDEF
  2
AcDbRasterImageDef
  3
ISM
 90
        0
280
             0
281
             0
  0
CLASS
  1
IMAGEDEF_REACTOR
  2
AcDbRasterImageDefReactor
  3
ISM
 90
        1
280
             0
281
             0
  0
CLASS
  1
IDBUFFER
  2
AcDbIdBuffer
  3
"Acad"
 90
        0
280
             0
281
             0
  0
CLASS
  1
SPATIAL_FILTER
  2
AcDbSpatialFilter
  3
"Acad"
 90
        0
280
             0
281
             0
  0
CLASS
  1
XRECORD
  2
AcDbXrecord
  3
"<Built In>"
 90
        0
280
             0
281
             0
  0
CLASS
  1
SORTENTSTABLE
  2
AcDbSortentsTable
  3
"AutoCAD"
 90
        0
280
             0
281
             0
  0
CLASS
  1
LAYER_INDEX
  2
AcDbLayerIndex
  3
"Acad"
 90
        0
280
             0
281
             0
  0
CLASS
  1
SPATIAL_INDEX
  2
AcDbSpatialIndex
  3
"Acad"
 90
        0
280
             0
281
             0
  0
CLASS
  1
OBJECT_PTR
  2
CAseDLPNTableRecord
  3
"ASE-LPNTableRecord"
 90
        1
280
             0
281
             0
  0
CLASS
  1
LAYOUT
  2
AcDbLayout
  3
"AutoCAD 2000"
 90
        0
280
             0
281
             0
  0
CLASS
  1
PLOTSETTINGS
  2
AcDbPlotSettings
  3
"AutoCAD 2000"
 90
        0
280
             0
281
             0
  0
CLASS
  1
ACDBDICTIONARYWDFLT
  2
AcDbDictionaryWithDefault
  3
"AutoCAD 2000"
 90
        0
280
             0
281
             0
  0
CLASS
  1
ACDBPLACEHOLDER
  2
AcDbPlaceHolder
  3
"AutoCAD 2000"
 90
        0
280
             0
281
             0
  0
ENDSEC
  0
SECTION
  2
TABLES
  0
TABLE
  2
VPORT
  5
7
100
AcDbSymbolTable
 70
             1
  0
VPORT
  5
15
100
AcDbSymbolTableRecord
100
AcDbViewportTableRecord
  2
*ACTIVE
 70
             0
 10
0.0
 20
0.0
 11
1.0
 21
1.0
 12
166.08946479999997
 22
-57.6046345
 13
0.0
 23
0.0
 14
1.0
 24
1.0
 15
0.0
 25
0.0
 16
0.0
 26
0.0
 36
1.0
 17
0.0
 27
0.0
 37
0.0
 40
481.56159826362142
 41
1.60267857142857
 42
50.0
 43
0.0
 44
0.0
 50
0.0
 51
0.0
 71
             0
 72
           100
 73
             1
 74
             1
 75
             0
 76
             0
 77
             0
 78
             0
  0
ENDTAB
  0
TABLE
  2
LTYPE
  5
4
100
AcDbSymbolTable
 70
            10
  0
LTYPE
  5
11
100
AcDbSymbolTableRecord
100
AcDbLinetypeTableRecord
  2
BYBLOCK
 70
            64
  3

 72
            65
 73
             0
 40
0.0
  0
LTYPE
  5
12
100
AcDbSymbolTableRecord
100
AcDbLinetypeTableRecord
  2
BYLAYER
 70
            64
  3

 72
            65
 73
             0
 40
0.0
  0
LTYPE
  5
13
100
AcDbSymbolTableRecord
100
AcDbLinetypeTableRecord
  2
CONTINUOUS
 70
            64
  3
Solid line
 72
            65
 73
             0
 40
0.0
  0
LTYPE
  5
1D
100
AcDbSymbolTableRecord
100
AcDbLinetypeTableRecord
  2
DASHED
 70
            64
  3
Dashed
 72
            65
 73
             2
 40
15.0
 49
7.0
 74
             0
 49
-8.0
 74
             0
  0
LTYPE
  5
1E
100
AcDbSymbolTableRecord
100
AcDbLinetypeTableRecord
  2
DOTTED
 70
            64
  3
Dotted
 72
            65
 73
             2
 40
1.0
 49
0.0
 74
             0
 49
-1.0
 74
             0
  0
LTYPE
  5
1F
100
AcDbSymbolTableRecord
100
AcDbLinetypeTableRecord
  2
DOT_CENTER
 70
            64
  3
Dot_Center
 72
            65
 73
             4
 40
14.0
 49
12.0
 74
             0
 49
-1.0
 74
             0
 49
0.0
 74
             0
 49
-1.0
 74
             0
  0
LTYPE
  5
20
100
AcDbSymbolTableRecord
100
AcDbLinetypeTableRecord
  2
LONG_DASHED
 70
            64
  3
Long_Dashed
 72
            65
 73
             2
 40
15.0
 49
10.0
 74
             0
 49
-5.0
 74
             0
  0
LTYPE
  5
21
100
AcDbSymbolTableRecord
100
AcDbLinetypeTableRecord
  2
DASH_CENTER
 70
            64
  3
Dash_Center
 72
            65
 73
             4
 40
14.0
 49
11.0
 74
             0
 49
-1.0
 74
             0
 49
1.0
 74
             0
 49
-1.0
 74
             0
  0
LTYPE
  5
22
100
AcDbSymbolTableRecord
100
AcDbLinetypeTableRecord
  2
PHANTOM
 70
            64
  3
Phantom
 72
            65
 73
             6
 40
13.0
 49
10.0
 74
             0
 49
-1.0
 74
             0
 49
0.0
 74
             0
 49
-1.0
 74
             0
 49
0.0
 74
             0
 49
-1.0
 74
             0
  0
LTYPE
  5
23
100
AcDbSymbolTableRecord
100
AcDbLinetypeTableRecord
  2
CENTER_DASH_DASH
 70
            64
  3
Center_Dash_Dash
 72
            65
 73
             6
 40
14.0
 49
9.0
 74
             0
 49
-1.0
 74
             0
 49
1.0
 74
             0
 49
-1.0
 74
             0
 49
1.0
 74
             0
 49
-1.0
 74
             0
  0
ENDTAB
  0
TABLE
  2
LAYER
  5
2
100
AcDbSymbolTable
 70
             6
  0
LAYER
  5
14
100
AcDbSymbolTableRecord
100
AcDbLayerTableRecord
  2
0
 70
             0
 62
             7
  6
CONTINUOUS
  0
LAYER
  5
24
100
AcDbSymbolTableRecord
100
AcDbLayerTableRecord
  2
1
 70
             0
 62
             7
  6
CONTINUOUS
  0
LAYER
  5
25
100
AcDbSymbolTableRecord
100
AcDbLayerTableRecord
  2
LC-001-002-----0
 70
             0
 62
             7
  6
CONTINUOUS
  0
LAYER
  5
26
100
AcDbSymbolTableRecord
100
AcDbLayerTableRecord
  2
LC-002-002-RND-0
 70
             0
 62
             7
  6
CONTINUOUS
  0
LAYER
  5
27
100
AcDbSymbolTableRecord
100
AcDbLayerTableRecord
  2
LC-004-002-----0
 70
             0
 62
             7
  6
CONTINUOUS
  0
LAYER
  5
28
100
AcDbSymbolTableRecord
100
AcDbLayerTableRecord
  2
LC-007-003-----0
 70
             0
 62
             7
  6
CONTINUOUS
  0
ENDTAB
  0
TABLE
  2
STYLE
  5
3
100
AcDbSymbolTable
 70
             2
  0
STYLE
  5
17
100
AcDbSymbolTableRecord
100
AcDbTextStyleTableRecord
  2
STANDARD
 70
             0
 40
0.0
 41
1.0
 50
0.0
 71
             0
 42
0.0
  3
txt
  4

  0
STYLE
  5
EC
100
AcDbSymbolTableRecord
100
AcDbTextStyleTableRecord
  2
CONVERTER_1
 70
             0
 40
0.0
 41
0.9
 50
0.0
 71
             0
 42
0.0
  3
txt.shx
  4

  0
ENDTAB
  0
TABLE
  2
VIEW
  5
5
100
AcDbSymbolTable
 70
             0
  0
ENDTAB
  0
TABLE
  2
UCS
  5
6
100
AcDbSymbolTable
 70
             0
  0
ENDTAB
  0
TABLE
  2
APPID
  5
8
100
AcDbSymbolTable
 70
             1
  0
APPID
  5
16
100
AcDbSymbolTableRecord
100
AcDbRegAppTableRecord
  2
ACAD
 70
             0
  0
ENDTAB
  0
TABLE
  2
DIMSTYLE
  5
9
100
AcDbSymbolTable
 70
             9
  0
DIMSTYLE
105
18
100
AcDbSymbolTableRecord
100
AcDbDimStyleTableRecord
  2
STANDARD
 70
             0
  3

  4

  5

  6

  7

 40
1.0
 41
0.18
 42
0.0625
 43
0.38
 44
0.18
 45
0.0
 46
0.0
 47
0.0
 48
0.0
 71
             0
 72
             0
 73
             1
 74
             1
 75
             0
 76
             0
 77
             0
 78
             0
140
0.18
141
0.09
142
0.0
143
25.4
144
1.0
145
0.0
146
1.0
147
0.09
170
             0
171
             2
172
             0
173
             0
174
             0
175
             0
176
             0
177
             0
178
             0
270
             2
271
             4
272
             4
273
             2
274
             2
275
             0
280
             0
281
             0
282
             0
283
             1
284
             0
285
             0
286
             0
287
             3
288
             0
340
17
  0
DIMSTYLE
105
EF
100
AcDbSymbolTableRecord
100
AcDbDimStyleTableRecord
  2
ME10_DIM_0
 70
             0
  3
Ø<>
  4

  5

  6

  7

 40
1.0
 41
7.0
 42
0.0
 43
0.38
 44
2.0
 45
0.0
 46
0.0
 47
0.0
 48
0.0
 71
             0
 72
             0
 73
             0
 74
             0
 75
             0
 76
             0
 77
             1
 78
             8
140
7.0
141
0.09
142
0.0
143
25.4
144
1.0
145
0.0
146
1.0
147
0.625
170
             0
171
             2
172
             1
173
             1
174
             0
175
             0
176
             4
177
             4
178
             1
270
             2
271
             2
272
             4
273
             2
274
             2
275
             0
280
             0
281
             0
282
             0
283
             1
284
             0
285
             0
286
             0
287
             3
288
             0
340
EC
  0
DIMSTYLE
105
FA
100
AcDbSymbolTableRecord
100
AcDbDimStyleTableRecord
  2
ME10_DIM_1
 70
             0
  3
Ø<>
  4

  5

  6

  7

 40
1.0
 41
7.0
 42
0.0
 43
0.38
 44
2.0
 45
0.0
 46
0.0
 47
0.0
 48
0.0
 71
             0
 72
             0
 73
             0
 74
             0
 75
             0
 76
             0
 77
             1
 78
             8
140
7.0
141
0.09
142
0.0
143
25.4
144
1.0
145
0.0
146
1.0
147
0.625
170
             0
171
             2
172
             1
173
             1
174
             0
175
             0
176
             4
177
             4
178
             1
270
             2
271
             2
272
             4
273
             2
274
             2
275
             0
280
             0
281
             0
282
             0
283
             1
284
             0
285
             0
286
             0
287
             3
288
             0
340
EC
  0
DIMSTYLE
105
105
100
AcDbSymbolTableRecord
100
AcDbDimStyleTableRecord
  2
ME10_DIM_2
 70
             0
  3
Ø<>
  4

  5

  6

  7

 40
1.0
 41
7.0
 42
0.0
 43
0.38
 44
2.0
 45
0.0
 46
0.0
 47
0.0
 48
0.0
 71
             0
 72
             0
 73
             0
 74
             0
 75
             0
 76
             0
 77
             1
 78
             8
140
7.0
141
0.09
142
0.0
143
25.4
144
1.0
145
0.0
146
1.0
147
0.625
170
             0
171
             2
172
             1
173
             1
174
             0
175
             0
176
             4
177
             4
178
             1
270
             2
271
             2
272
             4
273
             2
274
             2
275
             0
280
             0
281
             0
282
             0
283
             1
284
             0
285
             0
286
             0
287
             3
288
             0
340
EC
  0
DIMSTYLE
105
110
100
AcDbSymbolTableRecord
100
AcDbDimStyleTableRecord
  2
ME10_DIM_3
 70
             0
  3
Ø<>
  4

  5

  6

  7

 40
1.0
 41
7.0
 42
0.0
 43
0.38
 44
2.0
 45
0.0
 46
0.0
 47
0.0
 48
0.0
 71
             0
 72
             0
 73
             0
 74
             0
 75
             0
 76
             0
 77
             1
 78
             8
140
7.0
141
0.09
142
0.0
143
25.4
144
1.0
145
0.0
146
1.0
147
0.625
170
             0
171
             2
172
             1
173
             1
174
             0
175
             0
176
             4
177
             4
178
             1
270
             2
271
             2
272
             4
273
             2
274
             2
275
             0
280
             0
281
             0
282
             0
283
             1
284
             0
285
             0
286
             0
287
             3
288
             0
340
EC
  0
DIMSTYLE
105
11B
100
AcDbSymbolTableRecord
100
AcDbDimStyleTableRecord
  2
ME10_DIM_4
 70
             0
  3
Ø<>
  4

  5

  6

  7

 40
1.0
 41
7.0
 42
0.0
 43
0.38
 44
2.0
 45
0.0
 46
0.0
 47
0.0
 48
0.0
 71
             0
 72
             0
 73
             0
 74
             0
 75
             0
 76
             0
 77
             1
 78
             8
140
7.0
141
0.09
142
0.0
143
25.4
144
1.0
145
0.0
146
1.0
147
0.625
170
             0
171
             2
172
             1
173
             1
174
             0
175
             0
176
             4
177
             4
178
             1
270
             2
271
             2
272
             4
273
             2
274
             2
275
             0
280
             0
281
             0
282
             0
283
             1
284
             0
285
             0
286
             0
287
             3
288
             0
340
EC
  0
DIMSTYLE
105
126
100
AcDbSymbolTableRecord
100
AcDbDimStyleTableRecord
  2
ME10_DIM_5
 70
             0
  3

  4

  5

  6

  7

 40
1.0
 41
7.0
 42
0.0
 43
0.38
 44
2.0
 45
0.0
 46
0.0
 47
0.0
 48
0.0
 71
             0
 72
             0
 73
             0
 74
             0
 75
             0
 76
             0
 77
             1
 78
             8
140
7.0
141
0.09
142
0.0
143
25.4
144
1.0
145
0.0
146
1.0
147
0.625
170
             0
171
             2
172
             1
173
             1
174
             0
175
             0
176
             4
177
             4
178
             1
270
             2
271
             2
272
             4
273
             2
274
             2
275
             0
280
             0
281
             0
282
             0
283
             1
284
             0
285
             0
286
             0
287
             3
288
             0
340
EC
  0
DIMSTYLE
105
131
100
AcDbSymbolTableRecord
100
AcDbDimStyleTableRecord
  2
ME10_DIM_6
 70
             0
  3

  4

  5

  6

  7

 40
1.0
 41
7.0
 42
0.0
 43
0.38
 44
2.0
 45
0.0
 46
0.0
 47
0.0
 48
0.0
 71
             0
 72
             0
 73
             0
 74
             0
 75
             0
 76
             0
 77
             1
 78
             8
140
7.0
141
0.09
142
0.0
143
25.4
144
1.0
145
0.0
146
1.0
147
0.625
170
             0
171
             2
172
             1
173
             1
174
             0
175
             0
176
             4
177
             4
178
             1
270
             2
271
             2
272
             4
273
             2
274
             2
275
             0
280
             0
281
             0
282
             0
283
             1
284
             0
285
             0
286
             0
287
             3
288
             0
340
EC
  0
DIMSTYLE
105
13C
100
AcDbSymbolTableRecord
100
AcDbDimStyleTableRecord
  2
ME10_DIM_7
 70
             0
  3

  4

  5

  6

  7

 40
1.0
 41
7.0
 42
0.0
 43
0.38
 44
2.0
 45
0.0
 46
0.0
 47
0.0
 48
0.0
 71
             0
 72
             0
 73
             0
 74
             0
 75
             0
 76
             0
 77
             1
 78
             8
140
7.0
141
0.09
142
0.0
143
25.4
144
1.0
145
0.0
146
1.0
147
0.625
170
             0
171
             2
172
             1
173
             1
174
             0
175
             0
176
             4
177
             4
178
             1
270
             2
271
             2
272
             4
273
             2
274
             2
275
             0
280
             0
281
             0
282
             0
283
             1
284
             0
285
             0
286
             0
287
             3
288
             0
340
EC
  0
ENDTAB
  0
TABLE
  2
BLOCK_RECORD
  5
1
100
AcDbSymbolTable
 70
            10
  0
BLOCK_RECORD
  5
A
100
AcDbSymbolTableRecord
100
AcDbBlockTableRecord
  2
*MODEL_SPACE
  0
BLOCK_RECORD
  5
B
100
AcDbSymbolTableRecord
100
AcDbBlockTableRecord
  2
*PAPER_SPACE
  0
BLOCK_RECORD
  5
29
100
AcDbSymbolTableRecord
100
AcDbBlockTableRecord
  2
HL_850_BRANDSCHUTZELEMT__1
  0
BLOCK_RECORD
  5
2B
100
AcDbSymbolTableRecord
100
AcDbBlockTableRecord
  2
HL_850_BRANDSCHUTZELEMT__2
  0
BLOCK_RECORD
  5
E5
100
AcDbSymbolTableRecord
100
AcDbBlockTableRecord
  2
*D2
  0
BLOCK_RECORD
  5
F1
100
AcDbSymbolTableRecord
100
AcDbBlockTableRecord
  2
*D3
  0
BLOCK_RECORD
  5
FC
100
AcDbSymbolTableRecord
100
AcDbBlockTableRecord
  2
*D4
  0
BLOCK_RECORD
  5
107
100
AcDbSymbolTableRecord
100
AcDbBlockTableRecord
  2
*D5
  0
BLOCK_RECORD
  5
112
100
AcDbSymbolTableRecord
100
AcDbBlockTableRecord
  2
*D6
  0
BLOCK_RECORD
  5
11D
100
AcDbSymbolTableRecord
100
AcDbBlockTableRecord
  2
*D7
  0
BLOCK_RECORD
  5
128
100
AcDbSymbolTableRecord
100
AcDbBlockTableRecord
  2
*D8
  0
BLOCK_RECORD
  5
133
100
AcDbSymbolTableRecord
100
AcDbBlockTableRecord
  2
*D9
  0
ENDTAB
  0
ENDSEC
  0
SECTION
  2
BLOCKS
  0
BLOCK
  5
D
100
AcDbEntity
  8
0
100
AcDbBlockBegin
  2
*MODEL_SPACE
 70
             0
 10
0.0
 20
0.0
 30
0.0
  3
*MODEL_SPACE
  1

  0
ENDBLK
  5
E
100
AcDbEntity
  8
0
100
AcDbBlockEnd
  0
BLOCK
  5
F
100
AcDbEntity
 67
             1
  8
0
100
AcDbBlockBegin
  2
*PAPER_SPACE
 70
             0
 10
0.0
 20
0.0
 30
0.0
  3
*PAPER_SPACE
  1

  0
ENDBLK
  5
10
100
AcDbEntity
 67
             1
  8
0
100
AcDbBlockEnd
  0
BLOCK
  5
2A
100
AcDbEntity
  8
0
100
AcDbBlockBegin
  2
HL_850_BRANDSCHUTZELEMT__1
 70
             0
 10
-184.72346899999999
 20
-160.6359641569934
 30
0.0
  3
HL_850_BRANDSCHUTZELEMT__1
  1

  0
ARC
  5
84
100
AcDbEntity
  8
LC-002-002-RND-0
  6
CONTINUOUS
 62
             7
100
AcDbCircle
 10
-85.75
 20
-51.80463399999999
 40
0.5
100
AcDbArc
 50
90.0
 51
180.0
  0
ARC
  5
83
100
AcDbEntity
  8
LC-002-002-RND-0
  6
CONTINUOUS
 62
             7
100
AcDbCircle
 10
-85.75
 20
-53.50463399999998
 40
0.5
100
AcDbArc
 50
180.0
 51
-90.0
  0
ARC
  5
82
100
AcDbEntity
  8
LC-002-002-RND-0
  6
CONTINUOUS
 62
             7
100
AcDbCircle
 10
-85.25
 20
-50.80463399999999
 40
0.5
100
AcDbArc
 50
-90.0
 51
0.0
  0
ARC
  5
81
100
AcDbEntity
  8
LC-002-002-RND-0
  6
CONTINUOUS
 62
             7
100
AcDbCircle
 10
-85.25
 20
-54.50463399999998
 40
0.5
100
AcDbArc
 50
0.0
 51
90.0
  0
ARC
  5
80
100
AcDbEntity
  8
LC-002-002-RND-0
  6
CONTINUOUS
 62
             7
100
AcDbCircle
 10
-88.0
 20
-10.0
 40
3.0
100
AcDbArc
 50
90.0
 51
180.0
  0
ARC
  5
7F
100
AcDbEntity
  8
LC-002-002-RND-0
  6
CONTINUOUS
 62
             7
100
AcDbCircle
 10
-88.0
 20
-24.0
 40
3.0
100
AcDbArc
 50
180.0
 51
-90.0
  0
ARC
  5
7E
100
AcDbEntity
  8
LC-002-002-RND-0
  6
CONTINUOUS
 62
             7
100
AcDbCircle
 10
-85.75
 20
-6.0
 40
1.0
100
AcDbArc
 50
-90.0
 51
0.0
  0
ARC
  5
7D
100
AcDbEntity
  8
LC-002-002-RND-0
  6
CONTINUOUS
 62
             7
100
AcDbCircle
 10
-85.75
 20
-28.0
 40
1.0
100
AcDbArc
 50
0.0
 51
90.0
  0
ARC
  5
7C
100
AcDbEntity
  8
LC-002-002-RND-0
  6
CONTINUOUS
 62
             7
100
AcDbCircle
 10
85.75
 20
-51.80463399999999
 40
0.5
100
AcDbArc
 50
0.0
 51
90.0
  0
ARC
  5
7B
100
AcDbEntity
  8
LC-002-002-RND-0
  6
CONTINUOUS
 62
             7
100
AcDbCircle
 10
85.75
 20
-53.50463399999998
 40
0.5
100
AcDbArc
 50
-90.0
 51
0.0
  0
ARC
  5
7A
100
AcDbEntity
  8
LC-002-002-RND-0
  6
CONTINUOUS
 62
             7
100
AcDbCircle
 10
85.25
 20
-50.80463399999999
 40
0.5
100
AcDbArc
 50
180.0
 51
-90.0
  0
ARC
  5
79
100
AcDbEntity
  8
LC-002-002-RND-0
  6
CONTINUOUS
 62
             7
100
AcDbCircle
 10
85.25
 20
-54.50463399999998
 40
0.5
100
AcDbArc
 50
90.00000000000325
 51
180.0
  0
ARC
  5
78
100
AcDbEntity
  8
LC-002-002-RND-0
  6
CONTINUOUS
 62
             7
100
AcDbCircle
 10
88.0
 20
-10.0
 40
3.0
100
AcDbArc
 50
0.0
 51
90.0
  0
ARC
  5
77
100
AcDbEntity
  8
LC-002-002-RND-0
  6
CONTINUOUS
 62
             7
100
AcDbCircle
 10
88.0
 20
-24.0
 40
3.0
100
AcDbArc
 50
-90.0
 51
0.0
  0
ARC
  5
76
100
AcDbEntity
  8
LC-002-002-RND-0
  6
CONTINUOUS
 62
             7
100
AcDbCircle
 10
85.75
 20
-6.0
 40
1.0
100
AcDbArc
 50
180.0
 51
-90.0
  0
ARC
  5
75
100
AcDbEntity
  8
LC-002-002-RND-0
  6
CONTINUOUS
 62
             7
100
AcDbCircle
 10
85.75
 20
-28.0
 40
1.0
100
AcDbArc
 50
90.0
 51
180.0
  0
ARC
  5
74
100
AcDbEntity
  8
LC-002-002-RND-0
  6
CONTINUOUS
 62
             7
100
AcDbCircle
 10
-60.0
 20
-92.00463399999998
 40
5.0
100
AcDbArc
 50
0.0
 51
90.0
  0
ARC
  5
73
100
AcDbEntity
  8
LC-002-002-RND-0
  6
CONTINUOUS
 62
             7
100
AcDbCircle
 10
-49.0
 20
-147.00463400000001
 40
6.0
100
AcDbArc
 50
180.0
 51
-90.0
  0
ARC
  5
72
100
AcDbEntity
  8
LC-002-002-RND-0
  6
CONTINUOUS
 62
             7
100
AcDbCircle
 10
60.0
 20
-92.00463399999998
 40
5.0
100
AcDbArc
 50
90.0
 51
180.0
  0
ARC
  5
71
100
AcDbEntity
  8
LC-002-002-RND-0
  6
CONTINUOUS
 62
             7
100
AcDbCircle
 10
49.0
 20
-147.00463400000001
 40
6.0
100
AcDbArc
 50
-90.0
 51
0.0
  0
ARC
  5
70
100
AcDbEntity
  8
LC-002-002-RND-0
  6
CONTINUOUS
 62
             7
100
AcDbCircle
 10
-91.58762829244031
 20
-80.094634
 40
6.910555601226
100
AcDbArc
 50
179.19660524727686
 51
-89.27344975272301
  0
ARC
  5
6F
100
AcDbEntity
  8
LC-002-002-RND-0
  6
CONTINUOUS
 62
             7
100
AcDbCircle
 10
91.5884751516486
 20
-80.09463399999999
 40
6.91055560122599
100
AcDbArc
 50
-90.72655024727699
 51
0.80339475272316
  0
ARC
  5
6E
100
AcDbEntity
  8
LC-002-002-RND-0
  6
CONTINUOUS
 62
             7
100
AcDbCircle
 10
-129.25812300000001
 20
35.99536599999999
 40
1.00000000000018
100
AcDbArc
 50
15.00000000002667
 51
90.0
  0
ARC
  5
6D
100
AcDbEntity
  8
LC-002-002-RND-0
  6
CONTINUOUS
 62
             7
100
AcDbCircle
 10
-129.25812300000001
 20
35.99536599999999
 40
1.99999999999998
100
AcDbArc
 50
14.99999999999989
 51
90.0
  0
ARC
  5
6C
100
AcDbEntity
  8
LC-001-002-----0
  6
CONTINUOUS
 62
             7
100
AcDbCircle
 10
59.924768
 20
36.99536599999999
 40
1.0
100
AcDbArc
 50
90.0
 51
169.39974299998261
  0
ARC
  5
6B
100
AcDbEntity
  8
LC-001-002-----0
  6
CONTINUOUS
 62
             7
100
AcDbCircle
 10
75.73246599999999
 20
35.99536599999999
 40
1.0
100
AcDbArc
 50
90.0
 51
169.31122099999095
  0
ARC
  5
6A
100
AcDbEntity
  8
LC-002-002-RND-0
  6
CONTINUOUS
 62
             7
100
AcDbCircle
 10
76.03776300000001
 20
35.99536599999999
 40
2.0
100
AcDbArc
 50
90.0
 51
169.31122099999095
  0
LINE
  5
69
100
AcDbEntity
  8
1
  6
CONTINUOUS
 62
             3
100
AcDbLine
 10
-49.0
 20
-147.00463400000001
 11
49.0
 21
-147.00463400000001
  0
LINE
  5
68
100
AcDbEntity
  8
1
  6
DOT_CENTER
 62
             2
100
AcDbLine
 10
46.0
 20
-156.00463400000001
 11
46.0
 21
-159.00463400000001
  0
LINE
  5
67
100
AcDbEntity
  8
1
  6
DOT_CENTER
 62
             2
100
AcDbLine
 10
-46.0
 20
-156.00463400000001
 11
-46.0
 21
-159.00463400000001
  0
LINE
  5
66
100
AcDbEntity
  8
1
  6
DOT_CENTER
 62
             2
100
AcDbLine
 10
80.0
 20
3.0
 11
80.0
 21
6.0
  0
LINE
  5
65
100
AcDbEntity
  8
1
  6
DOT_CENTER
 62
             2
100
AcDbLine
 10
-80.0
 20
3.0
 11
-80.0
 21
6.0
  0
LINE
  5
64
100
AcDbEntity
  8
1
  6
PHANTOM
 62
             2
100
AcDbLine
 10
0.0
 20
7.829297668126
 11
0.0
 21
-160.6359641569934
  0
LINE
  5
63
100
AcDbEntity
  8
LC-001-002-----0
  6
CONTINUOUS
 62
             7
100
AcDbLine
 10
-98.49750499999999
 20
-79.997738
 11
98.4983508592083
 21
-79.997738
  0
LINE
  5
62
100
AcDbEntity
  8
LC-001-002-----0
  6
CONTINUOUS
 62
             7
100
AcDbLine
 10
-88.0
 20
-7.0
 11
86.875
 21
-7.0
  0
LINE
  5
61
100
AcDbEntity
  8
LC-001-002-----0
  6
CONTINUOUS
 62
             7
100
AcDbLine
 10
-85.75
 20
-27.0
 11
-88.0
 21
-27.0
  0
LINE
  5
60
100
AcDbEntity
  8
LC-001-002-----0
  6
CONTINUOUS
 62
             7
100
AcDbLine
 10
-91.0
 20
-24.0
 11
-91.0
 21
-10.0
  0
LINE
  5
5F
100
AcDbEntity
  8
LC-001-002-----0
  6
CONTINUOUS
 62
             7
100
AcDbLine
 10
-84.75
 20
0.0
 11
0.0
 21
0.0
  0
LINE
  5
5E
100
AcDbEntity
  8
LC-001-002-----0
  6
CONTINUOUS
 62
             7
100
AcDbLine
 10
-84.75
 20
-75.52458999999999
 11
-84.75
 21
-54.50463399999998
  0
LINE
  5
5D
100
AcDbEntity
  8
LC-001-002-----0
  6
CONTINUOUS
 62
             7
100
AcDbLine
 10
-84.75
 20
-6.0
 11
-84.75
 21
0.0
  0
LINE
  5
5C
100
AcDbEntity
  8
LC-001-002-----0
  6
CONTINUOUS
 62
             7
100
AcDbLine
 10
-85.75
 20
-54.00463399999998
 11
85.24999999999997
 21
-54.00463399999998
  0
LINE
  5
5B
100
AcDbEntity
  8
LC-001-002-----0
  6
CONTINUOUS
 62
             7
100
AcDbLine
 10
-85.75
 20
-51.30463399999999
 11
85.5
 21
-51.30463399999999
  0
LINE
  5
5A
100
AcDbEntity
  8
LC-001-002-----0
  6
CONTINUOUS
 62
             7
100
AcDbLine
 10
-86.25
 20
-53.50463399999998
 11
-86.25
 21
-51.80463399999999
  0
LINE
  5
59
100
AcDbEntity
  8
LC-001-002-----0
  6
CONTINUOUS
 62
             7
100
AcDbLine
 10
-84.75
 20
-50.80463399999999
 11
-84.75
 21
-28.0
  0
LINE
  5
58
100
AcDbEntity
  8
LC-001-002-----0
  6
CONTINUOUS
 62
             7
100
AcDbLine
 10
88.0
 20
-7.0
 11
85.75
 21
-7.0
  0
LINE
  5
57
100
AcDbEntity
  8
LC-001-002-----0
  6
CONTINUOUS
 62
             7
100
AcDbLine
 10
-86.875
 20
-27.0
 11
88.0
 21
-27.0
  0
LINE
  5
56
100
AcDbEntity
  8
LC-001-002-----0
  6
CONTINUOUS
 62
             7
100
AcDbLine
 10
91.0
 20
-24.0
 11
91.0
 21
-10.0
  0
LINE
  5
55
100
AcDbEntity
  8
LC-001-002-----0
  6
CONTINUOUS
 62
             7
100
AcDbLine
 10
84.75
 20
0.0
 11
0.0
 21
0.0
  0
LINE
  5
54
100
AcDbEntity
  8
LC-001-002-----0
  6
CONTINUOUS
 62
             7
100
AcDbLine
 10
84.75
 20
-75.52458999999999
 11
84.75
 21
-54.50463399999998
  0
LINE
  5
53
100
AcDbEntity
  8
LC-001-002-----0
  6
CONTINUOUS
 62
             7
100
AcDbLine
 10
84.75
 20
-6.0
 11
84.75
 21
0.0
  0
LINE
  5
52
100
AcDbEntity
  8
LC-001-002-----0
  6
CONTINUOUS
 62
             7
100
AcDbLine
 10
85.75
 20
-54.00463399999998
 11
85.24999999999997
 21
-54.00463399999998
  0
LINE
  5
51
100
AcDbEntity
  8
LC-001-002-----0
  6
CONTINUOUS
 62
             7
100
AcDbLine
 10
85.75
 20
-51.30463399999999
 11
85.25
 21
-51.30463399999999
  0
LINE
  5
50
100
AcDbEntity
  8
LC-001-002-----0
  6
CONTINUOUS
 62
             7
100
AcDbLine
 10
86.25
 20
-53.50463399999998
 11
86.25
 21
-51.80463399999999
  0
LINE
  5
4F
100
AcDbEntity
  8
LC-001-002-----0
  6
CONTINUOUS
 62
             7
100
AcDbLine
 10
84.75
 20
-50.80463399999999
 11
84.75
 21
-28.0
  0
LINE
  5
4E
100
AcDbEntity
  8
LC-001-002-----0
  6
CONTINUOUS
 62
             7
100
AcDbLine
 10
-129.25812300000001
 20
36.99536599999999
 11
-184.72346899999999
 21
36.99536599999999
  0
LINE
  5
4D
100
AcDbEntity
  8
LC-001-002-----0
  6
CONTINUOUS
 62
             7
100
AcDbLine
 10
-97.20947799999999
 20
-75.52458999999999
 11
-127.32627100000001
 21
36.513004
  0
LINE
  5
4C
100
AcDbEntity
  8
LC-001-002-----0
  6
CONTINUOUS
 62
             7
100
AcDbLine
 10
-129.25812300000001
 20
37.99536599999999
 11
-184.72346899999999
 21
37.99536599999999
  0
LINE
  5
4B
100
AcDbEntity
  8
LC-001-002-----0
  6
CONTINUOUS
 62
             7
100
AcDbLine
 10
-98.244755
 20
-75.52458999999999
 11
-128.29219699999999
 21
36.25418500000004
  0
LINE
  5
4A
100
AcDbEntity
  8
LC-001-002-----0
  6
CONTINUOUS
 62
             7
100
AcDbLine
 10
-91.5
 20
-87.00463399999998
 11
0.0
 21
-87.00463399999998
  0
LINE
  5
49
100
AcDbEntity
  8
LC-001-002-----0
  6
CONTINUOUS
 62
             7
100
AcDbLine
 10
-49.0
 20
-153.00463400000001
 11
0.0
 21
-153.00463400000001
  0
LINE
  5
48
100
AcDbEntity
  8
LC-001-002-----0
  6
CONTINUOUS
 62
             7
100
AcDbLine
 10
-55.0
 20
-92.00463399999998
 11
-55.0
 21
-147.00463400000001
  0
LINE
  5
47
100
AcDbEntity
  8
LC-001-002-----0
  6
CONTINUOUS
 62
             7
100
AcDbLine
 10
91.50084685920828
 20
-87.00463399999998
 11
0.0
 21
-87.00463399999998
  0
LINE
  5
46
100
AcDbEntity
  8
LC-001-002-----0
  6
CONTINUOUS
 62
             7
100
AcDbLine
 10
49.0
 20
-153.00463400000001
 11
0.0
 21
-153.00463400000001
  0
LINE
  5
45
100
AcDbEntity
  8
LC-001-002-----0
  6
CONTINUOUS
 62
             7
100
AcDbLine
 10
55.0
 20
-92.00463399999998
 11
55.0
 21
-147.00463400000001
  0
LINE
  5
44
100
AcDbEntity
  8
LC-001-002-----0
  6
CONTINUOUS
 62
             7
100
AcDbLine
 10
-184.72346899999999
 20
36.99536599999999
 11
-184.72346899999999
 21
37.99536599999999
  0
LINE
  5
43
100
AcDbEntity
  8
LC-001-002-----0
  6
CONTINUOUS
 62
             7
100
AcDbLine
 10
59.924768
 20
37.99536599999999
 11
76.03776300000001
 21
37.99536599999999
  0
LINE
  5
42
100
AcDbEntity
  8
LC-001-002-----0
  6
CONTINUOUS
 62
             7
100
AcDbLine
 10
75.73246599999999
 20
36.99536599999999
 11
103.403558
 21
36.99536599999999
  0
LINE
  5
41
100
AcDbEntity
  8
LC-001-002-----0
  6
CONTINUOUS
 62
             7
100
AcDbLine
 10
103.403558
 20
36.99536599999999
 11
103.403558
 21
37.99536599999999
  0
LINE
  5
40
100
AcDbEntity
  8
LC-001-002-----0
  6
CONTINUOUS
 62
             7
100
AcDbLine
 10
52.02117000000001
 20
0.0
 11
58.941833
 21
37.17932200000004
  0
LINE
  5
3F
100
AcDbEntity
  8
LC-001-002-----0
  6
CONTINUOUS
 62
             7
100
AcDbLine
 10
67.95846499999999
 20
0.0
 11
74.74981699999998
 21
36.18083999999999
  0
LINE
  5
3E
100
AcDbEntity
  8
LC-001-002-----0
  6
CONTINUOUS
 62
             7
100
AcDbLine
 10
67.246105
 20
0.0
 11
74.07246499999997
 21
36.36631399999999
  0
LINE
  5
3D
100
AcDbEntity
  8
LC-001-002-----0
  6
CONTINUOUS
 62
             7
100
AcDbLine
 10
76.03776300000001
 20
37.99536599999999
 11
103.403558
 21
37.99536599999999
  0
LINE
  5
3C
100
AcDbEntity
  8
LC-001-002-----0
  6
CONTINUOUS
 62
             7
100
AcDbLine
 10
98.4983508592083
 20
-79.997738
 11
113.5382870000001
 21
-75.81436799999997
  0
LINE
  5
3B
100
AcDbEntity
  8
LC-001-002-----0
  6
CONTINUOUS
 62
             7
100
AcDbLine
 10
113.460641
 20
-75.52458999999999
 11
113.5382870000001
 21
-75.81436799999997
  0
LINE
  5
3A
100
AcDbEntity
  8
LC-001-002-----0
  6
CONTINUOUS
 62
             7
100
AcDbLine
 10
84.75
 20
-75.52458999999999
 11
113.460641
 21
-75.52458999999999
  0
LINE
  5
39
100
AcDbEntity
  8
LC-001-002-----0
  6
CONTINUOUS
 62
             7
100
AcDbLine
 10
-113.46064200000001
 20
-75.52458999999999
 11
-113.53828799999999
 21
-75.81436799999999
  0
LINE
  5
38
100
AcDbEntity
  8
LC-001-002-----0
  6
CONTINUOUS
 62
             7
100
AcDbLine
 10
84.75
 20
-75.52458999999999
 11
-98.244755
 21
-75.52458999999999
  0
LINE
  5
37
100
AcDbEntity
  8
LC-001-002-----0
  6
CONTINUOUS
 62
             7
100
AcDbLine
 10
-98.49750499999999
 20
-79.997738
 11
-113.53828799999999
 21
-75.81436799999999
  0
LINE
  5
36
100
AcDbEntity
  8
LC-001-002-----0
  6
CONTINUOUS
 62
             7
100
AcDbLine
 10
-98.244755
 20
-75.52458999999999
 11
-113.46064200000001
 21
-75.52458999999999
  0
POINT
  5
35
100
AcDbEntity
  8
LC-007-003-----0
 62
             7
100
AcDbPoint
 10
84.75
 20
0.0
  0
POINT
  5
34
100
AcDbEntity
  8
LC-007-003-----0
 62
             7
100
AcDbPoint
 10
84.75
 20
-80.18463399999999
  0
POINT
  5
33
100
AcDbEntity
  8
LC-007-003-----0
 62
             7
100
AcDbPoint
 10
81.0
 20
0.0
  0
POINT
  5
32
100
AcDbEntity
  8
LC-007-003-----0
 62
             7
100
AcDbPoint
 10
84.75
 20
0.0
  0
POINT
  5
31
100
AcDbEntity
  8
LC-007-003-----0
 62
             7
100
AcDbPoint
 10
103.403558
 20
36.99536599999999
  0
ENDBLK
  5
85
100
AcDbEntity
  8
0
100
AcDbBlockEnd
  0
BLOCK
  5
2C
100
AcDbEntity
  8
0
100
AcDbBlockBegin
  2
HL_850_BRANDSCHUTZELEMT__2
 70
             0
 10
207.122377
 20
-223.82985099999999
 30
0.0
  3
HL_850_BRANDSCHUTZELEMT__2
  1

  0
CIRCLE
  5
E2
100
AcDbEntity
  8
LC-001-002-----0
  6
CONTINUOUS
 62
             7
100
AcDbCircle
 10
391.845845
 20
-57.60463399999999
 40
46.0
  0
CIRCLE
  5
E1
100
AcDbEntity
  8
LC-001-002-----0
  6
CONTINUOUS
 62
             7
100
AcDbCircle
 10
391.845845
 20
-57.60463399999999
 40
54.0
  0
CIRCLE
  5
E0
100
AcDbEntity
  8
LC-001-002-----0
  6
CONTINUOUS
 62
             7
100
AcDbCircle
 10
391.845845
 20
-57.60463399999999
 40
60.0
  0
CIRCLE
  5
DF
100
AcDbEntity
  8
LC-001-002-----0
  6
CONTINUOUS
 62
             7
100
AcDbCircle
 10
391.845845
 20
-57.60463399999999
 40
91.75
  0
ARC
  5
DE
100
AcDbEntity
  8
LC-001-002-----0
  6
CONTINUOUS
 62
             7
100
AcDbCircle
 10
391.845845
 20
-57.60463399999999
 40
97.7500000000001
100
AcDbArc
 50
-172.65305699999999
 51
-67.34694299999998
  0
ARC
  5
DD
100
AcDbEntity
  8
LC-001-002-----0
  6
CONTINUOUS
 62
             7
100
AcDbCircle
 10
391.845845
 20
-57.60463399999999
 40
98.74999999999986
100
AcDbArc
 50
-172.72785999999999
 51
-67.27214000000001
  0
ARC
  5
DC
100
AcDbEntity
  8
LC-001-002-----0
  6
CONTINUOUS
 62
             7
100
AcDbCircle
 10
391.845845
 20
-57.60463399999999
 40
98.74999999999976
100
AcDbArc
 50
67.27213999999992
 51
172.72785999999974
  0
ARC
  5
DB
100
AcDbEntity
  8
LC-001-002-----0
  6
CONTINUOUS
 62
             7
100
AcDbCircle
 10
391.845845
 20
-57.60463399999999
 40
97.75000000000017
100
AcDbArc
 50
67.34694300000002
 51
172.65305700000027
  0
ARC
  5
DA
100
AcDbEntity
  8
LC-001-002-----0
  6
CONTINUOUS
 62
             7
100
AcDbCircle
 10
391.845845
 20
-57.60463399999999
 40
98.74999999999996
100
AcDbArc
 50
-52.72786000000011
 51
52.72786000000018
  0
ARC
  5
D9
100
AcDbEntity
  8
LC-001-002-----0
  6
CONTINUOUS
 62
             7
100
AcDbCircle
 10
391.845845
 20
-57.60463399999999
 40
97.75000000000006
100
AcDbArc
 50
-52.65305699999999
 51
52.65305699999985
  0
ARC
  5
D8
100
AcDbEntity
  8
LC-001-002-----0
  6
CONTINUOUS
 62
             7
100
AcDbCircle
 10
391.845845
 20
-57.60463399999999
 40
113.68777600000018
100
AcDbArc
 50
-14.87462599999994
 51
-0.12537400000008
  0
ARC
  5
D7
100
AcDbEntity
  8
LC-001-002-----0
  6
CONTINUOUS
 62
             7
100
AcDbCircle
 10
391.845845
 20
-57.60463399999999
 40
113.68777600000008
100
AcDbArc
 50
0.12537400000008
 51
14.87462600000019
  0
ARC
  5
D6
100
AcDbEntity
  8
LC-001-002-----0
  6
CONTINUOUS
 62
             7
100
AcDbCircle
 10
391.845845
 20
-57.60463399999999
 40
113.68777599999999
100
AcDbArc
 50
15.1253739999999
 51
29.87462599999991
  0
ARC
  5
D5
100
AcDbEntity
  8
LC-001-002-----0
  6
CONTINUOUS
 62
             7
100
AcDbCircle
 10
391.845845
 20
-57.60463399999999
 40
113.6877760000003
100
AcDbArc
 50
30.12537399999992
 51
44.8746260000003
  0
ARC
  5
D4
100
AcDbEntity
  8
LC-001-002-----0
  6
CONTINUOUS
 62
             7
100
AcDbCircle
 10
391.845845
 20
-57.60463399999999
 40
113.68777599999999
100
AcDbArc
 50
45.1253739999997
 51
53.68755200000011
  0
ARC
  5
D3
100
AcDbEntity
  8
LC-001-002-----0
  6
CONTINUOUS
 62
             7
100
AcDbCircle
 10
391.845845
 20
-57.60463399999999
 40
113.68777599999987
100
AcDbArc
 50
66.31244799999998
 51
74.87462600000009
  0
ARC
  5
D2
100
AcDbEntity
  8
LC-001-002-----0
  6
CONTINUOUS
 62
             7
100
AcDbCircle
 10
391.845845
 20
-57.60463399999999
 40
113.6877760000003
100
AcDbArc
 50
75.12537399999982
 51
89.87462599999986
  0
ARC
  5
D1
100
AcDbEntity
  8
LC-001-002-----0
  6
CONTINUOUS
 62
             7
100
AcDbCircle
 10
391.845845
 20
-57.60463399999999
 40
113.68777600000008
100
AcDbArc
 50
90.12537400000004
 51
104.87462600000018
  0
ARC
  5
D0
100
AcDbEntity
  8
LC-001-002-----0
  6
CONTINUOUS
 62
             7
100
AcDbCircle
 10
391.845845
 20
-57.60463399999999
 40
113.68777599999997
100
AcDbArc
 50
105.12537399999991
 51
119.87462599999992
  0
ARC
  5
CF
100
AcDbEntity
  8
LC-001-002-----0
  6
CONTINUOUS
 62
             7
100
AcDbCircle
 10
391.845845
 20
-57.60463399999999
 40
113.68777600000027
100
AcDbArc
 50
120.12537399999991
 51
134.87462600000032
  0
ARC
  5
CE
100
AcDbEntity
  8
LC-001-002-----0
  6
CONTINUOUS
 62
             7
100
AcDbCircle
 10
391.845845
 20
-57.60463399999999
 40
113.68777599999996
100
AcDbArc
 50
135.12537399999971
 51
149.87462600000009
  0
ARC
  5
CD
100
AcDbEntity
  8
LC-001-002-----0
  6
CONTINUOUS
 62
             7
100
AcDbCircle
 10
391.845845
 20
-57.60463399999999
 40
113.68777599999959
100
AcDbArc
 50
150.12537399999985
 51
164.87462600000012
  0
ARC
  5
CC
100
AcDbEntity
  8
LC-001-002-----0
  6
CONTINUOUS
 62
             7
100
AcDbCircle
 10
391.845845
 20
-57.60463399999999
 40
113.68777600000031
100
AcDbArc
 50
165.12537399999982
 51
173.68755199999993
  0
ARC
  5
CB
100
AcDbEntity
  8
LC-001-002-----0
  6
CONTINUOUS
 62
             7
100
AcDbCircle
 10
391.845845
 20
-57.60463399999999
 40
113.68777599999963
100
AcDbArc
 50
-173.68755200000001
 51
-165.12537400000002
  0
ARC
  5
CA
100
AcDbEntity
  8
LC-001-002-----0
  6
CONTINUOUS
 62
             7
100
AcDbCircle
 10
391.845845
 20
-57.60463399999999
 40
113.68777600000003
100
AcDbArc
 50
-164.87462600000003
 51
-150.12537399999988
  0
ARC
  5
C9
100
AcDbEntity
  8
LC-001-002-----0
  6
CONTINUOUS
 62
             7
100
AcDbCircle
 10
391.845845
 20
-57.60463399999999
 40
113.68777600000031
100
AcDbArc
 50
-149.87462600000009
 51
-135.12537399999985
  0
ARC
  5
C8
100
AcDbEntity
  8
LC-001-002-----0
  6
CONTINUOUS
 62
             7
100
AcDbCircle
 10
391.845845
 20
-57.60463399999999
 40
113.68777600000028
100
AcDbArc
 50
-134.87462600000015
 51
-120.12537399999998
  0
ARC
  5
C7
100
AcDbEntity
  8
LC-001-002-----0
  6
CONTINUOUS
 62
             7
100
AcDbCircle
 10
391.845845
 20
-57.60463399999999
 40
113.68777600000006
100
AcDbArc
 50
-119.87462600000005
 51
-105.12537399999991
  0
ARC
  5
C6
100
AcDbEntity
  8
LC-001-002-----0
  6
CONTINUOUS
 62
             7
100
AcDbCircle
 10
391.845845
 20
-57.60463399999999
 40
113.68777600000011
100
AcDbArc
 50
-104.87462600000021
 51
-90.12537400000004
  0
ARC
  5
C5
100
AcDbEntity
  8
LC-001-002-----0
  6
CONTINUOUS
 62
             7
100
AcDbCircle
 10
391.845845
 20
-57.60463399999999
 40
113.68777600000001
100
AcDbArc
 50
-89.87462599999986
 51
-75.12537400000026
  0
ARC
  5
C4
100
AcDbEntity
  8
LC-001-002-----0
  6
CONTINUOUS
 62
             7
100
AcDbCircle
 10
391.845845
 20
-57.60463399999999
 40
113.68777599999997
100
AcDbArc
 50
-74.87462600000009
 51
-66.31244799999999
  0
ARC
  5
C3
100
AcDbEntity
  8
LC-001-002-----0
  6
CONTINUOUS
 62
             7
100
AcDbCircle
 10
391.845845
 20
-57.60463399999999
 40
113.68777599999973
100
AcDbArc
 50
-53.68755200000017
 51
-45.12537399999989
  0
ARC
  5
C2
100
AcDbEntity
  8
LC-001-002-----0
  6
CONTINUOUS
 62
             7
100
AcDbCircle
 10
391.845845
 20
-57.60463399999999
 40
113.68777599999969
100
AcDbArc
 50
-44.87462600000016
 51
-30.12537399999997
  0
ARC
  5
C1
100
AcDbEntity
  8
LC-001-002-----0
  6
CONTINUOUS
 62
             7
100
AcDbCircle
 10
391.845845
 20
-57.60463399999999
 40
113.68777600000043
100
AcDbArc
 50
-29.87462599999987
 51
-15.12537399999999
  0
LINE
  5
C0
100
AcDbEntity
  8
1
  6
PHANTOM
 62
             2
100
AcDbLine
 10
391.845845
 20
67.45191960000003
 11
391.845845
 21
-182.66118760000001
  0
LINE
  5
BF
100
AcDbEntity
  8
1
  6
PHANTOM
 62
             2
100
AcDbLine
 10
516.90239859999997
 20
-57.60463399999999
 11
266.78929140000002
 21
-57.60463399999999
  0
LINE
  5
BE
100
AcDbEntity
  8
LC-001-002-----0
  6
CONTINUOUS
 62
             7
100
AcDbLine
 10
207.122377
 20
-70.10463399999999
 11
207.122377
 21
-45.10463399999999
  0
LINE
  5
BD
100
AcDbEntity
  8
LC-001-002-----0
  6
CONTINUOUS
 62
             7
100
AcDbLine
 10
207.122377
 20
-45.10463399999999
 11
300.95133199999998
 21
-45.10463399999999
  0
LINE
  5
BC
100
AcDbEntity
  8
LC-001-002-----0
  6
CONTINUOUS
 62
             7
100
AcDbLine
 10
207.122377
 20
-70.10463399999999
 11
300.95133199999998
 21
-70.10463399999999
  0
LINE
  5
BB
100
AcDbEntity
  8
LC-004-002-----0
  6
CONTINUOUS
 62
             2
100
AcDbLine
 10
264.12237699999997
 20
-70.10463399999999
 11
264.12237699999997
 21
-45.10463399999999
  0
LINE
  5
BA
100
AcDbEntity
  8
LC-001-002-----0
  6
CONTINUOUS
 62
             7
100
AcDbLine
 10
490.595845
 20
-57.85463399999999
 11
505.53334699999999
 21
-57.85463399999999
  0
LINE
  5
B9
100
AcDbEntity
  8
LC-001-002-----0
  6
CONTINUOUS
 62
             7
100
AcDbLine
 10
487.295725
 20
-82.92153399999999
 11
501.72424400000011
 21
-86.78764299999999
  0
LINE
  5
B8
100
AcDbEntity
  8
LC-001-002-----0
  6
CONTINUOUS
 62
             7
100
AcDbLine
 10
490.595845
 20
-57.35463399999999
 11
505.53334699999999
 21
-57.35463399999999
  0
LINE
  5
B7
100
AcDbEntity
  8
LC-001-002-----0
  6
CONTINUOUS
 62
             7
100
AcDbLine
 10
487.16631599999999
 20
-31.80477199999999
 11
501.59483400000011
 21
-27.93866199999999
  0
LINE
  5
B6
100
AcDbEntity
  8
LC-001-002-----0
  6
CONTINUOUS
 62
             7
100
AcDbLine
 10
477.24085400000001
 20
-8.01312799999999
 11
490.17711000000003
 21
-0.544377
  0
LINE
  5
B5
100
AcDbEntity
  8
LC-001-002-----0
  6
CONTINUOUS
 62
             7
100
AcDbLine
 10
461.49586299999999
 20
12.39893700000002
 11
472.05827199999999
 21
22.96134600000002
  0
LINE
  5
B4
100
AcDbEntity
  8
LC-001-002-----0
  6
CONTINUOUS
 62
             7
100
AcDbLine
 10
417.16274499999997
 20
37.845246
 11
421.02885400000002
 21
52.273764
  0
LINE
  5
B3
100
AcDbEntity
  8
LC-001-002-----0
  6
CONTINUOUS
 62
             7
100
AcDbLine
 10
391.595845
 20
41.14536600000002
 11
391.595845
 21
56.08286700000002
  0
LINE
  5
B2
100
AcDbEntity
  8
LC-001-002-----0
  6
CONTINUOUS
 62
             7
100
AcDbLine
 10
366.04598299999998
 20
37.71583600000002
 11
362.17987299999999
 21
52.14435500000002
  0
LINE
  5
B1
100
AcDbEntity
  8
LC-001-002-----0
  6
CONTINUOUS
 62
             7
100
AcDbLine
 10
342.25433900000002
 20
27.79037400000001
 11
334.78558800000002
 21
40.72663
  0
LINE
  5
B0
100
AcDbEntity
  8
LC-001-002-----0
  6
CONTINUOUS
 62
             7
100
AcDbLine
 10
321.84227399999997
 20
12.04538400000001
 11
311.27986600000003
 21
22.60779200000002
  0
LINE
  5
AF
100
AcDbEntity
  8
LC-001-002-----0
  6
CONTINUOUS
 62
             7
100
AcDbLine
 10
306.20083699999998
 20
-8.44614099999998
 11
293.26458100000002
 21
-0.97738999999999
  0
LINE
  5
AE
100
AcDbEntity
  8
LC-001-002-----0
  6
CONTINUOUS
 62
             7
100
AcDbLine
 10
296.39596499999999
 20
-32.287735
 11
281.96744699999999
 21
-28.42162499999998
  0
LINE
  5
AD
100
AcDbEntity
  8
LC-001-002-----0
  6
CONTINUOUS
 62
             7
100
AcDbLine
 10
296.525375
 20
-83.40449599999998
 11
282.096857
 21
-87.27060599999999
  0
LINE
  5
AC
100
AcDbEntity
  8
LC-001-002-----0
  6
CONTINUOUS
 62
             7
100
AcDbLine
 10
306.45083699999998
 20
-107.196141
 11
293.51458100000002
 21
-114.664891
  0
LINE
  5
AB
100
AcDbEntity
  8
LC-001-002-----0
  6
CONTINUOUS
 62
             7
100
AcDbLine
 10
322.19582700000001
 20
-127.608206
 11
311.633419
 21
-138.170614
  0
LINE
  5
AA
100
AcDbEntity
  8
LC-001-002-----0
  6
CONTINUOUS
 62
             7
100
AcDbLine
 10
342.68735199999998
 20
-143.24964299999999
 11
335.21860099999998
 21
-156.18589800000001
  0
LINE
  5
A9
100
AcDbEntity
  8
LC-001-002-----0
  6
CONTINUOUS
 62
             7
100
AcDbLine
 10
366.52894600000002
 20
-153.05451400000001
 11
362.66283600000003
 21
-167.48303300000001
  0
LINE
  5
A8
100
AcDbEntity
  8
LC-001-002-----0
  6
CONTINUOUS
 62
             7
100
AcDbLine
 10
392.095845
 20
-156.354634
 11
392.095845
 21
-171.292136
  0
LINE
  5
A7
100
AcDbEntity
  8
LC-001-002-----0
  6
CONTINUOUS
 62
             7
100
AcDbLine
 10
417.64570800000001
 20
-152.925105
 11
421.51181700000001
 21
-167.353623
  0
LINE
  5
A6
100
AcDbEntity
  8
LC-001-002-----0
  6
CONTINUOUS
 62
             7
100
AcDbLine
 10
461.84941700000002
 20
-127.25465199999999
 11
472.41182500000002
 21
-137.817061
  0
LINE
  5
A5
100
AcDbEntity
  8
LC-001-002-----0
  6
CONTINUOUS
 62
             7
100
AcDbLine
 10
477.49085400000001
 20
-106.76312799999999
 11
490.42711000000003
 21
-114.23187900000001
  0
LINE
  5
A4
100
AcDbEntity
  8
LC-001-002-----0
  6
CONTINUOUS
 62
             7
100
AcDbLine
 10
487.295725
 20
-32.287735
 11
501.72424400000011
 21
-28.42162499999998
  0
LINE
  5
A3
100
AcDbEntity
  8
LC-001-002-----0
  6
CONTINUOUS
 62
             7
100
AcDbLine
 10
477.49085400000001
 20
-8.44614099999998
 11
490.42711000000003
 21
-0.97738999999999
  0
LINE
  5
A2
100
AcDbEntity
  8
LC-001-002-----0
  6
CONTINUOUS
 62
             7
100
AcDbLine
 10
461.84941700000002
 20
12.04538400000001
 11
472.41182500000002
 21
22.60779200000002
  0
LINE
  5
A1
100
AcDbEntity
  8
LC-001-002-----0
  6
CONTINUOUS
 62
             7
100
AcDbLine
 10
417.64570800000001
 20
37.71583600000002
 11
421.51181700000001
 21
52.14435500000002
  0
LINE
  5
A0
100
AcDbEntity
  8
LC-001-002-----0
  6
CONTINUOUS
 62
             7
100
AcDbLine
 10
392.095845
 20
41.14536600000002
 11
392.095845
 21
56.08286700000002
  0
LINE
  5
9F
100
AcDbEntity
  8
LC-001-002-----0
  6
CONTINUOUS
 62
             7
100
AcDbLine
 10
366.52894600000002
 20
37.845246
 11
362.66283600000003
 21
52.273764
  0
LINE
  5
9E
100
AcDbEntity
  8
LC-001-002-----0
  6
CONTINUOUS
 62
             7
100
AcDbLine
 10
342.68735199999998
 20
28.04037400000001
 11
335.21860099999998
 21
40.97663
  0
LINE
  5
9D
100
AcDbEntity
  8
LC-001-002-----0
  6
CONTINUOUS
 62
             7
100
AcDbLine
 10
322.19582700000001
 20
12.39893700000002
 11
311.633419
 21
22.96134600000002
  0
LINE
  5
9C
100
AcDbEntity
  8
LC-001-002-----0
  6
CONTINUOUS
 62
             7
100
AcDbLine
 10
306.45083699999998
 20
-8.01312799999999
 11
293.51458100000002
 21
-0.544377
  0
LINE
  5
9B
100
AcDbEntity
  8
LC-001-002-----0
  6
CONTINUOUS
 62
             7
100
AcDbLine
 10
296.525375
 20
-31.80477199999999
 11
282.096857
 21
-27.93866199999999
  0
LINE
  5
9A
100
AcDbEntity
  8
LC-001-002-----0
  6
CONTINUOUS
 62
             7
100
AcDbLine
 10
296.39596499999999
 20
-82.92153399999999
 11
281.96744699999999
 21
-86.78764299999999
  0
LINE
  5
99
100
AcDbEntity
  8
LC-001-002-----0
  6
CONTINUOUS
 62
             7
100
AcDbLine
 10
306.20083699999998
 20
-106.76312799999999
 11
293.26458100000002
 21
-114.23187900000001
  0
LINE
  5
98
100
AcDbEntity
  8
LC-001-002-----0
  6
CONTINUOUS
 62
             7
100
AcDbLine
 10
321.84227399999997
 20
-127.25465199999999
 11
311.27986600000003
 21
-137.817061
  0
LINE
  5
97
100
AcDbEntity
  8
LC-001-002-----0
  6
CONTINUOUS
 62
             7
100
AcDbLine
 10
342.25433900000002
 20
-142.99964299999999
 11
334.78558800000002
 21
-155.93589800000001
  0
LINE
  5
96
100
AcDbEntity
  8
LC-001-002-----0
  6
CONTINUOUS
 62
             7
100
AcDbLine
 10
366.04598299999998
 20
-152.925105
 11
362.17987299999999
 21
-167.353623
  0
LINE
  5
95
100
AcDbEntity
  8
LC-001-002-----0
  6
CONTINUOUS
 62
             7
100
AcDbLine
 10
391.595845
 20
-156.354634
 11
391.595845
 21
-171.292136
  0
LINE
  5
94
100
AcDbEntity
  8
LC-001-002-----0
  6
CONTINUOUS
 62
             7
100
AcDbLine
 10
417.16274499999997
 20
-153.05451400000001
 11
421.02885400000002
 21
-167.48303300000001
  0
LINE
  5
93
100
AcDbEntity
  8
LC-001-002-----0
  6
CONTINUOUS
 62
             7
100
AcDbLine
 10
461.49586299999999
 20
-127.608206
 11
472.05827199999999
 21
-138.170614
  0
LINE
  5
92
100
AcDbEntity
  8
LC-001-002-----0
  6
CONTINUOUS
 62
             7
100
AcDbLine
 10
477.24085400000001
 20
-107.196141
 11
490.17711000000003
 21
-114.664891
  0
LINE
  5
91
100
AcDbEntity
  8
LC-001-002-----0
  6
CONTINUOUS
 62
             7
100
AcDbLine
 10
487.16631599999999
 20
-83.40449599999998
 11
501.59483400000011
 21
-87.27060599999999
  0
LINE
  5
90
100
AcDbEntity
  8
LC-001-002-----0
  6
CONTINUOUS
 62
             7
100
AcDbLine
 10
495.03289699999999
 20
-211.32985099999999
 11
473.38226200000003
 21
-223.82985099999999
  0
LINE
  5
8F
100
AcDbEntity
  8
LC-001-002-----0
  6
CONTINUOUS
 62
             7
100
AcDbLine
 10
473.38226200000003
 20
-223.82985099999999
 11
426.46778399999999
 21
-142.57159200000001
  0
LINE
  5
8E
100
AcDbEntity
  8
LC-001-002-----0
  6
CONTINUOUS
 62
             7
100
AcDbLine
 10
495.03289699999999
 20
-211.32985099999999
 11
448.11841900000002
 21
-130.07159200000001
  0
LINE
  5
8D
100
AcDbEntity
  8
LC-004-002-----0
  6
CONTINUOUS
 62
             2
100
AcDbLine
 10
466.53289699999999
 20
-161.96640300000001
 11
444.88226200000003
 21
-174.46640300000001
  0
LINE
  5
8C
100
AcDbEntity
  8
LC-001-002-----0
  6
CONTINUOUS
 62
             7
100
AcDbLine
 10
473.38226200000003
 20
108.620582
 11
495.03289699999999
 21
96.12058199999999
  0
LINE
  5
8B
100
AcDbEntity
  8
LC-001-002-----0
  6
CONTINUOUS
 62
             7
100
AcDbLine
 10
495.03289699999999
 20
96.12058199999999
 11
448.11841900000002
 21
14.862323
  0
LINE
  5
8A
100
AcDbEntity
  8
LC-001-002-----0
  6
CONTINUOUS
 62
             7
100
AcDbLine
 10
473.38226200000003
 20
108.620582
 11
426.46778399999999
 21
27.362323
  0
LINE
  5
89
100
AcDbEntity
  8
LC-004-002-----0
  6
CONTINUOUS
 62
             2
100
AcDbLine
 10
444.88226200000003
 20
59.25713400000001
 11
466.53289699999999
 21
46.75713400000001
  0
LINE
  5
88
100
AcDbEntity
  8
LC-004-002-----0
  6
CONTINUOUS
 62
             2
100
AcDbLine
 10
297.008599
 20
-45.10463399999999
 11
297.008599
 21
-70.10463399999999
  0
LINE
  5
87
100
AcDbEntity
  8
LC-004-002-----0
  6
CONTINUOUS
 62
             2
100
AcDbLine
 10
428.43915099999998
 20
-145.986099
 11
450.089786
 21
-133.486099
  0
LINE
  5
86
100
AcDbEntity
  8
LC-004-002-----0
  6
CONTINUOUS
 62
             2
100
AcDbLine
 10
450.089786
 20
18.27683000000002
 11
428.43915099999998
 21
30.77683000000002
  0
ENDBLK
  5
E3
100
AcDbEntity
  8
0
100
AcDbBlockEnd
  0
BLOCK
  5
E6
100
AcDbEntity
  8
0
100
AcDbBlockBegin
  2
*D2
 70
             1
 10
0.0
 20
0.0
 30
0.0
  3
*D2
  1

  0
LINE
  5
E7
100
AcDbEntity
  8
0
  6
CONTINUOUS
 62
             4
100
AcDbLine
 10
-46.0
 20
-175.9722704991739
 11
46.0
 21
-175.9722704991739
  0
LINE
  5
E8
100
AcDbEntity
  8
0
  6
CONTINUOUS
 62
             4
100
AcDbLine
 10
-46.0
 20
-159.00463399999995
 11
-46.0
 21
-177.9722704991739
  0
LINE
  5
E9
100
AcDbEntity
  8
0
  6
CONTINUOUS
 62
             4
100
AcDbLine
 10
46.0
 20
-159.00463399999995
 11
46.0
 21
-177.9722704991739
  0
SOLID
  5
EA
100
AcDbEntity
  8
0
 62
             4
100
AcDbTrace
 10
-39.0
 20
-175.05070301606213
 11
-39.0
 21
-176.89383798228567
 12
-46.0
 22
-175.9722704991739
 13
-46.0
 23
-175.9722704991739
  0
SOLID
  5
EB
100
AcDbEntity
  8
0
 62
             4
100
AcDbTrace
 10
39.0
 20
-176.89383798228567
 11
39.0
 21
-175.05070301606213
 12
46.0
 22
-175.9722704991739
 13
46.0
 23
-175.9722704991739
  0
MTEXT
  5
ED
100
AcDbEntity
  8
0
 62
             1
100
AcDbMText
 10
6.11671353503586
 20
-173.97228441332655
 30
0.0
 40
7.0
 41
0.0
 71
             7
 72
             1
  1
\C1;Ø\C1;92
  7
CONVERTER_1
 11
0.99999999999706
 21
0.00000242406841
 31
0.0
  0
ENDBLK
  5
EE
100
AcDbEntity
  8
0
100
AcDbBlockEnd
  0
BLOCK
  5
F2
100
AcDbEntity
  8
0
100
AcDbBlockBegin
  2
*D3
 70
             1
 10
0.0
 20
0.0
 30
0.0
  3
*D3
  1

  0
LINE
  5
F3
100
AcDbEntity
  8
0
  6
CONTINUOUS
 62
             4
100
AcDbLine
 10
-55.0
 20
-188.74973872549549
 11
55.0
 21
-188.74973872549549
  0
LINE
  5
F4
100
AcDbEntity
  8
0
  6
CONTINUOUS
 62
             4
100
AcDbLine
 10
-55.0
 20
-147.00463399999998
 11
-55.0
 21
-190.74973872549549
  0
LINE
  5
F5
100
AcDbEntity
  8
0
  6
CONTINUOUS
 62
             4
100
AcDbLine
 10
55.0
 20
-147.00463399999998
 11
55.0
 21
-190.74973872549549
  0
SOLID
  5
F6
100
AcDbEntity
  8
0
 62
             4
100
AcDbTrace
 10
-48.0
 20
-187.82817124238372
 11
-48.0
 21
-189.67130620860726
 12
-55.0
 22
-188.74973872549549
 13
-55.0
 23
-188.74973872549549
  0
SOLID
  5
F7
100
AcDbEntity
  8
0
 62
             4
100
AcDbTrace
 10
48.0
 20
-189.67130620860726
 11
48.0
 21
-187.82817124238372
 12
55.0
 22
-188.74973872549549
 13
55.0
 23
-188.74973872549549
  0
MTEXT
  5
F8
100
AcDbEntity
  8
0
 62
             1
100
AcDbMText
 10
-27.97846291234813
 20
-186.74975263964814
 30
0.0
 40
7.0
 41
0.0
 71
             7
 72
             1
  1
\C1;Ø\C1;110
  7
CONVERTER_1
 11
0.99999999999706
 21
0.00000242406841
 31
0.0
  0
ENDBLK
  5
F9
100
AcDbEntity
  8
0
100
AcDbBlockEnd
  0
BLOCK
  5
FD
100
AcDbEntity
  8
0
100
AcDbBlockBegin
  2
*D4
 70
             1
 10
0.0
 20
0.0
 30
0.0
  3
*D4
  1

  0
LINE
  5
FE
100
AcDbEntity
  8
0
  6
CONTINUOUS
 62
             4
100
AcDbLine
 10
-80.0
 20
16.0
 11
80.00000000000001
 21
16.0
  0
LINE
  5
FF
100
AcDbEntity
  8
0
  6
CONTINUOUS
 62
             4
100
AcDbLine
 10
80.00000000000001
 20
6.0
 11
80.00000000000001
 21
18.0
  0
LINE
  5
100
100
AcDbEntity
  8
0
  6
CONTINUOUS
 62
             4
100
AcDbLine
 10
-80.0
 20
6.0
 11
-80.0
 21
18.0
  0
SOLID
  5
101
100
AcDbEntity
  8
0
 62
             4
100
AcDbTrace
 10
-73.0
 20
16.92156748311177
 11
-73.0
 21
15.07843251688823
 12
-80.0
 22
16.0
 13
-80.0
 23
16.0
  0
SOLID
  5
102
100
AcDbEntity
  8
0
 62
             4
100
AcDbTrace
 10
73.00000000000001
 20
15.07843251688823
 11
73.00000000000001
 21
16.92156748311177
 12
80.00000000000001
 22
16.0
 13
80.00000000000001
 23
16.0
  0
MTEXT
  5
103
100
AcDbEntity
  8
0
 62
             1
100
AcDbMText
 10
-34.09538996761413
 20
17.99998608584735
 30
0.0
 40
7.0
 41
0.0
 71
             7
 72
             1
  1
\C1;Ø\C1;160
  7
CONVERTER_1
 11
0.99999999999706
 21
0.00000242406841
 31
0.0
  0
ENDBLK
  5
104
100
AcDbEntity
  8
0
100
AcDbBlockEnd
  0
BLOCK
  5
108
100
AcDbEntity
  8
0
100
AcDbBlockBegin
  2
*D5
 70
             1
 10
0.0
 20
0.0
 30
0.0
  3
*D5
  1

  0
LINE
  5
109
100
AcDbEntity
  8
0
  6
CONTINUOUS
 62
             4
100
AcDbLine
 10
98.49835141070929
 20
-206.11323047813491
 11
-98.49750455150098
 21
-206.11323047813491
  0
LINE
  5
10A
100
AcDbEntity
  8
0
  6
CONTINUOUS
 62
             4
100
AcDbLine
 10
98.49835141070929
 20
-79.99773816879271
 11
98.49835141070929
 21
-208.11323047813491
  0
LINE
  5
10B
100
AcDbEntity
  8
0
  6
CONTINUOUS
 62
             4
100
AcDbLine
 10
-98.49750455150098
 20
-79.99773816879271
 11
-98.49750455150098
 21
-208.11323047813491
  0
SOLID
  5
10C
100
AcDbEntity
  8
0
 62
             4
100
AcDbTrace
 10
91.49835141070929
 20
-207.03479796124668
 11
91.49835141070929
 21
-205.19166299502314
 12
98.49835141070929
 22
-206.11323047813491
 13
98.49835141070929
 23
-206.11323047813491
  0
SOLID
  5
10D
100
AcDbEntity
  8
0
 62
             4
100
AcDbTrace
 10
-91.49750455150098
 20
-205.19166299502314
 11
-91.49750455150098
 21
-207.03479796124668
 12
-98.49750455150098
 22
-206.11323047813491
 13
-98.49750455150098
 23
-206.11323047813491
  0
MTEXT
  5
10E
100
AcDbEntity
  8
0
 62
             1
100
AcDbMText
 10
31.33405939820587
 20
-204.11324439228756
 30
0.0
 40
7.0
 41
0.0
 71
             7
 72
             1
  1
\C1;Ø\C1;197
  7
CONVERTER_1
 11
0.99999999999706
 21
0.00000242406841
 31
0.0
  0
ENDBLK
  5
10F
100
AcDbEntity
  8
0
100
AcDbBlockEnd
  0
BLOCK
  5
113
100
AcDbEntity
  8
0
100
AcDbBlockBegin
  2
*D6
 70
             1
 10
0.0
 20
0.0
 30
0.0
  3
*D6
  1

  0
LINE
  5
114
100
AcDbEntity
  8
0
  6
CONTINUOUS
 62
             4
100
AcDbLine
 10
-113.46064200000001
 20
-220.0325057623518
 11
113.53828700000011
 21
-220.0325057623518
  0
LINE
  5
115
100
AcDbEntity
  8
0
  6
CONTINUOUS
 62
             4
100
AcDbLine
 10
-113.46064200000001
 20
-75.52459000000002
 11
-113.46064200000001
 21
-222.0325057623518
  0
LINE
  5
116
100
AcDbEntity
  8
0
  6
CONTINUOUS
 62
             4
100
AcDbLine
 10
113.53828700000011
 20
-75.814368
 11
113.53828700000011
 21
-222.0325057623518
  0
SOLID
  5
117
100
AcDbEntity
  8
0
 62
             4
100
AcDbTrace
 10
-106.46064200000001
 20
-219.11093827924003
 11
-106.46064200000001
 21
-220.95407324546358
 12
-113.46064200000001
 22
-220.0325057623518
 13
-113.46064200000001
 23
-220.0325057623518
  0
SOLID
  5
118
100
AcDbEntity
  8
0
 62
             4
100
AcDbTrace
 10
106.53828700000011
 20
-220.95407324546358
 11
106.53828700000011
 21
-219.11093827924003
 12
113.53828700000011
 22
-220.0325057623518
 13
113.53828700000011
 23
-220.0325057623518
  0
MTEXT
  5
119
100
AcDbEntity
  8
0
 62
             1
100
AcDbMText
 10
-60.03942289130904
 20
-218.03251967650445
 30
0.0
 40
7.0
 41
0.0
 71
             7
 72
             1
  1
\C1;Ø\C1;227
  7
CONVERTER_1
 11
0.99999999999706
 21
0.00000242406841
 31
0.0
  0
ENDBLK
  5
11A
100
AcDbEntity
  8
0
100
AcDbBlockEnd
  0
BLOCK
  5
11E
100
AcDbEntity
  8
0
100
AcDbBlockBegin
  2
*D7
 70
             1
 10
0.0
 20
0.0
 30
0.0
  3
*D7
  1

  0
LINE
  5
11F
100
AcDbEntity
  8
0
  6
CONTINUOUS
 62
             4
100
AcDbLine
 10
131.89471110349001
 20
0.0
 11
131.89471110349001
 21
36.995366
  0
LINE
  5
120
100
AcDbEntity
  8
0
  6
CONTINUOUS
 62
             4
100
AcDbLine
 10
84.74999999999999
 20
0.0
 11
133.89471110349001
 21
0.0
  0
LINE
  5
121
100
AcDbEntity
  8
0
  6
CONTINUOUS
 62
             4
100
AcDbLine
 10
103.40355799999999
 20
36.995366
 11
133.89471110349001
 21
36.995366
  0
SOLID
  5
122
100
AcDbEntity
  8
0
 62
             4
100
AcDbTrace
 10
130.97314362037824
 20
7.0
 11
132.81627858660178
 21
7.0
 12
131.89471110349001
 22
0.0
 13
131.89471110349001
 23
0.0
  0
SOLID
  5
123
100
AcDbEntity
  8
0
 62
             4
100
AcDbTrace
 10
132.81627858660178
 20
29.995366
 11
130.97314362037824
 21
29.995366
 12
131.89471110349001
 22
36.995366
 13
131.89471110349001
 23
36.995366
  0
MTEXT
  5
124
100
AcDbEntity
  8
0
 62
             1
100
AcDbMText
 10
129.89471110349001
 20
15.46737220569401
 30
0.0
 40
7.0
 41
0.0
 71
             7
 72
             1
  1
37
  7
CONVERTER_1
 11
0.0
 21
1.0
 31
0.0
  0
ENDBLK
  5
125
100
AcDbEntity
  8
0
100
AcDbBlockEnd
  0
BLOCK
  5
129
100
AcDbEntity
  8
0
100
AcDbBlockBegin
  2
*D8
 70
             1
 10
0.0
 20
0.0
 30
0.0
  3
*D8
  1

  0
LINE
  5
12A
100
AcDbEntity
  8
0
  6
CONTINUOUS
 62
             4
100
AcDbLine
 10
131.89471110349001
 20
0.0
 11
131.89471110349001
 21
-79.997738
  0
LINE
  5
12B
100
AcDbEntity
  8
0
  6
CONTINUOUS
 62
             4
100
AcDbLine
 10
84.74999999999999
 20
0.0
 11
133.89471110349001
 21
0.0
  0
LINE
  5
12C
100
AcDbEntity
  8
0
  6
CONTINUOUS
 62
             4
100
AcDbLine
 10
98.49835085920829
 20
-79.997738
 11
133.89471110349001
 21
-79.997738
  0
SOLID
  5
12D
100
AcDbEntity
  8
0
 62
             4
100
AcDbTrace
 10
132.81627858660178
 20
-7.0
 11
130.97314362037824
 21
-7.0
 12
131.89471110349001
 22
0.0
 13
131.89471110349001
 23
0.0
  0
SOLID
  5
12E
100
AcDbEntity
  8
0
 62
             4
100
AcDbTrace
 10
130.97314362037824
 20
-72.997738
 11
132.81627858660178
 21
-72.997738
 12
131.89471110349001
 22
-79.997738
 13
131.89471110349001
 23
-79.997738
  0
MTEXT
  5
12F
100
AcDbEntity
  8
0
 62
             1
100
AcDbMText
 10
129.89471110349001
 20
-51.1350489838266
 30
0.0
 40
7.0
 41
0.0
 71
             7
 72
             1
  1
80
  7
CONVERTER_1
 11
0.0
 21
1.0
 31
0.0
  0
ENDBLK
  5
130
100
AcDbEntity
  8
0
100
AcDbBlockEnd
  0
BLOCK
  5
134
100
AcDbEntity
  8
0
100
AcDbBlockBegin
  2
*D9
 70
             1
 10
0.0
 20
0.0
 30
0.0
  3
*D9
  1

  0
LINE
  5
135
100
AcDbEntity
  8
0
  6
CONTINUOUS
 62
             4
100
AcDbLine
 10
145.728384035076
 20
0.0
 11
145.728384035076
 21
-153.00463399999998
  0
LINE
  5
136
100
AcDbEntity
  8
0
  6
CONTINUOUS
 62
             4
100
AcDbLine
 10
84.75000000000003
 20
0.0
 11
147.728384035076
 21
0.0
  0
LINE
  5
137
100
AcDbEntity
  8
0
  6
CONTINUOUS
 62
             4
100
AcDbLine
 10
49.00000000000003
 20
-153.00463399999998
 11
147.728384035076
 21
-153.00463399999998
  0
SOLID
  5
138
100
AcDbEntity
  8
0
 62
             4
100
AcDbTrace
 10
146.64995151818778
 20
-7.0
 11
144.80681655196423
 21
-7.0
 12
145.728384035076
 22
0.0
 13
145.728384035076
 23
0.0
  0
SOLID
  5
139
100
AcDbEntity
  8
0
 62
             4
100
AcDbTrace
 10
144.80681655196423
 20
-146.00463399999998
 11
146.64995151818778
 21
-146.00463399999998
 12
145.728384035076
 22
-153.00463399999998
 13
145.728384035076
 23
-153.00463399999998
  0
MTEXT
  5
13A
100
AcDbEntity
  8
0
 62
             1
100
AcDbMText
 10
143.728384035076
 20
-90.14240232544989
 30
0.0
 40
7.0
 41
0.0
 71
             7
 72
             1
  1
153
  7
CONVERTER_1
 11
0.0
 21
1.0
 31
0.0
  0
ENDBLK
  5
13B
100
AcDbEntity
  8
0
100
AcDbBlockEnd
  0
ENDSEC
  0
SECTION
  2
ENTITIES
  0
DIMENSION
  5
13D
100
AcDbEntity
  8
1
100
AcDbDimension
  2
*D9
 10
145.728384035076
 20
0.0
 11
140.228384035076
 21
-82.79240232544989
 31
0.0
 53
90.0
  1
<>
  3
ME10_DIM_7
100
AcDbAlignedDimension
 13
49.0
 23
-153.00463400000001
 14
84.75
 24
0.0
 50
90.0
100
AcDbRotatedDimension
  0
DIMENSION
  5
132
100
AcDbEntity
  8
1
100
AcDbDimension
  2
*D8
 10
131.89471110349001
 20
0.0
 11
126.39471110349
 21
-45.8850489838266
 31
0.0
 53
90.0
  1
<>
  3
ME10_DIM_6
100
AcDbAlignedDimension
 13
98.4983508592083
 23
-79.997738
 14
84.75
 24
0.0
 50
90.0
100
AcDbRotatedDimension
  0
DIMENSION
  5
127
100
AcDbEntity
  8
1
100
AcDbDimension
  2
*D7
 10
131.89471110349001
 20
0.0
 11
126.39471110349
 21
20.71737220569401
 31
0.0
 53
90.0
  1
<>
  3
ME10_DIM_5
100
AcDbAlignedDimension
 13
103.403558
 23
36.99536599999999
 14
84.75
 24
0.0
 50
90.0
100
AcDbRotatedDimension
  0
DIMENSION
  5
11C
100
AcDbEntity
  8
1
100
AcDbDimension
  2
*D6
 10
-113.46064200000001
 20
-220.0325057623518
 11
-50.09942289132591
 21
-214.5325057623518
 31
0.0
 53
180.0
  1
<>
  3
ME10_DIM_4
100
AcDbAlignedDimension
 13
113.5382870000001
 23
-75.81436799999997
 14
-113.46064200000001
 24
-75.52458999999999
 50
180.0
100
AcDbRotatedDimension
  0
DIMENSION
  5
111
100
AcDbEntity
  8
1
100
AcDbDimension
  2
*D5
 10
98.49835141070929
 20
-206.11323047813491
 11
40.22405939818901
 21
-200.61323047813491
 31
0.0
 53
180.0
  1
<>
  3
ME10_DIM_3
100
AcDbAlignedDimension
 13
-98.49750455150101
 23
-79.99773816879269
 14
98.49835141070929
 24
-79.99773816879268
 50
180.0
100
AcDbRotatedDimension
  0
DIMENSION
  5
106
100
AcDbEntity
  8
1
100
AcDbDimension
  2
*D4
 10
-80.0
 20
16.0
 11
-25.20538996763099
 21
21.5
 31
0.0
 53
180.0
  1
<>
  3
ME10_DIM_2
100
AcDbAlignedDimension
 13
80.0
 23
6.0
 14
-80.0
 24
6.0
 50
180.0
100
AcDbRotatedDimension
  0
DIMENSION
  5
FB
100
AcDbEntity
  8
1
100
AcDbDimension
  2
*D3
 10
-55.0
 20
-188.74973872549549
 11
-20.13846291236499
 21
-183.24973872549549
 31
0.0
 53
180.0
  1
<>
  3
ME10_DIM_1
100
AcDbAlignedDimension
 13
55.0
 23
-147.00463400000001
 14
-55.0
 24
-147.00463400000001
 50
180.0
100
AcDbRotatedDimension
  0
DIMENSION
  5
F0
100
AcDbEntity
  8
1
100
AcDbDimension
  2
*D2
 10
-46.0
 20
-175.9722704991739
 11
12.906713535019
 21
-170.4722704991739
 31
0.0
 53
180.0
  1
<>
  3
ME10_DIM_0
100
AcDbAlignedDimension
 13
46.0
 23
-159.00463400000001
 14
-46.0
 24
-159.00463400000001
 50
180.0
100
AcDbRotatedDimension
  0
INSERT
  5
2F
100
AcDbEntity
  8
1
100
AcDbBlockReference
  2
HL_850_BRANDSCHUTZELEMT__1
 10
-184.72346899999999
 20
-160.6359641569934
  0
INSERT
  5
30
100
AcDbEntity
  8
1
100
AcDbBlockReference
  2
HL_850_BRANDSCHUTZELEMT__2
 10
207.122377
 20
-223.82985099999999
  0
ENDSEC
  0
SECTION
  2
OBJECTS
  0
DICTIONARY
  5
19
100
AcDbDictionary
  3
ACAD_GROUP
350
1A
  3
ACAD_MLINESTYLE
350
1B
  0
DICTIONARY
  5
1A
102
{ACAD_REACTORS
330
19
102
}
100
AcDbDictionary
  0
DICTIONARY
  5
1B
102
{ACAD_REACTORS
330
19
102
}
100
AcDbDictionary
  3
STANDARD
350
1C
  0
MLINESTYLE
  5
1C
102
{ACAD_REACTORS
330
1B
102
}
100
AcDbMlineStyle
  2
STANDARD
 70
             0
  3

 62
             0
 51
90.0
 52
90.0
 71
             2
 49
0.5
 62
           256
  6
BYLAYER
 49
-0.5
 62
           256
  6
BYLAYER
  0
ENDSEC
  0
EOF
