  0
SECTION
  2
HEADER
  9
$ACADVER
  1
AC1015
  9
$ACADMAINTVER
 70
     6
  9
$DWGCODEPAGE
  3
ANSI_1252
  9
$INSBASE
 10
0.0
 20
0.0
 30
0.0
  9
$EXTMIN
 10
-343.3742789876177
 20
425.031389667038
 30
0.0
  9
$EXTMAX
 10
66.6257210123824
 20
710.0313896670382
 30
0.0
  9
$LIMMIN
 10
0.0
 20
0.0
  9
$LIMMAX
 10
12.0
 20
9.0
  9
$ORTHOMODE
 70
     0
  9
$REGENMODE
 70
     1
  9
$FILLMODE
 70
     1
  9
$QTEXTMODE
 70
     0
  9
$MIRRTEXT
 70
     1
  9
$LTSCALE
 40
1.0
  9
$ATTMODE
 70
     1
  9
$TEXTSIZE
 40
0.2
  9
$TRACEWID
 40
0.05
  9
$TEXTSTYLE
  7
Standard
  9
$CLAYER
  8
0
  9
$CELTYPE
  6
ByLayer
  9
$CECOLOR
 62
   256
  9
$CELTSCALE
 40
1.0
  9
$DISPSILH
 70
     0
  9
$DIMSCALE
 40
1.0
  9
$DIMASZ
 40
0.18
  9
$DIMEXO
 40
0.0625
  9
$DIMDLI
 40
0.38
  9
$DIMRND
 40
0.0
  9
$DIMDLE
 40
0.0
  9
$DIMEXE
 40
0.18
  9
$DIMTP
 40
0.0
  9
$DIMTM
 40
0.0
  9
$DIMTXT
 40
0.18
  9
$DIMCEN
 40
0.09
  9
$DIMTSZ
 40
0.0
  9
$DIMTOL
 70
     0
  9
$DIMLIM
 70
     0
  9
$DIMTIH
 70
     1
  9
$DIMTOH
 70
     1
  9
$DIMSE1
 70
     0
  9
$DIMSE2
 70
     0
  9
$DIMTAD
 70
     0
  9
$DIMZIN
 70
     0
  9
$DIMBLK
  1

  9
$DIMASO
 70
     1
  9
$DIMSHO
 70
     1
  9
$DIMPOST
  1

  9
$DIMAPOST
  1

  9
$DIMALT
 70
     0
  9
$DIMALTD
 70
     2
  9
$DIMALTF
 40
25.4
  9
$DIMLFAC
 40
1.0
  9
$DIMTOFL
 70
     0
  9
$DIMTVP
 40
0.0
  9
$DIMTIX
 70
     0
  9
$DIMSOXD
 70
     0
  9
$DIMSAH
 70
     0
  9
$DIMBLK1
  1

  9
$DIMBLK2
  1

  9
$DIMSTYLE
  2
Standard
  9
$DIMCLRD
 70
     0
  9
$DIMCLRE
 70
     0
  9
$DIMCLRT
 70
     0
  9
$DIMTFAC
 40
1.0
  9
$DIMGAP
 40
0.09
  9
$DIMJUST
 70
     0
  9
$DIMSD1
 70
     0
  9
$DIMSD2
 70
     0
  9
$DIMTOLJ
 70
     1
  9
$DIMTZIN
 70
     0
  9
$DIMALTZ
 70
     0
  9
$DIMALTTZ
 70
     0
  9
$DIMUPT
 70
     0
  9
$DIMDEC
 70
     4
  9
$DIMTDEC
 70
     4
  9
$DIMALTU
 70
     2
  9
$DIMALTTD
 70
     2
  9
$DIMTXSTY
  7
Standard
  9
$DIMAUNIT
 70
     0
  9
$DIMADEC
 70
     0
  9
$DIMALTRND
 40
0.0
  9
$DIMAZIN
 70
     0
  9
$DIMDSEP
 70
    46
  9
$DIMATFIT
 70
     3
  9
$DIMFRAC
 70
     0
  9
$DIMLDRBLK
  1

  9
$DIMLUNIT
 70
     2
  9
$DIMLWD
 70
    -2
  9
$DIMLWE
 70
    -2
  9
$DIMTMOVE
 70
     0
  9
$LUNITS
 70
     2
  9
$LUPREC
 70
     4
  9
$SKETCHINC
 40
0.1
  9
$FILLETRAD
 40
0.5
  9
$AUNITS
 70
     0
  9
$AUPREC
 70
     0
  9
$MENU
  1
.
  9
$ELEVATION
 40
0.0
  9
$PELEVATION
 40
0.0
  9
$THICKNESS
 40
0.0
  9
$LIMCHECK
 70
     0
  9
$CHAMFERA
 40
0.0
  9
$CHAMFERB
 40
0.0
  9
$CHAMFERC
 40
0.0
  9
$CHAMFERD
 40
0.0
  9
$SKPOLY
 70
     0
  9
$TDCREATE
 40
2458442.404497453
  9
$TDUCREATE
 40
2458442.362830787
  9
$TDUPDATE
 40
2458442.404498623
  9
$TDUUPDATE
 40
2458442.362831956
  9
$TDINDWG
 40
0.0000000116
  9
$TDUSRTIMER
 40
0.0000000116
  9
$USRTIMER
 70
     1
  9
$ANGBASE
 50
0.0
  9
$ANGDIR
 70
     0
  9
$PDMODE
 70
     0
  9
$PDSIZE
 40
0.0
  9
$PLINEWID
 40
0.0
  9
$SPLFRAME
 70
     0
  9
$SPLINETYPE
 70
     6
  9
$SPLINESEGS
 70
     8
  9
$HANDSEED
  5
486
  9
$SURFTAB1
 70
     6
  9
$SURFTAB2
 70
     6
  9
$SURFTYPE
 70
     6
  9
$SURFU
 70
     6
  9
$SURFV
 70
     6
  9
$UCSBASE
  2

  9
$UCSNAME
  2

  9
$UCSORG
 10
0.0
 20
0.0
 30
0.0
  9
$UCSXDIR
 10
1.0
 20
0.0
 30
0.0
  9
$UCSYDIR
 10
0.0
 20
1.0
 30
0.0
  9
$UCSORTHOREF
  2

  9
$UCSORTHOVIEW
 70
     0
  9
$UCSORGTOP
 10
0.0
 20
0.0
 30
0.0
  9
$UCSORGBOTTOM
 10
0.0
 20
0.0
 30
0.0
  9
$UCSORGLEFT
 10
0.0
 20
0.0
 30
0.0
  9
$UCSORGRIGHT
 10
0.0
 20
0.0
 30
0.0
  9
$UCSORGFRONT
 10
0.0
 20
0.0
 30
0.0
  9
$UCSORGBACK
 10
0.0
 20
0.0
 30
0.0
  9
$PUCSBASE
  2

  9
$PUCSNAME
  2

  9
$PUCSORG
 10
0.0
 20
0.0
 30
0.0
  9
$PUCSXDIR
 10
1.0
 20
0.0
 30
0.0
  9
$PUCSYDIR
 10
0.0
 20
1.0
 30
0.0
  9
$PUCSORTHOREF
  2

  9
$PUCSORTHOVIEW
 70
     0
  9
$PUCSORGTOP
 10
0.0
 20
0.0
 30
0.0
  9
$PUCSORGBOTTOM
 10
0.0
 20
0.0
 30
0.0
  9
$PUCSORGLEFT
 10
0.0
 20
0.0
 30
0.0
  9
$PUCSORGRIGHT
 10
0.0
 20
0.0
 30
0.0
  9
$PUCSORGFRONT
 10
0.0
 20
0.0
 30
0.0
  9
$PUCSORGBACK
 10
0.0
 20
0.0
 30
0.0
  9
$USERI1
 70
     0
  9
$USERI2
 70
     0
  9
$USERI3
 70
     0
  9
$USERI4
 70
     0
  9
$USERI5
 70
     0
  9
$USERR1
 40
20.0
  9
$USERR2
 40
0.0
  9
$USERR3
 40
0.0
  9
$USERR4
 40
0.0
  9
$USERR5
 40
0.0
  9
$WORLDVIEW
 70
     1
  9
$SHADEDGE
 70
     3
  9
$SHADEDIF
 70
    70
  9
$TILEMODE
 70
     1
  9
$MAXACTVP
 70
    64
  9
$PINSBASE
 10
0.0
 20
0.0
 30
0.0
  9
$PLIMCHECK
 70
     0
  9
$PEXTMIN
 10
1.00000000000000E+20
 20
1.00000000000000E+20
 30
1.00000000000000E+20
  9
$PEXTMAX
 10
-1.00000000000000E+20
 20
-1.00000000000000E+20
 30
-1.00000000000000E+20
  9
$PLIMMIN
 10
0.0
 20
0.0
  9
$PLIMMAX
 10
12.0
 20
9.0
  9
$UNITMODE
 70
     0
  9
$VISRETAIN
 70
     1
  9
$PLINEGEN
 70
     0
  9
$PSLTSCALE
 70
     1
  9
$TREEDEPTH
 70
  3020
  9
$CMLSTYLE
  2
Standard
  9
$CMLJUST
 70
     0
  9
$CMLSCALE
 40
1.0
  9
$PROXYGRAPHICS
 70
     1
  9
$MEASUREMENT
 70
     1
  9
$CELWEIGHT
370
    -1
  9
$ENDCAPS
280
     0
  9
$JOINSTYLE
280
     0
  9
$LWDISPLAY
290
     0
  9
$INSUNITS
 70
     4
  9
$HYPERLINKBASE
  1

  9
$STYLESHEET
  1

  9
$XEDIT
290
     1
  9
$CEPSNTYPE
380
     0
  9
$PSTYLEMODE
290
     1
  9
$FINGERPRINTGUID
  2
{A6A068B9-EA4A-4937-BE84-58E384F44EEE}
  9
$VERSIONGUID
  2
{FAEB1C32-E019-11D5-929B-00C0DF256EC4}
  9
$EXTNAMES
290
     1
  9
$PSVPSCALE
 40
0.0
  9
$OLESTARTUP
290
     0
  0
ENDSEC
  0
SECTION
  2
CLASSES
  0
CLASS
  1
ACDBDICTIONARYWDFLT
  2
AcDbDictionaryWithDefault
  3
ObjectDBX Classes
 90
        0
280
     0
281
     0
  0
CLASS
  1
VISUALSTYLE
  2
AcDbVisualStyle
  3
ObjectDBX Classes
 90
     4095
280
     0
281
     0
  0
CLASS
  1
MATERIAL
  2
AcDbMaterial
  3
ObjectDBX Classes
 90
     1153
280
     0
281
     0
  0
CLASS
  1
SCALE
  2
AcDbScale
  3
ObjectDBX Classes
 90
     1153
280
     0
281
     0
  0
CLASS
  1
TABLESTYLE
  2
AcDbTableStyle
  3
ObjectDBX Classes
 90
     4095
280
     0
281
     0
  0
CLASS
  1
MLEADERSTYLE
  2
AcDbMLeaderStyle
  3
ACDB_MLEADERSTYLE_CLASS
 90
     4095
280
     0
281
     0
  0
CLASS
  1
SUN
  2
AcDbSun
  3
SCENEOE
 90
     1153
280
     0
281
     0
  0
CLASS
  1
DICTIONARYVAR
  2
AcDbDictionaryVar
  3
ObjectDBX Classes
 90
        0
280
     0
281
     0
  0
CLASS
  1
ACDBPLACEHOLDER
  2
AcDbPlaceHolder
  3
ObjectDBX Classes
 90
        0
280
     0
281
     0
  0
CLASS
  1
LAYOUT
  2
AcDbLayout
  3
ObjectDBX Classes
 90
        0
280
     0
281
     0
  0
ENDSEC
  0
SECTION
  2
TABLES
  0
TABLE
  2
VPORT
  5
8
102
{ACAD_XDICTIONARY
360
449
102
}
330
0
100
AcDbSymbolTable
 70
     1
  0
VPORT
  5
29
330
8
100
AcDbSymbolTableRecord
100
AcDbViewportTableRecord
  2
*Active
 70
     0
 10
0.0
 20
0.0
 11
1.0
 21
1.0
 12
-138.3742789876176
 22
567.5313896670381
 13
0.0
 23
0.0
 14
0.5
 24
0.5
 15
0.5
 25
0.5
 16
0.0
 26
0.0
 36
1.0
 17
0.0
 27
0.0
 37
0.0
 40
313.5000000000002
 41
1.60267857142857
 42
50.0
 43
0.0
 44
0.0
 50
0.0
 51
0.0
 71
     0
 72
   100
 73
     1
 74
     3
 75
     0
 76
     0
 77
     0
 78
     0
281
     0
 65
     1
110
0.0
120
0.0
130
0.0
111
1.0
121
0.0
131
0.0
112
0.0
122
1.0
132
0.0
 79
     0
146
0.0
  0
ENDTAB
  0
TABLE
  2
LTYPE
  5
5
330
0
100
AcDbSymbolTable
 70
    10
  0
LTYPE
  5
14
330
5
100
AcDbSymbolTableRecord
100
AcDbLinetypeTableRecord
  2
ByBlock
 70
     0
  3

 72
    65
 73
     0
 40
0.0
  0
LTYPE
  5
15
330
5
100
AcDbSymbolTableRecord
100
AcDbLinetypeTableRecord
  2
ByLayer
 70
     0
  3

 72
    65
 73
     0
 40
0.0
  0
LTYPE
  5
16
330
5
100
AcDbSymbolTableRecord
100
AcDbLinetypeTableRecord
  2
Continuous
 70
     0
  3
Solid line
 72
    65
 73
     0
 40
0.0
  0
LTYPE
  5
6E
330
5
100
AcDbSymbolTableRecord
100
AcDbLinetypeTableRecord
  2
DASHED
 70
     0
  3
Dashed
 72
    65
 73
     2
 40
15.0
 49
7.0
 74
     0
 49
-8.0
 74
     0
  0
LTYPE
  5
6F
330
5
100
AcDbSymbolTableRecord
100
AcDbLinetypeTableRecord
  2
DOTTED
 70
     0
  3
Dotted
 72
    65
 73
     2
 40
1.0
 49
0.0
 74
     0
 49
-1.0
 74
     0
  0
LTYPE
  5
70
330
5
100
AcDbSymbolTableRecord
100
AcDbLinetypeTableRecord
  2
DOT_CENTER
 70
     0
  3
Dot_Center
 72
    65
 73
     4
 40
14.0
 49
12.0
 74
     0
 49
-1.0
 74
     0
 49
0.0
 74
     0
 49
-1.0
 74
     0
  0
LTYPE
  5
71
330
5
100
AcDbSymbolTableRecord
100
AcDbLinetypeTableRecord
  2
LONG_DASHED
 70
     0
  3
Long_Dashed
 72
    65
 73
     2
 40
15.0
 49
10.0
 74
     0
 49
-5.0
 74
     0
  0
LTYPE
  5
72
330
5
100
AcDbSymbolTableRecord
100
AcDbLinetypeTableRecord
  2
DASH_CENTER
 70
     0
  3
Dash_Center
 72
    65
 73
     4
 40
14.0
 49
11.0
 74
     0
 49
-1.0
 74
     0
 49
1.0
 74
     0
 49
-1.0
 74
     0
  0
LTYPE
  5
73
330
5
100
AcDbSymbolTableRecord
100
AcDbLinetypeTableRecord
  2
PHANTOM
 70
     0
  3
Phantom
 72
    65
 73
     6
 40
13.0
 49
10.0
 74
     0
 49
-1.0
 74
     0
 49
0.0
 74
     0
 49
-1.0
 74
     0
 49
0.0
 74
     0
 49
-1.0
 74
     0
  0
LTYPE
  5
74
330
5
100
AcDbSymbolTableRecord
100
AcDbLinetypeTableRecord
  2
CENTER_DASH_DASH
 70
     0
  3
Center_Dash_Dash
 72
    65
 73
     6
 40
14.0
 49
9.0
 74
     0
 49
-1.0
 74
     0
 49
1.0
 74
     0
 49
-1.0
 74
     0
 49
1.0
 74
     0
 49
-1.0
 74
     0
  0
LTYPE
  5
75
330
5
100
AcDbSymbolTableRecord
100
AcDbLinetypeTableRecord
  2
CENTER
 70
     0
  3
CENTER
 72
    65
 73
     4
 40
9.0
 49
5.0
 74
     0
 49
-2.0
 74
     0
 49
0.0
 74
     0
 49
-2.0
 74
     0
  0
LTYPE
  5
76
330
5
100
AcDbSymbolTableRecord
100
AcDbLinetypeTableRecord
  2
DASHDOT_6
 70
     0
  3
DASHDOT_6
 72
    65
 73
     4
 40
16.0
 49
10.0
 74
     0
 49
-3.0
 74
     0
 49
0.0
 74
     0
 49
-3.0
 74
     0
  0
ENDTAB
  0
TABLE
  2
LAYER
  5
2
330
0
100
AcDbSymbolTable
 70
    11
  0
LAYER
  5
10
330
2
100
AcDbSymbolTableRecord
100
AcDbLayerTableRecord
  2
0
 70
     0
 62
     7
  6
Continuous
370
    -3
390
F
  0
LAYER
  5
77
330
2
100
AcDbSymbolTableRecord
100
AcDbLayerTableRecord
  2
1
 70
     0
 62
     7
  6
Continuous
370
    -3
390
F
  0
LAYER
  5
78
330
2
100
AcDbSymbolTableRecord
100
AcDbLayerTableRecord
  2
GEO
 70
     0
 62
     7
  6
Continuous
370
    -3
390
F
  0
LAYER
  5
79
330
2
100
AcDbSymbolTableRecord
100
AcDbLayerTableRecord
  2
LC-001-005-----0
 70
     0
 62
     7
  6
Continuous
370
    -3
390
F
  0
LAYER
  5
7A
330
2
100
AcDbSymbolTableRecord
100
AcDbLayerTableRecord
  2
LC-003-002-----0
 70
     0
 62
     7
  6
Continuous
370
    -3
390
F
  0
LAYER
  5
7B
330
2
100
AcDbSymbolTableRecord
100
AcDbLayerTableRecord
  2
LC-004-002-RND-0
 70
     0
 62
     7
  6
Continuous
370
    -3
390
F
  0
LAYER
  5
7C
330
2
100
AcDbSymbolTableRecord
100
AcDbLayerTableRecord
  2
LC-005-002-----0
 70
     0
 62
     7
  6
Continuous
370
    -3
390
F
  0
LAYER
  5
7D
330
2
100
AcDbSymbolTableRecord
100
AcDbLayerTableRecord
  2
LC-006-006-MLN-0
 70
     0
 62
     7
  6
Continuous
370
    -3
390
F
  0
LAYER
  5
7E
330
2
100
AcDbSymbolTableRecord
100
AcDbLayerTableRecord
  2
LC-007-003-----0
 70
     0
 62
     7
  6
Continuous
370
    -3
390
F
  0
LAYER
  5
7F
330
2
100
AcDbSymbolTableRecord
100
AcDbLayerTableRecord
  2
LC-008-002-----0
 70
     0
 62
     7
  6
Continuous
370
    -3
390
F
  0
LAYER
  5
80
330
2
100
AcDbSymbolTableRecord
100
AcDbLayerTableRecord
  2
TEXT
 70
     0
 62
     7
  6
Continuous
370
    -3
390
F
  0
ENDTAB
  0
TABLE
  2
STYLE
  5
3
330
0
100
AcDbSymbolTable
 70
     8
  0
STYLE
  5
11
330
3
100
AcDbSymbolTableRecord
100
AcDbTextStyleTableRecord
  2
Standard
 70
     0
 40
0.0
 41
1.0
 50
0.0
 71
     0
 42
0.2
  3
txt
  4

  0
STYLE
  5
B7
330
3
100
AcDbSymbolTableRecord
100
AcDbTextStyleTableRecord
  2
CONVERTER_11
 70
     0
 40
0.0
 41
0.72
 50
0.0
 71
     0
 42
0.2
  3
txt.shx
  4

  0
STYLE
  5
B9
330
3
100
AcDbSymbolTableRecord
100
AcDbTextStyleTableRecord
  2
CONVERTER_12
 70
     0
 40
0.0
 41
0.9
 50
0.0
 71
     0
 42
0.2
  3
txt.shx
  4

  0
STYLE
  5
BD
330
3
100
AcDbSymbolTableRecord
100
AcDbTextStyleTableRecord
  2
CONVERTER_13
 70
     0
 40
0.0
 41
0.81
 50
0.0
 71
     0
 42
0.2
  3
txt.shx
  4

  0
STYLE
  5
C0
330
3
100
AcDbSymbolTableRecord
100
AcDbTextStyleTableRecord
  2
CONVERTER_14
 70
     0
 40
0.0
 41
0.891
 50
0.0
 71
     0
 42
0.2
  3
txt.shx
  4

  0
STYLE
  5
CC
330
3
100
AcDbSymbolTableRecord
100
AcDbTextStyleTableRecord
  2
CONVERTER_15
 70
     0
 40
0.0
 41
0.855
 50
0.0
 71
     0
 42
0.2
  3
txt.shx
  4

  0
STYLE
  5
D4
330
3
100
AcDbSymbolTableRecord
100
AcDbTextStyleTableRecord
  2
CONVERTER_16
 70
     0
 40
0.0
 41
0.72
 50
5.0
 71
     0
 42
0.2
  3
txt.shx
  4

  0
STYLE
  5
D6
330
3
100
AcDbSymbolTableRecord
100
AcDbTextStyleTableRecord
  2
CONVERTER_17
 70
     0
 40
0.0
 41
0.855
 50
5.0
 71
     0
 42
0.2
  3
complex.shx
  4

  0
ENDTAB
  0
TABLE
  2
VIEW
  5
6
330
0
100
AcDbSymbolTable
 70
     0
  0
ENDTAB
  0
TABLE
  2
UCS
  5
7
330
0
100
AcDbSymbolTable
 70
     0
  0
ENDTAB
  0
TABLE
  2
APPID
  5
9
330
0
100
AcDbSymbolTable
 70
     2
  0
APPID
  5
12
330
9
100
AcDbSymbolTableRecord
100
AcDbRegAppTableRecord
  2
ACAD
 70
     0
  0
APPID
  5
483
330
9
100
AcDbSymbolTableRecord
100
AcDbRegAppTableRecord
  2
ACAD_MLEADERVER
 70
     0
  0
ENDTAB
  0
TABLE
  2
DIMSTYLE
  5
A
330
0
100
AcDbSymbolTable
 70
     9
100
AcDbDimStyleTable
  0
DIMSTYLE
105
27
330
A
100
AcDbSymbolTableRecord
100
AcDbDimStyleTableRecord
  2
Standard
 70
     0
178
     0
340
11
  0
DIMSTYLE
105
3F1
102
{ACAD_REACTORS
330
3F2
102
}
330
A
100
AcDbSymbolTableRecord
100
AcDbDimStyleTableRecord
  2
ME10_DIM_10
 70
     0
  3
Ø<>
 41
14.0
 42
0.0
 44
4.0
 73
     0
 74
     0
 77
     1
 78
     8
140
14.0
147
4.0
172
     1
173
     1
174
     1
175
     1
176
     4
177
     4
271
     1
178
     1
271
     1
340
B9
  0
DIMSTYLE
105
3FC
102
{ACAD_REACTORS
330
3FD
102
}
330
A
100
AcDbSymbolTableRecord
100
AcDbDimStyleTableRecord
  2
ME10_DIM_11
 70
     0
  3
Ø<>
 41
14.0
 42
0.0
 44
4.0
 73
     0
 74
     0
 77
     1
 78
     8
140
14.0
147
4.0
172
     1
173
     1
174
     1
175
     1
176
     4
177
     4
271
     2
178
     1
271
     2
340
B9
  0
DIMSTYLE
105
407
102
{ACAD_REACTORS
330
408
102
}
330
A
100
AcDbSymbolTableRecord
100
AcDbDimStyleTableRecord
  2
ME10_DIM_12
 70
     0
 41
14.0
 42
0.0
 44
4.0
 73
     0
 74
     0
 77
     1
 78
     8
140
14.0
147
4.0
172
     1
173
     1
174
     1
175
     1
176
     4
177
     4
271
     1
178
     1
271
     1
340
B9
  0
DIMSTYLE
105
414
102
{ACAD_REACTORS
330
415
102
}
330
A
100
AcDbSymbolTableRecord
100
AcDbDimStyleTableRecord
  2
ME10_DIM_13
 70
     0
 41
14.0
 42
0.0
 44
4.0
 73
     0
 74
     0
 77
     1
 78
     8
140
14.0
147
4.0
172
     1
173
     1
174
     1
175
     1
176
     4
177
     4
271
     0
178
     1
271
     0
340
B9
  0
DIMSTYLE
105
41F
102
{ACAD_REACTORS
330
420
102
}
330
A
100
AcDbSymbolTableRecord
100
AcDbDimStyleTableRecord
  2
ME10_DIM_14
 70
     0
 41
14.0
 42
0.0
 44
4.0
 73
     0
 74
     0
 77
     1
 78
     8
140
14.0
147
4.0
172
     1
173
     1
174
     1
175
     1
176
     4
177
     4
271
     0
178
     1
271
     0
340
B9
  0
DIMSTYLE
105
42A
102
{ACAD_REACTORS
330
42B
102
}
330
A
100
AcDbSymbolTableRecord
100
AcDbDimStyleTableRecord
  2
ME10_DIM_15
 70
     0
  3
Ø<>
 41
14.0
 42
0.0
 44
4.0
 73
     0
 74
     0
 77
     1
 78
     8
140
14.0
147
4.0
172
     1
173
     1
174
     1
175
     1
176
     4
177
     4
271
     1
178
     1
271
     1
340
B9
  0
DIMSTYLE
105
435
102
{ACAD_REACTORS
330
436
102
}
330
A
100
AcDbSymbolTableRecord
100
AcDbDimStyleTableRecord
  2
ME10_DIM_16
 70
     0
  3
Ø<>
 41
14.0
 42
0.0
 44
4.0
 73
     0
 74
     0
 77
     1
 78
     8
140
14.0
147
4.0
172
     1
173
     1
174
     1
175
     1
176
     4
177
     4
271
     1
178
     1
271
     1
340
B9
  0
DIMSTYLE
105
440
102
{ACAD_REACTORS
330
441
102
}
330
A
100
AcDbSymbolTableRecord
100
AcDbDimStyleTableRecord
  2
ME10_DIM_17
 70
     0
  3
Ø<>
 41
14.0
 42
0.0
 44
4.0
 73
     0
 74
     0
 77
     1
 78
     8
140
14.0
147
4.0
172
     1
173
     1
174
     1
175
     1
176
     4
177
     4
271
     0
178
     1
271
     0
340
B9
  0
ENDTAB
  0
TABLE
  2
BLOCK_RECORD
  5
1
330
0
100
AcDbSymbolTable
 70
    13
  0
BLOCK_RECORD
  5
1F
330
1
100
AcDbSymbolTableRecord
100
AcDbBlockTableRecord
  2
*Model_Space
340
22
  0
BLOCK_RECORD
  5
1B
330
1
100
AcDbSymbolTableRecord
100
AcDbBlockTableRecord
  2
*Paper_Space
340
1E
  0
BLOCK_RECORD
  5
23
330
1
100
AcDbSymbolTableRecord
100
AcDbBlockTableRecord
  2
*Paper_Space0
340
26
  0
BLOCK_RECORD
  5
81
330
1
100
AcDbSymbolTableRecord
100
AcDbBlockTableRecord
  2
DINA3_quer_Artikel
340
0
102
{BLKREFS
331
8B
102
}
  0
BLOCK_RECORD
  5
84
330
1
100
AcDbSymbolTableRecord
100
AcDbBlockTableRecord
  2
HL870__1
340
0
102
{BLKREFS
331
8C
102
}
  0
BLOCK_RECORD
  5
87
330
1
100
AcDbSymbolTableRecord
100
AcDbBlockTableRecord
  2
HL870__2
340
0
102
{BLKREFS
331
8D
102
}
  0
BLOCK_RECORD
  5
8A
330
1
100
AcDbSymbolTableRecord
100
AcDbBlockTableRecord
  2
HL870__3
340
0
102
{BLKREFS
331
90
102
}
  0
BLOCK_RECORD
  5
3E8
330
1
100
AcDbSymbolTableRecord
100
AcDbBlockTableRecord
  2
*D5
340
0
  0
BLOCK_RECORD
  5
3F3
330
1
100
AcDbSymbolTableRecord
100
AcDbBlockTableRecord
  2
*D6
340
0
  0
BLOCK_RECORD
  5
3FE
330
1
100
AcDbSymbolTableRecord
100
AcDbBlockTableRecord
  2
*D7
340
0
  0
BLOCK_RECORD
  5
409
330
1
100
AcDbSymbolTableRecord
100
AcDbBlockTableRecord
  2
*D8
340
0
  0
BLOCK_RECORD
  5
416
330
1
100
AcDbSymbolTableRecord
100
AcDbBlockTableRecord
  2
*D9
340
0
  0
BLOCK_RECORD
  5
421
330
1
100
AcDbSymbolTableRecord
100
AcDbBlockTableRecord
  2
*D10
340
0
  0
BLOCK_RECORD
  5
42C
330
1
100
AcDbSymbolTableRecord
100
AcDbBlockTableRecord
  2
*D11
340
0
  0
BLOCK_RECORD
  5
437
330
1
100
AcDbSymbolTableRecord
100
AcDbBlockTableRecord
  2
*D12
340
0
  0
ENDTAB
  0
ENDSEC
  0
SECTION
  2
BLOCKS
  0
BLOCK
  5
20
330
1F
100
AcDbEntity
  8
0
100
AcDbBlockBegin
  2
*Model_Space
 70
     0
 10
0.0
 20
0.0
 30
0.0
  3
*Model_Space
  1

  0
ENDBLK
  5
21
330
1F
100
AcDbEntity
  8
0
100
AcDbBlockEnd
  0
BLOCK
  5
1C
330
1B
100
AcDbEntity
 67
     1
  8
0
100
AcDbBlockBegin
  2
*Paper_Space
 70
     0
 10
0.0
 20
0.0
 30
0.0
  3
*Paper_Space
  1

  0
ENDBLK
  5
1D
330
1B
100
AcDbEntity
 67
     1
  8
0
100
AcDbBlockEnd
  0
BLOCK
  5
24
330
23
100
AcDbEntity
  8
0
100
AcDbBlockBegin
  2
*Paper_Space0
 70
     0
 10
0.0
 20
0.0
 30
0.0
  3
*Paper_Space0
  1

  0
ENDBLK
  5
25
330
23
100
AcDbEntity
  8
0
100
AcDbBlockEnd
  0
BLOCK
  5
82
330
81
100
AcDbEntity
  8
0
100
AcDbBlockBegin
  2
DINA3_quer_Artikel
 70
     0
 10
-138.3742789876176
 20
355.0156948335191
 30
0.0
  3
DINA3_quer_Artikel
  1

  0
LINE
  5
91
330
81
100
AcDbEntity
  8
1
  6
Continuous
 62
     7
100
AcDbLine
 10
6.6257210123824
 20
430.0313896670381
 30
0.0
 11
66.6257210123824
 21
430.0313896670381
 31
0.0
  0
LINE
  5
92
330
81
100
AcDbEntity
  8
1
  6
Continuous
 62
     7
100
AcDbLine
 10
6.6257210123824
 20
435.0313896670381
 30
0.0
 11
66.6257210123824
 21
435.0313896670381
 31
0.0
  0
LINE
  5
93
330
81
100
AcDbEntity
  8
1
  6
Continuous
 62
     7
100
AcDbLine
 10
6.6257210123824
 20
445.0313896670381
 30
0.0
 11
66.6257210123824
 21
445.0313896670381
 31
0.0
  0
LINE
  5
94
330
81
100
AcDbEntity
  8
1
  6
Continuous
 62
     7
100
AcDbLine
 10
6.6257210123824
 20
455.0313896670381
 30
0.0
 11
66.6257210123824
 21
455.0313896670381
 31
0.0
  0
LINE
  5
95
330
81
100
AcDbEntity
  8
1
  6
Continuous
 62
     7
100
AcDbLine
 10
6.6257210123824
 20
465.0313896670381
 30
0.0
 11
66.6257210123824
 21
465.0313896670381
 31
0.0
  0
LINE
  5
96
330
81
100
AcDbEntity
  8
1
  6
Continuous
 62
     7
100
AcDbLine
 10
6.6257210123824
 20
425.0313896670381
 30
0.0
 11
-78.3742789876176
 21
425.0313896670381
 31
0.0
  0
LINE
  5
97
330
81
100
AcDbEntity
  8
1
  6
Continuous
 62
     7
100
AcDbLine
 10
6.6257210123824
 20
465.0313896670381
 30
0.0
 11
6.6257210123824
 21
425.0313896670381
 31
0.0
  0
LINE
  5
98
330
81
100
AcDbEntity
  8
1
  6
Continuous
 62
     7
100
AcDbLine
 10
-78.3742789876176
 20
435.0313896670381
 30
0.0
 11
6.6257210123824
 21
435.0313896670381
 31
0.0
  0
LINE
  5
99
330
81
100
AcDbEntity
  8
1
  6
Continuous
 62
     7
100
AcDbLine
 10
-78.3742789876176
 20
445.0313896670381
 30
0.0
 11
6.6257210123824
 21
445.0313896670381
 31
0.0
  0
LINE
  5
9A
330
81
100
AcDbEntity
  8
1
  6
Continuous
 62
     7
100
AcDbLine
 10
-78.3742789876176
 20
445.0313896670381
 30
0.0
 11
-78.3742789876176
 21
425.0313896670381
 31
0.0
  0
LINE
  5
9B
330
81
100
AcDbEntity
  8
1
  6
Continuous
 62
     7
100
AcDbLine
 10
-78.3742789876176
 20
455.0313896670381
 30
0.0
 11
-78.3742789876176
 21
445.0313896670381
 31
0.0
  0
LINE
  5
9C
330
81
100
AcDbEntity
  8
1
  6
Continuous
 62
     7
100
AcDbLine
 10
-78.3742789876176
 20
455.0313896670381
 30
0.0
 11
6.6257210123824
 21
455.0313896670381
 31
0.0
  0
LINE
  5
9D
330
81
100
AcDbEntity
  8
1
  6
Continuous
 62
     7
100
AcDbLine
 10
-78.3742789876176
 20
465.0313896670381
 30
0.0
 11
6.6257210123824
 21
465.0313896670381
 31
0.0
  0
LINE
  5
9E
330
81
100
AcDbEntity
  8
1
  6
Continuous
 62
     7
100
AcDbLine
 10
-78.3742789876176
 20
425.0313896670381
 30
0.0
 11
-133.3742789876176
 21
425.031389667038
 31
0.0
  0
LINE
  5
9F
330
81
100
AcDbEntity
  8
1
  6
Continuous
 62
     7
100
AcDbLine
 10
-78.3742789876176
 20
465.0313896670381
 30
0.0
 11
-78.3742789876176
 21
455.0313896670381
 31
0.0
  0
LINE
  5
A0
330
81
100
AcDbEntity
  8
1
  6
Continuous
 62
     7
100
AcDbLine
 10
-133.3742789876176
 20
435.0313896670381
 30
0.0
 11
-78.3742789876176
 21
435.0313896670381
 31
0.0
  0
LINE
  5
A1
330
81
100
AcDbEntity
  8
1
  6
Continuous
 62
     7
100
AcDbLine
 10
-133.3742789876176
 20
440.0313896670381
 30
0.0
 11
-78.3742789876176
 21
440.0313896670381
 31
0.0
  0
LINE
  5
A2
330
81
100
AcDbEntity
  8
1
  6
Continuous
 62
     7
100
AcDbLine
 10
-133.3742789876176
 20
450.0313896670381
 30
0.0
 11
-100.3742789876176
 21
450.0313896670381
 31
0.0
  0
LINE
  5
A3
330
81
100
AcDbEntity
  8
1
  6
Continuous
 62
     7
100
AcDbLine
 10
-133.3742789876176
 20
455.0313896670381
 30
0.0
 11
-78.3742789876176
 21
455.0313896670381
 31
0.0
  0
LINE
  5
A4
330
81
100
AcDbEntity
  8
1
  6
Continuous
 62
     7
100
AcDbLine
 10
-133.3742789876176
 20
425.031389667038
 30
0.0
 11
-133.3742789876176
 21
465.0313896670381
 31
0.0
  0
LINE
  5
A5
330
81
100
AcDbEntity
  8
1
  6
Continuous
 62
     7
100
AcDbLine
 10
-133.3742789876176
 20
460.0313896670381
 30
0.0
 11
-78.3742789876176
 21
460.0313896670381
 31
0.0
  0
LINE
  5
A6
330
81
100
AcDbEntity
  8
1
  6
Continuous
 62
     7
100
AcDbLine
 10
66.6257210123824
 20
465.0313896670381
 30
0.0
 11
66.6257210123824
 21
425.0313896670381
 31
0.0
  0
LINE
  5
A7
330
81
100
AcDbEntity
  8
1
  6
Continuous
 62
     7
100
AcDbLine
 10
-133.3742789876176
 20
465.0313896670381
 30
0.0
 11
-78.3742789876176
 21
465.0313896670381
 31
0.0
  0
LINE
  5
A8
330
81
100
AcDbEntity
  8
1
  6
Continuous
 62
     7
100
AcDbLine
 10
66.6257210123824
 20
425.0313896670381
 30
0.0
 11
6.6257210123824
 21
425.0313896670381
 31
0.0
  0
LINE
  5
A9
330
81
100
AcDbEntity
  8
GEO
  6
Continuous
 62
     7
100
AcDbLine
 10
-100.3742789876176
 20
450.0313896670381
 30
0.0
 11
-100.3742789876176
 21
465.0313896670381
 31
0.0
  0
LINE
  5
AA
330
81
100
AcDbEntity
  8
GEO
  6
Continuous
 62
     7
100
AcDbLine
 10
-115.3742789876176
 20
445.0313896670381
 30
0.0
 11
-115.3742789876176
 21
465.0313896670381
 31
0.0
  0
LINE
  5
AB
330
81
100
AcDbEntity
  8
1
  6
Continuous
 62
     7
100
AcDbLine
 10
-100.3742789876176
 20
450.0313896670381
 30
0.0
 11
-78.3742789876176
 21
450.0313896670381
 31
0.0
  0
LINE
  5
AC
330
81
100
AcDbEntity
  8
1
  6
Continuous
 62
     7
100
AcDbLine
 10
6.6257210123824
 20
440.0313896670381
 30
0.0
 11
66.6257210123824
 21
440.0313896670381
 31
0.0
  0
LINE
  5
AD
330
81
100
AcDbEntity
  8
1
  6
Continuous
 62
     7
100
AcDbLine
 10
-133.3742789876176
 20
430.0313896670381
 30
0.0
 11
-78.3742789876176
 21
430.0313896670381
 31
0.0
  0
LINE
  5
AE
330
81
100
AcDbEntity
  8
1
  6
Continuous
 62
     7
100
AcDbLine
 10
-133.3742789876176
 20
445.0313896670381
 30
0.0
 11
-78.3742789876176
 21
445.0313896670381
 31
0.0
  0
LINE
  5
AF
330
81
100
AcDbEntity
  8
1
  6
Continuous
 62
     7
100
AcDbLine
 10
-138.3742789876176
 20
425.031389667038
 30
0.0
 11
-133.3742789876176
 21
425.031389667038
 31
0.0
  0
LINE
  5
B0
330
81
100
AcDbEntity
  8
1
  6
Continuous
 62
     7
100
AcDbLine
 10
-138.3742789876176
 20
425.031389667038
 30
0.0
 11
-138.3742789876176
 21
428.031389667038
 31
0.0
  0
LINE
  5
B1
330
81
100
AcDbEntity
  8
1
  6
Continuous
 62
     7
100
AcDbLine
 10
-138.3742789876176
 20
710.0313896670382
 30
0.0
 11
-343.3742789876177
 21
710.0313896670382
 31
0.0
  0
LINE
  5
B2
330
81
100
AcDbEntity
  8
1
  6
Continuous
 62
     7
100
AcDbLine
 10
-138.3742789876176
 20
710.0313896670382
 30
0.0
 11
-138.3742789876176
 21
707.0313896670382
 31
0.0
  0
LINE
  5
B3
330
81
100
AcDbEntity
  8
1
  6
Continuous
 62
     7
100
AcDbLine
 10
-343.3742789876176
 20
425.031389667038
 30
0.0
 11
-138.3742789876176
 21
425.031389667038
 31
0.0
  0
LINE
  5
B4
330
81
100
AcDbEntity
  8
1
  6
Continuous
 62
     7
100
AcDbLine
 10
-343.3742789876177
 20
710.0313896670382
 30
0.0
 11
-343.3742789876176
 21
425.031389667038
 31
0.0
  0
LINE
  5
B5
330
81
100
AcDbEntity
  8
1
  6
Continuous
 62
     7
100
AcDbLine
 10
66.6257210123824
 20
710.0313896670382
 30
0.0
 11
-138.3742789876176
 21
710.0313896670382
 31
0.0
  0
LINE
  5
B6
330
81
100
AcDbEntity
  8
1
  6
Continuous
 62
     7
100
AcDbLine
 10
66.6257210123824
 20
465.0313896670381
 30
0.0
 11
66.6257210123824
 21
710.0313896670382
 31
0.0
  0
MTEXT
  5
B8
330
81
100
AcDbEntity
  8
1
 62
     2
100
AcDbMText
 10
-97.4437655436819
 20
431.0313896670381
 30
0.0
 40
2.0
 41
0.0
 71
     9
 72
     1
  1
 
  7
CONVERTER_11
 73
     1
 44
1.32052821128451
  0
MTEXT
  5
BA
330
81
100
AcDbEntity
  8
1
 62
     1
100
AcDbMText
 10
54.7837211450461
 20
456.0313896670381
 30
0.0
 40
3.0
 41
0.0
 71
     9
 72
     1
  1
/
  7
CONVERTER_12
 73
     1
 44
0.90036014405762
  0
TEXT
  5
BB
330
81
100
AcDbEntity
  8
1
 62
     1
100
AcDbText
 10
56.0751803727962
 20
456.0313896670381
 30
0.0
 40
3.0
  1
1
 41
0.9
  7
CONVERTER_12
100
AcDbText
  0
TEXT
  5
BC
330
81
100
AcDbEntity
  8
1
 62
     1
100
AcDbText
 10
-99.8742789876176
 20
451.2813896670381
 30
0.0
 40
2.5
  1
Rehlicki
 41
0.72
  7
CONVERTER_11
100
AcDbText
  0
TEXT
  5
BE
330
81
100
AcDbEntity
  8
1
 62
     1
100
AcDbText
 10
-114.8742789876176
 20
451.2813896670381
 30
0.0
 40
2.5
  1
03.09.13
 41
0.81
  7
CONVERTER_13
100
AcDbText
  0
TEXT
  5
BF
330
81
100
AcDbEntity
  8
1
 62
     1
100
AcDbText
 10
-114.8742789876176
 20
456.2813896670381
 30
0.0
 40
2.5
  1
06.07.10
 41
0.81
  7
CONVERTER_13
100
AcDbText
  0
TEXT
  5
C1
330
81
100
AcDbEntity
  8
TEXT
 62
     5
100
AcDbText
 10
7.1257210123824
 20
426.0313896670381
 30
0.0
 40
3.0
  1
Gewicht:
 41
0.891
  7
CONVERTER_14
100
AcDbText
  0
TEXT
  5
C2
330
81
100
AcDbEntity
  8
TEXT
 62
     5
100
AcDbText
 10
-77.3742789876176
 20
432.5313896670381
 30
0.0
 40
2.0
  1
Bemerkung:
 41
0.891
  7
CONVERTER_14
100
AcDbText
  0
MTEXT
  5
C3
330
81
100
AcDbEntity
  8
TEXT
 62
     5
100
AcDbMText
 10
-77.3742789876176
 20
439.0313896670381
 30
0.0
 40
2.0
 41
0.0
 71
     7
 72
     1
  1
Benennung\PTeil:
  7
CONVERTER_14
 73
     1
 44
0.90036014405762
  0
TEXT
  5
C4
330
81
100
AcDbEntity
  8
TEXT
 62
     5
100
AcDbText
 10
-77.3742789876176
 20
452.5313896670381
 30
0.0
 40
2.0
  1
Benennung Artikel:
 41
0.891
  7
CONVERTER_14
100
AcDbText
  0
TEXT
  5
C5
330
81
100
AcDbEntity
  8
TEXT
 62
     5
100
AcDbText
 10
-132.8742789876176
 20
426.0313896670381
 30
0.0
 40
3.0
  1
 
 41
0.891
  7
CONVERTER_14
100
AcDbText
  0
MTEXT
  5
C6
330
81
100
AcDbEntity
  8
TEXT
 62
     5
100
AcDbMText
 10
-132.8742789876176
 20
431.0313896670381
 30
0.0
 40
3.0
 41
0.0
 71
     7
 72
     1
  1
Oberfl\U+00e4che:
  7
CONVERTER_14
 73
     1
 44
0.60024009603842
  0
TEXT
  5
C7
330
81
100
AcDbEntity
  8
TEXT
 62
     5
100
AcDbText
 10
7.1257210123824
 20
436.174246667038
 30
0.0
 40
3.0
  1
Werkstoff:
 41
0.891
  7
CONVERTER_14
100
AcDbText
  0
MTEXT
  5
C8
330
81
100
AcDbEntity
  8
TEXT
 62
     5
100
AcDbMText
 10
-132.8742789876176
 20
436.0313896670381
 30
0.0
 40
3.0
 41
0.0
 71
     7
 72
     1
  1
Ma\U+00dfstab:
  7
CONVERTER_14
 73
     1
 44
0.60024009603842
  0
TEXT
  5
C9
330
81
100
AcDbEntity
  8
TEXT
 62
     5
100
AcDbText
 10
-99.8742789876176
 20
461.0313896670381
 30
0.0
 40
3.0
  1
Name
 41
0.891
  7
CONVERTER_14
100
AcDbText
  0
TEXT
  5
CA
330
81
100
AcDbEntity
  8
TEXT
 62
     5
100
AcDbText
 10
-114.8742789876176
 20
461.0313896670381
 30
0.0
 40
3.0
  1
Datum
 41
0.891
  7
CONVERTER_14
100
AcDbText
  0
TEXT
  5
CB
330
81
100
AcDbEntity
  8
TEXT
 62
     5
100
AcDbText
 10
-132.8742789876176
 20
451.0313896670381
 30
0.0
 40
3.0
  1
Freigeg.:
 41
0.891
  7
CONVERTER_14
100
AcDbText
  0
TEXT
  5
CD
330
81
100
AcDbEntity
  8
TEXT
 62
     5
100
AcDbText
 10
7.1257210123824
 20
431.0313896670381
 30
0.0
 40
3.0
  1
Farbe:
 41
0.855
  7
CONVERTER_15
100
AcDbText
  0
TEXT
  5
CE
330
81
100
AcDbEntity
  8
TEXT
 62
     5
100
AcDbText
 10
7.1257210123824
 20
441.0313896670381
 30
0.0
 40
3.0
  1
Teilenummer:
 41
0.891
  7
CONVERTER_14
100
AcDbText
  0
TEXT
  5
CF
330
81
100
AcDbEntity
  8
TEXT
 62
     5
100
AcDbText
 10
7.1257210123824
 20
451.0313896670381
 30
0.0
 40
3.0
  1
Ersatz f. Zg.Nr.-Index-Blatt:
 41
0.81
  7
CONVERTER_13
100
AcDbText
  0
TEXT
  5
D0
330
81
100
AcDbEntity
  8
TEXT
 62
     5
100
AcDbText
 10
37.1257210123824
 20
456.0313896670381
 30
0.0
 40
3.0
  1
Blatt:
 41
0.891
  7
CONVERTER_14
100
AcDbText
  0
TEXT
  5
D1
330
81
100
AcDbEntity
  8
TEXT
 62
     5
100
AcDbText
 10
7.1257210123824
 20
456.1742466670381
 30
0.0
 40
3.0
  1
Index:
 41
0.891
  7
CONVERTER_14
100
AcDbText
  0
TEXT
  5
D2
330
81
100
AcDbEntity
  8
TEXT
 62
     5
100
AcDbText
 10
7.1257210123824
 20
461.0313896670381
 30
0.0
 40
3.0
  1
Zeichnung:
 41
0.891
  7
CONVERTER_14
100
AcDbText
  0
TEXT
  5
D3
330
81
100
AcDbEntity
  8
TEXT
 62
     5
100
AcDbText
 10
-132.8742789876176
 20
456.0313896670381
 30
0.0
 40
3.0
  1
Gez.:
 41
0.891
  7
CONVERTER_14
100
AcDbText
  0
MTEXT
  5
D5
330
81
100
AcDbEntity
  8
1
 62
     1
100
AcDbMText
 10
-35.9547798930119
 20
457.527955207473
 30
0.0
 40
3.0
 41
0.0
 71
     5
 72
     1
  1
Himberg bei Wien N.\U+00d6.
  7
CONVERTER_16
 73
     1
 44
0.90036014405762
  0
MTEXT
  5
D7
330
81
100
AcDbEntity
  8
1
 62
     1
100
AcDbMText
 10
-35.9547798930119
 20
462.027955207473
 30
0.0
 40
4.0
 41
0.0
 71
     5
 72
     1
  1
HL Hutterer u. Lechner GmbH
  7
CONVERTER_17
 73
     1
 44
0.90036014405762
  0
TEXT
  5
D8
330
81
100
AcDbEntity
  8
1
 62
     1
100
AcDbText
 10
31.48368904775836
 20
461.0313896670381
 30
0.0
 40
3.0
  1
HL870
 41
0.81
  7
CONVERTER_13
100
AcDbText
  0
TEXT
  5
D9
330
81
100
AcDbEntity
  8
1
 62
     1
100
AcDbText
 10
34.80182477818423
 20
441.0313896670381
 30
0.0
 40
3.0
  1
870
 41
0.9
  7
CONVERTER_12
100
AcDbText
  0
TEXT
  5
DA
330
81
100
AcDbEntity
  8
1
 62
     1
100
AcDbText
 10
25.37124070286222
 20
431.0313896670381
 30
0.0
 40
3.0
  1
 
 41
0.9
  7
CONVERTER_12
100
AcDbText
  0
TEXT
  5
DB
330
81
100
AcDbEntity
  8
1
 62
     1
100
AcDbText
 10
25.37124070286222
 20
426.0313896670381
 30
0.0
 40
3.0
  1
 
 41
0.9
  7
CONVERTER_12
100
AcDbText
  0
TEXT
  5
DC
330
81
100
AcDbEntity
  8
1
 62
     1
100
AcDbText
 10
20.6257210123824
 20
456.0313896670381
 30
0.0
 40
3.0
  1
a
 41
0.9
  7
CONVERTER_12
100
AcDbText
  0
MTEXT
  5
DD
330
81
100
AcDbEntity
  8
1
 62
     1
100
AcDbMText
 10
52.6257210123824
 20
456.0313896670381
 30
0.0
 40
3.0
 41
0.0
 71
     9
 72
     1
  1
1
  7
CONVERTER_12
 73
     1
 44
0.90036014405762
  0
TEXT
  5
DE
330
81
100
AcDbEntity
  8
1
 62
     1
100
AcDbText
 10
-110.36517985859
 20
436.0313896670381
 30
0.0
 40
3.0
  1
1:2
 41
0.9
  7
CONVERTER_12
100
AcDbText
  0
TEXT
  5
DF
330
81
100
AcDbEntity
  8
1
 62
     1
100
AcDbText
 10
29.99365558545853
 20
436.0313896670381
 30
0.0
 40
3.0
  1
 
 41
0.9
  7
CONVERTER_12
100
AcDbText
  0
MTEXT
  5
E0
330
81
100
AcDbEntity
  8
1
 62
     1
100
AcDbMText
 10
-59.47808070994491
 20
443.5313896670381
 30
0.0
 40
3.0
 41
0.0
 71
     1
 72
     1
  1
Brandschutzelement
  7
CONVERTER_15
 73
     1
 44
0.90036014405762
  0
MTEXT
  5
E1
330
81
100
AcDbEntity
  8
1
 62
     1
100
AcDbMText
 10
-59.47808070994491
 20
433.5313896670381
 30
0.0
 40
3.0
 41
0.0
 71
     1
 72
     1
  1
 
  7
CONVERTER_15
 73
     1
 44
0.90036014405762
  0
TEXT
  5
E2
330
81
100
AcDbEntity
  8
1
 62
     1
100
AcDbText
 10
-77.3742789876176
 20
447.0313896670381
 30
0.0
 40
3.0
  1
HL 870
 41
0.855
  7
CONVERTER_15
100
AcDbText
  0
TEXT
  5
E3
330
81
100
AcDbEntity
  8
TEXT
 62
     5
100
AcDbText
 10
-132.8742789876176
 20
446.0313896670381
 30
0.0
 40
3.0
  1
Status:
 41
0.891
  7
CONVERTER_14
100
AcDbText
  0
TEXT
  5
E4
330
81
100
AcDbEntity
  8
1
 62
     1
100
AcDbText
 10
-114.8742789876176
 20
446.0313896670381
 30
0.0
 40
3.0
  1
 
 41
0.9
  7
CONVERTER_12
100
AcDbText
  0
TEXT
  5
E5
330
81
100
AcDbEntity
  8
1
 62
     5
100
AcDbText
 10
-132.8742789876176
 20
426.0313896670381
 30
0.0
 40
3.0
  1
Toleranz:
 41
0.9
  7
CONVERTER_12
100
AcDbText
  0
TEXT
  5
E6
330
81
100
AcDbEntity
  8
1
 62
     1
100
AcDbText
 10
-111.4499097084415
 20
426.0313896670381
 30
0.0
 40
3.0
  1
 
 41
0.9
  7
CONVERTER_12
100
AcDbText
  0
TEXT
  5
E7
330
81
100
AcDbEntity
  8
1
 62
     1
100
AcDbText
 10
-99.8742789876176
 20
456.2813896670381
 30
0.0
 40
2.5
  1
Beck
 41
0.72
  7
CONVERTER_11
100
AcDbText
  0
TEXT
  5
E8
330
81
100
AcDbEntity
  8
TEXT
 62
     5
100
AcDbText
 10
7.1257210123824
 20
446.0313896670381
 30
0.0
 40
3.0
  1
 
 41
0.81
  7
CONVERTER_13
100
AcDbText
  0
ENDBLK
  5
83
330
81
100
AcDbEntity
  8
0
100
AcDbBlockEnd
  0
BLOCK
  5
85
330
84
100
AcDbEntity
  8
0
100
AcDbBlockBegin
  2
HL870__1
 70
     0
 10
-81.48012467948584
 20
1200.742963242498
 30
0.0
  3
HL870__1
  1

  0
LINE
  5
E9
330
84
100
AcDbEntity
  8
LC-003-002-----0
  6
Continuous
 62
     7
100
AcDbLine
 10
-230.9668591794859
 20
1195.007139656664
 30
0.0
 11
-230.9668591794859
 21
1220.007139656664
 31
0.0
  0
LINE
  5
EA
330
84
100
AcDbEntity
  8
LC-003-002-----0
  6
Continuous
 62
     7
100
AcDbLine
 10
-230.9668591794859
 20
1220.007139656664
 30
0.0
 11
-138.9040611794858
 21
1220.007139656664
 31
0.0
  0
LINE
  5
EB
330
84
100
AcDbEntity
  8
LC-003-002-----0
  6
Continuous
 62
     7
100
AcDbLine
 10
-230.9668591794859
 20
1195.007139656664
 30
0.0
 11
-138.9040611794858
 21
1195.007139656664
 31
0.0
  0
LINE
  5
EC
330
84
100
AcDbEntity
  8
LC-008-002-----0
  6
Continuous
 62
     3
100
AcDbLine
 10
-173.9668591794859
 20
1195.007139656664
 30
0.0
 11
-173.9668591794859
 21
1220.007139656664
 31
0.0
  0
LINE
  5
ED
330
84
100
AcDbEntity
  8
LC-003-002-----0
  6
Continuous
 62
     7
100
AcDbLine
 10
52.50660982051412
 20
1207.257139656664
 30
0.0
 11
67.44411082051411
 21
1207.257139656664
 31
0.0
  0
LINE
  5
EE
330
84
100
AcDbEntity
  8
LC-003-002-----0
  6
Continuous
 62
     7
100
AcDbLine
 10
49.20648982051412
 20
1182.190240656664
 30
0.0
 11
63.63500782051406
 21
1178.324130656664
 31
0.0
  0
LINE
  5
EF
330
84
100
AcDbEntity
  8
LC-003-002-----0
  6
Continuous
 62
     7
100
AcDbLine
 10
52.50660982051412
 20
1207.757139656664
 30
0.0
 11
67.44411082051411
 21
1207.757139656664
 31
0.0
  0
LINE
  5
F0
330
84
100
AcDbEntity
  8
LC-003-002-----0
  6
Continuous
 62
     7
100
AcDbLine
 10
49.07707982051412
 20
1233.307001656664
 30
0.0
 11
63.50559882051417
 21
1237.173111656664
 31
0.0
  0
LINE
  5
F1
330
84
100
AcDbEntity
  8
LC-003-002-----0
  6
Continuous
 62
     7
100
AcDbLine
 10
39.15161782051408
 20
1257.098645656664
 30
0.0
 11
52.08787382051415
 21
1264.567396656664
 31
0.0
  0
LINE
  5
F2
330
84
100
AcDbEntity
  8
LC-003-002-----0
  6
Continuous
 62
     7
100
AcDbLine
 10
23.40662782051416
 20
1277.510710656664
 30
0.0
 11
33.96903582051417
 21
1288.073119656664
 31
0.0
  0
LINE
  5
F3
330
84
100
AcDbEntity
  8
LC-003-002-----0
  6
Continuous
 62
     7
100
AcDbLine
 10
-20.92649117948585
 20
1302.957019656664
 30
0.0
 11
-17.06038117948592
 21
1317.385537656664
 31
0.0
  0
LINE
  5
F4
330
84
100
AcDbEntity
  8
LC-003-002-----0
  6
Continuous
 62
     7
100
AcDbLine
 10
-46.49339017948589
 20
1306.257139656664
 30
0.0
 11
-46.49339017948589
 21
1321.194640656664
 31
0.0
  0
LINE
  5
F5
330
84
100
AcDbEntity
  8
LC-003-002-----0
  6
Continuous
 62
     7
100
AcDbLine
 10
-72.04325217948585
 20
1302.827610656664
 30
0.0
 11
-75.9093621794859
 21
1317.256128656664
 31
0.0
  0
LINE
  5
F6
330
84
100
AcDbEntity
  8
LC-003-002-----0
  6
Continuous
 62
     7
100
AcDbLine
 10
-95.83489617948587
 20
1292.902148656664
 30
0.0
 11
-103.3036471794858
 21
1305.838403656664
 31
0.0
  0
LINE
  5
F7
330
84
100
AcDbEntity
  8
LC-003-002-----0
  6
Continuous
 62
     7
100
AcDbLine
 10
-116.2469611794858
 20
1277.157157656664
 30
0.0
 11
-126.8093701794858
 21
1287.719565656664
 31
0.0
  0
LINE
  5
F8
330
84
100
AcDbEntity
  8
LC-003-002-----0
  6
Continuous
 62
     7
100
AcDbLine
 10
-131.8883991794858
 20
1256.665633656664
 30
0.0
 11
-144.8246541794859
 21
1264.134383656664
 31
0.0
  0
LINE
  5
F9
330
84
100
AcDbEntity
  8
LC-003-002-----0
  6
Continuous
 62
     7
100
AcDbLine
 10
-141.6932701794859
 20
1232.824038656664
 30
0.0
 11
-156.1217881794858
 21
1236.690148656664
 31
0.0
  0
LINE
  5
FA
330
84
100
AcDbEntity
  8
LC-003-002-----0
  6
Continuous
 62
     7
100
AcDbLine
 10
-141.5638611794858
 20
1181.707277656664
 30
0.0
 11
-155.9923791794859
 21
1177.841167656664
 31
0.0
  0
LINE
  5
FB
330
84
100
AcDbEntity
  8
LC-003-002-----0
  6
Continuous
 62
     7
100
AcDbLine
 10
-131.6383991794858
 20
1157.915633656664
 30
0.0
 11
-144.5746541794859
 21
1150.446882656664
 31
0.0
  0
LINE
  5
FC
330
84
100
AcDbEntity
  8
LC-003-002-----0
  6
Continuous
 62
     7
100
AcDbLine
 10
-115.8934081794859
 20
1137.503568656664
 30
0.0
 11
-126.4558171794859
 21
1126.941159656664
 31
0.0
  0
LINE
  5
FD
330
84
100
AcDbEntity
  8
LC-003-002-----0
  6
Continuous
 62
     7
100
AcDbLine
 10
-95.4018841794859
 20
1121.862130656664
 30
0.0
 11
-102.8706341794859
 21
1108.925875656664
 31
0.0
  0
LINE
  5
FE
330
84
100
AcDbEntity
  8
LC-003-002-----0
  6
Continuous
 62
     7
100
AcDbLine
 10
-71.56028917948592
 20
1112.057259656664
 30
0.0
 11
-75.42639917948586
 21
1097.628741656664
 31
0.0
  0
LINE
  5
FF
330
84
100
AcDbEntity
  8
LC-003-002-----0
  6
Continuous
 62
     7
100
AcDbLine
 10
-45.99339017948589
 20
1108.757139656664
 30
0.0
 11
-45.99339017948589
 21
1093.819638656664
 31
0.0
  0
LINE
  5
100
330
84
100
AcDbEntity
  8
LC-003-002-----0
  6
Continuous
 62
     7
100
AcDbLine
 10
-20.44352817948593
 20
1112.186668656664
 30
0.0
 11
-16.57741817948588
 21
1097.758150656664
 31
0.0
  0
LINE
  5
101
330
84
100
AcDbEntity
  8
LC-003-002-----0
  6
Continuous
 62
     7
100
AcDbLine
 10
23.76018082051408
 20
1137.857121656664
 30
0.0
 11
34.32258982051408
 21
1127.294713656664
 31
0.0
  0
LINE
  5
102
330
84
100
AcDbEntity
  8
LC-003-002-----0
  6
Continuous
 62
     7
100
AcDbLine
 10
39.40161782051408
 20
1158.348645656664
 30
0.0
 11
52.33787382051415
 21
1150.879895656664
 31
0.0
  0
LINE
  5
103
330
84
100
AcDbEntity
  8
LC-003-002-----0
  6
Continuous
 62
     7
100
AcDbLine
 10
49.20648982051412
 20
1232.824038656664
 30
0.0
 11
63.63500782051406
 21
1236.690148656664
 31
0.0
  0
LINE
  5
104
330
84
100
AcDbEntity
  8
LC-003-002-----0
  6
Continuous
 62
     7
100
AcDbLine
 10
39.40161782051408
 20
1256.665633656664
 30
0.0
 11
52.33787382051415
 21
1264.134383656664
 31
0.0
  0
LINE
  5
105
330
84
100
AcDbEntity
  8
LC-003-002-----0
  6
Continuous
 62
     7
100
AcDbLine
 10
23.76018082051408
 20
1277.157157656664
 30
0.0
 11
34.32258982051408
 21
1287.719565656664
 31
0.0
  0
LINE
  5
106
330
84
100
AcDbEntity
  8
LC-003-002-----0
  6
Continuous
 62
     7
100
AcDbLine
 10
-20.44352817948593
 20
1302.827610656664
 30
0.0
 11
-16.57741817948588
 21
1317.256128656664
 31
0.0
  0
LINE
  5
107
330
84
100
AcDbEntity
  8
LC-003-002-----0
  6
Continuous
 62
     7
100
AcDbLine
 10
-45.99339017948589
 20
1306.257139656664
 30
0.0
 11
-45.99339017948589
 21
1321.194640656664
 31
0.0
  0
LINE
  5
108
330
84
100
AcDbEntity
  8
LC-003-002-----0
  6
Continuous
 62
     7
100
AcDbLine
 10
-71.56028917948592
 20
1302.957019656664
 30
0.0
 11
-75.42639917948586
 21
1317.385537656664
 31
0.0
  0
LINE
  5
109
330
84
100
AcDbEntity
  8
LC-003-002-----0
  6
Continuous
 62
     7
100
AcDbLine
 10
-95.4018841794859
 20
1293.152148656664
 30
0.0
 11
-102.8706341794859
 21
1306.088403656664
 31
0.0
  0
LINE
  5
10A
330
84
100
AcDbEntity
  8
LC-003-002-----0
  6
Continuous
 62
     7
100
AcDbLine
 10
-115.8934081794859
 20
1277.510710656664
 30
0.0
 11
-126.4558171794859
 21
1288.073119656664
 31
0.0
  0
LINE
  5
10B
330
84
100
AcDbEntity
  8
LC-003-002-----0
  6
Continuous
 62
     7
100
AcDbLine
 10
-131.6383991794858
 20
1257.098645656664
 30
0.0
 11
-144.5746541794859
 21
1264.567396656664
 31
0.0
  0
LINE
  5
10C
330
84
100
AcDbEntity
  8
LC-003-002-----0
  6
Continuous
 62
     7
100
AcDbLine
 10
-141.5638611794858
 20
1233.307001656664
 30
0.0
 11
-155.9923791794859
 21
1237.173111656664
 31
0.0
  0
LINE
  5
10D
330
84
100
AcDbEntity
  8
LC-003-002-----0
  6
Continuous
 62
     7
100
AcDbLine
 10
-141.6932701794859
 20
1182.190240656664
 30
0.0
 11
-156.1217881794858
 21
1178.324130656664
 31
0.0
  0
LINE
  5
10E
330
84
100
AcDbEntity
  8
LC-003-002-----0
  6
Continuous
 62
     7
100
AcDbLine
 10
-131.8883991794858
 20
1158.348645656664
 30
0.0
 11
-144.8246541794859
 21
1150.879895656664
 31
0.0
  0
LINE
  5
10F
330
84
100
AcDbEntity
  8
LC-003-002-----0
  6
Continuous
 62
     7
100
AcDbLine
 10
-116.2469611794858
 20
1137.857121656664
 30
0.0
 11
-126.8093701794858
 21
1127.294713656664
 31
0.0
  0
LINE
  5
110
330
84
100
AcDbEntity
  8
LC-003-002-----0
  6
Continuous
 62
     7
100
AcDbLine
 10
-95.83489617948587
 20
1122.112130656664
 30
0.0
 11
-103.3036471794858
 21
1109.175875656664
 31
0.0
  0
LINE
  5
111
330
84
100
AcDbEntity
  8
LC-003-002-----0
  6
Continuous
 62
     7
100
AcDbLine
 10
-72.04325217948585
 20
1112.186668656664
 30
0.0
 11
-75.9093621794859
 21
1097.758150656664
 31
0.0
  0
LINE
  5
112
330
84
100
AcDbEntity
  8
LC-003-002-----0
  6
Continuous
 62
     7
100
AcDbLine
 10
-46.49339017948589
 20
1108.757139656664
 30
0.0
 11
-46.49339017948589
 21
1093.819638656664
 31
0.0
  0
LINE
  5
113
330
84
100
AcDbEntity
  8
LC-003-002-----0
  6
Continuous
 62
     7
100
AcDbLine
 10
-20.92649117948585
 20
1112.057259656664
 30
0.0
 11
-17.06038117948592
 21
1097.628741656664
 31
0.0
  0
LINE
  5
114
330
84
100
AcDbEntity
  8
LC-003-002-----0
  6
Continuous
 62
     7
100
AcDbLine
 10
23.40662782051416
 20
1137.503568656664
 30
0.0
 11
33.96903582051417
 21
1126.941159656664
 31
0.0
  0
LINE
  5
115
330
84
100
AcDbEntity
  8
LC-003-002-----0
  6
Continuous
 62
     7
100
AcDbLine
 10
39.15161782051408
 20
1157.915633656664
 30
0.0
 11
52.08787382051415
 21
1150.446882656664
 31
0.0
  0
LINE
  5
116
330
84
100
AcDbEntity
  8
LC-003-002-----0
  6
Continuous
 62
     7
100
AcDbLine
 10
49.07707982051412
 20
1181.707277656664
 30
0.0
 11
63.50559882051417
 21
1177.841167656664
 31
0.0
  0
LINE
  5
117
330
84
100
AcDbEntity
  8
LC-003-002-----0
  6
Continuous
 62
     7
100
AcDbLine
 10
56.94366182051411
 20
1053.781922656664
 30
0.0
 11
35.29302682051414
 21
1041.281922656664
 31
0.0
  0
LINE
  5
118
330
84
100
AcDbEntity
  8
LC-003-002-----0
  6
Continuous
 62
     7
100
AcDbLine
 10
35.29302682051414
 20
1041.281922656664
 30
0.0
 11
-10.73837217948594
 21
1121.010644656664
 31
0.0
  0
LINE
  5
119
330
84
100
AcDbEntity
  8
LC-003-002-----0
  6
Continuous
 62
     7
100
AcDbLine
 10
56.94366182051411
 20
1053.781922656664
 30
0.0
 11
10.91226282051414
 21
1133.510644656664
 31
0.0
  0
LINE
  5
11A
330
84
100
AcDbEntity
  8
LC-008-002-----0
  6
Continuous
 62
     3
100
AcDbLine
 10
28.44366182051411
 20
1103.145370656664
 30
0.0
 11
6.79302682051414
 21
1090.645370656664
 31
0.0
  0
LINE
  5
11B
330
84
100
AcDbEntity
  8
LC-003-002-----0
  6
Continuous
 62
     7
100
AcDbLine
 10
35.29302682051414
 20
1373.732356656664
 30
0.0
 11
56.94366182051411
 21
1361.232356656664
 31
0.0
  0
LINE
  5
11C
330
84
100
AcDbEntity
  8
LC-003-002-----0
  6
Continuous
 62
     7
100
AcDbLine
 10
56.94366182051411
 20
1361.232356656664
 30
0.0
 11
10.91226282051414
 21
1281.503634656664
 31
0.0
  0
LINE
  5
11D
330
84
100
AcDbEntity
  8
LC-003-002-----0
  6
Continuous
 62
     7
100
AcDbLine
 10
35.29302682051414
 20
1373.732356656664
 30
0.0
 11
-10.73837217948594
 21
1294.003634656664
 31
0.0
  0
LINE
  5
11E
330
84
100
AcDbEntity
  8
LC-008-002-----0
  6
Continuous
 62
     3
100
AcDbLine
 10
6.79302682051414
 20
1324.368908656664
 30
0.0
 11
28.44366182051411
 21
1311.868908656664
 31
0.0
  0
LINE
  5
11F
330
84
100
AcDbEntity
  8
LC-008-002-----0
  6
Continuous
 62
     3
100
AcDbLine
 10
-141.0806361794859
 20
1220.007139656664
 30
0.0
 11
-141.0806361794859
 21
1195.007139656664
 31
0.0
  0
LINE
  5
120
330
84
100
AcDbEntity
  8
LC-008-002-----0
  6
Continuous
 62
     3
100
AcDbLine
 10
-9.6500851794859
 20
1119.125675656664
 30
0.0
 11
12.00054982051406
 21
1131.625675656664
 31
0.0
  0
LINE
  5
121
330
84
100
AcDbEntity
  8
LC-008-002-----0
  6
Continuous
 62
     3
100
AcDbLine
 10
12.00054982051406
 20
1283.388603656664
 30
0.0
 11
-9.6500851794859
 21
1295.888603656664
 31
0.0
  0
LINE
  5
122
330
84
100
AcDbEntity
  8
LC-003-002-----0
  6
DASHDOT_6
 62
     2
100
AcDbLine
 10
-230.9668591794859
 20
1207.507139656664
 30
0.0
 11
68.00660982051423
 21
1207.507139656664
 31
0.0
  0
LINE
  5
123
330
84
100
AcDbEntity
  8
LC-003-002-----0
  6
DASHDOT_6
 62
     2
100
AcDbLine
 10
46.11834382051407
 20
1367.482356656664
 30
0.0
 11
-46.24339017948589
 21
1207.507139656664
 31
0.0
  0
LINE
  5
124
330
84
100
AcDbEntity
  8
LC-003-002-----0
  6
DASHDOT_6
 62
     2
100
AcDbLine
 10
46.11834382051407
 20
1047.531922656664
 30
0.0
 11
-46.24339017948589
 21
1207.507139656664
 31
0.0
  0
LINE
  5
125
330
84
100
AcDbEntity
  8
LC-003-002-----0
  6
DASHDOT_6
 62
     2
100
AcDbLine
 10
-46.24339017948589
 20
1321.757139656664
 30
0.0
 11
-46.24339017948589
 21
1093.257139656664
 31
0.0
  0
ARC
  5
126
330
84
100
AcDbEntity
  8
LC-003-002-----0
  6
Continuous
 62
     7
100
AcDbCircle
 10
-46.24339017948589
 20
1207.507139656664
 30
0.0
 40
97.74999999999999
100
AcDbArc
 50
187.3469429999998
 51
292.6530569999999
  0
ARC
  5
127
330
84
100
AcDbEntity
  8
LC-003-002-----0
  6
Continuous
 62
     7
100
AcDbCircle
 10
-46.24339017948589
 20
1207.507139656664
 30
0.0
 40
98.74999999999984
100
AcDbArc
 50
187.2721400000003
 51
292.7278600000001
  0
ARC
  5
128
330
84
100
AcDbEntity
  8
LC-003-002-----0
  6
Continuous
 62
     7
100
AcDbCircle
 10
-46.24339017948589
 20
1207.507139656664
 30
0.0
 40
98.74999999999973
100
AcDbArc
 50
67.27213999999992
 51
172.7278599999999
  0
ARC
  5
129
330
84
100
AcDbEntity
  8
LC-003-002-----0
  6
Continuous
 62
     7
100
AcDbCircle
 10
-46.24339017948589
 20
1207.507139656664
 30
0.0
 40
97.75000000000011
100
AcDbArc
 50
67.34694300000001
 51
172.6530569999998
  0
ARC
  5
12A
330
84
100
AcDbEntity
  8
LC-003-002-----0
  6
Continuous
 62
     7
100
AcDbCircle
 10
-46.24339017948589
 20
1207.507139656664
 30
0.0
 40
98.75000000000018
100
AcDbArc
 50
307.2721399999998
 51
52.72786000000013
  0
ARC
  5
12B
330
84
100
AcDbEntity
  8
LC-003-002-----0
  6
Continuous
 62
     7
100
AcDbCircle
 10
-46.24339017948589
 20
1207.507139656664
 30
0.0
 40
97.74999999999983
100
AcDbArc
 50
307.3469430000001
 51
52.65305699999981
  0
ARC
  5
12C
330
84
100
AcDbEntity
  8
LC-003-002-----0
  6
Continuous
 62
     7
100
AcDbCircle
 10
-46.24339017948589
 20
1207.507139656664
 30
0.0
 40
113.6877760000039
100
AcDbArc
 50
345.1253740000008
 51
359.8746259999998
  0
ARC
  5
12D
330
84
100
AcDbEntity
  8
LC-003-002-----0
  6
Continuous
 62
     7
100
AcDbCircle
 10
-46.24339017948589
 20
1207.507139656664
 30
0.0
 40
113.6877759999972
100
AcDbArc
 50
0.12537400000006
 51
14.87462599999964
  0
ARC
  5
12E
330
84
100
AcDbEntity
  8
LC-003-002-----0
  6
Continuous
 62
     7
100
AcDbCircle
 10
-46.24339017948589
 20
1207.507139656664
 30
0.0
 40
113.6877760000039
100
AcDbArc
 50
15.12537399999934
 51
29.87462600000117
  0
ARC
  5
12F
330
84
100
AcDbEntity
  8
LC-003-002-----0
  6
Continuous
 62
     7
100
AcDbCircle
 10
-46.24339017948589
 20
1207.507139656664
 30
0.0
 40
113.6877759999968
100
AcDbArc
 50
30.12537400000091
 51
44.87462600000028
  0
ARC
  5
130
330
84
100
AcDbEntity
  8
LC-003-002-----0
  6
Continuous
 62
     7
100
AcDbCircle
 10
-46.24339017948589
 20
1207.507139656664
 30
0.0
 40
113.6877759999999
100
AcDbArc
 50
45.12537399999964
 51
53.68755200000005
  0
ARC
  5
131
330
84
100
AcDbEntity
  8
LC-003-002-----0
  6
Continuous
 62
     7
100
AcDbCircle
 10
-46.24339017948589
 20
1207.507139656664
 30
0.0
 40
113.6877759999997
100
AcDbArc
 50
66.31244799999995
 51
74.87462600000012
  0
ARC
  5
132
330
84
100
AcDbEntity
  8
LC-003-002-----0
  6
Continuous
 62
     7
100
AcDbCircle
 10
-46.24339017948589
 20
1207.507139656664
 30
0.0
 40
113.6877760000003
100
AcDbArc
 50
75.1253739999998
 51
89.87462599999989
  0
ARC
  5
133
330
84
100
AcDbEntity
  8
LC-003-002-----0
  6
Continuous
 62
     7
100
AcDbCircle
 10
-46.24339017948589
 20
1207.507139656664
 30
0.0
 40
113.687776
100
AcDbArc
 50
90.12537400000005
 51
104.8746260000002
  0
ARC
  5
134
330
84
100
AcDbEntity
  8
LC-003-002-----0
  6
Continuous
 62
     7
100
AcDbCircle
 10
-46.24339017948589
 20
1207.507139656664
 30
0.0
 40
113.6877759999999
100
AcDbArc
 50
105.1253739999999
 51
119.8746259999999
  0
ARC
  5
135
330
84
100
AcDbEntity
  8
LC-003-002-----0
  6
Continuous
 62
     7
100
AcDbCircle
 10
-46.24339017948589
 20
1207.507139656664
 30
0.0
 40
113.6877760000002
100
AcDbArc
 50
120.125374
 51
134.8746260000004
  0
ARC
  5
136
330
84
100
AcDbEntity
  8
LC-003-002-----0
  6
Continuous
 62
     7
100
AcDbCircle
 10
-46.24339017948589
 20
1207.507139656664
 30
0.0
 40
113.687776
100
AcDbArc
 50
135.1253739999997
 51
149.8746260000001
  0
ARC
  5
137
330
84
100
AcDbEntity
  8
LC-003-002-----0
  6
Continuous
 62
     7
100
AcDbCircle
 10
-46.24339017948589
 20
1207.507139656664
 30
0.0
 40
113.6877759999995
100
AcDbArc
 50
150.1253739999998
 51
164.8746260000001
  0
ARC
  5
138
330
84
100
AcDbEntity
  8
LC-003-002-----0
  6
Continuous
 62
     7
100
AcDbCircle
 10
-46.24339017948589
 20
1207.507139656664
 30
0.0
 40
113.6877760000002
100
AcDbArc
 50
165.1253739999999
 51
173.687552
  0
ARC
  5
139
330
84
100
AcDbEntity
  8
LC-003-002-----0
  6
Continuous
 62
     7
100
AcDbCircle
 10
-46.24339017948589
 20
1207.507139656664
 30
0.0
 40
113.6877759999997
100
AcDbArc
 50
186.3124480000002
 51
194.8746260000003
  0
ARC
  5
13A
330
84
100
AcDbEntity
  8
LC-003-002-----0
  6
Continuous
 62
     7
100
AcDbCircle
 10
-46.24339017948589
 20
1207.507139656664
 30
0.0
 40
113.6877759999999
100
AcDbArc
 50
195.125374
 51
209.8746259999999
  0
ARC
  5
13B
330
84
100
AcDbEntity
  8
LC-003-002-----0
  6
Continuous
 62
     7
100
AcDbCircle
 10
-46.24339017948589
 20
1207.507139656664
 30
0.0
 40
113.6877760000003
100
AcDbArc
 50
210.125374
 51
224.8746260000003
  0
ARC
  5
13C
330
84
100
AcDbEntity
  8
LC-003-002-----0
  6
Continuous
 62
     7
100
AcDbCircle
 10
-46.24339017948589
 20
1207.507139656664
 30
0.0
 40
113.687776
100
AcDbArc
 50
225.1253739999997
 51
239.8746260000001
  0
ARC
  5
13D
330
84
100
AcDbEntity
  8
LC-003-002-----0
  6
Continuous
 62
     7
100
AcDbCircle
 10
-46.24339017948589
 20
1207.507139656664
 30
0.0
 40
113.6877759999997
100
AcDbArc
 50
240.1253739999999
 51
254.8746260000001
  0
ARC
  5
13E
330
84
100
AcDbEntity
  8
LC-003-002-----0
  6
Continuous
 62
     7
100
AcDbCircle
 10
-46.24339017948589
 20
1207.507139656664
 30
0.0
 40
113.6877760000005
100
AcDbArc
 50
255.1253739999999
 51
269.8746259999999
  0
ARC
  5
13F
330
84
100
AcDbEntity
  8
LC-003-002-----0
  6
Continuous
 62
     7
100
AcDbCircle
 10
-46.24339017948589
 20
1207.507139656664
 30
0.0
 40
113.6877760000003
100
AcDbArc
 50
270.1253740000001
 51
284.8746260000001
  0
ARC
  5
140
330
84
100
AcDbEntity
  8
LC-003-002-----0
  6
Continuous
 62
     7
100
AcDbCircle
 10
-46.24339017948589
 20
1207.507139656664
 30
0.0
 40
113.6877760000001
100
AcDbArc
 50
285.1253739999999
 51
293.687552
  0
ARC
  5
141
330
84
100
AcDbEntity
  8
LC-003-002-----0
  6
Continuous
 62
     7
100
AcDbCircle
 10
-46.24339017948589
 20
1207.507139656664
 30
0.0
 40
113.6877759999997
100
AcDbArc
 50
306.3124479999999
 51
314.8746260000003
  0
ARC
  5
142
330
84
100
AcDbEntity
  8
LC-003-002-----0
  6
Continuous
 62
     7
100
AcDbCircle
 10
-46.24339017948589
 20
1207.507139656664
 30
0.0
 40
113.687776
100
AcDbArc
 50
315.1253739999997
 51
329.874625999999
  0
ARC
  5
143
330
84
100
AcDbEntity
  8
LC-003-002-----0
  6
Continuous
 62
     7
100
AcDbCircle
 10
-46.24339017948589
 20
1207.507139656664
 30
0.0
 40
113.6877759999961
100
AcDbArc
 50
330.1253739999988
 51
344.8746260000005
  0
CIRCLE
  5
144
330
84
100
AcDbEntity
  8
LC-003-002-----0
  6
Continuous
 62
     7
100
AcDbCircle
 10
-46.24339017948589
 20
1207.507139656664
 30
0.0
 40
81.00000000000001
  0
CIRCLE
  5
145
330
84
100
AcDbEntity
  8
LC-003-002-----0
  6
Continuous
 62
     7
100
AcDbCircle
 10
-46.24339017948589
 20
1207.507139656664
 30
0.0
 40
85.00000000000001
  0
CIRCLE
  5
146
330
84
100
AcDbEntity
  8
LC-003-002-----0
  6
Continuous
 62
     7
100
AcDbCircle
 10
-46.24339017948589
 20
1207.507139656664
 30
0.0
 40
93.50000000000001
  0
CIRCLE
  5
147
330
84
100
AcDbEntity
  8
LC-003-002-----0
  6
Continuous
 62
     7
100
AcDbCircle
 10
-46.24339017948589
 20
1207.507139656664
 30
0.0
 40
67.5
  0
ENDBLK
  5
86
330
84
100
AcDbEntity
  8
0
100
AcDbBlockEnd
  0
BLOCK
  5
88
330
87
100
AcDbEntity
  8
0
100
AcDbBlockBegin
  2
HL870__2
 70
     0
 10
-457.6642652038815
 20
987.9923981181391
 30
0.0
  3
HL870__2
  1

  0
POINT
  5
148
330
87
100
AcDbEntity
  8
LC-007-003-----0
 62
     7
100
AcDbPoint
 10
-535.889491766261
 20
1203.98778911078
 30
0.0
  0
POINT
  5
149
330
87
100
AcDbEntity
  8
LC-007-003-----0
 62
     7
100
AcDbPoint
 10
-540.139493766261
 20
1290.19242311078
 30
0.0
  0
POINT
  5
14A
330
87
100
AcDbEntity
  8
LC-007-003-----0
 62
     7
100
AcDbPoint
 10
-582.4657647662609
 20
1320.30542711078
 30
0.0
  0
POINT
  5
14B
330
87
100
AcDbEntity
  8
LC-007-003-----0
 62
     7
100
AcDbPoint
 10
-583.431690766261
 20
1320.04660811078
 30
0.0
  0
POINT
  5
14C
330
87
100
AcDbEntity
  8
LC-007-003-----0
 62
     7
100
AcDbPoint
 10
-568.827780766261
 20
1208.17805511078
 30
0.0
  0
POINT
  5
14D
330
87
100
AcDbEntity
  8
LC-007-003-----0
 62
     7
100
AcDbPoint
 10
-568.750134766261
 20
1208.46783311078
 30
0.0
  0
POINT
  5
14E
330
87
100
AcDbEntity
  8
LC-007-003-----0
 62
     7
100
AcDbPoint
 10
-535.889493766261
 20
1265.19242311078
 30
0.0
  0
POINT
  5
14F
330
87
100
AcDbEntity
  8
LC-007-003-----0
 62
     7
100
AcDbPoint
 10
-539.889493766261
 20
1261.19242311078
 30
0.0
  0
POINT
  5
150
330
87
100
AcDbEntity
  8
LC-007-003-----0
 62
     7
100
AcDbPoint
 10
-523.658094766261
 20
1130.98974711078
 30
0.0
  0
POINT
  5
151
330
87
100
AcDbEntity
  8
LC-007-003-----0
 62
     7
100
AcDbPoint
 10
-551.359914766261
 20
1203.99185711078
 30
0.0
  0
POINT
  5
152
330
87
100
AcDbEntity
  8
LC-007-003-----0
 62
     7
100
AcDbPoint
 10
-540.158100766261
 20
1196.99226411078
 30
0.0
  0
POINT
  5
153
330
87
100
AcDbEntity
  8
LC-007-003-----0
 62
     7
100
AcDbPoint
 10
-529.158100766261
 20
1130.98974711078
 30
0.0
  0
POINT
  5
154
330
87
100
AcDbEntity
  8
LC-007-003-----0
 62
     7
100
AcDbPoint
 10
-546.889847766261
 20
1203.99226411078
 30
0.0
  0
POINT
  5
155
330
87
100
AcDbEntity
  8
LC-007-003-----0
 62
     7
100
AcDbPoint
 10
-639.8629617662609
 20
1321.78778911078
 30
0.0
  0
POINT
  5
156
330
87
100
AcDbEntity
  8
LC-007-003-----0
 62
     7
100
AcDbPoint
 10
-534.4581007662609
 20
1136.98974711078
 30
0.0
  0
POINT
  5
157
330
87
100
AcDbEntity
  8
LC-007-003-----0
 62
     7
100
AcDbPoint
 10
-535.158100766261
 20
1136.98974711078
 30
0.0
  0
POINT
  5
158
330
87
100
AcDbEntity
  8
LC-007-003-----0
 62
     7
100
AcDbPoint
 10
-375.121239766261
 20
1136.98974711078
 30
0.0
  0
POINT
  5
159
330
87
100
AcDbEntity
  8
LC-007-003-----0
 62
     7
100
AcDbPoint
 10
-386.621245766261
 20
1131.68934011078
 30
0.0
  0
POINT
  5
15A
330
87
100
AcDbEntity
  8
LC-007-003-----0
 62
     7
100
AcDbPoint
 10
-356.389493766261
 20
1203.99226411078
 30
0.0
  0
POINT
  5
15B
330
87
100
AcDbEntity
  8
LC-007-003-----0
 62
     7
100
AcDbPoint
 10
-553.889847766261
 20
1203.99226411078
 30
0.0
  0
POINT
  5
15C
330
87
100
AcDbEntity
  8
LC-007-003-----0
 62
     7
100
AcDbPoint
 10
-375.121239766261
 20
1136.98974711078
 30
0.0
  0
POINT
  5
15D
330
87
100
AcDbEntity
  8
LC-007-003-----0
 62
     7
100
AcDbPoint
 10
-535.158100766261
 20
1136.98974711078
 30
0.0
  0
POINT
  5
15E
330
87
100
AcDbEntity
  8
LC-007-003-----0
 62
     7
100
AcDbPoint
 10
-386.621245766261
 20
1130.98974711078
 30
0.0
  0
POINT
  5
15F
330
87
100
AcDbEntity
  8
LC-007-003-----0
 62
     7
100
AcDbPoint
 10
-523.658094766261
 20
1130.98974711078
 30
0.0
  0
POINT
  5
160
330
87
100
AcDbEntity
  8
LC-007-003-----0
 62
     7
100
AcDbPoint
 10
-531.859493766261
 20
1198.98778911078
 30
0.0
  0
POINT
  5
161
330
87
100
AcDbEntity
  8
LC-007-003-----0
 62
     7
100
AcDbPoint
 10
-523.658094766261
 20
1204.21640811078
 30
0.0
  0
LINE
  5
162
330
87
100
AcDbEntity
  8
LC-005-002-----0
  6
Continuous
 62
     7
100
AcDbLine
 10
-376.515901766261
 20
1268.82157311078
 30
0.0
 11
-455.139493766261
 21
1268.82157311078
 31
0.0
  0
LINE
  5
163
330
87
100
AcDbEntity
  8
LC-005-002-----0
  6
Continuous
 62
     7
100
AcDbLine
 10
-365.639493766261
 20
1268.69242311078
 30
0.0
 11
-365.639493766261
 21
1267.69242311078
 31
0.0
  0
LINE
  5
164
330
87
100
AcDbEntity
  8
LC-005-002-----0
  6
Continuous
 62
     7
100
AcDbLine
 10
-365.639493766261
 20
1271.19242311078
 30
0.0
 11
-365.639493766261
 21
1269.69242311078
 31
0.0
  0
LINE
  5
165
330
87
100
AcDbEntity
  8
LC-005-002-----0
  6
Continuous
 62
     7
100
AcDbLine
 10
-371.521459766261
 20
1276.69242311078
 30
0.0
 11
-455.139493766261
 21
1276.69242311078
 31
0.0
  0
LINE
  5
166
330
87
100
AcDbEntity
  8
LC-005-002-----0
  6
Continuous
 62
     7
100
AcDbLine
 10
-365.639493766261
 20
1274.19242311078
 30
0.0
 11
-365.639493766261
 21
1272.19242311078
 31
0.0
  0
LINE
  5
167
330
87
100
AcDbEntity
  8
LC-005-002-----0
  6
Continuous
 62
     7
100
AcDbLine
 10
-371.139493766261
 20
1265.19242311078
 30
0.0
 11
-455.139493766261
 21
1265.19242311078
 31
0.0
  0
LINE
  5
168
330
87
100
AcDbEntity
  8
LC-005-002-----0
  6
Continuous
 62
     7
100
AcDbLine
 10
-371.521459766261
 20
1276.69242311078
 30
0.0
 11
-367.139493766261
 21
1276.69242311078
 31
0.0
  0
LINE
  5
169
330
87
100
AcDbEntity
  8
LC-005-002-----0
  6
Continuous
 62
     7
100
AcDbLine
 10
-376.963115766261
 20
1269.54518011078
 30
0.0
 11
-372.415886766261
 21
1276.13963711078
 31
0.0
  0
LINE
  5
16A
330
87
100
AcDbEntity
  8
LC-005-002-----0
  6
Continuous
 62
     7
100
AcDbLine
 10
-372.643446766261
 20
1270.26799611078
 30
0.0
 11
-376.190506766261
 21
1268.94194411078
 31
0.0
  0
LINE
  5
16B
330
87
100
AcDbEntity
  8
LC-005-002-----0
  6
Continuous
 62
     7
100
AcDbLine
 10
-372.139493766261
 20
1266.19242311078
 30
0.0
 11
-371.819953766261
 21
1269.84479011078
 31
0.0
  0
LINE
  5
16C
330
87
100
AcDbEntity
  8
LC-005-002-----0
  6
Continuous
 62
     7
100
AcDbLine
 10
-367.139493766261
 20
1265.19242311078
 30
0.0
 11
-371.139493766261
 21
1265.19242311078
 31
0.0
  0
LINE
  5
16D
330
87
100
AcDbEntity
  8
LC-005-002-----0
  6
Continuous
 62
     7
100
AcDbLine
 10
-365.139493766261
 20
1271.69242311078
 30
0.0
 11
-365.639493766261
 21
1271.19242311078
 31
0.0
  0
LINE
  5
16E
330
87
100
AcDbEntity
  8
LC-005-002-----0
  6
Continuous
 62
     7
100
AcDbLine
 10
-365.639493766261
 20
1269.69242311078
 30
0.0
 11
-365.139493766261
 21
1269.19242311078
 31
0.0
  0
LINE
  5
16F
330
87
100
AcDbEntity
  8
LC-005-002-----0
  6
Continuous
 62
     7
100
AcDbLine
 10
-365.639493766261
 20
1272.19242311078
 30
0.0
 11
-365.139493766261
 21
1271.69242311078
 31
0.0
  0
LINE
  5
170
330
87
100
AcDbEntity
  8
LC-005-002-----0
  6
Continuous
 62
     7
100
AcDbLine
 10
-365.139493766261
 20
1269.19242311078
 30
0.0
 11
-365.639493766261
 21
1268.69242311078
 31
0.0
  0
LINE
  5
171
330
87
100
AcDbEntity
  8
LC-005-002-----0
  6
Continuous
 62
     7
100
AcDbLine
 10
-365.639493766261
 20
1267.69242311078
 30
0.0
 11
-365.139493766261
 21
1267.19242311078
 31
0.0
  0
LINE
  5
172
330
87
100
AcDbEntity
  8
LC-005-002-----0
  6
Continuous
 62
     7
100
AcDbLine
 10
-365.139493766261
 20
1274.69242311078
 30
0.0
 11
-365.639493766261
 21
1274.19242311078
 31
0.0
  0
LINE
  5
173
330
87
100
AcDbEntity
  8
LC-005-002-----0
  6
Continuous
 62
     7
100
AcDbLine
 10
-533.763084766261
 20
1268.82157311078
 30
0.0
 11
-455.139493766261
 21
1268.82157311078
 31
0.0
  0
LINE
  5
174
330
87
100
AcDbEntity
  8
LC-005-002-----0
  6
Continuous
 62
     7
100
AcDbLine
 10
-544.639492766261
 20
1269.19242311078
 30
0.0
 11
-544.639492766261
 21
1267.69242311078
 31
0.0
  0
LINE
  5
175
330
87
100
AcDbEntity
  8
LC-005-002-----0
  6
Continuous
 62
     7
100
AcDbLine
 10
-544.639492766261
 20
1271.69242311078
 30
0.0
 11
-544.639492766261
 21
1270.19242311078
 31
0.0
  0
LINE
  5
176
330
87
100
AcDbEntity
  8
LC-005-002-----0
  6
Continuous
 62
     7
100
AcDbLine
 10
-538.7575267662611
 20
1276.69242311078
 30
0.0
 11
-455.139493766261
 21
1276.69242311078
 31
0.0
  0
LINE
  5
177
330
87
100
AcDbEntity
  8
LC-005-002-----0
  6
Continuous
 62
     7
100
AcDbLine
 10
-544.639492766261
 20
1274.19242311078
 30
0.0
 11
-544.639492766261
 21
1272.69242311078
 31
0.0
  0
LINE
  5
178
330
87
100
AcDbEntity
  8
LC-005-002-----0
  6
Continuous
 62
     7
100
AcDbLine
 10
-539.139492766261
 20
1265.19242311078
 30
0.0
 11
-455.139493766261
 21
1265.19242311078
 31
0.0
  0
LINE
  5
179
330
87
100
AcDbEntity
  8
LC-005-002-----0
  6
Continuous
 62
     7
100
AcDbLine
 10
-538.7575267662611
 20
1276.69242311078
 30
0.0
 11
-543.139492766261
 21
1276.69242311078
 31
0.0
  0
LINE
  5
17A
330
87
100
AcDbEntity
  8
LC-005-002-----0
  6
Continuous
 62
     7
100
AcDbLine
 10
-533.315870766261
 20
1269.54518011078
 30
0.0
 11
-537.863099766261
 21
1276.13963711078
 31
0.0
  0
LINE
  5
17B
330
87
100
AcDbEntity
  8
LC-005-002-----0
  6
Continuous
 62
     7
100
AcDbLine
 10
-537.635539766261
 20
1270.26799611078
 30
0.0
 11
-534.088479766261
 21
1268.94194411078
 31
0.0
  0
LINE
  5
17C
330
87
100
AcDbEntity
  8
LC-005-002-----0
  6
Continuous
 62
     7
100
AcDbLine
 10
-538.139492766261
 20
1266.19242311078
 30
0.0
 11
-538.459033766261
 21
1269.84479011078
 31
0.0
  0
LINE
  5
17D
330
87
100
AcDbEntity
  8
LC-005-002-----0
  6
Continuous
 62
     7
100
AcDbLine
 10
-543.139492766261
 20
1265.19242311078
 30
0.0
 11
-539.139492766261
 21
1265.19242311078
 31
0.0
  0
LINE
  5
17E
330
87
100
AcDbEntity
  8
LC-005-002-----0
  6
Continuous
 62
     7
100
AcDbLine
 10
-545.139492766261
 20
1272.19242311078
 30
0.0
 11
-544.639492766261
 21
1271.69242311078
 31
0.0
  0
LINE
  5
17F
330
87
100
AcDbEntity
  8
LC-005-002-----0
  6
Continuous
 62
     7
100
AcDbLine
 10
-544.639492766261
 20
1270.19242311078
 30
0.0
 11
-545.139492766261
 21
1269.69242311078
 31
0.0
  0
LINE
  5
180
330
87
100
AcDbEntity
  8
LC-005-002-----0
  6
Continuous
 62
     7
100
AcDbLine
 10
-544.639492766261
 20
1272.69242311078
 30
0.0
 11
-545.139492766261
 21
1272.19242311078
 31
0.0
  0
LINE
  5
181
330
87
100
AcDbEntity
  8
LC-005-002-----0
  6
Continuous
 62
     7
100
AcDbLine
 10
-545.139492766261
 20
1269.69242311078
 30
0.0
 11
-544.639492766261
 21
1269.19242311078
 31
0.0
  0
LINE
  5
182
330
87
100
AcDbEntity
  8
LC-005-002-----0
  6
Continuous
 62
     7
100
AcDbLine
 10
-544.639492766261
 20
1267.69242311078
 30
0.0
 11
-545.139492766261
 21
1267.19242311078
 31
0.0
  0
LINE
  5
183
330
87
100
AcDbEntity
  8
LC-005-002-----0
  6
Continuous
 62
     7
100
AcDbLine
 10
-545.139492766261
 20
1274.69242311078
 30
0.0
 11
-544.639492766261
 21
1274.19242311078
 31
0.0
  0
LINE
  5
184
330
87
100
AcDbEntity
  8
LC-005-002-----0
  6
Continuous
 62
     7
100
AcDbLine
 10
-374.389495766261
 20
1198.98778911078
 30
0.0
 11
-370.389493766261
 21
1198.98778911078
 31
0.0
  0
LINE
  5
185
330
87
100
AcDbEntity
  8
LC-005-002-----0
  6
Continuous
 62
     7
100
AcDbLine
 10
-535.889491766261
 20
1203.98778911078
 30
0.0
 11
-374.389494766261
 21
1203.98778911078
 31
0.0
  0
LINE
  5
186
330
87
100
AcDbEntity
  8
LC-005-002-----0
  6
Continuous
 62
     7
100
AcDbLine
 10
-455.139495766261
 20
1277.19242311078
 30
0.0
 11
-367.639493766261
 21
1277.19242311078
 31
0.0
  0
LINE
  5
187
330
87
100
AcDbEntity
  8
LC-005-002-----0
  6
Continuous
 62
     7
100
AcDbLine
 10
-540.139493766261
 20
1281.19242311078
 30
0.0
 11
-540.139493766261
 21
1290.19242311078
 31
0.0
  0
LINE
  5
188
330
87
100
AcDbEntity
  8
LC-005-002-----0
  6
Continuous
 62
     7
100
AcDbLine
 10
-536.139493766261
 20
1277.19242311078
 30
0.0
 11
-536.139493766261
 21
1290.19242311078
 31
0.0
  0
LINE
  5
189
330
87
100
AcDbEntity
  8
LC-005-002-----0
  6
Continuous
 62
     7
100
AcDbLine
 10
-540.139493766261
 20
1290.19242311078
 30
0.0
 11
-455.139495766261
 21
1290.19242311078
 31
0.0
  0
LINE
  5
18A
330
87
100
AcDbEntity
  8
LC-005-002-----0
  6
Continuous
 62
     7
100
AcDbLine
 10
-544.639493766261
 20
1272.69242211078
 30
0.0
 11
-544.639493766261
 21
1274.19242411078
 31
0.0
  0
LINE
  5
18B
330
87
100
AcDbEntity
  8
LC-005-002-----0
  6
Continuous
 62
     7
100
AcDbLine
 10
-544.639493766261
 20
1270.19242211078
 30
0.0
 11
-544.639493766261
 21
1271.69242311078
 31
0.0
  0
LINE
  5
18C
330
87
100
AcDbEntity
  8
LC-005-002-----0
  6
Continuous
 62
     7
100
AcDbLine
 10
-544.639493766261
 20
1267.69242211078
 30
0.0
 11
-544.639493766261
 21
1269.19242311078
 31
0.0
  0
LINE
  5
18D
330
87
100
AcDbEntity
  8
LC-005-002-----0
  6
Continuous
 62
     7
100
AcDbLine
 10
-535.889491766261
 20
1198.98778911078
 30
0.0
 11
-535.889493766261
 21
1265.19242311078
 31
0.0
  0
LINE
  5
18E
330
87
100
AcDbEntity
  8
LC-005-002-----0
  6
Continuous
 62
     7
100
AcDbLine
 10
-370.139493766261
 20
1281.19242311078
 30
0.0
 11
-370.139493766261
 21
1290.19242311078
 31
0.0
  0
LINE
  5
18F
330
87
100
AcDbEntity
  8
LC-005-002-----0
  6
Continuous
 62
     7
100
AcDbLine
 10
-539.889493766261
 20
1198.98778911078
 30
0.0
 11
-539.889493766261
 21
1261.19242311078
 31
0.0
  0
LINE
  5
190
330
87
100
AcDbEntity
  8
LC-005-002-----0
  6
Continuous
 62
     7
100
AcDbLine
 10
-539.889493766261
 20
1198.98778911078
 30
0.0
 11
-535.889491766261
 21
1198.98778911078
 31
0.0
  0
LINE
  5
191
330
87
100
AcDbEntity
  8
LC-005-002-----0
  6
Continuous
 62
     7
100
AcDbLine
 10
-548.639493766261
 20
1265.19242311078
 30
0.0
 11
-548.639493766261
 21
1277.19242311078
 31
0.0
  0
LINE
  5
192
330
87
100
AcDbEntity
  8
LC-005-002-----0
  6
Continuous
 62
     7
100
AcDbLine
 10
-374.139493766261
 20
1277.19242311078
 30
0.0
 11
-374.139493766261
 21
1290.19242311078
 31
0.0
  0
LINE
  5
193
330
87
100
AcDbEntity
  8
LC-005-002-----0
  6
Continuous
 62
     7
100
AcDbLine
 10
-361.639493766261
 20
1265.19242311078
 30
0.0
 11
-361.639493766261
 21
1277.19242311078
 31
0.0
  0
LINE
  5
194
330
87
100
AcDbEntity
  8
LC-005-002-----0
  6
Continuous
 62
     7
100
AcDbLine
 10
-370.139493766261
 20
1290.19242311078
 30
0.0
 11
-455.139495766261
 21
1290.19242311078
 31
0.0
  0
LINE
  5
195
330
87
100
AcDbEntity
  8
LC-005-002-----0
  6
Continuous
 62
     7
100
AcDbLine
 10
-365.639493766261
 20
1272.19242311078
 30
0.0
 11
-365.639493766261
 21
1274.19242311078
 31
0.0
  0
LINE
  5
196
330
87
100
AcDbEntity
  8
LC-005-002-----0
  6
Continuous
 62
     7
100
AcDbLine
 10
-365.639493766261
 20
1269.69242311078
 30
0.0
 11
-365.639493766261
 21
1271.19242311078
 31
0.0
  0
LINE
  5
197
330
87
100
AcDbEntity
  8
LC-005-002-----0
  6
Continuous
 62
     7
100
AcDbLine
 10
-365.639493766261
 20
1267.69242211078
 30
0.0
 11
-365.639493766261
 21
1268.69242311078
 31
0.0
  0
LINE
  5
198
330
87
100
AcDbEntity
  8
LC-005-002-----0
  6
Continuous
 62
     7
100
AcDbLine
 10
-370.389493766261
 20
1261.19242311078
 30
0.0
 11
-365.639493766261
 21
1261.19242311078
 31
0.0
  0
LINE
  5
199
330
87
100
AcDbEntity
  8
LC-005-002-----0
  6
Continuous
 62
     7
100
AcDbLine
 10
-539.889493766261
 20
1261.19242311078
 30
0.0
 11
-544.639493766261
 21
1261.19242311078
 31
0.0
  0
LINE
  5
19A
330
87
100
AcDbEntity
  8
LC-005-002-----0
  6
Continuous
 62
     7
100
AcDbLine
 10
-365.639493766261
 20
1281.19242311078
 30
0.0
 11
-370.139493766261
 21
1281.19242311078
 31
0.0
  0
LINE
  5
19B
330
87
100
AcDbEntity
  8
LC-005-002-----0
  6
Continuous
 62
     7
100
AcDbLine
 10
-544.639493766261
 20
1281.19242311078
 30
0.0
 11
-540.139493766261
 21
1281.19242311078
 31
0.0
  0
LINE
  5
19C
330
87
100
AcDbEntity
  8
LC-005-002-----0
  6
Continuous
 62
     7
100
AcDbLine
 10
-374.389495766261
 20
1198.98778911078
 30
0.0
 11
-374.389493766261
 21
1265.19242311078
 31
0.0
  0
LINE
  5
19D
330
87
100
AcDbEntity
  8
LC-005-002-----0
  6
Continuous
 62
     7
100
AcDbLine
 10
-370.389493766261
 20
1198.98778911078
 30
0.0
 11
-370.389493766261
 21
1261.19242311078
 31
0.0
  0
LINE
  5
19E
330
87
100
AcDbEntity
  8
LC-005-002-----0
  6
Continuous
 62
     7
100
AcDbLine
 10
-542.639493766261
 20
1277.19242311078
 30
0.0
 11
-455.139495766261
 21
1277.19242311078
 31
0.0
  0
LINE
  5
19F
330
87
100
AcDbEntity
  8
LC-005-002-----0
  6
Continuous
 62
     7
100
AcDbLine
 10
-386.621245766261
 20
1203.98778911078
 30
0.0
 11
-386.621245766261
 21
1131.68934011078
 31
0.0
  0
LINE
  5
1A0
330
87
100
AcDbEntity
  8
LC-005-002-----0
  6
Continuous
 62
     7
100
AcDbLine
 10
-366.389847766261
 20
1197.68738211078
 30
0.0
 11
-366.389847766261
 21
1197.98738211078
 31
0.0
  0
LINE
  5
1A1
330
87
100
AcDbEntity
  8
LC-005-002-----0
  6
Continuous
 62
     7
100
AcDbLine
 10
-363.389493766261
 20
1197.98738211078
 30
0.0
 11
-366.389847766261
 21
1197.98738211078
 31
0.0
  0
LINE
  5
1A2
330
87
100
AcDbEntity
  8
LC-005-002-----0
  6
Continuous
 62
     7
100
AcDbLine
 10
-375.821239766261
 20
1191.98738211078
 30
0.0
 11
-375.821239766261
 21
1136.98934011078
 31
0.0
  0
LINE
  5
1A3
330
87
100
AcDbEntity
  8
LC-005-002-----0
  6
Continuous
 62
     7
100
AcDbLine
 10
-381.121239766261
 20
1131.68934011078
 30
0.0
 11
-455.139670766261
 21
1131.68934011078
 31
0.0
  0
LINE
  5
1A4
330
87
100
AcDbEntity
  8
LC-005-002-----0
  6
Continuous
 62
     7
100
AcDbLine
 10
-370.121239766261
 20
1197.68738211078
 30
0.0
 11
-366.389847766261
 21
1197.68738211078
 31
0.0
  0
LINE
  5
1A5
330
87
100
AcDbEntity
  8
LC-005-002-----0
  6
Continuous
 62
     7
100
AcDbLine
 10
-550.753196766261
 20
1201.95210611078
 30
0.0
 11
-551.359914766261
 21
1203.99185711078
 31
0.0
  0
LINE
  5
1A6
330
87
100
AcDbEntity
  8
LC-005-002-----0
  6
Continuous
 62
     7
100
AcDbLine
 10
-523.658094766261
 20
1203.98778911078
 30
0.0
 11
-523.658094766261
 21
1131.68934011078
 31
0.0
  0
LINE
  5
1A7
330
87
100
AcDbEntity
  8
LC-005-002-----0
  6
Continuous
 62
     7
100
AcDbLine
 10
-543.889493766261
 20
1197.68738211078
 30
0.0
 11
-543.889493766261
 21
1197.98738211078
 31
0.0
  0
LINE
  5
1A8
330
87
100
AcDbEntity
  8
LC-005-002-----0
  6
Continuous
 62
     7
100
AcDbLine
 10
-370.389493766261
 20
1204.20136311078
 30
0.0
 11
-357.393865766261
 21
1204.21640811078
 31
0.0
  0
LINE
  5
1A9
330
87
100
AcDbEntity
  8
LC-005-002-----0
  6
Continuous
 62
     7
100
AcDbLine
 10
-551.359914766261
 20
1203.99185711078
 30
0.0
 11
-539.889493766261
 21
1204.00513611078
 31
0.0
  0
LINE
  5
1AA
330
87
100
AcDbEntity
  8
LC-005-002-----0
  6
Continuous
 62
     7
100
AcDbLine
 10
-546.889493766261
 20
1198.98738211078
 30
0.0
 11
-531.859493766261
 21
1198.98738211078
 31
0.0
  0
LINE
  5
1AB
330
87
100
AcDbEntity
  8
LC-005-002-----0
  6
Continuous
 62
     7
100
AcDbLine
 10
-531.859493766261
 20
1198.98738211078
 30
0.0
 11
-531.859493766261
 21
1197.98738211078
 31
0.0
  0
LINE
  5
1AC
330
87
100
AcDbEntity
  8
LC-005-002-----0
  6
Continuous
 62
     7
100
AcDbLine
 10
-543.889493766261
 20
1197.98738211078
 30
0.0
 11
-531.859493766261
 21
1197.98738211078
 31
0.0
  0
LINE
  5
1AD
330
87
100
AcDbEntity
  8
LC-005-002-----0
  6
Continuous
 62
     7
100
AcDbLine
 10
-534.4581007662609
 20
1191.98738211078
 30
0.0
 11
-534.4581007662609
 21
1136.98934011078
 31
0.0
  0
LINE
  5
1AE
330
87
100
AcDbEntity
  8
LC-005-002-----0
  6
Continuous
 62
     7
100
AcDbLine
 10
-529.158100766261
 20
1131.68934011078
 30
0.0
 11
-455.139670766261
 21
1131.68934011078
 31
0.0
  0
LINE
  5
1AF
330
87
100
AcDbEntity
  8
LC-005-002-----0
  6
Continuous
 62
     7
100
AcDbLine
 10
-551.719122766261
 20
1201.69369411078
 30
0.0
 11
-583.431690766261
 21
1320.04660811078
 31
0.0
  0
LINE
  5
1B0
330
87
100
AcDbEntity
  8
LC-005-002-----0
  6
Continuous
 62
     7
100
AcDbLine
 10
-394.421942766261
 20
1321.78778911078
 30
0.0
 11
-351.735934766261
 21
1321.78778911078
 31
0.0
  0
LINE
  5
1B1
330
87
100
AcDbEntity
  8
LC-005-002-----0
  6
Continuous
 62
     7
100
AcDbLine
 10
-386.760893766261
 20
1290.19242311078
 30
0.0
 11
-381.104777766261
 21
1320.15873711078
 31
0.0
  0
LINE
  5
1B2
330
87
100
AcDbEntity
  8
LC-005-002-----0
  6
Continuous
 62
     7
100
AcDbLine
 10
-386.048533766261
 20
1290.19242311078
 30
0.0
 11
-380.427425766261
 21
1319.97326311078
 31
0.0
  0
LINE
  5
1B3
330
87
100
AcDbEntity
  8
LC-005-002-----0
  6
Continuous
 62
     7
100
AcDbLine
 10
-401.995425766261
 20
1290.19242311078
 30
0.0
 11
-396.387811766261
 21
1320.15570011078
 31
0.0
  0
LINE
  5
1B4
330
87
100
AcDbEntity
  8
LC-005-002-----0
  6
Continuous
 62
     7
100
AcDbLine
 10
-351.735934766261
 20
1320.78778911078
 30
0.0
 11
-351.735934766261
 21
1321.78778911078
 31
0.0
  0
LINE
  5
1B5
330
87
100
AcDbEntity
  8
LC-005-002-----0
  6
Continuous
 62
     7
100
AcDbLine
 10
-379.444776766261
 20
1320.78778911078
 30
0.0
 11
-351.735934766261
 21
1320.78778911078
 31
0.0
  0
LINE
  5
1B6
330
87
100
AcDbEntity
  8
LC-005-002-----0
  6
Continuous
 62
     7
100
AcDbLine
 10
-639.8629617662609
 20
1320.78778911078
 30
0.0
 11
-639.8629617662609
 21
1321.78778911078
 31
0.0
  0
LINE
  5
1B7
330
87
100
AcDbEntity
  8
LC-005-002-----0
  6
Continuous
 62
     7
100
AcDbLine
 10
-546.889493766261
 20
1197.98778911078
 30
0.0
 11
-531.859493766261
 21
1197.98778911078
 31
0.0
  0
LINE
  5
1B8
330
87
100
AcDbEntity
  8
LC-005-002-----0
  6
Continuous
 62
     7
100
AcDbLine
 10
-584.397615766261
 20
1321.78778911078
 30
0.0
 11
-639.8629617662609
 21
1321.78778911078
 31
0.0
  0
LINE
  5
1B9
330
87
100
AcDbEntity
  8
LC-005-002-----0
  6
Continuous
 62
     7
100
AcDbLine
 10
-551.2996557662609
 20
1203.99192711078
 30
0.0
 11
-582.4657647662609
 21
1320.30542711078
 31
0.0
  0
LINE
  5
1BA
330
87
100
AcDbEntity
  8
LC-005-002-----0
  6
Continuous
 62
     7
100
AcDbLine
 10
-584.397615766261
 20
1320.78778911078
 30
0.0
 11
-639.8629617662609
 21
1320.78778911078
 31
0.0
  0
LINE
  5
1BB
330
87
100
AcDbEntity
  8
LC-005-002-----0
  6
Continuous
 62
     7
100
AcDbLine
 10
-531.859493766261
 20
1198.98738211078
 30
0.0
 11
-531.859493766261
 21
1197.98778911078
 31
0.0
  0
LINE
  5
1BC
330
87
100
AcDbEntity
  8
LC-005-002-----0
  6
Continuous
 62
     7
100
AcDbLine
 10
-386.621245766261
 20
1131.68934011078
 30
0.0
 11
-386.621245766261
 21
1130.98974711078
 31
0.0
  0
LINE
  5
1BD
330
87
100
AcDbEntity
  8
LC-005-002-----0
  6
Continuous
 62
     7
100
AcDbLine
 10
-375.121239766261
 20
1191.99226411078
 30
0.0
 11
-375.121239766261
 21
1136.98974711078
 31
0.0
  0
LINE
  5
1BE
330
87
100
AcDbEntity
  8
LC-005-002-----0
  6
Continuous
 62
     7
100
AcDbLine
 10
-381.121239766261
 20
1130.98974711078
 30
0.0
 11
-455.139670766261
 21
1130.98974711078
 31
0.0
  0
LINE
  5
1BF
330
87
100
AcDbEntity
  8
LC-005-002-----0
  6
Continuous
 62
     7
100
AcDbLine
 10
-363.389493766261
 20
1196.99226411078
 30
0.0
 11
-370.121239766261
 21
1196.99226411078
 31
0.0
  0
LINE
  5
1C0
330
87
100
AcDbEntity
  8
LC-005-002-----0
  6
Continuous
 62
     7
100
AcDbLine
 10
-356.389493766261
 20
1203.99226411078
 30
0.0
 11
-357.072792766261
 21
1203.99226411078
 31
0.0
  0
LINE
  5
1C1
330
87
100
AcDbEntity
  8
LC-005-002-----0
  6
Continuous
 62
     7
100
AcDbLine
 10
-356.389493766261
 20
1203.99226411078
 30
0.0
 11
-356.389493766261
 21
1203.99226411078
 31
0.0
  0
LINE
  5
1C2
330
87
100
AcDbEntity
  8
LC-006-006-MLN-0
  6
CENTER
 62
     7
100
AcDbLine
 10
-455.139670766261
 20
1205.98778911078
 30
0.0
 11
-455.139670766261
 21
1128.98974711078
 31
0.0
  0
LINE
  5
1C3
330
87
100
AcDbEntity
  8
LC-005-002-----0
  6
Continuous
 62
     7
100
AcDbLine
 10
-553.5342477662609
 20
1208.46783311078
 30
0.0
 11
-568.750134766261
 21
1208.46783311078
 31
0.0
  0
LINE
  5
1C4
330
87
100
AcDbEntity
  8
LC-005-002-----0
  6
Continuous
 62
     7
100
AcDbLine
 10
-539.889493766261
 20
1208.46783311078
 30
0.0
 11
-552.4989717662611
 21
1208.46783311078
 31
0.0
  0
LINE
  5
1C5
330
87
100
AcDbEntity
  8
LC-005-002-----0
  6
Continuous
 62
     7
100
AcDbLine
 10
-543.889493766261
 20
1197.98738211078
 30
0.0
 11
-543.889493766261
 21
1197.98778911078
 31
0.0
  0
LINE
  5
1C6
330
87
100
AcDbEntity
  8
LC-005-002-----0
  6
Continuous
 62
     7
100
AcDbLine
 10
-546.889493766261
 20
1197.68778911078
 30
0.0
 11
-543.889493766261
 21
1197.68778911078
 31
0.0
  0
LINE
  5
1C7
330
87
100
AcDbEntity
  8
LC-005-002-----0
  6
Continuous
 62
     7
100
AcDbLine
 10
-553.111847766261
 20
1204.27756711078
 30
0.0
 11
-568.750134766261
 21
1208.46783311078
 31
0.0
  0
LINE
  5
1C8
330
87
100
AcDbEntity
  8
LC-005-002-----0
  6
Continuous
 62
     7
100
AcDbLine
 10
-568.750134766261
 20
1208.46783311078
 30
0.0
 11
-568.827780766261
 21
1208.17805511078
 31
0.0
  0
LINE
  5
1C9
330
87
100
AcDbEntity
  8
LC-005-002-----0
  6
Continuous
 62
     7
100
AcDbLine
 10
-553.189493766261
 20
1203.98778911078
 30
0.0
 11
-568.827780766261
 21
1208.17805511078
 31
0.0
  0
LINE
  5
1CA
330
87
100
AcDbEntity
  8
LC-005-002-----0
  6
Continuous
 62
     7
100
AcDbLine
 10
-370.389493766261
 20
1208.46783311078
 30
0.0
 11
-341.528851766261
 21
1208.46783311078
 31
0.0
  0
LINE
  5
1CB
330
87
100
AcDbEntity
  8
LC-005-002-----0
  6
Continuous
 62
     7
100
AcDbLine
 10
-366.389493766261
 20
1197.68778911078
 30
0.0
 11
-366.389493766261
 21
1197.98738211078
 31
0.0
  0
LINE
  5
1CC
330
87
100
AcDbEntity
  8
LC-005-002-----0
  6
Continuous
 62
     7
100
AcDbLine
 10
-363.389493766261
 20
1197.68778911078
 30
0.0
 11
-366.389847766261
 21
1197.68778911078
 31
0.0
  0
LINE
  5
1CD
330
87
100
AcDbEntity
  8
LC-005-002-----0
  6
Continuous
 62
     7
100
AcDbLine
 10
-357.167138766261
 20
1204.27756711078
 30
0.0
 11
-341.528851766261
 21
1208.46783311078
 31
0.0
  0
LINE
  5
1CE
330
87
100
AcDbEntity
  8
LC-005-002-----0
  6
Continuous
 62
     7
100
AcDbLine
 10
-341.528851766261
 20
1208.46783311078
 30
0.0
 11
-341.451205766261
 21
1208.17805511078
 31
0.0
  0
LINE
  5
1CF
330
87
100
AcDbEntity
  8
LC-005-002-----0
  6
Continuous
 62
     7
100
AcDbLine
 10
-357.089493766261
 20
1203.98778911078
 30
0.0
 11
-341.451205766261
 21
1208.17805511078
 31
0.0
  0
LINE
  5
1D0
330
87
100
AcDbEntity
  8
LC-005-002-----0
  6
Continuous
 62
     7
100
AcDbLine
 10
-534.4581007662609
 20
1191.98738211078
 30
0.0
 11
-534.4581007662609
 21
1136.98974711078
 31
0.0
  0
LINE
  5
1D1
330
87
100
AcDbEntity
  8
LC-005-002-----0
  6
Continuous
 62
     7
100
AcDbLine
 10
-523.658094766261
 20
1131.68934011078
 30
0.0
 11
-523.658094766261
 21
1130.98974711078
 31
0.0
  0
LINE
  5
1D2
330
87
100
AcDbEntity
  8
LC-005-002-----0
  6
Continuous
 62
     7
100
AcDbLine
 10
-535.158100766261
 20
1191.99226411078
 30
0.0
 11
-535.158100766261
 21
1136.98974711078
 31
0.0
  0
LINE
  5
1D3
330
87
100
AcDbEntity
  8
LC-005-002-----0
  6
Continuous
 62
     7
100
AcDbLine
 10
-529.158100766261
 20
1130.98974711078
 30
0.0
 11
-455.139670766261
 21
1130.98974711078
 31
0.0
  0
LINE
  5
1D4
330
87
100
AcDbEntity
  8
LC-005-002-----0
  6
Continuous
 62
     7
100
AcDbLine
 10
-546.889847766261
 20
1196.99226411078
 30
0.0
 11
-540.158100766261
 21
1196.99226411078
 31
0.0
  0
LINE
  5
1D5
330
87
100
AcDbEntity
  8
LC-005-002-----0
  6
Continuous
 62
     7
100
AcDbLine
 10
-540.158100766261
 20
1197.68738211078
 30
0.0
 11
-543.889493766261
 21
1197.68738211078
 31
0.0
  0
LINE
  5
1D6
330
87
100
AcDbEntity
  8
LC-005-002-----0
  6
Continuous
 62
     7
100
AcDbLine
 10
-546.889847766261
 20
1197.68778911078
 30
0.0
 11
-546.889493766261
 21
1197.68778911078
 31
0.0
  0
LINE
  5
1D7
330
87
100
AcDbEntity
  8
LC-005-002-----0
  6
Continuous
 62
     7
100
AcDbLine
 10
-553.889847766261
 20
1203.99226411078
 30
0.0
 11
-553.889847766261
 21
1203.99226411078
 31
0.0
  0
LINE
  5
1D8
330
87
100
AcDbEntity
  8
LC-006-006-MLN-0
  6
CENTER
 62
     7
100
AcDbLine
 10
-455.139493766261
 20
1292.19242311078
 30
0.0
 11
-455.139493766261
 21
1195.68778911078
 31
0.0
  0
LINE
  5
1D9
330
87
100
AcDbEntity
  8
LC-006-006-MLN-0
  6
CENTER
 62
     7
100
AcDbLine
 10
-455.139670766261
 20
1205.98778911078
 30
0.0
 11
-455.139670766261
 21
1128.98974711078
 31
0.0
  0
LINE
  5
1DA
330
87
100
AcDbEntity
  8
LC-001-005-----0
  6
Continuous
 62
     7
100
AcDbLine
 10
-341.904711766261
 20
1208.36712211078
 30
0.0
 11
-342.328975766261
 21
1207.94285811078
 31
0.0
  0
LINE
  5
1DB
330
87
100
AcDbEntity
  8
LC-001-005-----0
  6
Continuous
 62
     7
100
AcDbLine
 10
-343.836562766261
 20
1207.84948411078
 30
0.0
 11
-344.260826766261
 21
1207.42522011078
 31
0.0
  0
LINE
  5
1DC
330
87
100
AcDbEntity
  8
LC-001-005-----0
  6
Continuous
 62
     7
100
AcDbLine
 10
-345.768414766261
 20
1207.33184611078
 30
0.0
 11
-346.192678766261
 21
1206.90758211078
 31
0.0
  0
LINE
  5
1DD
330
87
100
AcDbEntity
  8
LC-001-005-----0
  6
Continuous
 62
     7
100
AcDbLine
 10
-347.700266766261
 20
1206.81420811078
 30
0.0
 11
-348.124530766261
 21
1206.38994311078
 31
0.0
  0
LINE
  5
1DE
330
87
100
AcDbEntity
  8
LC-001-005-----0
  6
Continuous
 62
     7
100
AcDbLine
 10
-349.632117766261
 20
1206.29656911078
 30
0.0
 11
-350.056381766261
 21
1205.87230511078
 31
0.0
  0
LINE
  5
1DF
330
87
100
AcDbEntity
  8
LC-001-005-----0
  6
Continuous
 62
     7
100
AcDbLine
 10
-351.563969766261
 20
1205.77893111078
 30
0.0
 11
-351.988233766261
 21
1205.35466711078
 31
0.0
  0
LINE
  5
1E0
330
87
100
AcDbEntity
  8
LC-001-005-----0
  6
Continuous
 62
     7
100
AcDbLine
 10
-357.953275766261
 20
1200.80383911078
 30
0.0
 11
-360.205543766261
 21
1198.55157111078
 31
0.0
  0
LINE
  5
1E1
330
87
100
AcDbEntity
  8
LC-001-005-----0
  6
Continuous
 62
     7
100
AcDbLine
 10
-353.495821766261
 20
1205.26129311078
 30
0.0
 11
-353.920085766261
 21
1204.83702911078
 31
0.0
  0
LINE
  5
1E2
330
87
100
AcDbEntity
  8
LC-001-005-----0
  6
Continuous
 62
     7
100
AcDbLine
 10
-362.026729766261
 20
1198.14459811078
 30
0.0
 11
-362.406355766261
 21
1197.76497311078
 31
0.0
  0
LINE
  5
1E3
330
87
100
AcDbEntity
  8
LC-001-005-----0
  6
Continuous
 62
     7
100
AcDbLine
 10
-357.166677766261
 20
1203.00465111078
 30
0.0
 11
-357.546302766261
 21
1202.62502511078
 31
0.0
  0
LINE
  5
1E4
330
87
100
AcDbEntity
  8
LC-001-005-----0
  6
Continuous
 62
     7
100
AcDbLine
 10
-355.427672766261
 20
1204.74365511078
 30
0.0
 11
-355.851936766261
 21
1204.31939111078
 31
0.0
  0
LINE
  5
1E5
330
87
100
AcDbEntity
  8
LC-001-005-----0
  6
Continuous
 62
     7
100
AcDbLine
 10
-363.598159766261
 20
1197.98738211078
 30
0.0
 11
-363.897752766261
 21
1197.68778911078
 31
0.0
  0
LINE
  5
1E6
330
87
100
AcDbEntity
  8
LC-001-005-----0
  6
Continuous
 62
     7
100
AcDbLine
 10
-365.012373766261
 20
1197.98738211078
 30
0.0
 11
-365.311966766261
 21
1197.68778911078
 31
0.0
  0
LINE
  5
1E7
330
87
100
AcDbEntity
  8
LC-001-005-----0
  6
Continuous
 62
     7
100
AcDbLine
 10
-544.617088766261
 20
1197.98778911078
 30
0.0
 11
-544.917088766261
 21
1197.68778911078
 31
0.0
  0
LINE
  5
1E8
330
87
100
AcDbEntity
  8
LC-001-005-----0
  6
Continuous
 62
     7
100
AcDbLine
 10
-546.0313027662611
 20
1197.98778911078
 30
0.0
 11
-546.3313027662609
 21
1197.68778911078
 31
0.0
  0
LINE
  5
1E9
330
87
100
AcDbEntity
  8
LC-001-005-----0
  6
Continuous
 62
     7
100
AcDbLine
 10
-547.4218517662609
 20
1198.01145311078
 30
0.0
 11
-547.6939447662611
 21
1197.73936011078
 31
0.0
  0
LINE
  5
1EA
330
87
100
AcDbEntity
  8
LC-001-005-----0
  6
Continuous
 62
     7
100
AcDbLine
 10
-548.6082757662609
 20
1198.23924211078
 30
0.0
 11
-548.847676766261
 21
1197.99984111078
 31
0.0
  0
LINE
  5
1EB
330
87
100
AcDbEntity
  8
LC-001-005-----0
  6
Continuous
 62
     7
100
AcDbLine
 10
-549.617770766261
 20
1198.64396111078
 30
0.0
 11
-549.840206766261
 21
1198.42152511078
 31
0.0
  0
LINE
  5
1EC
330
87
100
AcDbEntity
  8
LC-001-005-----0
  6
Continuous
 62
     7
100
AcDbLine
 10
-550.488729766261
 20
1199.18721611078
 30
0.0
 11
-550.702915766261
 21
1198.97303011078
 31
0.0
  0
LINE
  5
1ED
330
87
100
AcDbEntity
  8
LC-001-005-----0
  6
Continuous
 62
     7
100
AcDbLine
 10
-551.237236766261
 20
1199.85292211078
 30
0.0
 11
-551.449432766261
 21
1199.64072611078
 31
0.0
  0
LINE
  5
1EE
330
87
100
AcDbEntity
  8
LC-001-005-----0
  6
Continuous
 62
     7
100
AcDbLine
 10
-551.866948766261
 20
1200.63742411078
 30
0.0
 11
-552.082894766261
 21
1200.42147711078
 31
0.0
  0
LINE
  5
1EF
330
87
100
AcDbEntity
  8
LC-001-005-----0
  6
Continuous
 62
     7
100
AcDbLine
 10
-552.370904766261
 20
1201.54768111078
 30
0.0
 11
-552.597341766261
 21
1201.32124411078
 31
0.0
  0
LINE
  5
1F0
330
87
100
AcDbEntity
  8
LC-001-005-----0
  6
Continuous
 62
     7
100
AcDbLine
 10
-552.7279437662611
 20
1202.60485611078
 30
0.0
 11
-552.974983766261
 21
1202.35781611078
 31
0.0
  0
LINE
  5
1F1
330
87
100
AcDbEntity
  8
LC-001-005-----0
  6
Continuous
 62
     7
100
AcDbLine
 10
-552.8881087662611
 20
1203.85890411078
 30
0.0
 11
-553.175711766261
 21
1203.57130211078
 31
0.0
  0
LINE
  5
1F2
330
87
100
AcDbEntity
  8
LC-001-005-----0
  6
Continuous
 62
     7
100
AcDbLine
 10
-553.7205567662611
 20
1204.44067011078
 30
0.0
 11
-553.965505766261
 21
1204.19572111078
 31
0.0
  0
LINE
  5
1F3
330
87
100
AcDbEntity
  8
LC-001-005-----0
  6
Continuous
 62
     7
100
AcDbLine
 10
-554.835911766261
 20
1204.73952811078
 30
0.0
 11
-555.0808607662609
 21
1204.49457911078
 31
0.0
  0
LINE
  5
1F4
330
87
100
AcDbEntity
  8
LC-001-005-----0
  6
Continuous
 62
     7
100
AcDbLine
 10
-555.9512667662609
 20
1205.03838711078
 30
0.0
 11
-556.196215766261
 21
1204.79343811078
 31
0.0
  0
LINE
  5
1F5
330
87
100
AcDbEntity
  8
LC-001-005-----0
  6
Continuous
 62
     7
100
AcDbLine
 10
-557.066621766261
 20
1205.33724511078
 30
0.0
 11
-557.311570766261
 21
1205.09229611078
 31
0.0
  0
LINE
  5
1F6
330
87
100
AcDbEntity
  8
LC-001-005-----0
  6
Continuous
 62
     7
100
AcDbLine
 10
-558.1819777662611
 20
1205.63610411078
 30
0.0
 11
-558.426926766261
 21
1205.39115511078
 31
0.0
  0
LINE
  5
1F7
330
87
100
AcDbEntity
  8
LC-001-005-----0
  6
Continuous
 62
     7
100
AcDbLine
 10
-559.2973327662611
 20
1205.93496211078
 30
0.0
 11
-559.542281766261
 21
1205.69001311078
 31
0.0
  0
LINE
  5
1F8
330
87
100
AcDbEntity
  8
LC-001-005-----0
  6
Continuous
 62
     7
100
AcDbLine
 10
-560.412687766261
 20
1206.23382111078
 30
0.0
 11
-560.657636766261
 21
1205.98887211078
 31
0.0
  0
LINE
  5
1F9
330
87
100
AcDbEntity
  8
LC-001-005-----0
  6
Continuous
 62
     7
100
AcDbLine
 10
-561.528042766261
 20
1206.53267911078
 30
0.0
 11
-561.7729917662609
 21
1206.28773011078
 31
0.0
  0
LINE
  5
1FA
330
87
100
AcDbEntity
  8
LC-001-005-----0
  6
Continuous
 62
     7
100
AcDbLine
 10
-562.6433977662609
 20
1206.83153811078
 30
0.0
 11
-562.8883467662611
 21
1206.58658911078
 31
0.0
  0
LINE
  5
1FB
330
87
100
AcDbEntity
  8
LC-001-005-----0
  6
Continuous
 62
     7
100
AcDbLine
 10
-563.7587527662611
 20
1207.13039611078
 30
0.0
 11
-564.003701766261
 21
1206.88544711078
 31
0.0
  0
LINE
  5
1FC
330
87
100
AcDbEntity
  8
LC-001-005-----0
  6
Continuous
 62
     7
100
AcDbLine
 10
-564.8741077662611
 20
1207.42925511078
 30
0.0
 11
-565.119056766261
 21
1207.18430611078
 31
0.0
  0
LINE
  5
1FD
330
87
100
AcDbEntity
  8
LC-001-005-----0
  6
Continuous
 62
     7
100
AcDbLine
 10
-565.989462766261
 20
1207.72811311078
 30
0.0
 11
-566.234411766261
 21
1207.48316411078
 31
0.0
  0
LINE
  5
1FE
330
87
100
AcDbEntity
  8
LC-001-005-----0
  6
Continuous
 62
     7
100
AcDbLine
 10
-567.104817766261
 20
1208.02697211078
 30
0.0
 11
-567.3497667662609
 21
1207.78202311078
 31
0.0
  0
LINE
  5
1FF
330
87
100
AcDbEntity
  8
LC-001-005-----0
  6
Continuous
 62
     7
100
AcDbLine
 10
-568.2201727662609
 20
1208.32583011078
 30
0.0
 11
-568.4651217662611
 21
1208.08088111078
 31
0.0
  0
LINE
  5
200
330
87
100
AcDbEntity
  8
LC-001-005-----0
  6
Continuous
 62
     7
100
AcDbLine
 10
-553.3438207662609
 20
1201.28187211078
 30
0.0
 11
-552.805288766261
 21
1201.82040411078
 31
0.0
  0
LINE
  5
201
330
87
100
AcDbEntity
  8
LC-001-005-----0
  6
Continuous
 62
     7
100
AcDbLine
 10
-552.583811766261
 20
1199.92056011078
 30
0.0
 11
-552.0831047662609
 21
1200.42126711078
 31
0.0
  0
LINE
  5
202
330
87
100
AcDbEntity
  8
LC-001-005-----0
  6
Continuous
 62
     7
100
AcDbLine
 10
-551.583771766261
 20
1198.79928111078
 30
0.0
 11
-551.090458766261
 21
1199.29259311078
 31
0.0
  0
LINE
  5
203
330
87
100
AcDbEntity
  8
LC-001-005-----0
  6
Continuous
 62
     7
100
AcDbLine
 10
-550.3528537662611
 20
1197.90887811078
 30
0.0
 11
-549.840329766261
 21
1198.42140311078
 31
0.0
  0
LINE
  5
204
330
87
100
AcDbEntity
  8
LC-001-005-----0
  6
Continuous
 62
     7
100
AcDbLine
 10
-548.8640027662609
 20
1197.27640911078
 30
0.0
 11
-548.294121766261
 21
1197.84629011078
 31
0.0
  0
LINE
  5
205
330
87
100
AcDbEntity
  8
LC-001-005-----0
  6
Continuous
 62
     7
100
AcDbLine
 10
-547.025512766261
 20
1196.99357911078
 30
0.0
 11
-546.3313027662609
 21
1197.68778911078
 31
0.0
  0
LINE
  5
206
330
87
100
AcDbEntity
  8
LC-001-005-----0
  6
Continuous
 62
     7
100
AcDbLine
 10
-544.9055067662609
 20
1196.99226411078
 30
0.0
 11
-544.209981766261
 21
1197.68778911078
 31
0.0
  0
LINE
  5
207
330
87
100
AcDbEntity
  8
LC-001-005-----0
  6
Continuous
 62
     7
100
AcDbLine
 10
-542.784186766261
 20
1196.99226411078
 30
0.0
 11
-542.089068766261
 21
1197.68738211078
 31
0.0
  0
LINE
  5
208
330
87
100
AcDbEntity
  8
LC-001-005-----0
  6
Continuous
 62
     7
100
AcDbLine
 10
-540.662866766261
 20
1196.99226411078
 30
0.0
 11
-539.9993297662611
 21
1197.65580011078
 31
0.0
  0
LINE
  5
209
330
87
100
AcDbEntity
  8
LC-001-005-----0
  6
Continuous
 62
     7
100
AcDbLine
 10
-538.7452987662609
 20
1196.78851111078
 30
0.0
 11
-538.229959766261
 21
1197.30385111078
 31
0.0
  0
LINE
  5
20A
330
87
100
AcDbEntity
  8
LC-001-005-----0
  6
Continuous
 62
     7
100
AcDbLine
 10
-537.310404766261
 20
1196.10208511078
 30
0.0
 11
-536.887107766261
 21
1196.52538211078
 31
0.0
  0
LINE
  5
20B
330
87
100
AcDbEntity
  8
LC-001-005-----0
  6
Continuous
 62
     7
100
AcDbLine
 10
-536.219165766261
 20
1195.07200311078
 30
0.0
 11
-535.785401766261
 21
1195.50576711078
 31
0.0
  0
LINE
  5
20C
330
87
100
AcDbEntity
  8
LC-001-005-----0
  6
Continuous
 62
     7
100
AcDbLine
 10
-535.461734766261
 20
1193.70811411078
 30
0.0
 11
-534.935720766261
 21
1194.23412811078
 31
0.0
  0
LINE
  5
20D
330
87
100
AcDbEntity
  8
LC-001-005-----0
  6
Continuous
 62
     7
100
AcDbLine
 10
-535.158100766261
 20
1191.89042811078
 30
0.0
 11
-534.558152766261
 21
1192.49037611078
 31
0.0
  0
LINE
  5
20E
330
87
100
AcDbEntity
  8
LC-001-005-----0
  6
Continuous
 62
     7
100
AcDbLine
 10
-535.158100766261
 20
1189.76910711078
 30
0.0
 11
-534.4581007662609
 21
1190.46910711078
 31
0.0
  0
LINE
  5
20F
330
87
100
AcDbEntity
  8
LC-001-005-----0
  6
Continuous
 62
     7
100
AcDbLine
 10
-535.158100766261
 20
1187.64778711078
 30
0.0
 11
-534.4581007662609
 21
1188.34778711078
 31
0.0
  0
LINE
  5
210
330
87
100
AcDbEntity
  8
LC-001-005-----0
  6
Continuous
 62
     7
100
AcDbLine
 10
-535.158100766261
 20
1185.52646711078
 30
0.0
 11
-534.4581007662609
 21
1186.22646711078
 31
0.0
  0
LINE
  5
211
330
87
100
AcDbEntity
  8
LC-001-005-----0
  6
Continuous
 62
     7
100
AcDbLine
 10
-535.158100766261
 20
1183.40514611078
 30
0.0
 11
-534.4581007662609
 21
1184.10514611078
 31
0.0
  0
LINE
  5
212
330
87
100
AcDbEntity
  8
LC-001-005-----0
  6
Continuous
 62
     7
100
AcDbLine
 10
-535.158100766261
 20
1181.28382611078
 30
0.0
 11
-534.4581007662609
 21
1181.98382611078
 31
0.0
  0
LINE
  5
213
330
87
100
AcDbEntity
  8
LC-001-005-----0
  6
Continuous
 62
     7
100
AcDbLine
 10
-535.158100766261
 20
1179.16250611078
 30
0.0
 11
-534.4581007662609
 21
1179.86250611078
 31
0.0
  0
LINE
  5
214
330
87
100
AcDbEntity
  8
LC-001-005-----0
  6
Continuous
 62
     7
100
AcDbLine
 10
-535.158100766261
 20
1177.04118511078
 30
0.0
 11
-534.4581007662609
 21
1177.74118511078
 31
0.0
  0
LINE
  5
215
330
87
100
AcDbEntity
  8
LC-001-005-----0
  6
Continuous
 62
     7
100
AcDbLine
 10
-535.158100766261
 20
1174.91986511078
 30
0.0
 11
-534.4581007662609
 21
1175.61986511078
 31
0.0
  0
LINE
  5
216
330
87
100
AcDbEntity
  8
LC-001-005-----0
  6
Continuous
 62
     7
100
AcDbLine
 10
-535.158100766261
 20
1172.79854511078
 30
0.0
 11
-534.4581007662609
 21
1173.49854511078
 31
0.0
  0
LINE
  5
217
330
87
100
AcDbEntity
  8
LC-001-005-----0
  6
Continuous
 62
     7
100
AcDbLine
 10
-535.158100766261
 20
1170.67722411078
 30
0.0
 11
-534.4581007662609
 21
1171.37722411078
 31
0.0
  0
LINE
  5
218
330
87
100
AcDbEntity
  8
LC-001-005-----0
  6
Continuous
 62
     7
100
AcDbLine
 10
-535.158100766261
 20
1168.55590411078
 30
0.0
 11
-534.4581007662609
 21
1169.25590411078
 31
0.0
  0
LINE
  5
219
330
87
100
AcDbEntity
  8
LC-001-005-----0
  6
Continuous
 62
     7
100
AcDbLine
 10
-535.158100766261
 20
1166.43458311078
 30
0.0
 11
-534.4581007662609
 21
1167.13458311078
 31
0.0
  0
LINE
  5
21A
330
87
100
AcDbEntity
  8
LC-001-005-----0
  6
Continuous
 62
     7
100
AcDbLine
 10
-535.158100766261
 20
1164.31326311078
 30
0.0
 11
-534.4581007662609
 21
1165.01326311078
 31
0.0
  0
LINE
  5
21B
330
87
100
AcDbEntity
  8
LC-001-005-----0
  6
Continuous
 62
     7
100
AcDbLine
 10
-535.158100766261
 20
1162.19194311078
 30
0.0
 11
-534.4581007662609
 21
1162.89194311078
 31
0.0
  0
LINE
  5
21C
330
87
100
AcDbEntity
  8
LC-001-005-----0
  6
Continuous
 62
     7
100
AcDbLine
 10
-535.158100766261
 20
1160.07062211078
 30
0.0
 11
-534.4581007662609
 21
1160.77062211078
 31
0.0
  0
LINE
  5
21D
330
87
100
AcDbEntity
  8
LC-001-005-----0
  6
Continuous
 62
     7
100
AcDbLine
 10
-535.158100766261
 20
1157.94930211078
 30
0.0
 11
-534.4581007662609
 21
1158.64930211078
 31
0.0
  0
LINE
  5
21E
330
87
100
AcDbEntity
  8
LC-001-005-----0
  6
Continuous
 62
     7
100
AcDbLine
 10
-535.158100766261
 20
1155.82798211078
 30
0.0
 11
-534.4581007662609
 21
1156.52798211078
 31
0.0
  0
LINE
  5
21F
330
87
100
AcDbEntity
  8
LC-001-005-----0
  6
Continuous
 62
     7
100
AcDbLine
 10
-535.158100766261
 20
1153.70666111078
 30
0.0
 11
-534.4581007662609
 21
1154.40666111078
 31
0.0
  0
LINE
  5
220
330
87
100
AcDbEntity
  8
LC-001-005-----0
  6
Continuous
 62
     7
100
AcDbLine
 10
-535.158100766261
 20
1151.58534111078
 30
0.0
 11
-534.4581007662609
 21
1152.28534111078
 31
0.0
  0
LINE
  5
221
330
87
100
AcDbEntity
  8
LC-001-005-----0
  6
Continuous
 62
     7
100
AcDbLine
 10
-535.158100766261
 20
1149.46402111078
 30
0.0
 11
-534.4581007662609
 21
1150.16402111078
 31
0.0
  0
LINE
  5
222
330
87
100
AcDbEntity
  8
LC-001-005-----0
  6
Continuous
 62
     7
100
AcDbLine
 10
-535.158100766261
 20
1147.34270011078
 30
0.0
 11
-534.4581007662609
 21
1148.04270011078
 31
0.0
  0
LINE
  5
223
330
87
100
AcDbEntity
  8
LC-001-005-----0
  6
Continuous
 62
     7
100
AcDbLine
 10
-535.158100766261
 20
1145.22138011078
 30
0.0
 11
-534.4581007662609
 21
1145.92138011078
 31
0.0
  0
LINE
  5
224
330
87
100
AcDbEntity
  8
LC-001-005-----0
  6
Continuous
 62
     7
100
AcDbLine
 10
-535.158100766261
 20
1143.10006011078
 30
0.0
 11
-534.4581007662609
 21
1143.80006011078
 31
0.0
  0
LINE
  5
225
330
87
100
AcDbEntity
  8
LC-001-005-----0
  6
Continuous
 62
     7
100
AcDbLine
 10
-535.158100766261
 20
1140.97873911078
 30
0.0
 11
-534.4581007662609
 21
1141.67873911078
 31
0.0
  0
LINE
  5
226
330
87
100
AcDbEntity
  8
LC-001-005-----0
  6
Continuous
 62
     7
100
AcDbLine
 10
-535.158100766261
 20
1138.85741911078
 30
0.0
 11
-534.4581007662609
 21
1139.55741911078
 31
0.0
  0
LINE
  5
227
330
87
100
AcDbEntity
  8
LC-001-005-----0
  6
Continuous
 62
     7
100
AcDbLine
 10
-535.152952766261
 20
1136.74124711078
 30
0.0
 11
-534.4581007662609
 21
1137.43609911078
 31
0.0
  0
LINE
  5
228
330
87
100
AcDbEntity
  8
LC-001-005-----0
  6
Continuous
 62
     7
100
AcDbLine
 10
-534.806601766261
 20
1134.96627711078
 30
0.0
 11
-534.250827766261
 21
1135.52205111078
 31
0.0
  0
LINE
  5
229
330
87
100
AcDbEntity
  8
LC-001-005-----0
  6
Continuous
 62
     7
100
AcDbLine
 10
-534.085445766261
 20
1133.56611311078
 30
0.0
 11
-533.5814287662611
 21
1134.07013011078
 31
0.0
  0
LINE
  5
22A
330
87
100
AcDbEntity
  8
LC-001-005-----0
  6
Continuous
 62
     7
100
AcDbLine
 10
-533.080683766261
 20
1132.44955511078
 30
0.0
 11
-532.584217766261
 21
1132.94602111078
 31
0.0
  0
LINE
  5
22B
330
87
100
AcDbEntity
  8
LC-001-005-----0
  6
Continuous
 62
     7
100
AcDbLine
 10
-531.8041767662611
 20
1131.60474211078
 30
0.0
 11
-531.277126766261
 21
1132.13179211078
 31
0.0
  0
LINE
  5
22C
330
87
100
AcDbEntity
  8
LC-001-005-----0
  6
Continuous
 62
     7
100
AcDbLine
 10
-530.205689766261
 20
1131.08190911078
 30
0.0
 11
-529.580954766261
 21
1131.70664311078
 31
0.0
  0
LINE
  5
22D
330
87
100
AcDbEntity
  8
LC-001-005-----0
  6
Continuous
 62
     7
100
AcDbLine
 10
-528.176529766261
 20
1130.98974711078
 30
0.0
 11
-527.476937766261
 21
1131.68934011078
 31
0.0
  0
LINE
  5
22E
330
87
100
AcDbEntity
  8
LC-001-005-----0
  6
Continuous
 62
     7
100
AcDbLine
 10
-526.055209766261
 20
1130.98974711078
 30
0.0
 11
-525.3556167662609
 21
1131.68934011078
 31
0.0
  0
LINE
  5
22F
330
87
100
AcDbEntity
  8
LC-001-005-----0
  6
Continuous
 62
     7
100
AcDbLine
 10
-523.933889766261
 20
1130.98974711078
 30
0.0
 11
-523.658094766261
 21
1131.26554211078
 31
0.0
  0
LINE
  5
230
330
87
100
AcDbEntity
  8
LC-001-005-----0
  6
Continuous
 62
     7
100
AcDbLine
 10
-374.350731766261
 20
1195.72009111078
 30
0.0
 11
-373.853949766261
 21
1196.21687311078
 31
0.0
  0
LINE
  5
231
330
87
100
AcDbEntity
  8
LC-001-005-----0
  6
Continuous
 62
     7
100
AcDbLine
 10
-371.042922766261
 20
1196.90658011078
 30
0.0
 11
-370.297101766261
 21
1197.65240111078
 31
0.0
  0
LINE
  5
232
330
87
100
AcDbEntity
  8
LC-001-005-----0
  6
Continuous
 62
     7
100
AcDbLine
 10
-375.786258766261
 20
1192.16324411078
 30
0.0
 11
-375.035555766261
 21
1192.91394711078
 31
0.0
  0
LINE
  5
233
330
87
100
AcDbEntity
  8
LC-001-005-----0
  6
Continuous
 62
     7
100
AcDbLine
 10
-368.835918766261
 20
1196.99226411078
 30
0.0
 11
-368.140800766261
 21
1197.68738211078
 31
0.0
  0
LINE
  5
234
330
87
100
AcDbEntity
  8
LC-001-005-----0
  6
Continuous
 62
     7
100
AcDbLine
 10
-375.821239766261
 20
1190.00694211078
 30
0.0
 11
-375.121239766261
 21
1190.70694211078
 31
0.0
  0
LINE
  5
235
330
87
100
AcDbEntity
  8
LC-001-005-----0
  6
Continuous
 62
     7
100
AcDbLine
 10
-366.714597766261
 20
1196.99226411078
 30
0.0
 11
-366.019072766261
 21
1197.68778911078
 31
0.0
  0
LINE
  5
236
330
87
100
AcDbEntity
  8
LC-001-005-----0
  6
Continuous
 62
     7
100
AcDbLine
 10
-375.821239766261
 20
1187.88562211078
 30
0.0
 11
-375.121239766261
 21
1188.58562211078
 31
0.0
  0
LINE
  5
237
330
87
100
AcDbEntity
  8
LC-001-005-----0
  6
Continuous
 62
     7
100
AcDbLine
 10
-364.593277766261
 20
1196.99226411078
 30
0.0
 11
-363.897752766261
 21
1197.68778911078
 31
0.0
  0
LINE
  5
238
330
87
100
AcDbEntity
  8
LC-001-005-----0
  6
Continuous
 62
     7
100
AcDbLine
 10
-375.821239766261
 20
1185.76430211078
 30
0.0
 11
-375.121239766261
 21
1186.46430211078
 31
0.0
  0
LINE
  5
239
330
87
100
AcDbEntity
  8
LC-001-005-----0
  6
Continuous
 62
     7
100
AcDbLine
 10
-357.385801766261
 20
1202.07841911078
 30
0.0
 11
-356.459503766261
 21
1203.00471711078
 31
0.0
  0
LINE
  5
23A
330
87
100
AcDbEntity
  8
LC-001-005-----0
  6
Continuous
 62
     7
100
AcDbLine
 10
-362.401946766261
 20
1197.06227511078
 30
0.0
 11
-361.480123766261
 21
1197.98409811078
 31
0.0
  0
LINE
  5
23B
330
87
100
AcDbEntity
  8
LC-001-005-----0
  6
Continuous
 62
     7
100
AcDbLine
 10
-375.821239766261
 20
1183.64298111078
 30
0.0
 11
-375.121239766261
 21
1184.34298111078
 31
0.0
  0
LINE
  5
23C
330
87
100
AcDbEntity
  8
LC-001-005-----0
  6
Continuous
 62
     7
100
AcDbLine
 10
-375.821239766261
 20
1181.52166111078
 30
0.0
 11
-375.121239766261
 21
1182.22166111078
 31
0.0
  0
LINE
  5
23D
330
87
100
AcDbEntity
  8
LC-001-005-----0
  6
Continuous
 62
     7
100
AcDbLine
 10
-375.821239766261
 20
1179.40034111078
 30
0.0
 11
-375.121239766261
 21
1180.10034111078
 31
0.0
  0
LINE
  5
23E
330
87
100
AcDbEntity
  8
LC-001-005-----0
  6
Continuous
 62
     7
100
AcDbLine
 10
-375.821239766261
 20
1177.27902011078
 30
0.0
 11
-375.121239766261
 21
1177.97902011078
 31
0.0
  0
LINE
  5
23F
330
87
100
AcDbEntity
  8
LC-001-005-----0
  6
Continuous
 62
     7
100
AcDbLine
 10
-375.821239766261
 20
1175.15770011078
 30
0.0
 11
-375.121239766261
 21
1175.85770011078
 31
0.0
  0
LINE
  5
240
330
87
100
AcDbEntity
  8
LC-001-005-----0
  6
Continuous
 62
     7
100
AcDbLine
 10
-375.821239766261
 20
1173.03638011078
 30
0.0
 11
-375.121239766261
 21
1173.73638011078
 31
0.0
  0
LINE
  5
241
330
87
100
AcDbEntity
  8
LC-001-005-----0
  6
Continuous
 62
     7
100
AcDbLine
 10
-375.821239766261
 20
1170.91505911078
 30
0.0
 11
-375.121239766261
 21
1171.61505911078
 31
0.0
  0
LINE
  5
242
330
87
100
AcDbEntity
  8
LC-001-005-----0
  6
Continuous
 62
     7
100
AcDbLine
 10
-375.821239766261
 20
1168.79373911078
 30
0.0
 11
-375.121239766261
 21
1169.49373911078
 31
0.0
  0
LINE
  5
243
330
87
100
AcDbEntity
  8
LC-001-005-----0
  6
Continuous
 62
     7
100
AcDbLine
 10
-375.821239766261
 20
1166.67241811078
 30
0.0
 11
-375.121239766261
 21
1167.37241811078
 31
0.0
  0
LINE
  5
244
330
87
100
AcDbEntity
  8
LC-001-005-----0
  6
Continuous
 62
     7
100
AcDbLine
 10
-375.821239766261
 20
1164.55109811078
 30
0.0
 11
-375.121239766261
 21
1165.25109811078
 31
0.0
  0
LINE
  5
245
330
87
100
AcDbEntity
  8
LC-001-005-----0
  6
Continuous
 62
     7
100
AcDbLine
 10
-375.821239766261
 20
1162.42977811078
 30
0.0
 11
-375.121239766261
 21
1163.12977811078
 31
0.0
  0
LINE
  5
246
330
87
100
AcDbEntity
  8
LC-001-005-----0
  6
Continuous
 62
     7
100
AcDbLine
 10
-375.821239766261
 20
1160.30845711078
 30
0.0
 11
-375.121239766261
 21
1161.00845711078
 31
0.0
  0
LINE
  5
247
330
87
100
AcDbEntity
  8
LC-001-005-----0
  6
Continuous
 62
     7
100
AcDbLine
 10
-375.821239766261
 20
1158.18713711078
 30
0.0
 11
-375.121239766261
 21
1158.88713711078
 31
0.0
  0
LINE
  5
248
330
87
100
AcDbEntity
  8
LC-001-005-----0
  6
Continuous
 62
     7
100
AcDbLine
 10
-375.821239766261
 20
1156.06581711078
 30
0.0
 11
-375.121239766261
 21
1156.76581711078
 31
0.0
  0
LINE
  5
249
330
87
100
AcDbEntity
  8
LC-001-005-----0
  6
Continuous
 62
     7
100
AcDbLine
 10
-375.821239766261
 20
1153.94449611078
 30
0.0
 11
-375.121239766261
 21
1154.64449611078
 31
0.0
  0
LINE
  5
24A
330
87
100
AcDbEntity
  8
LC-001-005-----0
  6
Continuous
 62
     7
100
AcDbLine
 10
-375.821239766261
 20
1151.82317611078
 30
0.0
 11
-375.121239766261
 21
1152.52317611078
 31
0.0
  0
LINE
  5
24B
330
87
100
AcDbEntity
  8
LC-001-005-----0
  6
Continuous
 62
     7
100
AcDbLine
 10
-375.821239766261
 20
1149.70185611078
 30
0.0
 11
-375.121239766261
 21
1150.40185611078
 31
0.0
  0
LINE
  5
24C
330
87
100
AcDbEntity
  8
LC-001-005-----0
  6
Continuous
 62
     7
100
AcDbLine
 10
-375.821239766261
 20
1147.58053511078
 30
0.0
 11
-375.121239766261
 21
1148.28053511078
 31
0.0
  0
LINE
  5
24D
330
87
100
AcDbEntity
  8
LC-001-005-----0
  6
Continuous
 62
     7
100
AcDbLine
 10
-375.821239766261
 20
1145.45921511078
 30
0.0
 11
-375.121239766261
 21
1146.15921511078
 31
0.0
  0
LINE
  5
24E
330
87
100
AcDbEntity
  8
LC-001-005-----0
  6
Continuous
 62
     7
100
AcDbLine
 10
-375.821239766261
 20
1143.33789511078
 30
0.0
 11
-375.121239766261
 21
1144.03789511078
 31
0.0
  0
LINE
  5
24F
330
87
100
AcDbEntity
  8
LC-001-005-----0
  6
Continuous
 62
     7
100
AcDbLine
 10
-375.821239766261
 20
1141.21657411078
 30
0.0
 11
-375.121239766261
 21
1141.91657411078
 31
0.0
  0
LINE
  5
250
330
87
100
AcDbEntity
  8
LC-001-005-----0
  6
Continuous
 62
     7
100
AcDbLine
 10
-386.048066766261
 20
1130.98974711078
 30
0.0
 11
-385.348474766261
 21
1131.68934011078
 31
0.0
  0
LINE
  5
251
330
87
100
AcDbEntity
  8
LC-001-005-----0
  6
Continuous
 62
     7
100
AcDbLine
 10
-375.821239766261
 20
1139.09525411078
 30
0.0
 11
-375.121239766261
 21
1139.79525411078
 31
0.0
  0
LINE
  5
252
330
87
100
AcDbEntity
  8
LC-001-005-----0
  6
Continuous
 62
     7
100
AcDbLine
 10
-383.926746766261
 20
1130.98974711078
 30
0.0
 11
-383.227153766261
 21
1131.68934011078
 31
0.0
  0
LINE
  5
253
330
87
100
AcDbEntity
  8
LC-001-005-----0
  6
Continuous
 62
     7
100
AcDbLine
 10
-375.821263766261
 20
1136.97391011078
 30
0.0
 11
-375.121239766261
 21
1137.67393411078
 31
0.0
  0
LINE
  5
254
330
87
100
AcDbEntity
  8
LC-001-005-----0
  6
Continuous
 62
     7
100
AcDbLine
 10
-381.805426766261
 20
1130.98974711078
 30
0.0
 11
-381.105402766261
 21
1131.68977111078
 31
0.0
  0
LINE
  5
255
330
87
100
AcDbEntity
  8
LC-001-005-----0
  6
Continuous
 62
     7
100
AcDbLine
 10
-376.936561766261
 20
1133.73729211078
 30
0.0
 11
-375.360061766261
 21
1135.31379111078
 31
0.0
  0
LINE
  5
256
330
87
100
AcDbEntity
  8
LC-001-005-----0
  6
Continuous
 62
     7
100
AcDbLine
 10
-379.445283766261
 20
1131.22856911078
 30
0.0
 11
-377.868784766261
 21
1132.80506911078
 31
0.0
  0
LINE
  5
257
330
87
100
AcDbEntity
  8
LC-001-005-----0
  6
Continuous
 62
     7
100
AcDbLine
 10
-639.605977766261
 20
1320.78778911078
 30
0.0
 11
-638.605977766261
 21
1321.78778911078
 31
0.0
  0
LINE
  5
258
330
87
100
AcDbEntity
  8
LC-001-005-----0
  6
Continuous
 62
     7
100
AcDbLine
 10
-638.1917637662609
 20
1320.78778911078
 30
0.0
 11
-637.1917637662609
 21
1321.78778911078
 31
0.0
  0
LINE
  5
259
330
87
100
AcDbEntity
  8
LC-001-005-----0
  6
Continuous
 62
     7
100
AcDbLine
 10
-636.777550766261
 20
1320.78778911078
 30
0.0
 11
-635.777550766261
 21
1321.78778911078
 31
0.0
  0
LINE
  5
25A
330
87
100
AcDbEntity
  8
LC-001-005-----0
  6
Continuous
 62
     7
100
AcDbLine
 10
-635.363336766261
 20
1320.78778911078
 30
0.0
 11
-634.363336766261
 21
1321.78778911078
 31
0.0
  0
LINE
  5
25B
330
87
100
AcDbEntity
  8
LC-001-005-----0
  6
Continuous
 62
     7
100
AcDbLine
 10
-633.9491227662611
 20
1320.78778911078
 30
0.0
 11
-632.9491227662611
 21
1321.78778911078
 31
0.0
  0
LINE
  5
25C
330
87
100
AcDbEntity
  8
LC-001-005-----0
  6
Continuous
 62
     7
100
AcDbLine
 10
-632.534909766261
 20
1320.78778911078
 30
0.0
 11
-631.534909766261
 21
1321.78778911078
 31
0.0
  0
LINE
  5
25D
330
87
100
AcDbEntity
  8
LC-001-005-----0
  6
Continuous
 62
     7
100
AcDbLine
 10
-631.120695766261
 20
1320.78778911078
 30
0.0
 11
-630.120695766261
 21
1321.78778911078
 31
0.0
  0
LINE
  5
25E
330
87
100
AcDbEntity
  8
LC-001-005-----0
  6
Continuous
 62
     7
100
AcDbLine
 10
-629.7064827662609
 20
1320.78778911078
 30
0.0
 11
-628.7064827662609
 21
1321.78778911078
 31
0.0
  0
LINE
  5
25F
330
87
100
AcDbEntity
  8
LC-001-005-----0
  6
Continuous
 62
     7
100
AcDbLine
 10
-628.292268766261
 20
1320.78778911078
 30
0.0
 11
-627.292268766261
 21
1321.78778911078
 31
0.0
  0
LINE
  5
260
330
87
100
AcDbEntity
  8
LC-001-005-----0
  6
Continuous
 62
     7
100
AcDbLine
 10
-626.878055766261
 20
1320.78778911078
 30
0.0
 11
-625.878055766261
 21
1321.78778911078
 31
0.0
  0
LINE
  5
261
330
87
100
AcDbEntity
  8
LC-001-005-----0
  6
Continuous
 62
     7
100
AcDbLine
 10
-625.463841766261
 20
1320.78778911078
 30
0.0
 11
-624.463841766261
 21
1321.78778911078
 31
0.0
  0
LINE
  5
262
330
87
100
AcDbEntity
  8
LC-001-005-----0
  6
Continuous
 62
     7
100
AcDbLine
 10
-624.0496277662611
 20
1320.78778911078
 30
0.0
 11
-623.0496277662611
 21
1321.78778911078
 31
0.0
  0
LINE
  5
263
330
87
100
AcDbEntity
  8
LC-001-005-----0
  6
Continuous
 62
     7
100
AcDbLine
 10
-622.635414766261
 20
1320.78778911078
 30
0.0
 11
-621.635414766261
 21
1321.78778911078
 31
0.0
  0
LINE
  5
264
330
87
100
AcDbEntity
  8
LC-001-005-----0
  6
Continuous
 62
     7
100
AcDbLine
 10
-621.2212007662611
 20
1320.78778911078
 30
0.0
 11
-620.2212007662611
 21
1321.78778911078
 31
0.0
  0
LINE
  5
265
330
87
100
AcDbEntity
  8
LC-001-005-----0
  6
Continuous
 62
     7
100
AcDbLine
 10
-619.806987766261
 20
1320.78778911078
 30
0.0
 11
-618.806987766261
 21
1321.78778911078
 31
0.0
  0
LINE
  5
266
330
87
100
AcDbEntity
  8
LC-001-005-----0
  6
Continuous
 62
     7
100
AcDbLine
 10
-618.3927737662609
 20
1320.78778911078
 30
0.0
 11
-617.3927737662609
 21
1321.78778911078
 31
0.0
  0
LINE
  5
267
330
87
100
AcDbEntity
  8
LC-001-005-----0
  6
Continuous
 62
     7
100
AcDbLine
 10
-616.978560766261
 20
1320.78778911078
 30
0.0
 11
-615.978560766261
 21
1321.78778911078
 31
0.0
  0
LINE
  5
268
330
87
100
AcDbEntity
  8
LC-001-005-----0
  6
Continuous
 62
     7
100
AcDbLine
 10
-615.564346766261
 20
1320.78778911078
 30
0.0
 11
-614.564346766261
 21
1321.78778911078
 31
0.0
  0
LINE
  5
269
330
87
100
AcDbEntity
  8
LC-001-005-----0
  6
Continuous
 62
     7
100
AcDbLine
 10
-614.1501337662611
 20
1320.78778911078
 30
0.0
 11
-613.1501337662611
 21
1321.78778911078
 31
0.0
  0
LINE
  5
26A
330
87
100
AcDbEntity
  8
LC-001-005-----0
  6
Continuous
 62
     7
100
AcDbLine
 10
-612.735919766261
 20
1320.78778911078
 30
0.0
 11
-611.735919766261
 21
1321.78778911078
 31
0.0
  0
LINE
  5
26B
330
87
100
AcDbEntity
  8
LC-001-005-----0
  6
Continuous
 62
     7
100
AcDbLine
 10
-611.321705766261
 20
1320.78778911078
 30
0.0
 11
-610.321705766261
 21
1321.78778911078
 31
0.0
  0
LINE
  5
26C
330
87
100
AcDbEntity
  8
LC-001-005-----0
  6
Continuous
 62
     7
100
AcDbLine
 10
-609.9074927662609
 20
1320.78778911078
 30
0.0
 11
-608.9074927662609
 21
1321.78778911078
 31
0.0
  0
LINE
  5
26D
330
87
100
AcDbEntity
  8
LC-001-005-----0
  6
Continuous
 62
     7
100
AcDbLine
 10
-608.493278766261
 20
1320.78778911078
 30
0.0
 11
-607.493278766261
 21
1321.78778911078
 31
0.0
  0
LINE
  5
26E
330
87
100
AcDbEntity
  8
LC-001-005-----0
  6
Continuous
 62
     7
100
AcDbLine
 10
-607.079065766261
 20
1320.78778911078
 30
0.0
 11
-606.079065766261
 21
1321.78778911078
 31
0.0
  0
LINE
  5
26F
330
87
100
AcDbEntity
  8
LC-001-005-----0
  6
Continuous
 62
     7
100
AcDbLine
 10
-605.664851766261
 20
1320.78778911078
 30
0.0
 11
-604.664851766261
 21
1321.78778911078
 31
0.0
  0
LINE
  5
270
330
87
100
AcDbEntity
  8
LC-001-005-----0
  6
Continuous
 62
     7
100
AcDbLine
 10
-604.2506387662611
 20
1320.78778911078
 30
0.0
 11
-603.2506387662611
 21
1321.78778911078
 31
0.0
  0
LINE
  5
271
330
87
100
AcDbEntity
  8
LC-001-005-----0
  6
Continuous
 62
     7
100
AcDbLine
 10
-602.836424766261
 20
1320.78778911078
 30
0.0
 11
-601.836424766261
 21
1321.78778911078
 31
0.0
  0
LINE
  5
272
330
87
100
AcDbEntity
  8
LC-001-005-----0
  6
Continuous
 62
     7
100
AcDbLine
 10
-601.4222107662611
 20
1320.78778911078
 30
0.0
 11
-600.4222107662611
 21
1321.78778911078
 31
0.0
  0
LINE
  5
273
330
87
100
AcDbEntity
  8
LC-001-005-----0
  6
Continuous
 62
     7
100
AcDbLine
 10
-600.007997766261
 20
1320.78778911078
 30
0.0
 11
-599.007997766261
 21
1321.78778911078
 31
0.0
  0
LINE
  5
274
330
87
100
AcDbEntity
  8
LC-001-005-----0
  6
Continuous
 62
     7
100
AcDbLine
 10
-598.5937837662609
 20
1320.78778911078
 30
0.0
 11
-597.5937837662609
 21
1321.78778911078
 31
0.0
  0
LINE
  5
275
330
87
100
AcDbEntity
  8
LC-001-005-----0
  6
Continuous
 62
     7
100
AcDbLine
 10
-597.179570766261
 20
1320.78778911078
 30
0.0
 11
-596.179570766261
 21
1321.78778911078
 31
0.0
  0
LINE
  5
276
330
87
100
AcDbEntity
  8
LC-001-005-----0
  6
Continuous
 62
     7
100
AcDbLine
 10
-595.765356766261
 20
1320.78778911078
 30
0.0
 11
-594.765356766261
 21
1321.78778911078
 31
0.0
  0
LINE
  5
277
330
87
100
AcDbEntity
  8
LC-001-005-----0
  6
Continuous
 62
     7
100
AcDbLine
 10
-594.351143766261
 20
1320.78778911078
 30
0.0
 11
-593.351143766261
 21
1321.78778911078
 31
0.0
  0
LINE
  5
278
330
87
100
AcDbEntity
  8
LC-001-005-----0
  6
Continuous
 62
     7
100
AcDbLine
 10
-592.9369297662611
 20
1320.78778911078
 30
0.0
 11
-591.9369297662611
 21
1321.78778911078
 31
0.0
  0
LINE
  5
279
330
87
100
AcDbEntity
  8
LC-001-005-----0
  6
Continuous
 62
     7
100
AcDbLine
 10
-591.522716766261
 20
1320.78778911078
 30
0.0
 11
-590.522716766261
 21
1321.78778911078
 31
0.0
  0
LINE
  5
27A
330
87
100
AcDbEntity
  8
LC-001-005-----0
  6
Continuous
 62
     7
100
AcDbLine
 10
-590.1085027662609
 20
1320.78778911078
 30
0.0
 11
-589.1085027662609
 21
1321.78778911078
 31
0.0
  0
LINE
  5
27B
330
87
100
AcDbEntity
  8
LC-001-005-----0
  6
Continuous
 62
     7
100
AcDbLine
 10
-588.694288766261
 20
1320.78778911078
 30
0.0
 11
-587.694288766261
 21
1321.78778911078
 31
0.0
  0
LINE
  5
27C
330
87
100
AcDbEntity
  8
LC-001-005-----0
  6
Continuous
 62
     7
100
AcDbLine
 10
-587.280075766261
 20
1320.78778911078
 30
0.0
 11
-586.280075766261
 21
1321.78778911078
 31
0.0
  0
LINE
  5
27D
330
87
100
AcDbEntity
  8
LC-001-005-----0
  6
Continuous
 62
     7
100
AcDbLine
 10
-585.865861766261
 20
1320.78778911078
 30
0.0
 11
-584.865861766261
 21
1321.78778911078
 31
0.0
  0
LINE
  5
27E
330
87
100
AcDbEntity
  8
LC-001-005-----0
  6
Continuous
 62
     7
100
AcDbLine
 10
-584.451648766261
 20
1320.78778911078
 30
0.0
 11
-583.612285766261
 21
1321.62715211078
 31
0.0
  0
LINE
  5
27F
330
87
100
AcDbEntity
  8
LC-001-005-----0
  6
Continuous
 62
     7
100
AcDbLine
 10
-583.533736766261
 20
1320.29148711078
 30
0.0
 11
-582.814825766261
 21
1321.01039811078
 31
0.0
  0
LINE
  5
280
330
87
100
AcDbEntity
  8
LC-001-005-----0
  6
Continuous
 62
     7
100
AcDbLine
 10
-583.206145766261
 20
1319.20486411078
 30
0.0
 11
-582.389648766261
 21
1320.02136111078
 31
0.0
  0
LINE
  5
281
330
87
100
AcDbEntity
  8
LC-001-005-----0
  6
Continuous
 62
     7
100
AcDbLine
 10
-582.907287766261
 20
1318.08950911078
 30
0.0
 11
-582.090790766261
 21
1318.90600611078
 31
0.0
  0
LINE
  5
282
330
87
100
AcDbEntity
  8
LC-001-005-----0
  6
Continuous
 62
     7
100
AcDbLine
 10
-582.608428766261
 20
1316.97415411078
 30
0.0
 11
-581.791931766261
 21
1317.79065111078
 31
0.0
  0
LINE
  5
283
330
87
100
AcDbEntity
  8
LC-001-005-----0
  6
Continuous
 62
     7
100
AcDbLine
 10
-582.309570766261
 20
1315.85879911078
 30
0.0
 11
-581.4930737662611
 21
1316.67529611078
 31
0.0
  0
LINE
  5
284
330
87
100
AcDbEntity
  8
LC-001-005-----0
  6
Continuous
 62
     7
100
AcDbLine
 10
-582.010711766261
 20
1314.74344411078
 30
0.0
 11
-581.1942147662611
 21
1315.55994111078
 31
0.0
  0
LINE
  5
285
330
87
100
AcDbEntity
  8
LC-001-005-----0
  6
Continuous
 62
     7
100
AcDbLine
 10
-581.711853766261
 20
1313.62808911078
 30
0.0
 11
-580.895356766261
 21
1314.44458611078
 31
0.0
  0
LINE
  5
286
330
87
100
AcDbEntity
  8
LC-001-005-----0
  6
Continuous
 62
     7
100
AcDbLine
 10
-581.4129947662609
 20
1312.51273411078
 30
0.0
 11
-580.596498766261
 21
1313.32923111078
 31
0.0
  0
LINE
  5
287
330
87
100
AcDbEntity
  8
LC-001-005-----0
  6
Continuous
 62
     7
100
AcDbLine
 10
-581.114136766261
 20
1311.39737911078
 30
0.0
 11
-580.297639766261
 21
1312.21387511078
 31
0.0
  0
LINE
  5
288
330
87
100
AcDbEntity
  8
LC-001-005-----0
  6
Continuous
 62
     7
100
AcDbLine
 10
-580.815277766261
 20
1310.28202411078
 30
0.0
 11
-579.998781766261
 21
1311.09852011078
 31
0.0
  0
LINE
  5
289
330
87
100
AcDbEntity
  8
LC-001-005-----0
  6
Continuous
 62
     7
100
AcDbLine
 10
-580.5164197662609
 20
1309.16666911078
 30
0.0
 11
-579.699922766261
 21
1309.98316511078
 31
0.0
  0
LINE
  5
28A
330
87
100
AcDbEntity
  8
LC-001-005-----0
  6
Continuous
 62
     7
100
AcDbLine
 10
-580.2175607662609
 20
1308.05131411078
 30
0.0
 11
-579.401064766261
 21
1308.86781011078
 31
0.0
  0
LINE
  5
28B
330
87
100
AcDbEntity
  8
LC-001-005-----0
  6
Continuous
 62
     7
100
AcDbLine
 10
-579.918702766261
 20
1306.93595911078
 30
0.0
 11
-579.102205766261
 21
1307.75245511078
 31
0.0
  0
LINE
  5
28C
330
87
100
AcDbEntity
  8
LC-001-005-----0
  6
Continuous
 62
     7
100
AcDbLine
 10
-579.619843766261
 20
1305.82060411078
 30
0.0
 11
-578.8033477662609
 21
1306.63710011078
 31
0.0
  0
LINE
  5
28D
330
87
100
AcDbEntity
  8
LC-001-005-----0
  6
Continuous
 62
     7
100
AcDbLine
 10
-579.320985766261
 20
1304.70524811078
 30
0.0
 11
-578.5044887662609
 21
1305.52174511078
 31
0.0
  0
LINE
  5
28E
330
87
100
AcDbEntity
  8
LC-001-005-----0
  6
Continuous
 62
     7
100
AcDbLine
 10
-579.022126766261
 20
1303.58989311078
 30
0.0
 11
-578.205630766261
 21
1304.40639011078
 31
0.0
  0
LINE
  5
28F
330
87
100
AcDbEntity
  8
LC-001-005-----0
  6
Continuous
 62
     7
100
AcDbLine
 10
-578.7232687662611
 20
1302.47453811078
 30
0.0
 11
-577.906771766261
 21
1303.29103511078
 31
0.0
  0
LINE
  5
290
330
87
100
AcDbEntity
  8
LC-001-005-----0
  6
Continuous
 62
     7
100
AcDbLine
 10
-578.424409766261
 20
1301.35918311078
 30
0.0
 11
-577.6079137662609
 21
1302.17568011078
 31
0.0
  0
LINE
  5
291
330
87
100
AcDbEntity
  8
LC-001-005-----0
  6
Continuous
 62
     7
100
AcDbLine
 10
-578.125551766261
 20
1300.24382811078
 30
0.0
 11
-577.3090547662609
 21
1301.06032511078
 31
0.0
  0
LINE
  5
292
330
87
100
AcDbEntity
  8
LC-001-005-----0
  6
Continuous
 62
     7
100
AcDbLine
 10
-577.826692766261
 20
1299.12847311078
 30
0.0
 11
-577.0101967662611
 21
1299.94497011078
 31
0.0
  0
LINE
  5
293
330
87
100
AcDbEntity
  8
LC-001-005-----0
  6
Continuous
 62
     7
100
AcDbLine
 10
-577.5278347662611
 20
1298.01311811078
 30
0.0
 11
-576.7113377662611
 21
1298.82961511078
 31
0.0
  0
LINE
  5
294
330
87
100
AcDbEntity
  8
LC-001-005-----0
  6
Continuous
 62
     7
100
AcDbLine
 10
-577.228975766261
 20
1296.89776311078
 30
0.0
 11
-576.412479766261
 21
1297.71426011078
 31
0.0
  0
LINE
  5
295
330
87
100
AcDbEntity
  8
LC-001-005-----0
  6
Continuous
 62
     7
100
AcDbLine
 10
-576.930117766261
 20
1295.78240811078
 30
0.0
 11
-576.113620766261
 21
1296.59890411078
 31
0.0
  0
LINE
  5
296
330
87
100
AcDbEntity
  8
LC-001-005-----0
  6
Continuous
 62
     7
100
AcDbLine
 10
-576.631258766261
 20
1294.66705311078
 30
0.0
 11
-575.814762766261
 21
1295.48354911078
 31
0.0
  0
LINE
  5
297
330
87
100
AcDbEntity
  8
LC-001-005-----0
  6
Continuous
 62
     7
100
AcDbLine
 10
-576.332400766261
 20
1293.55169811078
 30
0.0
 11
-575.515903766261
 21
1294.36819411078
 31
0.0
  0
LINE
  5
298
330
87
100
AcDbEntity
  8
LC-001-005-----0
  6
Continuous
 62
     7
100
AcDbLine
 10
-576.033541766261
 20
1292.43634311078
 30
0.0
 11
-575.2170457662611
 21
1293.25283911078
 31
0.0
  0
LINE
  5
299
330
87
100
AcDbEntity
  8
LC-001-005-----0
  6
Continuous
 62
     7
100
AcDbLine
 10
-575.734683766261
 20
1291.32098811078
 30
0.0
 11
-574.918186766261
 21
1292.13748411078
 31
0.0
  0
LINE
  5
29A
330
87
100
AcDbEntity
  8
LC-001-005-----0
  6
Continuous
 62
     7
100
AcDbLine
 10
-575.435824766261
 20
1290.20563311078
 30
0.0
 11
-574.619328766261
 21
1291.02212911078
 31
0.0
  0
LINE
  5
29B
330
87
100
AcDbEntity
  8
LC-001-005-----0
  6
Continuous
 62
     7
100
AcDbLine
 10
-575.1369667662609
 20
1289.09027711078
 30
0.0
 11
-574.320469766261
 21
1289.90677411078
 31
0.0
  0
LINE
  5
29C
330
87
100
AcDbEntity
  8
LC-001-005-----0
  6
Continuous
 62
     7
100
AcDbLine
 10
-574.8381077662609
 20
1287.97492211078
 30
0.0
 11
-574.021611766261
 21
1288.79141911078
 31
0.0
  0
LINE
  5
29D
330
87
100
AcDbEntity
  8
LC-001-005-----0
  6
Continuous
 62
     7
100
AcDbLine
 10
-574.539249766261
 20
1286.85956711078
 30
0.0
 11
-573.722752766261
 21
1287.67606411078
 31
0.0
  0
LINE
  5
29E
330
87
100
AcDbEntity
  8
LC-001-005-----0
  6
Continuous
 62
     7
100
AcDbLine
 10
-574.240390766261
 20
1285.74421211078
 30
0.0
 11
-573.423894766261
 21
1286.56070911078
 31
0.0
  0
LINE
  5
29F
330
87
100
AcDbEntity
  8
LC-001-005-----0
  6
Continuous
 62
     7
100
AcDbLine
 10
-573.9415327662609
 20
1284.62885711078
 30
0.0
 11
-573.1250357662609
 21
1285.44535411078
 31
0.0
  0
LINE
  5
2A0
330
87
100
AcDbEntity
  8
LC-001-005-----0
  6
Continuous
 62
     7
100
AcDbLine
 10
-573.6426737662609
 20
1283.51350211078
 30
0.0
 11
-572.826177766261
 21
1284.32999911078
 31
0.0
  0
LINE
  5
2A1
330
87
100
AcDbEntity
  8
LC-001-005-----0
  6
Continuous
 62
     7
100
AcDbLine
 10
-573.3438157662611
 20
1282.39814711078
 30
0.0
 11
-572.527318766261
 21
1283.21464411078
 31
0.0
  0
LINE
  5
2A2
330
87
100
AcDbEntity
  8
LC-001-005-----0
  6
Continuous
 62
     7
100
AcDbLine
 10
-573.0449567662611
 20
1281.28279211078
 30
0.0
 11
-572.2284607662609
 21
1282.09928911078
 31
0.0
  0
LINE
  5
2A3
330
87
100
AcDbEntity
  8
LC-001-005-----0
  6
Continuous
 62
     7
100
AcDbLine
 10
-572.746098766261
 20
1280.16743711078
 30
0.0
 11
-571.9296017662609
 21
1280.98393311078
 31
0.0
  0
LINE
  5
2A4
330
87
100
AcDbEntity
  8
LC-001-005-----0
  6
Continuous
 62
     7
100
AcDbLine
 10
-572.447239766261
 20
1279.05208211078
 30
0.0
 11
-571.630743766261
 21
1279.86857811078
 31
0.0
  0
LINE
  5
2A5
330
87
100
AcDbEntity
  8
LC-001-005-----0
  6
Continuous
 62
     7
100
AcDbLine
 10
-572.148381766261
 20
1277.93672711078
 30
0.0
 11
-571.331884766261
 21
1278.75322311078
 31
0.0
  0
LINE
  5
2A6
330
87
100
AcDbEntity
  8
LC-001-005-----0
  6
Continuous
 62
     7
100
AcDbLine
 10
-571.849522766261
 20
1276.82137211078
 30
0.0
 11
-571.033026766261
 21
1277.63786811078
 31
0.0
  0
LINE
  5
2A7
330
87
100
AcDbEntity
  8
LC-001-005-----0
  6
Continuous
 62
     7
100
AcDbLine
 10
-571.5506647662611
 20
1275.70601711078
 30
0.0
 11
-570.734167766261
 21
1276.52251311078
 31
0.0
  0
LINE
  5
2A8
330
87
100
AcDbEntity
  8
LC-001-005-----0
  6
Continuous
 62
     7
100
AcDbLine
 10
-571.251805766261
 20
1274.59066211078
 30
0.0
 11
-570.4353097662611
 21
1275.40715811078
 31
0.0
  0
LINE
  5
2A9
330
87
100
AcDbEntity
  8
LC-001-005-----0
  6
Continuous
 62
     7
100
AcDbLine
 10
-570.952947766261
 20
1273.47530611078
 30
0.0
 11
-570.136450766261
 21
1274.29180311078
 31
0.0
  0
LINE
  5
2AA
330
87
100
AcDbEntity
  8
LC-001-005-----0
  6
Continuous
 62
     7
100
AcDbLine
 10
-570.654088766261
 20
1272.35995111078
 30
0.0
 11
-569.837592766261
 21
1273.17644811078
 31
0.0
  0
LINE
  5
2AB
330
87
100
AcDbEntity
  8
LC-001-005-----0
  6
Continuous
 62
     7
100
AcDbLine
 10
-570.355230766261
 20
1271.24459611078
 30
0.0
 11
-569.538733766261
 21
1272.06109311078
 31
0.0
  0
LINE
  5
2AC
330
87
100
AcDbEntity
  8
LC-001-005-----0
  6
Continuous
 62
     7
100
AcDbLine
 10
-570.056371766261
 20
1270.12924111078
 30
0.0
 11
-569.2398757662611
 21
1270.94573811078
 31
0.0
  0
LINE
  5
2AD
330
87
100
AcDbEntity
  8
LC-001-005-----0
  6
Continuous
 62
     7
100
AcDbLine
 10
-569.757513766261
 20
1269.01388611078
 30
0.0
 11
-568.941016766261
 21
1269.83038311078
 31
0.0
  0
LINE
  5
2AE
330
87
100
AcDbEntity
  8
LC-001-005-----0
  6
Continuous
 62
     7
100
AcDbLine
 10
-569.4586547662609
 20
1267.89853111078
 30
0.0
 11
-568.642158766261
 21
1268.71502811078
 31
0.0
  0
LINE
  5
2AF
330
87
100
AcDbEntity
  8
LC-001-005-----0
  6
Continuous
 62
     7
100
AcDbLine
 10
-569.159796766261
 20
1266.78317611078
 30
0.0
 11
-568.343299766261
 21
1267.59967311078
 31
0.0
  0
LINE
  5
2B0
330
87
100
AcDbEntity
  8
LC-001-005-----0
  6
Continuous
 62
     7
100
AcDbLine
 10
-568.860937766261
 20
1265.66782111078
 30
0.0
 11
-568.044441766261
 21
1266.48431811078
 31
0.0
  0
LINE
  5
2B1
330
87
100
AcDbEntity
  8
LC-001-005-----0
  6
Continuous
 62
     7
100
AcDbLine
 10
-568.5620797662609
 20
1264.55246611078
 30
0.0
 11
-567.745582766261
 21
1265.36896211078
 31
0.0
  0
LINE
  5
2B2
330
87
100
AcDbEntity
  8
LC-001-005-----0
  6
Continuous
 62
     7
100
AcDbLine
 10
-568.263221766261
 20
1263.43711111078
 30
0.0
 11
-567.446724766261
 21
1264.25360711078
 31
0.0
  0
LINE
  5
2B3
330
87
100
AcDbEntity
  8
LC-001-005-----0
  6
Continuous
 62
     7
100
AcDbLine
 10
-567.964362766261
 20
1262.32175611078
 30
0.0
 11
-567.147865766261
 21
1263.13825211078
 31
0.0
  0
LINE
  5
2B4
330
87
100
AcDbEntity
  8
LC-001-005-----0
  6
Continuous
 62
     7
100
AcDbLine
 10
-567.6655047662609
 20
1261.20640111078
 30
0.0
 11
-566.8490077662609
 21
1262.02289711078
 31
0.0
  0
LINE
  5
2B5
330
87
100
AcDbEntity
  8
LC-001-005-----0
  6
Continuous
 62
     7
100
AcDbLine
 10
-567.366645766261
 20
1260.09104611078
 30
0.0
 11
-566.5501487662609
 21
1260.90754211078
 31
0.0
  0
LINE
  5
2B6
330
87
100
AcDbEntity
  8
LC-001-005-----0
  6
Continuous
 62
     7
100
AcDbLine
 10
-567.0677877662611
 20
1258.97569111078
 30
0.0
 11
-566.251290766261
 21
1259.79218711078
 31
0.0
  0
LINE
  5
2B7
330
87
100
AcDbEntity
  8
LC-001-005-----0
  6
Continuous
 62
     7
100
AcDbLine
 10
-566.7689287662611
 20
1257.86033511078
 30
0.0
 11
-565.952431766261
 21
1258.67683211078
 31
0.0
  0
LINE
  5
2B8
330
87
100
AcDbEntity
  8
LC-001-005-----0
  6
Continuous
 62
     7
100
AcDbLine
 10
-566.470070766261
 20
1256.74498011078
 30
0.0
 11
-565.6535737662609
 21
1257.56147711078
 31
0.0
  0
LINE
  5
2B9
330
87
100
AcDbEntity
  8
LC-001-005-----0
  6
Continuous
 62
     7
100
AcDbLine
 10
-566.171211766261
 20
1255.62962511078
 30
0.0
 11
-565.3547147662609
 21
1256.44612211078
 31
0.0
  0
LINE
  5
2BA
330
87
100
AcDbEntity
  8
LC-001-005-----0
  6
Continuous
 62
     7
100
AcDbLine
 10
-565.872353766261
 20
1254.51427011078
 30
0.0
 11
-565.0558567662611
 21
1255.33076711078
 31
0.0
  0
LINE
  5
2BB
330
87
100
AcDbEntity
  8
LC-001-005-----0
  6
Continuous
 62
     7
100
AcDbLine
 10
-565.5734947662611
 20
1253.39891511078
 30
0.0
 11
-564.756998766261
 21
1254.21541211078
 31
0.0
  0
LINE
  5
2BC
330
87
100
AcDbEntity
  8
LC-001-005-----0
  6
Continuous
 62
     7
100
AcDbLine
 10
-565.2746367662611
 20
1252.28356011078
 30
0.0
 11
-564.458139766261
 21
1253.10005711078
 31
0.0
  0
LINE
  5
2BD
330
87
100
AcDbEntity
  8
LC-001-005-----0
  6
Continuous
 62
     7
100
AcDbLine
 10
-564.975777766261
 20
1251.16820511078
 30
0.0
 11
-564.159281766261
 21
1251.98470211078
 31
0.0
  0
LINE
  5
2BE
330
87
100
AcDbEntity
  8
LC-001-005-----0
  6
Continuous
 62
     7
100
AcDbLine
 10
-564.676919766261
 20
1250.05285011078
 30
0.0
 11
-563.860422766261
 21
1250.86934711078
 31
0.0
  0
LINE
  5
2BF
330
87
100
AcDbEntity
  8
LC-001-005-----0
  6
Continuous
 62
     7
100
AcDbLine
 10
-564.378060766261
 20
1248.93749511078
 30
0.0
 11
-563.561564766261
 21
1249.75399111078
 31
0.0
  0
LINE
  5
2C0
330
87
100
AcDbEntity
  8
LC-001-005-----0
  6
Continuous
 62
     7
100
AcDbLine
 10
-564.079202766261
 20
1247.82214011078
 30
0.0
 11
-563.2627057662611
 21
1248.63863611078
 31
0.0
  0
LINE
  5
2C1
330
87
100
AcDbEntity
  8
LC-001-005-----0
  6
Continuous
 62
     7
100
AcDbLine
 10
-563.780343766261
 20
1246.70678511078
 30
0.0
 11
-562.9638477662611
 21
1247.52328111078
 31
0.0
  0
LINE
  5
2C2
330
87
100
AcDbEntity
  8
LC-001-005-----0
  6
Continuous
 62
     7
100
AcDbLine
 10
-563.481485766261
 20
1245.59143011078
 30
0.0
 11
-562.664988766261
 21
1246.40792611078
 31
0.0
  0
LINE
  5
2C3
330
87
100
AcDbEntity
  8
LC-001-005-----0
  6
Continuous
 62
     7
100
AcDbLine
 10
-563.1826267662609
 20
1244.47607511078
 30
0.0
 11
-562.366130766261
 21
1245.29257111078
 31
0.0
  0
LINE
  5
2C4
330
87
100
AcDbEntity
  8
LC-001-005-----0
  6
Continuous
 62
     7
100
AcDbLine
 10
-562.883768766261
 20
1243.36072011078
 30
0.0
 11
-562.067271766261
 21
1244.17721611078
 31
0.0
  0
LINE
  5
2C5
330
87
100
AcDbEntity
  8
LC-001-005-----0
  6
Continuous
 62
     7
100
AcDbLine
 10
-562.584909766261
 20
1242.24536411078
 30
0.0
 11
-561.768413766261
 21
1243.06186111078
 31
0.0
  0
LINE
  5
2C6
330
87
100
AcDbEntity
  8
LC-001-005-----0
  6
Continuous
 62
     7
100
AcDbLine
 10
-562.2860517662609
 20
1241.13000911078
 30
0.0
 11
-561.469554766261
 21
1241.94650611078
 31
0.0
  0
LINE
  5
2C7
330
87
100
AcDbEntity
  8
LC-001-005-----0
  6
Continuous
 62
     7
100
AcDbLine
 10
-561.9871927662609
 20
1240.01465411078
 30
0.0
 11
-561.170696766261
 21
1240.83115111078
 31
0.0
  0
LINE
  5
2C8
330
87
100
AcDbEntity
  8
LC-001-005-----0
  6
Continuous
 62
     7
100
AcDbLine
 10
-561.688334766261
 20
1238.89929911078
 30
0.0
 11
-560.871837766261
 21
1239.71579611078
 31
0.0
  0
LINE
  5
2C9
330
87
100
AcDbEntity
  8
LC-001-005-----0
  6
Continuous
 62
     7
100
AcDbLine
 10
-561.3894757662611
 20
1237.78394411078
 30
0.0
 11
-560.5729797662609
 21
1238.60044111078
 31
0.0
  0
LINE
  5
2CA
330
87
100
AcDbEntity
  8
LC-001-005-----0
  6
Continuous
 62
     7
100
AcDbLine
 10
-561.090617766261
 20
1236.66858911078
 30
0.0
 11
-560.2741207662609
 21
1237.48508611078
 31
0.0
  0
LINE
  5
2CB
330
87
100
AcDbEntity
  8
LC-001-005-----0
  6
Continuous
 62
     7
100
AcDbLine
 10
-560.791758766261
 20
1235.55323411078
 30
0.0
 11
-559.975262766261
 21
1236.36973111078
 31
0.0
  0
LINE
  5
2CC
330
87
100
AcDbEntity
  8
LC-001-005-----0
  6
Continuous
 62
     7
100
AcDbLine
 10
-560.4929007662611
 20
1234.43787911078
 30
0.0
 11
-559.676403766261
 21
1235.25437611078
 31
0.0
  0
LINE
  5
2CD
330
87
100
AcDbEntity
  8
LC-001-005-----0
  6
Continuous
 62
     7
100
AcDbLine
 10
-560.194041766261
 20
1233.32252411078
 30
0.0
 11
-559.3775457662609
 21
1234.13902011078
 31
0.0
  0
LINE
  5
2CE
330
87
100
AcDbEntity
  8
LC-001-005-----0
  6
Continuous
 62
     7
100
AcDbLine
 10
-559.895183766261
 20
1232.20716911078
 30
0.0
 11
-559.078686766261
 21
1233.02366511078
 31
0.0
  0
LINE
  5
2CF
330
87
100
AcDbEntity
  8
LC-001-005-----0
  6
Continuous
 62
     7
100
AcDbLine
 10
-559.5963247662611
 20
1231.09181411078
 30
0.0
 11
-558.7798287662611
 21
1231.90831011078
 31
0.0
  0
LINE
  5
2D0
330
87
100
AcDbEntity
  8
LC-001-005-----0
  6
Continuous
 62
     7
100
AcDbLine
 10
-559.2974667662611
 20
1229.97645911078
 30
0.0
 11
-558.4809697662611
 21
1230.79295511078
 31
0.0
  0
LINE
  5
2D1
330
87
100
AcDbEntity
  8
LC-001-005-----0
  6
Continuous
 62
     7
100
AcDbLine
 10
-558.998607766261
 20
1228.86110411078
 30
0.0
 11
-558.182111766261
 21
1229.67760011078
 31
0.0
  0
LINE
  5
2D2
330
87
100
AcDbEntity
  8
LC-001-005-----0
  6
Continuous
 62
     7
100
AcDbLine
 10
-558.699749766261
 20
1227.74574911078
 30
0.0
 11
-557.883252766261
 21
1228.56224511078
 31
0.0
  0
LINE
  5
2D3
330
87
100
AcDbEntity
  8
LC-001-005-----0
  6
Continuous
 62
     7
100
AcDbLine
 10
-558.400890766261
 20
1226.63039311078
 30
0.0
 11
-557.584394766261
 21
1227.44689011078
 31
0.0
  0
LINE
  5
2D4
330
87
100
AcDbEntity
  8
LC-001-005-----0
  6
Continuous
 62
     7
100
AcDbLine
 10
-558.102032766261
 20
1225.51503811078
 30
0.0
 11
-557.2855357662611
 21
1226.33153511078
 31
0.0
  0
LINE
  5
2D5
330
87
100
AcDbEntity
  8
LC-001-005-----0
  6
Continuous
 62
     7
100
AcDbLine
 10
-557.803173766261
 20
1224.39968311078
 30
0.0
 11
-556.9866777662611
 21
1225.21618011078
 31
0.0
  0
LINE
  5
2D6
330
87
100
AcDbEntity
  8
LC-001-005-----0
  6
Continuous
 62
     7
100
AcDbLine
 10
-557.504315766261
 20
1223.28432811078
 30
0.0
 11
-556.687818766261
 21
1224.10082511078
 31
0.0
  0
LINE
  5
2D7
330
87
100
AcDbEntity
  8
LC-001-005-----0
  6
Continuous
 62
     7
100
AcDbLine
 10
-557.205456766261
 20
1222.16897311078
 30
0.0
 11
-556.388960766261
 21
1222.98547011078
 31
0.0
  0
LINE
  5
2D8
330
87
100
AcDbEntity
  8
LC-001-005-----0
  6
Continuous
 62
     7
100
AcDbLine
 10
-556.9065987662609
 20
1221.05361811078
 30
0.0
 11
-556.090101766261
 21
1221.87011511078
 31
0.0
  0
LINE
  5
2D9
330
87
100
AcDbEntity
  8
LC-001-005-----0
  6
Continuous
 62
     7
100
AcDbLine
 10
-556.6077397662609
 20
1219.93826311078
 30
0.0
 11
-555.791243766261
 21
1220.75476011078
 31
0.0
  0
LINE
  5
2DA
330
87
100
AcDbEntity
  8
LC-001-005-----0
  6
Continuous
 62
     7
100
AcDbLine
 10
-556.308881766261
 20
1218.82290811078
 30
0.0
 11
-555.492384766261
 21
1219.63940511078
 31
0.0
  0
LINE
  5
2DB
330
87
100
AcDbEntity
  8
LC-001-005-----0
  6
Continuous
 62
     7
100
AcDbLine
 10
-556.010022766261
 20
1217.70755311078
 30
0.0
 11
-555.193526766261
 21
1218.52404911078
 31
0.0
  0
LINE
  5
2DC
330
87
100
AcDbEntity
  8
LC-001-005-----0
  6
Continuous
 62
     7
100
AcDbLine
 10
-555.7111647662609
 20
1216.59219811078
 30
0.0
 11
-554.8946677662609
 21
1217.40869411078
 31
0.0
  0
LINE
  5
2DD
330
87
100
AcDbEntity
  8
LC-001-005-----0
  6
Continuous
 62
     7
100
AcDbLine
 10
-555.4123057662609
 20
1215.47684311078
 30
0.0
 11
-554.595809766261
 21
1216.29333911078
 31
0.0
  0
LINE
  5
2DE
330
87
100
AcDbEntity
  8
LC-001-005-----0
  6
Continuous
 62
     7
100
AcDbLine
 10
-555.1134477662611
 20
1214.36148811078
 30
0.0
 11
-554.296950766261
 21
1215.17798411078
 31
0.0
  0
LINE
  5
2DF
330
87
100
AcDbEntity
  8
LC-001-005-----0
  6
Continuous
 62
     7
100
AcDbLine
 10
-554.8145887662611
 20
1213.24613311078
 30
0.0
 11
-553.9980927662609
 21
1214.06262911078
 31
0.0
  0
LINE
  5
2E0
330
87
100
AcDbEntity
  8
LC-001-005-----0
  6
Continuous
 62
     7
100
AcDbLine
 10
-554.515730766261
 20
1212.13077811078
 30
0.0
 11
-553.6992337662609
 21
1212.94727411078
 31
0.0
  0
LINE
  5
2E1
330
87
100
AcDbEntity
  8
LC-001-005-----0
  6
Continuous
 62
     7
100
AcDbLine
 10
-554.216871766261
 20
1211.01542211078
 30
0.0
 11
-553.400375766261
 21
1211.83191911078
 31
0.0
  0
LINE
  5
2E2
330
87
100
AcDbEntity
  8
LC-001-005-----0
  6
Continuous
 62
     7
100
AcDbLine
 10
-553.918013766261
 20
1209.90006711078
 30
0.0
 11
-553.101516766261
 21
1210.71656411078
 31
0.0
  0
LINE
  5
2E3
330
87
100
AcDbEntity
  8
LC-001-005-----0
  6
Continuous
 62
     7
100
AcDbLine
 10
-553.619154766261
 20
1208.78471211078
 30
0.0
 11
-552.802658766261
 21
1209.60120911078
 31
0.0
  0
LINE
  5
2E4
330
87
100
AcDbEntity
  8
LC-001-005-----0
  6
Continuous
 62
     7
100
AcDbLine
 10
-553.3202967662611
 20
1207.66935711078
 30
0.0
 11
-552.503799766261
 21
1208.48585411078
 31
0.0
  0
LINE
  5
2E5
330
87
100
AcDbEntity
  8
LC-001-005-----0
  6
Continuous
 62
     7
100
AcDbLine
 10
-553.021437766261
 20
1206.55400211078
 30
0.0
 11
-552.2049417662611
 21
1207.37049911078
 31
0.0
  0
LINE
  5
2E6
330
87
100
AcDbEntity
  8
LC-001-005-----0
  6
Continuous
 62
     7
100
AcDbLine
 10
-552.722579766261
 20
1205.43864711078
 30
0.0
 11
-551.906082766261
 21
1206.25514411078
 31
0.0
  0
LINE
  5
2E7
330
87
100
AcDbEntity
  8
LC-001-005-----0
  6
Continuous
 62
     7
100
AcDbLine
 10
-552.423720766261
 20
1204.32329211078
 30
0.0
 11
-551.607224766261
 21
1205.13978911078
 31
0.0
  0
LINE
  5
2E8
330
87
100
AcDbEntity
  8
LC-001-005-----0
  6
Continuous
 62
     7
100
AcDbLine
 10
-551.3409207662611
 20
1203.99187911078
 30
0.0
 11
-551.308365766261
 21
1204.02443411078
 31
0.0
  0
LINE
  5
2E9
330
87
100
AcDbEntity
  8
LC-001-005-----0
  6
Continuous
 62
     7
100
AcDbLine
 10
-552.124862766261
 20
1203.20793711078
 30
0.0
 11
-551.355565766261
 21
1203.97723411078
 31
0.0
  0
LINE
  5
2EA
330
87
100
AcDbEntity
  8
LC-001-005-----0
  6
Continuous
 62
     7
100
AcDbLine
 10
-551.826004766261
 20
1202.09258211078
 30
0.0
 11
-551.031348766261
 21
1202.88723711078
 31
0.0
  0
LINE
  5
2EB
330
87
100
AcDbEntity
  8
LC-001-005-----0
  6
Continuous
 62
     7
100
AcDbLine
 10
-551.4855067662611
 20
1201.01886611078
 30
0.0
 11
-550.707953766261
 21
1201.79641911078
 31
0.0
  0
LINE
  5
2EC
330
87
100
AcDbEntity
  8
LC-001-005-----0
  6
Continuous
 62
     7
100
AcDbLine
 10
-550.9790667662611
 20
1200.11109211078
 30
0.0
 11
-550.2585817662609
 21
1200.83157811078
 31
0.0
  0
LINE
  5
2ED
330
87
100
AcDbEntity
  8
LC-001-005-----0
  6
Continuous
 62
     7
100
AcDbLine
 10
-550.322925766261
 20
1199.35302011078
 30
0.0
 11
-549.6154597662611
 21
1200.06048511078
 31
0.0
  0
LINE
  5
2EE
330
87
100
AcDbEntity
  8
LC-001-005-----0
  6
Continuous
 62
     7
100
AcDbLine
 10
-549.5237377662611
 20
1198.73799411078
 30
0.0
 11
-548.792345766261
 21
1199.46938711078
 31
0.0
  0
LINE
  5
2EF
330
87
100
AcDbEntity
  8
LC-001-005-----0
  6
Continuous
 62
     7
100
AcDbLine
 10
-548.569158766261
 20
1198.27836011078
 30
0.0
 11
-547.7631537662611
 21
1199.08436511078
 31
0.0
  0
LINE
  5
2F0
330
87
100
AcDbEntity
  8
LC-001-005-----0
  6
Continuous
 62
     7
100
AcDbLine
 10
-547.417552766261
 20
1198.01575211078
 30
0.0
 11
-546.445922766261
 21
1198.98738211078
 31
0.0
  0
LINE
  5
2F1
330
87
100
AcDbEntity
  8
LC-001-005-----0
  6
Continuous
 62
     7
100
AcDbLine
 10
-546.0313027662611
 20
1197.98778911078
 30
0.0
 11
-545.031709766261
 21
1198.98738211078
 31
0.0
  0
LINE
  5
2F2
330
87
100
AcDbEntity
  8
LC-001-005-----0
  6
Continuous
 62
     7
100
AcDbLine
 10
-544.617088766261
 20
1197.98778911078
 30
0.0
 11
-543.6174957662611
 21
1198.98738211078
 31
0.0
  0
LINE
  5
2F3
330
87
100
AcDbEntity
  8
LC-001-005-----0
  6
Continuous
 62
     7
100
AcDbLine
 10
-543.202874766261
 20
1197.98778911078
 30
0.0
 11
-542.203282766261
 21
1198.98738211078
 31
0.0
  0
LINE
  5
2F4
330
87
100
AcDbEntity
  8
LC-001-005-----0
  6
Continuous
 62
     7
100
AcDbLine
 10
-541.7886617662609
 20
1197.98778911078
 30
0.0
 11
-540.7890687662609
 21
1198.98738211078
 31
0.0
  0
LINE
  5
2F5
330
87
100
AcDbEntity
  8
LC-001-005-----0
  6
Continuous
 62
     7
100
AcDbLine
 10
-540.374447766261
 20
1197.98778911078
 30
0.0
 11
-539.374854766261
 21
1198.98738211078
 31
0.0
  0
LINE
  5
2F6
330
87
100
AcDbEntity
  8
LC-001-005-----0
  6
Continuous
 62
     7
100
AcDbLine
 10
-538.960234766261
 20
1197.98778911078
 30
0.0
 11
-537.960641766261
 21
1198.98738211078
 31
0.0
  0
LINE
  5
2F7
330
87
100
AcDbEntity
  8
LC-001-005-----0
  6
Continuous
 62
     7
100
AcDbLine
 10
-537.546020766261
 20
1197.98778911078
 30
0.0
 11
-536.546427766261
 21
1198.98738211078
 31
0.0
  0
LINE
  5
2F8
330
87
100
AcDbEntity
  8
LC-001-005-----0
  6
Continuous
 62
     7
100
AcDbLine
 10
-536.131807766261
 20
1197.98778911078
 30
0.0
 11
-535.132214766261
 21
1198.98738211078
 31
0.0
  0
LINE
  5
2F9
330
87
100
AcDbEntity
  8
LC-001-005-----0
  6
Continuous
 62
     7
100
AcDbLine
 10
-534.717593766261
 20
1197.98778911078
 30
0.0
 11
-533.718000766261
 21
1198.98738211078
 31
0.0
  0
LINE
  5
2FA
330
87
100
AcDbEntity
  8
LC-001-005-----0
  6
Continuous
 62
     7
100
AcDbLine
 10
-533.303380766261
 20
1197.98778911078
 30
0.0
 11
-532.3037877662609
 21
1198.98738211078
 31
0.0
  0
LINE
  5
2FB
330
87
100
AcDbEntity
  8
LC-001-005-----0
  6
Continuous
 62
     7
100
AcDbLine
 10
-531.889166766261
 20
1197.98778911078
 30
0.0
 11
-531.859493766261
 21
1198.01746211078
 31
0.0
  0
LINE
  5
2FC
330
87
100
AcDbEntity
  8
LC-001-005-----0
  6
Continuous
 62
     7
100
AcDbLine
 10
-532.2617747662609
 20
1132.69315511078
 30
0.0
 11
-533.4542857662609
 21
1133.88566611078
 31
0.0
  0
LINE
  5
2FD
330
87
100
AcDbEntity
  8
LC-001-005-----0
  6
Continuous
 62
     7
100
AcDbLine
 10
-527.015319766261
 20
1131.68934011078
 30
0.0
 11
-534.4581007662609
 21
1139.13212211078
 31
0.0
  0
LINE
  5
2FE
330
87
100
AcDbEntity
  8
LC-001-005-----0
  6
Continuous
 62
     7
100
AcDbLine
 10
-523.658094766261
 20
1132.57475611078
 30
0.0
 11
-534.4581007662609
 21
1143.37476211078
 31
0.0
  0
LINE
  5
2FF
330
87
100
AcDbEntity
  8
LC-001-005-----0
  6
Continuous
 62
     7
100
AcDbLine
 10
-523.658094766261
 20
1136.81739711078
 30
0.0
 11
-534.4581007662609
 21
1147.61740311078
 31
0.0
  0
LINE
  5
300
330
87
100
AcDbEntity
  8
LC-001-005-----0
  6
Continuous
 62
     7
100
AcDbLine
 10
-523.658094766261
 20
1141.06003711078
 30
0.0
 11
-534.4581007662609
 21
1151.86004411078
 31
0.0
  0
LINE
  5
301
330
87
100
AcDbEntity
  8
LC-001-005-----0
  6
Continuous
 62
     7
100
AcDbLine
 10
-523.658094766261
 20
1145.30267811078
 30
0.0
 11
-534.4581007662609
 21
1156.10268411078
 31
0.0
  0
LINE
  5
302
330
87
100
AcDbEntity
  8
LC-001-005-----0
  6
Continuous
 62
     7
100
AcDbLine
 10
-523.658094766261
 20
1149.54531911078
 30
0.0
 11
-534.4581007662609
 21
1160.34532511078
 31
0.0
  0
LINE
  5
303
330
87
100
AcDbEntity
  8
LC-001-005-----0
  6
Continuous
 62
     7
100
AcDbLine
 10
-523.658094766261
 20
1153.78795911078
 30
0.0
 11
-534.4581007662609
 21
1164.58796611078
 31
0.0
  0
LINE
  5
304
330
87
100
AcDbEntity
  8
LC-001-005-----0
  6
Continuous
 62
     7
100
AcDbLine
 10
-523.658094766261
 20
1158.03060011078
 30
0.0
 11
-534.4581007662609
 21
1168.83060611078
 31
0.0
  0
LINE
  5
305
330
87
100
AcDbEntity
  8
LC-001-005-----0
  6
Continuous
 62
     7
100
AcDbLine
 10
-523.658094766261
 20
1162.27324111078
 30
0.0
 11
-534.4581007662609
 21
1173.07324711078
 31
0.0
  0
LINE
  5
306
330
87
100
AcDbEntity
  8
LC-001-005-----0
  6
Continuous
 62
     7
100
AcDbLine
 10
-523.658094766261
 20
1166.51588211078
 30
0.0
 11
-534.4581007662609
 21
1177.31588811078
 31
0.0
  0
LINE
  5
307
330
87
100
AcDbEntity
  8
LC-001-005-----0
  6
Continuous
 62
     7
100
AcDbLine
 10
-523.658094766261
 20
1170.75852211078
 30
0.0
 11
-534.4581007662609
 21
1181.55852811078
 31
0.0
  0
LINE
  5
308
330
87
100
AcDbEntity
  8
LC-001-005-----0
  6
Continuous
 62
     7
100
AcDbLine
 10
-547.734610766261
 20
1199.07767911078
 30
0.0
 11
-550.8142307662611
 21
1202.15729911078
 31
0.0
  0
LINE
  5
309
330
87
100
AcDbEntity
  8
LC-001-005-----0
  6
Continuous
 62
     7
100
AcDbLine
 10
-523.658094766261
 20
1175.00116311078
 30
0.0
 11
-534.4581007662609
 21
1185.80116911078
 31
0.0
  0
LINE
  5
30A
330
87
100
AcDbEntity
  8
LC-001-005-----0
  6
Continuous
 62
     7
100
AcDbLine
 10
-543.4016727662611
 20
1198.98738211078
 30
0.0
 11
-548.429898766261
 21
1204.01560811078
 31
0.0
  0
LINE
  5
30B
330
87
100
AcDbEntity
  8
LC-001-005-----0
  6
Continuous
 62
     7
100
AcDbLine
 10
-542.101672766261
 20
1197.68738211078
 30
0.0
 11
-542.4016727662611
 21
1197.98738211078
 31
0.0
  0
LINE
  5
30C
330
87
100
AcDbEntity
  8
LC-001-005-----0
  6
Continuous
 62
     7
100
AcDbLine
 10
-523.658094766261
 20
1179.24380411078
 30
0.0
 11
-534.4581007662609
 21
1190.04381011078
 31
0.0
  0
LINE
  5
30D
330
87
100
AcDbEntity
  8
LC-001-005-----0
  6
Continuous
 62
     7
100
AcDbLine
 10
-539.889493766261
 20
1199.71784311078
 30
0.0
 11
-544.221372766261
 21
1204.04972211078
 31
0.0
  0
LINE
  5
30E
330
87
100
AcDbEntity
  8
LC-001-005-----0
  6
Continuous
 62
     7
100
AcDbLine
 10
-539.159031766261
 20
1198.98738211078
 30
0.0
 11
-539.159439766261
 21
1198.98778911078
 31
0.0
  0
LINE
  5
30F
330
87
100
AcDbEntity
  8
LC-001-005-----0
  6
Continuous
 62
     7
100
AcDbLine
 10
-536.657289766261
 20
1196.48563911078
 30
0.0
 11
-538.159031766261
 21
1197.98738211078
 31
0.0
  0
LINE
  5
310
330
87
100
AcDbEntity
  8
LC-001-005-----0
  6
Continuous
 62
     7
100
AcDbLine
 10
-523.658094766261
 20
1183.48644411078
 30
0.0
 11
-535.6598427662609
 21
1195.48819311078
 31
0.0
  0
LINE
  5
311
330
87
100
AcDbEntity
  8
LC-001-005-----0
  6
Continuous
 62
     7
100
AcDbLine
 10
-539.889493766261
 20
1203.96048411078
 30
0.0
 11
-540.012845766261
 21
1204.08383611078
 31
0.0
  0
LINE
  5
312
330
87
100
AcDbEntity
  8
LC-001-005-----0
  6
Continuous
 62
     7
100
AcDbLine
 10
-534.916391766261
 20
1198.98738211078
 30
0.0
 11
-535.889491766261
 21
1199.96048211078
 31
0.0
  0
LINE
  5
313
330
87
100
AcDbEntity
  8
LC-001-005-----0
  6
Continuous
 62
     7
100
AcDbLine
 10
-523.658094766261
 20
1187.72908511078
 30
0.0
 11
-533.916391766261
 21
1197.98738211078
 31
0.0
  0
LINE
  5
314
330
87
100
AcDbEntity
  8
LC-001-005-----0
  6
Continuous
 62
     7
100
AcDbLine
 10
-523.658094766261
 20
1191.97172611078
 30
0.0
 11
-535.674157766261
 21
1203.98778911078
 31
0.0
  0
LINE
  5
315
330
87
100
AcDbEntity
  8
LC-001-005-----0
  6
Continuous
 62
     7
100
AcDbLine
 10
-523.658094766261
 20
1196.21436611078
 30
0.0
 11
-531.4315167662611
 21
1203.98778911078
 31
0.0
  0
LINE
  5
316
330
87
100
AcDbEntity
  8
LC-001-005-----0
  6
Continuous
 62
     7
100
AcDbLine
 10
-523.658094766261
 20
1200.45700711078
 30
0.0
 11
-527.188876766261
 21
1203.98778911078
 31
0.0
  0
LINE
  5
317
330
87
100
AcDbEntity
  8
LC-001-005-----0
  6
Continuous
 62
     7
100
AcDbLine
 10
-382.765535766261
 20
1131.68934011078
 30
0.0
 11
-386.621245766261
 21
1135.54505011078
 31
0.0
  0
LINE
  5
318
330
87
100
AcDbEntity
  8
LC-001-005-----0
  6
Continuous
 62
     7
100
AcDbLine
 10
-378.976317766261
 20
1132.14276311078
 30
0.0
 11
-386.621245766261
 21
1139.78769111078
 31
0.0
  0
LINE
  5
319
330
87
100
AcDbEntity
  8
LC-001-005-----0
  6
Continuous
 62
     7
100
AcDbLine
 10
-376.683140766261
 20
1134.09222611078
 30
0.0
 11
-386.621245766261
 21
1144.03033211078
 31
0.0
  0
LINE
  5
31A
330
87
100
AcDbEntity
  8
LC-001-005-----0
  6
Continuous
 62
     7
100
AcDbLine
 10
-375.821239766261
 20
1137.47296611078
 30
0.0
 11
-386.621245766261
 21
1148.27297211078
 31
0.0
  0
LINE
  5
31B
330
87
100
AcDbEntity
  8
LC-001-005-----0
  6
Continuous
 62
     7
100
AcDbLine
 10
-375.821239766261
 20
1141.71560711078
 30
0.0
 11
-386.621245766261
 21
1152.51561311078
 31
0.0
  0
LINE
  5
31C
330
87
100
AcDbEntity
  8
LC-001-005-----0
  6
Continuous
 62
     7
100
AcDbLine
 10
-375.821239766261
 20
1145.95824811078
 30
0.0
 11
-386.621245766261
 21
1156.75825411078
 31
0.0
  0
LINE
  5
31D
330
87
100
AcDbEntity
  8
LC-001-005-----0
  6
Continuous
 62
     7
100
AcDbLine
 10
-375.821239766261
 20
1150.20088811078
 30
0.0
 11
-386.621245766261
 21
1161.00089411078
 31
0.0
  0
LINE
  5
31E
330
87
100
AcDbEntity
  8
LC-001-005-----0
  6
Continuous
 62
     7
100
AcDbLine
 10
-375.821239766261
 20
1154.44352911078
 30
0.0
 11
-386.621245766261
 21
1165.24353511078
 31
0.0
  0
LINE
  5
31F
330
87
100
AcDbEntity
  8
LC-001-005-----0
  6
Continuous
 62
     7
100
AcDbLine
 10
-375.821239766261
 20
1158.68617011078
 30
0.0
 11
-386.621245766261
 21
1169.48617611078
 31
0.0
  0
LINE
  5
320
330
87
100
AcDbEntity
  8
LC-001-005-----0
  6
Continuous
 62
     7
100
AcDbLine
 10
-375.821239766261
 20
1162.92881011078
 30
0.0
 11
-386.621245766261
 21
1173.72881611078
 31
0.0
  0
LINE
  5
321
330
87
100
AcDbEntity
  8
LC-001-005-----0
  6
Continuous
 62
     7
100
AcDbLine
 10
-375.821239766261
 20
1167.17145111078
 30
0.0
 11
-386.621245766261
 21
1177.97145711078
 31
0.0
  0
LINE
  5
322
330
87
100
AcDbEntity
  8
LC-001-005-----0
  6
Continuous
 62
     7
100
AcDbLine
 10
-375.821239766261
 20
1171.41409211078
 30
0.0
 11
-386.621245766261
 21
1182.21409811078
 31
0.0
  0
LINE
  5
323
330
87
100
AcDbEntity
  8
LC-001-005-----0
  6
Continuous
 62
     7
100
AcDbLine
 10
-375.821239766261
 20
1175.65673211078
 30
0.0
 11
-386.621245766261
 21
1186.45673811078
 31
0.0
  0
LINE
  5
324
330
87
100
AcDbEntity
  8
LC-001-005-----0
  6
Continuous
 62
     7
100
AcDbLine
 10
-375.821239766261
 20
1179.89937311078
 30
0.0
 11
-386.621245766261
 21
1190.69937911078
 31
0.0
  0
LINE
  5
325
330
87
100
AcDbEntity
  8
LC-001-005-----0
  6
Continuous
 62
     7
100
AcDbLine
 10
-375.821239766261
 20
1184.14201411078
 30
0.0
 11
-386.621245766261
 21
1194.94202011078
 31
0.0
  0
LINE
  5
326
330
87
100
AcDbEntity
  8
LC-001-005-----0
  6
Continuous
 62
     7
100
AcDbLine
 10
-375.821239766261
 20
1188.38465411078
 30
0.0
 11
-386.621245766261
 21
1199.18466111078
 31
0.0
  0
LINE
  5
327
330
87
100
AcDbEntity
  8
LC-001-005-----0
  6
Continuous
 62
     7
100
AcDbLine
 10
-375.788779766261
 20
1192.59483411078
 30
0.0
 11
-386.621245766261
 21
1203.42730111078
 31
0.0
  0
LINE
  5
328
330
87
100
AcDbEntity
  8
LC-001-005-----0
  6
Continuous
 62
     7
100
AcDbLine
 10
-374.539694766261
 20
1195.58839011078
 30
0.0
 11
-382.939092766261
 21
1203.98778911078
 31
0.0
  0
LINE
  5
329
330
87
100
AcDbEntity
  8
LC-001-005-----0
  6
Continuous
 62
     7
100
AcDbLine
 10
-374.389495766261
 20
1199.68083211078
 30
0.0
 11
-378.696452766261
 21
1203.98778911078
 31
0.0
  0
LINE
  5
32A
330
87
100
AcDbEntity
  8
LC-001-005-----0
  6
Continuous
 62
     7
100
AcDbLine
 10
-372.057205766261
 20
1197.34854211078
 30
0.0
 11
-373.696452766261
 21
1198.98778911078
 31
0.0
  0
LINE
  5
32B
330
87
100
AcDbEntity
  8
LC-001-005-----0
  6
Continuous
 62
     7
100
AcDbLine
 10
-374.389494766261
 20
1203.92347211078
 30
0.0
 11
-374.453811766261
 21
1203.98778911078
 31
0.0
  0
LINE
  5
32C
330
87
100
AcDbEntity
  8
LC-001-005-----0
  6
Continuous
 62
     7
100
AcDbLine
 10
-368.153404766261
 20
1197.68738211078
 30
0.0
 11
-370.389493766261
 21
1199.92347011078
 31
0.0
  0
LINE
  5
32D
330
87
100
AcDbEntity
  8
LC-001-005-----0
  6
Continuous
 62
     7
100
AcDbLine
 10
-364.210763766261
 20
1197.98738211078
 30
0.0
 11
-370.389493766261
 21
1204.16611111078
 31
0.0
  0
LINE
  5
32E
330
87
100
AcDbEntity
  8
LC-001-005-----0
  6
Continuous
 62
     7
100
AcDbLine
 10
-360.636820766261
 20
1198.65607911078
 30
0.0
 11
-366.197149766261
 21
1204.21640811078
 31
0.0
  0
LINE
  5
32F
330
87
100
AcDbEntity
  8
LC-001-005-----0
  6
Continuous
 62
     7
100
AcDbLine
 10
-358.397227766261
 20
1200.65912711078
 30
0.0
 11
-361.954508766261
 21
1204.21640811078
 31
0.0
  0
LINE
  5
330
330
87
100
AcDbEntity
  8
LC-001-005-----0
  6
Continuous
 62
     7
100
AcDbLine
 10
-357.390208766261
 20
1203.89474811078
 30
0.0
 11
-357.711868766261
 21
1204.21640811078
 31
0.0
  0
LINE
  5
331
330
87
100
AcDbEntity
  8
LC-001-005-----0
  6
Continuous
 62
     7
100
AcDbLine
 10
-550.7080507662611
 20
1201.79632211078
 30
0.0
 11
-548.4892457662611
 21
1204.01512611078
 31
0.0
  0
LINE
  5
332
330
87
100
AcDbEntity
  8
LC-001-005-----0
  6
Continuous
 62
     7
100
AcDbLine
 10
-548.792609766261
 20
1199.46912211078
 30
0.0
 11
-544.2119337662609
 21
1204.04979811078
 31
0.0
  0
LINE
  5
333
330
87
100
AcDbEntity
  8
LC-001-005-----0
  6
Continuous
 62
     7
100
AcDbLine
 10
-545.031709766261
 20
1198.98738211078
 30
0.0
 11
-539.934620766261
 21
1204.08447011078
 31
0.0
  0
LINE
  5
334
330
87
100
AcDbEntity
  8
LC-001-005-----0
  6
Continuous
 62
     7
100
AcDbLine
 10
-535.889491766261
 20
1203.88695911078
 30
0.0
 11
-535.7886617662609
 21
1203.98778911078
 31
0.0
  0
LINE
  5
335
330
87
100
AcDbEntity
  8
LC-001-005-----0
  6
Continuous
 62
     7
100
AcDbLine
 10
-540.7890687662609
 20
1198.98738211078
 30
0.0
 11
-539.889493766261
 21
1199.88695711078
 31
0.0
  0
LINE
  5
336
330
87
100
AcDbEntity
  8
LC-001-005-----0
  6
Continuous
 62
     7
100
AcDbLine
 10
-542.089068766261
 20
1197.68738211078
 30
0.0
 11
-541.7890687662609
 21
1197.98738211078
 31
0.0
  0
LINE
  5
337
330
87
100
AcDbEntity
  8
LC-001-005-----0
  6
Continuous
 62
     7
100
AcDbLine
 10
-535.889491766261
 20
1199.64431811078
 30
0.0
 11
-531.546020766261
 21
1203.98778911078
 31
0.0
  0
LINE
  5
338
330
87
100
AcDbEntity
  8
LC-001-005-----0
  6
Continuous
 62
     7
100
AcDbLine
 10
-536.546427766261
 20
1198.98738211078
 30
0.0
 11
-536.546020766261
 21
1198.98778911078
 31
0.0
  0
LINE
  5
339
330
87
100
AcDbEntity
  8
LC-001-005-----0
  6
Continuous
 62
     7
100
AcDbLine
 10
-538.195105766261
 20
1197.33870411078
 30
0.0
 11
-537.546427766261
 21
1197.98738211078
 31
0.0
  0
LINE
  5
33A
330
87
100
AcDbEntity
  8
LC-001-005-----0
  6
Continuous
 62
     7
100
AcDbLine
 10
-532.3037877662609
 20
1198.98738211078
 30
0.0
 11
-527.303380766261
 21
1203.98778911078
 31
0.0
  0
LINE
  5
33B
330
87
100
AcDbEntity
  8
LC-001-005-----0
  6
Continuous
 62
     7
100
AcDbLine
 10
-535.723134766261
 20
1195.56803511078
 30
0.0
 11
-533.3037877662609
 21
1197.98738211078
 31
0.0
  0
LINE
  5
33C
330
87
100
AcDbEntity
  8
LC-001-005-----0
  6
Continuous
 62
     7
100
AcDbLine
 10
-534.4870827662611
 20
1192.56144611078
 30
0.0
 11
-523.658094766261
 21
1203.39043411078
 31
0.0
  0
LINE
  5
33D
330
87
100
AcDbEntity
  8
LC-001-005-----0
  6
Continuous
 62
     7
100
AcDbLine
 10
-534.4581007662609
 20
1188.34778711078
 30
0.0
 11
-523.658094766261
 21
1199.14779311078
 31
0.0
  0
LINE
  5
33E
330
87
100
AcDbEntity
  8
LC-001-005-----0
  6
Continuous
 62
     7
100
AcDbLine
 10
-534.4581007662609
 20
1184.10514611078
 30
0.0
 11
-523.658094766261
 21
1194.90515211078
 31
0.0
  0
LINE
  5
33F
330
87
100
AcDbEntity
  8
LC-001-005-----0
  6
Continuous
 62
     7
100
AcDbLine
 10
-534.4581007662609
 20
1179.86250611078
 30
0.0
 11
-523.658094766261
 21
1190.66251211078
 31
0.0
  0
LINE
  5
340
330
87
100
AcDbEntity
  8
LC-001-005-----0
  6
Continuous
 62
     7
100
AcDbLine
 10
-534.4581007662609
 20
1175.61986511078
 30
0.0
 11
-523.658094766261
 21
1186.41987111078
 31
0.0
  0
LINE
  5
341
330
87
100
AcDbEntity
  8
LC-001-005-----0
  6
Continuous
 62
     7
100
AcDbLine
 10
-534.4581007662609
 20
1171.37722411078
 30
0.0
 11
-523.658094766261
 21
1182.17723011078
 31
0.0
  0
LINE
  5
342
330
87
100
AcDbEntity
  8
LC-001-005-----0
  6
Continuous
 62
     7
100
AcDbLine
 10
-534.4581007662609
 20
1167.13458311078
 30
0.0
 11
-523.658094766261
 21
1177.93459011078
 31
0.0
  0
LINE
  5
343
330
87
100
AcDbEntity
  8
LC-001-005-----0
  6
Continuous
 62
     7
100
AcDbLine
 10
-534.4581007662609
 20
1162.89194311078
 30
0.0
 11
-523.658094766261
 21
1173.69194911078
 31
0.0
  0
LINE
  5
344
330
87
100
AcDbEntity
  8
LC-001-005-----0
  6
Continuous
 62
     7
100
AcDbLine
 10
-534.4581007662609
 20
1158.64930211078
 30
0.0
 11
-523.658094766261
 21
1169.44930811078
 31
0.0
  0
LINE
  5
345
330
87
100
AcDbEntity
  8
LC-001-005-----0
  6
Continuous
 62
     7
100
AcDbLine
 10
-534.4581007662609
 20
1154.40666111078
 30
0.0
 11
-523.658094766261
 21
1165.20666811078
 31
0.0
  0
LINE
  5
346
330
87
100
AcDbEntity
  8
LC-001-005-----0
  6
Continuous
 62
     7
100
AcDbLine
 10
-534.4581007662609
 20
1150.16402111078
 30
0.0
 11
-523.658094766261
 21
1160.96402711078
 31
0.0
  0
LINE
  5
347
330
87
100
AcDbEntity
  8
LC-001-005-----0
  6
Continuous
 62
     7
100
AcDbLine
 10
-534.4581007662609
 20
1145.92138011078
 30
0.0
 11
-523.658094766261
 21
1156.72138611078
 31
0.0
  0
LINE
  5
348
330
87
100
AcDbEntity
  8
LC-001-005-----0
  6
Continuous
 62
     7
100
AcDbLine
 10
-534.4581007662609
 20
1141.67873911078
 30
0.0
 11
-523.658094766261
 21
1152.47874611078
 31
0.0
  0
LINE
  5
349
330
87
100
AcDbEntity
  8
LC-001-005-----0
  6
Continuous
 62
     7
100
AcDbLine
 10
-534.4581007662609
 20
1137.43609911078
 30
0.0
 11
-523.658094766261
 21
1148.23610511078
 31
0.0
  0
LINE
  5
34A
330
87
100
AcDbEntity
  8
LC-001-005-----0
  6
Continuous
 62
     7
100
AcDbLine
 10
-533.581590766261
 20
1134.06996811078
 30
0.0
 11
-523.658094766261
 21
1143.99346411078
 31
0.0
  0
LINE
  5
34B
330
87
100
AcDbEntity
  8
LC-001-005-----0
  6
Continuous
 62
     7
100
AcDbLine
 10
-531.277409766261
 20
1132.13150811078
 30
0.0
 11
-523.658094766261
 21
1139.75082311078
 31
0.0
  0
LINE
  5
34C
330
87
100
AcDbEntity
  8
LC-001-005-----0
  6
Continuous
 62
     7
100
AcDbLine
 10
-527.476937766261
 20
1131.68934011078
 30
0.0
 11
-523.658094766261
 21
1135.50818311078
 31
0.0
  0
LINE
  5
34D
330
87
100
AcDbEntity
  8
LC-001-005-----0
  6
Continuous
 62
     7
100
AcDbLine
 10
-386.621245766261
 20
1200.42014011078
 30
0.0
 11
-383.053596766261
 21
1203.98778911078
 31
0.0
  0
LINE
  5
34E
330
87
100
AcDbEntity
  8
LC-001-005-----0
  6
Continuous
 62
     7
100
AcDbLine
 10
-386.621245766261
 20
1196.17749911078
 30
0.0
 11
-378.810955766261
 21
1203.98778911078
 31
0.0
  0
LINE
  5
34F
330
87
100
AcDbEntity
  8
LC-001-005-----0
  6
Continuous
 62
     7
100
AcDbLine
 10
-386.621245766261
 20
1191.93485811078
 30
0.0
 11
-374.568315766261
 21
1203.98778911078
 31
0.0
  0
LINE
  5
350
330
87
100
AcDbEntity
  8
LC-001-005-----0
  6
Continuous
 62
     7
100
AcDbLine
 10
-370.389493766261
 20
1203.92397011078
 30
0.0
 11
-370.097055766261
 21
1204.21640811078
 31
0.0
  0
LINE
  5
351
330
87
100
AcDbEntity
  8
LC-001-005-----0
  6
Continuous
 62
     7
100
AcDbLine
 10
-386.621245766261
 20
1187.69221811078
 30
0.0
 11
-374.389495766261
 21
1199.92396811078
 31
0.0
  0
LINE
  5
352
330
87
100
AcDbEntity
  8
LC-001-005-----0
  6
Continuous
 62
     7
100
AcDbLine
 10
-370.389493766261
 20
1199.68133011078
 30
0.0
 11
-365.854414766261
 21
1204.21640811078
 31
0.0
  0
LINE
  5
353
330
87
100
AcDbEntity
  8
LC-001-005-----0
  6
Continuous
 62
     7
100
AcDbLine
 10
-373.473183766261
 20
1196.59763911078
 30
0.0
 11
-371.083033766261
 21
1198.98778911078
 31
0.0
  0
LINE
  5
354
330
87
100
AcDbEntity
  8
LC-001-005-----0
  6
Continuous
 62
     7
100
AcDbLine
 10
-386.621245766261
 20
1183.44957711078
 30
0.0
 11
-374.731496766261
 21
1195.33932611078
 31
0.0
  0
LINE
  5
355
330
87
100
AcDbEntity
  8
LC-001-005-----0
  6
Continuous
 62
     7
100
AcDbLine
 10
-368.140800766261
 20
1197.68738211078
 30
0.0
 11
-361.611773766261
 21
1204.21640811078
 31
0.0
  0
LINE
  5
356
330
87
100
AcDbEntity
  8
LC-001-005-----0
  6
Continuous
 62
     7
100
AcDbLine
 10
-386.621245766261
 20
1179.20693611078
 30
0.0
 11
-375.821239766261
 21
1190.00694211078
 31
0.0
  0
LINE
  5
357
330
87
100
AcDbEntity
  8
LC-001-005-----0
  6
Continuous
 62
     7
100
AcDbLine
 10
-363.598159766261
 20
1197.98738211078
 30
0.0
 11
-357.393001766261
 21
1204.19254011078
 31
0.0
  0
LINE
  5
358
330
87
100
AcDbEntity
  8
LC-001-005-----0
  6
Continuous
 62
     7
100
AcDbLine
 10
-386.621245766261
 20
1174.96429511078
 30
0.0
 11
-375.821239766261
 21
1185.76430211078
 31
0.0
  0
LINE
  5
359
330
87
100
AcDbEntity
  8
LC-001-005-----0
  6
Continuous
 62
     7
100
AcDbLine
 10
-386.621245766261
 20
1170.72165511078
 30
0.0
 11
-375.821239766261
 21
1181.52166111078
 31
0.0
  0
LINE
  5
35A
330
87
100
AcDbEntity
  8
LC-001-005-----0
  6
Continuous
 62
     7
100
AcDbLine
 10
-386.621245766261
 20
1166.47901411078
 30
0.0
 11
-375.821239766261
 21
1177.27902011078
 31
0.0
  0
LINE
  5
35B
330
87
100
AcDbEntity
  8
LC-001-005-----0
  6
Continuous
 62
     7
100
AcDbLine
 10
-386.621245766261
 20
1162.23637311078
 30
0.0
 11
-375.821239766261
 21
1173.03638011078
 31
0.0
  0
LINE
  5
35C
330
87
100
AcDbEntity
  8
LC-001-005-----0
  6
Continuous
 62
     7
100
AcDbLine
 10
-386.621245766261
 20
1157.99373311078
 30
0.0
 11
-375.821239766261
 21
1168.79373911078
 31
0.0
  0
LINE
  5
35D
330
87
100
AcDbEntity
  8
LC-001-005-----0
  6
Continuous
 62
     7
100
AcDbLine
 10
-386.621245766261
 20
1153.75109211078
 30
0.0
 11
-375.821239766261
 21
1164.55109811078
 31
0.0
  0
LINE
  5
35E
330
87
100
AcDbEntity
  8
LC-001-005-----0
  6
Continuous
 62
     7
100
AcDbLine
 10
-386.621245766261
 20
1149.50845111078
 30
0.0
 11
-375.821239766261
 21
1160.30845711078
 31
0.0
  0
LINE
  5
35F
330
87
100
AcDbEntity
  8
LC-001-005-----0
  6
Continuous
 62
     7
100
AcDbLine
 10
-386.621245766261
 20
1145.26581111078
 30
0.0
 11
-375.821239766261
 21
1156.06581711078
 31
0.0
  0
LINE
  5
360
330
87
100
AcDbEntity
  8
LC-001-005-----0
  6
Continuous
 62
     7
100
AcDbLine
 10
-386.621245766261
 20
1141.02317011078
 30
0.0
 11
-375.821239766261
 21
1151.82317611078
 31
0.0
  0
LINE
  5
361
330
87
100
AcDbEntity
  8
LC-001-005-----0
  6
Continuous
 62
     7
100
AcDbLine
 10
-386.621245766261
 20
1136.78052911078
 30
0.0
 11
-375.821239766261
 21
1147.58053511078
 31
0.0
  0
LINE
  5
362
330
87
100
AcDbEntity
  8
LC-001-005-----0
  6
Continuous
 62
     7
100
AcDbLine
 10
-386.621245766261
 20
1132.53788911078
 30
0.0
 11
-375.821239766261
 21
1143.33789511078
 31
0.0
  0
LINE
  5
363
330
87
100
AcDbEntity
  8
LC-001-005-----0
  6
Continuous
 62
     7
100
AcDbLine
 10
-383.227153766261
 20
1131.68934011078
 30
0.0
 11
-375.821239766261
 21
1139.09525411078
 31
0.0
  0
LINE
  5
364
330
87
100
AcDbEntity
  8
LC-001-005-----0
  6
Continuous
 62
     7
100
AcDbLine
 10
-377.870608766261
 20
1132.80324411078
 30
0.0
 11
-376.935144766261
 21
1133.73870911078
 31
0.0
  0
LINE
  5
365
330
87
100
AcDbEntity
  8
LC-001-005-----0
  6
Continuous
 62
     7
100
AcDbLine
 10
-540.139493766261
 20
1288.73241211078
 30
0.0
 11
-538.679481766261
 21
1290.19242311078
 31
0.0
  0
LINE
  5
366
330
87
100
AcDbEntity
  8
LC-001-005-----0
  6
Continuous
 62
     7
100
AcDbLine
 10
-540.139493766261
 20
1284.48977111078
 30
0.0
 11
-536.139493766261
 21
1288.48977111078
 31
0.0
  0
LINE
  5
367
330
87
100
AcDbEntity
  8
LC-001-005-----0
  6
Continuous
 62
     7
100
AcDbLine
 10
-548.639493766261
 20
1275.98977111078
 30
0.0
 11
-543.4368417662611
 21
1281.19242311078
 31
0.0
  0
LINE
  5
368
330
87
100
AcDbEntity
  8
LC-001-005-----0
  6
Continuous
 62
     7
100
AcDbLine
 10
-543.3099137662609
 20
1277.07671011078
 30
0.0
 11
-536.139493766261
 21
1284.24713011078
 31
0.0
  0
LINE
  5
369
330
87
100
AcDbEntity
  8
LC-001-005-----0
  6
Continuous
 62
     7
100
AcDbLine
 10
-548.639493766261
 20
1271.74713011078
 30
0.0
 11
-545.001756766261
 21
1275.38486711078
 31
0.0
  0
LINE
  5
36A
330
87
100
AcDbEntity
  8
LC-001-005-----0
  6
Continuous
 62
     7
100
AcDbLine
 10
-538.951559766261
 20
1277.19242311078
 30
0.0
 11
-536.139493766261
 21
1280.00449011078
 31
0.0
  0
LINE
  5
36B
330
87
100
AcDbEntity
  8
LC-001-005-----0
  6
Continuous
 62
     7
100
AcDbLine
 10
-544.639493766261
 20
1271.50449011078
 30
0.0
 11
-544.639492766261
 21
1271.50449011078
 31
0.0
  0
LINE
  5
36C
330
87
100
AcDbEntity
  8
LC-001-005-----0
  6
Continuous
 62
     7
100
AcDbLine
 10
-548.639493766261
 20
1267.50449011078
 30
0.0
 11
-544.639493766261
 21
1271.50449011078
 31
0.0
  0
LINE
  5
36D
330
87
100
AcDbEntity
  8
LC-001-005-----0
  6
Continuous
 62
     7
100
AcDbLine
 10
-548.306575766261
 20
1263.59476611078
 30
0.0
 11
-545.0680557662611
 21
1266.83328611078
 31
0.0
  0
LINE
  5
36E
330
87
100
AcDbEntity
  8
LC-001-005-----0
  6
Continuous
 62
     7
100
AcDbLine
 10
-546.164261766261
 20
1261.49444011078
 30
0.0
 11
-542.4662787662611
 21
1265.19242311078
 31
0.0
  0
LINE
  5
36F
330
87
100
AcDbEntity
  8
LC-001-005-----0
  6
Continuous
 62
     7
100
AcDbLine
 10
-542.2236377662609
 20
1261.19242311078
 30
0.0
 11
-538.2236377662609
 21
1265.19242311078
 31
0.0
  0
LINE
  5
370
330
87
100
AcDbEntity
  8
LC-001-005-----0
  6
Continuous
 62
     7
100
AcDbLine
 10
-539.889493766261
 20
1259.28392711078
 30
0.0
 11
-535.889493766261
 21
1263.28392711078
 31
0.0
  0
LINE
  5
371
330
87
100
AcDbEntity
  8
LC-001-005-----0
  6
Continuous
 62
     7
100
AcDbLine
 10
-539.889493766261
 20
1255.04128611078
 30
0.0
 11
-535.889492766261
 21
1259.04128611078
 31
0.0
  0
LINE
  5
372
330
87
100
AcDbEntity
  8
LC-001-005-----0
  6
Continuous
 62
     7
100
AcDbLine
 10
-539.889493766261
 20
1250.79864511078
 30
0.0
 11
-535.889492766261
 21
1254.79864611078
 31
0.0
  0
LINE
  5
373
330
87
100
AcDbEntity
  8
LC-001-005-----0
  6
Continuous
 62
     7
100
AcDbLine
 10
-539.889493766261
 20
1246.55600511078
 30
0.0
 11
-535.889492766261
 21
1250.55600511078
 31
0.0
  0
LINE
  5
374
330
87
100
AcDbEntity
  8
LC-001-005-----0
  6
Continuous
 62
     7
100
AcDbLine
 10
-539.889493766261
 20
1242.31336411078
 30
0.0
 11
-535.889492766261
 21
1246.31336511078
 31
0.0
  0
LINE
  5
375
330
87
100
AcDbEntity
  8
LC-001-005-----0
  6
Continuous
 62
     7
100
AcDbLine
 10
-539.889493766261
 20
1238.07072311078
 30
0.0
 11
-535.889492766261
 21
1242.07072411078
 31
0.0
  0
LINE
  5
376
330
87
100
AcDbEntity
  8
LC-001-005-----0
  6
Continuous
 62
     7
100
AcDbLine
 10
-539.889493766261
 20
1233.82808311078
 30
0.0
 11
-535.889492766261
 21
1237.82808311078
 31
0.0
  0
LINE
  5
377
330
87
100
AcDbEntity
  8
LC-001-005-----0
  6
Continuous
 62
     7
100
AcDbLine
 10
-539.889493766261
 20
1229.58544211078
 30
0.0
 11
-535.889492766261
 21
1233.58544311078
 31
0.0
  0
LINE
  5
378
330
87
100
AcDbEntity
  8
LC-001-005-----0
  6
Continuous
 62
     7
100
AcDbLine
 10
-539.889493766261
 20
1225.34280111078
 30
0.0
 11
-535.889492766261
 21
1229.34280211078
 31
0.0
  0
LINE
  5
379
330
87
100
AcDbEntity
  8
LC-001-005-----0
  6
Continuous
 62
     7
100
AcDbLine
 10
-539.889493766261
 20
1221.10016111078
 30
0.0
 11
-535.889491766261
 21
1225.10016211078
 31
0.0
  0
LINE
  5
37A
330
87
100
AcDbEntity
  8
LC-001-005-----0
  6
Continuous
 62
     7
100
AcDbLine
 10
-539.889493766261
 20
1216.85752011078
 30
0.0
 11
-535.889491766261
 21
1220.85752111078
 31
0.0
  0
LINE
  5
37B
330
87
100
AcDbEntity
  8
LC-001-005-----0
  6
Continuous
 62
     7
100
AcDbLine
 10
-539.889493766261
 20
1212.61487911078
 30
0.0
 11
-535.889491766261
 21
1216.61488111078
 31
0.0
  0
LINE
  5
37C
330
87
100
AcDbEntity
  8
LC-001-005-----0
  6
Continuous
 62
     7
100
AcDbLine
 10
-539.889493766261
 20
1208.37223911078
 30
0.0
 11
-535.889491766261
 21
1212.37224011078
 31
0.0
  0
LINE
  5
37D
330
87
100
AcDbEntity
  8
LC-001-005-----0
  6
Continuous
 62
     7
100
AcDbLine
 10
-539.889493766261
 20
1204.12959811078
 30
0.0
 11
-535.889491766261
 21
1208.12960011078
 31
0.0
  0
LINE
  5
37E
330
87
100
AcDbEntity
  8
LC-001-005-----0
  6
Continuous
 62
     7
100
AcDbLine
 10
-539.889493766261
 20
1199.88695711078
 30
0.0
 11
-535.889491766261
 21
1203.88695911078
 31
0.0
  0
LINE
  5
37F
330
87
100
AcDbEntity
  8
LC-001-005-----0
  6
Continuous
 62
     7
100
AcDbLine
 10
-536.546020766261
 20
1198.98778911078
 30
0.0
 11
-535.889491766261
 21
1199.64431811078
 31
0.0
  0
LINE
  5
380
330
87
100
AcDbEntity
  8
LC-001-005-----0
  6
Continuous
 62
     7
100
AcDbLine
 10
-374.139493766261
 20
1289.26942511078
 30
0.0
 11
-373.216494766261
 21
1290.19242311078
 31
0.0
  0
LINE
  5
381
330
87
100
AcDbEntity
  8
LC-001-005-----0
  6
Continuous
 62
     7
100
AcDbLine
 10
-374.139493766261
 20
1285.02678411078
 30
0.0
 11
-370.139493766261
 21
1289.02678411078
 31
0.0
  0
LINE
  5
382
330
87
100
AcDbEntity
  8
LC-001-005-----0
  6
Continuous
 62
     7
100
AcDbLine
 10
-374.139493766261
 20
1280.78414311078
 30
0.0
 11
-370.139493766261
 21
1284.78414311078
 31
0.0
  0
LINE
  5
383
330
87
100
AcDbEntity
  8
LC-001-005-----0
  6
Continuous
 62
     7
100
AcDbLine
 10
-373.488572766261
 20
1277.19242311078
 30
0.0
 11
-369.488572766261
 21
1281.19242311078
 31
0.0
  0
LINE
  5
384
330
87
100
AcDbEntity
  8
LC-001-005-----0
  6
Continuous
 62
     7
100
AcDbLine
 10
-369.245932766261
 20
1277.19242311078
 30
0.0
 11
-365.263630766261
 21
1281.17472511078
 31
0.0
  0
LINE
  5
385
330
87
100
AcDbEntity
  8
LC-001-005-----0
  6
Continuous
 62
     7
100
AcDbLine
 10
-365.943361766261
 20
1276.25235311078
 30
0.0
 11
-362.510909766261
 21
1279.68480511078
 31
0.0
  0
LINE
  5
386
330
87
100
AcDbEntity
  8
LC-001-005-----0
  6
Continuous
 62
     7
100
AcDbLine
 10
-365.639493766261
 20
1272.31358011078
 30
0.0
 11
-361.639493766261
 21
1276.31358111078
 31
0.0
  0
LINE
  5
387
330
87
100
AcDbEntity
  8
LC-001-005-----0
  6
Continuous
 62
     7
100
AcDbLine
 10
-374.389493766261
 20
1263.56358111078
 30
0.0
 11
-372.760650766261
 21
1265.19242311078
 31
0.0
  0
LINE
  5
388
330
87
100
AcDbEntity
  8
LC-001-005-----0
  6
Continuous
 62
     7
100
AcDbLine
 10
-365.639493766261
 20
1268.07093911078
 30
0.0
 11
-361.639493766261
 21
1272.07094011078
 31
0.0
  0
LINE
  5
389
330
87
100
AcDbEntity
  8
LC-001-005-----0
  6
Continuous
 62
     7
100
AcDbLine
 10
-374.389493766261
 20
1259.32094011078
 30
0.0
 11
-368.518010766261
 21
1265.19242311078
 31
0.0
  0
LINE
  5
38A
330
87
100
AcDbEntity
  8
LC-001-005-----0
  6
Continuous
 62
     7
100
AcDbLine
 10
-368.275369766261
 20
1261.19242311078
 30
0.0
 11
-361.639493766261
 21
1267.82829911078
 31
0.0
  0
LINE
  5
38B
330
87
100
AcDbEntity
  8
LC-001-005-----0
  6
Continuous
 62
     7
100
AcDbLine
 10
-374.389493766261
 20
1255.07829911078
 30
0.0
 11
-370.389493766261
 21
1259.07829911078
 31
0.0
  0
LINE
  5
38C
330
87
100
AcDbEntity
  8
LC-001-005-----0
  6
Continuous
 62
     7
100
AcDbLine
 10
-363.211675766261
 20
1262.01347711078
 30
0.0
 11
-362.460546766261
 21
1262.76460511078
 31
0.0
  0
LINE
  5
38D
330
87
100
AcDbEntity
  8
LC-001-005-----0
  6
Continuous
 62
     7
100
AcDbLine
 10
-374.389493766261
 20
1250.83565811078
 30
0.0
 11
-370.389493766261
 21
1254.83565911078
 31
0.0
  0
LINE
  5
38E
330
87
100
AcDbEntity
  8
LC-001-005-----0
  6
Continuous
 62
     7
100
AcDbLine
 10
-374.389493766261
 20
1246.59301711078
 30
0.0
 11
-370.389493766261
 21
1250.59301811078
 31
0.0
  0
LINE
  5
38F
330
87
100
AcDbEntity
  8
LC-001-005-----0
  6
Continuous
 62
     7
100
AcDbLine
 10
-374.389493766261
 20
1242.35037711078
 30
0.0
 11
-370.389493766261
 21
1246.35037711078
 31
0.0
  0
LINE
  5
390
330
87
100
AcDbEntity
  8
LC-001-005-----0
  6
Continuous
 62
     7
100
AcDbLine
 10
-374.389493766261
 20
1238.10773611078
 30
0.0
 11
-370.389493766261
 21
1242.10773711078
 31
0.0
  0
LINE
  5
391
330
87
100
AcDbEntity
  8
LC-001-005-----0
  6
Continuous
 62
     7
100
AcDbLine
 10
-374.389494766261
 20
1233.86509511078
 30
0.0
 11
-370.389493766261
 21
1237.86509611078
 31
0.0
  0
LINE
  5
392
330
87
100
AcDbEntity
  8
LC-001-005-----0
  6
Continuous
 62
     7
100
AcDbLine
 10
-374.389494766261
 20
1229.62245411078
 30
0.0
 11
-370.389493766261
 21
1233.62245511078
 31
0.0
  0
LINE
  5
393
330
87
100
AcDbEntity
  8
LC-001-005-----0
  6
Continuous
 62
     7
100
AcDbLine
 10
-374.389494766261
 20
1225.37981311078
 30
0.0
 11
-370.389493766261
 21
1229.37981411078
 31
0.0
  0
LINE
  5
394
330
87
100
AcDbEntity
  8
LC-001-005-----0
  6
Continuous
 62
     7
100
AcDbLine
 10
-374.389494766261
 20
1221.13717211078
 30
0.0
 11
-370.389493766261
 21
1225.13717411078
 31
0.0
  0
LINE
  5
395
330
87
100
AcDbEntity
  8
LC-001-005-----0
  6
Continuous
 62
     7
100
AcDbLine
 10
-374.389494766261
 20
1216.89453211078
 30
0.0
 11
-370.389493766261
 21
1220.89453311078
 31
0.0
  0
LINE
  5
396
330
87
100
AcDbEntity
  8
LC-001-005-----0
  6
Continuous
 62
     7
100
AcDbLine
 10
-374.389494766261
 20
1212.65189111078
 30
0.0
 11
-370.389493766261
 21
1216.65189211078
 31
0.0
  0
LINE
  5
397
330
87
100
AcDbEntity
  8
LC-001-005-----0
  6
Continuous
 62
     7
100
AcDbLine
 10
-374.389494766261
 20
1208.40925011078
 30
0.0
 11
-370.389493766261
 21
1212.40925211078
 31
0.0
  0
LINE
  5
398
330
87
100
AcDbEntity
  8
LC-001-005-----0
  6
Continuous
 62
     7
100
AcDbLine
 10
-374.389494766261
 20
1204.16660911078
 30
0.0
 11
-370.389493766261
 21
1208.16661111078
 31
0.0
  0
LINE
  5
399
330
87
100
AcDbEntity
  8
LC-001-005-----0
  6
Continuous
 62
     7
100
AcDbLine
 10
-374.389495766261
 20
1199.92396811078
 30
0.0
 11
-370.389493766261
 21
1203.92397011078
 31
0.0
  0
LINE
  5
39A
330
87
100
AcDbEntity
  8
LC-001-005-----0
  6
Continuous
 62
     7
100
AcDbLine
 10
-371.083033766261
 20
1198.98778911078
 30
0.0
 11
-370.389493766261
 21
1199.68133011078
 31
0.0
  0
LINE
  5
39B
330
87
100
AcDbEntity
  8
LC-001-005-----0
  6
Continuous
 62
     7
100
AcDbLine
 10
-543.1386767662609
 20
1265.19242311078
 30
0.0
 11
-545.139084766261
 21
1267.19283111078
 31
0.0
  0
LINE
  5
39C
330
87
100
AcDbEntity
  8
LC-001-005-----0
  6
Continuous
 62
     7
100
AcDbLine
 10
-541.724462766261
 20
1265.19242311078
 30
0.0
 11
-544.639492766261
 21
1268.10745311078
 31
0.0
  0
LINE
  5
39D
330
87
100
AcDbEntity
  8
LC-001-005-----0
  6
DASHED
 62
     7
100
AcDbLine
 10
-538.920344766261
 20
1265.21673111078
 30
0.0
 11
-544.639492766261
 21
1270.93588011078
 31
0.0
  0
LINE
  5
39E
330
87
100
AcDbEntity
  8
LC-001-005-----0
  6
DASHED
 62
     7
100
AcDbLine
 10
-538.184664766261
 20
1265.89526511078
 30
0.0
 11
-544.810657766261
 21
1272.52125811078
 31
0.0
  0
LINE
  5
39F
330
87
100
AcDbEntity
  8
LC-001-005-----0
  6
Continuous
 62
     7
100
AcDbLine
 10
-538.3778517662611
 20
1268.91687911078
 30
0.0
 11
-544.966671766261
 21
1275.50569911078
 31
0.0
  0
LINE
  5
3A0
330
87
100
AcDbEntity
  8
LC-001-005-----0
  6
Continuous
 62
     7
100
AcDbLine
 10
-538.3013487662611
 20
1270.25459011078
 30
0.0
 11
-544.3393147662609
 21
1276.29255611078
 31
0.0
  0
LINE
  5
3A1
330
87
100
AcDbEntity
  8
LC-001-005-----0
  6
DASHED
 62
     7
100
AcDbLine
 10
-534.2031417662611
 20
1268.98481011078
 30
0.0
 11
-541.910754766261
 21
1276.69242311078
 31
0.0
  0
LINE
  5
3A2
330
87
100
AcDbEntity
  8
LC-001-005-----0
  6
DASHED
 62
     7
100
AcDbLine
 10
-533.2913117662611
 20
1269.48719311078
 30
0.0
 11
-540.4965407662611
 21
1276.69242311078
 31
0.0
  0
LINE
  5
3A3
330
87
100
AcDbEntity
  8
LC-001-005-----0
  6
Continuous
 62
     7
100
AcDbLine
 10
-375.883230766261
 20
1269.05681811078
 30
0.0
 11
-376.721698766261
 21
1269.89528611078
 31
0.0
  0
LINE
  5
3A4
330
87
100
AcDbEntity
  8
LC-001-005-----0
  6
Continuous
 62
     7
100
AcDbLine
 10
-374.853846766261
 20
1269.44164811078
 30
0.0
 11
-376.144518766261
 21
1270.73232011078
 31
0.0
  0
LINE
  5
3A5
330
87
100
AcDbEntity
  8
LC-001-005-----0
  6
Continuous
 62
     7
100
AcDbLine
 10
-370.604621766261
 20
1265.19242311078
 30
0.0
 11
-372.096463766261
 21
1266.68426411078
 31
0.0
  0
LINE
  5
3A6
330
87
100
AcDbEntity
  8
LC-001-005-----0
  6
DASHED
 62
     7
100
AcDbLine
 10
-372.795079766261
 20
1270.21130811078
 30
0.0
 11
-374.990159766261
 21
1272.40638811078
 31
0.0
  0
LINE
  5
3A7
330
87
100
AcDbEntity
  8
LC-001-005-----0
  6
DASHED
 62
     7
100
AcDbLine
 10
-367.776194766261
 20
1265.19242311078
 30
0.0
 11
-371.868915766261
 21
1269.28514411078
 31
0.0
  0
LINE
  5
3A8
330
87
100
AcDbEntity
  8
LC-001-005-----0
  6
DASHED
 62
     7
100
AcDbLine
 10
-366.475440766261
 20
1265.30588311078
 30
0.0
 11
-374.412980766261
 21
1273.24342211078
 31
0.0
  0
LINE
  5
3A9
330
87
100
AcDbEntity
  8
LC-001-005-----0
  6
Continuous
 62
     7
100
AcDbLine
 10
-365.172376766261
 20
1266.83124511078
 30
0.0
 11
-373.258621766261
 21
1274.91749111078
 31
0.0
  0
LINE
  5
3AA
330
87
100
AcDbEntity
  8
LC-001-005-----0
  6
Continuous
 62
     7
100
AcDbLine
 10
-365.629416766261
 20
1268.70249911078
 30
0.0
 11
-372.681442766261
 21
1275.75452511078
 31
0.0
  0
LINE
  5
3AB
330
87
100
AcDbEntity
  8
LC-001-005-----0
  6
DASHED
 62
     7
100
AcDbLine
 10
-365.465203766261
 20
1271.36671311078
 30
0.0
 11
-370.790913766261
 21
1276.69242311078
 31
0.0
  0
LINE
  5
3AC
330
87
100
AcDbEntity
  8
LC-001-005-----0
  6
DASHED
 62
     7
100
AcDbLine
 10
-365.639493766261
 20
1272.95521711078
 30
0.0
 11
-369.376699766261
 21
1276.69242311078
 31
0.0
  0
LINE
  5
3AD
330
87
100
AcDbEntity
  8
LC-001-005-----0
  6
Continuous
 62
     7
100
AcDbLine
 10
-365.276967766261
 20
1275.42111811078
 30
0.0
 11
-366.410798766261
 21
1276.55494911078
 31
0.0
  0
ARC
  5
3AE
330
87
100
AcDbEntity
  8
LC-004-002-RND-0
  6
Continuous
 62
     7
100
AcDbCircle
 10
-372.318050766261
 20
1269.88836811078
 30
0.0
 40
0.5000000000001664
100
AcDbArc
 50
354.9999999999757
 51
130.6012949999522
  0
ARC
  5
3AF
330
87
100
AcDbEntity
  8
LC-004-002-RND-0
  6
Continuous
 62
     7
100
AcDbCircle
 10
-376.515901766261
 20
1269.32157311078
 30
0.0
 40
0.5000000000000342
100
AcDbArc
 50
153.4349489999917
 51
310.6012949999521
  0
ARC
  5
3B0
330
87
100
AcDbEntity
  8
LC-004-002-RND-0
  6
Continuous
 62
     7
100
AcDbCircle
 10
-371.521459766261
 20
1275.69242311078
 30
0.0
 40
1.0
100
AcDbArc
 50
90.0
 51
153.4349489999786
  0
ARC
  5
3B1
330
87
100
AcDbEntity
  8
LC-004-002-RND-0
  6
Continuous
 62
     7
100
AcDbCircle
 10
-367.139493766261
 20
1267.19242311078
 30
0.0
 40
2.0
100
AcDbArc
 50
270.0
 51
0.0
  0
ARC
  5
3B2
330
87
100
AcDbEntity
  8
LC-004-002-RND-0
  6
Continuous
 62
     7
100
AcDbCircle
 10
-371.139493766261
 20
1266.19242311078
 30
0.0
 40
1.0
100
AcDbArc
 50
180.0
 51
270.0
  0
ARC
  5
3B3
330
87
100
AcDbEntity
  8
LC-004-002-RND-0
  6
Continuous
 62
     7
100
AcDbCircle
 10
-367.139493766261
 20
1274.69242311078
 30
0.0
 40
2.0
100
AcDbArc
 50
0.0
 51
90.0
  0
ARC
  5
3B4
330
87
100
AcDbEntity
  8
LC-004-002-RND-0
  6
Continuous
 62
     7
100
AcDbCircle
 10
-537.960935766261
 20
1269.88836811078
 30
0.0
 40
0.5000000000003058
100
AcDbArc
 50
49.39870500004785
 51
185.0000000000243
  0
ARC
  5
3B5
330
87
100
AcDbEntity
  8
LC-004-002-RND-0
  6
Continuous
 62
     7
100
AcDbCircle
 10
-533.763084766261
 20
1269.32157311078
 30
0.0
 40
0.4999999999995413
100
AcDbArc
 50
229.3987049999899
 51
26.56505100001121
  0
ARC
  5
3B6
330
87
100
AcDbEntity
  8
LC-004-002-RND-0
  6
Continuous
 62
     7
100
AcDbCircle
 10
-538.7575267662611
 20
1275.69242311078
 30
0.0
 40
1.00000000000017
100
AcDbArc
 50
26.56505100001995
 51
90.0
  0
ARC
  5
3B7
330
87
100
AcDbEntity
  8
LC-004-002-RND-0
  6
Continuous
 62
     7
100
AcDbCircle
 10
-543.139492766261
 20
1267.19242311078
 30
0.0
 40
2.0
100
AcDbArc
 50
180.0
 51
270.0
  0
ARC
  5
3B8
330
87
100
AcDbEntity
  8
LC-004-002-RND-0
  6
Continuous
 62
     7
100
AcDbCircle
 10
-539.139492766261
 20
1266.19242311078
 30
0.0
 40
1.0
100
AcDbArc
 50
270.0
 51
0.0
  0
ARC
  5
3B9
330
87
100
AcDbEntity
  8
LC-004-002-RND-0
  6
Continuous
 62
     7
100
AcDbCircle
 10
-543.139492766261
 20
1274.69242311078
 30
0.0
 40
2.0
100
AcDbArc
 50
90.0
 51
180.0
  0
ARC
  5
3BA
330
87
100
AcDbEntity
  8
LC-004-002-RND-0
  6
Continuous
 62
     7
100
AcDbCircle
 10
-365.639493766261
 20
1277.19242311078
 30
0.0
 40
4.0
100
AcDbArc
 50
0.0
 51
90.0
  0
ARC
  5
3BB
330
87
100
AcDbEntity
  8
LC-004-002-RND-0
  6
Continuous
 62
     7
100
AcDbCircle
 10
-365.639493766261
 20
1265.19242311078
 30
0.0
 40
4.0
100
AcDbArc
 50
270.0
 51
0.0
  0
ARC
  5
3BC
330
87
100
AcDbEntity
  8
LC-004-002-RND-0
  6
Continuous
 62
     7
100
AcDbCircle
 10
-544.639493766261
 20
1277.19242311078
 30
0.0
 40
4.0
100
AcDbArc
 50
90.0
 51
180.0
  0
ARC
  5
3BD
330
87
100
AcDbEntity
  8
LC-004-002-RND-0
  6
Continuous
 62
     7
100
AcDbCircle
 10
-544.639493766261
 20
1265.19242311078
 30
0.0
 40
4.0
100
AcDbArc
 50
180.0
 51
270.0
  0
ARC
  5
3BE
330
87
100
AcDbEntity
  8
LC-004-002-RND-0
  6
Continuous
 62
     7
100
AcDbCircle
 10
-542.639493766261
 20
1275.19242311078
 30
0.0
 40
2.0
100
AcDbArc
 50
90.0
 51
147.9932780000038
  0
ARC
  5
3BF
330
87
100
AcDbEntity
  8
LC-004-002-RND-0
  6
Continuous
 62
     7
100
AcDbCircle
 10
-367.639493766261
 20
1275.19242311078
 30
0.0
 40
1.999999999999759
100
AcDbArc
 50
32.00672800000515
 51
90.0
  0
ARC
  5
3C0
330
87
100
AcDbEntity
  8
LC-005-002-----0
  6
Continuous
 62
     7
100
AcDbCircle
 10
-363.389493766261
 20
1203.98738211078
 30
0.0
 40
6.0
100
AcDbArc
 50
270.0
 51
2.18757299999655
  0
ARC
  5
3C1
330
87
100
AcDbEntity
  8
LC-004-002-RND-0
  6
Continuous
 62
     7
100
AcDbCircle
 10
-370.121239766261
 20
1191.98738211078
 30
0.0
 40
5.700000000000045
100
AcDbArc
 50
90.0
 51
180.0
  0
ARC
  5
3C2
330
87
100
AcDbEntity
  8
LC-005-002-----0
  6
Continuous
 62
     7
100
AcDbCircle
 10
-381.121239766261
 20
1136.98934011078
 30
0.0
 40
5.299999999999955
100
AcDbArc
 50
270.0
 51
0.0
  0
ARC
  5
3C3
330
87
100
AcDbEntity
  8
LC-005-002-----0
  6
Continuous
 62
     7
100
AcDbCircle
 10
-546.889493766261
 20
1202.98738211078
 30
0.0
 40
3.999999999999624
100
AcDbArc
 50
194.9999999999993
 51
270.0
  0
ARC
  5
3C4
330
87
100
AcDbEntity
  8
LC-004-002-RND-0
  6
Continuous
 62
     7
100
AcDbCircle
 10
-540.158100766261
 20
1191.98738211078
 30
0.0
 40
5.700000000000045
100
AcDbArc
 50
0.0
 51
90.0
  0
ARC
  5
3C5
330
87
100
AcDbEntity
  8
LC-005-002-----0
  6
Continuous
 62
     7
100
AcDbCircle
 10
-529.158100766261
 20
1136.98934011078
 30
0.0
 40
5.299999999999955
100
AcDbArc
 50
180.0
 51
270.0
  0
ARC
  5
3C6
330
87
100
AcDbEntity
  8
LC-004-002-RND-0
  6
Continuous
 62
     7
100
AcDbCircle
 10
-584.397615766261
 20
1319.78778911078
 30
0.0
 40
1.999999999999782
100
AcDbArc
 50
14.99999999999614
 51
90.0
  0
ARC
  5
3C7
330
87
100
AcDbEntity
  8
LC-004-002-RND-0
  6
Continuous
 62
     7
100
AcDbCircle
 10
-584.397615766261
 20
1319.78778911078
 30
0.0
 40
1.000000000000009
100
AcDbArc
 50
15.0000000000213
 51
90.0
  0
ARC
  5
3C8
330
87
100
AcDbEntity
  8
LC-005-002-----0
  6
Continuous
 62
     7
100
AcDbCircle
 10
-546.889493766261
 20
1202.98778911078
 30
0.0
 40
4.999999999999801
100
AcDbArc
 50
195.0000000000059
 51
270.0
  0
ARC
  5
3C9
330
87
100
AcDbEntity
  8
LC-005-002-----0
  6
Continuous
 62
     7
100
AcDbCircle
 10
-546.889493766261
 20
1202.98778911078
 30
0.0
 40
4.000000000000128
100
AcDbArc
 50
245.0263309999985
 51
269.9736689999946
  0
ARC
  5
3CA
330
87
100
AcDbEntity
  8
LC-005-002-----0
  6
Continuous
 62
     7
100
AcDbCircle
 10
-546.889493766261
 20
1202.98778911078
 30
0.0
 40
4.000000000000229
100
AcDbArc
 50
220.0213929999952
 51
244.9786070000066
  0
ARC
  5
3CB
330
87
100
AcDbEntity
  8
LC-005-002-----0
  6
Continuous
 62
     7
100
AcDbCircle
 10
-546.889493766261
 20
1202.98778911078
 30
0.0
 40
3.999999999999542
100
AcDbArc
 50
195.0124470000049
 51
219.987553000001
  0
ARC
  5
3CC
330
87
100
AcDbEntity
  8
LC-004-002-RND-0
  6
Continuous
 62
     7
100
AcDbCircle
 10
-381.121239766261
 20
1136.98974711078
 30
0.0
 40
6.0
100
AcDbArc
 50
270.0
 51
0.0
  0
ARC
  5
3CD
330
87
100
AcDbEntity
  8
LC-004-002-RND-0
  6
Continuous
 62
     7
100
AcDbCircle
 10
-363.389493766261
 20
1203.99226411078
 30
0.0
 40
7.0
100
AcDbArc
 50
270.0
 51
0.0
  0
ARC
  5
3CE
330
87
100
AcDbEntity
  8
LC-005-002-----0
  6
Continuous
 62
     7
100
AcDbCircle
 10
-381.121239766261
 20
1136.98974711078
 30
0.0
 40
5.299999999999973
100
AcDbArc
 50
337.5044019999934
 51
359.9955980000006
  0
ARC
  5
3CF
330
87
100
AcDbEntity
  8
LC-005-002-----0
  6
Continuous
 62
     7
100
AcDbCircle
 10
-381.121239766261
 20
1136.98974711078
 30
0.0
 40
5.299999999999694
100
AcDbArc
 50
315.0125400000026
 51
337.4874600000021
  0
ARC
  5
3D0
330
87
100
AcDbEntity
  8
LC-005-002-----0
  6
Continuous
 62
     7
100
AcDbCircle
 10
-381.121239766261
 20
1136.98974711078
 30
0.0
 40
5.299999999999992
100
AcDbArc
 50
292.5187720000026
 51
314.9812279999995
  0
ARC
  5
3D1
330
87
100
AcDbEntity
  8
LC-005-002-----0
  6
Continuous
 62
     7
100
AcDbCircle
 10
-381.121239766261
 20
1136.98974711078
 30
0.0
 40
5.299999999999884
100
AcDbArc
 50
270.0221470000001
 51
292.4778529999968
  0
ARC
  5
3D2
330
87
100
AcDbEntity
  8
LC-004-002-RND-0
  6
Continuous
 62
     7
100
AcDbCircle
 10
-363.389493766261
 20
1203.98778911078
 30
0.0
 40
6.300000000000182
100
AcDbArc
 50
270.0
 51
0.0
  0
ARC
  5
3D3
330
87
100
AcDbEntity
  8
LC-004-002-RND-0
  6
Continuous
 62
     7
100
AcDbCircle
 10
-370.121239766261
 20
1191.99226411078
 30
0.0
 40
5.0
100
AcDbArc
 50
90.0
 51
180.0
  0
ARC
  5
3D4
330
87
100
AcDbEntity
  8
LC-004-002-RND-0
  6
Continuous
 62
     7
100
AcDbCircle
 10
-553.189493766261
 20
1203.98778911078
 30
0.0
 40
0.2999999999999545
100
AcDbArc
 50
0.0
 51
74.99999999996587
  0
ARC
  5
3D5
330
87
100
AcDbEntity
  8
LC-005-002-----0
  6
Continuous
 62
     7
100
AcDbCircle
 10
-546.889493766261
 20
1203.98778911078
 30
0.0
 40
6.299999999999955
100
AcDbArc
 50
180.0
 51
270.0
  0
ARC
  5
3D6
330
87
100
AcDbEntity
  8
LC-005-002-----0
  6
Continuous
 62
     7
100
AcDbCircle
 10
-546.889493766261
 20
1203.98778911078
 30
0.0
 40
6.0
100
AcDbArc
 50
180.0
 51
270.0
  0
ARC
  5
3D7
330
87
100
AcDbEntity
  8
LC-004-002-RND-0
  6
Continuous
 62
     7
100
AcDbCircle
 10
-357.089493766261
 20
1203.98778911078
 30
0.0
 40
0.3000000000001178
100
AcDbArc
 50
105.0000000000446
 51
180.0
  0
ARC
  5
3D8
330
87
100
AcDbEntity
  8
LC-005-002-----0
  6
Continuous
 62
     7
100
AcDbCircle
 10
-363.389493766261
 20
1203.98778911078
 30
0.0
 40
6.300000000000182
100
AcDbArc
 50
270.0
 51
0.0
  0
ARC
  5
3D9
330
87
100
AcDbEntity
  8
LC-005-002-----0
  6
Continuous
 62
     7
100
AcDbCircle
 10
-363.389493766261
 20
1203.98778911078
 30
0.0
 40
5.999999999999851
100
AcDbArc
 50
339.143837000001
 51
0.0
  0
ARC
  5
3DA
330
87
100
AcDbEntity
  8
LC-005-002-----0
  6
Continuous
 62
     7
100
AcDbCircle
 10
-363.389493766261
 20
1203.98778911078
 30
0.0
 40
6.00000000000017
100
AcDbArc
 50
316.1042129999982
 51
339.1302529999998
  0
ARC
  5
3DB
330
87
100
AcDbEntity
  8
LC-005-002-----0
  6
Continuous
 62
     7
100
AcDbCircle
 10
-363.389493766261
 20
1203.98778911078
 30
0.0
 40
6.00000000000052
100
AcDbArc
 50
293.0629280000011
 51
316.0777510000059
  0
ARC
  5
3DC
330
87
100
AcDbEntity
  8
LC-005-002-----0
  6
Continuous
 62
     7
100
AcDbCircle
 10
-363.389493766261
 20
1203.98778911078
 30
0.0
 40
6.000000000000226
100
AcDbArc
 50
270.0190840000027
 51
293.0278100000004
  0
ARC
  5
3DD
330
87
100
AcDbEntity
  8
LC-004-002-RND-0
  6
Continuous
 62
     7
100
AcDbCircle
 10
-529.158100766261
 20
1136.98974711078
 30
0.0
 40
6.0
100
AcDbArc
 50
180.0
 51
270.0
  0
ARC
  5
3DE
330
87
100
AcDbEntity
  8
LC-004-002-RND-0
  6
Continuous
 62
     7
100
AcDbCircle
 10
-379.139479766261
 20
1319.78778911078
 30
0.0
 40
2.0
100
AcDbArc
 50
90.0
 51
169.3112209999958
  0
ARC
  5
3DF
330
87
100
AcDbEntity
  8
LC-004-002-RND-0
  6
Continuous
 62
     7
100
AcDbCircle
 10
-379.444776766261
 20
1319.78778911078
 30
0.0
 40
1.0
100
AcDbArc
 50
90.0
 51
169.3112209999958
  0
ARC
  5
3E0
330
87
100
AcDbEntity
  8
LC-004-002-RND-0
  6
Continuous
 62
     7
100
AcDbCircle
 10
-394.421942766261
 20
1319.78778911078
 30
0.0
 40
2.0
100
AcDbArc
 50
90.0
 51
169.3997430000088
  0
ARC
  5
3E1
330
87
100
AcDbEntity
  8
LC-004-002-RND-0
  6
Continuous
 62
     7
100
AcDbCircle
 10
-546.889847766261
 20
1203.99226411078
 30
0.0
 40
6.999999999999604
100
AcDbArc
 50
191.9699109999979
 51
270.0
  0
ARC
  5
3E2
330
87
100
AcDbEntity
  8
LC-005-002-----0
  6
Continuous
 62
     7
100
AcDbCircle
 10
-529.158100766261
 20
1136.98974711078
 30
0.0
 40
5.299999999999879
100
AcDbArc
 50
247.5221470000026
 51
269.9778529999999
  0
ARC
  5
3E3
330
87
100
AcDbEntity
  8
LC-005-002-----0
  6
Continuous
 62
     7
100
AcDbCircle
 10
-529.158100766261
 20
1136.98974711078
 30
0.0
 40
5.299999999999476
100
AcDbArc
 50
225.0187720000005
 51
247.4812279999968
  0
ARC
  5
3E4
330
87
100
AcDbEntity
  8
LC-005-002-----0
  6
Continuous
 62
     7
100
AcDbCircle
 10
-529.158100766261
 20
1136.98974711078
 30
0.0
 40
5.30000000000028
100
AcDbArc
 50
202.5125399999981
 51
224.987459999997
  0
ARC
  5
3E5
330
87
100
AcDbEntity
  8
LC-005-002-----0
  6
Continuous
 62
     7
100
AcDbCircle
 10
-529.158100766261
 20
1136.98974711078
 30
0.0
 40
5.300000000000312
100
AcDbArc
 50
180.0044019999994
 51
202.4955980000067
  0
ARC
  5
3E6
330
87
100
AcDbEntity
  8
LC-004-002-RND-0
  6
Continuous
 62
     7
100
AcDbCircle
 10
-546.889847766261
 20
1203.98778911078
 30
0.0
 40
6.300000000000379
100
AcDbArc
 50
193.2812869999967
 51
270.0
  0
ARC
  5
3E7
330
87
100
AcDbEntity
  8
LC-004-002-RND-0
  6
Continuous
 62
     7
100
AcDbCircle
 10
-540.158100766261
 20
1191.99226411078
 30
0.0
 40
5.0
100
AcDbArc
 50
0.0
 51
90.0
  0
DIMENSION
  5
3F2
330
87
100
AcDbEntity
  8
1
100
AcDbDimension
  2
*D5
 10
-523.658094766261
 20
1086.578525662132
 30
0.0
 11
-455.139493766261
 21
1097.578525662132
 31
0.0
 70
    33
  1
<>
 71
     5
 42
-1.0
 53
0.00013888888889
  3
ME10_DIM_10
100
AcDbAlignedDimension
 13
-386.621245766261
 23
1130.98974711078
 33
0.0
 14
-523.658094766261
 24
1130.98974711078
 34
0.0
  0
DIMENSION
  5
3FD
330
87
100
AcDbEntity
  8
1
100
AcDbDimension
  2
*D6
 10
-536.139493766261
 20
1347.828355180888
 30
0.0
 11
-455.139493766261
 21
1358.828355180888
 31
0.0
 70
    33
  1
<>
 71
     5
 42
-1.0
 53
0.00013888888889
  3
ME10_DIM_11
100
AcDbAlignedDimension
 13
-374.139493766261
 23
1290.19242311078
 33
0.0
 14
-536.139493766261
 24
1290.19242311078
 34
0.0
  0
DIMENSION
  5
408
330
87
100
AcDbEntity
  8
1
100
AcDbDimension
  2
*D7
 10
-331.368937912373
 20
1290.19242311078
 30
0.0
 11
-342.368937912373
 21
1250.145107157373
 31
0.0
 70
    32
  1
<>
 71
     5
 42
-1.0
 53
90.0
  3
ME10_DIM_12
100
AcDbAlignedDimension
 13
-370.389493766261
 23
1204.20136311078
 33
0.0
 14
-370.139493766261
 24
1290.19242311078
 34
0.0
 50
90.0
100
AcDbRotatedDimension
  0
DIMENSION
  5
415
330
87
100
AcDbEntity
  8
1
100
AcDbDimension
  2
*D8
 10
-331.735934766261
 20
1290.19242311078
 30
0.0
 11
-342.735934766261
 21
1306.01627209436
 31
0.0
 70
    32
  1
<>
 71
     5
 42
-1.0
 53
90.0
  3
ME10_DIM_13
100
AcDbAlignedDimension
 13
-351.735934766261
 23
1321.78778911078
 33
0.0
 14
-370.139493766261
 24
1290.19242311078
 34
0.0
 50
90.0
100
AcDbRotatedDimension
  0
DIMENSION
  5
420
330
87
100
AcDbEntity
  8
1
100
AcDbDimension
  2
*D9
 10
-296.460130143159
 20
1321.78778911078
 30
0.0
 11
-307.460130143159
 21
1228.974879662198
 31
0.0
 70
    32
  1
<>
 71
     5
 42
-1.0
 53
90.0
  3
ME10_DIM_14
100
AcDbAlignedDimension
 13
-381.121239766261
 23
1130.98974711078
 33
0.0
 14
-351.735934766261
 24
1321.78778911078
 34
0.0
 50
90.0
100
AcDbRotatedDimension
  0
DIMENSION
  5
42B
330
87
100
AcDbEntity
  8
1
100
AcDbDimension
  2
*D10
 10
-535.158100766261
 20
1052.346718005826
 30
0.0
 11
-456.983261923411
 21
1063.346718005826
 31
0.0
 70
    33
  1
<>
 71
     5
 42
-1.0
 53
0.00013888888889
  3
ME10_DIM_15
100
AcDbAlignedDimension
 13
-375.121239766261
 23
1136.98974711078
 33
0.0
 14
-535.158100766261
 24
1136.98974711078
 34
0.0
  0
DIMENSION
  5
436
330
87
100
AcDbEntity
  8
1
100
AcDbDimension
  2
*D11
 10
-356.389493766261
 20
1017.223437324519
 30
0.0
 11
-447.543932259002
 21
1028.223437324519
 31
0.0
 70
    33
  1
Ø197
 71
     5
 42
-1.0
 53
0.00013888888889
  3
ME10_DIM_16
100
AcDbAlignedDimension
 13
-553.889847766261
 23
1203.99226411078
 33
0.0
 14
-356.389493766261
 24
1203.99226411078
 34
0.0
  0
DIMENSION
  5
441
330
87
100
AcDbEntity
  8
1
100
AcDbDimension
  2
*D12
 10
-568.827780766261
 20
982.8052011334989
 30
0.0
 11
-453.550057683912
 21
993.8052011334989
 31
0.0
 70
    33
  1
<>
 71
     5
 42
-1.0
 53
0.00013888888889
  3
ME10_DIM_17
100
AcDbAlignedDimension
 13
-341.451205766261
 23
1208.17805511078
 33
0.0
 14
-568.827780766261
 24
1208.17805511078
 34
0.0
  0
ENDBLK
  5
89
330
87
100
AcDbEntity
  8
0
100
AcDbBlockEnd
  0
BLOCK
  5
8E
330
8A
100
AcDbEntity
  8
0
100
AcDbBlockBegin
  2
HL870__3
 70
     0
 10
-138.3742789876176
 20
567.5313896670381
 30
0.0
  3
HL870__3
  1

  0
INSERT
  5
8B
330
8A
100
AcDbEntity
  8
0
100
AcDbBlockReference
  2
DINA3_quer_Artikel
 10
-138.3742789876176
 20
355.0156948335191
 30
0.0
  0
INSERT
  5
8C
330
8A
100
AcDbEntity
  8
0
100
AcDbBlockReference
  2
HL870__1
 10
-40.74006233974292
 20
600.371481621249
 30
0.0
 41
0.5
 42
0.5
 43
0.5
  0
INSERT
  5
8D
330
8A
100
AcDbEntity
  8
0
100
AcDbBlockReference
  2
HL870__2
 10
-228.8321326019407
 20
493.9961990590696
 30
0.0
 41
0.5
 42
0.5
 43
0.5
  0
ENDBLK
  5
8F
330
8A
100
AcDbEntity
  8
0
100
AcDbBlockEnd
  0
BLOCK
  5
3EF
330
3E8
100
AcDbEntity
  8
0
100
AcDbBlockBegin
  2
*D5
 70
     1
 10
0.0
 20
0.0
 30
0.0
  3
*D5
  1

  0
LINE
  5
3E9
330
3E8
100
AcDbEntity
  8
1
  6
Continuous
 62
     4
100
AcDbLine
 10
-523.658094766261
 20
1086.578525662132
 30
0.0
 11
-386.621245766261
 21
1086.578525662132
 31
0.0
  0
LINE
  5
3EA
330
3E8
100
AcDbEntity
  8
1
  6
Continuous
 62
     4
100
AcDbLine
 10
-386.621245766261
 20
1130.98974711078
 30
0.0
 11
-386.621245766261
 21
1082.578525662132
 31
0.0
  0
LINE
  5
3EB
330
3E8
100
AcDbEntity
  8
1
  6
Continuous
 62
     4
100
AcDbLine
 10
-523.658094766261
 20
1130.98974711078
 30
0.0
 11
-523.658094766261
 21
1082.578525662132
 31
0.0
  0
SOLID
  5
3EC
330
3E8
100
AcDbEntity
  8
1
 62
     4
100
AcDbTrace
 10
-509.658094766261
 20
1088.421660628356
 30
0.0
 11
-509.658094766261
 21
1084.735390695909
 31
0.0
 12
-523.658094766261
 22
1086.578525662132
 32
0.0
 13
-523.658094766261
 23
1086.578525662132
 33
0.0
  0
SOLID
  5
3ED
330
3E8
100
AcDbEntity
  8
1
 62
     4
100
AcDbTrace
 10
-400.621245766261
 20
1084.735390695909
 30
0.0
 11
-400.621245766261
 21
1088.421660628356
 31
0.0
 12
-386.621245766261
 22
1086.578525662132
 32
0.0
 13
-386.621245766261
 23
1086.578525662132
 33
0.0
  0
MTEXT
  5
3EE
330
3E8
100
AcDbEntity
  8
1
 62
     1
100
AcDbMText
 10
-472.9194937662273
 20
1090.578497833827
 30
0.0
 40
14.0
 41
0.0
 71
     7
 72
     1
  1
\C1;%%c\C1;137
  7
CONVERTER_12
 11
0.9999999999970619
 21
2.424068405545306E-6
 31
0.0
 73
     1
 44
0.60024009603842
  0
ENDBLK
  5
3F0
330
3E8
100
AcDbEntity
  8
0
100
AcDbBlockEnd
  0
BLOCK
  5
3FA
330
3F3
100
AcDbEntity
  8
0
100
AcDbBlockBegin
  2
*D6
 70
     1
 10
0.0
 20
0.0
 30
0.0
  3
*D6
  1

  0
LINE
  5
3F4
330
3F3
100
AcDbEntity
  8
1
  6
Continuous
 62
     4
100
AcDbLine
 10
-536.139493766261
 20
1347.828355180888
 30
0.0
 11
-374.139493766261
 21
1347.828355180888
 31
0.0
  0
LINE
  5
3F5
330
3F3
100
AcDbEntity
  8
1
  6
Continuous
 62
     4
100
AcDbLine
 10
-374.139493766261
 20
1290.19242311078
 30
0.0
 11
-374.139493766261
 21
1351.828355180888
 31
0.0
  0
LINE
  5
3F6
330
3F3
100
AcDbEntity
  8
1
  6
Continuous
 62
     4
100
AcDbLine
 10
-536.139493766261
 20
1290.19242311078
 30
0.0
 11
-536.139493766261
 21
1351.828355180888
 31
0.0
  0
SOLID
  5
3F7
330
3F3
100
AcDbEntity
  8
1
 62
     4
100
AcDbTrace
 10
-522.139493766261
 20
1349.671490147111
 30
0.0
 11
-522.139493766261
 21
1345.985220214664
 31
0.0
 12
-536.139493766261
 22
1347.828355180888
 32
0.0
 13
-536.139493766261
 23
1347.828355180888
 33
0.0
  0
SOLID
  5
3F8
330
3F3
100
AcDbEntity
  8
1
 62
     4
100
AcDbTrace
 10
-388.139493766261
 20
1345.985220214664
 30
0.0
 11
-388.139493766261
 21
1349.671490147111
 31
0.0
 12
-374.139493766261
 22
1347.828355180888
 32
0.0
 13
-374.139493766261
 23
1347.828355180888
 33
0.0
  0
MTEXT
  5
3F9
330
3F3
100
AcDbEntity
  8
1
 62
     1
100
AcDbMText
 10
-472.9194937662273
 20
1351.828327352583
 30
0.0
 40
14.0
 41
0.0
 71
     7
 72
     1
  1
\C1;%%c\C1;162
  7
CONVERTER_12
 11
0.9999999999970619
 21
2.424068405545306E-6
 31
0.0
 73
     1
 44
0.60024009603842
  0
ENDBLK
  5
3FB
330
3F3
100
AcDbEntity
  8
0
100
AcDbBlockEnd
  0
BLOCK
  5
405
330
3FE
100
AcDbEntity
  8
0
100
AcDbBlockBegin
  2
*D7
 70
     1
 10
0.0
 20
0.0
 30
0.0
  3
*D7
  1

  0
LINE
  5
3FF
330
3FE
100
AcDbEntity
  8
1
  6
Continuous
 62
     4
100
AcDbLine
 10
-331.368937912373
 20
1290.19242311078
 30
0.0
 11
-331.368937912373
 21
1204.20136311078
 31
0.0
  0
LINE
  5
400
330
3FE
100
AcDbEntity
  8
1
  6
Continuous
 62
     4
100
AcDbLine
 10
-370.389493766261
 20
1204.20136311078
 30
0.0
 11
-327.368937912373
 21
1204.20136311078
 31
0.0
  0
LINE
  5
401
330
3FE
100
AcDbEntity
  8
1
  6
Continuous
 62
     4
100
AcDbLine
 10
-370.139493766261
 20
1290.19242311078
 30
0.0
 11
-327.368937912373
 21
1290.19242311078
 31
0.0
  0
SOLID
  5
402
330
3FE
100
AcDbEntity
  8
1
 62
     4
100
AcDbTrace
 10
-329.5258029461494
 20
1276.19242311078
 30
0.0
 11
-333.2120728785965
 21
1276.19242311078
 31
0.0
 12
-331.368937912373
 22
1290.19242311078
 32
0.0
 13
-331.368937912373
 23
1290.19242311078
 33
0.0
  0
SOLID
  5
403
330
3FE
100
AcDbEntity
  8
1
 62
     4
100
AcDbTrace
 10
-333.2120728785965
 20
1218.20136311078
 30
0.0
 11
-329.5258029461494
 21
1218.20136311078
 31
0.0
 12
-331.368937912373
 22
1204.20136311078
 32
0.0
 13
-331.368937912373
 23
1204.20136311078
 33
0.0
  0
MTEXT
  5
404
330
3FE
100
AcDbEntity
  8
1
 62
     1
100
AcDbMText
 10
-335.368937912373
 20
1239.645107157373
 30
0.0
 40
14.0
 41
0.0
 71
     7
 72
     1
  1
86
  7
CONVERTER_12
 11
0.0
 21
1.0
 31
0.0
 73
     1
 44
0.60024009603842
  0
ENDBLK
  5
406
330
3FE
100
AcDbEntity
  8
0
100
AcDbBlockEnd
  0
BLOCK
  5
412
330
409
100
AcDbEntity
  8
0
100
AcDbBlockBegin
  2
*D8
 70
     1
 10
0.0
 20
0.0
 30
0.0
  3
*D8
  1

  0
LINE
  5
40A
330
409
100
AcDbEntity
  8
1
  6
Continuous
 62
     4
100
AcDbLine
 10
-331.735934766261
 20
1321.78778911078
 30
0.0
 11
-331.735934766261
 21
1349.78778911078
 31
0.0
  0
LINE
  5
40B
330
409
100
AcDbEntity
  8
1
  6
Continuous
 62
     4
100
AcDbLine
 10
-331.735934766261
 20
1290.19242311078
 30
0.0
 11
-331.735934766261
 21
1321.78778911078
 31
0.0
  0
LINE
  5
40C
330
409
100
AcDbEntity
  8
1
  6
Continuous
 62
     4
100
AcDbLine
 10
-331.735934766261
 20
1262.19242311078
 30
0.0
 11
-331.735934766261
 21
1290.19242311078
 31
0.0
  0
LINE
  5
40D
330
409
100
AcDbEntity
  8
1
  6
Continuous
 62
     4
100
AcDbLine
 10
-351.735934766261
 20
1321.78778911078
 30
0.0
 11
-327.735934766261
 21
1321.78778911078
 31
0.0
  0
LINE
  5
40E
330
409
100
AcDbEntity
  8
1
  6
Continuous
 62
     4
100
AcDbLine
 10
-370.139493766261
 20
1290.19242311078
 30
0.0
 11
-327.735934766261
 21
1290.19242311078
 31
0.0
  0
SOLID
  5
40F
330
409
100
AcDbEntity
  8
1
 62
     4
100
AcDbTrace
 10
-329.8927998000374
 20
1276.19242311078
 30
0.0
 11
-333.5790697324845
 21
1276.19242311078
 31
0.0
 12
-331.735934766261
 22
1290.19242311078
 32
0.0
 13
-331.735934766261
 23
1290.19242311078
 33
0.0
  0
SOLID
  5
410
330
409
100
AcDbEntity
  8
1
 62
     4
100
AcDbTrace
 10
-333.5790697324845
 20
1335.78778911078
 30
0.0
 11
-329.8927998000374
 21
1335.78778911078
 31
0.0
 12
-331.735934766261
 22
1321.78778911078
 32
0.0
 13
-331.735934766261
 23
1321.78778911078
 33
0.0
  0
MTEXT
  5
411
330
409
100
AcDbEntity
  8
1
 62
     1
100
AcDbMText
 10
-335.735934766261
 20
1295.51627209436
 30
0.0
 40
14.0
 41
0.0
 71
     7
 72
     1
  1
32
  7
CONVERTER_12
 11
0.0
 21
1.0
 31
0.0
 73
     1
 44
0.60024009603842
  0
ENDBLK
  5
413
330
409
100
AcDbEntity
  8
0
100
AcDbBlockEnd
  0
BLOCK
  5
41D
330
416
100
AcDbEntity
  8
0
100
AcDbBlockBegin
  2
*D9
 70
     1
 10
0.0
 20
0.0
 30
0.0
  3
*D9
  1

  0
LINE
  5
417
330
416
100
AcDbEntity
  8
1
  6
Continuous
 62
     4
100
AcDbLine
 10
-296.460130143159
 20
1321.78778911078
 30
0.0
 11
-296.460130143159
 21
1130.98974711078
 31
0.0
  0
LINE
  5
418
330
416
100
AcDbEntity
  8
1
  6
Continuous
 62
     4
100
AcDbLine
 10
-381.121239766261
 20
1130.98974711078
 30
0.0
 11
-292.460130143159
 21
1130.98974711078
 31
0.0
  0
LINE
  5
419
330
416
100
AcDbEntity
  8
1
  6
Continuous
 62
     4
100
AcDbLine
 10
-351.735934766261
 20
1321.78778911078
 30
0.0
 11
-292.460130143159
 21
1321.78778911078
 31
0.0
  0
SOLID
  5
41A
330
416
100
AcDbEntity
  8
1
 62
     4
100
AcDbTrace
 10
-294.6169951769355
 20
1307.78778911078
 30
0.0
 11
-298.3032651093826
 21
1307.78778911078
 31
0.0
 12
-296.460130143159
 22
1321.78778911078
 32
0.0
 13
-296.460130143159
 23
1321.78778911078
 33
0.0
  0
SOLID
  5
41B
330
416
100
AcDbEntity
  8
1
 62
     4
100
AcDbTrace
 10
-298.3032651093826
 20
1144.98974711078
 30
0.0
 11
-294.6169951769355
 21
1144.98974711078
 31
0.0
 12
-296.460130143159
 22
1130.98974711078
 32
0.0
 13
-296.460130143159
 23
1130.98974711078
 33
0.0
  0
MTEXT
  5
41C
330
416
100
AcDbEntity
  8
1
 62
     1
100
AcDbMText
 10
-300.460130143159
 20
1216.374879662198
 30
0.0
 40
14.0
 41
0.0
 71
     7
 72
     1
  1
191
  7
CONVERTER_12
 11
0.0
 21
1.0
 31
0.0
 73
     1
 44
0.60024009603842
  0
ENDBLK
  5
41E
330
416
100
AcDbEntity
  8
0
100
AcDbBlockEnd
  0
BLOCK
  5
428
330
421
100
AcDbEntity
  8
0
100
AcDbBlockBegin
  2
*D10
 70
     1
 10
0.0
 20
0.0
 30
0.0
  3
*D10
  1

  0
LINE
  5
422
330
421
100
AcDbEntity
  8
1
  6
Continuous
 62
     4
100
AcDbLine
 10
-535.158100766261
 20
1052.346718005826
 30
0.0
 11
-375.1212397662611
 21
1052.346718005826
 31
0.0
  0
LINE
  5
423
330
421
100
AcDbEntity
  8
1
  6
Continuous
 62
     4
100
AcDbLine
 10
-375.1212397662611
 20
1136.98974711078
 30
0.0
 11
-375.1212397662611
 21
1048.346718005826
 31
0.0
  0
LINE
  5
424
330
421
100
AcDbEntity
  8
1
  6
Continuous
 62
     4
100
AcDbLine
 10
-535.158100766261
 20
1136.98974711078
 30
0.0
 11
-535.158100766261
 21
1048.346718005826
 31
0.0
  0
SOLID
  5
425
330
421
100
AcDbEntity
  8
1
 62
     4
100
AcDbTrace
 10
-521.158100766261
 20
1054.189852972049
 30
0.0
 11
-521.158100766261
 21
1050.503583039603
 31
0.0
 12
-535.158100766261
 22
1052.346718005826
 32
0.0
 13
-535.158100766261
 23
1052.346718005826
 33
0.0
  0
SOLID
  5
426
330
421
100
AcDbEntity
  8
1
 62
     4
100
AcDbTrace
 10
-389.1212397662611
 20
1050.503583039603
 30
0.0
 11
-389.1212397662611
 21
1054.189852972049
 31
0.0
 12
-375.1212397662611
 22
1052.346718005826
 32
0.0
 13
-375.1212397662611
 23
1052.346718005826
 33
0.0
  0
MTEXT
  5
427
330
421
100
AcDbEntity
  8
1
 62
     1
100
AcDbMText
 10
-474.7632619233773
 20
1056.346690177521
 30
0.0
 40
14.0
 41
0.0
 71
     7
 72
     1
  1
\C1;%%c\C1;160
  7
CONVERTER_12
 11
0.9999999999970619
 21
2.424068405545306E-6
 31
0.0
 73
     1
 44
0.60024009603842
  0
ENDBLK
  5
429
330
421
100
AcDbEntity
  8
0
100
AcDbBlockEnd
  0
BLOCK
  5
433
330
42C
100
AcDbEntity
  8
0
100
AcDbBlockBegin
  2
*D11
 70
     1
 10
0.0
 20
0.0
 30
0.0
  3
*D11
  1

  0
LINE
  5
42D
330
42C
100
AcDbEntity
  8
1
  6
Continuous
 62
     4
100
AcDbLine
 10
-356.389493766261
 20
1017.223437324519
 30
0.0
 11
-553.889847766261
 21
1017.223437324519
 31
0.0
  0
LINE
  5
42E
330
42C
100
AcDbEntity
  8
1
  6
Continuous
 62
     4
100
AcDbLine
 10
-553.889847766261
 20
1203.99226411078
 30
0.0
 11
-553.889847766261
 21
1013.223437324519
 31
0.0
  0
LINE
  5
42F
330
42C
100
AcDbEntity
  8
1
  6
Continuous
 62
     4
100
AcDbLine
 10
-356.389493766261
 20
1203.99226411078
 30
0.0
 11
-356.389493766261
 21
1013.223437324519
 31
0.0
  0
SOLID
  5
430
330
42C
100
AcDbEntity
  8
1
 62
     4
100
AcDbTrace
 10
-370.389493766261
 20
1015.380302358295
 30
0.0
 11
-370.389493766261
 21
1019.066572290742
 31
0.0
 12
-356.389493766261
 22
1017.223437324519
 32
0.0
 13
-356.389493766261
 23
1017.223437324519
 33
0.0
  0
SOLID
  5
431
330
42C
100
AcDbEntity
  8
1
 62
     4
100
AcDbTrace
 10
-539.889847766261
 20
1019.066572290742
 30
0.0
 11
-539.889847766261
 21
1015.380302358295
 31
0.0
 12
-553.889847766261
 22
1017.223437324519
 32
0.0
 13
-553.889847766261
 23
1017.223437324519
 33
0.0
  0
MTEXT
  5
432
330
42C
100
AcDbEntity
  8
1
 62
     1
100
AcDbMText
 10
-465.3239322589683
 20
1021.223409496214
 30
0.0
 40
14.0
 41
0.0
 71
     7
 72
     1
  1
\C1;%%c\C1;197
  7
CONVERTER_12
 11
0.9999999999970619
 21
2.424068405545306E-6
 31
0.0
 73
     1
 44
0.60024009603842
  0
ENDBLK
  5
434
330
42C
100
AcDbEntity
  8
0
100
AcDbBlockEnd
  0
BLOCK
  5
43E
330
437
100
AcDbEntity
  8
0
100
AcDbBlockBegin
  2
*D12
 70
     1
 10
0.0
 20
0.0
 30
0.0
  3
*D12
  1

  0
LINE
  5
438
330
437
100
AcDbEntity
  8
1
  6
Continuous
 62
     4
100
AcDbLine
 10
-568.827780766261
 20
982.8052011334989
 30
0.0
 11
-341.451205766261
 21
982.8052011334989
 31
0.0
  0
LINE
  5
439
330
437
100
AcDbEntity
  8
1
  6
Continuous
 62
     4
100
AcDbLine
 10
-341.451205766261
 20
1208.17805511078
 30
0.0
 11
-341.451205766261
 21
978.8052011334989
 31
0.0
  0
LINE
  5
43A
330
437
100
AcDbEntity
  8
1
  6
Continuous
 62
     4
100
AcDbLine
 10
-568.827780766261
 20
1208.17805511078
 30
0.0
 11
-568.827780766261
 21
978.8052011334989
 31
0.0
  0
SOLID
  5
43B
330
437
100
AcDbEntity
  8
1
 62
     4
100
AcDbTrace
 10
-554.827780766261
 20
984.6483360997224
 30
0.0
 11
-554.827780766261
 21
980.9620661672755
 31
0.0
 12
-568.827780766261
 22
982.8052011334989
 32
0.0
 13
-568.827780766261
 23
982.8052011334989
 33
0.0
  0
SOLID
  5
43C
330
437
100
AcDbEntity
  8
1
 62
     4
100
AcDbTrace
 10
-355.451205766261
 20
980.9620661672755
 30
0.0
 11
-355.451205766261
 21
984.6483360997224
 31
0.0
 12
-341.451205766261
 22
982.8052011334989
 32
0.0
 13
-341.451205766261
 23
982.8052011334989
 33
0.0
  0
MTEXT
  5
43D
330
437
100
AcDbEntity
  8
1
 62
     1
100
AcDbMText
 10
-473.4300576838782
 20
986.8051733051936
 30
0.0
 40
14.0
 41
0.0
 71
     7
 72
     1
  1
\C1;%%c\C1;227
  7
CONVERTER_12
 11
0.9999999999970619
 21
2.424068405545306E-6
 31
0.0
 73
     1
 44
0.60024009603842
  0
ENDBLK
  5
43F
330
437
100
AcDbEntity
  8
0
100
AcDbBlockEnd
  0
ENDSEC
  0
SECTION
  2
ENTITIES
  0
INSERT
  5
90
330
1F
100
AcDbEntity
  8
0
100
AcDbBlockReference
  2
HL870__3
 10
-138.3742789876176
 20
567.5313896670381
 30
0.0
  0
ENDSEC
  0
SECTION
  2
OBJECTS
  0
DICTIONARY
  5
C
330
0
100
AcDbDictionary
281
     1
  3
ACAD_GROUP
350
D
  3
ACAD_LAYOUT
350
1A
  3
ACAD_MATERIAL
350
43
  3
ACAD_MLEADERSTYLE
350
6B
  3
ACAD_MLINESTYLE
350
17
  3
ACAD_PLOTSETTINGS
350
19
  3
ACAD_PLOTSTYLENAME
350
E
  3
ACAD_SCALELIST
350
47
  3
ACAD_TABLESTYLE
350
69
  3
ACAD_VISUALSTYLE
350
2A
  3
AcDbVariableDictionary
350
442
  0
DICTIONARY
  5
449
330
8
100
AcDbDictionary
280
     1
281
     1
  3
ACAD_XREC_ROUNDTRIP
360
44A
  0
DICTIONARY
  5
D
102
{ACAD_REACTORS
330
C
102
}
330
C
100
AcDbDictionary
281
     1
  0
DICTIONARY
  5
1A
102
{ACAD_REACTORS
330
C
102
}
330
C
100
AcDbDictionary
281
     1
  3
Layout1
350
1E
  3
Layout2
350
26
  3
Model
350
22
  0
DICTIONARY
  5
43
102
{ACAD_REACTORS
330
C
102
}
330
C
100
AcDbDictionary
281
     1
  3
ByBlock
350
45
  3
ByLayer
350
44
  3
Global
350
46
  0
DICTIONARY
  5
6B
102
{ACAD_REACTORS
330
C
102
}
330
C
100
AcDbDictionary
281
     1
  3
Standard
350
6C
  0
DICTIONARY
  5
17
102
{ACAD_REACTORS
330
C
102
}
330
C
100
AcDbDictionary
281
     1
  3
Standard
350
18
  0
DICTIONARY
  5
19
102
{ACAD_REACTORS
330
C
102
}
330
C
100
AcDbDictionary
281
     1
  0
ACDBDICTIONARYWDFLT
  5
E
102
{ACAD_REACTORS
330
C
102
}
330
C
100
AcDbDictionary
281
     1
  3
Normal
350
F
100
AcDbDictionaryWithDefault
340
F
  0
DICTIONARY
  5
47
102
{ACAD_REACTORS
330
C
102
}
330
C
100
AcDbDictionary
281
     1
  3
A0
350
48
  3
A1
350
49
  3
A2
350
4A
  3
A3
350
4B
  3
A4
350
4C
  3
A5
350
4D
  3
A6
350
4E
  3
A7
350
4F
  3
A8
350
50
  3
A9
350
51
  3
B0
350
52
  3
B1
350
53
  3
B2
350
54
  3
B3
350
55
  3
B4
350
56
  3
B5
350
57
  3
B6
350
58
  3
B7
350
59
  3
B8
350
5A
  3
B9
350
5B
  3
C0
350
5C
  3
C1
350
5D
  3
C2
350
5E
  3
C3
350
5F
  3
C4
350
60
  3
C5
350
61
  3
C6
350
62
  3
C7
350
63
  3
C8
350
64
  3
C9
350
65
  3
D0
350
66
  3
D1
350
67
  3
D2
350
68
  0
DICTIONARY
  5
69
102
{ACAD_REACTORS
330
C
102
}
330
C
100
AcDbDictionary
281
     1
  3
Standard
350
6A
  0
DICTIONARY
  5
2A
102
{ACAD_REACTORS
330
C
102
}
330
C
100
AcDbDictionary
281
     1
  3
2dWireframe
350
2F
  3
Basic
350
32
  3
Brighten
350
36
  3
ColorChange
350
3A
  3
Conceptual
350
34
  3
Dim
350
35
  3
EdgeColorOff
350
3D
  3
Facepattern
350
39
  3
Flat
350
2B
  3
FlatWithEdges
350
2C
  3
Gouraud
350
2D
  3
GouraudWithEdges
350
2E
  3
Hidden
350
31
  3
JitterOff
350
3B
  3
Linepattern
350
38
  3
OverhangOff
350
3C
  3
Realistic
350
33
  3
Shaded
350
42
  3
Shaded with edges
350
41
  3
Shades of Gray
350
3E
  3
Sketchy
350
3F
  3
Thicken
350
37
  3
Wireframe
350
30
  3
X-Ray
350
40
  0
DICTIONARY
  5
442
102
{ACAD_REACTORS
330
C
102
}
330
C
100
AcDbDictionary
281
     1
  3
CANNOSCALE
350
44B
  3
CMLEADERSTYLE
350
444
  3
CTABLESTYLE
350
443
  3
DIMASSOC
350
447
  3
HIDETEXT
350
448
  3
MSLTSCALE
350
44C
  0
XRECORD
  5
44A
102
{ACAD_REACTORS
330
449
102
}
330
449
100
AcDbXrecord
280
     1
102
VTR_0.000_0.000_1.000_1.000_GRIDDISPLAY
 70
     3
102
VTR_0.000_0.000_1.000_1.000_GRIDMAJOR
 70
     5
102
VTR_0.000_0.000_1.000_1.000_DEFAULTLIGHTING
280
     1
102
VTR_0.000_0.000_1.000_1.000_DEFAULTLIGHTINGTYPE
 70
     1
102
VTR_0.000_0.000_1.000_1.000_BRIGHTNESS
141
0.0
102
VTR_0.000_0.000_1.000_1.000_CONTRAST
142
0.0
  0
LAYOUT
  5
1E
102
{ACAD_REACTORS
330
1A
102
}
330
1A
100
AcDbPlotSettings
  1

  2
none_device
  4

  6

 40
0.0
 41
0.0
 42
0.0
 43
0.0
 44
0.0
 45
0.0
 46
0.0
 47
0.0
 48
0.0
 49
0.0
140
0.0
141
0.0
142
1.0
143
1.0
 70
   688
 72
     0
 73
     0
 74
     5
  7

 75
    16
147
1.0
148
0.0
149
0.0
100
AcDbLayout
  1
Layout1
 70
     1
 71
     1
 10
0.0
 20
0.0
 11
12.0
 21
9.0
 12
0.0
 22
0.0
 32
0.0
 14
1.00000000000000E+20
 24
1.00000000000000E+20
 34
1.00000000000000E+20
 15
-1.00000000000000E+20
 25
-1.00000000000000E+20
 35
-1.00000000000000E+20
146
0.0
 13
0.0
 23
0.0
 33
0.0
 16
1.0
 26
0.0
 36
0.0
 17
0.0
 27
1.0
 37
0.0
 76
     0
330
1B
  0
LAYOUT
  5
26
102
{ACAD_REACTORS
330
1A
102
}
330
1A
100
AcDbPlotSettings
  1

  2
none_device
  4

  6

 40
0.0
 41
0.0
 42
0.0
 43
0.0
 44
0.0
 45
0.0
 46
0.0
 47
0.0
 48
0.0
 49
0.0
140
0.0
141
0.0
142
1.0
143
1.0
 70
   688
 72
     0
 73
     0
 74
     5
  7

 75
    16
147
1.0
148
0.0
149
0.0
100
AcDbLayout
  1
Layout2
 70
     1
 71
     2
 10
0.0
 20
0.0
 11
0.0
 21
0.0
 12
0.0
 22
0.0
 32
0.0
 14
0.0
 24
0.0
 34
0.0
 15
0.0
 25
0.0
 35
0.0
146
0.0
 13
0.0
 23
0.0
 33
0.0
 16
1.0
 26
0.0
 36
0.0
 17
0.0
 27
1.0
 37
0.0
 76
     0
330
23
  0
LAYOUT
  5
22
102
{ACAD_REACTORS
330
1A
102
}
330
1A
100
AcDbPlotSettings
  1

  2
none_device
  4
Letter_(8.50_x_11.00_Inches)
  6

 40
6.35
 41
6.35
 42
6.35000508
 43
6.35000508
 44
215.9
 45
279.4
 46
0.0
 47
0.0
 48
0.0
 49
0.0
140
0.0
141
0.0
142
1.0
143
1.0
 70
  1712
 72
     0
 73
     0
 74
     0
  7

 75
     0
147
1.0
148
0.0
149
0.0
100
AcDbLayout
  1
Model
 70
     1
 71
     0
 10
0.0
 20
0.0
 11
12.0
 21
9.0
 12
0.0
 22
0.0
 32
0.0
 14
-343.3742789876177
 24
425.031389667038
 34
0.0
 15
66.6257210123824
 25
710.0313896670382
 35
0.0
146
0.0
 13
0.0
 23
0.0
 33
0.0
 16
1.0
 26
0.0
 36
0.0
 17
0.0
 27
1.0
 37
0.0
 76
     0
330
1F
331
29
  0
MATERIAL
  5
45
102
{ACAD_REACTORS
330
43
102
}
102
{ACAD_XDICTIONARY
360
47F
102
}
330
43
100
AcDbMaterial
  1
ByBlock
  0
MATERIAL
  5
44
102
{ACAD_REACTORS
330
43
102
}
102
{ACAD_XDICTIONARY
360
47D
102
}
330
43
100
AcDbMaterial
  1
ByLayer
  0
MATERIAL
  5
46
102
{ACAD_REACTORS
330
43
102
}
102
{ACAD_XDICTIONARY
360
481
102
}
330
43
100
AcDbMaterial
  1
Global
  0
MLEADERSTYLE
  5
6C
102
{ACAD_REACTORS
330
6B
102
}
102
{ACAD_XDICTIONARY
360
484
102
}
330
6B
100
AcDbMLeaderStyle
170
     2
171
     1
172
     0
 90
        2
 40
0.0
 41
0.0
173
     1
 91
-1056964608
340
14
 92
       -2
290
     1
 42
0.09
291
     1
 43
0.36
  3
Standard
341
0
 44
0.18
300

342
11
174
     1
178
     6
175
     1
176
     0
 93
-1056964608
 45
0.18
292
     0
297
     0
 46
0.18
343
0
 94
-1056964608
 47
1.0
 49
1.0
140
1.0
293
     1
141
0.0
294
     1
177
     0
142
1.0
295
     0
296
     0
143
0.125
1001
ACAD_MLEADERVER
1070
     2
  0
MLINESTYLE
  5
18
102
{ACAD_REACTORS
330
17
102
}
330
17
100
AcDbMlineStyle
  2
Standard
 70
     0
  3

 62
   256
 51
90.0
 52
90.0
 71
     2
 49
0.5
 62
   256
  6
BYLAYER
 49
-0.5
 62
   256
  6
BYLAYER
  0
ACDBPLACEHOLDER
  5
F
102
{ACAD_REACTORS
330
E
102
}
330
E
  0
SCALE
  5
48
102
{ACAD_REACTORS
330
47
102
}
330
47
100
AcDbScale
 70
     0
300
1:1
140
1.0
141
1.0
290
     1
  0
SCALE
  5
49
102
{ACAD_REACTORS
330
47
102
}
330
47
100
AcDbScale
 70
     0
300
1:2
140
1.0
141
2.0
290
     0
  0
SCALE
  5
4A
102
{ACAD_REACTORS
330
47
102
}
330
47
100
AcDbScale
 70
     0
300
1:4
140
1.0
141
4.0
290
     0
  0
SCALE
  5
4B
102
{ACAD_REACTORS
330
47
102
}
330
47
100
AcDbScale
 70
     0
300
1:5
140
1.0
141
5.0
290
     0
  0
SCALE
  5
4C
102
{ACAD_REACTORS
330
47
102
}
330
47
100
AcDbScale
 70
     0
300
1:8
140
1.0
141
8.0
290
     0
  0
SCALE
  5
4D
102
{ACAD_REACTORS
330
47
102
}
330
47
100
AcDbScale
 70
     0
300
1:10
140
1.0
141
10.0
290
     0
  0
SCALE
  5
4E
102
{ACAD_REACTORS
330
47
102
}
330
47
100
AcDbScale
 70
     0
300
1:16
140
1.0
141
16.0
290
     0
  0
SCALE
  5
4F
102
{ACAD_REACTORS
330
47
102
}
330
47
100
AcDbScale
 70
     0
300
1:20
140
1.0
141
20.0
290
     0
  0
SCALE
  5
50
102
{ACAD_REACTORS
330
47
102
}
330
47
100
AcDbScale
 70
     0
300
1:30
140
1.0
141
30.0
290
     0
  0
SCALE
  5
51
102
{ACAD_REACTORS
330
47
102
}
330
47
100
AcDbScale
 70
     0
300
1:40
140
1.0
141
40.0
290
     0
  0
SCALE
  5
52
102
{ACAD_REACTORS
330
47
102
}
330
47
100
AcDbScale
 70
     0
300
1:50
140
1.0
141
50.0
290
     0
  0
SCALE
  5
53
102
{ACAD_REACTORS
330
47
102
}
330
47
100
AcDbScale
 70
     0
300
1:100
140
1.0
141
100.0
290
     0
  0
SCALE
  5
54
102
{ACAD_REACTORS
330
47
102
}
330
47
100
AcDbScale
 70
     0
300
2:1
140
2.0
141
1.0
290
     0
  0
SCALE
  5
55
102
{ACAD_REACTORS
330
47
102
}
330
47
100
AcDbScale
 70
     0
300
4:1
140
4.0
141
1.0
290
     0
  0
SCALE
  5
56
102
{ACAD_REACTORS
330
47
102
}
330
47
100
AcDbScale
 70
     0
300
8:1
140
8.0
141
1.0
290
     0
  0
SCALE
  5
57
102
{ACAD_REACTORS
330
47
102
}
330
47
100
AcDbScale
 70
     0
300
10:1
140
10.0
141
1.0
290
     0
  0
SCALE
  5
58
102
{ACAD_REACTORS
330
47
102
}
330
47
100
AcDbScale
 70
     0
300
100:1
140
100.0
141
1.0
290
     0
  0
SCALE
  5
59
102
{ACAD_REACTORS
330
47
102
}
330
47
100
AcDbScale
 70
     0
300
1/128" = 1'-0"
140
0.0078125
141
12.0
290
     0
  0
SCALE
  5
5A
102
{ACAD_REACTORS
330
47
102
}
330
47
100
AcDbScale
 70
     0
300
1/64" = 1'-0"
140
0.015625
141
12.0
290
     0
  0
SCALE
  5
5B
102
{ACAD_REACTORS
330
47
102
}
330
47
100
AcDbScale
 70
     0
300
1/32" = 1'-0"
140
0.03125
141
12.0
290
     0
  0
SCALE
  5
5C
102
{ACAD_REACTORS
330
47
102
}
330
47
100
AcDbScale
 70
     0
300
1/16" = 1'-0"
140
0.0625
141
12.0
290
     0
  0
SCALE
  5
5D
102
{ACAD_REACTORS
330
47
102
}
330
47
100
AcDbScale
 70
     0
300
3/32" = 1'-0"
140
0.09375
141
12.0
290
     0
  0
SCALE
  5
5E
102
{ACAD_REACTORS
330
47
102
}
330
47
100
AcDbScale
 70
     0
300
1/8" = 1'-0"
140
0.125
141
12.0
290
     0
  0
SCALE
  5
5F
102
{ACAD_REACTORS
330
47
102
}
330
47
100
AcDbScale
 70
     0
300
3/16" = 1'-0"
140
0.1875
141
12.0
290
     0
  0
SCALE
  5
60
102
{ACAD_REACTORS
330
47
102
}
330
47
100
AcDbScale
 70
     0
300
1/4" = 1'-0"
140
0.25
141
12.0
290
     0
  0
SCALE
  5
61
102
{ACAD_REACTORS
330
47
102
}
330
47
100
AcDbScale
 70
     0
300
3/8" = 1'-0"
140
0.375
141
12.0
290
     0
  0
SCALE
  5
62
102
{ACAD_REACTORS
330
47
102
}
330
47
100
AcDbScale
 70
     0
300
1/2" = 1'-0"
140
0.5
141
12.0
290
     0
  0
SCALE
  5
63
102
{ACAD_REACTORS
330
47
102
}
330
47
100
AcDbScale
 70
     0
300
3/4" = 1'-0"
140
0.75
141
12.0
290
     0
  0
SCALE
  5
64
102
{ACAD_REACTORS
330
47
102
}
330
47
100
AcDbScale
 70
     0
300
1" = 1'-0"
140
1.0
141
12.0
290
     0
  0
SCALE
  5
65
102
{ACAD_REACTORS
330
47
102
}
330
47
100
AcDbScale
 70
     0
300
1-1/2" = 1'-0"
140
1.5
141
12.0
290
     0
  0
SCALE
  5
66
102
{ACAD_REACTORS
330
47
102
}
330
47
100
AcDbScale
 70
     0
300
3" = 1'-0"
140
3.0
141
12.0
290
     0
  0
SCALE
  5
67
102
{ACAD_REACTORS
330
47
102
}
330
47
100
AcDbScale
 70
     0
300
6" = 1'-0"
140
6.0
141
12.0
290
     0
  0
SCALE
  5
68
102
{ACAD_REACTORS
330
47
102
}
330
47
100
AcDbScale
 70
     0
300
1'-0" = 1'-0"
140
12.0
141
12.0
290
     0
  0
TABLESTYLE
  5
6A
102
{ACAD_REACTORS
330
69
102
}
330
69
100
AcDbTableStyle
  3
Standard
 70
     0
 71
     0
 40
0.06
 41
0.06
280
     0
281
     0
  7
Standard
140
0.18
170
     2
 62
     0
 63
   257
283
     0
274
    -2
284
     1
 64
     0
275
    -2
285
     1
 65
     0
276
    -2
286
     1
 66
     0
277
    -2
287
     1
 67
     0
278
    -2
288
     1
 68
     0
279
    -2
289
     1
 69
     0
  7
Standard
140
0.25
170
     5
 62
     0
 63
   257
283
     0
274
    -2
284
     1
 64
     0
275
    -2
285
     1
 65
     0
276
    -2
286
     1
 66
     0
277
    -2
287
     1
 67
     0
278
    -2
288
     1
 68
     0
279
    -2
289
     1
 69
     0
  7
Standard
140
0.18
170
     5
 62
     0
 63
   257
283
     0
274
    -2
284
     1
 64
     0
275
    -2
285
     1
 65
     0
276
    -2
286
     1
 66
     0
277
    -2
287
     1
 67
     0
278
    -2
288
     1
 68
     0
279
    -2
289
     1
 69
     0
  0
VISUALSTYLE
  5
2F
102
{ACAD_REACTORS
330
2A
102
}
102
{ACAD_XDICTIONARY
360
455
102
}
330
2A
100
AcDbVisualStyle
  2
2dWireframe
 70
     4
 71
     0
 72
     2
 73
     0
 90
        0
 40
0.6
 41
30.0
 62
     5
 63
     7
 74
     1
 91
        4
 64
     7
 65
   257
 75
     1
175
     1
 42
1.0
 92
        0
 66
   257
 43
1.0
 76
     1
 77
     6
 78
     2
 67
     7
 79
     5
170
     0
171
     0
290
     0
174
     0
 93
        1
 44
0.0
173
     0
291
     0
 45
0.0
1001
ACAD
1000
AcDbSavedByObjectVersion
1070
     0
  0
VISUALSTYLE
  5
32
102
{ACAD_REACTORS
330
2A
102
}
102
{ACAD_XDICTIONARY
360
45B
102
}
330
2A
100
AcDbVisualStyle
  2
Basic
 70
     7
 71
     1
 72
     0
 73
     1
 90
        0
 40
0.6
 41
30.0
 62
     5
 63
     7
 74
     0
 91
        4
 64
     7
 65
   257
 75
     1
175
     1
 42
1.0
 92
        8
 66
     7
 43
1.0
 76
     1
 77
     6
 78
     2
 67
     7
 79
     5
170
     0
171
     0
290
     0
174
     0
 93
        1
 44
0.0
173
     0
291
     1
 45
0.0
1001
ACAD
1000
AcDbSavedByObjectVersion
1070
     0
  0
VISUALSTYLE
  5
36
102
{ACAD_REACTORS
330
2A
102
}
102
{ACAD_XDICTIONARY
360
463
102
}
330
2A
100
AcDbVisualStyle
  2
Brighten
 70
    12
 71
     2
 72
     2
 73
     0
 90
        0
 40
0.6
 41
30.0
 62
     5
 63
     7
 74
     1
 91
        4
 64
     7
 65
   257
 75
     1
175
     1
 42
1.0
 92
        8
 66
     7
 43
1.0
 76
     1
 77
     6
 78
     2
 67
     7
 79
     5
170
     0
171
     0
290
     0
174
     0
 93
        1
 44
50.0
173
     0
291
     1
 45
0.0
1001
ACAD
1000
AcDbSavedByObjectVersion
1070
     0
  0
VISUALSTYLE
  5
3A
102
{ACAD_REACTORS
330
2A
102
}
102
{ACAD_XDICTIONARY
360
46B
102
}
330
2A
100
AcDbVisualStyle
  2
ColorChange
 70
    16
 71
     2
 72
     2
 73
     3
 90
        0
 40
0.6
 41
30.0
 62
     5
 63
     8
 74
     1
 91
        4
 64
     7
 65
   257
 75
     1
175
     1
 42
1.0
 92
        8
 66
     8
 43
1.0
 76
     1
 77
     6
 78
     2
 67
     7
 79
     5
170
     0
171
     0
290
     0
174
     0
 93
        1
 44
0.0
173
     0
291
     1
 45
0.0
1001
ACAD
1000
AcDbSavedByObjectVersion
1070
     0
  0
VISUALSTYLE
  5
34
102
{ACAD_REACTORS
330
2A
102
}
102
{ACAD_XDICTIONARY
360
45F
102
}
330
2A
100
AcDbVisualStyle
  2
Conceptual
 70
     9
 71
     3
 72
     2
 73
     0
 90
        0
 40
0.6
 41
30.0
 62
     5
 63
     7
 74
     2
 91
        2
 64
     7
 65
   257
 75
     1
175
     1
 42
179.0
 92
        8
 66
     7
 43
1.0
 76
     1
 77
     6
 78
     2
 67
     7
 79
     3
170
     0
171
     0
290
     0
174
     0
 93
        1
 44
0.0
173
     0
291
     0
 45
0.0
1001
ACAD
1000
AcDbSavedByObjectVersion
1070
     0
  0
VISUALSTYLE
  5
35
102
{ACAD_REACTORS
330
2A
102
}
102
{ACAD_XDICTIONARY
360
461
102
}
330
2A
100
AcDbVisualStyle
  2
Dim
 70
    11
 71
     2
 72
     2
 73
     0
 90
        0
 40
0.6
 41
30.0
 62
     5
 63
     7
 74
     1
 91
        4
 64
     7
 65
   257
 75
     1
175
     1
 42
1.0
 92
        8
 66
     7
 43
1.0
 76
     1
 77
     6
 78
     2
 67
     7
 79
     5
170
     0
171
     0
290
     0
174
     0
 93
        1
 44
-50.0
173
     0
291
     1
 45
0.0
1001
ACAD
1000
AcDbSavedByObjectVersion
1070
     0
  0
VISUALSTYLE
  5
3D
102
{ACAD_REACTORS
330
2A
102
}
102
{ACAD_XDICTIONARY
360
471
102
}
330
2A
100
AcDbVisualStyle
  2
EdgeColorOff
 70
    22
 71
     2
 72
     2
 73
     0
 90
        0
 40
0.6
 41
30.0
 62
     5
 63
     7
 74
     1
 91
        4
 64
     7
 65
   257
 75
     1
175
     1
 42
1.0
 92
        8
 66
     7
 43
1.0
 76
     1
 77
     6
 78
     2
 67
     7
 79
     5
170
     0
171
     0
290
     0
174
     0
 93
        1
 44
0.0
173
     0
291
     1
 45
0.0
1001
ACAD
1000
AcDbSavedByObjectVersion
1070
     0
  0
VISUALSTYLE
  5
39
102
{ACAD_REACTORS
330
2A
102
}
102
{ACAD_XDICTIONARY
360
469
102
}
330
2A
100
AcDbVisualStyle
  2
Facepattern
 70
    15
 71
     2
 72
     2
 73
     0
 90
        0
 40
0.6
 41
30.0
 62
     5
 63
     7
 74
     1
 91
        4
 64
     7
 65
   257
 75
     1
175
     1
 42
1.0
 92
        8
 66
     7
 43
1.0
 76
     1
 77
     6
 78
     2
 67
     7
 79
     5
170
     0
171
     0
290
     0
174
     0
 93
        1
 44
0.0
173
     0
291
     1
 45
0.0
1001
ACAD
1000
AcDbSavedByObjectVersion
1070
     0
  0
VISUALSTYLE
  5
2B
102
{ACAD_REACTORS
330
2A
102
}
102
{ACAD_XDICTIONARY
360
44D
102
}
330
2A
100
AcDbVisualStyle
  2
Flat
 70
     0
 71
     2
 72
     1
 73
     1
 90
        2
 40
0.6
 41
30.0
 62
     5
 63
     7
 74
     0
 91
        0
 64
     7
 65
   257
 75
     1
175
     1
 42
1.0
 92
        8
 66
     7
 43
1.0
 76
     1
 77
     6
 78
     2
 67
     7
 79
     5
170
     0
171
     0
290
     0
174
     0
 93
       13
 44
0.0
173
     0
291
     1
 45
0.0
1001
ACAD
1000
AcDbSavedByObjectVersion
1070
     0
  0
VISUALSTYLE
  5
2C
102
{ACAD_REACTORS
330
2A
102
}
102
{ACAD_XDICTIONARY
360
44F
102
}
330
2A
100
AcDbVisualStyle
  2
FlatWithEdges
 70
     1
 71
     2
 72
     1
 73
     1
 90
        2
 40
0.6
 41
30.0
 62
     5
 63
     7
 74
     1
 91
        0
 64
     7
 65
   257
 75
     1
175
     1
 42
1.0
 92
        0
 66
   257
 43
1.0
 76
     1
 77
     6
 78
     2
 67
     7
 79
     5
170
     0
171
     0
290
     0
174
     0
 93
       13
 44
0.0
173
     0
291
     1
 45
0.0
1001
ACAD
1000
AcDbSavedByObjectVersion
1070
     0
  0
VISUALSTYLE
  5
2D
102
{ACAD_REACTORS
330
2A
102
}
102
{ACAD_XDICTIONARY
360
451
102
}
330
2A
100
AcDbVisualStyle
  2
Gouraud
 70
     2
 71
     2
 72
     2
 73
     1
 90
        2
 40
0.6
 41
30.0
 62
     5
 63
     7
 74
     0
 91
        0
 64
     7
 65
   257
 75
     1
175
     1
 42
1.0
 92
        0
 66
     7
 43
1.0
 76
     1
 77
     6
 78
     2
 67
     7
 79
     5
170
     0
171
     0
290
     0
174
     0
 93
       13
 44
0.0
173
     0
291
     1
 45
0.0
1001
ACAD
1000
AcDbSavedByObjectVersion
1070
     0
  0
VISUALSTYLE
  5
2E
102
{ACAD_REACTORS
330
2A
102
}
102
{ACAD_XDICTIONARY
360
453
102
}
330
2A
100
AcDbVisualStyle
  2
GouraudWithEdges
 70
     3
 71
     2
 72
     2
 73
     1
 90
        2
 40
0.6
 41
30.0
 62
     5
 63
     7
 74
     1
 91
        0
 64
     7
 65
   257
 75
     1
175
     1
 42
1.0
 92
        0
 66
   257
 43
1.0
 76
     1
 77
     6
 78
     2
 67
     7
 79
     5
170
     0
171
     0
290
     0
174
     0
 93
       13
 44
0.0
173
     0
291
     1
 45
0.0
1001
ACAD
1000
AcDbSavedByObjectVersion
1070
     0
  0
VISUALSTYLE
  5
31
102
{ACAD_REACTORS
330
2A
102
}
102
{ACAD_XDICTIONARY
360
459
102
}
330
2A
100
AcDbVisualStyle
  2
Hidden
 70
     6
 71
     1
 72
     2
 73
     2
 90
        0
 40
0.6
 41
30.0
 62
     5
 63
     7
 74
     2
 91
        2
 64
     7
 65
   257
 75
     2
175
     1
 42
40.0
 92
        0
 66
   257
 43
1.0
 76
     1
 77
     6
 78
     2
 67
     7
 79
     3
170
     0
171
     0
290
     0
174
     0
 93
        1
 44
0.0
173
     0
291
     0
 45
0.0
1001
ACAD
1000
AcDbSavedByObjectVersion
1070
     0
  0
VISUALSTYLE
  5
3B
102
{ACAD_REACTORS
330
2A
102
}
102
{ACAD_XDICTIONARY
360
46D
102
}
330
2A
100
AcDbVisualStyle
  2
JitterOff
 70
    20
 71
     2
 72
     2
 73
     0
 90
        0
 40
0.6
 41
30.0
 62
     5
 63
     7
 74
     1
 91
        4
 64
     7
 65
   257
 75
     1
175
     1
 42
1.0
 92
       10
 66
     7
 43
1.0
 76
     1
 77
     6
 78
     2
 67
     7
 79
     5
170
     0
171
     0
290
     0
174
     0
 93
        1
 44
0.0
173
     0
291
     1
 45
0.0
1001
ACAD
1000
AcDbSavedByObjectVersion
1070
     0
  0
VISUALSTYLE
  5
38
102
{ACAD_REACTORS
330
2A
102
}
102
{ACAD_XDICTIONARY
360
467
102
}
330
2A
100
AcDbVisualStyle
  2
Linepattern
 70
    14
 71
     2
 72
     2
 73
     0
 90
        0
 40
0.6
 41
30.0
 62
     5
 63
     7
 74
     1
 91
        4
 64
     7
 65
   257
 75
     7
175
     7
 42
1.0
 92
        8
 66
     7
 43
1.0
 76
     1
 77
     6
 78
     2
 67
     7
 79
     5
170
     0
171
     0
290
     0
174
     0
 93
        1
 44
0.0
173
     0
291
     1
 45
0.0
1001
ACAD
1000
AcDbSavedByObjectVersion
1070
     0
  0
VISUALSTYLE
  5
3C
102
{ACAD_REACTORS
330
2A
102
}
102
{ACAD_XDICTIONARY
360
46F
102
}
330
2A
100
AcDbVisualStyle
  2
OverhangOff
 70
    21
 71
     2
 72
     2
 73
     0
 90
        0
 40
0.6
 41
30.0
 62
     5
 63
     7
 74
     1
 91
        4
 64
     7
 65
   257
 75
     1
175
     1
 42
1.0
 92
        9
 66
     7
 43
1.0
 76
     1
 77
     6
 78
     2
 67
     7
 79
     5
170
     0
171
     0
290
     0
174
     0
 93
        1
 44
0.0
173
     0
291
     1
 45
0.0
1001
ACAD
1000
AcDbSavedByObjectVersion
1070
     0
  0
VISUALSTYLE
  5
33
102
{ACAD_REACTORS
330
2A
102
}
102
{ACAD_XDICTIONARY
360
45D
102
}
330
2A
100
AcDbVisualStyle
  2
Realistic
 70
     8
 71
     2
 72
     3
 73
     0
 90
        2
 40
0.6
 41
30.0
 62
     5
 63
     7
 74
     0
 91
        0
 64
     7
 65
   257
 75
     1
175
     1
 42
1.0
 92
        8
 66
   257
 43
1.0
 76
     1
 77
     6
 78
     2
 67
     7
 79
     3
170
     0
171
     0
290
     0
174
     0
 93
       13
 44
0.0
173
     0
291
     0
 45
0.0
1001
ACAD
1000
AcDbSavedByObjectVersion
1070
     0
  0
VISUALSTYLE
  5
42
102
{ACAD_REACTORS
330
2A
102
}
102
{ACAD_XDICTIONARY
360
47B
102
}
330
2A
100
AcDbVisualStyle
  2
Shaded
 70
    27
 71
     2
 72
     2
 73
     1
 90
        2
 40
0.6
 41
30.0
 62
     5
 63
     7
 74
     0
 91
        4
 64
     7
 65
   257
 75
     1
175
     1
 42
1.0
 92
        8
 66
   257
 43
1.0
 76
     1
 77
     6
 78
     2
 67
     8
 79
     3
170
     0
171
     0
290
     0
174
     0
 93
        5
 44
0.0
173
     0
291
     0
 45
0.0
1001
ACAD
1000
AcDbSavedByObjectVersion
1070
     0
  0
VISUALSTYLE
  5
41
102
{ACAD_REACTORS
330
2A
102
}
102
{ACAD_XDICTIONARY
360
479
102
}
330
2A
100
AcDbVisualStyle
  2
Shaded with edges
 70
    26
 71
     2
 72
     2
 73
     1
 90
        2
 40
0.6
 41
30.0
 62
     5
 63
     7
 74
     1
 91
       10
 64
     7
 65
   257
 75
     2
175
     1
 42
1.0
 92
        8
 66
   257
 43
1.0
 76
     1
 77
     6
 78
     2
 67
     7
 79
     3
170
     0
171
     0
290
     0
174
     0
 93
        5
 44
0.0
173
     0
291
     0
 45
0.0
1001
ACAD
1000
AcDbSavedByObjectVersion
1070
     0
  0
VISUALSTYLE
  5
3E
102
{ACAD_REACTORS
330
2A
102
}
102
{ACAD_XDICTIONARY
360
473
102
}
330
2A
100
AcDbVisualStyle
  2
Shades of Gray
 70
    23
 71
     2
 72
     2
 73
     3
 90
        0
 40
0.6
 41
30.0
 62
     5
 63
     7
 74
     2
 91
        2
 64
     7
 65
     7
 75
     1
175
     1
 42
40.0
 92
        8
 66
     7
 43
1.0
 76
     1
 77
     6
 78
     2
 67
     7
 79
     3
170
     0
171
     0
290
     0
174
     0
 93
        1
 44
0.0
173
     0
291
     0
 45
0.0
1001
ACAD
1000
AcDbSavedByObjectVersion
1070
     0
  0
VISUALSTYLE
  5
3F
102
{ACAD_REACTORS
330
2A
102
}
102
{ACAD_XDICTIONARY
360
475
102
}
330
2A
100
AcDbVisualStyle
  2
Sketchy
 70
    24
 71
     1
 72
     2
 73
     2
 90
        0
 40
0.6
 41
30.0
 62
     5
 63
     7
 74
     2
 91
        2
 64
     7
 65
     7
 75
     1
175
     1
 42
40.0
 92
       11
 66
     7
 43
1.0
 76
     1
 77
     6
 78
     2
 67
     7
 79
     6
170
     0
171
     0
290
     0
174
     0
 93
        1
 44
0.0
173
     0
291
     0
 45
0.0
1001
ACAD
1000
AcDbSavedByObjectVersion
1070
     0
  0
VISUALSTYLE
  5
37
102
{ACAD_REACTORS
330
2A
102
}
102
{ACAD_XDICTIONARY
360
465
102
}
330
2A
100
AcDbVisualStyle
  2
Thicken
 70
    13
 71
     2
 72
     2
 73
     0
 90
        0
 40
0.6
 41
30.0
 62
     5
 63
     7
 74
     1
 91
        4
 64
     7
 65
   257
 75
     1
175
     1
 42
1.0
 92
       12
 66
     7
 43
1.0
 76
     1
 77
     6
 78
     2
 67
     7
 79
     5
170
     0
171
     0
290
     0
174
     0
 93
        1
 44
0.0
173
     0
291
     1
 45
0.0
1001
ACAD
1000
AcDbSavedByObjectVersion
1070
     0
  0
VISUALSTYLE
  5
30
102
{ACAD_REACTORS
330
2A
102
}
102
{ACAD_XDICTIONARY
360
457
102
}
330
2A
100
AcDbVisualStyle
  2
Wireframe
 70
     5
 71
     0
 72
     2
 73
     0
 90
        0
 40
0.6
 41
30.0
 62
     5
 63
     7
 74
     1
 91
        4
 64
     7
 65
   257
 75
     1
175
     1
 42
1.0
 92
        0
 66
   257
 43
1.0
 76
     1
 77
     6
 78
     2
 67
     7
 79
     3
170
     0
171
     0
290
     0
174
     0
 93
        1
 44
0.0
173
     0
291
     0
 45
0.0
1001
ACAD
1000
AcDbSavedByObjectVersion
1070
     0
  0
VISUALSTYLE
  5
40
102
{ACAD_REACTORS
330
2A
102
}
102
{ACAD_XDICTIONARY
360
477
102
}
330
2A
100
AcDbVisualStyle
  2
X-Ray
 70
    25
 71
     2
 72
     2
 73
     1
 90
        1
 40
0.5
 41
30.0
 62
     5
 63
     7
 74
     1
 91
        0
 64
     7
 65
   257
 75
     1
175
     1
 42
1.0
 92
        8
 66
     7
 43
1.0
 76
     1
 77
     6
 78
     2
 67
     7
 79
     3
170
     0
171
     0
290
     0
174
     0
 93
       13
 44
0.0
173
     0
291
     0
 45
0.0
1001
ACAD
1000
AcDbSavedByObjectVersion
1070
     0
  0
DICTIONARYVAR
  5
44B
102
{ACAD_REACTORS
330
442
102
}
330
442
100
DictionaryVariables
280
     0
  1
1:1
  0
DICTIONARYVAR
  5
444
102
{ACAD_REACTORS
330
442
102
}
330
442
100
DictionaryVariables
280
     0
  1
Standard
  0
DICTIONARYVAR
  5
443
102
{ACAD_REACTORS
330
442
102
}
330
442
100
DictionaryVariables
280
     0
  1
Standard
  0
DICTIONARYVAR
  5
447
102
{ACAD_REACTORS
330
442
102
}
330
442
100
DictionaryVariables
280
     0
  1
2
  0
DICTIONARYVAR
  5
448
102
{ACAD_REACTORS
330
442
102
}
330
442
100
DictionaryVariables
280
     0
  1
1
  0
DICTIONARYVAR
  5
44C
102
{ACAD_REACTORS
330
442
102
}
330
442
100
DictionaryVariables
280
     0
  1
1
  0
DICTIONARY
  5
47F
330
45
100
AcDbDictionary
280
     1
281
     1
  3
ACAD_XREC_ROUNDTRIP
360
480
  0
DICTIONARY
  5
47D
330
44
100
AcDbDictionary
280
     1
281
     1
  3
ACAD_XREC_ROUNDTRIP
360
47E
  0
DICTIONARY
  5
481
330
46
100
AcDbDictionary
280
     1
281
     1
  3
ACAD_XREC_ROUNDTRIP
360
482
  0
DICTIONARY
  5
484
330
6C
100
AcDbDictionary
280
     1
281
     1
  3
ACAD_XREC_ROUNDTRIP
360
485
  0
DICTIONARY
  5
455
330
2F
100
AcDbDictionary
280
     1
281
     1
  3
ACAD_XREC_ROUNDTRIP
360
456
  0
DICTIONARY
  5
45B
330
32
100
AcDbDictionary
280
     1
281
     1
  3
ACAD_XREC_ROUNDTRIP
360
45C
  0
DICTIONARY
  5
463
330
36
100
AcDbDictionary
280
     1
281
     1
  3
ACAD_XREC_ROUNDTRIP
360
464
  0
DICTIONARY
  5
46B
330
3A
100
AcDbDictionary
280
     1
281
     1
  3
ACAD_XREC_ROUNDTRIP
360
46C
  0
DICTIONARY
  5
45F
330
34
100
AcDbDictionary
280
     1
281
     1
  3
ACAD_XREC_ROUNDTRIP
360
460
  0
DICTIONARY
  5
461
330
35
100
AcDbDictionary
280
     1
281
     1
  3
ACAD_XREC_ROUNDTRIP
360
462
  0
DICTIONARY
  5
471
330
3D
100
AcDbDictionary
280
     1
281
     1
  3
ACAD_XREC_ROUNDTRIP
360
472
  0
DICTIONARY
  5
469
330
39
100
AcDbDictionary
280
     1
281
     1
  3
ACAD_XREC_ROUNDTRIP
360
46A
  0
DICTIONARY
  5
44D
330
2B
100
AcDbDictionary
280
     1
281
     1
  3
ACAD_XREC_ROUNDTRIP
360
44E
  0
DICTIONARY
  5
44F
330
2C
100
AcDbDictionary
280
     1
281
     1
  3
ACAD_XREC_ROUNDTRIP
360
450
  0
DICTIONARY
  5
451
330
2D
100
AcDbDictionary
280
     1
281
     1
  3
ACAD_XREC_ROUNDTRIP
360
452
  0
DICTIONARY
  5
453
330
2E
100
AcDbDictionary
280
     1
281
     1
  3
ACAD_XREC_ROUNDTRIP
360
454
  0
DICTIONARY
  5
459
330
31
100
AcDbDictionary
280
     1
281
     1
  3
ACAD_XREC_ROUNDTRIP
360
45A
  0
DICTIONARY
  5
46D
330
3B
100
AcDbDictionary
280
     1
281
     1
  3
ACAD_XREC_ROUNDTRIP
360
46E
  0
DICTIONARY
  5
467
330
38
100
AcDbDictionary
280
     1
281
     1
  3
ACAD_XREC_ROUNDTRIP
360
468
  0
DICTIONARY
  5
46F
330
3C
100
AcDbDictionary
280
     1
281
     1
  3
ACAD_XREC_ROUNDTRIP
360
470
  0
DICTIONARY
  5
45D
330
33
100
AcDbDictionary
280
     1
281
     1
  3
ACAD_XREC_ROUNDTRIP
360
45E
  0
DICTIONARY
  5
47B
330
42
100
AcDbDictionary
280
     1
281
     1
  3
ACAD_XREC_ROUNDTRIP
360
47C
  0
DICTIONARY
  5
479
330
41
100
AcDbDictionary
280
     1
281
     1
  3
ACAD_XREC_ROUNDTRIP
360
47A
  0
DICTIONARY
  5
473
330
3E
100
AcDbDictionary
280
     1
281
     1
  3
ACAD_XREC_ROUNDTRIP
360
474
  0
DICTIONARY
  5
475
330
3F
100
AcDbDictionary
280
     1
281
     1
  3
ACAD_XREC_ROUNDTRIP
360
476
  0
DICTIONARY
  5
465
330
37
100
AcDbDictionary
280
     1
281
     1
  3
ACAD_XREC_ROUNDTRIP
360
466
  0
DICTIONARY
  5
457
330
30
100
AcDbDictionary
280
     1
281
     1
  3
ACAD_XREC_ROUNDTRIP
360
458
  0
DICTIONARY
  5
477
330
40
100
AcDbDictionary
280
     1
281
     1
  3
ACAD_XREC_ROUNDTRIP
360
478
  0
XRECORD
  5
480
102
{ACAD_REACTORS
330
47F
102
}
330
47F
100
AcDbXrecord
280
     1
102
MATERIAL
148
0.0
149
0.0
149
0.0
 93
        0
 94
      127
282
     0
 72
     1
 77
     1
171
     1
175
     1
179
     1
273
     0
  0
XRECORD
  5
47E
102
{ACAD_REACTORS
330
47D
102
}
330
47D
100
AcDbXrecord
280
     1
102
MATERIAL
148
0.0
149
0.0
149
0.0
 93
        0
 94
      127
282
     0
 72
     1
 77
     1
171
     1
175
     1
179
     1
273
     0
  0
XRECORD
  5
482
102
{ACAD_REACTORS
330
481
102
}
330
481
100
AcDbXrecord
280
     1
102
MATERIAL
148
0.0
149
0.0
149
0.0
 93
        0
 94
      127
282
     0
 72
     1
 77
     1
171
     1
175
     1
179
     1
273
     0
  0
XRECORD
  5
485
102
{ACAD_REACTORS
330
484
102
}
330
484
100
AcDbXrecord
280
     1
102
ACAD_ROUNDTRIP_2010_MLEADER_STYLE
  0
XRECORD
  5
456
102
{ACAD_REACTORS
330
455
102
}
330
455
100
AcDbXrecord
280
     1
102
RTVSPropertyOp0
 70
     1
102
RTVSPropertyOp1
 70
     1
102
RTVSPropertyOp2
 70
     1
102
RTVSPropertyOp3
 70
     1
102
RTVSPropertyOp4
 70
     1
102
RTVSPropertyOp5
 70
     1
102
RTVSPropertyOp6
 70
     1
102
RTVSPropertyOp7
 70
     1
102
RTVSPropertyOp8
 70
     1
102
RTVSPropertyOp9
 70
     1
102
RTVSPropertyOp10
 70
     1
102
RTVSPropertyOp11
 70
     1
102
RTVSPropertyOp12
 70
     1
102
RTVSPropertyOp13
 70
     1
102
RTVSPropertyOp14
 70
     1
102
RTVSPropertyOp15
 70
     1
102
RTVSPropertyOp16
 70
     1
102
RTVSPropertyOp17
 70
     1
102
RTVSPropertyOp18
 70
     1
102
RTVSPropertyOp19
 70
     1
102
RTVSPropertyOp20
 70
     1
102
RTVSPropertyOp21
 70
     1
102
RTVSPropertyOp22
 70
     1
102
RTVSPropertyOp23
 70
     1
102
RTVSPropertyOp24
 70
     1
102
RTVSPropertyOp25
 70
     1
102
RTVSPropertyOp26
 70
     1
102
RTVSPropertyOp27
 70
     1
102
RTVSPropertyOp28
 70
     1
102
RTVSPropertyOp29
 70
     1
102
RTVSPropertyOp30
 70
     1
102
RTVSPropertyOp31
 70
     1
102
RTVSPropertyOp32
 70
     1
102
RTVSPropertyOp33
 70
     1
102
RTVSPropertyOp34
 70
     1
102
RTVSPropertyOp35
 70
     1
102
RTVSPropertyOp36
 70
     1
102
RTVSPropertyOp37
 70
     1
102
RTVSPropertyOp38
 70
     1
102
RTVSPropertyOp39
 70
     1
102
RTVSPropertyOp40
 70
     1
102
RTVSPropertyOp41
 70
     1
102
RTVSPropertyOp42
 70
     1
102
RTVSPropertyOp43
 70
     1
102
RTVSPropertyOp44
 70
     1
102
RTVSPropertyOp45
 70
     1
102
RTVSPropertyOp46
 70
     1
102
RTVSPropertyOp47
 70
     1
102
RTVSPropertyOp48
 70
     1
102
RTVSPropertyOp49
 70
     1
102
RTVSPropertyOp50
 70
     1
102
RTVSPropertyOp51
 70
     0
102
RTVSPropertyOp52
 70
     0
102
RTVSPropertyOp53
 70
     1
102
RTVSPropertyOp54
 70
     1
102
RTVSPropertyOp55
 70
     1
102
RTVSPropertyOp56
 70
     1
102
RTVSPropertyOp57
 70
     1
102
RTVSPost2010Prop28
280
     1
102
RTVSPost2010PropOp28
 70
     1
102
RTVSPost2010Prop29
280
     1
102
RTVSPost2010PropOp29
 70
     1
102
RTVSPost2010Prop30
280
     0
102
RTVSPost2010PropOp30
 70
     1
102
RTVSPost2010Prop31
280
     0
102
RTVSPost2010PropOp31
 70
     1
102
RTVSPost2010Prop32
280
     0
102
RTVSPost2010PropOp32
 70
     1
102
RTVSPost2010Prop33
280
     0
102
RTVSPost2010PropOp33
 70
     1
102
RTVSPost2010Prop34
280
     0
102
RTVSPost2010PropOp34
 70
     1
102
RTVSPost2010Prop35
280
     0
102
RTVSPost2010PropOp35
 70
     1
102
RTVSPost2010Prop36
280
     0
102
RTVSPost2010PropOp36
 70
     1
102
RTVSPost2010Prop37
 90
       50
102
RTVSPost2010PropOp37
 70
     1
102
RTVSPost2010Prop38
140
0.0
102
RTVSPost2010PropOp38
 70
     1
102
RTVSPost2010Prop39
140
1.0
102
RTVSPost2010PropOp39
 70
     1
102
RTVSPost2010Prop40
 90
        0
102
RTVSPost2010PropOp40
 70
     1
102
RTVSPost2010Prop41ColorIndex
 90
       18
102
RTVSPost2010Prop41ColorRGB
 90
        0
102
RTVSPost2010PropOp41
 70
     1
102
RTVSPost2010Prop42
 90
       50
102
RTVSPost2010PropOp42
 70
     1
102
RTVSPost2010Prop43
 90
        3
102
RTVSPost2010PropOp43
 70
     1
102
RTVSPost2010Prop44ColorIndex
 90
        5
102
RTVSPost2010Prop44ColorRGB
 90
      255
102
RTVSPost2010PropOp44
 70
     1
102
RTVSPost2010Prop45
280
     0
102
RTVSPost2010PropOp45
 70
     1
102
RTVSPost2010Prop46
 90
       50
102
RTVSPost2010PropOp46
 70
     1
102
RTVSPost2010Prop47
 90
       50
102
RTVSPost2010PropOp47
 70
     1
102
RTVSPost2010Prop48
 90
       50
102
RTVSPost2010PropOp48
 70
     1
102
RTVSPost2010Prop49
280
     0
102
RTVSPost2010PropOp49
 70
     1
102
RTVSPost2010Prop50
 90
       50
102
RTVSPost2010PropOp50
 70
     1
102
RTVSPost2010Prop51ColorIndex
 90
      256
102
RTVSPost2010Prop51ColorRGB
 90
-16777216
102
RTVSPost2010PropOp51
 70
     0
102
RTVSPost2010Prop52
140
1.0
102
RTVSPost2010PropOp52
 70
     0
102
RTVSPost2010Prop53
 90
        2
102
RTVSPost2010PropOp53
 70
     1
102
RTVSPost2010Prop54
  1
strokes_ogs.tif
102
RTVSPost2010PropOp54
 70
     1
102
RTVSPost2010Prop55
280
     0
102
RTVSPost2010PropOp55
 70
     1
102
RTVSPost2010Prop56
140
1.0
102
RTVSPost2010PropOp56
 70
     1
102
RTVSPost2010Prop57
140
1.0
102
RTVSPost2010PropOp57
 70
     1
  0
XRECORD
  5
45C
102
{ACAD_REACTORS
330
45B
102
}
330
45B
100
AcDbXrecord
280
     1
102
RTVSPropertyOp0
 70
     1
102
RTVSPropertyOp1
 70
     1
102
RTVSPropertyOp2
 70
     1
102
RTVSPropertyOp3
 70
     1
102
RTVSPropertyOp4
 70
     1
102
RTVSPropertyOp5
 70
     1
102
RTVSPropertyOp6
 70
     1
102
RTVSPropertyOp7
 70
     1
102
RTVSPropertyOp8
 70
     1
102
RTVSPropertyOp9
 70
     1
102
RTVSPropertyOp10
 70
     1
102
RTVSPropertyOp11
 70
     1
102
RTVSPropertyOp12
 70
     1
102
RTVSPropertyOp13
 70
     1
102
RTVSPropertyOp14
 70
     1
102
RTVSPropertyOp15
 70
     1
102
RTVSPropertyOp16
 70
     1
102
RTVSPropertyOp17
 70
     1
102
RTVSPropertyOp18
 70
     1
102
RTVSPropertyOp19
 70
     1
102
RTVSPropertyOp20
 70
     1
102
RTVSPropertyOp21
 70
     1
102
RTVSPropertyOp22
 70
     1
102
RTVSPropertyOp23
 70
     1
102
RTVSPropertyOp24
 70
     1
102
RTVSPropertyOp25
 70
     1
102
RTVSPropertyOp26
 70
     1
102
RTVSPropertyOp27
 70
     1
102
RTVSPropertyOp28
 70
     1
102
RTVSPropertyOp29
 70
     1
102
RTVSPropertyOp30
 70
     1
102
RTVSPropertyOp31
 70
     1
102
RTVSPropertyOp32
 70
     1
102
RTVSPropertyOp33
 70
     1
102
RTVSPropertyOp34
 70
     1
102
RTVSPropertyOp35
 70
     1
102
RTVSPropertyOp36
 70
     1
102
RTVSPropertyOp37
 70
     1
102
RTVSPropertyOp38
 70
     1
102
RTVSPropertyOp39
 70
     1
102
RTVSPropertyOp40
 70
     1
102
RTVSPropertyOp41
 70
     1
102
RTVSPropertyOp42
 70
     1
102
RTVSPropertyOp43
 70
     1
102
RTVSPropertyOp44
 70
     1
102
RTVSPropertyOp45
 70
     1
102
RTVSPropertyOp46
 70
     1
102
RTVSPropertyOp47
 70
     1
102
RTVSPropertyOp48
 70
     1
102
RTVSPropertyOp49
 70
     1
102
RTVSPropertyOp50
 70
     1
102
RTVSPropertyOp51
 70
     0
102
RTVSPropertyOp52
 70
     0
102
RTVSPropertyOp53
 70
     1
102
RTVSPropertyOp54
 70
     1
102
RTVSPropertyOp55
 70
     1
102
RTVSPropertyOp56
 70
     1
102
RTVSPropertyOp57
 70
     1
102
RTVSPost2010Prop28
280
     0
102
RTVSPost2010PropOp28
 70
     1
102
RTVSPost2010Prop29
280
     1
102
RTVSPost2010PropOp29
 70
     1
102
RTVSPost2010Prop30
280
     1
102
RTVSPost2010PropOp30
 70
     1
102
RTVSPost2010Prop31
280
     0
102
RTVSPost2010PropOp31
 70
     1
102
RTVSPost2010Prop32
280
     0
102
RTVSPost2010PropOp32
 70
     1
102
RTVSPost2010Prop33
280
     0
102
RTVSPost2010PropOp33
 70
     1
102
RTVSPost2010Prop34
280
     0
102
RTVSPost2010PropOp34
 70
     1
102
RTVSPost2010Prop35
280
     0
102
RTVSPost2010PropOp35
 70
     1
102
RTVSPost2010Prop36
280
     0
102
RTVSPost2010PropOp36
 70
     1
102
RTVSPost2010Prop37
 90
       50
102
RTVSPost2010PropOp37
 70
     1
102
RTVSPost2010Prop38
140
0.0
102
RTVSPost2010PropOp38
 70
     1
102
RTVSPost2010Prop39
140
1.0
102
RTVSPost2010PropOp39
 70
     1
102
RTVSPost2010Prop40
 90
        0
102
RTVSPost2010PropOp40
 70
     1
102
RTVSPost2010Prop41ColorIndex
 90
       18
102
RTVSPost2010Prop41ColorRGB
 90
        0
102
RTVSPost2010PropOp41
 70
     1
102
RTVSPost2010Prop42
 90
       50
102
RTVSPost2010PropOp42
 70
     1
102
RTVSPost2010Prop43
 90
        3
102
RTVSPost2010PropOp43
 70
     1
102
RTVSPost2010Prop44ColorIndex
 90
        5
102
RTVSPost2010Prop44ColorRGB
 90
      255
102
RTVSPost2010PropOp44
 70
     1
102
RTVSPost2010Prop45
280
     0
102
RTVSPost2010PropOp45
 70
     1
102
RTVSPost2010Prop46
 90
       50
102
RTVSPost2010PropOp46
 70
     1
102
RTVSPost2010Prop47
 90
       50
102
RTVSPost2010PropOp47
 70
     1
102
RTVSPost2010Prop48
 90
       50
102
RTVSPost2010PropOp48
 70
     1
102
RTVSPost2010Prop49
280
     0
102
RTVSPost2010PropOp49
 70
     1
102
RTVSPost2010Prop50
 90
       50
102
RTVSPost2010PropOp50
 70
     1
102
RTVSPost2010Prop51ColorIndex
 90
      256
102
RTVSPost2010Prop51ColorRGB
 90
-16777216
102
RTVSPost2010PropOp51
 70
     0
102
RTVSPost2010Prop52
140
1.0
102
RTVSPost2010PropOp52
 70
     0
102
RTVSPost2010Prop53
 90
        2
102
RTVSPost2010PropOp53
 70
     1
102
RTVSPost2010Prop54
  1
strokes_ogs.tif
102
RTVSPost2010PropOp54
 70
     1
102
RTVSPost2010Prop55
280
     0
102
RTVSPost2010PropOp55
 70
     1
102
RTVSPost2010Prop56
140
1.0
102
RTVSPost2010PropOp56
 70
     1
102
RTVSPost2010Prop57
140
1.0
102
RTVSPost2010PropOp57
 70
     1
  0
XRECORD
  5
464
102
{ACAD_REACTORS
330
463
102
}
330
463
100
AcDbXrecord
280
     1
102
RTVSPropertyOp0
 70
     1
102
RTVSPropertyOp1
 70
     1
102
RTVSPropertyOp2
 70
     1
102
RTVSPropertyOp3
 70
     1
102
RTVSPropertyOp4
 70
     1
102
RTVSPropertyOp5
 70
     1
102
RTVSPropertyOp6
 70
     1
102
RTVSPropertyOp7
 70
     1
102
RTVSPropertyOp8
 70
     1
102
RTVSPropertyOp9
 70
     1
102
RTVSPropertyOp10
 70
     1
102
RTVSPropertyOp11
 70
     1
102
RTVSPropertyOp12
 70
     1
102
RTVSPropertyOp13
 70
     1
102
RTVSPropertyOp14
 70
     1
102
RTVSPropertyOp15
 70
     1
102
RTVSPropertyOp16
 70
     1
102
RTVSPropertyOp17
 70
     1
102
RTVSPropertyOp18
 70
     1
102
RTVSPropertyOp19
 70
     1
102
RTVSPropertyOp20
 70
     1
102
RTVSPropertyOp21
 70
     1
102
RTVSPropertyOp22
 70
     1
102
RTVSPropertyOp23
 70
     1
102
RTVSPropertyOp24
 70
     1
102
RTVSPropertyOp25
 70
     1
102
RTVSPropertyOp26
 70
     1
102
RTVSPropertyOp27
 70
     1
102
RTVSPropertyOp28
 70
     1
102
RTVSPropertyOp29
 70
     1
102
RTVSPropertyOp30
 70
     1
102
RTVSPropertyOp31
 70
     1
102
RTVSPropertyOp32
 70
     1
102
RTVSPropertyOp33
 70
     1
102
RTVSPropertyOp34
 70
     1
102
RTVSPropertyOp35
 70
     1
102
RTVSPropertyOp36
 70
     1
102
RTVSPropertyOp37
 70
     1
102
RTVSPropertyOp38
 70
     1
102
RTVSPropertyOp39
 70
     1
102
RTVSPropertyOp40
 70
     1
102
RTVSPropertyOp41
 70
     1
102
RTVSPropertyOp42
 70
     1
102
RTVSPropertyOp43
 70
     1
102
RTVSPropertyOp44
 70
     1
102
RTVSPropertyOp45
 70
     1
102
RTVSPropertyOp46
 70
     1
102
RTVSPropertyOp47
 70
     1
102
RTVSPropertyOp48
 70
     1
102
RTVSPropertyOp49
 70
     1
102
RTVSPropertyOp50
 70
     1
102
RTVSPropertyOp51
 70
     0
102
RTVSPropertyOp52
 70
     0
102
RTVSPropertyOp53
 70
     1
102
RTVSPropertyOp54
 70
     1
102
RTVSPropertyOp55
 70
     1
102
RTVSPropertyOp56
 70
     1
102
RTVSPropertyOp57
 70
     1
102
RTVSPost2010Prop28
280
     0
102
RTVSPost2010PropOp28
 70
     1
102
RTVSPost2010Prop29
280
     1
102
RTVSPost2010PropOp29
 70
     1
102
RTVSPost2010Prop30
280
     1
102
RTVSPost2010PropOp30
 70
     1
102
RTVSPost2010Prop31
280
     0
102
RTVSPost2010PropOp31
 70
     1
102
RTVSPost2010Prop32
280
     0
102
RTVSPost2010PropOp32
 70
     1
102
RTVSPost2010Prop33
280
     0
102
RTVSPost2010PropOp33
 70
     1
102
RTVSPost2010Prop34
280
     0
102
RTVSPost2010PropOp34
 70
     1
102
RTVSPost2010Prop35
280
     0
102
RTVSPost2010PropOp35
 70
     1
102
RTVSPost2010Prop36
280
     0
102
RTVSPost2010PropOp36
 70
     1
102
RTVSPost2010Prop37
 90
       50
102
RTVSPost2010PropOp37
 70
     1
102
RTVSPost2010Prop38
140
0.0
102
RTVSPost2010PropOp38
 70
     1
102
RTVSPost2010Prop39
140
1.0
102
RTVSPost2010PropOp39
 70
     1
102
RTVSPost2010Prop40
 90
        0
102
RTVSPost2010PropOp40
 70
     1
102
RTVSPost2010Prop41ColorIndex
 90
       18
102
RTVSPost2010Prop41ColorRGB
 90
        0
102
RTVSPost2010PropOp41
 70
     1
102
RTVSPost2010Prop42
 90
       50
102
RTVSPost2010PropOp42
 70
     1
102
RTVSPost2010Prop43
 90
        3
102
RTVSPost2010PropOp43
 70
     1
102
RTVSPost2010Prop44ColorIndex
 90
        5
102
RTVSPost2010Prop44ColorRGB
 90
      255
102
RTVSPost2010PropOp44
 70
     1
102
RTVSPost2010Prop45
280
     0
102
RTVSPost2010PropOp45
 70
     1
102
RTVSPost2010Prop46
 90
       50
102
RTVSPost2010PropOp46
 70
     1
102
RTVSPost2010Prop47
 90
       50
102
RTVSPost2010PropOp47
 70
     1
102
RTVSPost2010Prop48
 90
       50
102
RTVSPost2010PropOp48
 70
     1
102
RTVSPost2010Prop49
280
     0
102
RTVSPost2010PropOp49
 70
     1
102
RTVSPost2010Prop50
 90
       50
102
RTVSPost2010PropOp50
 70
     1
102
RTVSPost2010Prop51ColorIndex
 90
      256
102
RTVSPost2010Prop51ColorRGB
 90
-16777216
102
RTVSPost2010PropOp51
 70
     0
102
RTVSPost2010Prop52
140
1.0
102
RTVSPost2010PropOp52
 70
     0
102
RTVSPost2010Prop53
 90
        2
102
RTVSPost2010PropOp53
 70
     1
102
RTVSPost2010Prop54
  1
strokes_ogs.tif
102
RTVSPost2010PropOp54
 70
     1
102
RTVSPost2010Prop55
280
     0
102
RTVSPost2010PropOp55
 70
     1
102
RTVSPost2010Prop56
140
1.0
102
RTVSPost2010PropOp56
 70
     1
102
RTVSPost2010Prop57
140
1.0
102
RTVSPost2010PropOp57
 70
     1
  0
XRECORD
  5
46C
102
{ACAD_REACTORS
330
46B
102
}
330
46B
100
AcDbXrecord
280
     1
102
RTVSPropertyOp0
 70
     1
102
RTVSPropertyOp1
 70
     1
102
RTVSPropertyOp2
 70
     1
102
RTVSPropertyOp3
 70
     1
102
RTVSPropertyOp4
 70
     1
102
RTVSPropertyOp5
 70
     1
102
RTVSPropertyOp6
 70
     1
102
RTVSPropertyOp7
 70
     1
102
RTVSPropertyOp8
 70
     1
102
RTVSPropertyOp9
 70
     1
102
RTVSPropertyOp10
 70
     1
102
RTVSPropertyOp11
 70
     1
102
RTVSPropertyOp12
 70
     1
102
RTVSPropertyOp13
 70
     1
102
RTVSPropertyOp14
 70
     1
102
RTVSPropertyOp15
 70
     1
102
RTVSPropertyOp16
 70
     1
102
RTVSPropertyOp17
 70
     1
102
RTVSPropertyOp18
 70
     1
102
RTVSPropertyOp19
 70
     1
102
RTVSPropertyOp20
 70
     1
102
RTVSPropertyOp21
 70
     1
102
RTVSPropertyOp22
 70
     1
102
RTVSPropertyOp23
 70
     1
102
RTVSPropertyOp24
 70
     1
102
RTVSPropertyOp25
 70
     1
102
RTVSPropertyOp26
 70
     1
102
RTVSPropertyOp27
 70
     1
102
RTVSPropertyOp28
 70
     1
102
RTVSPropertyOp29
 70
     1
102
RTVSPropertyOp30
 70
     1
102
RTVSPropertyOp31
 70
     1
102
RTVSPropertyOp32
 70
     1
102
RTVSPropertyOp33
 70
     1
102
RTVSPropertyOp34
 70
     1
102
RTVSPropertyOp35
 70
     1
102
RTVSPropertyOp36
 70
     1
102
RTVSPropertyOp37
 70
     1
102
RTVSPropertyOp38
 70
     1
102
RTVSPropertyOp39
 70
     1
102
RTVSPropertyOp40
 70
     1
102
RTVSPropertyOp41
 70
     1
102
RTVSPropertyOp42
 70
     1
102
RTVSPropertyOp43
 70
     1
102
RTVSPropertyOp44
 70
     1
102
RTVSPropertyOp45
 70
     1
102
RTVSPropertyOp46
 70
     1
102
RTVSPropertyOp47
 70
     1
102
RTVSPropertyOp48
 70
     1
102
RTVSPropertyOp49
 70
     1
102
RTVSPropertyOp50
 70
     1
102
RTVSPropertyOp51
 70
     0
102
RTVSPropertyOp52
 70
     0
102
RTVSPropertyOp53
 70
     1
102
RTVSPropertyOp54
 70
     1
102
RTVSPropertyOp55
 70
     1
102
RTVSPropertyOp56
 70
     1
102
RTVSPropertyOp57
 70
     1
102
RTVSPost2010Prop28
280
     0
102
RTVSPost2010PropOp28
 70
     1
102
RTVSPost2010Prop29
280
     1
102
RTVSPost2010PropOp29
 70
     1
102
RTVSPost2010Prop30
280
     1
102
RTVSPost2010PropOp30
 70
     1
102
RTVSPost2010Prop31
280
     0
102
RTVSPost2010PropOp31
 70
     1
102
RTVSPost2010Prop32
280
     0
102
RTVSPost2010PropOp32
 70
     1
102
RTVSPost2010Prop33
280
     0
102
RTVSPost2010PropOp33
 70
     1
102
RTVSPost2010Prop34
280
     0
102
RTVSPost2010PropOp34
 70
     1
102
RTVSPost2010Prop35
280
     0
102
RTVSPost2010PropOp35
 70
     1
102
RTVSPost2010Prop36
280
     0
102
RTVSPost2010PropOp36
 70
     1
102
RTVSPost2010Prop37
 90
       50
102
RTVSPost2010PropOp37
 70
     1
102
RTVSPost2010Prop38
140
0.0
102
RTVSPost2010PropOp38
 70
     1
102
RTVSPost2010Prop39
140
1.0
102
RTVSPost2010PropOp39
 70
     1
102
RTVSPost2010Prop40
 90
        0
102
RTVSPost2010PropOp40
 70
     1
102
RTVSPost2010Prop41ColorIndex
 90
       18
102
RTVSPost2010Prop41ColorRGB
 90
        0
102
RTVSPost2010PropOp41
 70
     1
102
RTVSPost2010Prop42
 90
       50
102
RTVSPost2010PropOp42
 70
     1
102
RTVSPost2010Prop43
 90
        3
102
RTVSPost2010PropOp43
 70
     1
102
RTVSPost2010Prop44ColorIndex
 90
        5
102
RTVSPost2010Prop44ColorRGB
 90
      255
102
RTVSPost2010PropOp44
 70
     1
102
RTVSPost2010Prop45
280
     0
102
RTVSPost2010PropOp45
 70
     1
102
RTVSPost2010Prop46
 90
       50
102
RTVSPost2010PropOp46
 70
     1
102
RTVSPost2010Prop47
 90
       50
102
RTVSPost2010PropOp47
 70
     1
102
RTVSPost2010Prop48
 90
       50
102
RTVSPost2010PropOp48
 70
     1
102
RTVSPost2010Prop49
280
     0
102
RTVSPost2010PropOp49
 70
     1
102
RTVSPost2010Prop50
 90
       50
102
RTVSPost2010PropOp50
 70
     1
102
RTVSPost2010Prop51ColorIndex
 90
      256
102
RTVSPost2010Prop51ColorRGB
 90
-16777216
102
RTVSPost2010PropOp51
 70
     0
102
RTVSPost2010Prop52
140
1.0
102
RTVSPost2010PropOp52
 70
     0
102
RTVSPost2010Prop53
 90
        2
102
RTVSPost2010PropOp53
 70
     1
102
RTVSPost2010Prop54
  1
strokes_ogs.tif
102
RTVSPost2010PropOp54
 70
     1
102
RTVSPost2010Prop55
280
     0
102
RTVSPost2010PropOp55
 70
     1
102
RTVSPost2010Prop56
140
1.0
102
RTVSPost2010PropOp56
 70
     1
102
RTVSPost2010Prop57
140
1.0
102
RTVSPost2010PropOp57
 70
     1
  0
XRECORD
  5
460
102
{ACAD_REACTORS
330
45F
102
}
330
45F
100
AcDbXrecord
280
     1
102
RTVSPropertyOp0
 70
     1
102
RTVSPropertyOp1
 70
     1
102
RTVSPropertyOp2
 70
     1
102
RTVSPropertyOp3
 70
     1
102
RTVSPropertyOp4
 70
     1
102
RTVSPropertyOp5
 70
     1
102
RTVSPropertyOp6
 70
     1
102
RTVSPropertyOp7
 70
     1
102
RTVSPropertyOp8
 70
     1
102
RTVSPropertyOp9
 70
     1
102
RTVSPropertyOp10
 70
     1
102
RTVSPropertyOp11
 70
     1
102
RTVSPropertyOp12
 70
     1
102
RTVSPropertyOp13
 70
     1
102
RTVSPropertyOp14
 70
     1
102
RTVSPropertyOp15
 70
     1
102
RTVSPropertyOp16
 70
     1
102
RTVSPropertyOp17
 70
     1
102
RTVSPropertyOp18
 70
     1
102
RTVSPropertyOp19
 70
     1
102
RTVSPropertyOp20
 70
     1
102
RTVSPropertyOp21
 70
     1
102
RTVSPropertyOp22
 70
     1
102
RTVSPropertyOp23
 70
     1
102
RTVSPropertyOp24
 70
     1
102
RTVSPropertyOp25
 70
     1
102
RTVSPropertyOp26
 70
     1
102
RTVSPropertyOp27
 70
     1
102
RTVSPropertyOp28
 70
     1
102
RTVSPropertyOp29
 70
     1
102
RTVSPropertyOp30
 70
     1
102
RTVSPropertyOp31
 70
     1
102
RTVSPropertyOp32
 70
     1
102
RTVSPropertyOp33
 70
     1
102
RTVSPropertyOp34
 70
     1
102
RTVSPropertyOp35
 70
     1
102
RTVSPropertyOp36
 70
     1
102
RTVSPropertyOp37
 70
     1
102
RTVSPropertyOp38
 70
     1
102
RTVSPropertyOp39
 70
     1
102
RTVSPropertyOp40
 70
     1
102
RTVSPropertyOp41
 70
     1
102
RTVSPropertyOp42
 70
     1
102
RTVSPropertyOp43
 70
     1
102
RTVSPropertyOp44
 70
     1
102
RTVSPropertyOp45
 70
     1
102
RTVSPropertyOp46
 70
     1
102
RTVSPropertyOp47
 70
     1
102
RTVSPropertyOp48
 70
     1
102
RTVSPropertyOp49
 70
     1
102
RTVSPropertyOp50
 70
     1
102
RTVSPropertyOp51
 70
     0
102
RTVSPropertyOp52
 70
     0
102
RTVSPropertyOp53
 70
     1
102
RTVSPropertyOp54
 70
     1
102
RTVSPropertyOp55
 70
     1
102
RTVSPropertyOp56
 70
     1
102
RTVSPropertyOp57
 70
     1
102
RTVSPost2010Prop28
280
     0
102
RTVSPost2010PropOp28
 70
     1
102
RTVSPost2010Prop29
280
     1
102
RTVSPost2010PropOp29
 70
     1
102
RTVSPost2010Prop30
280
     1
102
RTVSPost2010PropOp30
 70
     1
102
RTVSPost2010Prop31
280
     0
102
RTVSPost2010PropOp31
 70
     1
102
RTVSPost2010Prop32
280
     0
102
RTVSPost2010PropOp32
 70
     1
102
RTVSPost2010Prop33
280
     0
102
RTVSPost2010PropOp33
 70
     1
102
RTVSPost2010Prop34
280
     0
102
RTVSPost2010PropOp34
 70
     1
102
RTVSPost2010Prop35
280
     0
102
RTVSPost2010PropOp35
 70
     1
102
RTVSPost2010Prop36
280
     0
102
RTVSPost2010PropOp36
 70
     1
102
RTVSPost2010Prop37
 90
       50
102
RTVSPost2010PropOp37
 70
     1
102
RTVSPost2010Prop38
140
0.0
102
RTVSPost2010PropOp38
 70
     1
102
RTVSPost2010Prop39
140
1.0
102
RTVSPost2010PropOp39
 70
     1
102
RTVSPost2010Prop40
 90
        0
102
RTVSPost2010PropOp40
 70
     1
102
RTVSPost2010Prop41ColorIndex
 90
       18
102
RTVSPost2010Prop41ColorRGB
 90
        0
102
RTVSPost2010PropOp41
 70
     1
102
RTVSPost2010Prop42
 90
       50
102
RTVSPost2010PropOp42
 70
     1
102
RTVSPost2010Prop43
 90
        3
102
RTVSPost2010PropOp43
 70
     1
102
RTVSPost2010Prop44ColorIndex
 90
        5
102
RTVSPost2010Prop44ColorRGB
 90
      255
102
RTVSPost2010PropOp44
 70
     1
102
RTVSPost2010Prop45
280
     0
102
RTVSPost2010PropOp45
 70
     1
102
RTVSPost2010Prop46
 90
       50
102
RTVSPost2010PropOp46
 70
     1
102
RTVSPost2010Prop47
 90
       50
102
RTVSPost2010PropOp47
 70
     1
102
RTVSPost2010Prop48
 90
       50
102
RTVSPost2010PropOp48
 70
     1
102
RTVSPost2010Prop49
280
     0
102
RTVSPost2010PropOp49
 70
     1
102
RTVSPost2010Prop50
 90
       50
102
RTVSPost2010PropOp50
 70
     1
102
RTVSPost2010Prop51ColorIndex
 90
      256
102
RTVSPost2010Prop51ColorRGB
 90
-16777216
102
RTVSPost2010PropOp51
 70
     0
102
RTVSPost2010Prop52
140
1.0
102
RTVSPost2010PropOp52
 70
     0
102
RTVSPost2010Prop53
 90
        2
102
RTVSPost2010PropOp53
 70
     1
102
RTVSPost2010Prop54
  1
strokes_ogs.tif
102
RTVSPost2010PropOp54
 70
     1
102
RTVSPost2010Prop55
280
     0
102
RTVSPost2010PropOp55
 70
     1
102
RTVSPost2010Prop56
140
1.0
102
RTVSPost2010PropOp56
 70
     1
102
RTVSPost2010Prop57
140
1.0
102
RTVSPost2010PropOp57
 70
     1
  0
XRECORD
  5
462
102
{ACAD_REACTORS
330
461
102
}
330
461
100
AcDbXrecord
280
     1
102
RTVSPropertyOp0
 70
     1
102
RTVSPropertyOp1
 70
     1
102
RTVSPropertyOp2
 70
     1
102
RTVSPropertyOp3
 70
     1
102
RTVSPropertyOp4
 70
     1
102
RTVSPropertyOp5
 70
     1
102
RTVSPropertyOp6
 70
     1
102
RTVSPropertyOp7
 70
     1
102
RTVSPropertyOp8
 70
     1
102
RTVSPropertyOp9
 70
     1
102
RTVSPropertyOp10
 70
     1
102
RTVSPropertyOp11
 70
     1
102
RTVSPropertyOp12
 70
     1
102
RTVSPropertyOp13
 70
     1
102
RTVSPropertyOp14
 70
     1
102
RTVSPropertyOp15
 70
     1
102
RTVSPropertyOp16
 70
     1
102
RTVSPropertyOp17
 70
     1
102
RTVSPropertyOp18
 70
     1
102
RTVSPropertyOp19
 70
     1
102
RTVSPropertyOp20
 70
     1
102
RTVSPropertyOp21
 70
     1
102
RTVSPropertyOp22
 70
     1
102
RTVSPropertyOp23
 70
     1
102
RTVSPropertyOp24
 70
     1
102
RTVSPropertyOp25
 70
     1
102
RTVSPropertyOp26
 70
     1
102
RTVSPropertyOp27
 70
     1
102
RTVSPropertyOp28
 70
     1
102
RTVSPropertyOp29
 70
     1
102
RTVSPropertyOp30
 70
     1
102
RTVSPropertyOp31
 70
     1
102
RTVSPropertyOp32
 70
     1
102
RTVSPropertyOp33
 70
     1
102
RTVSPropertyOp34
 70
     1
102
RTVSPropertyOp35
 70
     1
102
RTVSPropertyOp36
 70
     1
102
RTVSPropertyOp37
 70
     1
102
RTVSPropertyOp38
 70
     1
102
RTVSPropertyOp39
 70
     1
102
RTVSPropertyOp40
 70
     1
102
RTVSPropertyOp41
 70
     1
102
RTVSPropertyOp42
 70
     1
102
RTVSPropertyOp43
 70
     1
102
RTVSPropertyOp44
 70
     1
102
RTVSPropertyOp45
 70
     1
102
RTVSPropertyOp46
 70
     1
102
RTVSPropertyOp47
 70
     1
102
RTVSPropertyOp48
 70
     1
102
RTVSPropertyOp49
 70
     1
102
RTVSPropertyOp50
 70
     1
102
RTVSPropertyOp51
 70
     0
102
RTVSPropertyOp52
 70
     0
102
RTVSPropertyOp53
 70
     1
102
RTVSPropertyOp54
 70
     1
102
RTVSPropertyOp55
 70
     1
102
RTVSPropertyOp56
 70
     1
102
RTVSPropertyOp57
 70
     1
102
RTVSPost2010Prop28
280
     0
102
RTVSPost2010PropOp28
 70
     1
102
RTVSPost2010Prop29
280
     1
102
RTVSPost2010PropOp29
 70
     1
102
RTVSPost2010Prop30
280
     1
102
RTVSPost2010PropOp30
 70
     1
102
RTVSPost2010Prop31
280
     0
102
RTVSPost2010PropOp31
 70
     1
102
RTVSPost2010Prop32
280
     0
102
RTVSPost2010PropOp32
 70
     1
102
RTVSPost2010Prop33
280
     0
102
RTVSPost2010PropOp33
 70
     1
102
RTVSPost2010Prop34
280
     0
102
RTVSPost2010PropOp34
 70
     1
102
RTVSPost2010Prop35
280
     0
102
RTVSPost2010PropOp35
 70
     1
102
RTVSPost2010Prop36
280
     0
102
RTVSPost2010PropOp36
 70
     1
102
RTVSPost2010Prop37
 90
       50
102
RTVSPost2010PropOp37
 70
     1
102
RTVSPost2010Prop38
140
0.0
102
RTVSPost2010PropOp38
 70
     1
102
RTVSPost2010Prop39
140
1.0
102
RTVSPost2010PropOp39
 70
     1
102
RTVSPost2010Prop40
 90
        0
102
RTVSPost2010PropOp40
 70
     1
102
RTVSPost2010Prop41ColorIndex
 90
       18
102
RTVSPost2010Prop41ColorRGB
 90
        0
102
RTVSPost2010PropOp41
 70
     1
102
RTVSPost2010Prop42
 90
       50
102
RTVSPost2010PropOp42
 70
     1
102
RTVSPost2010Prop43
 90
        3
102
RTVSPost2010PropOp43
 70
     1
102
RTVSPost2010Prop44ColorIndex
 90
        5
102
RTVSPost2010Prop44ColorRGB
 90
      255
102
RTVSPost2010PropOp44
 70
     1
102
RTVSPost2010Prop45
280
     0
102
RTVSPost2010PropOp45
 70
     1
102
RTVSPost2010Prop46
 90
       50
102
RTVSPost2010PropOp46
 70
     1
102
RTVSPost2010Prop47
 90
       50
102
RTVSPost2010PropOp47
 70
     1
102
RTVSPost2010Prop48
 90
       50
102
RTVSPost2010PropOp48
 70
     1
102
RTVSPost2010Prop49
280
     0
102
RTVSPost2010PropOp49
 70
     1
102
RTVSPost2010Prop50
 90
       50
102
RTVSPost2010PropOp50
 70
     1
102
RTVSPost2010Prop51ColorIndex
 90
      256
102
RTVSPost2010Prop51ColorRGB
 90
-16777216
102
RTVSPost2010PropOp51
 70
     0
102
RTVSPost2010Prop52
140
1.0
102
RTVSPost2010PropOp52
 70
     0
102
RTVSPost2010Prop53
 90
        2
102
RTVSPost2010PropOp53
 70
     1
102
RTVSPost2010Prop54
  1
strokes_ogs.tif
102
RTVSPost2010PropOp54
 70
     1
102
RTVSPost2010Prop55
280
     0
102
RTVSPost2010PropOp55
 70
     1
102
RTVSPost2010Prop56
140
1.0
102
RTVSPost2010PropOp56
 70
     1
102
RTVSPost2010Prop57
140
1.0
102
RTVSPost2010PropOp57
 70
     1
  0
XRECORD
  5
472
102
{ACAD_REACTORS
330
471
102
}
330
471
100
AcDbXrecord
280
     1
102
RTVSPropertyOp0
 70
     0
102
RTVSPropertyOp1
 70
     0
102
RTVSPropertyOp2
 70
     0
102
RTVSPropertyOp3
 70
     0
102
RTVSPropertyOp4
 70
     0
102
RTVSPropertyOp5
 70
     0
102
RTVSPropertyOp6
 70
     0
102
RTVSPropertyOp7
 70
     0
102
RTVSPropertyOp8
 70
     0
102
RTVSPropertyOp9
 70
     0
102
RTVSPropertyOp10
 70
     0
102
RTVSPropertyOp11
 70
     0
102
RTVSPropertyOp12
 70
     0
102
RTVSPropertyOp13
 70
     0
102
RTVSPropertyOp14
 70
     2
102
RTVSPropertyOp15
 70
     0
102
RTVSPropertyOp16
 70
     0
102
RTVSPropertyOp17
 70
     0
102
RTVSPropertyOp18
 70
     0
102
RTVSPropertyOp19
 70
     0
102
RTVSPropertyOp20
 70
     0
102
RTVSPropertyOp21
 70
     0
102
RTVSPropertyOp22
 70
     0
102
RTVSPropertyOp23
 70
     0
102
RTVSPropertyOp24
 70
     0
102
RTVSPropertyOp25
 70
     0
102
RTVSPropertyOp26
 70
     0
102
RTVSPropertyOp27
 70
     0
102
RTVSPropertyOp28
 70
     0
102
RTVSPropertyOp29
 70
     0
102
RTVSPropertyOp30
 70
     0
102
RTVSPropertyOp31
 70
     0
102
RTVSPropertyOp32
 70
     0
102
RTVSPropertyOp33
 70
     0
102
RTVSPropertyOp34
 70
     0
102
RTVSPropertyOp35
 70
     0
102
RTVSPropertyOp36
 70
     0
102
RTVSPropertyOp37
 70
     0
102
RTVSPropertyOp38
 70
     0
102
RTVSPropertyOp39
 70
     0
102
RTVSPropertyOp40
 70
     0
102
RTVSPropertyOp41
 70
     0
102
RTVSPropertyOp42
 70
     0
102
RTVSPropertyOp43
 70
     0
102
RTVSPropertyOp44
 70
     0
102
RTVSPropertyOp45
 70
     0
102
RTVSPropertyOp46
 70
     0
102
RTVSPropertyOp47
 70
     0
102
RTVSPropertyOp48
 70
     0
102
RTVSPropertyOp49
 70
     0
102
RTVSPropertyOp50
 70
     0
102
RTVSPropertyOp51
 70
     0
102
RTVSPropertyOp52
 70
     0
102
RTVSPropertyOp53
 70
     0
102
RTVSPropertyOp54
 70
     0
102
RTVSPropertyOp55
 70
     0
102
RTVSPropertyOp56
 70
     0
102
RTVSPropertyOp57
 70
     0
102
RTVSPost2010Prop28
280
     0
102
RTVSPost2010PropOp28
 70
     0
102
RTVSPost2010Prop29
280
     1
102
RTVSPost2010PropOp29
 70
     0
102
RTVSPost2010Prop30
280
     1
102
RTVSPost2010PropOp30
 70
     0
102
RTVSPost2010Prop31
280
     0
102
RTVSPost2010PropOp31
 70
     0
102
RTVSPost2010Prop32
280
     0
102
RTVSPost2010PropOp32
 70
     0
102
RTVSPost2010Prop33
280
     0
102
RTVSPost2010PropOp33
 70
     0
102
RTVSPost2010Prop34
280
     0
102
RTVSPost2010PropOp34
 70
     0
102
RTVSPost2010Prop35
280
     0
102
RTVSPost2010PropOp35
 70
     0
102
RTVSPost2010Prop36
280
     0
102
RTVSPost2010PropOp36
 70
     0
102
RTVSPost2010Prop37
 90
       50
102
RTVSPost2010PropOp37
 70
     0
102
RTVSPost2010Prop38
140
0.0
102
RTVSPost2010PropOp38
 70
     0
102
RTVSPost2010Prop39
140
1.0
102
RTVSPost2010PropOp39
 70
     0
102
RTVSPost2010Prop40
 90
        0
102
RTVSPost2010PropOp40
 70
     0
102
RTVSPost2010Prop41ColorIndex
 90
       18
102
RTVSPost2010Prop41ColorRGB
 90
        0
102
RTVSPost2010PropOp41
 70
     0
102
RTVSPost2010Prop42
 90
       50
102
RTVSPost2010PropOp42
 70
     0
102
RTVSPost2010Prop43
 90
        3
102
RTVSPost2010PropOp43
 70
     0
102
RTVSPost2010Prop44ColorIndex
 90
        5
102
RTVSPost2010Prop44ColorRGB
 90
      255
102
RTVSPost2010PropOp44
 70
     0
102
RTVSPost2010Prop45
280
     0
102
RTVSPost2010PropOp45
 70
     0
102
RTVSPost2010Prop46
 90
       50
102
RTVSPost2010PropOp46
 70
     0
102
RTVSPost2010Prop47
 90
       50
102
RTVSPost2010PropOp47
 70
     0
102
RTVSPost2010Prop48
 90
       50
102
RTVSPost2010PropOp48
 70
     0
102
RTVSPost2010Prop49
280
     0
102
RTVSPost2010PropOp49
 70
     0
102
RTVSPost2010Prop50
 90
       50
102
RTVSPost2010PropOp50
 70
     0
102
RTVSPost2010Prop51ColorIndex
 90
      256
102
RTVSPost2010Prop51ColorRGB
 90
-16777216
102
RTVSPost2010PropOp51
 70
     0
102
RTVSPost2010Prop52
140
1.0
102
RTVSPost2010PropOp52
 70
     0
102
RTVSPost2010Prop53
 90
        2
102
RTVSPost2010PropOp53
 70
     0
102
RTVSPost2010Prop54
  1
strokes_ogs.tif
102
RTVSPost2010PropOp54
 70
     0
102
RTVSPost2010Prop55
280
     0
102
RTVSPost2010PropOp55
 70
     0
102
RTVSPost2010Prop56
140
1.0
102
RTVSPost2010PropOp56
 70
     0
102
RTVSPost2010Prop57
140
1.0
102
RTVSPost2010PropOp57
 70
     0
  0
XRECORD
  5
46A
102
{ACAD_REACTORS
330
469
102
}
330
469
100
AcDbXrecord
280
     1
102
RTVSPropertyOp0
 70
     1
102
RTVSPropertyOp1
 70
     1
102
RTVSPropertyOp2
 70
     1
102
RTVSPropertyOp3
 70
     1
102
RTVSPropertyOp4
 70
     1
102
RTVSPropertyOp5
 70
     1
102
RTVSPropertyOp6
 70
     1
102
RTVSPropertyOp7
 70
     1
102
RTVSPropertyOp8
 70
     1
102
RTVSPropertyOp9
 70
     1
102
RTVSPropertyOp10
 70
     1
102
RTVSPropertyOp11
 70
     1
102
RTVSPropertyOp12
 70
     1
102
RTVSPropertyOp13
 70
     1
102
RTVSPropertyOp14
 70
     1
102
RTVSPropertyOp15
 70
     1
102
RTVSPropertyOp16
 70
     1
102
RTVSPropertyOp17
 70
     1
102
RTVSPropertyOp18
 70
     1
102
RTVSPropertyOp19
 70
     1
102
RTVSPropertyOp20
 70
     1
102
RTVSPropertyOp21
 70
     1
102
RTVSPropertyOp22
 70
     1
102
RTVSPropertyOp23
 70
     1
102
RTVSPropertyOp24
 70
     1
102
RTVSPropertyOp25
 70
     1
102
RTVSPropertyOp26
 70
     1
102
RTVSPropertyOp27
 70
     1
102
RTVSPropertyOp28
 70
     1
102
RTVSPropertyOp29
 70
     1
102
RTVSPropertyOp30
 70
     1
102
RTVSPropertyOp31
 70
     1
102
RTVSPropertyOp32
 70
     1
102
RTVSPropertyOp33
 70
     1
102
RTVSPropertyOp34
 70
     1
102
RTVSPropertyOp35
 70
     1
102
RTVSPropertyOp36
 70
     1
102
RTVSPropertyOp37
 70
     1
102
RTVSPropertyOp38
 70
     1
102
RTVSPropertyOp39
 70
     1
102
RTVSPropertyOp40
 70
     1
102
RTVSPropertyOp41
 70
     1
102
RTVSPropertyOp42
 70
     1
102
RTVSPropertyOp43
 70
     1
102
RTVSPropertyOp44
 70
     1
102
RTVSPropertyOp45
 70
     1
102
RTVSPropertyOp46
 70
     1
102
RTVSPropertyOp47
 70
     1
102
RTVSPropertyOp48
 70
     1
102
RTVSPropertyOp49
 70
     1
102
RTVSPropertyOp50
 70
     1
102
RTVSPropertyOp51
 70
     0
102
RTVSPropertyOp52
 70
     0
102
RTVSPropertyOp53
 70
     1
102
RTVSPropertyOp54
 70
     1
102
RTVSPropertyOp55
 70
     1
102
RTVSPropertyOp56
 70
     1
102
RTVSPropertyOp57
 70
     1
102
RTVSPost2010Prop28
280
     0
102
RTVSPost2010PropOp28
 70
     1
102
RTVSPost2010Prop29
280
     1
102
RTVSPost2010PropOp29
 70
     1
102
RTVSPost2010Prop30
280
     1
102
RTVSPost2010PropOp30
 70
     1
102
RTVSPost2010Prop31
280
     0
102
RTVSPost2010PropOp31
 70
     1
102
RTVSPost2010Prop32
280
     0
102
RTVSPost2010PropOp32
 70
     1
102
RTVSPost2010Prop33
280
     0
102
RTVSPost2010PropOp33
 70
     1
102
RTVSPost2010Prop34
280
     0
102
RTVSPost2010PropOp34
 70
     1
102
RTVSPost2010Prop35
280
     0
102
RTVSPost2010PropOp35
 70
     1
102
RTVSPost2010Prop36
280
     0
102
RTVSPost2010PropOp36
 70
     1
102
RTVSPost2010Prop37
 90
       50
102
RTVSPost2010PropOp37
 70
     1
102
RTVSPost2010Prop38
140
0.0
102
RTVSPost2010PropOp38
 70
     1
102
RTVSPost2010Prop39
140
1.0
102
RTVSPost2010PropOp39
 70
     1
102
RTVSPost2010Prop40
 90
        0
102
RTVSPost2010PropOp40
 70
     1
102
RTVSPost2010Prop41ColorIndex
 90
       18
102
RTVSPost2010Prop41ColorRGB
 90
        0
102
RTVSPost2010PropOp41
 70
     1
102
RTVSPost2010Prop42
 90
       50
102
RTVSPost2010PropOp42
 70
     1
102
RTVSPost2010Prop43
 90
        3
102
RTVSPost2010PropOp43
 70
     1
102
RTVSPost2010Prop44ColorIndex
 90
        5
102
RTVSPost2010Prop44ColorRGB
 90
      255
102
RTVSPost2010PropOp44
 70
     1
102
RTVSPost2010Prop45
280
     0
102
RTVSPost2010PropOp45
 70
     1
102
RTVSPost2010Prop46
 90
       50
102
RTVSPost2010PropOp46
 70
     1
102
RTVSPost2010Prop47
 90
       50
102
RTVSPost2010PropOp47
 70
     1
102
RTVSPost2010Prop48
 90
       50
102
RTVSPost2010PropOp48
 70
     1
102
RTVSPost2010Prop49
280
     0
102
RTVSPost2010PropOp49
 70
     1
102
RTVSPost2010Prop50
 90
       50
102
RTVSPost2010PropOp50
 70
     1
102
RTVSPost2010Prop51ColorIndex
 90
      256
102
RTVSPost2010Prop51ColorRGB
 90
-16777216
102
RTVSPost2010PropOp51
 70
     0
102
RTVSPost2010Prop52
140
1.0
102
RTVSPost2010PropOp52
 70
     0
102
RTVSPost2010Prop53
 90
        2
102
RTVSPost2010PropOp53
 70
     1
102
RTVSPost2010Prop54
  1
strokes_ogs.tif
102
RTVSPost2010PropOp54
 70
     1
102
RTVSPost2010Prop55
280
     0
102
RTVSPost2010PropOp55
 70
     1
102
RTVSPost2010Prop56
140
1.0
102
RTVSPost2010PropOp56
 70
     1
102
RTVSPost2010Prop57
140
1.0
102
RTVSPost2010PropOp57
 70
     1
  0
XRECORD
  5
44E
102
{ACAD_REACTORS
330
44D
102
}
330
44D
100
AcDbXrecord
280
     1
102
RTVSPropertyOp0
 70
     1
102
RTVSPropertyOp1
 70
     1
102
RTVSPropertyOp2
 70
     1
102
RTVSPropertyOp3
 70
     1
102
RTVSPropertyOp4
 70
     1
102
RTVSPropertyOp5
 70
     1
102
RTVSPropertyOp6
 70
     1
102
RTVSPropertyOp7
 70
     1
102
RTVSPropertyOp8
 70
     1
102
RTVSPropertyOp9
 70
     1
102
RTVSPropertyOp10
 70
     1
102
RTVSPropertyOp11
 70
     1
102
RTVSPropertyOp12
 70
     1
102
RTVSPropertyOp13
 70
     1
102
RTVSPropertyOp14
 70
     1
102
RTVSPropertyOp15
 70
     1
102
RTVSPropertyOp16
 70
     1
102
RTVSPropertyOp17
 70
     1
102
RTVSPropertyOp18
 70
     1
102
RTVSPropertyOp19
 70
     1
102
RTVSPropertyOp20
 70
     1
102
RTVSPropertyOp21
 70
     1
102
RTVSPropertyOp22
 70
     1
102
RTVSPropertyOp23
 70
     1
102
RTVSPropertyOp24
 70
     1
102
RTVSPropertyOp25
 70
     1
102
RTVSPropertyOp26
 70
     1
102
RTVSPropertyOp27
 70
     1
102
RTVSPropertyOp28
 70
     1
102
RTVSPropertyOp29
 70
     1
102
RTVSPropertyOp30
 70
     1
102
RTVSPropertyOp31
 70
     1
102
RTVSPropertyOp32
 70
     1
102
RTVSPropertyOp33
 70
     1
102
RTVSPropertyOp34
 70
     1
102
RTVSPropertyOp35
 70
     1
102
RTVSPropertyOp36
 70
     1
102
RTVSPropertyOp37
 70
     1
102
RTVSPropertyOp38
 70
     1
102
RTVSPropertyOp39
 70
     1
102
RTVSPropertyOp40
 70
     1
102
RTVSPropertyOp41
 70
     1
102
RTVSPropertyOp42
 70
     1
102
RTVSPropertyOp43
 70
     1
102
RTVSPropertyOp44
 70
     1
102
RTVSPropertyOp45
 70
     1
102
RTVSPropertyOp46
 70
     1
102
RTVSPropertyOp47
 70
     1
102
RTVSPropertyOp48
 70
     1
102
RTVSPropertyOp49
 70
     1
102
RTVSPropertyOp50
 70
     1
102
RTVSPropertyOp51
 70
     0
102
RTVSPropertyOp52
 70
     0
102
RTVSPropertyOp53
 70
     1
102
RTVSPropertyOp54
 70
     1
102
RTVSPropertyOp55
 70
     1
102
RTVSPropertyOp56
 70
     1
102
RTVSPropertyOp57
 70
     1
102
RTVSPost2010Prop28
280
     0
102
RTVSPost2010PropOp28
 70
     1
102
RTVSPost2010Prop29
280
     1
102
RTVSPost2010PropOp29
 70
     1
102
RTVSPost2010Prop30
280
     1
102
RTVSPost2010PropOp30
 70
     1
102
RTVSPost2010Prop31
280
     0
102
RTVSPost2010PropOp31
 70
     1
102
RTVSPost2010Prop32
280
     0
102
RTVSPost2010PropOp32
 70
     1
102
RTVSPost2010Prop33
280
     0
102
RTVSPost2010PropOp33
 70
     1
102
RTVSPost2010Prop34
280
     0
102
RTVSPost2010PropOp34
 70
     1
102
RTVSPost2010Prop35
280
     0
102
RTVSPost2010PropOp35
 70
     1
102
RTVSPost2010Prop36
280
     0
102
RTVSPost2010PropOp36
 70
     1
102
RTVSPost2010Prop37
 90
       50
102
RTVSPost2010PropOp37
 70
     1
102
RTVSPost2010Prop38
140
0.0
102
RTVSPost2010PropOp38
 70
     1
102
RTVSPost2010Prop39
140
1.0
102
RTVSPost2010PropOp39
 70
     1
102
RTVSPost2010Prop40
 90
        0
102
RTVSPost2010PropOp40
 70
     1
102
RTVSPost2010Prop41ColorIndex
 90
       18
102
RTVSPost2010Prop41ColorRGB
 90
        0
102
RTVSPost2010PropOp41
 70
     1
102
RTVSPost2010Prop42
 90
       50
102
RTVSPost2010PropOp42
 70
     1
102
RTVSPost2010Prop43
 90
        3
102
RTVSPost2010PropOp43
 70
     1
102
RTVSPost2010Prop44ColorIndex
 90
        5
102
RTVSPost2010Prop44ColorRGB
 90
      255
102
RTVSPost2010PropOp44
 70
     1
102
RTVSPost2010Prop45
280
     0
102
RTVSPost2010PropOp45
 70
     1
102
RTVSPost2010Prop46
 90
       50
102
RTVSPost2010PropOp46
 70
     1
102
RTVSPost2010Prop47
 90
       50
102
RTVSPost2010PropOp47
 70
     1
102
RTVSPost2010Prop48
 90
       50
102
RTVSPost2010PropOp48
 70
     1
102
RTVSPost2010Prop49
280
     0
102
RTVSPost2010PropOp49
 70
     1
102
RTVSPost2010Prop50
 90
       50
102
RTVSPost2010PropOp50
 70
     1
102
RTVSPost2010Prop51ColorIndex
 90
      256
102
RTVSPost2010Prop51ColorRGB
 90
-16777216
102
RTVSPost2010PropOp51
 70
     0
102
RTVSPost2010Prop52
140
1.0
102
RTVSPost2010PropOp52
 70
     0
102
RTVSPost2010Prop53
 90
        2
102
RTVSPost2010PropOp53
 70
     1
102
RTVSPost2010Prop54
  1
strokes_ogs.tif
102
RTVSPost2010PropOp54
 70
     1
102
RTVSPost2010Prop55
280
     0
102
RTVSPost2010PropOp55
 70
     1
102
RTVSPost2010Prop56
140
1.0
102
RTVSPost2010PropOp56
 70
     1
102
RTVSPost2010Prop57
140
1.0
102
RTVSPost2010PropOp57
 70
     1
  0
XRECORD
  5
450
102
{ACAD_REACTORS
330
44F
102
}
330
44F
100
AcDbXrecord
280
     1
102
RTVSPropertyOp0
 70
     1
102
RTVSPropertyOp1
 70
     1
102
RTVSPropertyOp2
 70
     1
102
RTVSPropertyOp3
 70
     1
102
RTVSPropertyOp4
 70
     1
102
RTVSPropertyOp5
 70
     1
102
RTVSPropertyOp6
 70
     1
102
RTVSPropertyOp7
 70
     1
102
RTVSPropertyOp8
 70
     1
102
RTVSPropertyOp9
 70
     1
102
RTVSPropertyOp10
 70
     1
102
RTVSPropertyOp11
 70
     1
102
RTVSPropertyOp12
 70
     1
102
RTVSPropertyOp13
 70
     1
102
RTVSPropertyOp14
 70
     1
102
RTVSPropertyOp15
 70
     1
102
RTVSPropertyOp16
 70
     1
102
RTVSPropertyOp17
 70
     1
102
RTVSPropertyOp18
 70
     1
102
RTVSPropertyOp19
 70
     1
102
RTVSPropertyOp20
 70
     1
102
RTVSPropertyOp21
 70
     1
102
RTVSPropertyOp22
 70
     1
102
RTVSPropertyOp23
 70
     1
102
RTVSPropertyOp24
 70
     1
102
RTVSPropertyOp25
 70
     1
102
RTVSPropertyOp26
 70
     1
102
RTVSPropertyOp27
 70
     1
102
RTVSPropertyOp28
 70
     1
102
RTVSPropertyOp29
 70
     1
102
RTVSPropertyOp30
 70
     1
102
RTVSPropertyOp31
 70
     1
102
RTVSPropertyOp32
 70
     1
102
RTVSPropertyOp33
 70
     1
102
RTVSPropertyOp34
 70
     1
102
RTVSPropertyOp35
 70
     1
102
RTVSPropertyOp36
 70
     1
102
RTVSPropertyOp37
 70
     1
102
RTVSPropertyOp38
 70
     1
102
RTVSPropertyOp39
 70
     1
102
RTVSPropertyOp40
 70
     1
102
RTVSPropertyOp41
 70
     1
102
RTVSPropertyOp42
 70
     1
102
RTVSPropertyOp43
 70
     1
102
RTVSPropertyOp44
 70
     1
102
RTVSPropertyOp45
 70
     1
102
RTVSPropertyOp46
 70
     1
102
RTVSPropertyOp47
 70
     1
102
RTVSPropertyOp48
 70
     1
102
RTVSPropertyOp49
 70
     1
102
RTVSPropertyOp50
 70
     1
102
RTVSPropertyOp51
 70
     0
102
RTVSPropertyOp52
 70
     0
102
RTVSPropertyOp53
 70
     1
102
RTVSPropertyOp54
 70
     1
102
RTVSPropertyOp55
 70
     1
102
RTVSPropertyOp56
 70
     1
102
RTVSPropertyOp57
 70
     1
102
RTVSPost2010Prop28
280
     0
102
RTVSPost2010PropOp28
 70
     1
102
RTVSPost2010Prop29
280
     1
102
RTVSPost2010PropOp29
 70
     1
102
RTVSPost2010Prop30
280
     1
102
RTVSPost2010PropOp30
 70
     1
102
RTVSPost2010Prop31
280
     0
102
RTVSPost2010PropOp31
 70
     1
102
RTVSPost2010Prop32
280
     0
102
RTVSPost2010PropOp32
 70
     1
102
RTVSPost2010Prop33
280
     0
102
RTVSPost2010PropOp33
 70
     1
102
RTVSPost2010Prop34
280
     0
102
RTVSPost2010PropOp34
 70
     1
102
RTVSPost2010Prop35
280
     0
102
RTVSPost2010PropOp35
 70
     1
102
RTVSPost2010Prop36
280
     0
102
RTVSPost2010PropOp36
 70
     1
102
RTVSPost2010Prop37
 90
       50
102
RTVSPost2010PropOp37
 70
     1
102
RTVSPost2010Prop38
140
0.0
102
RTVSPost2010PropOp38
 70
     1
102
RTVSPost2010Prop39
140
1.0
102
RTVSPost2010PropOp39
 70
     1
102
RTVSPost2010Prop40
 90
        0
102
RTVSPost2010PropOp40
 70
     1
102
RTVSPost2010Prop41ColorIndex
 90
       18
102
RTVSPost2010Prop41ColorRGB
 90
        0
102
RTVSPost2010PropOp41
 70
     1
102
RTVSPost2010Prop42
 90
       50
102
RTVSPost2010PropOp42
 70
     1
102
RTVSPost2010Prop43
 90
        3
102
RTVSPost2010PropOp43
 70
     1
102
RTVSPost2010Prop44ColorIndex
 90
        5
102
RTVSPost2010Prop44ColorRGB
 90
      255
102
RTVSPost2010PropOp44
 70
     1
102
RTVSPost2010Prop45
280
     0
102
RTVSPost2010PropOp45
 70
     1
102
RTVSPost2010Prop46
 90
       50
102
RTVSPost2010PropOp46
 70
     1
102
RTVSPost2010Prop47
 90
       50
102
RTVSPost2010PropOp47
 70
     1
102
RTVSPost2010Prop48
 90
       50
102
RTVSPost2010PropOp48
 70
     1
102
RTVSPost2010Prop49
280
     0
102
RTVSPost2010PropOp49
 70
     1
102
RTVSPost2010Prop50
 90
       50
102
RTVSPost2010PropOp50
 70
     1
102
RTVSPost2010Prop51ColorIndex
 90
      256
102
RTVSPost2010Prop51ColorRGB
 90
-16777216
102
RTVSPost2010PropOp51
 70
     0
102
RTVSPost2010Prop52
140
1.0
102
RTVSPost2010PropOp52
 70
     0
102
RTVSPost2010Prop53
 90
        2
102
RTVSPost2010PropOp53
 70
     1
102
RTVSPost2010Prop54
  1
strokes_ogs.tif
102
RTVSPost2010PropOp54
 70
     1
102
RTVSPost2010Prop55
280
     0
102
RTVSPost2010PropOp55
 70
     1
102
RTVSPost2010Prop56
140
1.0
102
RTVSPost2010PropOp56
 70
     1
102
RTVSPost2010Prop57
140
1.0
102
RTVSPost2010PropOp57
 70
     1
  0
XRECORD
  5
452
102
{ACAD_REACTORS
330
451
102
}
330
451
100
AcDbXrecord
280
     1
102
RTVSPropertyOp0
 70
     1
102
RTVSPropertyOp1
 70
     1
102
RTVSPropertyOp2
 70
     1
102
RTVSPropertyOp3
 70
     1
102
RTVSPropertyOp4
 70
     1
102
RTVSPropertyOp5
 70
     1
102
RTVSPropertyOp6
 70
     1
102
RTVSPropertyOp7
 70
     1
102
RTVSPropertyOp8
 70
     1
102
RTVSPropertyOp9
 70
     1
102
RTVSPropertyOp10
 70
     1
102
RTVSPropertyOp11
 70
     1
102
RTVSPropertyOp12
 70
     1
102
RTVSPropertyOp13
 70
     1
102
RTVSPropertyOp14
 70
     1
102
RTVSPropertyOp15
 70
     1
102
RTVSPropertyOp16
 70
     1
102
RTVSPropertyOp17
 70
     1
102
RTVSPropertyOp18
 70
     1
102
RTVSPropertyOp19
 70
     1
102
RTVSPropertyOp20
 70
     1
102
RTVSPropertyOp21
 70
     1
102
RTVSPropertyOp22
 70
     1
102
RTVSPropertyOp23
 70
     1
102
RTVSPropertyOp24
 70
     1
102
RTVSPropertyOp25
 70
     1
102
RTVSPropertyOp26
 70
     1
102
RTVSPropertyOp27
 70
     1
102
RTVSPropertyOp28
 70
     1
102
RTVSPropertyOp29
 70
     1
102
RTVSPropertyOp30
 70
     1
102
RTVSPropertyOp31
 70
     1
102
RTVSPropertyOp32
 70
     1
102
RTVSPropertyOp33
 70
     1
102
RTVSPropertyOp34
 70
     1
102
RTVSPropertyOp35
 70
     1
102
RTVSPropertyOp36
 70
     1
102
RTVSPropertyOp37
 70
     1
102
RTVSPropertyOp38
 70
     1
102
RTVSPropertyOp39
 70
     1
102
RTVSPropertyOp40
 70
     1
102
RTVSPropertyOp41
 70
     1
102
RTVSPropertyOp42
 70
     1
102
RTVSPropertyOp43
 70
     1
102
RTVSPropertyOp44
 70
     1
102
RTVSPropertyOp45
 70
     1
102
RTVSPropertyOp46
 70
     1
102
RTVSPropertyOp47
 70
     1
102
RTVSPropertyOp48
 70
     1
102
RTVSPropertyOp49
 70
     1
102
RTVSPropertyOp50
 70
     1
102
RTVSPropertyOp51
 70
     0
102
RTVSPropertyOp52
 70
     0
102
RTVSPropertyOp53
 70
     1
102
RTVSPropertyOp54
 70
     1
102
RTVSPropertyOp55
 70
     1
102
RTVSPropertyOp56
 70
     1
102
RTVSPropertyOp57
 70
     1
102
RTVSPost2010Prop28
280
     0
102
RTVSPost2010PropOp28
 70
     1
102
RTVSPost2010Prop29
280
     1
102
RTVSPost2010PropOp29
 70
     1
102
RTVSPost2010Prop30
280
     1
102
RTVSPost2010PropOp30
 70
     1
102
RTVSPost2010Prop31
280
     0
102
RTVSPost2010PropOp31
 70
     1
102
RTVSPost2010Prop32
280
     0
102
RTVSPost2010PropOp32
 70
     1
102
RTVSPost2010Prop33
280
     0
102
RTVSPost2010PropOp33
 70
     1
102
RTVSPost2010Prop34
280
     0
102
RTVSPost2010PropOp34
 70
     1
102
RTVSPost2010Prop35
280
     0
102
RTVSPost2010PropOp35
 70
     1
102
RTVSPost2010Prop36
280
     0
102
RTVSPost2010PropOp36
 70
     1
102
RTVSPost2010Prop37
 90
       50
102
RTVSPost2010PropOp37
 70
     1
102
RTVSPost2010Prop38
140
0.0
102
RTVSPost2010PropOp38
 70
     1
102
RTVSPost2010Prop39
140
1.0
102
RTVSPost2010PropOp39
 70
     1
102
RTVSPost2010Prop40
 90
        0
102
RTVSPost2010PropOp40
 70
     1
102
RTVSPost2010Prop41ColorIndex
 90
       18
102
RTVSPost2010Prop41ColorRGB
 90
        0
102
RTVSPost2010PropOp41
 70
     1
102
RTVSPost2010Prop42
 90
       50
102
RTVSPost2010PropOp42
 70
     1
102
RTVSPost2010Prop43
 90
        3
102
RTVSPost2010PropOp43
 70
     1
102
RTVSPost2010Prop44ColorIndex
 90
        5
102
RTVSPost2010Prop44ColorRGB
 90
      255
102
RTVSPost2010PropOp44
 70
     1
102
RTVSPost2010Prop45
280
     0
102
RTVSPost2010PropOp45
 70
     1
102
RTVSPost2010Prop46
 90
       50
102
RTVSPost2010PropOp46
 70
     1
102
RTVSPost2010Prop47
 90
       50
102
RTVSPost2010PropOp47
 70
     1
102
RTVSPost2010Prop48
 90
       50
102
RTVSPost2010PropOp48
 70
     1
102
RTVSPost2010Prop49
280
     0
102
RTVSPost2010PropOp49
 70
     1
102
RTVSPost2010Prop50
 90
       50
102
RTVSPost2010PropOp50
 70
     1
102
RTVSPost2010Prop51ColorIndex
 90
      256
102
RTVSPost2010Prop51ColorRGB
 90
-16777216
102
RTVSPost2010PropOp51
 70
     0
102
RTVSPost2010Prop52
140
1.0
102
RTVSPost2010PropOp52
 70
     0
102
RTVSPost2010Prop53
 90
        2
102
RTVSPost2010PropOp53
 70
     1
102
RTVSPost2010Prop54
  1
strokes_ogs.tif
102
RTVSPost2010PropOp54
 70
     1
102
RTVSPost2010Prop55
280
     0
102
RTVSPost2010PropOp55
 70
     1
102
RTVSPost2010Prop56
140
1.0
102
RTVSPost2010PropOp56
 70
     1
102
RTVSPost2010Prop57
140
1.0
102
RTVSPost2010PropOp57
 70
     1
  0
XRECORD
  5
454
102
{ACAD_REACTORS
330
453
102
}
330
453
100
AcDbXrecord
280
     1
102
RTVSPropertyOp0
 70
     1
102
RTVSPropertyOp1
 70
     1
102
RTVSPropertyOp2
 70
     1
102
RTVSPropertyOp3
 70
     1
102
RTVSPropertyOp4
 70
     1
102
RTVSPropertyOp5
 70
     1
102
RTVSPropertyOp6
 70
     1
102
RTVSPropertyOp7
 70
     1
102
RTVSPropertyOp8
 70
     1
102
RTVSPropertyOp9
 70
     1
102
RTVSPropertyOp10
 70
     1
102
RTVSPropertyOp11
 70
     1
102
RTVSPropertyOp12
 70
     1
102
RTVSPropertyOp13
 70
     1
102
RTVSPropertyOp14
 70
     1
102
RTVSPropertyOp15
 70
     1
102
RTVSPropertyOp16
 70
     1
102
RTVSPropertyOp17
 70
     1
102
RTVSPropertyOp18
 70
     1
102
RTVSPropertyOp19
 70
     1
102
RTVSPropertyOp20
 70
     1
102
RTVSPropertyOp21
 70
     1
102
RTVSPropertyOp22
 70
     1
102
RTVSPropertyOp23
 70
     1
102
RTVSPropertyOp24
 70
     1
102
RTVSPropertyOp25
 70
     1
102
RTVSPropertyOp26
 70
     1
102
RTVSPropertyOp27
 70
     1
102
RTVSPropertyOp28
 70
     1
102
RTVSPropertyOp29
 70
     1
102
RTVSPropertyOp30
 70
     1
102
RTVSPropertyOp31
 70
     1
102
RTVSPropertyOp32
 70
     1
102
RTVSPropertyOp33
 70
     1
102
RTVSPropertyOp34
 70
     1
102
RTVSPropertyOp35
 70
     1
102
RTVSPropertyOp36
 70
     1
102
RTVSPropertyOp37
 70
     1
102
RTVSPropertyOp38
 70
     1
102
RTVSPropertyOp39
 70
     1
102
RTVSPropertyOp40
 70
     1
102
RTVSPropertyOp41
 70
     1
102
RTVSPropertyOp42
 70
     1
102
RTVSPropertyOp43
 70
     1
102
RTVSPropertyOp44
 70
     1
102
RTVSPropertyOp45
 70
     1
102
RTVSPropertyOp46
 70
     1
102
RTVSPropertyOp47
 70
     1
102
RTVSPropertyOp48
 70
     1
102
RTVSPropertyOp49
 70
     1
102
RTVSPropertyOp50
 70
     1
102
RTVSPropertyOp51
 70
     0
102
RTVSPropertyOp52
 70
     0
102
RTVSPropertyOp53
 70
     1
102
RTVSPropertyOp54
 70
     1
102
RTVSPropertyOp55
 70
     1
102
RTVSPropertyOp56
 70
     1
102
RTVSPropertyOp57
 70
     1
102
RTVSPost2010Prop28
280
     0
102
RTVSPost2010PropOp28
 70
     1
102
RTVSPost2010Prop29
280
     1
102
RTVSPost2010PropOp29
 70
     1
102
RTVSPost2010Prop30
280
     1
102
RTVSPost2010PropOp30
 70
     1
102
RTVSPost2010Prop31
280
     0
102
RTVSPost2010PropOp31
 70
     1
102
RTVSPost2010Prop32
280
     0
102
RTVSPost2010PropOp32
 70
     1
102
RTVSPost2010Prop33
280
     0
102
RTVSPost2010PropOp33
 70
     1
102
RTVSPost2010Prop34
280
     0
102
RTVSPost2010PropOp34
 70
     1
102
RTVSPost2010Prop35
280
     0
102
RTVSPost2010PropOp35
 70
     1
102
RTVSPost2010Prop36
280
     0
102
RTVSPost2010PropOp36
 70
     1
102
RTVSPost2010Prop37
 90
       50
102
RTVSPost2010PropOp37
 70
     1
102
RTVSPost2010Prop38
140
0.0
102
RTVSPost2010PropOp38
 70
     1
102
RTVSPost2010Prop39
140
1.0
102
RTVSPost2010PropOp39
 70
     1
102
RTVSPost2010Prop40
 90
        0
102
RTVSPost2010PropOp40
 70
     1
102
RTVSPost2010Prop41ColorIndex
 90
       18
102
RTVSPost2010Prop41ColorRGB
 90
        0
102
RTVSPost2010PropOp41
 70
     1
102
RTVSPost2010Prop42
 90
       50
102
RTVSPost2010PropOp42
 70
     1
102
RTVSPost2010Prop43
 90
        3
102
RTVSPost2010PropOp43
 70
     1
102
RTVSPost2010Prop44ColorIndex
 90
        5
102
RTVSPost2010Prop44ColorRGB
 90
      255
102
RTVSPost2010PropOp44
 70
     1
102
RTVSPost2010Prop45
280
     0
102
RTVSPost2010PropOp45
 70
     1
102
RTVSPost2010Prop46
 90
       50
102
RTVSPost2010PropOp46
 70
     1
102
RTVSPost2010Prop47
 90
       50
102
RTVSPost2010PropOp47
 70
     1
102
RTVSPost2010Prop48
 90
       50
102
RTVSPost2010PropOp48
 70
     1
102
RTVSPost2010Prop49
280
     0
102
RTVSPost2010PropOp49
 70
     1
102
RTVSPost2010Prop50
 90
       50
102
RTVSPost2010PropOp50
 70
     1
102
RTVSPost2010Prop51ColorIndex
 90
      256
102
RTVSPost2010Prop51ColorRGB
 90
-16777216
102
RTVSPost2010PropOp51
 70
     0
102
RTVSPost2010Prop52
140
1.0
102
RTVSPost2010PropOp52
 70
     0
102
RTVSPost2010Prop53
 90
        2
102
RTVSPost2010PropOp53
 70
     1
102
RTVSPost2010Prop54
  1
strokes_ogs.tif
102
RTVSPost2010PropOp54
 70
     1
102
RTVSPost2010Prop55
280
     0
102
RTVSPost2010PropOp55
 70
     1
102
RTVSPost2010Prop56
140
1.0
102
RTVSPost2010PropOp56
 70
     1
102
RTVSPost2010Prop57
140
1.0
102
RTVSPost2010PropOp57
 70
     1
  0
XRECORD
  5
45A
102
{ACAD_REACTORS
330
459
102
}
330
459
100
AcDbXrecord
280
     1
102
RTVSPropertyOp0
 70
     1
102
RTVSPropertyOp1
 70
     1
102
RTVSPropertyOp2
 70
     1
102
RTVSPropertyOp3
 70
     1
102
RTVSPropertyOp4
 70
     1
102
RTVSPropertyOp5
 70
     1
102
RTVSPropertyOp6
 70
     1
102
RTVSPropertyOp7
 70
     1
102
RTVSPropertyOp8
 70
     1
102
RTVSPropertyOp9
 70
     1
102
RTVSPropertyOp10
 70
     1
102
RTVSPropertyOp11
 70
     1
102
RTVSPropertyOp12
 70
     1
102
RTVSPropertyOp13
 70
     1
102
RTVSPropertyOp14
 70
     1
102
RTVSPropertyOp15
 70
     1
102
RTVSPropertyOp16
 70
     1
102
RTVSPropertyOp17
 70
     1
102
RTVSPropertyOp18
 70
     1
102
RTVSPropertyOp19
 70
     1
102
RTVSPropertyOp20
 70
     1
102
RTVSPropertyOp21
 70
     1
102
RTVSPropertyOp22
 70
     1
102
RTVSPropertyOp23
 70
     1
102
RTVSPropertyOp24
 70
     1
102
RTVSPropertyOp25
 70
     1
102
RTVSPropertyOp26
 70
     1
102
RTVSPropertyOp27
 70
     1
102
RTVSPropertyOp28
 70
     1
102
RTVSPropertyOp29
 70
     1
102
RTVSPropertyOp30
 70
     1
102
RTVSPropertyOp31
 70
     1
102
RTVSPropertyOp32
 70
     1
102
RTVSPropertyOp33
 70
     1
102
RTVSPropertyOp34
 70
     1
102
RTVSPropertyOp35
 70
     1
102
RTVSPropertyOp36
 70
     1
102
RTVSPropertyOp37
 70
     1
102
RTVSPropertyOp38
 70
     1
102
RTVSPropertyOp39
 70
     1
102
RTVSPropertyOp40
 70
     1
102
RTVSPropertyOp41
 70
     1
102
RTVSPropertyOp42
 70
     1
102
RTVSPropertyOp43
 70
     1
102
RTVSPropertyOp44
 70
     1
102
RTVSPropertyOp45
 70
     1
102
RTVSPropertyOp46
 70
     1
102
RTVSPropertyOp47
 70
     1
102
RTVSPropertyOp48
 70
     1
102
RTVSPropertyOp49
 70
     1
102
RTVSPropertyOp50
 70
     1
102
RTVSPropertyOp51
 70
     0
102
RTVSPropertyOp52
 70
     0
102
RTVSPropertyOp53
 70
     1
102
RTVSPropertyOp54
 70
     1
102
RTVSPropertyOp55
 70
     1
102
RTVSPropertyOp56
 70
     1
102
RTVSPropertyOp57
 70
     1
102
RTVSPost2010Prop28
280
     0
102
RTVSPost2010PropOp28
 70
     1
102
RTVSPost2010Prop29
280
     1
102
RTVSPost2010PropOp29
 70
     1
102
RTVSPost2010Prop30
280
     1
102
RTVSPost2010PropOp30
 70
     1
102
RTVSPost2010Prop31
280
     0
102
RTVSPost2010PropOp31
 70
     1
102
RTVSPost2010Prop32
280
     0
102
RTVSPost2010PropOp32
 70
     1
102
RTVSPost2010Prop33
280
     0
102
RTVSPost2010PropOp33
 70
     1
102
RTVSPost2010Prop34
280
     0
102
RTVSPost2010PropOp34
 70
     1
102
RTVSPost2010Prop35
280
     0
102
RTVSPost2010PropOp35
 70
     1
102
RTVSPost2010Prop36
280
     0
102
RTVSPost2010PropOp36
 70
     1
102
RTVSPost2010Prop37
 90
       50
102
RTVSPost2010PropOp37
 70
     1
102
RTVSPost2010Prop38
140
0.0
102
RTVSPost2010PropOp38
 70
     1
102
RTVSPost2010Prop39
140
1.0
102
RTVSPost2010PropOp39
 70
     1
102
RTVSPost2010Prop40
 90
        0
102
RTVSPost2010PropOp40
 70
     1
102
RTVSPost2010Prop41ColorIndex
 90
       18
102
RTVSPost2010Prop41ColorRGB
 90
        0
102
RTVSPost2010PropOp41
 70
     1
102
RTVSPost2010Prop42
 90
       50
102
RTVSPost2010PropOp42
 70
     1
102
RTVSPost2010Prop43
 90
        3
102
RTVSPost2010PropOp43
 70
     1
102
RTVSPost2010Prop44ColorIndex
 90
        5
102
RTVSPost2010Prop44ColorRGB
 90
      255
102
RTVSPost2010PropOp44
 70
     1
102
RTVSPost2010Prop45
280
     0
102
RTVSPost2010PropOp45
 70
     1
102
RTVSPost2010Prop46
 90
       50
102
RTVSPost2010PropOp46
 70
     1
102
RTVSPost2010Prop47
 90
       50
102
RTVSPost2010PropOp47
 70
     1
102
RTVSPost2010Prop48
 90
       50
102
RTVSPost2010PropOp48
 70
     1
102
RTVSPost2010Prop49
280
     0
102
RTVSPost2010PropOp49
 70
     1
102
RTVSPost2010Prop50
 90
       50
102
RTVSPost2010PropOp50
 70
     1
102
RTVSPost2010Prop51ColorIndex
 90
      256
102
RTVSPost2010Prop51ColorRGB
 90
-16777216
102
RTVSPost2010PropOp51
 70
     0
102
RTVSPost2010Prop52
140
1.0
102
RTVSPost2010PropOp52
 70
     0
102
RTVSPost2010Prop53
 90
        2
102
RTVSPost2010PropOp53
 70
     1
102
RTVSPost2010Prop54
  1
strokes_ogs.tif
102
RTVSPost2010PropOp54
 70
     1
102
RTVSPost2010Prop55
280
     0
102
RTVSPost2010PropOp55
 70
     1
102
RTVSPost2010Prop56
140
1.0
102
RTVSPost2010PropOp56
 70
     1
102
RTVSPost2010Prop57
140
1.0
102
RTVSPost2010PropOp57
 70
     1
  0
XRECORD
  5
46E
102
{ACAD_REACTORS
330
46D
102
}
330
46D
100
AcDbXrecord
280
     1
102
RTVSPropertyOp0
 70
     0
102
RTVSPropertyOp1
 70
     0
102
RTVSPropertyOp2
 70
     0
102
RTVSPropertyOp3
 70
     0
102
RTVSPropertyOp4
 70
     0
102
RTVSPropertyOp5
 70
     0
102
RTVSPropertyOp6
 70
     0
102
RTVSPropertyOp7
 70
     0
102
RTVSPropertyOp8
 70
     0
102
RTVSPropertyOp9
 70
     0
102
RTVSPropertyOp10
 70
     0
102
RTVSPropertyOp11
 70
     0
102
RTVSPropertyOp12
 70
     0
102
RTVSPropertyOp13
 70
     0
102
RTVSPropertyOp14
 70
     2
102
RTVSPropertyOp15
 70
     0
102
RTVSPropertyOp16
 70
     0
102
RTVSPropertyOp17
 70
     0
102
RTVSPropertyOp18
 70
     0
102
RTVSPropertyOp19
 70
     0
102
RTVSPropertyOp20
 70
     0
102
RTVSPropertyOp21
 70
     0
102
RTVSPropertyOp22
 70
     0
102
RTVSPropertyOp23
 70
     0
102
RTVSPropertyOp24
 70
     0
102
RTVSPropertyOp25
 70
     0
102
RTVSPropertyOp26
 70
     0
102
RTVSPropertyOp27
 70
     0
102
RTVSPropertyOp28
 70
     0
102
RTVSPropertyOp29
 70
     0
102
RTVSPropertyOp30
 70
     0
102
RTVSPropertyOp31
 70
     0
102
RTVSPropertyOp32
 70
     0
102
RTVSPropertyOp33
 70
     0
102
RTVSPropertyOp34
 70
     0
102
RTVSPropertyOp35
 70
     0
102
RTVSPropertyOp36
 70
     0
102
RTVSPropertyOp37
 70
     0
102
RTVSPropertyOp38
 70
     0
102
RTVSPropertyOp39
 70
     0
102
RTVSPropertyOp40
 70
     0
102
RTVSPropertyOp41
 70
     0
102
RTVSPropertyOp42
 70
     0
102
RTVSPropertyOp43
 70
     0
102
RTVSPropertyOp44
 70
     0
102
RTVSPropertyOp45
 70
     0
102
RTVSPropertyOp46
 70
     0
102
RTVSPropertyOp47
 70
     0
102
RTVSPropertyOp48
 70
     0
102
RTVSPropertyOp49
 70
     0
102
RTVSPropertyOp50
 70
     0
102
RTVSPropertyOp51
 70
     0
102
RTVSPropertyOp52
 70
     0
102
RTVSPropertyOp53
 70
     0
102
RTVSPropertyOp54
 70
     0
102
RTVSPropertyOp55
 70
     0
102
RTVSPropertyOp56
 70
     0
102
RTVSPropertyOp57
 70
     0
102
RTVSPost2010Prop28
280
     0
102
RTVSPost2010PropOp28
 70
     0
102
RTVSPost2010Prop29
280
     1
102
RTVSPost2010PropOp29
 70
     0
102
RTVSPost2010Prop30
280
     1
102
RTVSPost2010PropOp30
 70
     0
102
RTVSPost2010Prop31
280
     0
102
RTVSPost2010PropOp31
 70
     0
102
RTVSPost2010Prop32
280
     0
102
RTVSPost2010PropOp32
 70
     0
102
RTVSPost2010Prop33
280
     0
102
RTVSPost2010PropOp33
 70
     0
102
RTVSPost2010Prop34
280
     0
102
RTVSPost2010PropOp34
 70
     0
102
RTVSPost2010Prop35
280
     0
102
RTVSPost2010PropOp35
 70
     0
102
RTVSPost2010Prop36
280
     0
102
RTVSPost2010PropOp36
 70
     0
102
RTVSPost2010Prop37
 90
       50
102
RTVSPost2010PropOp37
 70
     0
102
RTVSPost2010Prop38
140
0.0
102
RTVSPost2010PropOp38
 70
     0
102
RTVSPost2010Prop39
140
1.0
102
RTVSPost2010PropOp39
 70
     0
102
RTVSPost2010Prop40
 90
        0
102
RTVSPost2010PropOp40
 70
     0
102
RTVSPost2010Prop41ColorIndex
 90
       18
102
RTVSPost2010Prop41ColorRGB
 90
        0
102
RTVSPost2010PropOp41
 70
     0
102
RTVSPost2010Prop42
 90
       50
102
RTVSPost2010PropOp42
 70
     0
102
RTVSPost2010Prop43
 90
        3
102
RTVSPost2010PropOp43
 70
     0
102
RTVSPost2010Prop44ColorIndex
 90
        5
102
RTVSPost2010Prop44ColorRGB
 90
      255
102
RTVSPost2010PropOp44
 70
     0
102
RTVSPost2010Prop45
280
     0
102
RTVSPost2010PropOp45
 70
     0
102
RTVSPost2010Prop46
 90
       50
102
RTVSPost2010PropOp46
 70
     0
102
RTVSPost2010Prop47
 90
       50
102
RTVSPost2010PropOp47
 70
     0
102
RTVSPost2010Prop48
 90
       50
102
RTVSPost2010PropOp48
 70
     0
102
RTVSPost2010Prop49
280
     0
102
RTVSPost2010PropOp49
 70
     0
102
RTVSPost2010Prop50
 90
       50
102
RTVSPost2010PropOp50
 70
     0
102
RTVSPost2010Prop51ColorIndex
 90
      256
102
RTVSPost2010Prop51ColorRGB
 90
-16777216
102
RTVSPost2010PropOp51
 70
     0
102
RTVSPost2010Prop52
140
1.0
102
RTVSPost2010PropOp52
 70
     0
102
RTVSPost2010Prop53
 90
        2
102
RTVSPost2010PropOp53
 70
     0
102
RTVSPost2010Prop54
  1
strokes_ogs.tif
102
RTVSPost2010PropOp54
 70
     0
102
RTVSPost2010Prop55
280
     0
102
RTVSPost2010PropOp55
 70
     0
102
RTVSPost2010Prop56
140
1.0
102
RTVSPost2010PropOp56
 70
     0
102
RTVSPost2010Prop57
140
1.0
102
RTVSPost2010PropOp57
 70
     0
  0
XRECORD
  5
468
102
{ACAD_REACTORS
330
467
102
}
330
467
100
AcDbXrecord
280
     1
102
RTVSPropertyOp0
 70
     1
102
RTVSPropertyOp1
 70
     1
102
RTVSPropertyOp2
 70
     1
102
RTVSPropertyOp3
 70
     1
102
RTVSPropertyOp4
 70
     1
102
RTVSPropertyOp5
 70
     1
102
RTVSPropertyOp6
 70
     1
102
RTVSPropertyOp7
 70
     1
102
RTVSPropertyOp8
 70
     1
102
RTVSPropertyOp9
 70
     1
102
RTVSPropertyOp10
 70
     1
102
RTVSPropertyOp11
 70
     1
102
RTVSPropertyOp12
 70
     1
102
RTVSPropertyOp13
 70
     1
102
RTVSPropertyOp14
 70
     1
102
RTVSPropertyOp15
 70
     1
102
RTVSPropertyOp16
 70
     1
102
RTVSPropertyOp17
 70
     1
102
RTVSPropertyOp18
 70
     1
102
RTVSPropertyOp19
 70
     1
102
RTVSPropertyOp20
 70
     1
102
RTVSPropertyOp21
 70
     1
102
RTVSPropertyOp22
 70
     1
102
RTVSPropertyOp23
 70
     1
102
RTVSPropertyOp24
 70
     1
102
RTVSPropertyOp25
 70
     1
102
RTVSPropertyOp26
 70
     1
102
RTVSPropertyOp27
 70
     1
102
RTVSPropertyOp28
 70
     1
102
RTVSPropertyOp29
 70
     1
102
RTVSPropertyOp30
 70
     1
102
RTVSPropertyOp31
 70
     1
102
RTVSPropertyOp32
 70
     1
102
RTVSPropertyOp33
 70
     1
102
RTVSPropertyOp34
 70
     1
102
RTVSPropertyOp35
 70
     1
102
RTVSPropertyOp36
 70
     1
102
RTVSPropertyOp37
 70
     1
102
RTVSPropertyOp38
 70
     1
102
RTVSPropertyOp39
 70
     1
102
RTVSPropertyOp40
 70
     1
102
RTVSPropertyOp41
 70
     1
102
RTVSPropertyOp42
 70
     1
102
RTVSPropertyOp43
 70
     1
102
RTVSPropertyOp44
 70
     1
102
RTVSPropertyOp45
 70
     1
102
RTVSPropertyOp46
 70
     1
102
RTVSPropertyOp47
 70
     1
102
RTVSPropertyOp48
 70
     1
102
RTVSPropertyOp49
 70
     1
102
RTVSPropertyOp50
 70
     1
102
RTVSPropertyOp51
 70
     0
102
RTVSPropertyOp52
 70
     0
102
RTVSPropertyOp53
 70
     1
102
RTVSPropertyOp54
 70
     1
102
RTVSPropertyOp55
 70
     1
102
RTVSPropertyOp56
 70
     1
102
RTVSPropertyOp57
 70
     1
102
RTVSPost2010Prop28
280
     0
102
RTVSPost2010PropOp28
 70
     1
102
RTVSPost2010Prop29
280
     1
102
RTVSPost2010PropOp29
 70
     1
102
RTVSPost2010Prop30
280
     1
102
RTVSPost2010PropOp30
 70
     1
102
RTVSPost2010Prop31
280
     0
102
RTVSPost2010PropOp31
 70
     1
102
RTVSPost2010Prop32
280
     0
102
RTVSPost2010PropOp32
 70
     1
102
RTVSPost2010Prop33
280
     0
102
RTVSPost2010PropOp33
 70
     1
102
RTVSPost2010Prop34
280
     0
102
RTVSPost2010PropOp34
 70
     1
102
RTVSPost2010Prop35
280
     0
102
RTVSPost2010PropOp35
 70
     1
102
RTVSPost2010Prop36
280
     0
102
RTVSPost2010PropOp36
 70
     1
102
RTVSPost2010Prop37
 90
       50
102
RTVSPost2010PropOp37
 70
     1
102
RTVSPost2010Prop38
140
0.0
102
RTVSPost2010PropOp38
 70
     1
102
RTVSPost2010Prop39
140
1.0
102
RTVSPost2010PropOp39
 70
     1
102
RTVSPost2010Prop40
 90
        0
102
RTVSPost2010PropOp40
 70
     1
102
RTVSPost2010Prop41ColorIndex
 90
       18
102
RTVSPost2010Prop41ColorRGB
 90
        0
102
RTVSPost2010PropOp41
 70
     1
102
RTVSPost2010Prop42
 90
       50
102
RTVSPost2010PropOp42
 70
     1
102
RTVSPost2010Prop43
 90
        3
102
RTVSPost2010PropOp43
 70
     1
102
RTVSPost2010Prop44ColorIndex
 90
        5
102
RTVSPost2010Prop44ColorRGB
 90
      255
102
RTVSPost2010PropOp44
 70
     1
102
RTVSPost2010Prop45
280
     0
102
RTVSPost2010PropOp45
 70
     1
102
RTVSPost2010Prop46
 90
       50
102
RTVSPost2010PropOp46
 70
     1
102
RTVSPost2010Prop47
 90
       50
102
RTVSPost2010PropOp47
 70
     1
102
RTVSPost2010Prop48
 90
       50
102
RTVSPost2010PropOp48
 70
     1
102
RTVSPost2010Prop49
280
     0
102
RTVSPost2010PropOp49
 70
     1
102
RTVSPost2010Prop50
 90
       50
102
RTVSPost2010PropOp50
 70
     1
102
RTVSPost2010Prop51ColorIndex
 90
      256
102
RTVSPost2010Prop51ColorRGB
 90
-16777216
102
RTVSPost2010PropOp51
 70
     0
102
RTVSPost2010Prop52
140
1.0
102
RTVSPost2010PropOp52
 70
     0
102
RTVSPost2010Prop53
 90
        2
102
RTVSPost2010PropOp53
 70
     1
102
RTVSPost2010Prop54
  1
strokes_ogs.tif
102
RTVSPost2010PropOp54
 70
     1
102
RTVSPost2010Prop55
280
     0
102
RTVSPost2010PropOp55
 70
     1
102
RTVSPost2010Prop56
140
1.0
102
RTVSPost2010PropOp56
 70
     1
102
RTVSPost2010Prop57
140
1.0
102
RTVSPost2010PropOp57
 70
     1
  0
XRECORD
  5
470
102
{ACAD_REACTORS
330
46F
102
}
330
46F
100
AcDbXrecord
280
     1
102
RTVSPropertyOp0
 70
     0
102
RTVSPropertyOp1
 70
     0
102
RTVSPropertyOp2
 70
     0
102
RTVSPropertyOp3
 70
     0
102
RTVSPropertyOp4
 70
     0
102
RTVSPropertyOp5
 70
     0
102
RTVSPropertyOp6
 70
     0
102
RTVSPropertyOp7
 70
     0
102
RTVSPropertyOp8
 70
     0
102
RTVSPropertyOp9
 70
     0
102
RTVSPropertyOp10
 70
     0
102
RTVSPropertyOp11
 70
     0
102
RTVSPropertyOp12
 70
     0
102
RTVSPropertyOp13
 70
     0
102
RTVSPropertyOp14
 70
     2
102
RTVSPropertyOp15
 70
     0
102
RTVSPropertyOp16
 70
     0
102
RTVSPropertyOp17
 70
     0
102
RTVSPropertyOp18
 70
     0
102
RTVSPropertyOp19
 70
     0
102
RTVSPropertyOp20
 70
     0
102
RTVSPropertyOp21
 70
     0
102
RTVSPropertyOp22
 70
     0
102
RTVSPropertyOp23
 70
     0
102
RTVSPropertyOp24
 70
     0
102
RTVSPropertyOp25
 70
     0
102
RTVSPropertyOp26
 70
     0
102
RTVSPropertyOp27
 70
     0
102
RTVSPropertyOp28
 70
     0
102
RTVSPropertyOp29
 70
     0
102
RTVSPropertyOp30
 70
     0
102
RTVSPropertyOp31
 70
     0
102
RTVSPropertyOp32
 70
     0
102
RTVSPropertyOp33
 70
     0
102
RTVSPropertyOp34
 70
     0
102
RTVSPropertyOp35
 70
     0
102
RTVSPropertyOp36
 70
     0
102
RTVSPropertyOp37
 70
     0
102
RTVSPropertyOp38
 70
     0
102
RTVSPropertyOp39
 70
     0
102
RTVSPropertyOp40
 70
     0
102
RTVSPropertyOp41
 70
     0
102
RTVSPropertyOp42
 70
     0
102
RTVSPropertyOp43
 70
     0
102
RTVSPropertyOp44
 70
     0
102
RTVSPropertyOp45
 70
     0
102
RTVSPropertyOp46
 70
     0
102
RTVSPropertyOp47
 70
     0
102
RTVSPropertyOp48
 70
     0
102
RTVSPropertyOp49
 70
     0
102
RTVSPropertyOp50
 70
     0
102
RTVSPropertyOp51
 70
     0
102
RTVSPropertyOp52
 70
     0
102
RTVSPropertyOp53
 70
     0
102
RTVSPropertyOp54
 70
     0
102
RTVSPropertyOp55
 70
     0
102
RTVSPropertyOp56
 70
     0
102
RTVSPropertyOp57
 70
     0
102
RTVSPost2010Prop28
280
     0
102
RTVSPost2010PropOp28
 70
     0
102
RTVSPost2010Prop29
280
     1
102
RTVSPost2010PropOp29
 70
     0
102
RTVSPost2010Prop30
280
     1
102
RTVSPost2010PropOp30
 70
     0
102
RTVSPost2010Prop31
280
     0
102
RTVSPost2010PropOp31
 70
     0
102
RTVSPost2010Prop32
280
     0
102
RTVSPost2010PropOp32
 70
     0
102
RTVSPost2010Prop33
280
     0
102
RTVSPost2010PropOp33
 70
     0
102
RTVSPost2010Prop34
280
     0
102
RTVSPost2010PropOp34
 70
     0
102
RTVSPost2010Prop35
280
     0
102
RTVSPost2010PropOp35
 70
     0
102
RTVSPost2010Prop36
280
     0
102
RTVSPost2010PropOp36
 70
     0
102
RTVSPost2010Prop37
 90
       50
102
RTVSPost2010PropOp37
 70
     0
102
RTVSPost2010Prop38
140
0.0
102
RTVSPost2010PropOp38
 70
     0
102
RTVSPost2010Prop39
140
1.0
102
RTVSPost2010PropOp39
 70
     0
102
RTVSPost2010Prop40
 90
        0
102
RTVSPost2010PropOp40
 70
     0
102
RTVSPost2010Prop41ColorIndex
 90
       18
102
RTVSPost2010Prop41ColorRGB
 90
        0
102
RTVSPost2010PropOp41
 70
     0
102
RTVSPost2010Prop42
 90
       50
102
RTVSPost2010PropOp42
 70
     0
102
RTVSPost2010Prop43
 90
        3
102
RTVSPost2010PropOp43
 70
     0
102
RTVSPost2010Prop44ColorIndex
 90
        5
102
RTVSPost2010Prop44ColorRGB
 90
      255
102
RTVSPost2010PropOp44
 70
     0
102
RTVSPost2010Prop45
280
     0
102
RTVSPost2010PropOp45
 70
     0
102
RTVSPost2010Prop46
 90
       50
102
RTVSPost2010PropOp46
 70
     0
102
RTVSPost2010Prop47
 90
       50
102
RTVSPost2010PropOp47
 70
     0
102
RTVSPost2010Prop48
 90
       50
102
RTVSPost2010PropOp48
 70
     0
102
RTVSPost2010Prop49
280
     0
102
RTVSPost2010PropOp49
 70
     0
102
RTVSPost2010Prop50
 90
       50
102
RTVSPost2010PropOp50
 70
     0
102
RTVSPost2010Prop51ColorIndex
 90
      256
102
RTVSPost2010Prop51ColorRGB
 90
-16777216
102
RTVSPost2010PropOp51
 70
     0
102
RTVSPost2010Prop52
140
1.0
102
RTVSPost2010PropOp52
 70
     0
102
RTVSPost2010Prop53
 90
        2
102
RTVSPost2010PropOp53
 70
     0
102
RTVSPost2010Prop54
  1
strokes_ogs.tif
102
RTVSPost2010PropOp54
 70
     0
102
RTVSPost2010Prop55
280
     0
102
RTVSPost2010PropOp55
 70
     0
102
RTVSPost2010Prop56
140
1.0
102
RTVSPost2010PropOp56
 70
     0
102
RTVSPost2010Prop57
140
1.0
102
RTVSPost2010PropOp57
 70
     0
  0
XRECORD
  5
45E
102
{ACAD_REACTORS
330
45D
102
}
330
45D
100
AcDbXrecord
280
     1
102
RTVSPropertyOp0
 70
     1
102
RTVSPropertyOp1
 70
     1
102
RTVSPropertyOp2
 70
     1
102
RTVSPropertyOp3
 70
     1
102
RTVSPropertyOp4
 70
     1
102
RTVSPropertyOp5
 70
     1
102
RTVSPropertyOp6
 70
     1
102
RTVSPropertyOp7
 70
     1
102
RTVSPropertyOp8
 70
     1
102
RTVSPropertyOp9
 70
     1
102
RTVSPropertyOp10
 70
     1
102
RTVSPropertyOp11
 70
     1
102
RTVSPropertyOp12
 70
     1
102
RTVSPropertyOp13
 70
     1
102
RTVSPropertyOp14
 70
     1
102
RTVSPropertyOp15
 70
     1
102
RTVSPropertyOp16
 70
     1
102
RTVSPropertyOp17
 70
     1
102
RTVSPropertyOp18
 70
     1
102
RTVSPropertyOp19
 70
     1
102
RTVSPropertyOp20
 70
     1
102
RTVSPropertyOp21
 70
     1
102
RTVSPropertyOp22
 70
     1
102
RTVSPropertyOp23
 70
     1
102
RTVSPropertyOp24
 70
     1
102
RTVSPropertyOp25
 70
     1
102
RTVSPropertyOp26
 70
     1
102
RTVSPropertyOp27
 70
     1
102
RTVSPropertyOp28
 70
     1
102
RTVSPropertyOp29
 70
     1
102
RTVSPropertyOp30
 70
     1
102
RTVSPropertyOp31
 70
     1
102
RTVSPropertyOp32
 70
     1
102
RTVSPropertyOp33
 70
     1
102
RTVSPropertyOp34
 70
     1
102
RTVSPropertyOp35
 70
     1
102
RTVSPropertyOp36
 70
     1
102
RTVSPropertyOp37
 70
     1
102
RTVSPropertyOp38
 70
     1
102
RTVSPropertyOp39
 70
     1
102
RTVSPropertyOp40
 70
     1
102
RTVSPropertyOp41
 70
     1
102
RTVSPropertyOp42
 70
     1
102
RTVSPropertyOp43
 70
     1
102
RTVSPropertyOp44
 70
     1
102
RTVSPropertyOp45
 70
     1
102
RTVSPropertyOp46
 70
     1
102
RTVSPropertyOp47
 70
     1
102
RTVSPropertyOp48
 70
     1
102
RTVSPropertyOp49
 70
     1
102
RTVSPropertyOp50
 70
     1
102
RTVSPropertyOp51
 70
     0
102
RTVSPropertyOp52
 70
     0
102
RTVSPropertyOp53
 70
     1
102
RTVSPropertyOp54
 70
     1
102
RTVSPropertyOp55
 70
     1
102
RTVSPropertyOp56
 70
     1
102
RTVSPropertyOp57
 70
     1
102
RTVSPost2010Prop28
280
     0
102
RTVSPost2010PropOp28
 70
     1
102
RTVSPost2010Prop29
280
     1
102
RTVSPost2010PropOp29
 70
     1
102
RTVSPost2010Prop30
280
     1
102
RTVSPost2010PropOp30
 70
     1
102
RTVSPost2010Prop31
280
     0
102
RTVSPost2010PropOp31
 70
     1
102
RTVSPost2010Prop32
280
     0
102
RTVSPost2010PropOp32
 70
     1
102
RTVSPost2010Prop33
280
     0
102
RTVSPost2010PropOp33
 70
     1
102
RTVSPost2010Prop34
280
     0
102
RTVSPost2010PropOp34
 70
     1
102
RTVSPost2010Prop35
280
     0
102
RTVSPost2010PropOp35
 70
     1
102
RTVSPost2010Prop36
280
     0
102
RTVSPost2010PropOp36
 70
     1
102
RTVSPost2010Prop37
 90
       50
102
RTVSPost2010PropOp37
 70
     1
102
RTVSPost2010Prop38
140
0.0
102
RTVSPost2010PropOp38
 70
     1
102
RTVSPost2010Prop39
140
1.0
102
RTVSPost2010PropOp39
 70
     1
102
RTVSPost2010Prop40
 90
        0
102
RTVSPost2010PropOp40
 70
     1
102
RTVSPost2010Prop41ColorIndex
 90
       18
102
RTVSPost2010Prop41ColorRGB
 90
        0
102
RTVSPost2010PropOp41
 70
     1
102
RTVSPost2010Prop42
 90
       50
102
RTVSPost2010PropOp42
 70
     1
102
RTVSPost2010Prop43
 90
        3
102
RTVSPost2010PropOp43
 70
     1
102
RTVSPost2010Prop44ColorIndex
 90
        5
102
RTVSPost2010Prop44ColorRGB
 90
      255
102
RTVSPost2010PropOp44
 70
     1
102
RTVSPost2010Prop45
280
     0
102
RTVSPost2010PropOp45
 70
     1
102
RTVSPost2010Prop46
 90
       50
102
RTVSPost2010PropOp46
 70
     1
102
RTVSPost2010Prop47
 90
       50
102
RTVSPost2010PropOp47
 70
     1
102
RTVSPost2010Prop48
 90
       50
102
RTVSPost2010PropOp48
 70
     1
102
RTVSPost2010Prop49
280
     0
102
RTVSPost2010PropOp49
 70
     1
102
RTVSPost2010Prop50
 90
       50
102
RTVSPost2010PropOp50
 70
     1
102
RTVSPost2010Prop51ColorIndex
 90
      256
102
RTVSPost2010Prop51ColorRGB
 90
-16777216
102
RTVSPost2010PropOp51
 70
     0
102
RTVSPost2010Prop52
140
1.0
102
RTVSPost2010PropOp52
 70
     0
102
RTVSPost2010Prop53
 90
        2
102
RTVSPost2010PropOp53
 70
     1
102
RTVSPost2010Prop54
  1
strokes_ogs.tif
102
RTVSPost2010PropOp54
 70
     1
102
RTVSPost2010Prop55
280
     0
102
RTVSPost2010PropOp55
 70
     1
102
RTVSPost2010Prop56
140
1.0
102
RTVSPost2010PropOp56
 70
     1
102
RTVSPost2010Prop57
140
1.0
102
RTVSPost2010PropOp57
 70
     1
  0
XRECORD
  5
47C
102
{ACAD_REACTORS
330
47B
102
}
330
47B
100
AcDbXrecord
280
     1
102
RTVSPropertyOp0
 70
     1
102
RTVSPropertyOp1
 70
     1
102
RTVSPropertyOp2
 70
     1
102
RTVSPropertyOp3
 70
     1
102
RTVSPropertyOp4
 70
     1
102
RTVSPropertyOp5
 70
     1
102
RTVSPropertyOp6
 70
     1
102
RTVSPropertyOp7
 70
     1
102
RTVSPropertyOp8
 70
     1
102
RTVSPropertyOp9
 70
     1
102
RTVSPropertyOp10
 70
     1
102
RTVSPropertyOp11
 70
     1
102
RTVSPropertyOp12
 70
     1
102
RTVSPropertyOp13
 70
     1
102
RTVSPropertyOp14
 70
     1
102
RTVSPropertyOp15
 70
     1
102
RTVSPropertyOp16
 70
     1
102
RTVSPropertyOp17
 70
     1
102
RTVSPropertyOp18
 70
     1
102
RTVSPropertyOp19
 70
     1
102
RTVSPropertyOp20
 70
     1
102
RTVSPropertyOp21
 70
     1
102
RTVSPropertyOp22
 70
     1
102
RTVSPropertyOp23
 70
     1
102
RTVSPropertyOp24
 70
     1
102
RTVSPropertyOp25
 70
     1
102
RTVSPropertyOp26
 70
     1
102
RTVSPropertyOp27
 70
     1
102
RTVSPropertyOp28
 70
     1
102
RTVSPropertyOp29
 70
     1
102
RTVSPropertyOp30
 70
     1
102
RTVSPropertyOp31
 70
     1
102
RTVSPropertyOp32
 70
     1
102
RTVSPropertyOp33
 70
     1
102
RTVSPropertyOp34
 70
     1
102
RTVSPropertyOp35
 70
     1
102
RTVSPropertyOp36
 70
     1
102
RTVSPropertyOp37
 70
     1
102
RTVSPropertyOp38
 70
     1
102
RTVSPropertyOp39
 70
     1
102
RTVSPropertyOp40
 70
     1
102
RTVSPropertyOp41
 70
     1
102
RTVSPropertyOp42
 70
     1
102
RTVSPropertyOp43
 70
     1
102
RTVSPropertyOp44
 70
     1
102
RTVSPropertyOp45
 70
     1
102
RTVSPropertyOp46
 70
     1
102
RTVSPropertyOp47
 70
     1
102
RTVSPropertyOp48
 70
     1
102
RTVSPropertyOp49
 70
     1
102
RTVSPropertyOp50
 70
     1
102
RTVSPropertyOp51
 70
     0
102
RTVSPropertyOp52
 70
     0
102
RTVSPropertyOp53
 70
     1
102
RTVSPropertyOp54
 70
     1
102
RTVSPropertyOp55
 70
     1
102
RTVSPropertyOp56
 70
     1
102
RTVSPropertyOp57
 70
     1
102
RTVSPost2010Prop28
280
     0
102
RTVSPost2010PropOp28
 70
     1
102
RTVSPost2010Prop29
280
     1
102
RTVSPost2010PropOp29
 70
     1
102
RTVSPost2010Prop30
280
     1
102
RTVSPost2010PropOp30
 70
     1
102
RTVSPost2010Prop31
280
     0
102
RTVSPost2010PropOp31
 70
     1
102
RTVSPost2010Prop32
280
     0
102
RTVSPost2010PropOp32
 70
     1
102
RTVSPost2010Prop33
280
     0
102
RTVSPost2010PropOp33
 70
     1
102
RTVSPost2010Prop34
280
     0
102
RTVSPost2010PropOp34
 70
     1
102
RTVSPost2010Prop35
280
     0
102
RTVSPost2010PropOp35
 70
     1
102
RTVSPost2010Prop36
280
     0
102
RTVSPost2010PropOp36
 70
     1
102
RTVSPost2010Prop37
 90
       50
102
RTVSPost2010PropOp37
 70
     1
102
RTVSPost2010Prop38
140
0.0
102
RTVSPost2010PropOp38
 70
     1
102
RTVSPost2010Prop39
140
1.0
102
RTVSPost2010PropOp39
 70
     1
102
RTVSPost2010Prop40
 90
        0
102
RTVSPost2010PropOp40
 70
     1
102
RTVSPost2010Prop41ColorIndex
 90
       18
102
RTVSPost2010Prop41ColorRGB
 90
        0
102
RTVSPost2010PropOp41
 70
     1
102
RTVSPost2010Prop42
 90
       50
102
RTVSPost2010PropOp42
 70
     1
102
RTVSPost2010Prop43
 90
        3
102
RTVSPost2010PropOp43
 70
     1
102
RTVSPost2010Prop44ColorIndex
 90
        5
102
RTVSPost2010Prop44ColorRGB
 90
      255
102
RTVSPost2010PropOp44
 70
     1
102
RTVSPost2010Prop45
280
     0
102
RTVSPost2010PropOp45
 70
     1
102
RTVSPost2010Prop46
 90
       50
102
RTVSPost2010PropOp46
 70
     1
102
RTVSPost2010Prop47
 90
       50
102
RTVSPost2010PropOp47
 70
     1
102
RTVSPost2010Prop48
 90
       50
102
RTVSPost2010PropOp48
 70
     1
102
RTVSPost2010Prop49
280
     0
102
RTVSPost2010PropOp49
 70
     1
102
RTVSPost2010Prop50
 90
       50
102
RTVSPost2010PropOp50
 70
     1
102
RTVSPost2010Prop51ColorIndex
 90
      256
102
RTVSPost2010Prop51ColorRGB
 90
-16777216
102
RTVSPost2010PropOp51
 70
     0
102
RTVSPost2010Prop52
140
1.0
102
RTVSPost2010PropOp52
 70
     0
102
RTVSPost2010Prop53
 90
        2
102
RTVSPost2010PropOp53
 70
     1
102
RTVSPost2010Prop54
  1
strokes_ogs.tif
102
RTVSPost2010PropOp54
 70
     1
102
RTVSPost2010Prop55
280
     0
102
RTVSPost2010PropOp55
 70
     1
102
RTVSPost2010Prop56
140
1.0
102
RTVSPost2010PropOp56
 70
     1
102
RTVSPost2010Prop57
140
1.0
102
RTVSPost2010PropOp57
 70
     1
  0
XRECORD
  5
47A
102
{ACAD_REACTORS
330
479
102
}
330
479
100
AcDbXrecord
280
     1
102
RTVSPropertyOp0
 70
     1
102
RTVSPropertyOp1
 70
     1
102
RTVSPropertyOp2
 70
     1
102
RTVSPropertyOp3
 70
     1
102
RTVSPropertyOp4
 70
     1
102
RTVSPropertyOp5
 70
     1
102
RTVSPropertyOp6
 70
     1
102
RTVSPropertyOp7
 70
     1
102
RTVSPropertyOp8
 70
     1
102
RTVSPropertyOp9
 70
     1
102
RTVSPropertyOp10
 70
     1
102
RTVSPropertyOp11
 70
     1
102
RTVSPropertyOp12
 70
     1
102
RTVSPropertyOp13
 70
     1
102
RTVSPropertyOp14
 70
     1
102
RTVSPropertyOp15
 70
     1
102
RTVSPropertyOp16
 70
     1
102
RTVSPropertyOp17
 70
     1
102
RTVSPropertyOp18
 70
     1
102
RTVSPropertyOp19
 70
     1
102
RTVSPropertyOp20
 70
     1
102
RTVSPropertyOp21
 70
     1
102
RTVSPropertyOp22
 70
     1
102
RTVSPropertyOp23
 70
     1
102
RTVSPropertyOp24
 70
     1
102
RTVSPropertyOp25
 70
     1
102
RTVSPropertyOp26
 70
     1
102
RTVSPropertyOp27
 70
     1
102
RTVSPropertyOp28
 70
     1
102
RTVSPropertyOp29
 70
     1
102
RTVSPropertyOp30
 70
     1
102
RTVSPropertyOp31
 70
     1
102
RTVSPropertyOp32
 70
     1
102
RTVSPropertyOp33
 70
     1
102
RTVSPropertyOp34
 70
     1
102
RTVSPropertyOp35
 70
     1
102
RTVSPropertyOp36
 70
     1
102
RTVSPropertyOp37
 70
     1
102
RTVSPropertyOp38
 70
     1
102
RTVSPropertyOp39
 70
     1
102
RTVSPropertyOp40
 70
     1
102
RTVSPropertyOp41
 70
     1
102
RTVSPropertyOp42
 70
     1
102
RTVSPropertyOp43
 70
     1
102
RTVSPropertyOp44
 70
     1
102
RTVSPropertyOp45
 70
     1
102
RTVSPropertyOp46
 70
     1
102
RTVSPropertyOp47
 70
     1
102
RTVSPropertyOp48
 70
     1
102
RTVSPropertyOp49
 70
     1
102
RTVSPropertyOp50
 70
     1
102
RTVSPropertyOp51
 70
     0
102
RTVSPropertyOp52
 70
     0
102
RTVSPropertyOp53
 70
     1
102
RTVSPropertyOp54
 70
     1
102
RTVSPropertyOp55
 70
     1
102
RTVSPropertyOp56
 70
     1
102
RTVSPropertyOp57
 70
     1
102
RTVSPost2010Prop28
280
     0
102
RTVSPost2010PropOp28
 70
     1
102
RTVSPost2010Prop29
280
     1
102
RTVSPost2010PropOp29
 70
     1
102
RTVSPost2010Prop30
280
     1
102
RTVSPost2010PropOp30
 70
     1
102
RTVSPost2010Prop31
280
     0
102
RTVSPost2010PropOp31
 70
     1
102
RTVSPost2010Prop32
280
     0
102
RTVSPost2010PropOp32
 70
     1
102
RTVSPost2010Prop33
280
     0
102
RTVSPost2010PropOp33
 70
     1
102
RTVSPost2010Prop34
280
     0
102
RTVSPost2010PropOp34
 70
     1
102
RTVSPost2010Prop35
280
     0
102
RTVSPost2010PropOp35
 70
     1
102
RTVSPost2010Prop36
280
     0
102
RTVSPost2010PropOp36
 70
     1
102
RTVSPost2010Prop37
 90
       50
102
RTVSPost2010PropOp37
 70
     1
102
RTVSPost2010Prop38
140
0.0
102
RTVSPost2010PropOp38
 70
     1
102
RTVSPost2010Prop39
140
1.0
102
RTVSPost2010PropOp39
 70
     1
102
RTVSPost2010Prop40
 90
        0
102
RTVSPost2010PropOp40
 70
     1
102
RTVSPost2010Prop41ColorIndex
 90
       18
102
RTVSPost2010Prop41ColorRGB
 90
        0
102
RTVSPost2010PropOp41
 70
     1
102
RTVSPost2010Prop42
 90
       50
102
RTVSPost2010PropOp42
 70
     1
102
RTVSPost2010Prop43
 90
        3
102
RTVSPost2010PropOp43
 70
     1
102
RTVSPost2010Prop44ColorIndex
 90
        5
102
RTVSPost2010Prop44ColorRGB
 90
      255
102
RTVSPost2010PropOp44
 70
     1
102
RTVSPost2010Prop45
280
     0
102
RTVSPost2010PropOp45
 70
     1
102
RTVSPost2010Prop46
 90
       50
102
RTVSPost2010PropOp46
 70
     1
102
RTVSPost2010Prop47
 90
       50
102
RTVSPost2010PropOp47
 70
     1
102
RTVSPost2010Prop48
 90
       50
102
RTVSPost2010PropOp48
 70
     1
102
RTVSPost2010Prop49
280
     0
102
RTVSPost2010PropOp49
 70
     1
102
RTVSPost2010Prop50
 90
       50
102
RTVSPost2010PropOp50
 70
     1
102
RTVSPost2010Prop51ColorIndex
 90
      256
102
RTVSPost2010Prop51ColorRGB
 90
-16777216
102
RTVSPost2010PropOp51
 70
     0
102
RTVSPost2010Prop52
140
1.0
102
RTVSPost2010PropOp52
 70
     0
102
RTVSPost2010Prop53
 90
        2
102
RTVSPost2010PropOp53
 70
     1
102
RTVSPost2010Prop54
  1
strokes_ogs.tif
102
RTVSPost2010PropOp54
 70
     1
102
RTVSPost2010Prop55
280
     0
102
RTVSPost2010PropOp55
 70
     1
102
RTVSPost2010Prop56
140
1.0
102
RTVSPost2010PropOp56
 70
     1
102
RTVSPost2010Prop57
140
1.0
102
RTVSPost2010PropOp57
 70
     1
  0
XRECORD
  5
474
102
{ACAD_REACTORS
330
473
102
}
330
473
100
AcDbXrecord
280
     1
102
RTVSPropertyOp0
 70
     1
102
RTVSPropertyOp1
 70
     1
102
RTVSPropertyOp2
 70
     1
102
RTVSPropertyOp3
 70
     1
102
RTVSPropertyOp4
 70
     1
102
RTVSPropertyOp5
 70
     1
102
RTVSPropertyOp6
 70
     1
102
RTVSPropertyOp7
 70
     1
102
RTVSPropertyOp8
 70
     1
102
RTVSPropertyOp9
 70
     1
102
RTVSPropertyOp10
 70
     1
102
RTVSPropertyOp11
 70
     1
102
RTVSPropertyOp12
 70
     1
102
RTVSPropertyOp13
 70
     1
102
RTVSPropertyOp14
 70
     1
102
RTVSPropertyOp15
 70
     1
102
RTVSPropertyOp16
 70
     1
102
RTVSPropertyOp17
 70
     1
102
RTVSPropertyOp18
 70
     1
102
RTVSPropertyOp19
 70
     1
102
RTVSPropertyOp20
 70
     1
102
RTVSPropertyOp21
 70
     1
102
RTVSPropertyOp22
 70
     1
102
RTVSPropertyOp23
 70
     1
102
RTVSPropertyOp24
 70
     1
102
RTVSPropertyOp25
 70
     1
102
RTVSPropertyOp26
 70
     1
102
RTVSPropertyOp27
 70
     1
102
RTVSPropertyOp28
 70
     1
102
RTVSPropertyOp29
 70
     1
102
RTVSPropertyOp30
 70
     1
102
RTVSPropertyOp31
 70
     1
102
RTVSPropertyOp32
 70
     1
102
RTVSPropertyOp33
 70
     1
102
RTVSPropertyOp34
 70
     1
102
RTVSPropertyOp35
 70
     1
102
RTVSPropertyOp36
 70
     1
102
RTVSPropertyOp37
 70
     1
102
RTVSPropertyOp38
 70
     1
102
RTVSPropertyOp39
 70
     1
102
RTVSPropertyOp40
 70
     1
102
RTVSPropertyOp41
 70
     1
102
RTVSPropertyOp42
 70
     1
102
RTVSPropertyOp43
 70
     1
102
RTVSPropertyOp44
 70
     1
102
RTVSPropertyOp45
 70
     1
102
RTVSPropertyOp46
 70
     1
102
RTVSPropertyOp47
 70
     1
102
RTVSPropertyOp48
 70
     1
102
RTVSPropertyOp49
 70
     1
102
RTVSPropertyOp50
 70
     1
102
RTVSPropertyOp51
 70
     0
102
RTVSPropertyOp52
 70
     0
102
RTVSPropertyOp53
 70
     1
102
RTVSPropertyOp54
 70
     1
102
RTVSPropertyOp55
 70
     1
102
RTVSPropertyOp56
 70
     1
102
RTVSPropertyOp57
 70
     1
102
RTVSPost2010Prop28
280
     0
102
RTVSPost2010PropOp28
 70
     1
102
RTVSPost2010Prop29
280
     1
102
RTVSPost2010PropOp29
 70
     1
102
RTVSPost2010Prop30
280
     1
102
RTVSPost2010PropOp30
 70
     1
102
RTVSPost2010Prop31
280
     0
102
RTVSPost2010PropOp31
 70
     1
102
RTVSPost2010Prop32
280
     0
102
RTVSPost2010PropOp32
 70
     1
102
RTVSPost2010Prop33
280
     0
102
RTVSPost2010PropOp33
 70
     1
102
RTVSPost2010Prop34
280
     0
102
RTVSPost2010PropOp34
 70
     1
102
RTVSPost2010Prop35
280
     0
102
RTVSPost2010PropOp35
 70
     1
102
RTVSPost2010Prop36
280
     0
102
RTVSPost2010PropOp36
 70
     1
102
RTVSPost2010Prop37
 90
       50
102
RTVSPost2010PropOp37
 70
     1
102
RTVSPost2010Prop38
140
0.0
102
RTVSPost2010PropOp38
 70
     1
102
RTVSPost2010Prop39
140
1.0
102
RTVSPost2010PropOp39
 70
     1
102
RTVSPost2010Prop40
 90
        0
102
RTVSPost2010PropOp40
 70
     1
102
RTVSPost2010Prop41ColorIndex
 90
       18
102
RTVSPost2010Prop41ColorRGB
 90
        0
102
RTVSPost2010PropOp41
 70
     1
102
RTVSPost2010Prop42
 90
       50
102
RTVSPost2010PropOp42
 70
     1
102
RTVSPost2010Prop43
 90
        3
102
RTVSPost2010PropOp43
 70
     1
102
RTVSPost2010Prop44ColorIndex
 90
        5
102
RTVSPost2010Prop44ColorRGB
 90
      255
102
RTVSPost2010PropOp44
 70
     1
102
RTVSPost2010Prop45
280
     0
102
RTVSPost2010PropOp45
 70
     1
102
RTVSPost2010Prop46
 90
       50
102
RTVSPost2010PropOp46
 70
     1
102
RTVSPost2010Prop47
 90
       50
102
RTVSPost2010PropOp47
 70
     1
102
RTVSPost2010Prop48
 90
       50
102
RTVSPost2010PropOp48
 70
     1
102
RTVSPost2010Prop49
280
     0
102
RTVSPost2010PropOp49
 70
     1
102
RTVSPost2010Prop50
 90
       50
102
RTVSPost2010PropOp50
 70
     1
102
RTVSPost2010Prop51ColorIndex
 90
      256
102
RTVSPost2010Prop51ColorRGB
 90
-16777216
102
RTVSPost2010PropOp51
 70
     0
102
RTVSPost2010Prop52
140
1.0
102
RTVSPost2010PropOp52
 70
     0
102
RTVSPost2010Prop53
 90
        2
102
RTVSPost2010PropOp53
 70
     1
102
RTVSPost2010Prop54
  1
strokes_ogs.tif
102
RTVSPost2010PropOp54
 70
     1
102
RTVSPost2010Prop55
280
     0
102
RTVSPost2010PropOp55
 70
     1
102
RTVSPost2010Prop56
140
1.0
102
RTVSPost2010PropOp56
 70
     1
102
RTVSPost2010Prop57
140
1.0
102
RTVSPost2010PropOp57
 70
     1
  0
XRECORD
  5
476
102
{ACAD_REACTORS
330
475
102
}
330
475
100
AcDbXrecord
280
     1
102
RTVSPropertyOp0
 70
     1
102
RTVSPropertyOp1
 70
     1
102
RTVSPropertyOp2
 70
     1
102
RTVSPropertyOp3
 70
     1
102
RTVSPropertyOp4
 70
     1
102
RTVSPropertyOp5
 70
     1
102
RTVSPropertyOp6
 70
     1
102
RTVSPropertyOp7
 70
     1
102
RTVSPropertyOp8
 70
     1
102
RTVSPropertyOp9
 70
     1
102
RTVSPropertyOp10
 70
     1
102
RTVSPropertyOp11
 70
     1
102
RTVSPropertyOp12
 70
     1
102
RTVSPropertyOp13
 70
     1
102
RTVSPropertyOp14
 70
     1
102
RTVSPropertyOp15
 70
     1
102
RTVSPropertyOp16
 70
     1
102
RTVSPropertyOp17
 70
     1
102
RTVSPropertyOp18
 70
     1
102
RTVSPropertyOp19
 70
     1
102
RTVSPropertyOp20
 70
     1
102
RTVSPropertyOp21
 70
     1
102
RTVSPropertyOp22
 70
     1
102
RTVSPropertyOp23
 70
     1
102
RTVSPropertyOp24
 70
     1
102
RTVSPropertyOp25
 70
     1
102
RTVSPropertyOp26
 70
     1
102
RTVSPropertyOp27
 70
     1
102
RTVSPropertyOp28
 70
     1
102
RTVSPropertyOp29
 70
     1
102
RTVSPropertyOp30
 70
     1
102
RTVSPropertyOp31
 70
     1
102
RTVSPropertyOp32
 70
     1
102
RTVSPropertyOp33
 70
     1
102
RTVSPropertyOp34
 70
     1
102
RTVSPropertyOp35
 70
     1
102
RTVSPropertyOp36
 70
     1
102
RTVSPropertyOp37
 70
     1
102
RTVSPropertyOp38
 70
     1
102
RTVSPropertyOp39
 70
     1
102
RTVSPropertyOp40
 70
     1
102
RTVSPropertyOp41
 70
     1
102
RTVSPropertyOp42
 70
     1
102
RTVSPropertyOp43
 70
     1
102
RTVSPropertyOp44
 70
     1
102
RTVSPropertyOp45
 70
     1
102
RTVSPropertyOp46
 70
     1
102
RTVSPropertyOp47
 70
     1
102
RTVSPropertyOp48
 70
     1
102
RTVSPropertyOp49
 70
     1
102
RTVSPropertyOp50
 70
     1
102
RTVSPropertyOp51
 70
     0
102
RTVSPropertyOp52
 70
     0
102
RTVSPropertyOp53
 70
     1
102
RTVSPropertyOp54
 70
     1
102
RTVSPropertyOp55
 70
     1
102
RTVSPropertyOp56
 70
     1
102
RTVSPropertyOp57
 70
     1
102
RTVSPost2010Prop28
280
     0
102
RTVSPost2010PropOp28
 70
     1
102
RTVSPost2010Prop29
280
     1
102
RTVSPost2010PropOp29
 70
     1
102
RTVSPost2010Prop30
280
     1
102
RTVSPost2010PropOp30
 70
     1
102
RTVSPost2010Prop31
280
     0
102
RTVSPost2010PropOp31
 70
     1
102
RTVSPost2010Prop32
280
     0
102
RTVSPost2010PropOp32
 70
     1
102
RTVSPost2010Prop33
280
     0
102
RTVSPost2010PropOp33
 70
     1
102
RTVSPost2010Prop34
280
     0
102
RTVSPost2010PropOp34
 70
     1
102
RTVSPost2010Prop35
280
     0
102
RTVSPost2010PropOp35
 70
     1
102
RTVSPost2010Prop36
280
     0
102
RTVSPost2010PropOp36
 70
     1
102
RTVSPost2010Prop37
 90
       50
102
RTVSPost2010PropOp37
 70
     1
102
RTVSPost2010Prop38
140
0.0
102
RTVSPost2010PropOp38
 70
     1
102
RTVSPost2010Prop39
140
1.0
102
RTVSPost2010PropOp39
 70
     1
102
RTVSPost2010Prop40
 90
        0
102
RTVSPost2010PropOp40
 70
     1
102
RTVSPost2010Prop41ColorIndex
 90
       18
102
RTVSPost2010Prop41ColorRGB
 90
        0
102
RTVSPost2010PropOp41
 70
     1
102
RTVSPost2010Prop42
 90
       50
102
RTVSPost2010PropOp42
 70
     1
102
RTVSPost2010Prop43
 90
        3
102
RTVSPost2010PropOp43
 70
     1
102
RTVSPost2010Prop44ColorIndex
 90
        5
102
RTVSPost2010Prop44ColorRGB
 90
      255
102
RTVSPost2010PropOp44
 70
     1
102
RTVSPost2010Prop45
280
     0
102
RTVSPost2010PropOp45
 70
     1
102
RTVSPost2010Prop46
 90
       50
102
RTVSPost2010PropOp46
 70
     1
102
RTVSPost2010Prop47
 90
       50
102
RTVSPost2010PropOp47
 70
     1
102
RTVSPost2010Prop48
 90
       50
102
RTVSPost2010PropOp48
 70
     1
102
RTVSPost2010Prop49
280
     0
102
RTVSPost2010PropOp49
 70
     1
102
RTVSPost2010Prop50
 90
       50
102
RTVSPost2010PropOp50
 70
     1
102
RTVSPost2010Prop51ColorIndex
 90
      256
102
RTVSPost2010Prop51ColorRGB
 90
-16777216
102
RTVSPost2010PropOp51
 70
     0
102
RTVSPost2010Prop52
140
1.0
102
RTVSPost2010PropOp52
 70
     0
102
RTVSPost2010Prop53
 90
        2
102
RTVSPost2010PropOp53
 70
     1
102
RTVSPost2010Prop54
  1
strokes_ogs.tif
102
RTVSPost2010PropOp54
 70
     1
102
RTVSPost2010Prop55
280
     0
102
RTVSPost2010PropOp55
 70
     1
102
RTVSPost2010Prop56
140
1.0
102
RTVSPost2010PropOp56
 70
     1
102
RTVSPost2010Prop57
140
1.0
102
RTVSPost2010PropOp57
 70
     1
  0
XRECORD
  5
466
102
{ACAD_REACTORS
330
465
102
}
330
465
100
AcDbXrecord
280
     1
102
RTVSPropertyOp0
 70
     1
102
RTVSPropertyOp1
 70
     1
102
RTVSPropertyOp2
 70
     1
102
RTVSPropertyOp3
 70
     1
102
RTVSPropertyOp4
 70
     1
102
RTVSPropertyOp5
 70
     1
102
RTVSPropertyOp6
 70
     1
102
RTVSPropertyOp7
 70
     1
102
RTVSPropertyOp8
 70
     1
102
RTVSPropertyOp9
 70
     1
102
RTVSPropertyOp10
 70
     1
102
RTVSPropertyOp11
 70
     1
102
RTVSPropertyOp12
 70
     1
102
RTVSPropertyOp13
 70
     1
102
RTVSPropertyOp14
 70
     1
102
RTVSPropertyOp15
 70
     1
102
RTVSPropertyOp16
 70
     1
102
RTVSPropertyOp17
 70
     1
102
RTVSPropertyOp18
 70
     1
102
RTVSPropertyOp19
 70
     1
102
RTVSPropertyOp20
 70
     1
102
RTVSPropertyOp21
 70
     1
102
RTVSPropertyOp22
 70
     1
102
RTVSPropertyOp23
 70
     1
102
RTVSPropertyOp24
 70
     1
102
RTVSPropertyOp25
 70
     1
102
RTVSPropertyOp26
 70
     1
102
RTVSPropertyOp27
 70
     1
102
RTVSPropertyOp28
 70
     1
102
RTVSPropertyOp29
 70
     1
102
RTVSPropertyOp30
 70
     1
102
RTVSPropertyOp31
 70
     1
102
RTVSPropertyOp32
 70
     1
102
RTVSPropertyOp33
 70
     1
102
RTVSPropertyOp34
 70
     1
102
RTVSPropertyOp35
 70
     1
102
RTVSPropertyOp36
 70
     1
102
RTVSPropertyOp37
 70
     1
102
RTVSPropertyOp38
 70
     1
102
RTVSPropertyOp39
 70
     1
102
RTVSPropertyOp40
 70
     1
102
RTVSPropertyOp41
 70
     1
102
RTVSPropertyOp42
 70
     1
102
RTVSPropertyOp43
 70
     1
102
RTVSPropertyOp44
 70
     1
102
RTVSPropertyOp45
 70
     1
102
RTVSPropertyOp46
 70
     1
102
RTVSPropertyOp47
 70
     1
102
RTVSPropertyOp48
 70
     1
102
RTVSPropertyOp49
 70
     1
102
RTVSPropertyOp50
 70
     1
102
RTVSPropertyOp51
 70
     0
102
RTVSPropertyOp52
 70
     0
102
RTVSPropertyOp53
 70
     1
102
RTVSPropertyOp54
 70
     1
102
RTVSPropertyOp55
 70
     1
102
RTVSPropertyOp56
 70
     1
102
RTVSPropertyOp57
 70
     1
102
RTVSPost2010Prop28
280
     0
102
RTVSPost2010PropOp28
 70
     1
102
RTVSPost2010Prop29
280
     1
102
RTVSPost2010PropOp29
 70
     1
102
RTVSPost2010Prop30
280
     1
102
RTVSPost2010PropOp30
 70
     1
102
RTVSPost2010Prop31
280
     0
102
RTVSPost2010PropOp31
 70
     1
102
RTVSPost2010Prop32
280
     0
102
RTVSPost2010PropOp32
 70
     1
102
RTVSPost2010Prop33
280
     0
102
RTVSPost2010PropOp33
 70
     1
102
RTVSPost2010Prop34
280
     0
102
RTVSPost2010PropOp34
 70
     1
102
RTVSPost2010Prop35
280
     0
102
RTVSPost2010PropOp35
 70
     1
102
RTVSPost2010Prop36
280
     0
102
RTVSPost2010PropOp36
 70
     1
102
RTVSPost2010Prop37
 90
       50
102
RTVSPost2010PropOp37
 70
     1
102
RTVSPost2010Prop38
140
0.0
102
RTVSPost2010PropOp38
 70
     1
102
RTVSPost2010Prop39
140
1.0
102
RTVSPost2010PropOp39
 70
     1
102
RTVSPost2010Prop40
 90
        0
102
RTVSPost2010PropOp40
 70
     1
102
RTVSPost2010Prop41ColorIndex
 90
       18
102
RTVSPost2010Prop41ColorRGB
 90
        0
102
RTVSPost2010PropOp41
 70
     1
102
RTVSPost2010Prop42
 90
       50
102
RTVSPost2010PropOp42
 70
     1
102
RTVSPost2010Prop43
 90
        3
102
RTVSPost2010PropOp43
 70
     1
102
RTVSPost2010Prop44ColorIndex
 90
        5
102
RTVSPost2010Prop44ColorRGB
 90
      255
102
RTVSPost2010PropOp44
 70
     1
102
RTVSPost2010Prop45
280
     0
102
RTVSPost2010PropOp45
 70
     1
102
RTVSPost2010Prop46
 90
       50
102
RTVSPost2010PropOp46
 70
     1
102
RTVSPost2010Prop47
 90
       50
102
RTVSPost2010PropOp47
 70
     1
102
RTVSPost2010Prop48
 90
       50
102
RTVSPost2010PropOp48
 70
     1
102
RTVSPost2010Prop49
280
     0
102
RTVSPost2010PropOp49
 70
     1
102
RTVSPost2010Prop50
 90
       50
102
RTVSPost2010PropOp50
 70
     1
102
RTVSPost2010Prop51ColorIndex
 90
      256
102
RTVSPost2010Prop51ColorRGB
 90
-16777216
102
RTVSPost2010PropOp51
 70
     0
102
RTVSPost2010Prop52
140
1.0
102
RTVSPost2010PropOp52
 70
     0
102
RTVSPost2010Prop53
 90
        2
102
RTVSPost2010PropOp53
 70
     1
102
RTVSPost2010Prop54
  1
strokes_ogs.tif
102
RTVSPost2010PropOp54
 70
     1
102
RTVSPost2010Prop55
280
     0
102
RTVSPost2010PropOp55
 70
     1
102
RTVSPost2010Prop56
140
1.0
102
RTVSPost2010PropOp56
 70
     1
102
RTVSPost2010Prop57
140
1.0
102
RTVSPost2010PropOp57
 70
     1
  0
XRECORD
  5
458
102
{ACAD_REACTORS
330
457
102
}
330
457
100
AcDbXrecord
280
     1
102
RTVSPropertyOp0
 70
     1
102
RTVSPropertyOp1
 70
     1
102
RTVSPropertyOp2
 70
     1
102
RTVSPropertyOp3
 70
     1
102
RTVSPropertyOp4
 70
     1
102
RTVSPropertyOp5
 70
     1
102
RTVSPropertyOp6
 70
     1
102
RTVSPropertyOp7
 70
     1
102
RTVSPropertyOp8
 70
     1
102
RTVSPropertyOp9
 70
     1
102
RTVSPropertyOp10
 70
     1
102
RTVSPropertyOp11
 70
     1
102
RTVSPropertyOp12
 70
     1
102
RTVSPropertyOp13
 70
     1
102
RTVSPropertyOp14
 70
     1
102
RTVSPropertyOp15
 70
     1
102
RTVSPropertyOp16
 70
     1
102
RTVSPropertyOp17
 70
     1
102
RTVSPropertyOp18
 70
     1
102
RTVSPropertyOp19
 70
     1
102
RTVSPropertyOp20
 70
     1
102
RTVSPropertyOp21
 70
     1
102
RTVSPropertyOp22
 70
     1
102
RTVSPropertyOp23
 70
     1
102
RTVSPropertyOp24
 70
     1
102
RTVSPropertyOp25
 70
     1
102
RTVSPropertyOp26
 70
     1
102
RTVSPropertyOp27
 70
     1
102
RTVSPropertyOp28
 70
     1
102
RTVSPropertyOp29
 70
     1
102
RTVSPropertyOp30
 70
     1
102
RTVSPropertyOp31
 70
     1
102
RTVSPropertyOp32
 70
     1
102
RTVSPropertyOp33
 70
     1
102
RTVSPropertyOp34
 70
     1
102
RTVSPropertyOp35
 70
     1
102
RTVSPropertyOp36
 70
     1
102
RTVSPropertyOp37
 70
     1
102
RTVSPropertyOp38
 70
     1
102
RTVSPropertyOp39
 70
     1
102
RTVSPropertyOp40
 70
     1
102
RTVSPropertyOp41
 70
     1
102
RTVSPropertyOp42
 70
     1
102
RTVSPropertyOp43
 70
     1
102
RTVSPropertyOp44
 70
     1
102
RTVSPropertyOp45
 70
     1
102
RTVSPropertyOp46
 70
     1
102
RTVSPropertyOp47
 70
     1
102
RTVSPropertyOp48
 70
     1
102
RTVSPropertyOp49
 70
     1
102
RTVSPropertyOp50
 70
     1
102
RTVSPropertyOp51
 70
     0
102
RTVSPropertyOp52
 70
     0
102
RTVSPropertyOp53
 70
     1
102
RTVSPropertyOp54
 70
     1
102
RTVSPropertyOp55
 70
     1
102
RTVSPropertyOp56
 70
     1
102
RTVSPropertyOp57
 70
     1
102
RTVSPost2010Prop28
280
     0
102
RTVSPost2010PropOp28
 70
     1
102
RTVSPost2010Prop29
280
     1
102
RTVSPost2010PropOp29
 70
     1
102
RTVSPost2010Prop30
280
     1
102
RTVSPost2010PropOp30
 70
     1
102
RTVSPost2010Prop31
280
     0
102
RTVSPost2010PropOp31
 70
     1
102
RTVSPost2010Prop32
280
     0
102
RTVSPost2010PropOp32
 70
     1
102
RTVSPost2010Prop33
280
     0
102
RTVSPost2010PropOp33
 70
     1
102
RTVSPost2010Prop34
280
     0
102
RTVSPost2010PropOp34
 70
     1
102
RTVSPost2010Prop35
280
     0
102
RTVSPost2010PropOp35
 70
     1
102
RTVSPost2010Prop36
280
     0
102
RTVSPost2010PropOp36
 70
     1
102
RTVSPost2010Prop37
 90
       50
102
RTVSPost2010PropOp37
 70
     1
102
RTVSPost2010Prop38
140
0.0
102
RTVSPost2010PropOp38
 70
     1
102
RTVSPost2010Prop39
140
1.0
102
RTVSPost2010PropOp39
 70
     1
102
RTVSPost2010Prop40
 90
        0
102
RTVSPost2010PropOp40
 70
     1
102
RTVSPost2010Prop41ColorIndex
 90
       18
102
RTVSPost2010Prop41ColorRGB
 90
        0
102
RTVSPost2010PropOp41
 70
     1
102
RTVSPost2010Prop42
 90
       50
102
RTVSPost2010PropOp42
 70
     1
102
RTVSPost2010Prop43
 90
        3
102
RTVSPost2010PropOp43
 70
     1
102
RTVSPost2010Prop44ColorIndex
 90
        5
102
RTVSPost2010Prop44ColorRGB
 90
      255
102
RTVSPost2010PropOp44
 70
     1
102
RTVSPost2010Prop45
280
     0
102
RTVSPost2010PropOp45
 70
     1
102
RTVSPost2010Prop46
 90
       50
102
RTVSPost2010PropOp46
 70
     1
102
RTVSPost2010Prop47
 90
       50
102
RTVSPost2010PropOp47
 70
     1
102
RTVSPost2010Prop48
 90
       50
102
RTVSPost2010PropOp48
 70
     1
102
RTVSPost2010Prop49
280
     0
102
RTVSPost2010PropOp49
 70
     1
102
RTVSPost2010Prop50
 90
       50
102
RTVSPost2010PropOp50
 70
     1
102
RTVSPost2010Prop51ColorIndex
 90
      256
102
RTVSPost2010Prop51ColorRGB
 90
-16777216
102
RTVSPost2010PropOp51
 70
     0
102
RTVSPost2010Prop52
140
1.0
102
RTVSPost2010PropOp52
 70
     0
102
RTVSPost2010Prop53
 90
        2
102
RTVSPost2010PropOp53
 70
     1
102
RTVSPost2010Prop54
  1
strokes_ogs.tif
102
RTVSPost2010PropOp54
 70
     1
102
RTVSPost2010Prop55
280
     0
102
RTVSPost2010PropOp55
 70
     1
102
RTVSPost2010Prop56
140
1.0
102
RTVSPost2010PropOp56
 70
     1
102
RTVSPost2010Prop57
140
1.0
102
RTVSPost2010PropOp57
 70
     1
  0
XRECORD
  5
478
102
{ACAD_REACTORS
330
477
102
}
330
477
100
AcDbXrecord
280
     1
102
RTVSPropertyOp0
 70
     1
102
RTVSPropertyOp1
 70
     1
102
RTVSPropertyOp2
 70
     1
102
RTVSPropertyOp3
 70
     1
102
RTVSPropertyOp4
 70
     1
102
RTVSPropertyOp5
 70
     1
102
RTVSPropertyOp6
 70
     1
102
RTVSPropertyOp7
 70
     1
102
RTVSPropertyOp8
 70
     1
102
RTVSPropertyOp9
 70
     1
102
RTVSPropertyOp10
 70
     1
102
RTVSPropertyOp11
 70
     1
102
RTVSPropertyOp12
 70
     1
102
RTVSPropertyOp13
 70
     1
102
RTVSPropertyOp14
 70
     1
102
RTVSPropertyOp15
 70
     1
102
RTVSPropertyOp16
 70
     1
102
RTVSPropertyOp17
 70
     1
102
RTVSPropertyOp18
 70
     1
102
RTVSPropertyOp19
 70
     1
102
RTVSPropertyOp20
 70
     1
102
RTVSPropertyOp21
 70
     1
102
RTVSPropertyOp22
 70
     1
102
RTVSPropertyOp23
 70
     1
102
RTVSPropertyOp24
 70
     1
102
RTVSPropertyOp25
 70
     1
102
RTVSPropertyOp26
 70
     1
102
RTVSPropertyOp27
 70
     1
102
RTVSPropertyOp28
 70
     1
102
RTVSPropertyOp29
 70
     1
102
RTVSPropertyOp30
 70
     1
102
RTVSPropertyOp31
 70
     1
102
RTVSPropertyOp32
 70
     1
102
RTVSPropertyOp33
 70
     1
102
RTVSPropertyOp34
 70
     1
102
RTVSPropertyOp35
 70
     1
102
RTVSPropertyOp36
 70
     1
102
RTVSPropertyOp37
 70
     1
102
RTVSPropertyOp38
 70
     1
102
RTVSPropertyOp39
 70
     1
102
RTVSPropertyOp40
 70
     1
102
RTVSPropertyOp41
 70
     1
102
RTVSPropertyOp42
 70
     1
102
RTVSPropertyOp43
 70
     1
102
RTVSPropertyOp44
 70
     1
102
RTVSPropertyOp45
 70
     1
102
RTVSPropertyOp46
 70
     1
102
RTVSPropertyOp47
 70
     1
102
RTVSPropertyOp48
 70
     1
102
RTVSPropertyOp49
 70
     1
102
RTVSPropertyOp50
 70
     1
102
RTVSPropertyOp51
 70
     0
102
RTVSPropertyOp52
 70
     0
102
RTVSPropertyOp53
 70
     1
102
RTVSPropertyOp54
 70
     1
102
RTVSPropertyOp55
 70
     1
102
RTVSPropertyOp56
 70
     1
102
RTVSPropertyOp57
 70
     1
102
RTVSPost2010Prop28
280
     0
102
RTVSPost2010PropOp28
 70
     1
102
RTVSPost2010Prop29
280
     1
102
RTVSPost2010PropOp29
 70
     1
102
RTVSPost2010Prop30
280
     1
102
RTVSPost2010PropOp30
 70
     1
102
RTVSPost2010Prop31
280
     0
102
RTVSPost2010PropOp31
 70
     1
102
RTVSPost2010Prop32
280
     0
102
RTVSPost2010PropOp32
 70
     1
102
RTVSPost2010Prop33
280
     0
102
RTVSPost2010PropOp33
 70
     1
102
RTVSPost2010Prop34
280
     0
102
RTVSPost2010PropOp34
 70
     1
102
RTVSPost2010Prop35
280
     0
102
RTVSPost2010PropOp35
 70
     1
102
RTVSPost2010Prop36
280
     0
102
RTVSPost2010PropOp36
 70
     1
102
RTVSPost2010Prop37
 90
       50
102
RTVSPost2010PropOp37
 70
     1
102
RTVSPost2010Prop38
140
0.0
102
RTVSPost2010PropOp38
 70
     1
102
RTVSPost2010Prop39
140
1.0
102
RTVSPost2010PropOp39
 70
     1
102
RTVSPost2010Prop40
 90
        0
102
RTVSPost2010PropOp40
 70
     1
102
RTVSPost2010Prop41ColorIndex
 90
       18
102
RTVSPost2010Prop41ColorRGB
 90
        0
102
RTVSPost2010PropOp41
 70
     1
102
RTVSPost2010Prop42
 90
       50
102
RTVSPost2010PropOp42
 70
     1
102
RTVSPost2010Prop43
 90
        3
102
RTVSPost2010PropOp43
 70
     1
102
RTVSPost2010Prop44ColorIndex
 90
        5
102
RTVSPost2010Prop44ColorRGB
 90
      255
102
RTVSPost2010PropOp44
 70
     1
102
RTVSPost2010Prop45
280
     0
102
RTVSPost2010PropOp45
 70
     1
102
RTVSPost2010Prop46
 90
       50
102
RTVSPost2010PropOp46
 70
     1
102
RTVSPost2010Prop47
 90
       50
102
RTVSPost2010PropOp47
 70
     1
102
RTVSPost2010Prop48
 90
       50
102
RTVSPost2010PropOp48
 70
     1
102
RTVSPost2010Prop49
280
     0
102
RTVSPost2010PropOp49
 70
     1
102
RTVSPost2010Prop50
 90
       50
102
RTVSPost2010PropOp50
 70
     1
102
RTVSPost2010Prop51ColorIndex
 90
      256
102
RTVSPost2010Prop51ColorRGB
 90
-16777216
102
RTVSPost2010PropOp51
 70
     0
102
RTVSPost2010Prop52
140
1.0
102
RTVSPost2010PropOp52
 70
     0
102
RTVSPost2010Prop53
 90
        2
102
RTVSPost2010PropOp53
 70
     1
102
RTVSPost2010Prop54
  1
strokes_ogs.tif
102
RTVSPost2010PropOp54
 70
     1
102
RTVSPost2010Prop55
280
     0
102
RTVSPost2010PropOp55
 70
     1
102
RTVSPost2010Prop56
140
1.0
102
RTVSPost2010PropOp56
 70
     1
102
RTVSPost2010Prop57
140
1.0
102
RTVSPost2010PropOp57
 70
     1
  0
ENDSEC
  0
EOF
