  0
SECTION
  2
HEADER
  9
$ACADVER
  1
AC1014
  9
$ACADMAINTVER
 70
             0
  9
$DWGCODEPAGE
  3
ANSI_1252
  9
$INSBASE
 10
0.0
 20
0.0
 30
0.0
  9
$EXTMIN
 10
-76.50215801310083
 20
-329.56437800000049
 30
0.0
  9
$EXTMAX
 10
113.1462471964451
 20
78.87653699999999
 30
0.0
  9
$LIMMIN
 10
0.0
 20
0.0
  9
$LIMMAX
 10
0.0
 20
0.0
  9
$ORTHOMODE
 70
             0
  9
$REGENMODE
 70
             1
  9
$FILLMODE
 70
             1
  9
$QTEXTMODE
 70
             0
  9
$MIRRTEXT
 70
             1
  9
$DRAGMODE
 70
             2
  9
$LTSCALE
 40
1.0
  9
$OSMODE
 70
             0
  9
$ATTMODE
 70
             1
  9
$TEXTSIZE
 40
0.2
  9
$TRACEWID
 40
0.05
  9
$TEXTSTYLE
  7
STANDARD
  9
$CLAYER
  8
0
  9
$CELTYPE
  6
CONTINUOUS
  9
$CECOLOR
 62
           256
  9
$CELTSCALE
 40
1.0
  9
$DELOBJ
 70
             1
  9
$DISPSILH
 70
             0
  9
$DIMSCALE
 40
1.0
  9
$DIMASZ
 40
0.18
  9
$DIMEXO
 40
0.0625
  9
$DIMDLI
 40
0.38
  9
$DIMRND
 40
0.0
  9
$DIMDLE
 40
0.0
  9
$DIMEXE
 40
0.18
  9
$DIMTP
 40
0.0
  9
$DIMTM
 40
0.0
  9
$DIMTXT
 40
0.18
  9
$DIMCEN
 40
0.09
  9
$DIMTSZ
 40
0.0
  9
$DIMTOL
 70
             0
  9
$DIMLIM
 70
             0
  9
$DIMTIH
 70
             1
  9
$DIMTOH
 70
             1
  9
$DIMSE1
 70
             0
  9
$DIMSE2
 70
             0
  9
$DIMTAD
 70
             0
  9
$DIMZIN
 70
             0
  9
$DIMBLK
  1

  9
$DIMASO
 70
             1
  9
$DIMSHO
 70
             1
  9
$DIMPOST
  1

  9
$DIMAPOST
  1

  9
$DIMALT
 70
             0
  9
$DIMALTD
 70
             2
  9
$DIMALTF
 40
25.4
  9
$DIMLFAC
 40
1.0
  9
$DIMTOFL
 70
             0
  9
$DIMTVP
 40
0.0
  9
$DIMTIX
 70
             0
  9
$DIMSOXD
 70
             0
  9
$DIMSAH
 70
             0
  9
$DIMBLK1
  1

  9
$DIMBLK2
  1

  9
$DIMSTYLE
  2
STANDARD
  9
$DIMCLRD
 70
             0
  9
$DIMCLRE
 70
             0
  9
$DIMCLRT
 70
             0
  9
$DIMTFAC
 40
1.0
  9
$DIMGAP
 40
0.09
  9
$DIMJUST
 70
             0
  9
$DIMSD1
 70
             0
  9
$DIMSD2
 70
             0
  9
$DIMTOLJ
 70
             1
  9
$DIMTZIN
 70
             0
  9
$DIMALTZ
 70
             0
  9
$DIMALTTZ
 70
             0
  9
$DIMFIT
 70
             3
  9
$DIMUPT
 70
             0
  9
$DIMUNIT
 70
             2
  9
$DIMDEC
 70
             4
  9
$DIMTDEC
 70
             4
  9
$DIMALTU
 70
             2
  9
$DIMALTTD
 70
             2
  9
$DIMTXSTY
  7
STANDARD
  9
$DIMAUNIT
 70
             0
  9
$LUNITS
 70
             2
  9
$LUPREC
 70
             4
  9
$SKETCHINC
 40
0.1
  9
$FILLETRAD
 40
0.0
  9
$AUNITS
 70
             0
  9
$AUPREC
 70
             0
  9
$MENU
  1
acad
  9
$ELEVATION
 40
0.0
  9
$PELEVATION
 40
0.0
  9
$THICKNESS
 40
0.0
  9
$LIMCHECK
 70
             0
  9
$BLIPMODE
 70
             1
  9
$CHAMFERA
 40
0.0
  9
$CHAMFERB
 40
0.0
  9
$CHAMFERC
 40
0.0
  9
$CHAMFERD
 40
0.0
  9
$SKPOLY
 70
             0
  9
$TDCREATE
 40
0.000000000
  9
$TDUPDATE
 40
0.000000000
  9
$TDINDWG
 40
0.0000000000
  9
$TDUSRTIMER
 40
0.0000000000
  9
$USRTIMER
 70
             1
  9
$ANGBASE
 50
0.0
  9
$ANGDIR
 70
             0
  9
$PDMODE
 70
             0
  9
$PDSIZE
 40
0.0
  9
$PLINEWID
 40
0.0
  9
$COORDS
 70
             0
  9
$SPLFRAME
 70
             0
  9
$SPLINETYPE
 70
             6
  9
$SPLINESEGS
 70
             8
  9
$ATTDIA
 70
             0
  9
$ATTREQ
 70
             1
  9
$HANDLING
 70
             1
  9
$HANDSEED
  5
C8
  9
$SURFTAB1
 70
             6
  9
$SURFTAB2
 70
             6
  9
$SURFTYPE
 70
             6
  9
$SURFU
 70
             6
  9
$SURFV
 70
             6
  9
$UCSNAME
  2

  9
$UCSORG
 10
0.0
 20
0.0
 30
0.0
  9
$UCSXDIR
 10
1.0
 20
0.0
 30
0.0
  9
$UCSYDIR
 10
0.0
 20
1.0
 30
0.0
  9
$PUCSNAME
  2

  9
$PUCSORG
 10
0.0
 20
0.0
 30
0.0
  9
$PUCSXDIR
 10
1.0
 20
0.0
 30
0.0
  9
$PUCSYDIR
 10
0.0
 20
1.0
 30
0.0
  9
$USERI1
 70
             0
  9
$USERI2
 70
             0
  9
$USERI3
 70
             0
  9
$USERI4
 70
             0
  9
$USERI5
 70
             0
  9
$USERR1
 40
12.01
  9
$USERR2
 40
0.0
  9
$USERR3
 40
0.0
  9
$USERR4
 40
0.0
  9
$USERR5
 40
0.0
  9
$WORLDVIEW
 70
             1
  9
$SHADEDGE
 70
             3
  9
$SHADEDIF
 70
            70
  9
$TILEMODE
 70
             1
  9
$MAXACTVP
 70
            16
  9
$PINSBASE
 10
0.0
 20
0.0
 30
0.0
  9
$PLIMCHECK
 70
             0
  9
$PEXTMIN
 10
1.00000000000000E+20
 20
1.00000000000000E+20
 30
1.00000000000000E+20
  9
$PEXTMAX
 10
-1.00000000000000E+20
 20
-1.00000000000000E+20
 30
-1.00000000000000E+20
  9
$PLIMMIN
 10
0.0
 20
0.0
  9
$PLIMMAX
 10
12.0
 20
9.0
  9
$UNITMODE
 70
             0
  9
$VISRETAIN
 70
             0
  9
$PLINEGEN
 70
             1
  9
$PSLTSCALE
 70
             0
  9
$TREEDEPTH
 70
          3020
  9
$PICKSTYLE
 70
             1
  9
$CMLSTYLE
  2
STANDARD
  9
$CMLJUST
 70
             0
  9
$CMLSCALE
 40
1.0
  9
$PROXYGRAPHICS
 70
             0
  9
$MEASUREMENT
 70
             1
  0
ENDSEC
  0
SECTION
  2
CLASSES
  0
CLASS
  1
LWPOLYLINE
  2
AcDbPolyline
  3
"AutoCAD"
 90
        0
280
             0
281
             1
  0
CLASS
  1
IMAGE
  2
AcDbRasterImage
  3
ISM
 90
      127
280
             0
281
             1
  0
CLASS
  1
OLE2FRAME
  2
AcDbOle2Frame
  3
""
 90
        0
280
             0
281
             1
  0
CLASS
  1
HATCH
  2
AcDbHatch
  3
"ACAD_SEDONA"
 90
        0
280
             0
281
             1
  0
CLASS
  1
DICTIONARYVAR
  2
AcDbDictionaryVar
  3
"AutoCAD"
 90
        0
280
             0
281
             0
  0
CLASS
  1
RASTERVARIABLES
  2
AcDbRasterVariables
  3
ISM
 90
        0
280
             0
281
             0
  0
CLASS
  1
IMAGEDEF
  2
AcDbRasterImageDef
  3
ISM
 90
        0
280
             0
281
             0
  0
CLASS
  1
IMAGEDEF_REACTOR
  2
AcDbRasterImageDefReactor
  3
ISM
 90
        1
280
             0
281
             0
  0
CLASS
  1
IDBUFFER
  2
AcDbIdBuffer
  3
"Acad"
 90
        0
280
             0
281
             0
  0
CLASS
  1
SPATIAL_FILTER
  2
AcDbSpatialFilter
  3
"Acad"
 90
        0
280
             0
281
             0
  0
CLASS
  1
XRECORD
  2
AcDbXrecord
  3
"<Built In>"
 90
        0
280
             0
281
             0
  0
CLASS
  1
SORTENTSTABLE
  2
AcDbSortentsTable
  3
"AutoCAD"
 90
        0
280
             0
281
             0
  0
CLASS
  1
LAYER_INDEX
  2
AcDbLayerIndex
  3
"Acad"
 90
        0
280
             0
281
             0
  0
CLASS
  1
SPATIAL_INDEX
  2
AcDbSpatialIndex
  3
"Acad"
 90
        0
280
             0
281
             0
  0
CLASS
  1
OBJECT_PTR
  2
CAseDLPNTableRecord
  3
"ASE-LPNTableRecord"
 90
        1
280
             0
281
             0
  0
CLASS
  1
LAYOUT
  2
AcDbLayout
  3
"AutoCAD 2000"
 90
        0
280
             0
281
             0
  0
CLASS
  1
PLOTSETTINGS
  2
AcDbPlotSettings
  3
"AutoCAD 2000"
 90
        0
280
             0
281
             0
  0
CLASS
  1
ACDBDICTIONARYWDFLT
  2
AcDbDictionaryWithDefault
  3
"AutoCAD 2000"
 90
        0
280
             0
281
             0
  0
CLASS
  1
ACDBPLACEHOLDER
  2
AcDbPlaceHolder
  3
"AutoCAD 2000"
 90
        0
280
             0
281
             0
  0
ENDSEC
  0
SECTION
  2
TABLES
  0
TABLE
  2
VPORT
  5
7
100
AcDbSymbolTable
 70
             1
  0
VPORT
  5
15
100
AcDbSymbolTableRecord
100
AcDbViewportTableRecord
  2
*ACTIVE
 70
             0
 10
0.0
 20
0.0
 11
1.0
 21
1.0
 12
18.32204459167214
 22
-125.34392050000025
 13
0.0
 23
0.0
 14
1.0
 24
1.0
 15
0.0
 25
0.0
 16
0.0
 26
0.0
 36
1.0
 17
0.0
 27
0.0
 37
0.0
 40
449.28500650000058
 41
1.60267857142857
 42
50.0
 43
0.0
 44
0.0
 50
0.0
 51
0.0
 71
             0
 72
           100
 73
             1
 74
             1
 75
             0
 76
             0
 77
             0
 78
             0
  0
ENDTAB
  0
TABLE
  2
LTYPE
  5
4
100
AcDbSymbolTable
 70
            10
  0
LTYPE
  5
11
100
AcDbSymbolTableRecord
100
AcDbLinetypeTableRecord
  2
BYBLOCK
 70
            64
  3

 72
            65
 73
             0
 40
0.0
  0
LTYPE
  5
12
100
AcDbSymbolTableRecord
100
AcDbLinetypeTableRecord
  2
BYLAYER
 70
            64
  3

 72
            65
 73
             0
 40
0.0
  0
LTYPE
  5
13
100
AcDbSymbolTableRecord
100
AcDbLinetypeTableRecord
  2
CONTINUOUS
 70
            64
  3
Solid line
 72
            65
 73
             0
 40
0.0
  0
LTYPE
  5
1D
100
AcDbSymbolTableRecord
100
AcDbLinetypeTableRecord
  2
DASHED
 70
            64
  3
Dashed
 72
            65
 73
             2
 40
15.0
 49
7.0
 74
             0
 49
-8.0
 74
             0
  0
LTYPE
  5
1E
100
AcDbSymbolTableRecord
100
AcDbLinetypeTableRecord
  2
DOTTED
 70
            64
  3
Dotted
 72
            65
 73
             2
 40
1.0
 49
0.0
 74
             0
 49
-1.0
 74
             0
  0
LTYPE
  5
1F
100
AcDbSymbolTableRecord
100
AcDbLinetypeTableRecord
  2
DOT_CENTER
 70
            64
  3
Dot_Center
 72
            65
 73
             4
 40
14.0
 49
12.0
 74
             0
 49
-1.0
 74
             0
 49
0.0
 74
             0
 49
-1.0
 74
             0
  0
LTYPE
  5
20
100
AcDbSymbolTableRecord
100
AcDbLinetypeTableRecord
  2
LONG_DASHED
 70
            64
  3
Long_Dashed
 72
            65
 73
             2
 40
15.0
 49
10.0
 74
             0
 49
-5.0
 74
             0
  0
LTYPE
  5
21
100
AcDbSymbolTableRecord
100
AcDbLinetypeTableRecord
  2
DASH_CENTER
 70
            64
  3
Dash_Center
 72
            65
 73
             4
 40
14.0
 49
11.0
 74
             0
 49
-1.0
 74
             0
 49
1.0
 74
             0
 49
-1.0
 74
             0
  0
LTYPE
  5
22
100
AcDbSymbolTableRecord
100
AcDbLinetypeTableRecord
  2
PHANTOM
 70
            64
  3
Phantom
 72
            65
 73
             6
 40
13.0
 49
10.0
 74
             0
 49
-1.0
 74
             0
 49
0.0
 74
             0
 49
-1.0
 74
             0
 49
0.0
 74
             0
 49
-1.0
 74
             0
  0
LTYPE
  5
23
100
AcDbSymbolTableRecord
100
AcDbLinetypeTableRecord
  2
CENTER_DASH_DASH
 70
            64
  3
Center_Dash_Dash
 72
            65
 73
             6
 40
14.0
 49
9.0
 74
             0
 49
-1.0
 74
             0
 49
1.0
 74
             0
 49
-1.0
 74
             0
 49
1.0
 74
             0
 49
-1.0
 74
             0
  0
ENDTAB
  0
TABLE
  2
LAYER
  5
2
100
AcDbSymbolTable
 70
             5
  0
LAYER
  5
14
100
AcDbSymbolTableRecord
100
AcDbLayerTableRecord
  2
0
 70
             0
 62
             7
  6
CONTINUOUS
  0
LAYER
  5
24
100
AcDbSymbolTableRecord
100
AcDbLayerTableRecord
  2
1
 70
             0
 62
             7
  6
CONTINUOUS
  0
LAYER
  5
25
100
AcDbSymbolTableRecord
100
AcDbLayerTableRecord
  2
LC-001-002-----0
 70
             0
 62
             7
  6
CONTINUOUS
  0
LAYER
  5
26
100
AcDbSymbolTableRecord
100
AcDbLayerTableRecord
  2
LC-002-001-----0
 70
             0
 62
             7
  6
CONTINUOUS
  0
LAYER
  5
27
100
AcDbSymbolTableRecord
100
AcDbLayerTableRecord
  2
LC-003-003-----0
 70
             0
 62
             7
  6
CONTINUOUS
  0
ENDTAB
  0
TABLE
  2
STYLE
  5
3
100
AcDbSymbolTable
 70
             2
  0
STYLE
  5
17
100
AcDbSymbolTableRecord
100
AcDbTextStyleTableRecord
  2
STANDARD
 70
             0
 40
0.0
 41
1.0
 50
0.0
 71
             0
 42
0.0
  3
txt
  4

  0
STYLE
  5
A1
100
AcDbSymbolTableRecord
100
AcDbTextStyleTableRecord
  2
CONVERTER_1
 70
             0
 40
0.0
 41
0.9
 50
0.0
 71
             0
 42
0.0
  3
txt.shx
  4

  0
ENDTAB
  0
TABLE
  2
VIEW
  5
5
100
AcDbSymbolTable
 70
             0
  0
ENDTAB
  0
TABLE
  2
UCS
  5
6
100
AcDbSymbolTable
 70
             0
  0
ENDTAB
  0
TABLE
  2
APPID
  5
8
100
AcDbSymbolTable
 70
             1
  0
APPID
  5
16
100
AcDbSymbolTableRecord
100
AcDbRegAppTableRecord
  2
ACAD
 70
             0
  0
ENDTAB
  0
TABLE
  2
DIMSTYLE
  5
9
100
AcDbSymbolTable
 70
             5
  0
DIMSTYLE
105
18
100
AcDbSymbolTableRecord
100
AcDbDimStyleTableRecord
  2
STANDARD
 70
             0
  3

  4

  5

  6

  7

 40
1.0
 41
0.18
 42
0.0625
 43
0.38
 44
0.18
 45
0.0
 46
0.0
 47
0.0
 48
0.0
 71
             0
 72
             0
 73
             1
 74
             1
 75
             0
 76
             0
 77
             0
 78
             0
140
0.18
141
0.09
142
0.0
143
25.4
144
1.0
145
0.0
146
1.0
147
0.09
170
             0
171
             2
172
             0
173
             0
174
             0
175
             0
176
             0
177
             0
178
             0
270
             2
271
             4
272
             4
273
             2
274
             2
275
             0
280
             0
281
             0
282
             0
283
             1
284
             0
285
             0
286
             0
287
             3
288
             0
340
17
  0
DIMSTYLE
105
A4
100
AcDbSymbolTableRecord
100
AcDbDimStyleTableRecord
  2
ME10_DIM_0
 70
             0
  3
DN<>
  4

  5

  6

  7

 40
1.0
 41
10.0
 42
0.0
 43
0.38
 44
2.0
 45
0.0
 46
0.0
 47
0.0
 48
0.0
 71
             0
 72
             0
 73
             0
 74
             0
 75
             0
 76
             0
 77
             1
 78
             8
140
10.0
141
0.09
142
0.0
143
25.4
144
1.0
145
0.0
146
1.0
147
0.625
170
             0
171
             2
172
             1
173
             1
174
             0
175
             0
176
             4
177
             4
178
             1
270
             2
271
             2
272
             4
273
             2
274
             2
275
             0
280
             0
281
             0
282
             0
283
             1
284
             0
285
             0
286
             0
287
             3
288
             0
340
A1
  0
DIMSTYLE
105
AF
100
AcDbSymbolTableRecord
100
AcDbDimStyleTableRecord
  2
ME10_DIM_1
 70
             0
  3
x150
  4

  5

  6

  7

 40
1.0
 41
10.0
 42
0.0
 43
0.38
 44
2.0
 45
0.0
 46
0.0
 47
0.0
 48
0.0
 71
             0
 72
             0
 73
             0
 74
             0
 75
             0
 76
             0
 77
             1
 78
             8
140
10.0
141
0.09
142
0.0
143
25.4
144
1.0
145
0.0
146
1.0
147
0.625
170
             0
171
             2
172
             1
173
             1
174
             0
175
             0
176
             4
177
             4
178
             1
270
             2
271
             2
272
             4
273
             2
274
             2
275
             0
280
             0
281
             0
282
             0
283
             1
284
             0
285
             0
286
             0
287
             3
288
             0
340
A1
  0
DIMSTYLE
105
BA
100
AcDbSymbolTableRecord
100
AcDbDimStyleTableRecord
  2
ME10_DIM_2
 70
             0
  3

  4

  5

  6

  7

 40
1.0
 41
10.0
 42
0.0
 43
0.38
 44
2.0
 45
0.0
 46
0.0
 47
0.0
 48
0.0
 71
             0
 72
             0
 73
             0
 74
             0
 75
             0
 76
             0
 77
             1
 78
             8
140
10.0
141
0.09
142
0.0
143
25.4
144
1.0
145
0.0
146
1.0
147
0.625
170
             0
171
             2
172
             1
173
             1
174
             0
175
             0
176
             4
177
             4
178
             1
270
             2
271
             2
272
             4
273
             2
274
             2
275
             0
280
             0
281
             0
282
             0
283
             1
284
             0
285
             0
286
             0
287
             3
288
             0
340
A1
  0
DIMSTYLE
105
C5
100
AcDbSymbolTableRecord
100
AcDbDimStyleTableRecord
  2
ME10_DIM_3
 70
             0
  3

  4

  5

  6

  7

 40
1.0
 41
10.0
 42
0.0
 43
0.38
 44
2.0
 45
0.0
 46
0.0
 47
0.0
 48
0.0
 71
             0
 72
             0
 73
             0
 74
             0
 75
             0
 76
             0
 77
             1
 78
             8
140
10.0
141
0.09
142
0.0
143
25.4
144
1.0
145
0.0
146
1.0
147
0.625
170
             0
171
             2
172
             1
173
             1
174
             0
175
             0
176
             4
177
             4
178
             1
270
             2
271
             2
272
             4
273
             2
274
             2
275
             0
280
             0
281
             0
282
             0
283
             1
284
             0
285
             0
286
             0
287
             3
288
             0
340
A1
  0
ENDTAB
  0
TABLE
  2
BLOCK_RECORD
  5
1
100
AcDbSymbolTable
 70
             6
  0
BLOCK_RECORD
  5
A
100
AcDbSymbolTableRecord
100
AcDbBlockTableRecord
  2
*MODEL_SPACE
  0
BLOCK_RECORD
  5
B
100
AcDbSymbolTableRecord
100
AcDbBlockTableRecord
  2
*PAPER_SPACE
  0
BLOCK_RECORD
  5
28
100
AcDbSymbolTableRecord
100
AcDbBlockTableRecord
  2
HL98SML_ROHRREINIGUNGSE__1
  0
BLOCK_RECORD
  5
2A
100
AcDbSymbolTableRecord
100
AcDbBlockTableRecord
  2
HL98SML_ROHRREINIGUNGSE__2
  0
BLOCK_RECORD
  5
9A
100
AcDbSymbolTableRecord
100
AcDbBlockTableRecord
  2
*D2
  0
BLOCK_RECORD
  5
A6
100
AcDbSymbolTableRecord
100
AcDbBlockTableRecord
  2
*D3
  0
BLOCK_RECORD
  5
B1
100
AcDbSymbolTableRecord
100
AcDbBlockTableRecord
  2
*D4
  0
BLOCK_RECORD
  5
BC
100
AcDbSymbolTableRecord
100
AcDbBlockTableRecord
  2
*D5
  0
ENDTAB
  0
ENDSEC
  0
SECTION
  2
BLOCKS
  0
BLOCK
  5
D
100
AcDbEntity
  8
0
100
AcDbBlockBegin
  2
*MODEL_SPACE
 70
             0
 10
0.0
 20
0.0
 30
0.0
  3
*MODEL_SPACE
  1

  0
ENDBLK
  5
E
100
AcDbEntity
  8
0
100
AcDbBlockEnd
  0
BLOCK
  5
F
100
AcDbEntity
 67
             1
  8
0
100
AcDbBlockBegin
  2
*PAPER_SPACE
 70
             0
 10
0.0
 20
0.0
 30
0.0
  3
*PAPER_SPACE
  1

  0
ENDBLK
  5
10
100
AcDbEntity
 67
             1
  8
0
100
AcDbBlockEnd
  0
BLOCK
  5
29
100
AcDbEntity
  8
0
100
AcDbBlockBegin
  2
HL98SML_ROHRREINIGUNGSE__1
 70
             0
 10
583.83910985377497
 20
-362.88621512843952
 30
0.0
  3
HL98SML_ROHRREINIGUNGSE__1
  1

  0
CIRCLE
  5
74
100
AcDbEntity
  8
LC-001-002-----0
  6
CONTINUOUS
 62
             7
100
AcDbCircle
 10
58.49784198689918
 20
-161.06206700000001
 40
1.39999999999997
  0
CIRCLE
  5
73
100
AcDbEntity
  8
LC-001-002-----0
  6
CONTINUOUS
 62
             7
100
AcDbCircle
 10
-61.50215801310083
 20
-161.06206700000001
 40
1.40000000000011
  0
CIRCLE
  5
72
100
AcDbEntity
  8
LC-001-002-----0
  6
CONTINUOUS
 62
             7
100
AcDbCircle
 10
-61.50367901310074
 20
-324.06374099999999
 40
1.39999999999986
  0
CIRCLE
  5
71
100
AcDbEntity
  8
LC-001-002-----0
  6
CONTINUOUS
 62
             7
100
AcDbCircle
 10
58.49632098689915
 20
-324.06437799999998
 40
1.40000000000009
  0
CIRCLE
  5
70
100
AcDbEntity
  8
LC-001-002-----0
  6
CONTINUOUS
 62
             7
100
AcDbCircle
 10
59.49648998689918
 20
-183.066441
 40
5.0
  0
CIRCLE
  5
6F
100
AcDbEntity
  8
LC-001-002-----0
  6
CONTINUOUS
 62
             7
100
AcDbCircle
 10
59.49648998689918
 20
-301.066441
 40
5.0
  0
ARC
  5
6E
100
AcDbEntity
  8
LC-001-002-----0
  6
CONTINUOUS
 62
             7
100
AcDbCircle
 10
-61.50215801310083
 20
-161.06206700000001
 40
5.0
100
AcDbArc
 50
0.0
 51
179.9998480000036
  0
ARC
  5
6D
100
AcDbEntity
  8
LC-001-002-----0
  6
CONTINUOUS
 62
             7
100
AcDbCircle
 10
58.49784198689918
 20
-161.06206700000001
 40
5.0
100
AcDbArc
 50
0.0
 51
179.9998480000036
  0
ARC
  5
6C
100
AcDbEntity
  8
LC-001-002-----0
  6
CONTINUOUS
 62
             7
100
AcDbCircle
 10
-61.50367901310074
 20
-324.06374099999999
 40
4.99999999999979
100
AcDbArc
 50
179.99990600000552
 51
-0.00030400000454
  0
ARC
  5
6B
100
AcDbEntity
  8
LC-001-002-----0
  6
CONTINUOUS
 62
             7
100
AcDbCircle
 10
58.49632098689915
 20
-324.06437799999998
 40
4.99999999999968
100
AcDbArc
 50
179.99990600000552
 51
-0.00030400000454
  0
ARC
  5
6A
100
AcDbEntity
  8
LC-001-002-----0
  6
CONTINUOUS
 62
             7
100
AcDbCircle
 10
-72.00215801310083
 20
-170.56206700000001
 40
4.5
100
AcDbArc
 50
90.0
 51
179.99984800000092
  0
ARC
  5
69
100
AcDbEntity
  8
LC-001-002-----0
  6
CONTINUOUS
 62
             7
100
AcDbCircle
 10
-72.00215801310083
 20
-170.56206700000001
 40
3.0
100
AcDbArc
 50
90.0
 51
179.99984800000709
  0
ARC
  5
68
100
AcDbEntity
  8
LC-001-002-----0
  6
CONTINUOUS
 62
             7
100
AcDbCircle
 10
71.99784198689918
 20
-170.56206700000001
 40
3.0
100
AcDbArc
 50
0.0
 51
90.0
  0
ARC
  5
67
100
AcDbEntity
  8
LC-001-002-----0
  6
CONTINUOUS
 62
             7
100
AcDbCircle
 10
71.99784198689918
 20
-170.56206700000001
 40
4.5
100
AcDbArc
 50
0.0
 51
90.0
  0
ARC
  5
66
100
AcDbEntity
  8
LC-002-001-----0
  6
CONTINUOUS
 62
             7
100
AcDbCircle
 10
-65.50215801310083
 20
-177.06579500000001
 40
4.00000000000047
100
AcDbArc
 50
89.99975200000208
 51
180.0
  0
ARC
  5
65
100
AcDbEntity
  8
LC-002-001-----0
  6
CONTINUOUS
 62
             7
100
AcDbCircle
 10
65.49795898689922
 20
-177.06643299999999
 40
4.00000000000027
100
AcDbArc
 50
0.00002100000586
 51
89.99978899999863
  0
ARC
  5
64
100
AcDbEntity
  8
LC-001-002-----0
  6
CONTINUOUS
 62
             7
100
AcDbCircle
 10
-72.00215801310083
 20
-314.56206700000001
 40
3.0
100
AcDbArc
 50
180.0
 51
-89.99994199999676
  0
ARC
  5
63
100
AcDbEntity
  8
LC-001-002-----0
  6
CONTINUOUS
 62
             7
100
AcDbCircle
 10
-72.00215801310083
 20
-314.56206700000001
 40
4.49999999999981
100
AcDbArc
 50
179.99984800000092
 51
-90.0
  0
ARC
  5
62
100
AcDbEntity
  8
LC-002-001-----0
  6
CONTINUOUS
 62
             7
100
AcDbCircle
 10
-65.50215801310083
 20
-308.06206700000001
 40
4.0
100
AcDbArc
 50
180.0
 51
-89.99994199999676
  0
ARC
  5
61
100
AcDbEntity
  8
LC-002-001-----0
  6
CONTINUOUS
 62
             7
100
AcDbCircle
 10
65.49787398689921
 20
-308.06199700000002
 40
3.99999999999981
100
AcDbArc
 50
-90.00003699999655
 51
0.00002100000667
  0
ARC
  5
60
100
AcDbEntity
  8
LC-001-002-----0
  6
CONTINUOUS
 62
             7
100
AcDbCircle
 10
71.99784198689918
 20
-314.56206700000001
 40
4.5
100
AcDbArc
 50
-90.0
 51
0.0
  0
ARC
  5
5F
100
AcDbEntity
  8
LC-001-002-----0
  6
CONTINUOUS
 62
             7
100
AcDbCircle
 10
71.99784198689918
 20
-314.56206700000001
 40
3.0
100
AcDbArc
 50
-90.0
 51
0.0
  0
ARC
  5
5E
100
AcDbEntity
  8
LC-001-002-----0
  6
CONTINUOUS
 62
             7
100
AcDbCircle
 10
72.49787098689922
 20
-242.56199699999999
 40
10.00000000000005
100
AcDbArc
 50
107.45729299999802
 51
-107.45736800000131
  0
LINE
  5
5D
100
AcDbEntity
  8
LC-002-001-----0
  6
CONTINUOUS
 62
             7
100
AcDbLine
 10
-66.50215801310083
 20
-161.06206700000001
 11
-66.50215801310083
 21
-166.06206700000001
  0
LINE
  5
5C
100
AcDbEntity
  8
LC-002-001-----0
  6
CONTINUOUS
 62
             7
100
AcDbLine
 10
63.49784198689918
 20
-161.06206700000001
 11
63.49784198689918
 21
-166.06206700000001
  0
LINE
  5
5B
100
AcDbEntity
  8
LC-002-001-----0
  6
CONTINUOUS
 62
             7
100
AcDbLine
 10
-56.50215801310083
 20
-161.06206700000001
 11
-56.50215801310083
 21
-166.06206700000001
  0
LINE
  5
5A
100
AcDbEntity
  8
LC-002-001-----0
  6
CONTINUOUS
 62
             7
100
AcDbLine
 10
53.49784198689918
 20
-161.06206700000001
 11
53.49784198689918
 21
-166.06206700000001
  0
LINE
  5
59
100
AcDbEntity
  8
LC-002-001-----0
  6
CONTINUOUS
 62
             7
100
AcDbLine
 10
-56.50367901310074
 20
-324.06376699999998
 11
-56.5036530131008
 21
-319.06376699999998
  0
LINE
  5
58
100
AcDbEntity
  8
LC-002-001-----0
  6
CONTINUOUS
 62
             7
100
AcDbLine
 10
-66.50367901310074
 20
-324.063714
 11
-66.5036530131008
 21
-319.063714
  0
LINE
  5
57
100
AcDbEntity
  8
LC-002-001-----0
  6
CONTINUOUS
 62
             7
100
AcDbLine
 10
53.49632098689915
 20
-324.06435099999999
 11
53.4963469868992
 21
-319.06435099999999
  0
LINE
  5
56
100
AcDbEntity
  8
LC-002-001-----0
  6
CONTINUOUS
 62
             7
100
AcDbLine
 10
63.49632098689915
 20
-324.06440400000002
 11
63.4963469868992
 21
-319.06440400000002
  0
LINE
  5
55
100
AcDbEntity
  8
LC-002-001-----0
  6
CONTINUOUS
 62
             7
100
AcDbLine
 10
-65.50214101310075
 20
-173.06579500000001
 11
-0.00337201310072
 21
-173.066079
  0
LINE
  5
54
100
AcDbEntity
  8
LC-002-001-----0
  6
CONTINUOUS
 62
             7
100
AcDbLine
 10
65.49797398689918
 20
-173.06643299999999
 11
-0.00334201310079
 21
-173.066192
  0
LINE
  5
53
100
AcDbEntity
  8
LC-001-002-----0
  6
CONTINUOUS
 62
             7
100
AcDbLine
 10
71.99784198689918
 20
-167.56206700000001
 11
-72.00215801310083
 21
-167.56206700000001
  0
LINE
  5
52
100
AcDbEntity
  8
LC-001-002-----0
  6
CONTINUOUS
 62
             7
100
AcDbLine
 10
-72.00215801310083
 20
-166.06206700000001
 11
71.99784198689918
 21
-166.06206700000001
  0
LINE
  5
51
100
AcDbEntity
  8
LC-001-002-----0
  6
CONTINUOUS
 62
             7
100
AcDbLine
 10
-76.50215801310083
 20
-170.56206700000001
 11
-76.50215801310083
 21
-314.56206700000001
  0
LINE
  5
50
100
AcDbEntity
  8
LC-001-002-----0
  6
CONTINUOUS
 62
             7
100
AcDbLine
 10
-75.00215801310083
 20
-170.56206700000001
 11
-75.00215801310083
 21
-314.56206700000001
  0
LINE
  5
4F
100
AcDbEntity
  8
LC-001-002-----0
  6
CONTINUOUS
 62
             7
100
AcDbLine
 10
-72.00215801310083
 20
-319.06206700000001
 11
71.99784198689918
 21
-319.06206700000001
  0
LINE
  5
4E
100
AcDbEntity
  8
LC-001-002-----0
  6
CONTINUOUS
 62
             7
100
AcDbLine
 10
-72.00215801310083
 20
-317.56206700000001
 11
71.99784198689918
 21
-317.56206700000001
  0
LINE
  5
4D
100
AcDbEntity
  8
LC-002-001-----0
  6
CONTINUOUS
 62
             7
100
AcDbLine
 10
-65.50215801310083
 20
-312.06206700000001
 11
-0.00215801310082
 21
-312.06206700000001
  0
LINE
  5
4C
100
AcDbEntity
  8
LC-001-002-----0
  6
CONTINUOUS
 62
             7
100
AcDbLine
 10
74.99784198689918
 20
-314.56206700000001
 11
74.99784198689918
 21
-170.56206700000001
  0
LINE
  5
4B
100
AcDbEntity
  8
LC-001-002-----0
  6
CONTINUOUS
 62
             7
100
AcDbLine
 10
76.49784198689918
 20
-314.56206700000001
 11
76.49784198689918
 21
-170.56206700000001
  0
LINE
  5
4A
100
AcDbEntity
  8
LC-002-001-----0
  6
CONTINUOUS
 62
             7
100
AcDbLine
 10
-69.50215801310083
 20
-177.06579500000001
 11
-69.50215801310083
 21
-308.06206700000001
  0
LINE
  5
49
100
AcDbEntity
  8
LC-002-001-----0
  6
CONTINUOUS
 62
             7
100
AcDbLine
 10
-65.50215801310083
 20
-312.06206700000001
 11
-0.00215801310082
 21
-312.06206700000001
  0
LINE
  5
48
100
AcDbEntity
  8
LC-002-001-----0
  6
CONTINUOUS
 62
             7
100
AcDbLine
 10
65.49787098689922
 20
-312.06199700000002
 11
-0.00212801310079
 21
-312.06195400000001
  0
LINE
  5
47
100
AcDbEntity
  8
LC-002-001-----0
  6
CONTINUOUS
 62
             7
100
AcDbLine
 10
69.49795898689922
 20
-177.06643500000001
 11
69.4979229868992
 21
-233.02258900000001
  0
LINE
  5
46
100
AcDbEntity
  8
LC-002-001-----0
  6
CONTINUOUS
 62
             7
100
AcDbLine
 10
69.49790998689923
 20
-252.10140100000001
 11
69.49787398689921
 21
-308.06200000000001
  0
LINE
  5
45
100
AcDbEntity
  8
LC-001-002-----0
  6
CONTINUOUS
 62
             7
100
AcDbLine
 10
-59.50215801310083
 20
-191.315821
 11
-69.50215801310083
 21
-191.315777
  0
LINE
  5
44
100
AcDbEntity
  8
LC-001-002-----0
  6
CONTINUOUS
 62
             7
100
AcDbLine
 10
-69.50215801310083
 20
-206.815777
 11
-59.50215801310083
 21
-206.815821
  0
LINE
  5
43
100
AcDbEntity
  8
LC-001-002-----0
  6
CONTINUOUS
 62
             7
100
AcDbLine
 10
-69.50215801310083
 20
-278.31206700000001
 11
-59.50215801310083
 21
-278.31206700000001
  0
LINE
  5
42
100
AcDbEntity
  8
LC-001-002-----0
  6
CONTINUOUS
 62
             7
100
AcDbLine
 10
-59.50215801310083
 20
-293.81206700000001
 11
-69.50215801310083
 21
-293.81206700000001
  0
LINE
  5
41
100
AcDbEntity
  8
LC-001-002-----0
  6
CONTINUOUS
 62
             7
100
AcDbLine
 10
-59.50215801310083
 20
-191.315821
 11
-59.50215801310083
 21
-206.815777
  0
LINE
  5
40
100
AcDbEntity
  8
LC-001-002-----0
  6
CONTINUOUS
 62
             7
100
AcDbLine
 10
-59.50215801310083
 20
-278.31206700000001
 11
-59.50215801310083
 21
-293.81206700000001
  0
LINE
  5
3F
100
AcDbEntity
  8
LC-001-002-----0
  6
CONTINUOUS
 62
             7
100
AcDbLine
 10
55.47062798689922
 20
-304.03164399999997
 11
62.46169298689915
 21
-297.04057799999998
  0
LINE
  5
3E
100
AcDbEntity
  8
LC-001-002-----0
  6
CONTINUOUS
 62
             7
100
AcDbLine
 10
56.49128698689924
 20
-305.13230499999997
 11
63.56235398689921
 21
-298.06123700000001
  0
LINE
  5
3D
100
AcDbEntity
  8
LC-001-002-----0
  6
CONTINUOUS
 62
             7
100
AcDbLine
 10
55.47062798689922
 20
-186.031644
 11
62.46169298689915
 21
-179.04057800000001
  0
LINE
  5
3C
100
AcDbEntity
  8
LC-001-002-----0
  6
CONTINUOUS
 62
             7
100
AcDbLine
 10
56.5312879868992
 20
-187.09230400000001
 11
63.52235298689925
 21
-180.101238
  0
LINE
  5
3B
100
AcDbEntity
  8
1
  6
PHANTOM
 62
             2
100
AcDbLine
 10
64.99648998689918
 20
-183.066441
 11
53.99648998689918
 21
-183.066441
  0
LINE
  5
3A
100
AcDbEntity
  8
1
  6
PHANTOM
 62
             2
100
AcDbLine
 10
59.49648998689918
 20
-177.566441
 11
59.49648998689918
 21
-188.566441
  0
LINE
  5
39
100
AcDbEntity
  8
1
  6
PHANTOM
 62
             2
100
AcDbLine
 10
64.99648998689918
 20
-301.066441
 11
53.99648998689918
 21
-301.066441
  0
LINE
  5
38
100
AcDbEntity
  8
1
  6
PHANTOM
 62
             2
100
AcDbLine
 10
59.49648998689918
 20
-295.566441
 11
59.49648998689918
 21
-306.566441
  0
LINE
  5
37
100
AcDbEntity
  8
1
  6
PHANTOM
 62
             2
100
AcDbLine
 10
-56.00215801310128
 20
-161.06206700000001
 11
-67.00215801310037
 21
-161.06206700000001
  0
LINE
  5
36
100
AcDbEntity
  8
1
  6
PHANTOM
 62
             2
100
AcDbLine
 10
-61.50215801310083
 20
-155.5620670000005
 11
-61.50215801310083
 21
-166.56206699999959
  0
LINE
  5
35
100
AcDbEntity
  8
1
  6
PHANTOM
 62
             2
100
AcDbLine
 10
63.99784198689872
 20
-161.06206700000001
 11
52.99784198689963
 21
-161.06206700000001
  0
LINE
  5
34
100
AcDbEntity
  8
1
  6
PHANTOM
 62
             2
100
AcDbLine
 10
58.49784198689918
 20
-155.56206700000061
 11
58.49784198689918
 21
-166.5620669999995
  0
LINE
  5
33
100
AcDbEntity
  8
1
  6
PHANTOM
 62
             2
100
AcDbLine
 10
-56.0036790131004
 20
-324.06374099999999
 11
-67.00367901310108
 21
-324.06374099999999
  0
LINE
  5
32
100
AcDbEntity
  8
1
  6
PHANTOM
 62
             2
100
AcDbLine
 10
-61.50367901310074
 20
-318.56374099999971
 11
-61.50367901310074
 21
-329.56374100000028
  0
LINE
  5
31
100
AcDbEntity
  8
1
  6
PHANTOM
 62
             2
100
AcDbLine
 10
63.99632098689961
 20
-324.06437799999998
 11
52.9963209868987
 21
-324.06437799999998
  0
LINE
  5
30
100
AcDbEntity
  8
1
  6
PHANTOM
 62
             2
100
AcDbLine
 10
58.49632098689915
 20
-318.56437799999952
 11
58.49632098689915
 21
-329.56437800000049
  0
ENDBLK
  5
75
100
AcDbEntity
  8
0
100
AcDbBlockEnd
  0
BLOCK
  5
2B
100
AcDbEntity
  8
0
100
AcDbBlockBegin
  2
HL98SML_ROHRREINIGUNGSE__2
 70
             0
 10
660.3412678668758
 20
-33.32183712843897
 30
0.0
  3
HL98SML_ROHRREINIGUNGSE__2
  1

  0
ARC
  5
97
100
AcDbEntity
  8
LC-001-002-----0
  6
CONTINUOUS
 62
             7
100
AcDbCircle
 10
73.49784198689918
 20
-1.5
 40
1.5
100
AcDbArc
 50
0.0
 51
90.00001900000713
  0
ARC
  5
96
100
AcDbEntity
  8
LC-001-002-----0
  6
CONTINUOUS
 62
             7
100
AcDbCircle
 10
-63.27750701310083
 20
-96.05228400000001
 40
3.15000000000032
100
AcDbArc
 50
-179.99944200000516
 51
-89.99944200000427
  0
ARC
  5
95
100
AcDbEntity
  8
LC-001-002-----0
  6
CONTINUOUS
 62
             7
100
AcDbCircle
 10
-73.50215801310083
 20
-1.5
 40
1.50000000000008
100
AcDbArc
 50
89.99998099999287
 51
180.0
  0
ARC
  5
94
100
AcDbEntity
  8
LC-001-002-----0
  6
CONTINUOUS
 62
             7
100
AcDbCircle
 10
63.27307598689913
 20
-96.05228400000001
 40
3.15000000000037
100
AcDbArc
 50
-90.00055799999382
 51
-0.00055799999483
  0
LINE
  5
93
100
AcDbEntity
  8
LC-001-002-----0
  6
CONTINUOUS
 62
             7
100
AcDbLine
 10
-76.50215801310083
 20
-10.0
 11
-76.50215801310083
 21
-15.0
  0
LINE
  5
92
100
AcDbEntity
  8
LC-001-002-----0
  6
CONTINUOUS
 62
             7
100
AcDbLine
 10
-76.50215801310083
 20
-15.0
 11
-71.00215801310083
 21
-15.0
  0
LINE
  5
91
100
AcDbEntity
  8
LC-002-001-----0
  6
CONTINUOUS
 62
             7
100
AcDbLine
 10
73.49784198689918
 20
0.0
 11
70.99784098689918
 21
0.0
  0
LINE
  5
90
100
AcDbEntity
  8
LC-001-002-----0
  6
CONTINUOUS
 62
             7
100
AcDbLine
 10
74.99784198689918
 20
-1.5
 11
74.99784198689918
 21
-10.0
  0
LINE
  5
8F
100
AcDbEntity
  8
LC-001-002-----0
  6
CONTINUOUS
 62
             7
100
AcDbLine
 10
74.99784198689918
 20
-10.0
 11
76.49784198689918
 21
-10.0
  0
LINE
  5
8E
100
AcDbEntity
  8
LC-001-002-----0
  6
CONTINUOUS
 62
             7
100
AcDbLine
 10
76.49784198689918
 20
-10.0
 11
76.49784198689918
 21
-15.0
  0
LINE
  5
8D
100
AcDbEntity
  8
LC-001-002-----0
  6
CONTINUOUS
 62
             7
100
AcDbLine
 10
76.49784198689918
 20
-15.0
 11
-71.00215801310083
 21
-15.0
  0
LINE
  5
8C
100
AcDbEntity
  8
LC-001-002-----0
  6
CONTINUOUS
 62
             7
100
AcDbLine
 10
63.27308598689922
 20
-95.00295199999999
 11
-66.50214001310087
 21
-95.0
  0
LINE
  5
8B
100
AcDbEntity
  8
LC-001-002-----0
  6
DASHED
 62
             2
100
AcDbLine
 10
-69.32168001310083
 20
-3.0
 11
44.10052198689914
 21
76.41908100000001
  0
LINE
  5
8A
100
AcDbEntity
  8
LC-001-002-----0
  6
CONTINUOUS
 62
             7
100
AcDbLine
 10
-75.00215801310083
 20
-1.5
 11
-75.00215801310083
 21
-10.0
  0
LINE
  5
89
100
AcDbEntity
  8
LC-002-001-----0
  6
CONTINUOUS
 62
             7
100
AcDbLine
 10
-73.50215801310083
 20
0.0
 11
70.99784098689918
 21
0.0
  0
LINE
  5
88
100
AcDbEntity
  8
LC-002-001-----0
  6
DASHED
 62
             2
100
AcDbLine
 10
42.37979298689925
 20
78.87653699999999
 11
-69.32168001310083
 21
0.66232300000001
  0
LINE
  5
87
100
AcDbEntity
  8
LC-001-002-----0
  6
DASHED
 62
             2
100
AcDbLine
 10
42.37979298689925
 20
78.87653699999999
 11
44.10052198689914
 21
76.41908100000001
  0
LINE
  5
86
100
AcDbEntity
  8
LC-001-002-----0
  6
CONTINUOUS
 62
             7
100
AcDbLine
 10
-66.42750701310081
 20
-96.05231499999999
 11
-66.42748301310076
 21
-95.000002
  0
LINE
  5
85
100
AcDbEntity
  8
LC-001-002-----0
  6
CONTINUOUS
 62
             7
100
AcDbLine
 10
66.42307598689922
 20
-96.05231499999999
 11
66.4230859868992
 21
-95.00231500000001
  0
LINE
  5
84
100
AcDbEntity
  8
LC-001-002-----0
  6
CONTINUOUS
 62
             2
100
AcDbLine
 10
-55.00251343554419
 20
-102.20228400000001
 11
-55.00251343554419
 21
-107.20228400000001
  0
LINE
  5
83
100
AcDbEntity
  8
LC-001-002-----0
  6
CONTINUOUS
 62
             2
100
AcDbLine
 10
54.99751689679488
 20
-102.20228400000001
 11
54.99751689679488
 21
-107.20228400000001
  0
LINE
  5
82
100
AcDbEntity
  8
LC-001-002-----0
  6
CONTINUOUS
 62
             7
100
AcDbLine
 10
66.49785998689913
 20
-95.00231600000001
 11
66.4996789868992
 21
-15.0
  0
LINE
  5
81
100
AcDbEntity
  8
LC-001-002-----0
  6
CONTINUOUS
 62
             7
100
AcDbLine
 10
-66.50214001310087
 20
-95.0
 11
-66.5003210131008
 21
-15.0
  0
LINE
  5
80
100
AcDbEntity
  8
LC-001-002-----0
  6
CONTINUOUS
 62
             7
100
AcDbLine
 10
74.99784198689918
 20
-10.0
 11
-76.50215801310083
 21
-10.0
  0
LINE
  5
7F
100
AcDbEntity
  8
LC-001-002-----0
  6
CONTINUOUS
 62
             7
100
AcDbLine
 10
66.49768898689922
 20
-95.00231600000001
 11
63.27308598689922
 21
-95.002284
  0
LINE
  5
7E
100
AcDbEntity
  8
LC-001-002-----0
  6
DASHED
 62
             7
100
AcDbLine
 10
-69.32168001310083
 20
0.66232300000001
 11
-69.32168001310083
 21
-3.0
  0
LINE
  5
7D
100
AcDbEntity
  8
LC-001-002-----0
  6
CONTINUOUS
 62
             7
100
AcDbLine
 10
-63.2774760131008
 20
-99.20228399999999
 11
63.27304498689921
 21
-99.20228399999999
  0
LINE
  5
7C
100
AcDbEntity
  8
1
  6
PHANTOM
 62
             2
100
AcDbLine
 10
-0.00241930471043
 20
-106.4031017541669
 11
0.00032133035484
 21
14.13238534958715
  0
POINT
  5
7B
100
AcDbEntity
  8
LC-003-003-----0
 62
             7
100
AcDbPoint
 10
-75.00215801310083
 20
-1.5
  0
POINT
  5
7A
100
AcDbEntity
  8
LC-003-003-----0
 62
             7
100
AcDbPoint
 10
74.99784198689918
 20
-1.5
  0
POINT
  5
79
100
AcDbEntity
  8
LC-003-003-----0
 62
             7
100
AcDbPoint
 10
-76.50215801310083
 20
-15.0
  0
POINT
  5
78
100
AcDbEntity
  8
LC-003-003-----0
 62
             7
100
AcDbPoint
 10
-66.50214001310087
 20
-95.0
  0
POINT
  5
77
100
AcDbEntity
  8
LC-003-003-----0
 62
             7
100
AcDbPoint
 10
-73.50215801310083
 20
0.0
  0
POINT
  5
76
100
AcDbEntity
  8
LC-003-003-----0
 62
             7
100
AcDbPoint
 10
-66.50214001310087
 20
-95.0
  0
ENDBLK
  5
98
100
AcDbEntity
  8
0
100
AcDbBlockEnd
  0
BLOCK
  5
9B
100
AcDbEntity
  8
0
100
AcDbBlockBegin
  2
*D2
 70
             1
 10
0.0
 20
0.0
 30
0.0
  3
*D2
  1

  0
LINE
  5
9C
100
AcDbEntity
  8
0
  6
CONTINUOUS
 62
             4
100
AcDbLine
 10
-55.00285022566999
 20
-122.01460337045968
 11
54.99718004980142
 21
-122.01710445912158
  0
LINE
  5
9D
100
AcDbEntity
  8
0
  6
CONTINUOUS
 62
             4
100
AcDbLine
 10
54.99751689679488
 20
-107.20228399999999
 11
54.99713457547463
 21
-124.01710445860461
  0
LINE
  5
9E
100
AcDbEntity
  8
0
  6
CONTINUOUS
 62
             4
100
AcDbLine
 10
-55.00251343554419
 20
-107.20228399999999
 11
-55.00289569999676
 21
-124.01460336994271
  0
SOLID
  5
9F
100
AcDbEntity
  8
0
 62
             4
100
AcDbTrace
 10
-45.0028202942114
 20
-120.69830576655994
 11
-45.00288016229837
 21
-123.33135571762725
 12
-55.00285022566999
 22
-122.01460337045968
 13
-55.00285022566999
 23
-122.01460337045968
  0
SOLID
  5
A0
100
AcDbEntity
  8
0
 62
             4
100
AcDbTrace
 10
44.99715011834283
 20
-123.33340206302132
 11
44.9972099864298
 21
-120.70035211195402
 12
54.99718004980142
 22
-122.01710445912158
 13
54.99718004980142
 23
-122.01710445912158
  0
MTEXT
  5
A2
100
AcDbEntity
  8
0
 62
             1
100
AcDbMText
 10
-14.16341502990559
 20
-120.01553194285374
 30
0.0
 40
10.0
 41
0.0
 71
             7
 72
             1
  1
\C1;DN\C1;110
  7
CONVERTER_1
 11
0.99999999974151
 21
-0.00002273716339
 31
0.0
  0
ENDBLK
  5
A3
100
AcDbEntity
  8
0
100
AcDbBlockEnd
  0
BLOCK
  5
A7
100
AcDbEntity
  8
0
100
AcDbBlockBegin
  2
*D3
 70
             1
 10
0.0
 20
0.0
 30
0.0
  3
*D3
  1

  0
LINE
  5
A8
100
AcDbEntity
  8
0
  6
CONTINUOUS
 62
             4
100
AcDbLine
 10
-75.00167118235737
 20
19.91123476896617
 11
74.99832874009583
 21
19.90782419445857
  0
LINE
  5
A9
100
AcDbEntity
  8
0
  6
CONTINUOUS
 62
             4
100
AcDbLine
 10
74.99784198689918
 20
-1.5
 11
74.99837421442261
 21
21.90782419394159
  0
LINE
  5
AA
100
AcDbEntity
  8
0
  6
CONTINUOUS
 62
             4
100
AcDbLine
 10
-75.00215801310083
 20
-1.5
 11
-75.00162570803059
 21
21.91123476844919
  0
SOLID
  5
AB
100
AcDbEntity
  8
0
 62
             4
100
AcDbTrace
 10
-65.00164125089879
 20
21.22753237286591
 11
-65.00170111898575
 21
18.59448242179861
 12
-75.00167118235737
 22
19.91123476896617
 13
-75.00167118235737
 23
19.91123476896617
  0
SOLID
  5
AC
100
AcDbEntity
  8
0
 62
             4
100
AcDbTrace
 10
64.99829880863724
 20
18.5915265905588
 11
64.9983586767242
 21
21.2245765416261
 12
74.99832874009583
 22
19.90782419445857
 13
74.99832874009583
 23
19.90782419445857
  0
MTEXT
  5
AD
100
AcDbEntity
  8
0
 62
             1
100
AcDbMText
 10
-3.15765383278007
 20
21.90960124032166
 30
0.0
 40
10.0
 41
0.0
 71
             7
 72
             1
  1
\C1;150\C1;x150
  7
CONVERTER_1
 11
0.99999999974151
 21
-0.00002273716339
 31
0.0
  0
ENDBLK
  5
AE
100
AcDbEntity
  8
0
100
AcDbBlockEnd
  0
BLOCK
  5
B2
100
AcDbEntity
  8
0
100
AcDbBlockBegin
  2
*D4
 70
             1
 10
0.0
 20
0.0
 30
0.0
  3
*D4
  1

  0
LINE
  5
B3
100
AcDbEntity
  8
0
  6
CONTINUOUS
 62
             4
100
AcDbLine
 10
93.61892754189758
 20
-95.00293266003254
 11
93.62074657279743
 21
-15.00038932627938
  0
LINE
  5
B4
100
AcDbEntity
  8
0
  6
CONTINUOUS
 62
             4
100
AcDbLine
 10
76.49784198689918
 20
-15.0
 11
95.62074657228045
 21
-15.00043480060615
  0
LINE
  5
B5
100
AcDbEntity
  8
0
  6
CONTINUOUS
 62
             4
100
AcDbLine
 10
66.49768898689922
 20
-95.00231600000001
 11
95.6189275413806
 21
-95.00297813435932
  0
SOLID
  5
B6
100
AcDbEntity
  8
0
 62
             4
100
AcDbTrace
 10
92.30262993799784
 20
-85.00290272857396
 11
94.93567988906514
 21
-85.00296259666092
 12
93.61892754189758
 22
-95.00293266003254
 13
93.61892754189758
 23
-95.00293266003254
  0
SOLID
  5
B7
100
AcDbEntity
  8
0
 62
             4
100
AcDbTrace
 10
94.93704417669717
 20
-25.00041925773797
 11
92.30399422562986
 21
-25.000359389651
 12
93.62074657279743
 22
-15.00038932627938
 13
93.62074657279743
 23
-15.00038932627938
  0
MTEXT
  5
B8
100
AcDbEntity
  8
0
 62
             1
100
AcDbMText
 10
91.61970589322137
 20
-60.77034932422851
 30
0.0
 40
10.0
 41
0.0
 71
             7
 72
             1
  1
80
  7
CONVERTER_1
 11
0.00002273716339
 21
0.99999999974151
 31
0.0
  0
ENDBLK
  5
B9
100
AcDbEntity
  8
0
100
AcDbBlockEnd
  0
BLOCK
  5
BD
100
AcDbEntity
  8
0
100
AcDbBlockBegin
  2
*D5
 70
             1
 10
0.0
 20
0.0
 30
0.0
  3
*D5
  1

  0
LINE
  5
BE
100
AcDbEntity
  8
0
  6
CONTINUOUS
 62
             4
100
AcDbLine
 10
111.14408711145485
 20
-95.00333113244921
 11
111.14624719696208
 21
-0.00091286087207
  0
LINE
  5
BF
100
AcDbEntity
  8
0
  6
CONTINUOUS
 62
             4
100
AcDbLine
 10
70.99784098689916
 20
0.0
 11
113.1462471964451
 21
-0.00095833519886
  0
LINE
  5
C0
100
AcDbEntity
  8
0
  6
CONTINUOUS
 62
             4
100
AcDbLine
 10
66.49768898689919
 20
-95.00231599999999
 11
113.14408711093787
 21
-95.00337660677599
  0
SOLID
  5
C1
100
AcDbEntity
  8
0
 62
             4
100
AcDbTrace
 10
109.82778950755511
 20
-85.00330120099062
 11
112.46083945862242
 21
-85.00336106907758
 12
111.14408711145485
 22
-95.00333113244921
 13
111.14408711145485
 23
-95.00333113244921
  0
SOLID
  5
C2
100
AcDbEntity
  8
0
 62
             4
100
AcDbTrace
 10
112.46254480086182
 20
-10.00094279233066
 11
109.82949484979451
 21
-10.00088292424369
 12
111.14624719696208
 22
-0.00091286087207
 13
111.14624719696208
 23
-0.00091286087207
  0
MTEXT
  5
C3
100
AcDbEntity
  8
0
 62
             1
100
AcDbMText
 10
109.14521414214033
 20
-45.43552960642429
 30
0.0
 40
10.0
 41
0.0
 71
             7
 72
             1
  1
95
  7
CONVERTER_1
 11
0.00002273716339
 21
0.99999999974151
 31
0.0
  0
ENDBLK
  5
C4
100
AcDbEntity
  8
0
100
AcDbBlockEnd
  0
ENDSEC
  0
SECTION
  2
ENTITIES
  0
DIMENSION
  5
C6
100
AcDbEntity
  8
1
100
AcDbDimension
  2
*D5
 10
111.14408711145485
 20
-95.00333113244921
 11
104.1453846721582
 21
-37.93541592254601
 31
0.0
 53
89.99869725649955
  1
<>
  3
ME10_DIM_3
100
AcDbAlignedDimension
 13
70.99784098689918
 23
0.0
 14
66.49768898689922
 24
-95.00231600000001
 50
89.99869725649955
100
AcDbRotatedDimension
  0
DIMENSION
  5
BB
100
AcDbEntity
  8
1
100
AcDbDimension
  2
*D4
 10
93.61892754189758
 20
-95.00293266003254
 11
86.61987642323923
 21
-53.27023564035022
 31
0.0
 53
89.99869725649955
  1
<>
  3
ME10_DIM_2
100
AcDbAlignedDimension
 13
76.49784198689918
 23
-15.0
 14
66.49768898689922
 24
-95.00231600000001
 50
89.99869725649955
100
AcDbRotatedDimension
  0
DIMENSION
  5
B0
100
AcDbEntity
  8
1
100
AcDbDimension
  2
*D3
 10
-75.00167118235737
 20
19.91123476896617
 11
24.84245984579918
 21
26.9089645984543
 31
0.0
 53
179.99869725649955
  1
<>
  3
ME10_DIM_1
100
AcDbAlignedDimension
 13
74.99784198689918
 23
-1.5
 14
-75.00215801310083
 24
-1.5
 50
179.99869725649955
100
AcDbRotatedDimension
  0
DIMENSION
  5
A5
100
AcDbEntity
  8
1
100
AcDbDimension
  2
*D2
 10
-55.00285022566999
 20
-122.01460337045968
 11
0.23669865218911
 21
-115.015859359299
 31
0.0
 53
179.99869725649955
  1
<>
  3
ME10_DIM_0
100
AcDbAlignedDimension
 13
54.99751689679488
 23
-107.20228400000001
 14
-55.00251343554419
 24
-107.20228400000001
 50
179.99869725649955
100
AcDbRotatedDimension
  0
INSERT
  5
2E
100
AcDbEntity
  8
1
100
AcDbBlockReference
  2
HL98SML_ROHRREINIGUNGSE__1
 10
583.83910985377497
 20
-362.88621512843952
  0
INSERT
  5
2F
100
AcDbEntity
  8
1
100
AcDbBlockReference
  2
HL98SML_ROHRREINIGUNGSE__2
 10
660.3412678668758
 20
-33.32183712843897
  0
ENDSEC
  0
SECTION
  2
OBJECTS
  0
DICTIONARY
  5
19
100
AcDbDictionary
  3
ACAD_GROUP
350
1A
  3
ACAD_MLINESTYLE
350
1B
  0
DICTIONARY
  5
1A
102
{ACAD_REACTORS
330
19
102
}
100
AcDbDictionary
  0
DICTIONARY
  5
1B
102
{ACAD_REACTORS
330
19
102
}
100
AcDbDictionary
  3
STANDARD
350
1C
  0
MLINESTYLE
  5
1C
102
{ACAD_REACTORS
330
1B
102
}
100
AcDbMlineStyle
  2
STANDARD
 70
             0
  3

 62
             0
 51
90.0
 52
90.0
 71
             2
 49
0.5
 62
           256
  6
BYLAYER
 49
-0.5
 62
           256
  6
BYLAYER
  0
ENDSEC
  0
EOF
