  0
SECTION
  2
HEADER
  9
$ACADVER
  1
AC1015
  9
$ACADMAINTVER
 70
     6
  9
$DWGCODEPAGE
  3
ANSI_1252
  9
$INSBASE
 10
0.0
 20
0.0
 30
0.0
  9
$EXTMIN
 10
319.883832677171
 20
-59.5833600382105
 30
0.0
  9
$EXTMAX
 10
440.249999999956
 20
106.518496254287
 30
0.0
  9
$LIMMIN
 10
0.0
 20
0.0
  9
$LIMMAX
 10
12.0
 20
9.0
  9
$ORTHOMODE
 70
     0
  9
$REGENMODE
 70
     1
  9
$FILLMODE
 70
     1
  9
$QTEXTMODE
 70
     0
  9
$MIRRTEXT
 70
     1
  9
$LTSCALE
 40
1.0
  9
$ATTMODE
 70
     1
  9
$TEXTSIZE
 40
0.2
  9
$TRACEWID
 40
0.05
  9
$TEXTSTYLE
  7
Standard
  9
$CLAYER
  8
0
  9
$CELTYPE
  6
ByLayer
  9
$CECOLOR
 62
   256
  9
$CELTSCALE
 40
1.0
  9
$DISPSILH
 70
     0
  9
$DIMSCALE
 40
1.0
  9
$DIMASZ
 40
0.18
  9
$DIMEXO
 40
0.0625
  9
$DIMDLI
 40
0.38
  9
$DIMRND
 40
0.0
  9
$DIMDLE
 40
0.0
  9
$DIMEXE
 40
0.18
  9
$DIMTP
 40
0.0
  9
$DIMTM
 40
0.0
  9
$DIMTXT
 40
0.18
  9
$DIMCEN
 40
0.09
  9
$DIMTSZ
 40
0.0
  9
$DIMTOL
 70
     0
  9
$DIMLIM
 70
     0
  9
$DIMTIH
 70
     1
  9
$DIMTOH
 70
     1
  9
$DIMSE1
 70
     0
  9
$DIMSE2
 70
     0
  9
$DIMTAD
 70
     0
  9
$DIMZIN
 70
     0
  9
$DIMBLK
  1

  9
$DIMASO
 70
     1
  9
$DIMSHO
 70
     1
  9
$DIMPOST
  1

  9
$DIMAPOST
  1

  9
$DIMALT
 70
     0
  9
$DIMALTD
 70
     2
  9
$DIMALTF
 40
25.4
  9
$DIMLFAC
 40
1.0
  9
$DIMTOFL
 70
     0
  9
$DIMTVP
 40
0.0
  9
$DIMTIX
 70
     0
  9
$DIMSOXD
 70
     0
  9
$DIMSAH
 70
     0
  9
$DIMBLK1
  1

  9
$DIMBLK2
  1

  9
$DIMSTYLE
  2
Standard
  9
$DIMCLRD
 70
     0
  9
$DIMCLRE
 70
     0
  9
$DIMCLRT
 70
     0
  9
$DIMTFAC
 40
1.0
  9
$DIMGAP
 40
0.09
  9
$DIMJUST
 70
     0
  9
$DIMSD1
 70
     0
  9
$DIMSD2
 70
     0
  9
$DIMTOLJ
 70
     1
  9
$DIMTZIN
 70
     0
  9
$DIMALTZ
 70
     0
  9
$DIMALTTZ
 70
     0
  9
$DIMUPT
 70
     0
  9
$DIMDEC
 70
     4
  9
$DIMTDEC
 70
     4
  9
$DIMALTU
 70
     2
  9
$DIMALTTD
 70
     2
  9
$DIMTXSTY
  7
Standard
  9
$DIMAUNIT
 70
     0
  9
$DIMADEC
 70
     0
  9
$DIMALTRND
 40
0.0
  9
$DIMAZIN
 70
     0
  9
$DIMDSEP
 70
    46
  9
$DIMATFIT
 70
     3
  9
$DIMFRAC
 70
     0
  9
$DIMLDRBLK
  1

  9
$DIMLUNIT
 70
     2
  9
$DIMLWD
 70
    -2
  9
$DIMLWE
 70
    -2
  9
$DIMTMOVE
 70
     0
  9
$LUNITS
 70
     2
  9
$LUPREC
 70
     4
  9
$SKETCHINC
 40
0.1
  9
$FILLETRAD
 40
0.5
  9
$AUNITS
 70
     0
  9
$AUPREC
 70
     0
  9
$MENU
  1
.
  9
$ELEVATION
 40
0.0
  9
$PELEVATION
 40
0.0
  9
$THICKNESS
 40
0.0
  9
$LIMCHECK
 70
     0
  9
$CHAMFERA
 40
0.0
  9
$CHAMFERB
 40
0.0
  9
$CHAMFERC
 40
0.0
  9
$CHAMFERD
 40
0.0
  9
$SKPOLY
 70
     0
  9
$TDCREATE
 40
2459516.62301956
  9
$TDUCREATE
 40
2459516.539686227
  9
$TDUPDATE
 40
2459516.623019699
  9
$TDUUPDATE
 40
2459516.539686366
  9
$TDINDWG
 40
0.0000000116
  9
$TDUSRTIMER
 40
0.0000000116
  9
$USRTIMER
 70
     1
  9
$ANGBASE
 50
0.0
  9
$ANGDIR
 70
     0
  9
$PDMODE
 70
     0
  9
$PDSIZE
 40
0.0
  9
$PLINEWID
 40
0.0
  9
$SPLFRAME
 70
     0
  9
$SPLINETYPE
 70
     6
  9
$SPLINESEGS
 70
     8
  9
$HANDSEED
  5
341
  9
$SURFTAB1
 70
     6
  9
$SURFTAB2
 70
     6
  9
$SURFTYPE
 70
     6
  9
$SURFU
 70
     6
  9
$SURFV
 70
     6
  9
$UCSBASE
  2

  9
$UCSNAME
  2

  9
$UCSORG
 10
0.0
 20
0.0
 30
0.0
  9
$UCSXDIR
 10
1.0
 20
0.0
 30
0.0
  9
$UCSYDIR
 10
0.0
 20
1.0
 30
0.0
  9
$UCSORTHOREF
  2

  9
$UCSORTHOVIEW
 70
     0
  9
$UCSORGTOP
 10
0.0
 20
0.0
 30
0.0
  9
$UCSORGBOTTOM
 10
0.0
 20
0.0
 30
0.0
  9
$UCSORGLEFT
 10
0.0
 20
0.0
 30
0.0
  9
$UCSORGRIGHT
 10
0.0
 20
0.0
 30
0.0
  9
$UCSORGFRONT
 10
0.0
 20
0.0
 30
0.0
  9
$UCSORGBACK
 10
0.0
 20
0.0
 30
0.0
  9
$PUCSBASE
  2

  9
$PUCSNAME
  2

  9
$PUCSORG
 10
0.0
 20
0.0
 30
0.0
  9
$PUCSXDIR
 10
1.0
 20
0.0
 30
0.0
  9
$PUCSYDIR
 10
0.0
 20
1.0
 30
0.0
  9
$PUCSORTHOREF
  2

  9
$PUCSORTHOVIEW
 70
     0
  9
$PUCSORGTOP
 10
0.0
 20
0.0
 30
0.0
  9
$PUCSORGBOTTOM
 10
0.0
 20
0.0
 30
0.0
  9
$PUCSORGLEFT
 10
0.0
 20
0.0
 30
0.0
  9
$PUCSORGRIGHT
 10
0.0
 20
0.0
 30
0.0
  9
$PUCSORGFRONT
 10
0.0
 20
0.0
 30
0.0
  9
$PUCSORGBACK
 10
0.0
 20
0.0
 30
0.0
  9
$USERI1
 70
     0
  9
$USERI2
 70
     0
  9
$USERI3
 70
     0
  9
$USERI4
 70
     0
  9
$USERI5
 70
     0
  9
$USERR1
 40
20.0
  9
$USERR2
 40
0.0
  9
$USERR3
 40
0.0
  9
$USERR4
 40
0.0
  9
$USERR5
 40
0.0
  9
$WORLDVIEW
 70
     1
  9
$SHADEDGE
 70
     3
  9
$SHADEDIF
 70
    70
  9
$TILEMODE
 70
     1
  9
$MAXACTVP
 70
    64
  9
$PINSBASE
 10
0.0
 20
0.0
 30
0.0
  9
$PLIMCHECK
 70
     0
  9
$PEXTMIN
 10
1.00000000000000E+20
 20
1.00000000000000E+20
 30
1.00000000000000E+20
  9
$PEXTMAX
 10
-1.00000000000000E+20
 20
-1.00000000000000E+20
 30
-1.00000000000000E+20
  9
$PLIMMIN
 10
0.0
 20
0.0
  9
$PLIMMAX
 10
12.0
 20
9.0
  9
$UNITMODE
 70
     0
  9
$VISRETAIN
 70
     1
  9
$PLINEGEN
 70
     0
  9
$PSLTSCALE
 70
     1
  9
$TREEDEPTH
 70
  3020
  9
$CMLSTYLE
  2
Standard
  9
$CMLJUST
 70
     0
  9
$CMLSCALE
 40
1.0
  9
$PROXYGRAPHICS
 70
     1
  9
$MEASUREMENT
 70
     1
  9
$CELWEIGHT
370
    -1
  9
$ENDCAPS
280
     0
  9
$JOINSTYLE
280
     0
  9
$LWDISPLAY
290
     0
  9
$INSUNITS
 70
     4
  9
$HYPERLINKBASE
  1

  9
$STYLESHEET
  1

  9
$XEDIT
290
     1
  9
$CEPSNTYPE
380
     0
  9
$PSTYLEMODE
290
     1
  9
$FINGERPRINTGUID
  2
{4CDE3947-F3F6-4313-B638-5DC6C4813E27}
  9
$VERSIONGUID
  2
{FAEB1C32-E019-11D5-929B-00C0DF256EC4}
  9
$EXTNAMES
290
     1
  9
$PSVPSCALE
 40
0.0
  9
$OLESTARTUP
290
     0
  0
ENDSEC
  0
SECTION
  2
CLASSES
  0
CLASS
  1
ACDBDICTIONARYWDFLT
  2
AcDbDictionaryWithDefault
  3
ObjectDBX Classes
 90
        0
280
     0
281
     0
  0
CLASS
  1
VISUALSTYLE
  2
AcDbVisualStyle
  3
ObjectDBX Classes
 90
     4095
280
     0
281
     0
  0
CLASS
  1
MATERIAL
  2
AcDbMaterial
  3
ObjectDBX Classes
 90
     1153
280
     0
281
     0
  0
CLASS
  1
SCALE
  2
AcDbScale
  3
ObjectDBX Classes
 90
     1153
280
     0
281
     0
  0
CLASS
  1
TABLESTYLE
  2
AcDbTableStyle
  3
ObjectDBX Classes
 90
     4095
280
     0
281
     0
  0
CLASS
  1
MLEADERSTYLE
  2
AcDbMLeaderStyle
  3
ACDB_MLEADERSTYLE_CLASS
 90
     4095
280
     0
281
     0
  0
CLASS
  1
SUN
  2
AcDbSun
  3
SCENEOE
 90
     1153
280
     0
281
     0
  0
CLASS
  1
DICTIONARYVAR
  2
AcDbDictionaryVar
  3
ObjectDBX Classes
 90
        0
280
     0
281
     0
  0
CLASS
  1
ACDBPLACEHOLDER
  2
AcDbPlaceHolder
  3
ObjectDBX Classes
 90
        0
280
     0
281
     0
  0
CLASS
  1
LAYOUT
  2
AcDbLayout
  3
ObjectDBX Classes
 90
        0
280
     0
281
     0
  0
ENDSEC
  0
SECTION
  2
TABLES
  0
TABLE
  2
VPORT
  5
8
102
{ACAD_XDICTIONARY
360
304
102
}
330
0
100
AcDbSymbolTable
 70
     1
  0
VPORT
  5
29
330
8
100
AcDbSymbolTableRecord
100
AcDbViewportTableRecord
  2
*Active
 70
     0
 10
0.0
 20
0.0
 11
1.0
 21
1.0
 12
380.0669163385635
 22
23.46756810803825
 13
0.0
 23
0.0
 14
0.5
 24
0.5
 15
0.5
 25
0.5
 16
0.0
 26
0.0
 36
1.0
 17
0.0
 27
0.0
 37
0.0
 40
182.7120419217473
 41
1.60267857142857
 42
50.0
 43
0.0
 44
0.0
 50
0.0
 51
0.0
 71
     0
 72
   100
 73
     1
 74
     3
 75
     0
 76
     0
 77
     0
 78
     0
281
     0
 65
     1
110
0.0
120
0.0
130
0.0
111
1.0
121
0.0
131
0.0
112
0.0
122
1.0
132
0.0
 79
     0
146
0.0
  0
ENDTAB
  0
TABLE
  2
LTYPE
  5
5
330
0
100
AcDbSymbolTable
 70
     8
  0
LTYPE
  5
14
330
5
100
AcDbSymbolTableRecord
100
AcDbLinetypeTableRecord
  2
ByBlock
 70
     0
  3

 72
    65
 73
     0
 40
0.0
  0
LTYPE
  5
15
330
5
100
AcDbSymbolTableRecord
100
AcDbLinetypeTableRecord
  2
ByLayer
 70
     0
  3

 72
    65
 73
     0
 40
0.0
  0
LTYPE
  5
16
330
5
100
AcDbSymbolTableRecord
100
AcDbLinetypeTableRecord
  2
Continuous
 70
     0
  3
Solid line
 72
    65
 73
     0
 40
0.0
  0
LTYPE
  5
6E
330
5
100
AcDbSymbolTableRecord
100
AcDbLinetypeTableRecord
  2
DASHED
 70
     0
  3
Dashed
 72
    65
 73
     2
 40
15.0
 49
7.0
 74
     0
 49
-8.0
 74
     0
  0
LTYPE
  5
6F
330
5
100
AcDbSymbolTableRecord
100
AcDbLinetypeTableRecord
  2
DOTTED
 70
     0
  3
Dotted
 72
    65
 73
     2
 40
1.0
 49
0.0
 74
     0
 49
-1.0
 74
     0
  0
LTYPE
  5
70
330
5
100
AcDbSymbolTableRecord
100
AcDbLinetypeTableRecord
  2
DOT_CENTER
 70
     0
  3
Dot_Center
 72
    65
 73
     4
 40
14.0
 49
12.0
 74
     0
 49
-1.0
 74
     0
 49
0.0
 74
     0
 49
-1.0
 74
     0
  0
LTYPE
  5
71
330
5
100
AcDbSymbolTableRecord
100
AcDbLinetypeTableRecord
  2
LONG_DASHED
 70
     0
  3
Long_Dashed
 72
    65
 73
     2
 40
15.0
 49
10.0
 74
     0
 49
-5.0
 74
     0
  0
LTYPE
  5
72
330
5
100
AcDbSymbolTableRecord
100
AcDbLinetypeTableRecord
  2
DASH_CENTER
 70
     0
  3
Dash_Center
 72
    65
 73
     4
 40
14.0
 49
11.0
 74
     0
 49
-1.0
 74
     0
 49
1.0
 74
     0
 49
-1.0
 74
     0
  0
LTYPE
  5
73
330
5
100
AcDbSymbolTableRecord
100
AcDbLinetypeTableRecord
  2
PHANTOM
 70
     0
  3
Phantom
 72
    65
 73
     6
 40
13.0
 49
10.0
 74
     0
 49
-1.0
 74
     0
 49
0.0
 74
     0
 49
-1.0
 74
     0
 49
0.0
 74
     0
 49
-1.0
 74
     0
  0
LTYPE
  5
74
330
5
100
AcDbSymbolTableRecord
100
AcDbLinetypeTableRecord
  2
CENTER_DASH_DASH
 70
     0
  3
Center_Dash_Dash
 72
    65
 73
     6
 40
14.0
 49
9.0
 74
     0
 49
-1.0
 74
     0
 49
1.0
 74
     0
 49
-1.0
 74
     0
 49
1.0
 74
     0
 49
-1.0
 74
     0
  0
ENDTAB
  0
TABLE
  2
LAYER
  5
2
330
0
100
AcDbSymbolTable
 70
     2
  0
LAYER
  5
10
330
2
100
AcDbSymbolTableRecord
100
AcDbLayerTableRecord
  2
0
 70
     0
 62
     7
  6
Continuous
370
    -3
390
F
  0
LAYER
  5
75
330
2
100
AcDbSymbolTableRecord
100
AcDbLayerTableRecord
  2
1
 70
     0
 62
     7
  6
Continuous
370
    -3
390
F
  0
ENDTAB
  0
TABLE
  2
STYLE
  5
3
330
0
100
AcDbSymbolTable
 70
     2
  0
STYLE
  5
11
330
3
100
AcDbSymbolTableRecord
100
AcDbTextStyleTableRecord
  2
Standard
 70
     0
 40
0.0
 41
1.0
 50
0.0
 71
     0
 42
0.2
  3
txt
  4

  0
STYLE
  5
2D8
330
3
100
AcDbSymbolTableRecord
100
AcDbTextStyleTableRecord
  2
CONVERTER_11
 70
     0
 40
0.0
 41
0.9
 50
0.0
 71
     0
 42
0.2
  3
txt.shx
  4

  0
ENDTAB
  0
TABLE
  2
VIEW
  5
6
330
0
100
AcDbSymbolTable
 70
     0
  0
ENDTAB
  0
TABLE
  2
UCS
  5
7
330
0
100
AcDbSymbolTable
 70
     0
  0
ENDTAB
  0
TABLE
  2
APPID
  5
9
330
0
100
AcDbSymbolTable
 70
     2
  0
APPID
  5
12
330
9
100
AcDbSymbolTableRecord
100
AcDbRegAppTableRecord
  2
ACAD
 70
     0
  0
APPID
  5
33E
330
9
100
AcDbSymbolTableRecord
100
AcDbRegAppTableRecord
  2
ACAD_MLEADERVER
 70
     0
  0
ENDTAB
  0
TABLE
  2
DIMSTYLE
  5
A
330
0
100
AcDbSymbolTable
 70
     4
100
AcDbDimStyleTable
  0
DIMSTYLE
105
27
330
A
100
AcDbSymbolTableRecord
100
AcDbDimStyleTableRecord
  2
Standard
 70
     0
178
     0
340
11
  0
DIMSTYLE
105
2E3
102
{ACAD_REACTORS
330
2E4
102
}
330
A
100
AcDbSymbolTableRecord
100
AcDbDimStyleTableRecord
  2
ME10_DIM_10
 70
     0
  3
DN<> (SML)
 41
3.5
 42
0.0
 44
2.0
 73
     0
 74
     0
 77
     1
 78
     8
140
3.5
147
2.0
172
     1
173
     1
174
     1
175
     1
176
     4
177
     4
271
     2
178
     1
271
     2
340
2D8
  0
DIMSTYLE
105
2EE
102
{ACAD_REACTORS
330
2EF
102
}
330
A
100
AcDbSymbolTableRecord
100
AcDbDimStyleTableRecord
  2
ME10_DIM_11
 70
     0
 41
3.5
 42
0.0
 44
2.0
 73
     0
 74
     0
 77
     1
 78
     8
140
3.5
147
2.0
172
     1
173
     1
174
     1
175
     1
176
     4
177
     4
271
     2
178
     1
271
     2
340
2D8
  0
DIMSTYLE
105
2FB
102
{ACAD_REACTORS
330
2FC
102
}
330
A
100
AcDbSymbolTableRecord
100
AcDbDimStyleTableRecord
  2
ME10_DIM_12
 70
     0
  3
DN<>
 41
3.5
 42
0.0
 44
2.0
 73
     0
 74
     0
 77
     1
 78
     8
140
3.5
147
2.0
172
     1
173
     1
174
     1
175
     1
176
     4
177
     4
271
     2
178
     1
271
     2
340
2D8
  0
ENDTAB
  0
TABLE
  2
BLOCK_RECORD
  5
1
330
0
100
AcDbSymbolTable
 70
     8
  0
BLOCK_RECORD
  5
1F
330
1
100
AcDbSymbolTableRecord
100
AcDbBlockTableRecord
  2
*Model_Space
340
22
  0
BLOCK_RECORD
  5
1B
330
1
100
AcDbSymbolTableRecord
100
AcDbBlockTableRecord
  2
*Paper_Space
340
1E
  0
BLOCK_RECORD
  5
23
330
1
100
AcDbSymbolTableRecord
100
AcDbBlockTableRecord
  2
*Paper_Space0
340
26
  0
BLOCK_RECORD
  5
76
330
1
100
AcDbSymbolTableRecord
100
AcDbBlockTableRecord
  2
Gummisteckdichtung-SML-DN80
340
0
102
{BLKREFS
331
7D
102
}
  0
BLOCK_RECORD
  5
79
330
1
100
AcDbSymbolTableRecord
100
AcDbBlockTableRecord
  2
Artikel-HL9-7-DA_1_1
340
0
102
{BLKREFS
331
7E
102
}
  0
BLOCK_RECORD
  5
7C
330
1
100
AcDbSymbolTableRecord
100
AcDbBlockTableRecord
  2
HL9-7-8-Übergangsstück-WEB-Zeichnung
340
0
102
{BLKREFS
331
82
102
}
  0
BLOCK_RECORD
  5
81
330
1
100
AcDbSymbolTableRecord
100
AcDbBlockTableRecord
  2
Vordans1
340
0
102
{BLKREFS
331
85
102
}
  0
BLOCK_RECORD
  5
2DA
330
1
100
AcDbSymbolTableRecord
100
AcDbBlockTableRecord
  2
*D5
340
0
  0
BLOCK_RECORD
  5
2E5
330
1
100
AcDbSymbolTableRecord
100
AcDbBlockTableRecord
  2
*D6
340
0
  0
BLOCK_RECORD
  5
2F2
330
1
100
AcDbSymbolTableRecord
100
AcDbBlockTableRecord
  2
*D7
340
0
  0
ENDTAB
  0
ENDSEC
  0
SECTION
  2
BLOCKS
  0
BLOCK
  5
20
330
1F
100
AcDbEntity
  8
0
100
AcDbBlockBegin
  2
*Model_Space
 70
     0
 10
0.0
 20
0.0
 30
0.0
  3
*Model_Space
  1

  0
ENDBLK
  5
21
330
1F
100
AcDbEntity
  8
0
100
AcDbBlockEnd
  0
BLOCK
  5
1C
330
1B
100
AcDbEntity
 67
     1
  8
0
100
AcDbBlockBegin
  2
*Paper_Space
 70
     0
 10
0.0
 20
0.0
 30
0.0
  3
*Paper_Space
  1

  0
ENDBLK
  5
1D
330
1B
100
AcDbEntity
 67
     1
  8
0
100
AcDbBlockEnd
  0
BLOCK
  5
24
330
23
100
AcDbEntity
  8
0
100
AcDbBlockBegin
  2
*Paper_Space0
 70
     0
 10
0.0
 20
0.0
 30
0.0
  3
*Paper_Space0
  1

  0
ENDBLK
  5
25
330
23
100
AcDbEntity
  8
0
100
AcDbBlockEnd
  0
BLOCK
  5
77
330
76
100
AcDbEntity
  8
0
100
AcDbBlockBegin
  2
Gummisteckdichtung-SML-DN80
 70
     0
 10
339.499999999955
 20
-42.70000000252122
 30
0.0
  3
Gummisteckdichtung-SML-DN80
  1

  0
LINE
  5
86
330
76
100
AcDbEntity
  8
1
  6
DOT_CENTER
 62
     2
100
AcDbLine
 10
347.8208586569076
 20
-42.70000000252117
 30
0.0
 11
347.8208586569076
 21
-42.50000000252118
 31
0.0
  0
LINE
  5
87
330
76
100
AcDbEntity
  8
0
  6
Continuous
 62
     7
100
AcDbLine
 10
339.499999999955
 20
-38.00000000252118
 30
0.0
 11
339.7499999999541
 21
-38.00000000252118
 31
0.0
  0
LINE
  5
88
330
76
100
AcDbEntity
  8
0
  6
Continuous
 62
     7
100
AcDbLine
 10
435.499999999955
 20
-38.00000000252118
 30
0.0
 11
388.999999999955
 21
-38.00000000252118
 31
0.0
  0
LINE
  5
89
330
76
100
AcDbEntity
  8
0
  6
Continuous
 62
     7
100
AcDbLine
 10
388.999999999955
 20
-38.00000000252118
 30
0.0
 11
342.499999999955
 21
-38.00000000252118
 31
0.0
  0
LINE
  5
8A
330
76
100
AcDbEntity
  8
0
  6
Continuous
 62
     7
100
AcDbLine
 10
342.499999999955
 20
-38.00000000252118
 30
0.0
 11
339.7499999999541
 21
-38.00000000252118
 31
0.0
  0
LINE
  5
8B
330
76
100
AcDbEntity
  8
0
  6
Continuous
 62
     7
100
AcDbLine
 10
438.249999999956
 20
-38.00000000252118
 30
0.0
 11
435.499999999955
 21
-38.00000000252118
 31
0.0
  0
LINE
  5
8C
330
76
100
AcDbEntity
  8
0
  6
Continuous
 62
     7
100
AcDbLine
 10
438.249999999956
 20
-38.00000000252118
 30
0.0
 11
438.499999999955
 21
-38.00000000252118
 31
0.0
  0
LINE
  5
8D
330
76
100
AcDbEntity
  8
0
  6
Continuous
 62
     7
100
AcDbLine
 10
339.499999999955
 20
-39.50000000252118
 30
0.0
 11
339.499999999955
 21
-38.00000000252118
 31
0.0
  0
LINE
  5
8E
330
76
100
AcDbEntity
  8
0
  6
Continuous
 62
     7
100
AcDbLine
 10
438.499999999955
 20
-39.50000000252118
 30
0.0
 11
438.499999999955
 21
-38.00000000252118
 31
0.0
  0
LINE
  5
8F
330
76
100
AcDbEntity
  8
0
  6
Continuous
 62
     3
100
AcDbLine
 10
339.499999999955
 20
-39.50000000252118
 30
0.0
 11
438.499999999955
 21
-39.50000000252118
 31
0.0
  0
LINE
  5
90
330
76
100
AcDbEntity
  8
0
  6
Continuous
 62
     7
100
AcDbLine
 10
415.376554348977
 20
-42.70000000252117
 30
0.0
 11
415.6799819137889
 21
-42.70000000252118
 31
0.0
  0
LINE
  5
91
330
76
100
AcDbEntity
  8
0
  6
Continuous
 62
     7
100
AcDbLine
 10
415.376554348977
 20
-42.50000000252118
 30
0.0
 11
415.6799819137889
 21
-42.50000000252118
 31
0.0
  0
LINE
  5
92
330
76
100
AcDbEntity
  8
0
  6
Continuous
 62
     7
100
AcDbLine
 10
405.837169839589
 20
-42.70000000252117
 30
0.0
 11
405.837169839589
 21
-42.50000000252118
 31
0.0
  0
LINE
  5
93
330
76
100
AcDbEntity
  8
0
  6
Continuous
 62
     7
100
AcDbLine
 10
406.0286762498454
 20
-42.70000000252117
 30
0.0
 11
406.0286762498454
 21
-42.50000000252118
 31
0.0
  0
LINE
  5
94
330
76
100
AcDbEntity
  8
0
  6
Continuous
 62
     7
100
AcDbLine
 10
410.66040828004
 20
-42.70000000252117
 30
0.0
 11
410.66040828004
 21
-42.50000000252118
 31
0.0
  0
LINE
  5
95
330
76
100
AcDbEntity
  8
0
  6
Continuous
 62
     7
100
AcDbLine
 10
412.5794294571545
 20
-42.70000000252117
 30
0.0
 11
412.5794294571545
 21
-42.50000000252118
 31
0.0
  0
LINE
  5
96
330
76
100
AcDbEntity
  8
0
  6
Continuous
 62
     7
100
AcDbLine
 10
412.7537083033083
 20
-42.70000000252117
 30
0.0
 11
413.284157021257
 21
-42.70000000252117
 31
0.0
  0
LINE
  5
97
330
76
100
AcDbEntity
  8
0
  6
Continuous
 62
     7
100
AcDbLine
 10
415.7630381038031
 20
-42.70000000252117
 30
0.0
 11
415.7630381038031
 21
-42.50000000252118
 31
0.0
  0
LINE
  5
98
330
76
100
AcDbEntity
  8
0
  6
Continuous
 62
     7
100
AcDbLine
 10
415.9433265653415
 20
-42.70000000252117
 30
0.0
 11
416.2718522063672
 21
-42.70000000252117
 31
0.0
  0
LINE
  5
99
330
76
100
AcDbEntity
  8
0
  6
Continuous
 62
     7
100
AcDbLine
 10
416.2718522063672
 20
-42.70000000252117
 30
0.0
 11
416.9031156981189
 21
-42.70000000252117
 31
0.0
  0
LINE
  5
9A
330
76
100
AcDbEntity
  8
0
  6
Continuous
 62
     7
100
AcDbLine
 10
420.7468820440284
 20
-42.70000000252117
 30
0.0
 11
420.7468820440284
 21
-42.50000000252118
 31
0.0
  0
LINE
  5
9B
330
76
100
AcDbEntity
  8
0
  6
Continuous
 62
     7
100
AcDbLine
 10
422.0911602021359
 20
-42.70000000252117
 30
0.0
 11
422.0911602021359
 21
-42.50000000252118
 31
0.0
  0
LINE
  5
9C
330
76
100
AcDbEntity
  8
0
  6
Continuous
 62
     7
100
AcDbLine
 10
422.220567253418
 20
-42.70000000252117
 30
0.0
 11
423.2552896551847
 21
-42.70000000252117
 31
0.0
  0
LINE
  5
9D
330
76
100
AcDbEntity
  8
0
  6
Continuous
 62
     7
100
AcDbLine
 10
423.6611743317479
 20
-42.70000000252117
 30
0.0
 11
423.6611743317479
 21
-42.50000000252118
 31
0.0
  0
LINE
  5
9E
330
76
100
AcDbEntity
  8
0
  6
Continuous
 62
     7
100
AcDbLine
 10
427.6484840416151
 20
-42.70000000252117
 30
0.0
 11
427.6484840416151
 21
-42.50000000252118
 31
0.0
  0
LINE
  5
9F
330
76
100
AcDbEntity
  8
0
  6
Continuous
 62
     7
100
AcDbLine
 10
429.37965391341
 20
-42.70000000252117
 30
0.0
 11
429.37965391341
 21
-42.50000000252118
 31
0.0
  0
LINE
  5
A0
330
76
100
AcDbEntity
  8
0
  6
Continuous
 62
     7
100
AcDbLine
 10
427.0980032723843
 20
-42.70000000252117
 30
0.0
 11
427.6484840416151
 21
-42.70000000252117
 31
0.0
  0
LINE
  5
A1
330
76
100
AcDbEntity
  8
0
  6
Continuous
 62
     7
100
AcDbLine
 10
427.6484840416151
 20
-42.70000000252117
 30
0.0
 11
429.37965391341
 21
-42.70000000252117
 31
0.0
  0
LINE
  5
A2
330
76
100
AcDbEntity
  8
0
  6
Continuous
 62
     7
100
AcDbLine
 10
427.0980032723843
 20
-42.70000000252117
 30
0.0
 11
427.0980032723843
 21
-42.50000000252118
 31
0.0
  0
LINE
  5
A3
330
76
100
AcDbEntity
  8
0
  6
Continuous
 62
     7
100
AcDbLine
 10
426.8072801344658
 20
-42.70000000252117
 30
0.0
 11
426.9146519293375
 21
-42.70000000252117
 31
0.0
  0
LINE
  5
A4
330
76
100
AcDbEntity
  8
0
  6
Continuous
 62
     7
100
AcDbLine
 10
426.9146519293375
 20
-42.70000000252117
 30
0.0
 11
426.9146519293375
 21
-42.50000000252118
 31
0.0
  0
LINE
  5
A5
330
76
100
AcDbEntity
  8
0
  6
Continuous
 62
     7
100
AcDbLine
 10
426.8072801344658
 20
-42.70000000252117
 30
0.0
 11
426.8072801344658
 21
-42.50000000252118
 31
0.0
  0
LINE
  5
A6
330
76
100
AcDbEntity
  8
0
  6
Continuous
 62
     7
100
AcDbLine
 10
426.9146519293375
 20
-42.70000000252117
 30
0.0
 11
427.0980032723843
 21
-42.70000000252117
 31
0.0
  0
LINE
  5
A7
330
76
100
AcDbEntity
  8
0
  6
Continuous
 62
     7
100
AcDbLine
 10
426.1229852626709
 20
-42.70000000252117
 30
0.0
 11
426.1229852626709
 21
-42.50000000252118
 31
0.0
  0
LINE
  5
A8
330
76
100
AcDbEntity
  8
0
  6
Continuous
 62
     7
100
AcDbLine
 10
426.1229852626709
 20
-42.70000000252117
 30
0.0
 11
426.8072801344658
 21
-42.70000000252117
 31
0.0
  0
LINE
  5
A9
330
76
100
AcDbEntity
  8
0
  6
Continuous
 62
     7
100
AcDbLine
 10
426.0993474421581
 20
-42.70000000252117
 30
0.0
 11
426.1229852626709
 21
-42.70000000252117
 31
0.0
  0
LINE
  5
AA
330
76
100
AcDbEntity
  8
0
  6
Continuous
 62
     7
100
AcDbLine
 10
426.0993474421581
 20
-42.70000000252117
 30
0.0
 11
426.0993474421581
 21
-42.50000000252118
 31
0.0
  0
LINE
  5
AB
330
76
100
AcDbEntity
  8
0
  6
Continuous
 62
     7
100
AcDbLine
 10
425.4880333493713
 20
-42.70000000252117
 30
0.0
 11
425.4880333493713
 21
-42.50000000252118
 31
0.0
  0
LINE
  5
AC
330
76
100
AcDbEntity
  8
0
  6
Continuous
 62
     7
100
AcDbLine
 10
425.3775801642446
 20
-42.70000000252118
 30
0.0
 11
425.4880333493713
 21
-42.70000000252117
 31
0.0
  0
LINE
  5
AD
330
76
100
AcDbEntity
  8
0
  6
Continuous
 62
     7
100
AcDbLine
 10
425.4880333493713
 20
-42.70000000252117
 30
0.0
 11
426.0993474421581
 21
-42.70000000252117
 31
0.0
  0
LINE
  5
AE
330
76
100
AcDbEntity
  8
0
  6
Continuous
 62
     7
100
AcDbLine
 10
424.4722743781223
 20
-42.70000000252117
 30
0.0
 11
424.6229166121707
 21
-42.70000000252117
 31
0.0
  0
LINE
  5
AF
330
76
100
AcDbEntity
  8
0
  6
Continuous
 62
     7
100
AcDbLine
 10
424.6229166121707
 20
-42.70000000252117
 30
0.0
 11
424.6229166121707
 21
-42.50000000252116
 31
0.0
  0
LINE
  5
B0
330
76
100
AcDbEntity
  8
0
  6
Continuous
 62
     7
100
AcDbLine
 10
424.6229166121707
 20
-42.70000000252117
 30
0.0
 11
425.3775801642446
 21
-42.70000000252118
 31
0.0
  0
LINE
  5
B1
330
76
100
AcDbEntity
  8
0
  6
Continuous
 62
     7
100
AcDbLine
 10
423.7813666394402
 20
-42.70000000252117
 30
0.0
 11
423.7813666394402
 21
-42.50000000252118
 31
0.0
  0
LINE
  5
B2
330
76
100
AcDbEntity
  8
0
  6
Continuous
 62
     7
100
AcDbLine
 10
423.7813666394402
 20
-42.70000000252117
 30
0.0
 11
424.4722743781223
 21
-42.70000000252117
 31
0.0
  0
LINE
  5
B3
330
76
100
AcDbEntity
  8
0
  6
Continuous
 62
     7
100
AcDbLine
 10
423.6611743317479
 20
-42.70000000252117
 30
0.0
 11
423.7813666394402
 21
-42.70000000252117
 31
0.0
  0
LINE
  5
B4
330
76
100
AcDbEntity
  8
0
  6
Continuous
 62
     7
100
AcDbLine
 10
423.2552896551847
 20
-42.70000000252117
 30
0.0
 11
423.2552896551847
 21
-42.50000000252118
 31
0.0
  0
LINE
  5
B5
330
76
100
AcDbEntity
  8
0
  6
Continuous
 62
     7
100
AcDbLine
 10
423.2552896551847
 20
-42.70000000252117
 30
0.0
 11
423.6611743317479
 21
-42.70000000252117
 31
0.0
  0
LINE
  5
B6
330
76
100
AcDbEntity
  8
0
  6
Continuous
 62
     7
100
AcDbLine
 10
422.220567253418
 20
-42.70000000252117
 30
0.0
 11
422.220567253418
 21
-42.50000000252118
 31
0.0
  0
LINE
  5
B7
330
76
100
AcDbEntity
  8
0
  6
Continuous
 62
     7
100
AcDbLine
 10
422.0911602021359
 20
-42.70000000252117
 30
0.0
 11
422.220567253418
 21
-42.70000000252117
 31
0.0
  0
LINE
  5
B8
330
76
100
AcDbEntity
  8
0
  6
Continuous
 62
     7
100
AcDbLine
 10
420.8895102491566
 20
-42.70000000252117
 30
0.0
 11
420.8895102491566
 21
-42.50000000252118
 31
0.0
  0
LINE
  5
B9
330
76
100
AcDbEntity
  8
0
  6
Continuous
 62
     7
100
AcDbLine
 10
421.9868660183873
 20
-42.70000000252117
 30
0.0
 11
421.9868660183873
 21
-42.50000000252118
 31
0.0
  0
LINE
  5
BA
330
76
100
AcDbEntity
  8
0
  6
Continuous
 62
     7
100
AcDbLine
 10
420.8895102491566
 20
-42.70000000252117
 30
0.0
 11
421.9868660183873
 21
-42.70000000252117
 31
0.0
  0
LINE
  5
BB
330
76
100
AcDbEntity
  8
0
  6
Continuous
 62
     7
100
AcDbLine
 10
420.7468820440284
 20
-42.70000000252117
 30
0.0
 11
420.8895102491566
 21
-42.70000000252117
 31
0.0
  0
LINE
  5
BC
330
76
100
AcDbEntity
  8
0
  6
Continuous
 62
     7
100
AcDbLine
 10
419.5948521061785
 20
-42.70000000252117
 30
0.0
 11
419.5948521061785
 21
-42.50000000252118
 31
0.0
  0
LINE
  5
BD
330
76
100
AcDbEntity
  8
0
  6
Continuous
 62
     7
100
AcDbLine
 10
419.5948521061785
 20
-42.70000000252117
 30
0.0
 11
420.7468820440284
 21
-42.70000000252117
 31
0.0
  0
LINE
  5
BE
330
76
100
AcDbEntity
  8
0
  6
Continuous
 62
     7
100
AcDbLine
 10
419.1321117215631
 20
-42.70000000252117
 30
0.0
 11
419.1321117215631
 21
-42.50000000252121
 31
0.0
  0
LINE
  5
BF
330
76
100
AcDbEntity
  8
0
  6
Continuous
 62
     7
100
AcDbLine
 10
418.7397704537182
 20
-42.70000000252118
 30
0.0
 11
419.1321117215631
 21
-42.70000000252117
 31
0.0
  0
LINE
  5
C0
330
76
100
AcDbEntity
  8
0
  6
Continuous
 62
     7
100
AcDbLine
 10
419.1321117215631
 20
-42.70000000252117
 30
0.0
 11
419.5948521061785
 21
-42.70000000252117
 31
0.0
  0
LINE
  5
C1
330
76
100
AcDbEntity
  8
0
  6
Continuous
 62
     7
100
AcDbLine
 10
417.9327631340163
 20
-42.70000000252117
 30
0.0
 11
418.0890131340163
 21
-42.70000000252117
 31
0.0
  0
LINE
  5
C2
330
76
100
AcDbEntity
  8
0
  6
Continuous
 62
     7
100
AcDbLine
 10
418.0890131340163
 20
-42.70000000252117
 30
0.0
 11
418.0890131340163
 21
-42.50000000252118
 31
0.0
  0
LINE
  5
C3
330
76
100
AcDbEntity
  8
0
  6
Continuous
 62
     7
100
AcDbLine
 10
417.9327631340163
 20
-42.70000000252117
 30
0.0
 11
417.9327631340163
 21
-42.50000000252118
 31
0.0
  0
LINE
  5
C4
330
76
100
AcDbEntity
  8
0
  6
Continuous
 62
     7
100
AcDbLine
 10
418.0890131340163
 20
-42.70000000252117
 30
0.0
 11
418.7397704537182
 21
-42.70000000252118
 31
0.0
  0
LINE
  5
C5
330
76
100
AcDbEntity
  8
0
  6
Continuous
 62
     7
100
AcDbLine
 10
416.9371701852983
 20
-42.70000000252117
 30
0.0
 11
416.9371701852984
 21
-42.50000000252118
 31
0.0
  0
LINE
  5
C6
330
76
100
AcDbEntity
  8
0
  6
Continuous
 62
     7
100
AcDbLine
 10
416.9371701852983
 20
-42.70000000252117
 30
0.0
 11
417.9327631340163
 21
-42.70000000252117
 31
0.0
  0
LINE
  5
C7
330
76
100
AcDbEntity
  8
0
  6
Continuous
 62
     7
100
AcDbLine
 10
416.9031156981189
 20
-42.70000000252117
 30
0.0
 11
416.9371701852983
 21
-42.70000000252117
 31
0.0
  0
LINE
  5
C8
330
76
100
AcDbEntity
  8
0
  6
Continuous
 62
     7
100
AcDbLine
 10
416.9031156981189
 20
-42.70000000252117
 30
0.0
 11
416.9031156981189
 21
-42.50000000252118
 31
0.0
  0
LINE
  5
C9
330
76
100
AcDbEntity
  8
0
  6
Continuous
 62
     7
100
AcDbLine
 10
416.2718522063672
 20
-42.70000000252117
 30
0.0
 11
416.2718522063672
 21
-42.50000000252118
 31
0.0
  0
LINE
  5
CA
330
76
100
AcDbEntity
  8
0
  6
Continuous
 62
     7
100
AcDbLine
 10
415.9433265653415
 20
-42.70000000252117
 30
0.0
 11
415.9433265653415
 21
-42.50000000252118
 31
0.0
  0
LINE
  5
CB
330
76
100
AcDbEntity
  8
0
  6
Continuous
 62
     7
100
AcDbLine
 10
415.7630381038031
 20
-42.70000000252117
 30
0.0
 11
415.9433265653415
 21
-42.70000000252117
 31
0.0
  0
LINE
  5
CC
330
76
100
AcDbEntity
  8
0
  6
Continuous
 62
     7
100
AcDbLine
 10
415.376554348977
 20
-42.70000000252117
 30
0.0
 11
415.376554348977
 21
-42.50000000252118
 31
0.0
  0
LINE
  5
CD
330
76
100
AcDbEntity
  8
0
  6
Continuous
 62
     7
100
AcDbLine
 10
414.2371312720539
 20
-42.70000000252117
 30
0.0
 11
414.2371312720539
 21
-42.50000000252116
 31
0.0
  0
LINE
  5
CE
330
76
100
AcDbEntity
  8
0
  6
Continuous
 62
     7
100
AcDbLine
 10
414.2371312720539
 20
-42.70000000252117
 30
0.0
 11
415.376554348977
 21
-42.70000000252117
 31
0.0
  0
LINE
  5
CF
330
76
100
AcDbEntity
  8
0
  6
Continuous
 62
     7
100
AcDbLine
 10
413.9796499884353
 20
-42.70000000252117
 30
0.0
 11
414.2371312720539
 21
-42.70000000252117
 31
0.0
  0
LINE
  5
D0
330
76
100
AcDbEntity
  8
0
  6
Continuous
 62
     7
100
AcDbLine
 10
412.7537083033083
 20
-42.70000000252117
 30
0.0
 11
412.7537083033083
 21
-42.50000000252118
 31
0.0
  0
LINE
  5
D1
330
76
100
AcDbEntity
  8
0
  6
Continuous
 62
     7
100
AcDbLine
 10
413.284157021257
 20
-42.70000000252117
 30
0.0
 11
413.284157021257
 21
-42.50000000252118
 31
0.0
  0
LINE
  5
D2
330
76
100
AcDbEntity
  8
0
  6
Continuous
 62
     7
100
AcDbLine
 10
412.5794294571545
 20
-42.70000000252117
 30
0.0
 11
412.7537083033083
 21
-42.70000000252117
 31
0.0
  0
LINE
  5
D3
330
76
100
AcDbEntity
  8
0
  6
Continuous
 62
     7
100
AcDbLine
 10
410.6936614851682
 20
-42.70000000252117
 30
0.0
 11
410.6936614851682
 21
-42.50000000252118
 31
0.0
  0
LINE
  5
D4
330
76
100
AcDbEntity
  8
0
  6
Continuous
 62
     7
100
AcDbLine
 10
412.14478328004
 20
-42.70000000252117
 30
0.0
 11
412.14478328004
 21
-42.50000000252118
 31
0.0
  0
LINE
  5
D5
330
76
100
AcDbEntity
  8
0
  6
Continuous
 62
     7
100
AcDbLine
 10
410.6936614851682
 20
-42.70000000252117
 30
0.0
 11
412.14478328004
 21
-42.70000000252117
 31
0.0
  0
LINE
  5
D6
330
76
100
AcDbEntity
  8
0
  6
Continuous
 62
     7
100
AcDbLine
 10
410.66040828004
 20
-42.70000000252117
 30
0.0
 11
410.6936614851682
 21
-42.70000000252117
 31
0.0
  0
LINE
  5
D7
330
76
100
AcDbEntity
  8
0
  6
Continuous
 62
     7
100
AcDbLine
 10
409.612331356963
 20
-42.70000000252117
 30
0.0
 11
409.612331356963
 21
-42.50000000252118
 31
0.0
  0
LINE
  5
D8
330
76
100
AcDbEntity
  8
0
  6
Continuous
 62
     7
100
AcDbLine
 10
409.612331356963
 20
-42.70000000252117
 30
0.0
 11
410.66040828004
 21
-42.70000000252117
 31
0.0
  0
LINE
  5
D9
330
76
100
AcDbEntity
  8
0
  6
Continuous
 62
     7
100
AcDbLine
 10
409.5790781518348
 20
-42.70000000252117
 30
0.0
 11
409.612331356963
 21
-42.70000000252117
 31
0.0
  0
LINE
  5
DA
330
76
100
AcDbEntity
  8
0
  6
Continuous
 62
     7
100
AcDbLine
 10
409.5790781518348
 20
-42.70000000252117
 30
0.0
 11
409.5790781518348
 21
-42.50000000252118
 31
0.0
  0
LINE
  5
DB
330
76
100
AcDbEntity
  8
0
  6
Continuous
 62
     7
100
AcDbLine
 10
408.7273334896477
 20
-42.70000000252117
 30
0.0
 11
408.7273334896477
 21
-42.50000000252118
 31
0.0
  0
LINE
  5
DC
330
76
100
AcDbEntity
  8
0
  6
Continuous
 62
     7
100
AcDbLine
 10
409.2581828486221
 20
-42.70000000252117
 30
0.0
 11
409.2581828486221
 21
-42.50000000252118
 31
0.0
  0
LINE
  5
DD
330
76
100
AcDbEntity
  8
0
  6
Continuous
 62
     7
100
AcDbLine
 10
409.2581828486221
 20
-42.50000000252118
 30
0.0
 11
409.3628432534302
 21
-42.50000000252118
 31
0.0
  0
LINE
  5
DE
330
76
100
AcDbEntity
  8
0
  6
Continuous
 62
     7
100
AcDbLine
 10
407.8391123358016
 20
-42.70000000252118
 30
0.0
 11
407.8391123358016
 21
-42.50000000252118
 31
0.0
  0
LINE
  5
DF
330
76
100
AcDbEntity
  8
0
  6
Continuous
 62
     7
100
AcDbLine
 10
407.2289360537503
 20
-42.70000000252117
 30
0.0
 11
407.2289360537503
 21
-42.50000000252118
 31
0.0
  0
LINE
  5
E0
330
76
100
AcDbEntity
  8
0
  6
Continuous
 62
     7
100
AcDbLine
 10
407.8391123358016
 20
-42.70000000252118
 30
0.0
 11
408.7273334896477
 21
-42.70000000252117
 31
0.0
  0
LINE
  5
E1
330
76
100
AcDbEntity
  8
0
  6
Continuous
 62
     7
100
AcDbLine
 10
407.2289360537503
 20
-42.70000000252117
 30
0.0
 11
407.8391123358016
 21
-42.70000000252118
 31
0.0
  0
LINE
  5
E2
330
76
100
AcDbEntity
  8
0
  6
Continuous
 62
     7
100
AcDbLine
 10
406.0286762498454
 20
-42.70000000252117
 30
0.0
 11
406.1420576601018
 21
-42.70000000252117
 31
0.0
  0
LINE
  5
E3
330
76
100
AcDbEntity
  8
0
  6
Continuous
 62
     7
100
AcDbLine
 10
406.1420576601018
 20
-42.70000000252117
 30
0.0
 11
406.1420576601018
 21
-42.50000000252118
 31
0.0
  0
LINE
  5
E4
330
76
100
AcDbEntity
  8
0
  6
Continuous
 62
     7
100
AcDbLine
 10
405.837169839589
 20
-42.70000000252117
 30
0.0
 11
406.0286762498454
 21
-42.70000000252117
 31
0.0
  0
LINE
  5
E5
330
76
100
AcDbEntity
  8
0
  6
Continuous
 62
     7
100
AcDbLine
 10
404.4411824048699
 20
-42.70000000252118
 30
0.0
 11
404.5794035587161
 21
-42.70000000252117
 31
0.0
  0
LINE
  5
E6
330
76
100
AcDbEntity
  8
0
  6
Continuous
 62
     7
100
AcDbLine
 10
404.5794035587161
 20
-42.70000000252117
 30
0.0
 11
404.579403558716
 21
-42.50000000252118
 31
0.0
  0
LINE
  5
E7
330
76
100
AcDbEntity
  8
0
  6
Continuous
 62
     7
100
AcDbLine
 10
404.4411824048699
 20
-42.70000000252118
 30
0.0
 11
404.4411824048699
 21
-42.50000000252118
 31
0.0
  0
LINE
  5
E8
330
76
100
AcDbEntity
  8
0
  6
Continuous
 62
     7
100
AcDbLine
 10
403.689980481793
 20
-42.70000000252117
 30
0.0
 11
403.689980481793
 21
-42.50000000252118
 31
0.0
  0
LINE
  5
E9
330
76
100
AcDbEntity
  8
0
  6
Continuous
 62
     7
100
AcDbLine
 10
403.689980481793
 20
-42.70000000252117
 30
0.0
 11
404.4411824048699
 21
-42.70000000252118
 31
0.0
  0
LINE
  5
EA
330
76
100
AcDbEntity
  8
0
  6
Continuous
 62
     7
100
AcDbLine
 10
403.223950208829
 20
-42.70000000252119
 30
0.0
 11
403.689980481793
 21
-42.70000000252117
 31
0.0
  0
LINE
  5
EB
330
76
100
AcDbEntity
  8
0
  6
Continuous
 62
     7
100
AcDbLine
 10
402.2012520068391
 20
-42.70000000252117
 30
0.0
 11
402.2012520068391
 21
-42.50000000252118
 31
0.0
  0
LINE
  5
EC
330
76
100
AcDbEntity
  8
0
  6
Continuous
 62
     7
100
AcDbLine
 10
403.1523738017109
 20
-42.70000000252117
 30
0.0
 11
403.1523738017109
 21
-42.50000000252118
 31
0.0
  0
LINE
  5
ED
330
76
100
AcDbEntity
  8
0
  6
Continuous
 62
     7
100
AcDbLine
 10
402.2012520068391
 20
-42.70000000252117
 30
0.0
 11
403.1523738017109
 21
-42.70000000252117
 31
0.0
  0
LINE
  5
EE
330
76
100
AcDbEntity
  8
0
  6
Continuous
 62
     7
100
AcDbLine
 10
403.1523738017109
 20
-42.70000000252117
 30
0.0
 11
403.223950208829
 21
-42.70000000252119
 31
0.0
  0
LINE
  5
EF
330
76
100
AcDbEntity
  8
0
  6
Continuous
 62
     7
100
AcDbLine
 10
401.7609035883471
 20
-42.70000000252117
 30
0.0
 11
402.2012520068391
 21
-42.70000000252117
 31
0.0
  0
LINE
  5
F0
330
76
100
AcDbEntity
  8
0
  6
Continuous
 62
     7
100
AcDbLine
 10
399.9115647259641
 20
-42.70000000252117
 30
0.0
 11
399.9115647259641
 21
-42.50000000252118
 31
0.0
  0
LINE
  5
F1
330
76
100
AcDbEntity
  8
0
  6
Continuous
 62
     7
100
AcDbLine
 10
399.9572378028872
 20
-42.70000000252117
 30
0.0
 11
399.9572378028872
 21
-42.50000000252118
 31
0.0
  0
LINE
  5
F2
330
76
100
AcDbEntity
  8
0
  6
Continuous
 62
     7
100
AcDbLine
 10
400.2008275464769
 20
-42.70000000252117
 30
0.0
 11
400.2008275464769
 21
-42.50000000252118
 31
0.0
  0
LINE
  5
F3
330
76
100
AcDbEntity
  8
0
  6
Continuous
 62
     7
100
AcDbLine
 10
400.2469012644256
 20
-42.70000000252117
 30
0.0
 11
400.2469012644256
 21
-42.50000000252118
 31
0.0
  0
LINE
  5
F4
330
76
100
AcDbEntity
  8
0
  6
Continuous
 62
     7
100
AcDbLine
 10
399.9572378028872
 20
-42.70000000252117
 30
0.0
 11
400.2008275464769
 21
-42.70000000252117
 31
0.0
  0
LINE
  5
F5
330
76
100
AcDbEntity
  8
0
  6
Continuous
 62
     7
100
AcDbLine
 10
399.9115647259641
 20
-42.70000000252117
 30
0.0
 11
399.9572378028872
 21
-42.70000000252117
 31
0.0
  0
LINE
  5
F6
330
76
100
AcDbEntity
  8
0
  6
Continuous
 62
     7
100
AcDbLine
 10
400.2008275464769
 20
-42.70000000252117
 30
0.0
 11
400.2469012644256
 21
-42.70000000252117
 31
0.0
  0
LINE
  5
F7
330
76
100
AcDbEntity
  8
0
  6
Continuous
 62
     7
100
AcDbLine
 10
398.7004269054513
 20
-42.70000000252117
 30
0.0
 11
398.7004269054513
 21
-42.50000000252118
 31
0.0
  0
LINE
  5
F8
330
76
100
AcDbEntity
  8
0
  6
Continuous
 62
     7
100
AcDbLine
 10
398.7004269054513
 20
-42.70000000252117
 30
0.0
 11
399.9115647259641
 21
-42.70000000252117
 31
0.0
  0
LINE
  5
F9
330
76
100
AcDbEntity
  8
0
  6
Continuous
 62
     7
100
AcDbLine
 10
398.1264360202014
 20
-42.70000000252117
 30
0.0
 11
398.1264360202014
 21
-42.50000000252118
 31
0.0
  0
LINE
  5
FA
330
76
100
AcDbEntity
  8
0
  6
Continuous
 62
     7
100
AcDbLine
 10
398.5162597381501
 20
-42.70000000252117
 30
0.0
 11
398.5162597381501
 21
-42.50000000252118
 31
0.0
  0
LINE
  5
FB
330
76
100
AcDbEntity
  8
0
  6
Continuous
 62
     7
100
AcDbLine
 10
398.1264360202014
 20
-42.70000000252117
 30
0.0
 11
398.5162597381501
 21
-42.70000000252117
 31
0.0
  0
LINE
  5
FC
330
76
100
AcDbEntity
  8
0
  6
Continuous
 62
     7
100
AcDbLine
 10
392.0014389900155
 20
-42.70000000252117
 30
0.0
 11
392.8119357848873
 21
-42.70000000252117
 31
0.0
  0
LINE
  5
FD
330
76
100
AcDbEntity
  8
0
  6
Continuous
 62
     7
100
AcDbLine
 10
392.0014389900155
 20
-42.50000000252118
 30
0.0
 11
392.8119357848873
 21
-42.50000000252118
 31
0.0
  0
LINE
  5
FE
330
76
100
AcDbEntity
  8
0
  6
Continuous
 62
     7
100
AcDbLine
 10
429.37965391341
 20
-42.50000000252118
 30
0.0
 11
435.499999999955
 21
-42.50000000252118
 31
0.0
  0
LINE
  5
FF
330
76
100
AcDbEntity
  8
0
  6
Continuous
 62
     7
100
AcDbLine
 10
427.6484840416151
 20
-42.50000000252118
 30
0.0
 11
429.37965391341
 21
-42.50000000252118
 31
0.0
  0
LINE
  5
100
330
76
100
AcDbEntity
  8
0
  6
Continuous
 62
     7
100
AcDbLine
 10
427.0980032723843
 20
-42.50000000252118
 30
0.0
 11
427.6484840416151
 21
-42.50000000252118
 31
0.0
  0
LINE
  5
101
330
76
100
AcDbEntity
  8
0
  6
Continuous
 62
     7
100
AcDbLine
 10
426.9146519293375
 20
-42.50000000252118
 30
0.0
 11
427.0980032723843
 21
-42.50000000252118
 31
0.0
  0
LINE
  5
102
330
76
100
AcDbEntity
  8
0
  6
Continuous
 62
     7
100
AcDbLine
 10
426.8072801344658
 20
-42.50000000252118
 30
0.0
 11
426.9146519293375
 21
-42.50000000252118
 31
0.0
  0
LINE
  5
103
330
76
100
AcDbEntity
  8
0
  6
Continuous
 62
     7
100
AcDbLine
 10
426.1229852626709
 20
-42.50000000252118
 30
0.0
 11
426.8072801344658
 21
-42.50000000252118
 31
0.0
  0
LINE
  5
104
330
76
100
AcDbEntity
  8
0
  6
Continuous
 62
     7
100
AcDbLine
 10
426.0993474421581
 20
-42.50000000252118
 30
0.0
 11
426.1229852626709
 21
-42.50000000252118
 31
0.0
  0
LINE
  5
105
330
76
100
AcDbEntity
  8
0
  6
Continuous
 62
     7
100
AcDbLine
 10
425.3775801642446
 20
-42.50000000252118
 30
0.0
 11
425.4880333493713
 21
-42.50000000252118
 31
0.0
  0
LINE
  5
106
330
76
100
AcDbEntity
  8
0
  6
Continuous
 62
     7
100
AcDbLine
 10
425.4880333493713
 20
-42.50000000252118
 30
0.0
 11
426.0993474421581
 21
-42.50000000252118
 31
0.0
  0
LINE
  5
107
330
76
100
AcDbEntity
  8
0
  6
Continuous
 62
     7
100
AcDbLine
 10
424.6229166121707
 20
-42.50000000252116
 30
0.0
 11
425.3775801642446
 21
-42.50000000252118
 31
0.0
  0
LINE
  5
108
330
76
100
AcDbEntity
  8
0
  6
Continuous
 62
     7
100
AcDbLine
 10
424.4722743781223
 20
-42.50000000252115
 30
0.0
 11
424.6229166121707
 21
-42.50000000252116
 31
0.0
  0
LINE
  5
109
330
76
100
AcDbEntity
  8
0
  6
Continuous
 62
     7
100
AcDbLine
 10
423.7813666394402
 20
-42.50000000252118
 30
0.0
 11
424.4722743781223
 21
-42.50000000252115
 31
0.0
  0
LINE
  5
10A
330
76
100
AcDbEntity
  8
0
  6
Continuous
 62
     7
100
AcDbLine
 10
423.6611743317479
 20
-42.50000000252118
 30
0.0
 11
423.7813666394402
 21
-42.50000000252118
 31
0.0
  0
LINE
  5
10B
330
76
100
AcDbEntity
  8
0
  6
Continuous
 62
     7
100
AcDbLine
 10
423.2552896551847
 20
-42.50000000252118
 30
0.0
 11
423.6611743317479
 21
-42.50000000252118
 31
0.0
  0
LINE
  5
10C
330
76
100
AcDbEntity
  8
0
  6
Continuous
 62
     7
100
AcDbLine
 10
393.0995960412976
 20
-42.50000000252118
 30
0.0
 11
393.4933408365968
 21
-42.50000000252118
 31
0.0
  0
LINE
  5
10D
330
76
100
AcDbEntity
  8
0
  6
Continuous
 62
     7
100
AcDbLine
 10
392.9076889900155
 20
-42.50000000252118
 30
0.0
 11
393.0995960412976
 21
-42.50000000252118
 31
0.0
  0
LINE
  5
10E
330
76
100
AcDbEntity
  8
0
  6
Continuous
 62
     7
100
AcDbLine
 10
396.6684761897074
 20
-42.50000000252118
 30
0.0
 11
396.9909922153484
 21
-42.50000000252118
 31
0.0
  0
LINE
  5
10F
330
76
100
AcDbEntity
  8
0
  6
Continuous
 62
     7
100
AcDbLine
 10
398.1264360202014
 20
-42.50000000252118
 30
0.0
 11
398.5162597381501
 21
-42.50000000252118
 31
0.0
  0
LINE
  5
110
330
76
100
AcDbEntity
  8
0
  6
Continuous
 62
     7
100
AcDbLine
 10
398.7004269054513
 20
-42.50000000252118
 30
0.0
 11
399.9115647259641
 21
-42.50000000252118
 31
0.0
  0
LINE
  5
111
330
76
100
AcDbEntity
  8
0
  6
Continuous
 62
     7
100
AcDbLine
 10
400.2469012644256
 20
-42.50000000252118
 30
0.0
 11
401.7609035883471
 21
-42.50000000252118
 31
0.0
  0
LINE
  5
112
330
76
100
AcDbEntity
  8
0
  6
Continuous
 62
     7
100
AcDbLine
 10
402.2012520068391
 20
-42.50000000252118
 30
0.0
 11
403.1523738017109
 21
-42.50000000252118
 31
0.0
  0
LINE
  5
113
330
76
100
AcDbEntity
  8
0
  6
Continuous
 62
     7
100
AcDbLine
 10
404.579403558716
 20
-42.50000000252118
 30
0.0
 11
405.837169839589
 21
-42.50000000252118
 31
0.0
  0
LINE
  5
114
330
76
100
AcDbEntity
  8
0
  6
Continuous
 62
     7
100
AcDbLine
 10
405.837169839589
 20
-42.50000000252118
 30
0.0
 11
406.0286762498454
 21
-42.50000000252118
 31
0.0
  0
LINE
  5
115
330
76
100
AcDbEntity
  8
0
  6
Continuous
 62
     7
100
AcDbLine
 10
406.1420576601018
 20
-42.50000000252118
 30
0.0
 11
407.2289360537503
 21
-42.50000000252118
 31
0.0
  0
LINE
  5
116
330
76
100
AcDbEntity
  8
0
  6
Continuous
 62
     7
100
AcDbLine
 10
408.7273334896477
 20
-42.50000000252118
 30
0.0
 11
409.2581828486221
 21
-42.50000000252118
 31
0.0
  0
LINE
  5
117
330
76
100
AcDbEntity
  8
0
  6
Continuous
 62
     7
100
AcDbLine
 10
409.612331356963
 20
-42.50000000252118
 30
0.0
 11
410.66040828004
 21
-42.50000000252118
 31
0.0
  0
LINE
  5
118
330
76
100
AcDbEntity
  8
0
  6
Continuous
 62
     7
100
AcDbLine
 10
410.6936614851682
 20
-42.50000000252118
 30
0.0
 11
412.14478328004
 21
-42.50000000252118
 31
0.0
  0
LINE
  5
119
330
76
100
AcDbEntity
  8
0
  6
Continuous
 62
     7
100
AcDbLine
 10
412.5794294571545
 20
-42.50000000252118
 30
0.0
 11
412.7537083033083
 21
-42.50000000252118
 31
0.0
  0
LINE
  5
11A
330
76
100
AcDbEntity
  8
0
  6
Continuous
 62
     7
100
AcDbLine
 10
413.284157021257
 20
-42.50000000252118
 30
0.0
 11
413.9796499884353
 21
-42.50000000252116
 31
0.0
  0
LINE
  5
11B
330
76
100
AcDbEntity
  8
0
  6
Continuous
 62
     7
100
AcDbLine
 10
415.7630381038031
 20
-42.50000000252118
 30
0.0
 11
415.9433265653415
 21
-42.50000000252118
 31
0.0
  0
LINE
  5
11C
330
76
100
AcDbEntity
  8
0
  6
Continuous
 62
     7
100
AcDbLine
 10
415.9433265653415
 20
-42.50000000252118
 30
0.0
 11
416.2718522063672
 21
-42.50000000252118
 31
0.0
  0
LINE
  5
11D
330
76
100
AcDbEntity
  8
0
  6
Continuous
 62
     7
100
AcDbLine
 10
416.2718522063672
 20
-42.50000000252118
 30
0.0
 11
416.9031156981189
 21
-42.50000000252118
 31
0.0
  0
LINE
  5
11E
330
76
100
AcDbEntity
  8
0
  6
Continuous
 62
     7
100
AcDbLine
 10
418.0890131340163
 20
-42.50000000252118
 30
0.0
 11
418.7397704537182
 21
-42.50000000252118
 31
0.0
  0
LINE
  5
11F
330
76
100
AcDbEntity
  8
0
  6
Continuous
 62
     7
100
AcDbLine
 10
418.7397704537182
 20
-42.50000000252118
 30
0.0
 11
419.1321117215631
 21
-42.50000000252121
 31
0.0
  0
LINE
  5
120
330
76
100
AcDbEntity
  8
0
  6
Continuous
 62
     7
100
AcDbLine
 10
420.7468820440284
 20
-42.50000000252118
 30
0.0
 11
420.8895102491566
 21
-42.50000000252118
 31
0.0
  0
LINE
  5
121
330
76
100
AcDbEntity
  8
0
  6
Continuous
 62
     7
100
AcDbLine
 10
422.0911602021359
 20
-42.50000000252118
 30
0.0
 11
422.220567253418
 21
-42.50000000252118
 31
0.0
  0
LINE
  5
122
330
76
100
AcDbEntity
  8
0
  6
Continuous
 62
     7
100
AcDbLine
 10
422.220567253418
 20
-42.50000000252118
 30
0.0
 11
423.2552896551847
 21
-42.50000000252118
 31
0.0
  0
LINE
  5
123
330
76
100
AcDbEntity
  8
0
  6
Continuous
 62
     7
100
AcDbLine
 10
421.9868660183873
 20
-42.50000000252118
 30
0.0
 11
422.0911602021359
 21
-42.50000000252118
 31
0.0
  0
LINE
  5
124
330
76
100
AcDbEntity
  8
0
  6
Continuous
 62
     7
100
AcDbLine
 10
420.8895102491566
 20
-42.50000000252118
 30
0.0
 11
421.9868660183873
 21
-42.50000000252118
 31
0.0
  0
LINE
  5
125
330
76
100
AcDbEntity
  8
0
  6
Continuous
 62
     7
100
AcDbLine
 10
419.5948521061785
 20
-42.50000000252118
 30
0.0
 11
420.7468820440284
 21
-42.50000000252118
 31
0.0
  0
LINE
  5
126
330
76
100
AcDbEntity
  8
0
  6
Continuous
 62
     7
100
AcDbLine
 10
419.1321117215631
 20
-42.50000000252121
 30
0.0
 11
419.5948521061785
 21
-42.50000000252118
 31
0.0
  0
LINE
  5
127
330
76
100
AcDbEntity
  8
0
  6
Continuous
 62
     7
100
AcDbLine
 10
417.9327631340163
 20
-42.50000000252118
 30
0.0
 11
418.0890131340163
 21
-42.50000000252118
 31
0.0
  0
LINE
  5
128
330
76
100
AcDbEntity
  8
0
  6
Continuous
 62
     7
100
AcDbLine
 10
416.9371701852984
 20
-42.50000000252118
 30
0.0
 11
417.9327631340163
 21
-42.50000000252118
 31
0.0
  0
LINE
  5
129
330
76
100
AcDbEntity
  8
0
  6
Continuous
 62
     7
100
AcDbLine
 10
416.9031156981189
 20
-42.50000000252118
 30
0.0
 11
416.9371701852984
 21
-42.50000000252118
 31
0.0
  0
LINE
  5
12A
330
76
100
AcDbEntity
  8
0
  6
Continuous
 62
     7
100
AcDbLine
 10
415.6799819137889
 20
-42.50000000252118
 30
0.0
 11
415.7630381038031
 21
-42.50000000252118
 31
0.0
  0
LINE
  5
12B
330
76
100
AcDbEntity
  8
0
  6
Continuous
 62
     7
100
AcDbLine
 10
414.2371312720539
 20
-42.50000000252116
 30
0.0
 11
415.376554348977
 21
-42.50000000252118
 31
0.0
  0
LINE
  5
12C
330
76
100
AcDbEntity
  8
0
  6
Continuous
 62
     7
100
AcDbLine
 10
413.9796499884353
 20
-42.50000000252116
 30
0.0
 11
414.2371312720539
 21
-42.50000000252116
 31
0.0
  0
LINE
  5
12D
330
76
100
AcDbEntity
  8
0
  6
Continuous
 62
     7
100
AcDbLine
 10
412.7537083033083
 20
-42.50000000252118
 30
0.0
 11
413.284157021257
 21
-42.50000000252118
 31
0.0
  0
LINE
  5
12E
330
76
100
AcDbEntity
  8
0
  6
Continuous
 62
     7
100
AcDbLine
 10
412.14478328004
 20
-42.50000000252118
 30
0.0
 11
412.5794294571545
 21
-42.50000000252118
 31
0.0
  0
LINE
  5
12F
330
76
100
AcDbEntity
  8
0
  6
Continuous
 62
     7
100
AcDbLine
 10
410.66040828004
 20
-42.50000000252118
 30
0.0
 11
410.6936614851682
 21
-42.50000000252118
 31
0.0
  0
LINE
  5
130
330
76
100
AcDbEntity
  8
0
  6
Continuous
 62
     7
100
AcDbLine
 10
409.5790781518348
 20
-42.50000000252118
 30
0.0
 11
409.612331356963
 21
-42.50000000252118
 31
0.0
  0
LINE
  5
131
330
76
100
AcDbEntity
  8
0
  6
Continuous
 62
     7
100
AcDbLine
 10
409.3628432534302
 20
-42.50000000252118
 30
0.0
 11
409.5790781518348
 21
-42.50000000252118
 31
0.0
  0
LINE
  5
132
330
76
100
AcDbEntity
  8
0
  6
Continuous
 62
     7
100
AcDbLine
 10
407.8391123358016
 20
-42.50000000252118
 30
0.0
 11
408.7273334896477
 21
-42.50000000252118
 31
0.0
  0
LINE
  5
133
330
76
100
AcDbEntity
  8
0
  6
Continuous
 62
     7
100
AcDbLine
 10
407.2289360537503
 20
-42.50000000252118
 30
0.0
 11
407.8391123358016
 21
-42.50000000252118
 31
0.0
  0
LINE
  5
134
330
76
100
AcDbEntity
  8
0
  6
Continuous
 62
     7
100
AcDbLine
 10
406.0286762498454
 20
-42.50000000252118
 30
0.0
 11
406.1420576601018
 21
-42.50000000252118
 31
0.0
  0
LINE
  5
135
330
76
100
AcDbEntity
  8
0
  6
Continuous
 62
     7
100
AcDbLine
 10
404.4411824048699
 20
-42.50000000252118
 30
0.0
 11
404.579403558716
 21
-42.50000000252118
 31
0.0
  0
LINE
  5
136
330
76
100
AcDbEntity
  8
0
  6
Continuous
 62
     7
100
AcDbLine
 10
403.223950208829
 20
-42.50000000252118
 30
0.0
 11
403.689980481793
 21
-42.50000000252118
 31
0.0
  0
LINE
  5
137
330
76
100
AcDbEntity
  8
0
  6
Continuous
 62
     7
100
AcDbLine
 10
403.689980481793
 20
-42.50000000252118
 30
0.0
 11
404.4411824048699
 21
-42.50000000252118
 31
0.0
  0
LINE
  5
138
330
76
100
AcDbEntity
  8
0
  6
Continuous
 62
     7
100
AcDbLine
 10
403.1523738017109
 20
-42.50000000252118
 30
0.0
 11
403.223950208829
 21
-42.50000000252118
 31
0.0
  0
LINE
  5
139
330
76
100
AcDbEntity
  8
0
  6
Continuous
 62
     7
100
AcDbLine
 10
401.7609035883471
 20
-42.50000000252118
 30
0.0
 11
402.2012520068391
 21
-42.50000000252118
 31
0.0
  0
LINE
  5
13A
330
76
100
AcDbEntity
  8
0
  6
Continuous
 62
     7
100
AcDbLine
 10
399.9115647259641
 20
-42.50000000252118
 30
0.0
 11
399.9572378028872
 21
-42.50000000252118
 31
0.0
  0
LINE
  5
13B
330
76
100
AcDbEntity
  8
0
  6
Continuous
 62
     7
100
AcDbLine
 10
399.9572378028872
 20
-42.50000000252118
 30
0.0
 11
400.2008275464769
 21
-42.50000000252118
 31
0.0
  0
LINE
  5
13C
330
76
100
AcDbEntity
  8
0
  6
Continuous
 62
     7
100
AcDbLine
 10
400.2008275464769
 20
-42.50000000252118
 30
0.0
 11
400.2469012644256
 21
-42.50000000252118
 31
0.0
  0
LINE
  5
13D
330
76
100
AcDbEntity
  8
0
  6
Continuous
 62
     7
100
AcDbLine
 10
398.5162597381501
 20
-42.50000000252118
 30
0.0
 11
398.7004269054513
 21
-42.50000000252118
 31
0.0
  0
LINE
  5
13E
330
76
100
AcDbEntity
  8
0
  6
Continuous
 62
     7
100
AcDbLine
 10
397.0154584560988
 20
-42.50000000252118
 30
0.0
 11
398.1264360202014
 21
-42.50000000252118
 31
0.0
  0
LINE
  5
13F
330
76
100
AcDbEntity
  8
0
  6
Continuous
 62
     7
100
AcDbLine
 10
395.9849825999638
 20
-42.50000000252118
 30
0.0
 11
396.471360805092
 21
-42.50000000252118
 31
0.0
  0
LINE
  5
140
330
76
100
AcDbEntity
  8
0
  6
Continuous
 62
     7
100
AcDbLine
 10
396.471360805092
 20
-42.50000000252118
 30
0.0
 11
396.6684761897074
 21
-42.50000000252118
 31
0.0
  0
LINE
  5
141
330
76
100
AcDbEntity
  8
0
  6
Continuous
 62
     7
100
AcDbLine
 10
396.9909922153484
 20
-42.50000000252118
 30
0.0
 11
397.0154584560988
 21
-42.50000000252118
 31
0.0
  0
LINE
  5
142
330
76
100
AcDbEntity
  8
0
  6
Continuous
 62
     7
100
AcDbLine
 10
395.664812417411
 20
-42.50000000252118
 30
0.0
 11
395.9849825999638
 21
-42.50000000252118
 31
0.0
  0
LINE
  5
143
330
76
100
AcDbEntity
  8
0
  6
Continuous
 62
     7
100
AcDbLine
 10
394.4192369194039
 20
-42.50000000252118
 30
0.0
 11
395.0458394835065
 21
-42.50000000252118
 31
0.0
  0
LINE
  5
144
330
76
100
AcDbEntity
  8
0
  6
Continuous
 62
     7
100
AcDbLine
 10
395.0458394835065
 20
-42.50000000252118
 30
0.0
 11
395.2842208937629
 21
-42.50000000252118
 31
0.0
  0
LINE
  5
145
330
76
100
AcDbEntity
  8
0
  6
Continuous
 62
     7
100
AcDbLine
 10
395.2842208937629
 20
-42.50000000252118
 30
0.0
 11
395.664812417411
 21
-42.50000000252118
 31
0.0
  0
LINE
  5
146
330
76
100
AcDbEntity
  8
0
  6
Continuous
 62
     7
100
AcDbLine
 10
393.4933408365968
 20
-42.50000000252118
 30
0.0
 11
394.4192369194039
 21
-42.50000000252118
 31
0.0
  0
LINE
  5
147
330
76
100
AcDbEntity
  8
0
  6
Continuous
 62
     7
100
AcDbLine
 10
392.8119357848873
 20
-42.50000000252118
 30
0.0
 11
392.9076889900155
 21
-42.50000000252118
 31
0.0
  0
LINE
  5
148
330
76
100
AcDbEntity
  8
0
  6
Continuous
 62
     7
100
AcDbLine
 10
396.6684761897074
 20
-42.70000000252117
 30
0.0
 11
396.9909922153484
 21
-42.70000000252117
 31
0.0
  0
LINE
  5
149
330
76
100
AcDbEntity
  8
0
  6
Continuous
 62
     7
100
AcDbLine
 10
396.4805755486818
 20
-42.70000000252117
 30
0.0
 11
396.6684761897074
 21
-42.70000000252117
 31
0.0
  0
LINE
  5
14A
330
76
100
AcDbEntity
  8
0
  6
Continuous
 62
     7
100
AcDbLine
 10
397.0154584560988
 20
-42.70000000252117
 30
0.0
 11
398.1264360202014
 21
-42.70000000252117
 31
0.0
  0
LINE
  5
14B
330
76
100
AcDbEntity
  8
0
  6
Continuous
 62
     7
100
AcDbLine
 10
396.9909922153484
 20
-42.70000000252117
 30
0.0
 11
396.9909922153484
 21
-42.50000000252118
 31
0.0
  0
LINE
  5
14C
330
76
100
AcDbEntity
  8
0
  6
Continuous
 62
     7
100
AcDbLine
 10
397.0154584560988
 20
-42.70000000252117
 30
0.0
 11
397.0154584560988
 21
-42.50000000252118
 31
0.0
  0
LINE
  5
14D
330
76
100
AcDbEntity
  8
0
  6
Continuous
 62
     7
100
AcDbLine
 10
396.6684761897074
 20
-42.70000000252117
 30
0.0
 11
396.6684761897074
 21
-42.50000000252118
 31
0.0
  0
LINE
  5
14E
330
76
100
AcDbEntity
  8
0
  6
Continuous
 62
     7
100
AcDbLine
 10
396.471360805092
 20
-42.70000000252117
 30
0.0
 11
396.471360805092
 21
-42.50000000252118
 31
0.0
  0
LINE
  5
14F
330
76
100
AcDbEntity
  8
0
  6
Continuous
 62
     7
100
AcDbLine
 10
395.9849825999638
 20
-42.70000000252117
 30
0.0
 11
395.9849825999638
 21
-42.50000000252118
 31
0.0
  0
LINE
  5
150
330
76
100
AcDbEntity
  8
0
  6
Continuous
 62
     7
100
AcDbLine
 10
391.3455896310412
 20
-42.70000000252117
 30
0.0
 11
391.951759502836
 21
-42.70000000252117
 31
0.0
  0
LINE
  5
151
330
76
100
AcDbEntity
  8
0
  6
Continuous
 62
     7
100
AcDbLine
 10
390.8576088618104
 20
-42.70000000252117
 30
0.0
 11
390.8576088618104
 21
-42.50000000252118
 31
0.0
  0
LINE
  5
152
330
76
100
AcDbEntity
  8
0
  6
Continuous
 62
     7
100
AcDbLine
 10
391.0539229643745
 20
-42.70000000252117
 30
0.0
 11
391.3455896310412
 21
-42.70000000252117
 31
0.0
  0
LINE
  5
153
330
76
100
AcDbEntity
  8
0
  6
Continuous
 62
     7
100
AcDbLine
 10
391.951759502836
 20
-42.70000000252117
 30
0.0
 11
391.951759502836
 21
-42.50000000252118
 31
0.0
  0
LINE
  5
154
330
76
100
AcDbEntity
  8
0
  6
Continuous
 62
     7
100
AcDbLine
 10
392.0014389900155
 20
-42.70000000252117
 30
0.0
 11
392.0014389900155
 21
-42.50000000252118
 31
0.0
  0
LINE
  5
155
330
76
100
AcDbEntity
  8
0
  6
Continuous
 62
     7
100
AcDbLine
 10
392.8119357848873
 20
-42.70000000252117
 30
0.0
 11
392.8119357848873
 21
-42.50000000252118
 31
0.0
  0
LINE
  5
156
330
76
100
AcDbEntity
  8
0
  6
Continuous
 62
     7
100
AcDbLine
 10
392.9076889900155
 20
-42.70000000252117
 30
0.0
 11
392.9076889900155
 21
-42.50000000252118
 31
0.0
  0
LINE
  5
157
330
76
100
AcDbEntity
  8
0
  6
Continuous
 62
     7
100
AcDbLine
 10
395.0458394835065
 20
-42.70000000252117
 30
0.0
 11
395.2842208937629
 21
-42.70000000252117
 31
0.0
  0
LINE
  5
158
330
76
100
AcDbEntity
  8
0
  6
Continuous
 62
     7
100
AcDbLine
 10
395.0458394835065
 20
-42.70000000252117
 30
0.0
 11
395.0458394835065
 21
-42.50000000252118
 31
0.0
  0
LINE
  5
159
330
76
100
AcDbEntity
  8
0
  6
Continuous
 62
     7
100
AcDbLine
 10
395.2842208937629
 20
-42.70000000252117
 30
0.0
 11
395.2842208937629
 21
-42.50000000252118
 31
0.0
  0
LINE
  5
15A
330
76
100
AcDbEntity
  8
0
  6
Continuous
 62
     7
100
AcDbLine
 10
394.4192369194039
 20
-42.70000000252117
 30
0.0
 11
395.0458394835065
 21
-42.70000000252117
 31
0.0
  0
LINE
  5
15B
330
76
100
AcDbEntity
  8
0
  6
Continuous
 62
     7
100
AcDbLine
 10
394.4192369194039
 20
-42.70000000252117
 30
0.0
 11
394.4192369194039
 21
-42.50000000252118
 31
0.0
  0
LINE
  5
15C
330
76
100
AcDbEntity
  8
0
  6
Continuous
 62
     7
100
AcDbLine
 10
392.9076889900155
 20
-42.70000000252117
 30
0.0
 11
393.0995960412976
 21
-42.70000000252117
 31
0.0
  0
LINE
  5
15D
330
76
100
AcDbEntity
  8
0
  6
Continuous
 62
     7
100
AcDbLine
 10
393.0995960412976
 20
-42.70000000252117
 30
0.0
 11
393.0995960412976
 21
-42.50000000252118
 31
0.0
  0
LINE
  5
15E
330
76
100
AcDbEntity
  8
0
  6
Continuous
 62
     7
100
AcDbLine
 10
392.8119357848873
 20
-42.70000000252117
 30
0.0
 11
392.9076889900155
 21
-42.70000000252117
 31
0.0
  0
LINE
  5
15F
330
76
100
AcDbEntity
  8
0
  6
Continuous
 62
     7
100
AcDbLine
 10
391.951759502836
 20
-42.70000000252117
 30
0.0
 11
392.0014389900155
 21
-42.70000000252117
 31
0.0
  0
LINE
  5
160
330
76
100
AcDbEntity
  8
0
  6
Continuous
 62
     7
100
AcDbLine
 10
391.3455896310412
 20
-42.70000000252117
 30
0.0
 11
391.3455896310412
 21
-42.50000000252118
 31
0.0
  0
LINE
  5
161
330
76
100
AcDbEntity
  8
0
  6
Continuous
 62
     7
100
AcDbLine
 10
391.0539229643745
 20
-42.70000000252117
 30
0.0
 11
391.0539229643745
 21
-42.50000000252118
 31
0.0
  0
LINE
  5
162
330
76
100
AcDbEntity
  8
0
  6
Continuous
 62
     7
100
AcDbLine
 10
390.8576088618104
 20
-42.70000000252117
 30
0.0
 11
391.0539229643745
 21
-42.70000000252117
 31
0.0
  0
LINE
  5
163
330
76
100
AcDbEntity
  8
0
  6
Continuous
 62
     7
100
AcDbLine
 10
390.5951388207807
 20
-42.70000000252117
 30
0.0
 11
390.5951388207807
 21
-42.50000000252118
 31
0.0
  0
LINE
  5
164
330
76
100
AcDbEntity
  8
0
  6
Continuous
 62
     7
100
AcDbLine
 10
390.5951388207807
 20
-42.70000000252117
 30
0.0
 11
390.5987445900115
 21
-42.70000000252117
 31
0.0
  0
LINE
  5
165
330
76
100
AcDbEntity
  8
0
  6
Continuous
 62
     7
100
AcDbLine
 10
390.5987445900115
 20
-42.70000000252117
 30
0.0
 11
390.5987445900115
 21
-42.50000000252118
 31
0.0
  0
LINE
  5
166
330
76
100
AcDbEntity
  8
0
  6
Continuous
 62
     7
100
AcDbLine
 10
389.18528305155
 20
-42.70000000252117
 30
0.0
 11
389.18528305155
 21
-42.50000000252118
 31
0.0
  0
LINE
  5
167
330
76
100
AcDbEntity
  8
0
  6
Continuous
 62
     7
100
AcDbLine
 10
389.18528305155
 20
-42.70000000252117
 30
0.0
 11
390.5951388207807
 21
-42.70000000252117
 31
0.0
  0
LINE
  5
168
330
76
100
AcDbEntity
  8
0
  6
Continuous
 62
     7
100
AcDbLine
 10
396.471360805092
 20
-42.70000000252117
 30
0.0
 11
396.4805755486818
 21
-42.70000000252117
 31
0.0
  0
LINE
  5
169
330
76
100
AcDbEntity
  8
0
  6
Continuous
 62
     7
100
AcDbLine
 10
342.499999999955
 20
-42.50000000252118
 30
0.0
 11
347.0708586569076
 21
-42.50000000252118
 31
0.0
  0
LINE
  5
16A
330
76
100
AcDbEntity
  8
0
  6
Continuous
 62
     7
100
AcDbLine
 10
360.931921516526
 20
-42.50000000252118
 30
0.0
 11
364.6581349243508
 21
-42.50000000252118
 31
0.0
  0
LINE
  5
16B
330
76
100
AcDbEntity
  8
0
  6
Continuous
 62
     7
100
AcDbLine
 10
353.4957476849905
 20
-42.50000000252118
 30
0.0
 11
355.188333450073
 21
-42.50000000252118
 31
0.0
  0
LINE
  5
16C
330
76
100
AcDbEntity
  8
0
  6
Continuous
 62
     7
100
AcDbLine
 10
385.8141285735969
 20
-42.50000000252118
 30
0.0
 11
388.999999999955
 21
-42.50000000252118
 31
0.0
  0
LINE
  5
16D
330
76
100
AcDbEntity
  8
0
  6
Continuous
 62
     7
100
AcDbLine
 10
347.0708586569076
 20
-42.50000000252118
 30
0.0
 11
348.5708586569076
 21
-42.50000000252118
 31
0.0
  0
LINE
  5
16E
330
76
100
AcDbEntity
  8
0
  6
Continuous
 62
     7
100
AcDbLine
 10
352.7169015311443
 20
-42.50000000252118
 30
0.0
 11
353.4957476849905
 21
-42.50000000252118
 31
0.0
  0
LINE
  5
16F
330
76
100
AcDbEntity
  8
0
  6
Continuous
 62
     7
100
AcDbLine
 10
355.188333450073
 20
-42.50000000252118
 30
0.0
 11
356.0364905013551
 21
-42.50000000252118
 31
0.0
  0
LINE
  5
170
330
76
100
AcDbEntity
  8
0
  6
Continuous
 62
     7
100
AcDbLine
 10
358.2872737215607
 20
-42.50000000252118
 30
0.0
 11
358.5690536087199
 21
-42.50000000252118
 31
0.0
  0
LINE
  5
171
330
76
100
AcDbEntity
  8
0
  6
Continuous
 62
     7
100
AcDbLine
 10
358.5690536087199
 20
-42.50000000252118
 30
0.0
 11
358.7012651471815
 21
-42.50000000252118
 31
0.0
  0
LINE
  5
172
330
76
100
AcDbEntity
  8
0
  6
Continuous
 62
     7
100
AcDbLine
 10
366.2292579360774
 20
-42.50000000252118
 30
0.0
 11
368.0621906283851
 21
-42.50000000252118
 31
0.0
  0
LINE
  5
173
330
76
100
AcDbEntity
  8
0
  6
Continuous
 62
     7
100
AcDbLine
 10
365.8772855653765
 20
-42.50000000252118
 30
0.0
 11
366.2292579360774
 21
-42.50000000252118
 31
0.0
  0
LINE
  5
174
330
76
100
AcDbEntity
  8
0
  6
Continuous
 62
     7
100
AcDbLine
 10
370.2178637218673
 20
-42.50000000252118
 30
0.0
 11
371.8909406449443
 21
-42.50000000252118
 31
0.0
  0
LINE
  5
175
330
76
100
AcDbEntity
  8
0
  6
Continuous
 62
     7
100
AcDbLine
 10
368.2420784488979
 20
-42.50000000252118
 30
0.0
 11
368.5683967979524
 21
-42.50000000252118
 31
0.0
  0
LINE
  5
176
330
76
100
AcDbEntity
  8
0
  6
Continuous
 62
     7
100
AcDbLine
 10
369.6248871825677
 20
-42.50000000252118
 30
0.0
 11
370.2178637218673
 21
-42.50000000252118
 31
0.0
  0
LINE
  5
177
330
76
100
AcDbEntity
  8
0
  6
Continuous
 62
     7
100
AcDbLine
 10
368.5683967979524
 20
-42.50000000252118
 30
0.0
 11
369.4474032082087
 21
-42.50000000252118
 31
0.0
  0
LINE
  5
178
330
76
100
AcDbEntity
  8
0
  6
Continuous
 62
     7
100
AcDbLine
 10
369.4474032082087
 20
-42.50000000252118
 30
0.0
 11
369.6248871825677
 21
-42.50000000252118
 31
0.0
  0
LINE
  5
179
330
76
100
AcDbEntity
  8
0
  6
Continuous
 62
     7
100
AcDbLine
 10
368.0621906283851
 20
-42.50000000252118
 30
0.0
 11
368.2420784488979
 21
-42.50000000252118
 31
0.0
  0
LINE
  5
17A
330
76
100
AcDbEntity
  8
0
  6
Continuous
 62
     7
100
AcDbLine
 10
365.7090163346072
 20
-42.50000000252118
 30
0.0
 11
365.8772855653765
 21
-42.50000000252118
 31
0.0
  0
LINE
  5
17B
330
76
100
AcDbEntity
  8
0
  6
Continuous
 62
     7
100
AcDbLine
 10
364.6581349243508
 20
-42.50000000252118
 30
0.0
 11
365.7090163346072
 21
-42.50000000252118
 31
0.0
  0
LINE
  5
17C
330
76
100
AcDbEntity
  8
0
  6
Continuous
 62
     7
100
AcDbLine
 10
360.5308798498593
 20
-42.50000000252118
 30
0.0
 11
360.931921516526
 21
-42.50000000252118
 31
0.0
  0
LINE
  5
17D
330
76
100
AcDbEntity
  8
0
  6
Continuous
 62
     7
100
AcDbLine
 10
359.5293901471815
 20
-42.50000000252118
 30
0.0
 11
359.6166170293465
 21
-42.50000000252118
 31
0.0
  0
LINE
  5
17E
330
76
100
AcDbEntity
  8
0
  6
Continuous
 62
     7
100
AcDbLine
 10
359.6166170293465
 20
-42.50000000252118
 30
0.0
 11
360.5308798498593
 21
-42.50000000252118
 31
0.0
  0
LINE
  5
17F
330
76
100
AcDbEntity
  8
0
  6
Continuous
 62
     7
100
AcDbLine
 10
358.7012651471815
 20
-42.50000000252118
 30
0.0
 11
359.5293901471815
 21
-42.50000000252118
 31
0.0
  0
LINE
  5
180
330
76
100
AcDbEntity
  8
0
  6
Continuous
 62
     7
100
AcDbLine
 10
358.1117886639404
 20
-42.50000000252116
 30
0.0
 11
358.2872737215607
 21
-42.50000000252118
 31
0.0
  0
LINE
  5
181
330
76
100
AcDbEntity
  8
0
  6
Continuous
 62
     7
100
AcDbLine
 10
357.1342469116115
 20
-42.50000000252118
 30
0.0
 11
358.1117886639404
 21
-42.50000000252116
 31
0.0
  0
LINE
  5
182
330
76
100
AcDbEntity
  8
0
  6
Continuous
 62
     7
100
AcDbLine
 10
356.8169392193038
 20
-42.50000000252118
 30
0.0
 11
357.1342469116115
 21
-42.50000000252118
 31
0.0
  0
LINE
  5
183
330
76
100
AcDbEntity
  8
0
  6
Continuous
 62
     7
100
AcDbLine
 10
356.6799199885346
 20
-42.50000000252118
 30
0.0
 11
356.8169392193038
 21
-42.50000000252118
 31
0.0
  0
LINE
  5
184
330
76
100
AcDbEntity
  8
0
  6
Continuous
 62
     7
100
AcDbLine
 10
356.1759135782781
 20
-42.50000000252118
 30
0.0
 11
356.3417789628935
 21
-42.50000000252118
 31
0.0
  0
LINE
  5
185
330
76
100
AcDbEntity
  8
0
  6
Continuous
 62
     7
100
AcDbLine
 10
356.0364905013551
 20
-42.50000000252118
 30
0.0
 11
356.1759135782781
 21
-42.50000000252118
 31
0.0
  0
LINE
  5
186
330
76
100
AcDbEntity
  8
0
  6
Continuous
 62
     7
100
AcDbLine
 10
356.3417789628935
 20
-42.50000000252118
 30
0.0
 11
356.6799199885346
 21
-42.50000000252118
 31
0.0
  0
LINE
  5
187
330
76
100
AcDbEntity
  8
0
  6
Continuous
 62
     7
100
AcDbLine
 10
352.379169125528
 20
-42.50000000252118
 30
0.0
 11
352.5602508901187
 21
-42.50000000252118
 31
0.0
  0
LINE
  5
188
330
76
100
AcDbEntity
  8
0
  6
Continuous
 62
     7
100
AcDbLine
 10
352.5602508901187
 20
-42.50000000252118
 30
0.0
 11
352.7169015311443
 21
-42.50000000252118
 31
0.0
  0
LINE
  5
189
330
76
100
AcDbEntity
  8
0
  6
Continuous
 62
     7
100
AcDbLine
 10
352.2818979232883
 20
-42.50000000252118
 30
0.0
 11
352.379169125528
 21
-42.50000000252118
 31
0.0
  0
LINE
  5
18A
330
76
100
AcDbEntity
  8
0
  6
Continuous
 62
     7
100
AcDbLine
 10
351.4432104607005
 20
-42.50000000252118
 30
0.0
 11
352.2818979232883
 21
-42.50000000252118
 31
0.0
  0
LINE
  5
18B
330
76
100
AcDbEntity
  8
0
  6
Continuous
 62
     7
100
AcDbLine
 10
351.3406463581364
 20
-42.50000000252118
 30
0.0
 11
351.4432104607005
 21
-42.50000000252118
 31
0.0
  0
LINE
  5
18C
330
76
100
AcDbEntity
  8
0
  6
Continuous
 62
     7
100
AcDbLine
 10
350.5728192555682
 20
-42.50000000252118
 30
0.0
 11
351.3406463581364
 21
-42.50000000252118
 31
0.0
  0
LINE
  5
18D
330
76
100
AcDbEntity
  8
0
  6
Continuous
 62
     7
100
AcDbLine
 10
350.5111205376195
 20
-42.50000000252118
 30
0.0
 11
350.5728192555682
 21
-42.50000000252118
 31
0.0
  0
LINE
  5
18E
330
76
100
AcDbEntity
  8
0
  6
Continuous
 62
     7
100
AcDbLine
 10
350.4141654094144
 20
-42.50000000252118
 30
0.0
 11
350.5111205376195
 21
-42.50000000252118
 31
0.0
  0
LINE
  5
18F
330
76
100
AcDbEntity
  8
0
  6
Continuous
 62
     7
100
AcDbLine
 10
349.7278673324913
 20
-42.50000000252118
 30
0.0
 11
349.8937327171067
 21
-42.50000000252118
 31
0.0
  0
LINE
  5
190
330
76
100
AcDbEntity
  8
0
  6
Continuous
 62
     7
100
AcDbLine
 10
350.0115211786451
 20
-42.50000000252118
 30
0.0
 11
350.4141654094144
 21
-42.50000000252118
 31
0.0
  0
LINE
  5
191
330
76
100
AcDbEntity
  8
0
  6
Continuous
 62
     7
100
AcDbLine
 10
349.8937327171067
 20
-42.50000000252118
 30
0.0
 11
350.0115211786451
 21
-42.50000000252118
 31
0.0
  0
LINE
  5
192
330
76
100
AcDbEntity
  8
0
  6
Continuous
 62
     7
100
AcDbLine
 10
349.5100944334654
 20
-42.50000000252118
 30
0.0
 11
349.7278673324913
 21
-42.50000000252118
 31
0.0
  0
LINE
  5
193
330
76
100
AcDbEntity
  8
0
  6
Continuous
 62
     7
100
AcDbLine
 10
348.5708586569076
 20
-42.50000000252118
 30
0.0
 11
349.5100944334654
 21
-42.50000000252118
 31
0.0
  0
LINE
  5
194
330
76
100
AcDbEntity
  8
0
  6
Continuous
 62
     7
100
AcDbLine
 10
384.4351777450856
 20
-42.50000000252118
 30
0.0
 11
384.4450060597823
 21
-42.50000000252121
 31
0.0
  0
LINE
  5
195
330
76
100
AcDbEntity
  8
0
  6
Continuous
 62
     7
100
AcDbLine
 10
384.3614469266543
 20
-42.50000000252118
 30
0.0
 11
384.4351777450856
 21
-42.50000000252118
 31
0.0
  0
LINE
  5
196
330
76
100
AcDbEntity
  8
0
  6
Continuous
 62
     7
100
AcDbLine
 10
382.8766712856287
 20
-42.50000000252118
 30
0.0
 11
383.0004693625518
 21
-42.50000000252118
 31
0.0
  0
LINE
  5
197
330
76
100
AcDbEntity
  8
0
  6
Continuous
 62
     7
100
AcDbLine
 10
383.0004693625518
 20
-42.50000000252118
 30
0.0
 11
383.0233059010133
 21
-42.50000000252118
 31
0.0
  0
LINE
  5
198
330
76
100
AcDbEntity
  8
0
  6
Continuous
 62
     7
100
AcDbLine
 10
372.0804438500725
 20
-42.50000000252118
 30
0.0
 11
372.8457715856997
 21
-42.50000000252118
 31
0.0
  0
LINE
  5
199
330
76
100
AcDbEntity
  8
0
  6
Continuous
 62
     7
100
AcDbLine
 10
376.9332525010843
 20
-42.50000000252116
 30
0.0
 11
377.4068832963718
 21
-42.50000000252118
 31
0.0
  0
LINE
  5
19A
330
76
100
AcDbEntity
  8
0
  6
Continuous
 62
     7
100
AcDbLine
 10
377.4659821190854
 20
-42.50000000252116
 30
0.0
 11
377.8265590421623
 21
-42.50000000252118
 31
0.0
  0
LINE
  5
19B
330
76
100
AcDbEntity
  8
0
  6
Continuous
 62
     7
100
AcDbLine
 10
380.4325125696068
 20
-42.50000000252118
 30
0.0
 11
380.9250603133971
 21
-42.50000000252118
 31
0.0
  0
LINE
  5
19C
330
76
100
AcDbEntity
  8
0
  6
Continuous
 62
     7
100
AcDbLine
 10
379.101614067054
 20
-42.50000000252118
 30
0.0
 11
379.1140029542223
 21
-42.50000000252118
 31
0.0
  0
LINE
  5
19D
330
76
100
AcDbEntity
  8
0
  6
Continuous
 62
     7
100
AcDbLine
 10
380.9250603133971
 20
-42.50000000252118
 30
0.0
 11
381.2692109544228
 21
-42.50000000252118
 31
0.0
  0
LINE
  5
19E
330
76
100
AcDbEntity
  8
0
  6
Continuous
 62
     7
100
AcDbLine
 10
379.9132818003761
 20
-42.50000000252118
 30
0.0
 11
380.4325125696068
 21
-42.50000000252118
 31
0.0
  0
LINE
  5
19F
330
76
100
AcDbEntity
  8
0
  6
Continuous
 62
     7
100
AcDbLine
 10
379.1140029542223
 20
-42.50000000252118
 30
0.0
 11
379.9132818003761
 21
-42.50000000252118
 31
0.0
  0
LINE
  5
1A0
330
76
100
AcDbEntity
  8
0
  6
Continuous
 62
     7
100
AcDbLine
 10
379.0270638516582
 20
-42.50000000252118
 30
0.0
 11
379.101614067054
 21
-42.50000000252118
 31
0.0
  0
LINE
  5
1A1
330
76
100
AcDbEntity
  8
0
  6
Continuous
 62
     7
100
AcDbLine
 10
379.0171681290624
 20
-42.50000000252116
 30
0.0
 11
379.0270638516582
 21
-42.50000000252118
 31
0.0
  0
LINE
  5
1A2
330
76
100
AcDbEntity
  8
0
  6
Continuous
 62
     7
100
AcDbLine
 10
378.6306455806239
 20
-42.50000000252118
 30
0.0
 11
378.7640590421623
 21
-42.50000000252118
 31
0.0
  0
LINE
  5
1A3
330
76
100
AcDbEntity
  8
0
  6
Continuous
 62
     7
100
AcDbLine
 10
378.7640590421623
 20
-42.50000000252118
 30
0.0
 11
379.0171681290624
 21
-42.50000000252116
 31
0.0
  0
LINE
  5
1A4
330
76
100
AcDbEntity
  8
0
  6
Continuous
 62
     7
100
AcDbLine
 10
377.4471066630188
 20
-42.50000000252116
 30
0.0
 11
377.4659821190854
 21
-42.50000000252116
 31
0.0
  0
LINE
  5
1A5
330
76
100
AcDbEntity
  8
0
  6
Continuous
 62
     7
100
AcDbLine
 10
377.8265590421623
 20
-42.50000000252118
 30
0.0
 11
378.6306455806239
 21
-42.50000000252118
 31
0.0
  0
LINE
  5
1A6
330
76
100
AcDbEntity
  8
0
  6
Continuous
 62
     7
100
AcDbLine
 10
377.4068832963718
 20
-42.50000000252118
 30
0.0
 11
377.4471066630188
 21
-42.50000000252116
 31
0.0
  0
LINE
  5
1A7
330
76
100
AcDbEntity
  8
0
  6
Continuous
 62
     7
100
AcDbLine
 10
376.1035249369818
 20
-42.50000000252116
 30
0.0
 11
376.9332525010843
 21
-42.50000000252116
 31
0.0
  0
LINE
  5
1A8
330
76
100
AcDbEntity
  8
0
  6
Continuous
 62
     7
100
AcDbLine
 10
376.0818412560946
 20
-42.50000000252118
 30
0.0
 11
376.1035249369818
 21
-42.50000000252116
 31
0.0
  0
LINE
  5
1A9
330
76
100
AcDbEntity
  8
0
  6
Continuous
 62
     7
100
AcDbLine
 10
375.9516819882638
 20
-42.50000000252118
 30
0.0
 11
376.0818412560946
 21
-42.50000000252118
 31
0.0
  0
LINE
  5
1AA
330
76
100
AcDbEntity
  8
0
  6
Continuous
 62
     7
100
AcDbLine
 10
375.1884131568105
 20
-42.50000000252118
 30
0.0
 11
375.9516343106566
 21
-42.50000000252118
 31
0.0
  0
LINE
  5
1AB
330
76
100
AcDbEntity
  8
0
  6
Continuous
 62
     7
100
AcDbLine
 10
375.9516343106566
 20
-42.50000000252118
 30
0.0
 11
375.9516819882638
 21
-42.50000000252118
 31
0.0
  0
LINE
  5
1AC
330
76
100
AcDbEntity
  8
0
  6
Continuous
 62
     7
100
AcDbLine
 10
374.9989099516823
 20
-42.50000000252118
 30
0.0
 11
375.1884131568105
 21
-42.50000000252118
 31
0.0
  0
LINE
  5
1AD
330
76
100
AcDbEntity
  8
0
  6
Continuous
 62
     7
100
AcDbLine
 10
374.8554804645028
 20
-42.50000000252118
 30
0.0
 11
374.9989099516823
 21
-42.50000000252118
 31
0.0
  0
LINE
  5
1AE
330
76
100
AcDbEntity
  8
0
  6
Continuous
 62
     7
100
AcDbLine
 10
374.6374382523663
 20
-42.50000000252118
 30
0.0
 11
374.8554804645028
 21
-42.50000000252118
 31
0.0
  0
LINE
  5
1AF
330
76
100
AcDbEntity
  8
0
  6
Continuous
 62
     7
100
AcDbLine
 10
374.4303068421099
 20
-42.50000000252118
 30
0.0
 11
374.6374382523663
 21
-42.50000000252118
 31
0.0
  0
LINE
  5
1B0
330
76
100
AcDbEntity
  8
0
  6
Continuous
 62
     7
100
AcDbLine
 10
373.1113965856997
 20
-42.50000000252118
 30
0.0
 11
373.9130792780073
 21
-42.50000000252118
 31
0.0
  0
LINE
  5
1B1
330
76
100
AcDbEntity
  8
0
  6
Continuous
 62
     7
100
AcDbLine
 10
373.0456914574945
 20
-42.50000000252118
 30
0.0
 11
373.1113965856997
 21
-42.50000000252118
 31
0.0
  0
LINE
  5
1B2
330
76
100
AcDbEntity
  8
0
  6
Continuous
 62
     7
100
AcDbLine
 10
372.8457715856997
 20
-42.50000000252118
 30
0.0
 11
373.0456914574945
 21
-42.50000000252118
 31
0.0
  0
LINE
  5
1B3
330
76
100
AcDbEntity
  8
0
  6
Continuous
 62
     7
100
AcDbLine
 10
373.9130792780073
 20
-42.50000000252118
 30
0.0
 11
374.4303068421099
 21
-42.50000000252118
 31
0.0
  0
LINE
  5
1B4
330
76
100
AcDbEntity
  8
0
  6
Continuous
 62
     7
100
AcDbLine
 10
371.8909406449443
 20
-42.50000000252118
 30
0.0
 11
372.0804438500725
 21
-42.50000000252118
 31
0.0
  0
LINE
  5
1B5
330
76
100
AcDbEntity
  8
0
  6
Continuous
 62
     7
100
AcDbLine
 10
383.0233059010133
 20
-42.50000000252118
 30
0.0
 11
384.3614469266543
 21
-42.50000000252118
 31
0.0
  0
LINE
  5
1B6
330
76
100
AcDbEntity
  8
0
  6
Continuous
 62
     7
100
AcDbLine
 10
381.463121210833
 20
-42.50000000252118
 30
0.0
 11
382.8718370170487
 21
-42.50000000252118
 31
0.0
  0
LINE
  5
1B7
330
76
100
AcDbEntity
  8
0
  6
Continuous
 62
     7
100
AcDbLine
 10
382.8718370170487
 20
-42.50000000252118
 30
0.0
 11
382.8766712856287
 21
-42.50000000252118
 31
0.0
  0
LINE
  5
1B8
330
76
100
AcDbEntity
  8
0
  6
Continuous
 62
     7
100
AcDbLine
 10
381.2692109544228
 20
-42.50000000252118
 30
0.0
 11
381.463121210833
 21
-42.50000000252118
 31
0.0
  0
LINE
  5
1B9
330
76
100
AcDbEntity
  8
0
  6
Continuous
 62
     7
100
AcDbLine
 10
385.2242528546541
 20
-42.50000000252118
 30
0.0
 11
385.8141285735969
 21
-42.50000000252118
 31
0.0
  0
LINE
  5
1BA
330
76
100
AcDbEntity
  8
0
  6
Continuous
 62
     7
100
AcDbLine
 10
384.4450060597823
 20
-42.50000000252121
 30
0.0
 11
385.2242528546541
 21
-42.50000000252118
 31
0.0
  0
LINE
  5
1BB
330
76
100
AcDbEntity
  8
0
  6
Continuous
 62
     7
100
AcDbLine
 10
391.951759502836
 20
-42.50000000252118
 30
0.0
 11
392.0014389900155
 21
-42.50000000252118
 31
0.0
  0
LINE
  5
1BC
330
76
100
AcDbEntity
  8
0
  6
Continuous
 62
     7
100
AcDbLine
 10
391.3455896310412
 20
-42.50000000252118
 30
0.0
 11
391.951759502836
 21
-42.50000000252118
 31
0.0
  0
LINE
  5
1BD
330
76
100
AcDbEntity
  8
0
  6
Continuous
 62
     7
100
AcDbLine
 10
391.0539229643745
 20
-42.50000000252118
 30
0.0
 11
391.3455896310412
 21
-42.50000000252118
 31
0.0
  0
LINE
  5
1BE
330
76
100
AcDbEntity
  8
0
  6
Continuous
 62
     7
100
AcDbLine
 10
390.8576088618104
 20
-42.50000000252118
 30
0.0
 11
391.0539229643745
 21
-42.50000000252118
 31
0.0
  0
LINE
  5
1BF
330
76
100
AcDbEntity
  8
0
  6
Continuous
 62
     7
100
AcDbLine
 10
388.999999999955
 20
-42.50000000252118
 30
0.0
 11
389.18528305155
 21
-42.50000000252118
 31
0.0
  0
LINE
  5
1C0
330
76
100
AcDbEntity
  8
0
  6
Continuous
 62
     7
100
AcDbLine
 10
389.18528305155
 20
-42.50000000252118
 30
0.0
 11
390.5951388207807
 21
-42.50000000252118
 31
0.0
  0
LINE
  5
1C1
330
76
100
AcDbEntity
  8
0
  6
Continuous
 62
     7
100
AcDbLine
 10
390.5987445900115
 20
-42.50000000252118
 30
0.0
 11
390.8576088618104
 21
-42.50000000252118
 31
0.0
  0
LINE
  5
1C2
330
76
100
AcDbEntity
  8
0
  6
Continuous
 62
     7
100
AcDbLine
 10
390.5951388207807
 20
-42.50000000252118
 30
0.0
 11
390.5987445900115
 21
-42.50000000252118
 31
0.0
  0
LINE
  5
1C3
330
76
100
AcDbEntity
  8
0
  6
Continuous
 62
     7
100
AcDbLine
 10
384.4450060597823
 20
-42.70000000252117
 30
0.0
 11
384.4450060597823
 21
-42.50000000252121
 31
0.0
  0
LINE
  5
1C4
330
76
100
AcDbEntity
  8
0
  6
Continuous
 62
     7
100
AcDbLine
 10
385.2242528546541
 20
-42.70000000252117
 30
0.0
 11
385.2242528546541
 21
-42.50000000252118
 31
0.0
  0
LINE
  5
1C5
330
76
100
AcDbEntity
  8
0
  6
Continuous
 62
     7
100
AcDbLine
 10
366.2292579360774
 20
-42.70000000252117
 30
0.0
 11
368.0621906283851
 21
-42.70000000252117
 31
0.0
  0
LINE
  5
1C6
330
76
100
AcDbEntity
  8
0
  6
Continuous
 62
     7
100
AcDbLine
 10
358.7961042088337
 20
-42.70000000252117
 30
0.0
 11
358.9912066961861
 21
-42.70000000252117
 31
0.0
  0
LINE
  5
1C7
330
76
100
AcDbEntity
  8
0
  6
Continuous
 62
     7
100
AcDbLine
 10
370.2178637218673
 20
-42.70000000252117
 30
0.0
 11
371.8909406449443
 21
-42.70000000252117
 31
0.0
  0
LINE
  5
1C8
330
76
100
AcDbEntity
  8
0
  6
Continuous
 62
     7
100
AcDbLine
 10
379.0171681290624
 20
-42.70000000252117
 30
0.0
 11
379.0270638516582
 21
-42.70000000252117
 31
0.0
  0
LINE
  5
1C9
330
76
100
AcDbEntity
  8
0
  6
Continuous
 62
     7
100
AcDbLine
 10
383.9620078240902
 20
-42.70000000252117
 30
0.0
 11
384.3614469266543
 21
-42.70000000252117
 31
0.0
  0
LINE
  5
1CA
330
76
100
AcDbEntity
  8
0
  6
Continuous
 62
     7
100
AcDbLine
 10
383.0233059010133
 20
-42.70000000252117
 30
0.0
 11
383.0659552041018
 21
-42.70000000252119
 31
0.0
  0
LINE
  5
1CB
330
76
100
AcDbEntity
  8
0
  6
Continuous
 62
     7
100
AcDbLine
 10
381.2692109544228
 20
-42.70000000252117
 30
0.0
 11
381.463121210833
 21
-42.70000000252117
 31
0.0
  0
LINE
  5
1CC
330
76
100
AcDbEntity
  8
0
  6
Continuous
 62
     7
100
AcDbLine
 10
376.9332525010843
 20
-42.70000000252118
 30
0.0
 11
377.4068832963718
 21
-42.70000000252117
 31
0.0
  0
LINE
  5
1CD
330
76
100
AcDbEntity
  8
0
  6
Continuous
 62
     7
100
AcDbLine
 10
378.2508378883162
 20
-42.70000000252118
 30
0.0
 11
378.6306455806239
 21
-42.70000000252117
 31
0.0
  0
LINE
  5
1CE
330
76
100
AcDbEntity
  8
0
  6
Continuous
 62
     7
100
AcDbLine
 10
375.9516343106566
 20
-42.70000000252117
 30
0.0
 11
375.9516819882638
 21
-42.70000000252117
 31
0.0
  0
LINE
  5
1CF
330
76
100
AcDbEntity
  8
0
  6
Continuous
 62
     7
100
AcDbLine
 10
369.4474032082087
 20
-42.70000000252117
 30
0.0
 11
369.6248871825677
 21
-42.70000000252117
 31
0.0
  0
LINE
  5
1D0
330
76
100
AcDbEntity
  8
0
  6
Continuous
 62
     7
100
AcDbLine
 10
365.7090163346072
 20
-42.70000000252117
 30
0.0
 11
365.8772855653765
 21
-42.70000000252117
 31
0.0
  0
LINE
  5
1D1
330
76
100
AcDbEntity
  8
0
  6
Continuous
 62
     7
100
AcDbLine
 10
358.7926913592989
 20
-42.70000000252117
 30
0.0
 11
358.7961042088337
 21
-42.70000000252117
 31
0.0
  0
LINE
  5
1D2
330
76
100
AcDbEntity
  8
0
  6
Continuous
 62
     7
100
AcDbLine
 10
358.1117886639404
 20
-42.70000000252117
 30
0.0
 11
358.2872737215607
 21
-42.70000000252117
 31
0.0
  0
LINE
  5
1D3
330
76
100
AcDbEntity
  8
0
  6
Continuous
 62
     7
100
AcDbLine
 10
350.5111205376195
 20
-42.70000000252117
 30
0.0
 11
350.5728192555682
 21
-42.70000000252117
 31
0.0
  0
LINE
  5
1D4
330
76
100
AcDbEntity
  8
0
  6
Continuous
 62
     7
100
AcDbLine
 10
351.3406463581364
 20
-42.70000000252117
 30
0.0
 11
351.4432104607006
 21
-42.70000000252117
 31
0.0
  0
LINE
  5
1D5
330
76
100
AcDbEntity
  8
0
  6
Continuous
 62
     7
100
AcDbLine
 10
350.5728192555682
 20
-42.70000000252117
 30
0.0
 11
351.3406463581364
 21
-42.70000000252117
 31
0.0
  0
LINE
  5
1D6
330
76
100
AcDbEntity
  8
0
  6
Continuous
 62
     7
100
AcDbLine
 10
350.4141654094144
 20
-42.70000000252117
 30
0.0
 11
350.5111205376195
 21
-42.70000000252117
 31
0.0
  0
LINE
  5
1D7
330
76
100
AcDbEntity
  8
0
  6
Continuous
 62
     7
100
AcDbLine
 10
350.0115211786451
 20
-42.70000000252117
 30
0.0
 11
350.4141654094144
 21
-42.70000000252117
 31
0.0
  0
LINE
  5
1D8
330
76
100
AcDbEntity
  8
0
  6
Continuous
 62
     7
100
AcDbLine
 10
384.3614469266543
 20
-42.70000000252117
 30
0.0
 11
384.3614469266543
 21
-42.50000000252118
 31
0.0
  0
LINE
  5
1D9
330
76
100
AcDbEntity
  8
0
  6
Continuous
 62
     7
100
AcDbLine
 10
352.2818979232883
 20
-42.70000000252117
 30
0.0
 11
352.2818979232883
 21
-42.50000000252118
 31
0.0
  0
LINE
  5
1DA
330
76
100
AcDbEntity
  8
0
  6
Continuous
 62
     7
100
AcDbLine
 10
355.188333450073
 20
-42.70000000252117
 30
0.0
 11
356.0364905013551
 21
-42.70000000252117
 31
0.0
  0
LINE
  5
1DB
330
76
100
AcDbEntity
  8
0
  6
Continuous
 62
     7
100
AcDbLine
 10
358.1117886639404
 20
-42.70000000252117
 30
0.0
 11
358.1117886639404
 21
-42.50000000252116
 31
0.0
  0
LINE
  5
1DC
330
76
100
AcDbEntity
  8
0
  6
Continuous
 62
     7
100
AcDbLine
 10
358.2872737215607
 20
-42.70000000252117
 30
0.0
 11
358.5690536087199
 21
-42.70000000252117
 31
0.0
  0
LINE
  5
1DD
330
76
100
AcDbEntity
  8
0
  6
Continuous
 62
     7
100
AcDbLine
 10
358.5690536087199
 20
-42.70000000252117
 30
0.0
 11
358.5690536087199
 21
-42.50000000252118
 31
0.0
  0
LINE
  5
1DE
330
76
100
AcDbEntity
  8
0
  6
Continuous
 62
     7
100
AcDbLine
 10
358.7012651471815
 20
-42.70000000252117
 30
0.0
 11
358.7012651471815
 21
-42.50000000252118
 31
0.0
  0
LINE
  5
1DF
330
76
100
AcDbEntity
  8
0
  6
Continuous
 62
     7
100
AcDbLine
 10
364.6581349243508
 20
-42.70000000252117
 30
0.0
 11
365.7090163346072
 21
-42.70000000252117
 31
0.0
  0
LINE
  5
1E0
330
76
100
AcDbEntity
  8
0
  6
Continuous
 62
     7
100
AcDbLine
 10
366.2292579360774
 20
-42.70000000252117
 30
0.0
 11
366.2292579360774
 21
-42.50000000252118
 31
0.0
  0
LINE
  5
1E1
330
76
100
AcDbEntity
  8
0
  6
Continuous
 62
     7
100
AcDbLine
 10
368.0621906283851
 20
-42.70000000252117
 30
0.0
 11
368.0621906283851
 21
-42.50000000252118
 31
0.0
  0
LINE
  5
1E2
330
76
100
AcDbEntity
  8
0
  6
Continuous
 62
     7
100
AcDbLine
 10
368.5683967979524
 20
-42.70000000252117
 30
0.0
 11
369.4474032082087
 21
-42.70000000252117
 31
0.0
  0
LINE
  5
1E3
330
76
100
AcDbEntity
  8
0
  6
Continuous
 62
     7
100
AcDbLine
 10
370.2178637218673
 20
-42.70000000252117
 30
0.0
 11
370.2178637218673
 21
-42.50000000252118
 31
0.0
  0
LINE
  5
1E4
330
76
100
AcDbEntity
  8
0
  6
Continuous
 62
     7
100
AcDbLine
 10
371.8909406449443
 20
-42.70000000252117
 30
0.0
 11
371.8909406449443
 21
-42.50000000252118
 31
0.0
  0
LINE
  5
1E5
330
76
100
AcDbEntity
  8
0
  6
Continuous
 62
     7
100
AcDbLine
 10
375.1884131568105
 20
-42.70000000252117
 30
0.0
 11
375.9516343106566
 21
-42.70000000252117
 31
0.0
  0
LINE
  5
1E6
330
76
100
AcDbEntity
  8
0
  6
Continuous
 62
     7
100
AcDbLine
 10
375.9516819882638
 20
-42.70000000252117
 30
0.0
 11
375.9516819882638
 21
-42.50000000252118
 31
0.0
  0
LINE
  5
1E7
330
76
100
AcDbEntity
  8
0
  6
Continuous
 62
     7
100
AcDbLine
 10
376.1035249369818
 20
-42.70000000252117
 30
0.0
 11
376.1035249369818
 21
-42.50000000252116
 31
0.0
  0
LINE
  5
1E8
330
76
100
AcDbEntity
  8
0
  6
Continuous
 62
     7
100
AcDbLine
 10
379.0270638516582
 20
-42.70000000252117
 30
0.0
 11
379.0270638516582
 21
-42.50000000252118
 31
0.0
  0
LINE
  5
1E9
330
76
100
AcDbEntity
  8
0
  6
Continuous
 62
     7
100
AcDbLine
 10
380.9250603133971
 20
-42.70000000252117
 30
0.0
 11
381.2692109544228
 21
-42.70000000252117
 31
0.0
  0
LINE
  5
1EA
330
76
100
AcDbEntity
  8
0
  6
Continuous
 62
     7
100
AcDbLine
 10
381.2692109544228
 20
-42.70000000252117
 30
0.0
 11
381.2692109544228
 21
-42.50000000252118
 31
0.0
  0
LINE
  5
1EB
330
76
100
AcDbEntity
  8
0
  6
Continuous
 62
     7
100
AcDbLine
 10
383.0004693625518
 20
-42.70000000252117
 30
0.0
 11
383.0004693625518
 21
-42.50000000252118
 31
0.0
  0
LINE
  5
1EC
330
76
100
AcDbEntity
  8
0
  6
Continuous
 62
     7
100
AcDbLine
 10
383.0233059010133
 20
-42.70000000252117
 30
0.0
 11
383.0233059010133
 21
-42.50000000252118
 31
0.0
  0
LINE
  5
1ED
330
76
100
AcDbEntity
  8
0
  6
Continuous
 62
     7
100
AcDbLine
 10
383.0004693625518
 20
-42.70000000252117
 30
0.0
 11
383.0233059010133
 21
-42.70000000252117
 31
0.0
  0
LINE
  5
1EE
330
76
100
AcDbEntity
  8
0
  6
Continuous
 62
     7
100
AcDbLine
 10
381.463121210833
 20
-42.70000000252117
 30
0.0
 11
381.463121210833
 21
-42.50000000252118
 31
0.0
  0
LINE
  5
1EF
330
76
100
AcDbEntity
  8
0
  6
Continuous
 62
     7
100
AcDbLine
 10
380.9250603133971
 20
-42.70000000252117
 30
0.0
 11
380.9250603133971
 21
-42.50000000252118
 31
0.0
  0
LINE
  5
1F0
330
76
100
AcDbEntity
  8
0
  6
Continuous
 62
     7
100
AcDbLine
 10
379.9132818003761
 20
-42.70000000252117
 30
0.0
 11
379.9132818003761
 21
-42.50000000252118
 31
0.0
  0
LINE
  5
1F1
330
76
100
AcDbEntity
  8
0
  6
Continuous
 62
     7
100
AcDbLine
 10
379.9132818003761
 20
-42.70000000252117
 30
0.0
 11
380.4325125696068
 21
-42.70000000252118
 31
0.0
  0
LINE
  5
1F2
330
76
100
AcDbEntity
  8
0
  6
Continuous
 62
     7
100
AcDbLine
 10
379.1140029542223
 20
-42.70000000252117
 30
0.0
 11
379.1140029542223
 21
-42.50000000252118
 31
0.0
  0
LINE
  5
1F3
330
76
100
AcDbEntity
  8
0
  6
Continuous
 62
     7
100
AcDbLine
 10
379.1140029542223
 20
-42.70000000252117
 30
0.0
 11
379.9132818003761
 21
-42.70000000252117
 31
0.0
  0
LINE
  5
1F4
330
76
100
AcDbEntity
  8
0
  6
Continuous
 62
     7
100
AcDbLine
 10
379.101614067054
 20
-42.70000000252117
 30
0.0
 11
379.1140029542223
 21
-42.70000000252117
 31
0.0
  0
LINE
  5
1F5
330
76
100
AcDbEntity
  8
0
  6
Continuous
 62
     7
100
AcDbLine
 10
379.0270638516582
 20
-42.70000000252117
 30
0.0
 11
379.101614067054
 21
-42.70000000252117
 31
0.0
  0
LINE
  5
1F6
330
76
100
AcDbEntity
  8
0
  6
Continuous
 62
     7
100
AcDbLine
 10
378.6306455806239
 20
-42.70000000252117
 30
0.0
 11
378.6306455806239
 21
-42.50000000252118
 31
0.0
  0
LINE
  5
1F7
330
76
100
AcDbEntity
  8
0
  6
Continuous
 62
     7
100
AcDbLine
 10
378.6306455806239
 20
-42.70000000252117
 30
0.0
 11
378.7640590421623
 21
-42.70000000252117
 31
0.0
  0
LINE
  5
1F8
330
76
100
AcDbEntity
  8
0
  6
Continuous
 62
     7
100
AcDbLine
 10
378.7640590421623
 20
-42.70000000252117
 30
0.0
 11
378.7640590421623
 21
-42.50000000252118
 31
0.0
  0
LINE
  5
1F9
330
76
100
AcDbEntity
  8
0
  6
Continuous
 62
     7
100
AcDbLine
 10
377.4659821190854
 20
-42.70000000252117
 30
0.0
 11
377.4659821190854
 21
-42.50000000252116
 31
0.0
  0
LINE
  5
1FA
330
76
100
AcDbEntity
  8
0
  6
Continuous
 62
     7
100
AcDbLine
 10
377.8265590421623
 20
-42.70000000252117
 30
0.0
 11
377.8265590421623
 21
-42.50000000252118
 31
0.0
  0
LINE
  5
1FB
330
76
100
AcDbEntity
  8
0
  6
Continuous
 62
     7
100
AcDbLine
 10
377.8265590421623
 20
-42.70000000252117
 30
0.0
 11
378.0453090421623
 21
-42.70000000252117
 31
0.0
  0
LINE
  5
1FC
330
76
100
AcDbEntity
  8
0
  6
Continuous
 62
     7
100
AcDbLine
 10
376.1035249369818
 20
-42.70000000252117
 30
0.0
 11
376.9332525010843
 21
-42.70000000252118
 31
0.0
  0
LINE
  5
1FD
330
76
100
AcDbEntity
  8
0
  6
Continuous
 62
     7
100
AcDbLine
 10
376.0818412560946
 20
-42.70000000252117
 30
0.0
 11
376.1035249369818
 21
-42.70000000252117
 31
0.0
  0
LINE
  5
1FE
330
76
100
AcDbEntity
  8
0
  6
Continuous
 62
     7
100
AcDbLine
 10
375.9516819882638
 20
-42.70000000252117
 30
0.0
 11
376.0818412560946
 21
-42.70000000252117
 31
0.0
  0
LINE
  5
1FF
330
76
100
AcDbEntity
  8
0
  6
Continuous
 62
     7
100
AcDbLine
 10
375.9516343106566
 20
-42.70000000252117
 30
0.0
 11
375.9516343106566
 21
-42.50000000252118
 31
0.0
  0
LINE
  5
200
330
76
100
AcDbEntity
  8
0
  6
Continuous
 62
     7
100
AcDbLine
 10
375.1884131568105
 20
-42.70000000252117
 30
0.0
 11
375.1884131568105
 21
-42.50000000252118
 31
0.0
  0
LINE
  5
201
330
76
100
AcDbEntity
  8
0
  6
Continuous
 62
     7
100
AcDbLine
 10
374.4303068421099
 20
-42.70000000252117
 30
0.0
 11
374.4303068421099
 21
-42.50000000252118
 31
0.0
  0
LINE
  5
202
330
76
100
AcDbEntity
  8
0
  6
Continuous
 62
     7
100
AcDbLine
 10
374.4303068421099
 20
-42.70000000252117
 30
0.0
 11
374.6374382523663
 21
-42.70000000252117
 31
0.0
  0
LINE
  5
203
330
76
100
AcDbEntity
  8
0
  6
Continuous
 62
     7
100
AcDbLine
 10
374.8554804645028
 20
-42.70000000252117
 30
0.0
 11
374.8554804645028
 21
-42.50000000252118
 31
0.0
  0
LINE
  5
204
330
76
100
AcDbEntity
  8
0
  6
Continuous
 62
     7
100
AcDbLine
 10
374.8554804645028
 20
-42.70000000252117
 30
0.0
 11
374.9989099516823
 21
-42.70000000252117
 31
0.0
  0
LINE
  5
205
330
76
100
AcDbEntity
  8
0
  6
Continuous
 62
     7
100
AcDbLine
 10
374.6374382523663
 20
-42.70000000252117
 30
0.0
 11
374.8554804645028
 21
-42.70000000252117
 31
0.0
  0
LINE
  5
206
330
76
100
AcDbEntity
  8
0
  6
Continuous
 62
     7
100
AcDbLine
 10
374.9989099516823
 20
-42.70000000252117
 30
0.0
 11
374.9989099516823
 21
-42.50000000252118
 31
0.0
  0
LINE
  5
207
330
76
100
AcDbEntity
  8
0
  6
Continuous
 62
     7
100
AcDbLine
 10
374.9989099516823
 20
-42.70000000252117
 30
0.0
 11
375.1884131568105
 21
-42.70000000252117
 31
0.0
  0
LINE
  5
208
330
76
100
AcDbEntity
  8
0
  6
Continuous
 62
     7
100
AcDbLine
 10
374.6374382523663
 20
-42.70000000252117
 30
0.0
 11
374.6374382523663
 21
-42.50000000252118
 31
0.0
  0
LINE
  5
209
330
76
100
AcDbEntity
  8
0
  6
Continuous
 62
     7
100
AcDbLine
 10
373.9130792780073
 20
-42.70000000252117
 30
0.0
 11
373.9130792780073
 21
-42.50000000252118
 31
0.0
  0
LINE
  5
20A
330
76
100
AcDbEntity
  8
0
  6
Continuous
 62
     7
100
AcDbLine
 10
373.9130792780073
 20
-42.70000000252117
 30
0.0
 11
374.4303068421099
 21
-42.70000000252117
 31
0.0
  0
LINE
  5
20B
330
76
100
AcDbEntity
  8
0
  6
Continuous
 62
     7
100
AcDbLine
 10
372.8457715856997
 20
-42.70000000252117
 30
0.0
 11
373.0456914574945
 21
-42.70000000252117
 31
0.0
  0
LINE
  5
20C
330
76
100
AcDbEntity
  8
0
  6
Continuous
 62
     7
100
AcDbLine
 10
373.0456914574945
 20
-42.70000000252117
 30
0.0
 11
373.0456914574945
 21
-42.50000000252118
 31
0.0
  0
LINE
  5
20D
330
76
100
AcDbEntity
  8
0
  6
Continuous
 62
     7
100
AcDbLine
 10
373.0456914574945
 20
-42.70000000252117
 30
0.0
 11
373.1113965856997
 21
-42.70000000252117
 31
0.0
  0
LINE
  5
20E
330
76
100
AcDbEntity
  8
0
  6
Continuous
 62
     7
100
AcDbLine
 10
373.1113965856997
 20
-42.70000000252117
 30
0.0
 11
373.1113965856997
 21
-42.50000000252118
 31
0.0
  0
LINE
  5
20F
330
76
100
AcDbEntity
  8
0
  6
Continuous
 62
     7
100
AcDbLine
 10
372.8457715856997
 20
-42.70000000252117
 30
0.0
 11
372.8457715856997
 21
-42.50000000252118
 31
0.0
  0
LINE
  5
210
330
76
100
AcDbEntity
  8
0
  6
Continuous
 62
     7
100
AcDbLine
 10
373.1113965856997
 20
-42.70000000252117
 30
0.0
 11
373.9130792780073
 21
-42.70000000252117
 31
0.0
  0
LINE
  5
211
330
76
100
AcDbEntity
  8
0
  6
Continuous
 62
     7
100
AcDbLine
 10
371.8909406449443
 20
-42.70000000252117
 30
0.0
 11
372.0804438500725
 21
-42.70000000252117
 31
0.0
  0
LINE
  5
212
330
76
100
AcDbEntity
  8
0
  6
Continuous
 62
     7
100
AcDbLine
 10
372.0804438500725
 20
-42.70000000252117
 30
0.0
 11
372.0804438500725
 21
-42.50000000252118
 31
0.0
  0
LINE
  5
213
330
76
100
AcDbEntity
  8
0
  6
Continuous
 62
     7
100
AcDbLine
 10
369.4474032082087
 20
-42.70000000252117
 30
0.0
 11
369.4474032082087
 21
-42.50000000252118
 31
0.0
  0
LINE
  5
214
330
76
100
AcDbEntity
  8
0
  6
Continuous
 62
     7
100
AcDbLine
 10
369.6248871825677
 20
-42.70000000252117
 30
0.0
 11
369.6248871825677
 21
-42.50000000252118
 31
0.0
  0
LINE
  5
215
330
76
100
AcDbEntity
  8
0
  6
Continuous
 62
     7
100
AcDbLine
 10
368.5683967979524
 20
-42.70000000252117
 30
0.0
 11
368.5683967979524
 21
-42.50000000252118
 31
0.0
  0
LINE
  5
216
330
76
100
AcDbEntity
  8
0
  6
Continuous
 62
     7
100
AcDbLine
 10
368.0621906283851
 20
-42.70000000252117
 30
0.0
 11
368.2420784488979
 21
-42.70000000252117
 31
0.0
  0
LINE
  5
217
330
76
100
AcDbEntity
  8
0
  6
Continuous
 62
     7
100
AcDbLine
 10
368.2420784488979
 20
-42.70000000252117
 30
0.0
 11
368.2420784488979
 21
-42.50000000252118
 31
0.0
  0
LINE
  5
218
330
76
100
AcDbEntity
  8
0
  6
Continuous
 62
     7
100
AcDbLine
 10
365.7090163346072
 20
-42.70000000252117
 30
0.0
 11
365.7090163346072
 21
-42.50000000252118
 31
0.0
  0
LINE
  5
219
330
76
100
AcDbEntity
  8
0
  6
Continuous
 62
     7
100
AcDbLine
 10
365.8772855653765
 20
-42.70000000252117
 30
0.0
 11
365.8772855653765
 21
-42.50000000252118
 31
0.0
  0
LINE
  5
21A
330
76
100
AcDbEntity
  8
0
  6
Continuous
 62
     7
100
AcDbLine
 10
364.6581349243508
 20
-42.70000000252117
 30
0.0
 11
364.6581349243508
 21
-42.50000000252118
 31
0.0
  0
LINE
  5
21B
330
76
100
AcDbEntity
  8
0
  6
Continuous
 62
     7
100
AcDbLine
 10
360.5308798498593
 20
-42.70000000252117
 30
0.0
 11
360.5308798498593
 21
-42.50000000252118
 31
0.0
  0
LINE
  5
21C
330
76
100
AcDbEntity
  8
0
  6
Continuous
 62
     7
100
AcDbLine
 10
360.931921516526
 20
-42.70000000252117
 30
0.0
 11
360.931921516526
 21
-42.50000000252118
 31
0.0
  0
LINE
  5
21D
330
76
100
AcDbEntity
  8
0
  6
Continuous
 62
     7
100
AcDbLine
 10
359.6166170293465
 20
-42.70000000252117
 30
0.0
 11
359.6166170293465
 21
-42.50000000252118
 31
0.0
  0
LINE
  5
21E
330
76
100
AcDbEntity
  8
0
  6
Continuous
 62
     7
100
AcDbLine
 10
359.5293901471815
 20
-42.70000000252117
 30
0.0
 11
359.5293901471815
 21
-42.50000000252118
 31
0.0
  0
LINE
  5
21F
330
76
100
AcDbEntity
  8
0
  6
Continuous
 62
     7
100
AcDbLine
 10
358.7012651471815
 20
-42.70000000252117
 30
0.0
 11
358.7926913592989
 21
-42.70000000252117
 31
0.0
  0
LINE
  5
220
330
76
100
AcDbEntity
  8
0
  6
Continuous
 62
     7
100
AcDbLine
 10
358.5690536087199
 20
-42.70000000252117
 30
0.0
 11
358.7012651471815
 21
-42.70000000252117
 31
0.0
  0
LINE
  5
221
330
76
100
AcDbEntity
  8
0
  6
Continuous
 62
     7
100
AcDbLine
 10
356.8169392193038
 20
-42.70000000252117
 30
0.0
 11
357.1342469116115
 21
-42.70000000252117
 31
0.0
  0
LINE
  5
222
330
76
100
AcDbEntity
  8
0
  6
Continuous
 62
     7
100
AcDbLine
 10
356.6799199885346
 20
-42.70000000252117
 30
0.0
 11
356.8169392193038
 21
-42.70000000252117
 31
0.0
  0
LINE
  5
223
330
76
100
AcDbEntity
  8
0
  6
Continuous
 62
     7
100
AcDbLine
 10
356.8169392193038
 20
-42.70000000252117
 30
0.0
 11
356.8169392193038
 21
-42.50000000252118
 31
0.0
  0
LINE
  5
224
330
76
100
AcDbEntity
  8
0
  6
Continuous
 62
     7
100
AcDbLine
 10
357.1342469116115
 20
-42.70000000252117
 30
0.0
 11
358.1117886639404
 21
-42.70000000252117
 31
0.0
  0
LINE
  5
225
330
76
100
AcDbEntity
  8
0
  6
Continuous
 62
     7
100
AcDbLine
 10
357.1342469116115
 20
-42.70000000252117
 30
0.0
 11
357.1342469116115
 21
-42.50000000252118
 31
0.0
  0
LINE
  5
226
330
76
100
AcDbEntity
  8
0
  6
Continuous
 62
     7
100
AcDbLine
 10
355.188333450073
 20
-42.70000000252117
 30
0.0
 11
355.188333450073
 21
-42.50000000252118
 31
0.0
  0
LINE
  5
227
330
76
100
AcDbEntity
  8
0
  6
Continuous
 62
     7
100
AcDbLine
 10
356.0364905013551
 20
-42.70000000252117
 30
0.0
 11
356.1759135782781
 21
-42.70000000252117
 31
0.0
  0
LINE
  5
228
330
76
100
AcDbEntity
  8
0
  6
Continuous
 62
     7
100
AcDbLine
 10
356.0364905013551
 20
-42.70000000252117
 30
0.0
 11
356.0364905013551
 21
-42.50000000252118
 31
0.0
  0
LINE
  5
229
330
76
100
AcDbEntity
  8
0
  6
Continuous
 62
     7
100
AcDbLine
 10
356.1759135782781
 20
-42.70000000252117
 30
0.0
 11
356.1759135782781
 21
-42.50000000252118
 31
0.0
  0
LINE
  5
22A
330
76
100
AcDbEntity
  8
0
  6
Continuous
 62
     7
100
AcDbLine
 10
356.1759135782781
 20
-42.70000000252117
 30
0.0
 11
356.3417789628935
 21
-42.70000000252117
 31
0.0
  0
LINE
  5
22B
330
76
100
AcDbEntity
  8
0
  6
Continuous
 62
     7
100
AcDbLine
 10
356.3417789628935
 20
-42.70000000252117
 30
0.0
 11
356.3417789628935
 21
-42.50000000252118
 31
0.0
  0
LINE
  5
22C
330
76
100
AcDbEntity
  8
0
  6
Continuous
 62
     7
100
AcDbLine
 10
356.3417789628935
 20
-42.70000000252117
 30
0.0
 11
356.6799199885346
 21
-42.70000000252117
 31
0.0
  0
LINE
  5
22D
330
76
100
AcDbEntity
  8
0
  6
Continuous
 62
     7
100
AcDbLine
 10
356.6799199885346
 20
-42.70000000252117
 30
0.0
 11
356.6799199885346
 21
-42.50000000252118
 31
0.0
  0
LINE
  5
22E
330
76
100
AcDbEntity
  8
0
  6
Continuous
 62
     7
100
AcDbLine
 10
352.7169015311443
 20
-42.70000000252117
 30
0.0
 11
352.7169015311443
 21
-42.50000000252118
 31
0.0
  0
LINE
  5
22F
330
76
100
AcDbEntity
  8
0
  6
Continuous
 62
     7
100
AcDbLine
 10
353.4957476849905
 20
-42.70000000252117
 30
0.0
 11
353.4957476849905
 21
-42.50000000252118
 31
0.0
  0
LINE
  5
230
330
76
100
AcDbEntity
  8
0
  6
Continuous
 62
     7
100
AcDbLine
 10
352.5602508901187
 20
-42.70000000252117
 30
0.0
 11
352.5602508901187
 21
-42.50000000252118
 31
0.0
  0
LINE
  5
231
330
76
100
AcDbEntity
  8
0
  6
Continuous
 62
     7
100
AcDbLine
 10
352.2818979232883
 20
-42.70000000252117
 30
0.0
 11
352.379169125528
 21
-42.70000000252117
 31
0.0
  0
LINE
  5
232
330
76
100
AcDbEntity
  8
0
  6
Continuous
 62
     7
100
AcDbLine
 10
352.379169125528
 20
-42.70000000252117
 30
0.0
 11
352.5602508901187
 21
-42.70000000252117
 31
0.0
  0
LINE
  5
233
330
76
100
AcDbEntity
  8
0
  6
Continuous
 62
     7
100
AcDbLine
 10
352.7169015311443
 20
-42.70000000252117
 30
0.0
 11
353.4957476849905
 21
-42.70000000252117
 31
0.0
  0
LINE
  5
234
330
76
100
AcDbEntity
  8
0
  6
Continuous
 62
     7
100
AcDbLine
 10
352.5602508901187
 20
-42.70000000252117
 30
0.0
 11
352.7169015311443
 21
-42.70000000252117
 31
0.0
  0
LINE
  5
235
330
76
100
AcDbEntity
  8
0
  6
Continuous
 62
     7
100
AcDbLine
 10
351.4432104607006
 20
-42.70000000252117
 30
0.0
 11
352.2818979232883
 21
-42.70000000252117
 31
0.0
  0
LINE
  5
236
330
76
100
AcDbEntity
  8
0
  6
Continuous
 62
     7
100
AcDbLine
 10
351.3406463581364
 20
-42.70000000252117
 30
0.0
 11
351.3406463581364
 21
-42.50000000252118
 31
0.0
  0
LINE
  5
237
330
76
100
AcDbEntity
  8
0
  6
Continuous
 62
     7
100
AcDbLine
 10
351.4432104607006
 20
-42.70000000252117
 30
0.0
 11
351.4432104607005
 21
-42.50000000252118
 31
0.0
  0
LINE
  5
238
330
76
100
AcDbEntity
  8
0
  6
Continuous
 62
     7
100
AcDbLine
 10
350.5111205376195
 20
-42.70000000252117
 30
0.0
 11
350.5111205376195
 21
-42.50000000252118
 31
0.0
  0
LINE
  5
239
330
76
100
AcDbEntity
  8
0
  6
Continuous
 62
     7
100
AcDbLine
 10
350.5728192555682
 20
-42.70000000252117
 30
0.0
 11
350.5728192555682
 21
-42.50000000252118
 31
0.0
  0
LINE
  5
23A
330
76
100
AcDbEntity
  8
0
  6
Continuous
 62
     7
100
AcDbLine
 10
350.4141654094144
 20
-42.70000000252117
 30
0.0
 11
350.4141654094144
 21
-42.50000000252118
 31
0.0
  0
LINE
  5
23B
330
76
100
AcDbEntity
  8
0
  6
Continuous
 62
     7
100
AcDbLine
 10
349.8937327171067
 20
-42.70000000252117
 30
0.0
 11
350.0115211786451
 21
-42.70000000252117
 31
0.0
  0
LINE
  5
23C
330
76
100
AcDbEntity
  8
0
  6
Continuous
 62
     7
100
AcDbLine
 10
349.7278673324913
 20
-42.70000000252117
 30
0.0
 11
349.8937327171067
 21
-42.70000000252117
 31
0.0
  0
LINE
  5
23D
330
76
100
AcDbEntity
  8
0
  6
Continuous
 62
     7
100
AcDbLine
 10
349.8937327171067
 20
-42.70000000252117
 30
0.0
 11
349.8937327171067
 21
-42.50000000252118
 31
0.0
  0
LINE
  5
23E
330
76
100
AcDbEntity
  8
0
  6
Continuous
 62
     7
100
AcDbLine
 10
350.0115211786451
 20
-42.70000000252117
 30
0.0
 11
350.0115211786451
 21
-42.50000000252118
 31
0.0
  0
LINE
  5
23F
330
76
100
AcDbEntity
  8
0
  6
Continuous
 62
     7
100
AcDbLine
 10
349.7278673324913
 20
-42.70000000252117
 30
0.0
 11
349.7278673324913
 21
-42.50000000252118
 31
0.0
  0
LINE
  5
240
330
76
100
AcDbEntity
  8
0
  6
Continuous
 62
     7
100
AcDbLine
 10
349.5100944334654
 20
-42.70000000252117
 30
0.0
 11
349.7278673324913
 21
-42.70000000252117
 31
0.0
  0
LINE
  5
241
330
76
100
AcDbEntity
  8
0
  6
Continuous
 62
     7
100
AcDbLine
 10
349.5100944334654
 20
-42.70000000252117
 30
0.0
 11
349.5100944334654
 21
-42.50000000252118
 31
0.0
  0
LINE
  5
242
330
76
100
AcDbEntity
  8
0
  6
Continuous
 62
     7
100
AcDbLine
 10
347.0708586569076
 20
-42.70000000252117
 30
0.0
 11
348.5708586569076
 21
-42.70000000252117
 31
0.0
  0
LINE
  5
243
330
76
100
AcDbEntity
  8
0
  6
Continuous
 62
     7
100
AcDbLine
 10
348.5708586569076
 20
-42.70000000252117
 30
0.0
 11
349.5100944334654
 21
-42.70000000252117
 31
0.0
  0
LINE
  5
244
330
76
100
AcDbEntity
  8
0
  6
Continuous
 62
     7
100
AcDbLine
 10
348.5708586569076
 20
-42.70000000252117
 30
0.0
 11
348.5708586569076
 21
-42.50000000252118
 31
0.0
  0
LINE
  5
245
330
76
100
AcDbEntity
  8
0
  6
Continuous
 62
     7
100
AcDbLine
 10
347.0708586569076
 20
-42.70000000252117
 30
0.0
 11
347.0708586569076
 21
-42.50000000252118
 31
0.0
  0
LINE
  5
246
330
76
100
AcDbEntity
  8
0
  6
Continuous
 62
     7
100
AcDbLine
 10
384.4351777450856
 20
-42.70000000252117
 30
0.0
 11
384.4450060597823
 21
-42.70000000252117
 31
0.0
  0
LINE
  5
247
330
76
100
AcDbEntity
  8
0
  6
Continuous
 62
     7
100
AcDbLine
 10
383.0659552041018
 20
-42.70000000252119
 30
0.0
 11
383.4471841061415
 21
-42.70000000252117
 31
0.0
  0
LINE
  5
248
330
76
100
AcDbEntity
  8
0
  6
Continuous
 62
     7
100
AcDbLine
 10
359.3113285678081
 20
-42.70000000252117
 30
0.0
 11
359.5293901471815
 21
-42.70000000252117
 31
0.0
  0
LINE
  5
249
330
76
100
AcDbEntity
  8
0
  6
Continuous
 62
     7
100
AcDbLine
 10
358.9912066961861
 20
-42.70000000252117
 30
0.0
 11
359.3113285678081
 21
-42.70000000252117
 31
0.0
  0
LINE
  5
24A
330
76
100
AcDbEntity
  8
0
  6
Continuous
 62
     7
100
AcDbLine
 10
382.8766712856287
 20
-42.70000000252118
 30
0.0
 11
382.8766712856287
 21
-42.50000000252118
 31
0.0
  0
LINE
  5
24B
330
76
100
AcDbEntity
  8
0
  6
Continuous
 62
     7
100
AcDbLine
 10
383.4471841061415
 20
-42.70000000252117
 30
0.0
 11
383.9620078240902
 21
-42.70000000252117
 31
0.0
  0
LINE
  5
24C
330
76
100
AcDbEntity
  8
0
  6
Continuous
 62
     7
100
AcDbLine
 10
380.4325125696068
 20
-42.70000000252118
 30
0.0
 11
380.4325125696068
 21
-42.50000000252118
 31
0.0
  0
LINE
  5
24D
330
76
100
AcDbEntity
  8
0
  6
Continuous
 62
     7
100
AcDbLine
 10
376.9332525010843
 20
-42.70000000252118
 30
0.0
 11
376.9332525010843
 21
-42.50000000252116
 31
0.0
  0
LINE
  5
24E
330
76
100
AcDbEntity
  8
0
  6
Continuous
 62
     7
100
AcDbLine
 10
378.0453090421623
 20
-42.70000000252117
 30
0.0
 11
378.2508378883162
 21
-42.70000000252118
 31
0.0
  0
LINE
  5
24F
330
76
100
AcDbEntity
  8
0
  6
Continuous
 62
     7
100
AcDbLine
 10
384.4450060597823
 20
-42.70000000252117
 30
0.0
 11
385.2242528546541
 21
-42.70000000252117
 31
0.0
  0
LINE
  5
250
330
76
100
AcDbEntity
  8
0
  6
Continuous
 62
     7
100
AcDbLine
 10
385.2242528546541
 20
-42.70000000252117
 30
0.0
 11
385.8141285735969
 21
-42.70000000252117
 31
0.0
  0
ARC
  5
251
330
76
100
AcDbEntity
  8
0
  6
Continuous
 62
     7
100
AcDbCircle
 10
435.499999999955
 20
-39.50000000252118
 30
0.0
 40
3.0
100
AcDbArc
 50
270.0
 51
0.0
  0
ARC
  5
252
330
76
100
AcDbEntity
  8
0
  6
Continuous
 62
     7
100
AcDbCircle
 10
342.499999999955
 20
-39.50000000252118
 30
0.0
 40
3.0
100
AcDbArc
 50
180.0
 51
270.0
  0
SPLINE
  5
253
330
76
100
AcDbEntity
  8
0
  6
Continuous
 62
     7
100
AcDbSpline
210
0.0
220
0.0
230
1.0
 70
  1080
 71
     3
 72
    11
 73
     7
 74
     5
 42
0.000000001
 43
0.0000000001
 44
0.00000001
 40
0.0
 40
0.0
 40
0.0
 40
0.0
 40
0.0499999999999901
 40
0.0999999999999943
 40
0.1499999999999986
 40
0.1999999999999886
 40
0.1999999999999886
 40
0.1999999999999886
 40
0.1999999999999886
 10
409.3628432534302
 20
-42.50000000252118
 30
0.0
 10
409.3628432534302
 20
-42.51666666918784
 30
0.0
 10
409.3628432534303
 20
-42.55000000252118
 30
0.0
 10
409.3628432534301
 20
-42.60000000252118
 30
0.0
 10
409.3628432534302
 20
-42.65000000252117
 30
0.0
 10
409.3628432534301
 20
-42.68333333585451
 30
0.0
 10
409.3628432534302
 20
-42.70000000252117
 30
0.0
 11
409.3628432534302
 21
-42.50000000252118
 31
0.0
 11
409.3628432534302
 21
-42.55000000252117
 31
0.0
 11
409.3628432534302
 21
-42.60000000252117
 31
0.0
 11
409.3628432534302
 21
-42.65000000252117
 31
0.0
 11
409.3628432534302
 21
-42.70000000252117
 31
0.0
  0
SPLINE
  5
254
330
76
100
AcDbEntity
  8
0
  6
Continuous
 62
     7
100
AcDbSpline
210
0.0
220
0.0
230
1.0
 70
  1080
 71
     3
 72
    11
 73
     7
 74
     5
 42
0.000000001
 43
0.0000000001
 44
0.00000001
 40
0.0
 40
0.0
 40
0.0
 40
0.0
 40
0.0499999999999758
 40
0.099999999999973
 40
0.1499999999999844
 40
0.1999999999999957
 40
0.1999999999999957
 40
0.1999999999999957
 40
0.1999999999999957
 10
415.6799819137889
 20
-42.50000000252118
 30
0.0
 10
415.6799819137889
 20
-42.51666666918783
 30
0.0
 10
415.6799819137889
 20
-42.55000000252117
 30
0.0
 10
415.679981913789
 20
-42.60000000252116
 30
0.0
 10
415.679981913789
 20
-42.65000000252117
 30
0.0
 10
415.6799819137889
 20
-42.68333333585451
 30
0.0
 10
415.6799819137889
 20
-42.70000000252118
 30
0.0
 11
415.6799819137889
 21
-42.50000000252118
 31
0.0
 11
415.6799819137889
 21
-42.55000000252117
 31
0.0
 11
415.6799819137889
 21
-42.60000000252117
 31
0.0
 11
415.6799819137889
 21
-42.65000000252117
 31
0.0
 11
415.6799819137889
 21
-42.70000000252118
 31
0.0
  0
SPLINE
  5
255
330
76
100
AcDbEntity
  8
0
  6
Continuous
 62
     7
100
AcDbSpline
210
0.0
220
0.0
230
1.0
 70
  1080
 71
     3
 72
    11
 73
     7
 74
     5
 42
0.000000001
 43
0.0000000001
 44
0.00000001
 40
0.0
 40
0.0
 40
0.0
 40
0.0
 40
0.0500000000000185
 40
0.1000000000000085
 40
0.1500000000000057
 40
0.2000000000000099
 40
0.2000000000000099
 40
0.2000000000000099
 40
0.2000000000000099
 10
413.9796499884353
 20
-42.70000000252117
 30
0.0
 10
413.9796499884353
 20
-42.68333333585449
 30
0.0
 10
413.9796499884354
 20
-42.65000000252117
 30
0.0
 10
413.9796499884354
 20
-42.60000000252116
 30
0.0
 10
413.9796499884354
 20
-42.55000000252117
 30
0.0
 10
413.9796499884353
 20
-42.51666666918783
 30
0.0
 10
413.9796499884353
 20
-42.50000000252116
 30
0.0
 11
413.9796499884353
 21
-42.70000000252117
 31
0.0
 11
413.9796499884353
 21
-42.65000000252117
 31
0.0
 11
413.9796499884353
 21
-42.60000000252117
 31
0.0
 11
413.9796499884353
 21
-42.55000000252117
 31
0.0
 11
413.9796499884353
 21
-42.50000000252116
 31
0.0
  0
SPLINE
  5
256
330
76
100
AcDbEntity
  8
0
  6
Continuous
 62
     7
100
AcDbSpline
210
0.0
220
0.0
230
1.0
 70
  1080
 71
     3
 72
    11
 73
     7
 74
     5
 42
0.000000001
 43
0.0000000001
 44
0.00000001
 40
0.0
 40
0.0
 40
0.0
 40
0.0
 40
0.0500000000000256
 40
0.1000000000000085
 40
0.1499999999999986
 40
0.1999999999999957
 40
0.1999999999999957
 40
0.1999999999999957
 40
0.1999999999999957
 10
425.3775801642446
 20
-42.70000000252118
 30
0.0
 10
425.3775801642446
 20
-42.6833333358545
 30
0.0
 10
425.3775801642445
 20
-42.65000000252117
 30
0.0
 10
425.3775801642446
 20
-42.60000000252117
 30
0.0
 10
425.3775801642446
 20
-42.55000000252117
 30
0.0
 10
425.3775801642446
 20
-42.51666666918786
 30
0.0
 10
425.3775801642446
 20
-42.50000000252118
 30
0.0
 11
425.3775801642446
 21
-42.70000000252118
 31
0.0
 11
425.3775801642446
 21
-42.65000000252117
 31
0.0
 11
425.3775801642446
 21
-42.60000000252117
 31
0.0
 11
425.3775801642446
 21
-42.55000000252117
 31
0.0
 11
425.3775801642446
 21
-42.50000000252118
 31
0.0
  0
SPLINE
  5
257
330
76
100
AcDbEntity
  8
0
  6
Continuous
 62
     7
100
AcDbSpline
210
0.0
220
0.0
230
1.0
 70
  1080
 71
     3
 72
    11
 73
     7
 74
     5
 42
0.000000001
 43
0.0000000001
 44
0.00000001
 40
0.0
 40
0.0
 40
0.0
 40
0.0
 40
0.0500000000000114
 40
0.1000000000000014
 40
0.1500000000000057
 40
0.2000000000000242
 40
0.2000000000000242
 40
0.2000000000000242
 40
0.2000000000000242
 10
424.4722743781223
 20
-42.70000000252117
 30
0.0
 10
424.4722743781222
 20
-42.68333333585449
 30
0.0
 10
424.4722743781223
 20
-42.65000000252118
 30
0.0
 10
424.4722743781222
 20
-42.60000000252116
 30
0.0
 10
424.4722743781223
 20
-42.55000000252117
 30
0.0
 10
424.4722743781223
 20
-42.51666666918783
 30
0.0
 10
424.4722743781223
 20
-42.50000000252115
 30
0.0
 11
424.4722743781223
 21
-42.70000000252117
 31
0.0
 11
424.4722743781223
 21
-42.65000000252117
 31
0.0
 11
424.4722743781223
 21
-42.60000000252117
 31
0.0
 11
424.4722743781223
 21
-42.55000000252116
 31
0.0
 11
424.4722743781223
 21
-42.50000000252115
 31
0.0
  0
SPLINE
  5
258
330
76
100
AcDbEntity
  8
0
  6
Continuous
 62
     7
100
AcDbSpline
210
0.0
220
0.0
230
1.0
 70
  1080
 71
     3
 72
    11
 73
     7
 74
     5
 42
0.000000001
 43
0.0000000001
 44
0.00000001
 40
0.0
 40
0.0
 40
0.0
 40
0.0
 40
0.0500000000000256
 40
0.1000000000000085
 40
0.1499999999999986
 40
0.1999999999999957
 40
0.1999999999999957
 40
0.1999999999999957
 40
0.1999999999999957
 10
418.7397704537182
 20
-42.70000000252118
 30
0.0
 10
418.7397704537182
 20
-42.6833333358545
 30
0.0
 10
418.7397704537185
 20
-42.65000000252117
 30
0.0
 10
418.7397704537182
 20
-42.60000000252117
 30
0.0
 10
418.7397704537184
 20
-42.55000000252117
 30
0.0
 10
418.7397704537183
 20
-42.51666666918786
 30
0.0
 10
418.7397704537182
 20
-42.50000000252118
 30
0.0
 11
418.7397704537182
 21
-42.70000000252118
 31
0.0
 11
418.7397704537182
 21
-42.65000000252117
 31
0.0
 11
418.7397704537182
 21
-42.60000000252117
 31
0.0
 11
418.7397704537182
 21
-42.55000000252117
 31
0.0
 11
418.7397704537182
 21
-42.50000000252118
 31
0.0
  0
SPLINE
  5
259
330
76
100
AcDbEntity
  8
0
  6
Continuous
 62
     7
100
AcDbSpline
210
0.0
220
0.0
230
1.0
 70
  1080
 71
     3
 72
    11
 73
     7
 74
     5
 42
0.000000001
 43
0.0000000001
 44
0.00000001
 40
0.0
 40
0.0
 40
0.0
 40
0.0
 40
0.0437448276444456
 40
0.0774416050473405
 40
0.0910510049278059
 40
0.1046604048081008
 40
0.1046604048081008
 40
0.1046604048081008
 40
0.1046604048081008
 10
409.2581828486221
 20
-42.70000000252117
 30
0.0
 10
409.2727644578368
 20
-42.70000000252115
 30
0.0
 10
409.2985783261861
 20
-42.70000000252114
 30
0.0
 10
409.3289286611619
 20
-42.70000000252112
 30
0.0
 10
409.3492338535498
 20
-42.70000000252115
 30
0.0
 10
409.3583067868034
 20
-42.70000000252116
 30
0.0
 10
409.3628432534302
 20
-42.70000000252117
 30
0.0
 11
409.2581828486221
 21
-42.70000000252117
 31
0.0
 11
409.3019276762665
 21
-42.70000000252116
 31
0.0
 11
409.3356244536695
 21
-42.70000000252117
 31
0.0
 11
409.3492338535499
 21
-42.70000000252117
 31
0.0
 11
409.3628432534302
 21
-42.70000000252117
 31
0.0
  0
SPLINE
  5
25A
330
76
100
AcDbEntity
  8
0
  6
Continuous
 62
     7
100
AcDbSpline
210
0.0
220
0.0
230
1.0
 70
  1080
 71
     3
 72
    11
 73
     7
 74
     5
 42
0.000000001
 43
0.0000000001
 44
0.00000001
 40
0.0
 40
0.0
 40
0.0
 40
0.0
 40
0.1666424292344573
 40
0.3142107122770312
 40
0.4347227019139837
 40
0.5308493589743648
 40
0.5308493589743648
 40
0.5308493589743648
 40
0.5308493589743648
 10
408.7273334896477
 20
-42.70000000252117
 30
0.0
 10
408.7828809660591
 20
-42.70000000252118
 30
0.0
 10
408.8876178701516
 20
-42.70000000252119
 30
0.0
 10
409.032525437456
 20
-42.70000000252116
 30
0.0
 10
409.1539277473697
 20
-42.70000000252118
 30
0.0
 10
409.226140629602
 20
-42.70000000252117
 30
0.0
 10
409.2581828486221
 20
-42.70000000252117
 30
0.0
 11
408.7273334896477
 21
-42.70000000252117
 31
0.0
 11
408.8939759188823
 21
-42.70000000252118
 31
0.0
 11
409.0415442019248
 21
-42.70000000252117
 31
0.0
 11
409.1620561915617
 21
-42.70000000252117
 31
0.0
 11
409.2581828486221
 21
-42.70000000252117
 31
0.0
  0
SPLINE
  5
25B
330
76
100
AcDbEntity
  8
0
  6
Continuous
 62
     7
100
AcDbSpline
210
0.0
220
0.0
230
1.0
 70
  1080
 71
     3
 72
    11
 73
     7
 74
     5
 42
0.000000001
 43
0.0000000001
 44
0.00000001
 40
0.0
 40
0.0
 40
0.0
 40
0.0
 40
0.0500000000000327
 40
0.1000000000000441
 40
0.1500000000000341
 40
0.2000000000000099
 40
0.2000000000000099
 40
0.2000000000000099
 40
0.2000000000000099
 10
403.223950208829
 20
-42.70000000252119
 30
0.0
 10
403.223950208829
 20
-42.68333333585451
 30
0.0
 10
403.2239502088289
 20
-42.65000000252118
 30
0.0
 10
403.223950208829
 20
-42.60000000252116
 30
0.0
 10
403.2239502088287
 20
-42.55000000252116
 30
0.0
 10
403.223950208829
 20
-42.51666666918783
 30
0.0
 10
403.223950208829
 20
-42.50000000252118
 30
0.0
 11
403.223950208829
 21
-42.70000000252119
 31
0.0
 11
403.223950208829
 21
-42.65000000252118
 31
0.0
 11
403.223950208829
 21
-42.60000000252117
 31
0.0
 11
403.223950208829
 21
-42.55000000252118
 31
0.0
 11
403.223950208829
 21
-42.50000000252118
 31
0.0
  0
SPLINE
  5
25C
330
76
100
AcDbEntity
  8
0
  6
Continuous
 62
     7
100
AcDbSpline
210
0.0
220
0.0
230
1.0
 70
  1080
 71
     3
 72
    11
 73
     7
 74
     5
 42
0.000000001
 43
0.0000000001
 44
0.00000001
 40
0.0
 40
0.0
 40
0.0
 40
0.0
 40
0.0500000000000185
 40
0.1000000000000156
 40
0.1499999999999986
 40
0.1999999999999886
 40
0.1999999999999886
 40
0.1999999999999886
 40
0.1999999999999886
 10
401.7609035883471
 20
-42.70000000252117
 30
0.0
 10
401.7609035883469
 20
-42.68333333585449
 30
0.0
 10
401.7609035883467
 20
-42.65000000252117
 30
0.0
 10
401.7609035883469
 20
-42.60000000252115
 30
0.0
 10
401.760903588347
 20
-42.55000000252118
 30
0.0
 10
401.7609035883471
 20
-42.51666666918785
 30
0.0
 10
401.7609035883471
 20
-42.50000000252118
 30
0.0
 11
401.7609035883471
 21
-42.70000000252117
 31
0.0
 11
401.7609035883471
 21
-42.65000000252117
 31
0.0
 11
401.7609035883471
 21
-42.60000000252117
 31
0.0
 11
401.7609035883471
 21
-42.55000000252117
 31
0.0
 11
401.7609035883471
 21
-42.50000000252118
 31
0.0
  0
SPLINE
  5
25D
330
76
100
AcDbEntity
  8
0
  6
Continuous
 62
     7
100
AcDbSpline
210
0.0
220
0.0
230
1.0
 70
  1080
 71
     3
 72
    11
 73
     7
 74
     5
 42
0.000000001
 43
0.0000000001
 44
0.00000001
 40
0.0
 40
0.0
 40
0.0
 40
0.0
 40
0.0500000000000185
 40
0.1000000000000156
 40
0.1499999999999986
 40
0.1999999999999886
 40
0.1999999999999886
 40
0.1999999999999886
 40
0.1999999999999886
 10
395.664812417411
 20
-42.70000000252117
 30
0.0
 10
395.6648124174109
 20
-42.68333333585449
 30
0.0
 10
395.6648124174109
 20
-42.65000000252117
 30
0.0
 10
395.6648124174107
 20
-42.60000000252115
 30
0.0
 10
395.6648124174111
 20
-42.55000000252118
 30
0.0
 10
395.664812417411
 20
-42.51666666918785
 30
0.0
 10
395.664812417411
 20
-42.50000000252118
 30
0.0
 11
395.664812417411
 21
-42.70000000252117
 31
0.0
 11
395.664812417411
 21
-42.65000000252117
 31
0.0
 11
395.664812417411
 21
-42.60000000252117
 31
0.0
 11
395.664812417411
 21
-42.55000000252117
 31
0.0
 11
395.664812417411
 21
-42.50000000252118
 31
0.0
  0
SPLINE
  5
25E
330
76
100
AcDbEntity
  8
0
  6
Continuous
 62
     7
100
AcDbSpline
210
0.0
220
0.0
230
1.0
 70
  1080
 71
     3
 72
    15
 73
    11
 74
     9
 42
0.000000001
 43
0.0000000001
 44
0.00000001
 40
0.0
 40
0.0
 40
0.0
 40
0.0
 40
0.0102715341812996
 40
0.020543068362656
 40
0.047940575485427
 40
0.0866081025080803
 40
0.1348287907952113
 40
0.1908307485217051
 40
0.253303479815429
 40
0.3201701825528289
 40
0.3201701825528289
 40
0.3201701825528289
 40
0.3201701825528289
 10
395.664812417411
 20
-42.70000000252117
 30
0.0
 10
395.668236262138
 20
-42.70000000252117
 30
0.0
 10
395.6750839515923
 20
-42.70000000252119
 30
0.0
 10
395.6910641434207
 20
-42.70000000252118
 30
0.0
 10
395.7165096661965
 20
-42.70000000252123
 30
0.0
 10
395.7546049070071
 20
-42.70000000252122
 30
0.0
 10
395.802234964686
 20
-42.70000000252123
 30
0.0
 10
395.8578000904552
 20
-42.70000000252121
 30
0.0
 10
395.9195805543743
 20
-42.70000000252119
 30
0.0
 10
395.9626936990514
 20
-42.70000000252118
 30
0.0
 10
395.9849825999638
 20
-42.70000000252117
 30
0.0
 11
395.664812417411
 21
-42.70000000252117
 31
0.0
 11
395.6750839515925
 21
-42.70000000252119
 31
0.0
 11
395.685355485774
 21
-42.70000000252119
 31
0.0
 11
395.712752992897
 21
-42.70000000252115
 31
0.0
 11
395.75142051992
 21
-42.70000000252117
 31
0.0
 11
395.799641208207
 21
-42.70000000252119
 31
0.0
 11
395.8556431659332
 21
-42.70000000252118
 31
0.0
 11
395.9181158972265
 21
-42.70000000252118
 31
0.0
 11
395.9849825999638
 21
-42.70000000252117
 31
0.0
  0
SPLINE
  5
25F
330
76
100
AcDbEntity
  8
0
  6
Continuous
 62
     7
100
AcDbSpline
210
0.0
220
0.0
230
1.0
 70
  1080
 71
     3
 72
    11
 73
     7
 74
     5
 42
0.000000001
 43
0.0000000001
 44
0.00000001
 40
0.0
 40
0.0
 40
0.0
 40
0.0
 40
0.1210329794451468
 40
0.2450868685188539
 40
0.3654846145250303
 40
0.486378205128176
 40
0.486378205128176
 40
0.486378205128176
 40
0.486378205128176
 10
395.9849825999638
 20
-42.70000000252117
 30
0.0
 10
396.0253269264455
 20
-42.70000000252117
 30
0.0
 10
396.1070225492852
 20
-42.70000000252119
 30
0.0
 10
396.2288507541269
 20
-42.70000000252119
 30
0.0
 10
396.3506324960209
 20
-42.70000000252119
 30
0.0
 10
396.4310629415577
 20
-42.70000000252119
 30
0.0
 10
396.471360805092
 20
-42.70000000252117
 30
0.0
 11
395.9849825999638
 21
-42.70000000252117
 31
0.0
 11
396.1060155794088
 21
-42.70000000252116
 31
0.0
 11
396.2300694684824
 21
-42.70000000252117
 31
0.0
 11
396.3504672144886
 21
-42.70000000252118
 31
0.0
 11
396.471360805092
 21
-42.70000000252117
 31
0.0
  0
SPLINE
  5
260
330
76
100
AcDbEntity
  8
0
  6
Continuous
 62
     7
100
AcDbSpline
210
0.0
220
0.0
230
1.0
 70
  1080
 71
     3
 72
    11
 73
     7
 74
     5
 42
0.000000001
 43
0.0000000001
 44
0.00000001
 40
0.0
 40
0.0
 40
0.0
 40
0.0
 40
0.0500000000000185
 40
0.1000000000000014
 40
0.1499999999999986
 40
0.2000000000000099
 40
0.2000000000000099
 40
0.2000000000000099
 40
0.2000000000000099
 10
393.4933408365968
 20
-42.70000000252119
 30
0.0
 10
393.4933408365967
 20
-42.68333333585451
 30
0.0
 10
393.4933408365966
 20
-42.6500000025212
 30
0.0
 10
393.4933408365966
 20
-42.60000000252118
 30
0.0
 10
393.4933408365968
 20
-42.5500000025212
 30
0.0
 10
393.4933408365968
 20
-42.51666666918786
 30
0.0
 10
393.4933408365968
 20
-42.50000000252118
 30
0.0
 11
393.4933408365968
 21
-42.70000000252119
 31
0.0
 11
393.4933408365968
 21
-42.65000000252119
 31
0.0
 11
393.4933408365968
 21
-42.60000000252119
 31
0.0
 11
393.4933408365968
 21
-42.55000000252119
 31
0.0
 11
393.4933408365968
 21
-42.50000000252118
 31
0.0
  0
SPLINE
  5
261
330
76
100
AcDbEntity
  8
0
  6
Continuous
 62
     7
100
AcDbSpline
210
0.0
220
0.0
230
1.0
 70
  1080
 71
     3
 72
    15
 73
    11
 74
     9
 42
0.000000001
 43
0.0000000001
 44
0.00000001
 40
0.0
 40
0.0
 40
0.0
 40
0.0
 40
0.0318226939506872
 40
0.0636453879016585
 40
0.1445440079439777
 40
0.2575664600785217
 40
0.4017041606761609
 40
0.5678957143878165
 40
0.7446806483029036
 40
0.9258960828070713
 40
0.9258960828070713
 40
0.9258960828070713
 40
0.9258960828070713
 10
393.4933408365968
 20
-42.70000000252119
 30
0.0
 10
393.503948401247
 20
-42.70000000252119
 30
0.0
 10
393.5251635305476
 20
-42.70000000252117
 30
0.0
 10
393.5733448665289
 20
-42.70000000252115
 30
0.0
 10
393.6485927885715
 20
-42.7000000025211
 30
0.0
 10
393.761279046163
 20
-42.70000000252109
 30
0.0
 10
393.9023962816443
 20
-42.70000000252109
 30
0.0
 10
394.0647676777191
 20
-42.70000000252112
 30
0.0
 10
394.2394983184295
 20
-42.70000000252117
 30
0.0
 10
394.3588317745692
 20
-42.70000000252117
 30
0.0
 10
394.4192369194039
 20
-42.70000000252117
 30
0.0
 11
393.4933408365968
 21
-42.70000000252119
 31
0.0
 11
393.5251635305475
 21
-42.70000000252118
 31
0.0
 11
393.5569862244983
 21
-42.70000000252117
 31
0.0
 11
393.6378848445406
 21
-42.70000000252116
 31
0.0
 11
393.7509072966751
 21
-42.70000000252117
 31
0.0
 11
393.8950449972726
 21
-42.70000000252118
 31
0.0
 11
394.0612365509844
 21
-42.70000000252117
 31
0.0
 11
394.2380214848995
 21
-42.70000000252117
 31
0.0
 11
394.4192369194039
 21
-42.70000000252117
 31
0.0
  0
SPLINE
  5
262
330
76
100
AcDbEntity
  8
0
  6
Continuous
 62
     7
100
AcDbSpline
210
0.0
220
0.0
230
1.0
 70
  1080
 71
     3
 72
    11
 73
     7
 74
     5
 42
0.000000001
 43
0.0000000001
 44
0.00000001
 40
0.0
 40
0.0
 40
0.0
 40
0.0
 40
0.0499999999999901
 40
0.0999999999999943
 40
0.1499999999999986
 40
0.1999999999999886
 40
0.1999999999999886
 40
0.1999999999999886
 40
0.1999999999999886
 10
385.8141285735969
 20
-42.50000000252118
 30
0.0
 10
385.8141285735969
 20
-42.51666666918784
 30
0.0
 10
385.8141285735968
 20
-42.55000000252118
 30
0.0
 10
385.8141285735969
 20
-42.60000000252118
 30
0.0
 10
385.814128573597
 20
-42.65000000252117
 30
0.0
 10
385.8141285735969
 20
-42.68333333585451
 30
0.0
 10
385.8141285735969
 20
-42.70000000252117
 30
0.0
 11
385.8141285735969
 21
-42.50000000252118
 31
0.0
 11
385.8141285735969
 21
-42.55000000252117
 31
0.0
 11
385.8141285735969
 21
-42.60000000252117
 31
0.0
 11
385.8141285735969
 21
-42.65000000252117
 31
0.0
 11
385.8141285735969
 21
-42.70000000252117
 31
0.0
  0
SPLINE
  5
263
330
76
100
AcDbEntity
  8
0
  6
Continuous
 62
     7
100
AcDbSpline
210
0.0
220
0.0
230
1.0
 70
  1080
 71
     3
 72
    11
 73
     7
 74
     5
 42
0.000000001
 43
0.0000000001
 44
0.00000001
 40
0.0
 40
0.0
 40
0.0
 40
0.0
 40
0.0500000000000185
 40
0.1000000000000156
 40
0.1499999999999986
 40
0.1999999999999886
 40
0.1999999999999886
 40
0.1999999999999886
 40
0.1999999999999886
 10
384.4351777450856
 20
-42.70000000252117
 30
0.0
 10
384.4351777450855
 20
-42.68333333585449
 30
0.0
 10
384.4351777450853
 20
-42.65000000252117
 30
0.0
 10
384.4351777450852
 20
-42.60000000252115
 30
0.0
 10
384.4351777450852
 20
-42.55000000252118
 30
0.0
 10
384.4351777450855
 20
-42.51666666918785
 30
0.0
 10
384.4351777450856
 20
-42.50000000252118
 30
0.0
 11
384.4351777450856
 21
-42.70000000252117
 31
0.0
 11
384.4351777450856
 21
-42.65000000252117
 31
0.0
 11
384.4351777450856
 21
-42.60000000252117
 31
0.0
 11
384.4351777450855
 21
-42.55000000252117
 31
0.0
 11
384.4351777450856
 21
-42.50000000252118
 31
0.0
  0
SPLINE
  5
264
330
76
100
AcDbEntity
  8
0
  6
Continuous
 62
     7
100
AcDbSpline
210
0.0
220
0.0
230
1.0
 70
  1080
 71
     3
 72
    11
 73
     7
 74
     5
 42
0.000000001
 43
0.0000000001
 44
0.00000001
 40
0.0
 40
0.0
 40
0.0
 40
0.0
 40
0.0499999999999901
 40
0.0999999999999943
 40
0.1499999999999986
 40
0.1999999999999886
 40
0.1999999999999886
 40
0.1999999999999886
 40
0.1999999999999886
 10
352.379169125528
 20
-42.50000000252118
 30
0.0
 10
352.379169125528
 20
-42.51666666918784
 30
0.0
 10
352.3791691255281
 20
-42.55000000252118
 30
0.0
 10
352.3791691255279
 20
-42.60000000252118
 30
0.0
 10
352.3791691255281
 20
-42.65000000252117
 30
0.0
 10
352.379169125528
 20
-42.68333333585451
 30
0.0
 10
352.379169125528
 20
-42.70000000252117
 30
0.0
 11
352.379169125528
 21
-42.50000000252118
 31
0.0
 11
352.379169125528
 21
-42.55000000252117
 31
0.0
 11
352.379169125528
 21
-42.60000000252117
 31
0.0
 11
352.3791691255279
 21
-42.65000000252117
 31
0.0
 11
352.379169125528
 21
-42.70000000252117
 31
0.0
  0
SPLINE
  5
265
330
76
100
AcDbEntity
  8
0
  6
Continuous
 62
     7
100
AcDbSpline
210
0.0
220
0.0
230
1.0
 70
  1080
 71
     3
 72
    11
 73
     7
 74
     5
 42
0.000000001
 43
0.0000000001
 44
0.00000001
 40
0.0
 40
0.0
 40
0.0
 40
0.0
 40
0.0499999999999901
 40
0.0999999999999943
 40
0.1499999999999986
 40
0.1999999999999886
 40
0.1999999999999886
 40
0.1999999999999886
 40
0.1999999999999886
 10
358.2872737215607
 20
-42.50000000252118
 30
0.0
 10
358.2872737215607
 20
-42.51666666918784
 30
0.0
 10
358.2872737215608
 20
-42.55000000252118
 30
0.0
 10
358.2872737215608
 20
-42.60000000252118
 30
0.0
 10
358.2872737215608
 20
-42.65000000252117
 30
0.0
 10
358.2872737215608
 20
-42.68333333585451
 30
0.0
 10
358.2872737215607
 20
-42.70000000252117
 30
0.0
 11
358.2872737215607
 21
-42.50000000252118
 31
0.0
 11
358.2872737215607
 21
-42.55000000252117
 31
0.0
 11
358.2872737215607
 21
-42.60000000252117
 31
0.0
 11
358.2872737215607
 21
-42.65000000252117
 31
0.0
 11
358.2872737215607
 21
-42.70000000252117
 31
0.0
  0
SPLINE
  5
266
330
76
100
AcDbEntity
  8
0
  6
Continuous
 62
     7
100
AcDbSpline
210
0.0
220
0.0
230
1.0
 70
  1080
 71
     3
 72
    11
 73
     7
 74
     5
 42
0.000000001
 43
0.0000000001
 44
0.00000001
 40
0.0
 40
0.0
 40
0.0
 40
0.0
 40
0.0500000000000185
 40
0.1000000000000156
 40
0.1499999999999986
 40
0.1999999999999886
 40
0.1999999999999886
 40
0.1999999999999886
 40
0.1999999999999886
 10
376.0818412560946
 20
-42.70000000252117
 30
0.0
 10
376.0818412560946
 20
-42.68333333585449
 30
0.0
 10
376.0818412560946
 20
-42.65000000252117
 30
0.0
 10
376.0818412560947
 20
-42.60000000252115
 30
0.0
 10
376.0818412560947
 20
-42.55000000252118
 30
0.0
 10
376.0818412560947
 20
-42.51666666918785
 30
0.0
 10
376.0818412560946
 20
-42.50000000252118
 30
0.0
 11
376.0818412560946
 21
-42.70000000252117
 31
0.0
 11
376.0818412560947
 21
-42.65000000252117
 31
0.0
 11
376.0818412560946
 21
-42.60000000252117
 31
0.0
 11
376.0818412560947
 21
-42.55000000252117
 31
0.0
 11
376.0818412560946
 21
-42.50000000252118
 31
0.0
  0
SPLINE
  5
267
330
76
100
AcDbEntity
  8
0
  6
Continuous
 62
     7
100
AcDbSpline
210
0.0
220
0.0
230
1.0
 70
  1080
 71
     3
 72
    11
 73
     7
 74
     5
 42
0.000000001
 43
0.0000000001
 44
0.00000001
 40
0.0
 40
0.0
 40
0.0
 40
0.0
 40
0.0500000000000043
 40
0.1000000000000085
 40
0.1500000000000057
 40
0.1999999999999886
 40
0.1999999999999886
 40
0.1999999999999886
 40
0.1999999999999886
 10
379.101614067054
 20
-42.70000000252117
 30
0.0
 10
379.101614067054
 20
-42.68333333585451
 30
0.0
 10
379.1016140670538
 20
-42.65000000252115
 30
0.0
 10
379.1016140670539
 20
-42.60000000252117
 30
0.0
 10
379.101614067054
 20
-42.55000000252117
 30
0.0
 10
379.101614067054
 20
-42.51666666918784
 30
0.0
 10
379.101614067054
 20
-42.50000000252118
 30
0.0
 11
379.101614067054
 21
-42.70000000252117
 31
0.0
 11
379.101614067054
 21
-42.65000000252117
 31
0.0
 11
379.101614067054
 21
-42.60000000252116
 31
0.0
 11
379.101614067054
 21
-42.55000000252117
 31
0.0
 11
379.101614067054
 21
-42.50000000252118
 31
0.0
  0
SPLINE
  5
268
330
76
100
AcDbEntity
  8
0
  6
Continuous
 62
     7
100
AcDbSpline
210
0.0
220
0.0
230
1.0
 70
  1080
 71
     3
 72
    11
 73
     7
 74
     5
 42
0.000000001
 43
0.0000000001
 44
0.00000001
 40
0.0
 40
0.0
 40
0.0
 40
0.0
 40
0.0500000000000185
 40
0.1000000000000156
 40
0.1500000000000128
 40
0.1999999999999886
 40
0.1999999999999886
 40
0.1999999999999886
 40
0.1999999999999886
 10
382.8718370170487
 20
-42.70000000252117
 30
0.0
 10
382.8718370170486
 20
-42.68333333585449
 30
0.0
 10
382.8718370170487
 20
-42.65000000252116
 30
0.0
 10
382.8718370170485
 20
-42.60000000252116
 30
0.0
 10
382.8718370170486
 20
-42.55000000252116
 30
0.0
 10
382.8718370170487
 20
-42.51666666918784
 30
0.0
 10
382.8718370170487
 20
-42.50000000252118
 30
0.0
 11
382.8718370170487
 21
-42.70000000252117
 31
0.0
 11
382.8718370170487
 21
-42.65000000252117
 31
0.0
 11
382.8718370170487
 21
-42.60000000252117
 31
0.0
 11
382.8718370170487
 21
-42.55000000252117
 31
0.0
 11
382.8718370170487
 21
-42.50000000252118
 31
0.0
  0
SPLINE
  5
269
330
76
100
AcDbEntity
  8
0
  6
Continuous
 62
     7
100
AcDbSpline
210
0.0
220
0.0
230
1.0
 70
  1080
 71
     3
 72
    11
 73
     7
 74
     5
 42
0.000000001
 43
0.0000000001
 44
0.00000001
 40
0.0
 40
0.0
 40
0.0
 40
0.0
 40
0.0500000000000043
 40
0.1000000000000156
 40
0.1499999999999986
 40
0.2000000000000099
 40
0.2000000000000099
 40
0.2000000000000099
 40
0.2000000000000099
 10
377.4471066630188
 20
-42.70000000252117
 30
0.0
 10
377.4471066630188
 20
-42.68333333585451
 30
0.0
 10
377.4471066630186
 20
-42.65000000252116
 30
0.0
 10
377.4471066630188
 20
-42.60000000252117
 30
0.0
 10
377.4471066630187
 20
-42.55000000252116
 30
0.0
 10
377.4471066630188
 20
-42.51666666918783
 30
0.0
 10
377.4471066630188
 20
-42.50000000252116
 30
0.0
 11
377.4471066630188
 21
-42.70000000252117
 31
0.0
 11
377.4471066630188
 21
-42.65000000252117
 31
0.0
 11
377.4471066630188
 21
-42.60000000252116
 31
0.0
 11
377.4471066630189
 21
-42.55000000252117
 31
0.0
 11
377.4471066630188
 21
-42.50000000252116
 31
0.0
  0
SPLINE
  5
26A
330
76
100
AcDbEntity
  8
0
  6
Continuous
 62
     7
100
AcDbSpline
210
0.0
220
0.0
230
1.0
 70
  1080
 71
     3
 72
    11
 73
     7
 74
     5
 42
0.000000001
 43
0.0000000001
 44
0.00000001
 40
0.0
 40
0.0
 40
0.0
 40
0.0
 40
0.2448065495168521
 40
0.4867706304523267
 40
0.7121219858958625
 40
0.9142628205127608
 40
0.9142628205127608
 40
0.9142628205127608
 40
0.9142628205127608
 10
359.6166170293465
 20
-42.70000000252117
 30
0.0
 10
359.6982192125188
 20
-42.70000000252119
 30
0.0
 10
359.8604760893361
 20
-42.70000000252118
 30
0.0
 10
360.0978500846348
 20
-42.70000000252119
 30
0.0
 10
360.3210021749669
 20
-42.70000000252119
 30
0.0
 10
360.4634995716536
 20
-42.70000000252117
 30
0.0
 10
360.5308798498593
 20
-42.70000000252117
 30
0.0
 11
359.6166170293465
 21
-42.70000000252117
 31
0.0
 11
359.8614235788633
 21
-42.7000000025212
 31
0.0
 11
360.1033876597988
 21
-42.70000000252117
 31
0.0
 11
360.3287390152424
 21
-42.70000000252115
 31
0.0
 11
360.5308798498593
 21
-42.70000000252117
 31
0.0
  0
SPLINE
  5
26B
330
76
100
AcDbEntity
  8
0
  6
Continuous
 62
     7
100
AcDbSpline
210
0.0
220
0.0
230
1.0
 70
  1080
 71
     3
 72
    11
 73
     7
 74
     5
 42
0.000000001
 43
0.0000000001
 44
0.00000001
 40
0.0
 40
0.0
 40
0.0
 40
0.0
 40
0.0570868122275101
 40
0.1417754131163065
 40
0.2462201569493345
 40
0.3605769230768487
 40
0.3605769230768487
 40
0.3605769230768487
 40
0.3605769230768487
 10
377.4659821190854
 20
-42.70000000252117
 30
0.0
 10
377.4850110564946
 20
-42.70000000252119
 30
0.0
 10
377.5322695275334
 20
-42.70000000252122
 30
0.0
 10
377.6143429131832
 20
-42.70000000252121
 30
0.0
 10
377.7155062834661
 20
-42.70000000252121
 30
0.0
 10
377.7884401201198
 20
-42.70000000252118
 30
0.0
 10
377.8265590421623
 20
-42.70000000252117
 30
0.0
 11
377.4659821190854
 21
-42.70000000252117
 31
0.0
 11
377.5230689313129
 21
-42.70000000252119
 31
0.0
 11
377.6077575322016
 21
-42.70000000252117
 31
0.0
 11
377.7122022760346
 21
-42.70000000252117
 31
0.0
 11
377.8265590421623
 21
-42.70000000252117
 31
0.0
  0
SPLINE
  5
26C
330
76
100
AcDbEntity
  8
0
  6
Continuous
 62
     7
100
AcDbSpline
210
0.0
220
0.0
230
1.0
 70
  1080
 71
     3
 72
    11
 73
     7
 74
     5
 42
0.000000001
 43
0.0000000001
 44
0.00000001
 40
0.0
 40
0.0
 40
0.0
 40
0.0
 40
0.0025117053594386
 40
0.0050234107188771
 40
0.0112921826450361
 40
0.0188754560666098
 40
0.0188754560666098
 40
0.0188754560666098
 40
0.0188754560666098
 10
377.4471066630188
 20
-42.70000000252117
 30
0.0
 10
377.4479438981386
 20
-42.70000000252116
 30
0.0
 10
377.4496183683783
 20
-42.70000000252116
 30
0.0
 10
377.4533824292599
 20
-42.70000000252117
 30
0.0
 10
377.458837012829
 20
-42.70000000252116
 30
0.0
 10
377.4634543612783
 20
-42.70000000252117
 30
0.0
 10
377.4659821190854
 20
-42.70000000252117
 30
0.0
 11
377.4471066630188
 21
-42.70000000252117
 31
0.0
 11
377.4496183683783
 21
-42.70000000252118
 31
0.0
 11
377.4521300737378
 21
-42.70000000252118
 31
0.0
 11
377.458398845664
 21
-42.70000000252118
 31
0.0
 11
377.4659821190854
 21
-42.70000000252117
 31
0.0
  0
SPLINE
  5
26D
330
76
100
AcDbEntity
  8
0
  6
Continuous
 62
     7
100
AcDbSpline
210
0.0
220
0.0
230
1.0
 70
  1080
 71
     3
 72
    11
 73
     7
 74
     5
 42
0.000000001
 43
0.0000000001
 44
0.00000001
 40
0.0
 40
0.0
 40
0.0
 40
0.0
 40
0.0007226563848803
 40
0.0014453127697607
 40
0.00301562697598
 40
0.004834268579998
 40
0.004834268579998
 40
0.004834268579998
 40
0.004834268579998
 10
382.8718370170487
 20
-42.70000000252117
 30
0.0
 10
382.8720779025102
 20
-42.70000000252116
 30
0.0
 10
382.8725596734336
 20
-42.70000000252116
 30
0.0
 10
382.8735648824256
 20
-42.70000000252114
 30
0.0
 10
382.8749354198239
 20
-42.70000000252118
 30
0.0
 10
382.8760650717606
 20
-42.70000000252118
 30
0.0
 10
382.8766712856287
 20
-42.70000000252118
 30
0.0
 11
382.8718370170487
 21
-42.70000000252117
 31
0.0
 11
382.8725596734338
 21
-42.70000000252117
 31
0.0
 11
382.8732823298188
 21
-42.70000000252117
 31
0.0
 11
382.8748526440248
 21
-42.70000000252118
 31
0.0
 11
382.8766712856287
 21
-42.70000000252118
 31
0.0
  0
SPLINE
  5
26E
330
76
100
AcDbEntity
  8
0
  6
Continuous
 62
     7
100
AcDbSpline
210
0.0
220
0.0
230
1.0
 70
  1080
 71
     3
 72
    19
 73
    15
 74
    13
 42
0.000000001
 43
0.0000000001
 44
0.00000001
 40
0.0
 40
0.0
 40
0.0
 40
0.0
 40
0.0569835251974951
 40
0.1114676239935761
 40
0.162512222902194
 40
0.2096791985845812
 40
0.2527223396535874
 40
0.2910690054045517
 40
0.3240443522664691
 40
0.351284086523151
 40
0.372722535402886
 40
0.3878972932953957
 40
0.3970273381642073
 40
0.4010416666667425
 40
0.4010416666667425
 40
0.4010416666667425
 40
0.4010416666667425
 10
360.5308798498593
 20
-42.70000000252117
 30
0.0
 10
360.5498743582585
 20
-42.70000000252116
 30
0.0
 10
360.5870302329229
 20
-42.70000000252111
 30
0.0
 10
360.6412009738904
 20
-42.70000000252109
 30
0.0
 10
360.692099531686
 20
-42.700000002521
 30
0.0
 10
360.739184436906
 20
-42.70000000252096
 30
0.0
 10
360.7820366977402
 20
-42.70000000252092
 30
0.0
 10
360.8201584156342
 20
-42.70000000252095
 30
0.0
 10
360.8530123312573
 20
-42.70000000252097
 30
0.0
 10
360.8802301745902
 20
-42.70000000252104
 30
0.0
 10
360.9015144882663
 20
-42.70000000252107
 30
0.0
 10
360.9167622388135
 20
-42.70000000252114
 30
0.0
 10
360.9262019492347
 20
-42.70000000252115
 30
0.0
 10
360.9305834070251
 20
-42.70000000252116
 30
0.0
 10
360.931921516526
 20
-42.70000000252117
 30
0.0
 11
360.5308798498593
 21
-42.70000000252117
 31
0.0
 11
360.5878633750571
 21
-42.70000000252116
 31
0.0
 11
360.642347473854
 21
-42.70000000252116
 31
0.0
 11
360.6933920727636
 21
-42.70000000252117
 31
0.0
 11
360.7405590484468
 21
-42.70000000252119
 31
0.0
 11
360.7836021895163
 21
-42.70000000252119
 31
0.0
 11
360.8219488552672
 21
-42.70000000252117
 31
0.0
 11
360.8549242021286
 21
-42.70000000252116
 31
0.0
 11
360.8821639363846
 21
-42.70000000252117
 31
0.0
 11
360.9036023852636
 21
-42.70000000252118
 31
0.0
 11
360.9187771431554
 21
-42.70000000252119
 31
0.0
 11
360.9279071880237
 21
-42.70000000252118
 31
0.0
 11
360.931921516526
 21
-42.70000000252117
 31
0.0
  0
SPLINE
  5
26F
330
76
100
AcDbEntity
  8
0
  6
Continuous
 62
     7
100
AcDbSpline
210
0.0
220
0.0
230
1.0
 70
  1080
 71
     3
 72
    11
 73
     7
 74
     5
 42
0.000000001
 43
0.0000000001
 44
0.00000001
 40
0.0
 40
0.0
 40
0.0
 40
0.0
 40
0.0365336618348806
 40
0.0738743960123429
 40
0.0805432708481817
 40
0.0872268821649982
 40
0.0872268821649982
 40
0.0872268821649982
 40
0.0872268821649982
 10
359.5293901471815
 20
-42.70000000252117
 30
0.0
 10
359.5415680344598
 20
-42.70000000252116
 30
0.0
 10
359.5661928331307
 20
-42.70000000252114
 30
0.0
 10
359.59304059008
 20
-42.70000000252111
 30
0.0
 10
359.6099383301901
 20
-42.70000000252115
 30
0.0
 10
359.6143891589076
 20
-42.70000000252116
 30
0.0
 10
359.6166170293465
 20
-42.70000000252117
 30
0.0
 11
359.5293901471815
 21
-42.70000000252117
 31
0.0
 11
359.5659238090165
 21
-42.70000000252117
 31
0.0
 11
359.6032645431939
 21
-42.70000000252117
 31
0.0
 11
359.6099334180297
 21
-42.70000000252117
 31
0.0
 11
359.6166170293465
 21
-42.70000000252117
 31
0.0
  0
SPLINE
  5
270
330
76
100
AcDbEntity
  8
0
  6
Continuous
 62
     7
100
AcDbSpline
210
0.0
220
0.0
230
1.0
 70
  1080
 71
     3
 72
    12
 73
     8
 74
     6
 42
0.000000001
 43
0.0000000001
 44
0.00000001
 40
0.0
 40
0.0
 40
0.0
 40
0.0
 40
0.0076479638375986
 40
0.0177480480600138
 40
0.0438544508945711
 40
0.0796863720595979
 40
0.1237980769231513
 40
0.1237980769231513
 40
0.1237980769231513
 40
0.1237980769231513
 10
382.8766712856287
 20
-42.70000000252118
 30
0.0
 10
382.879220606908
 20
-42.7000000025212
 30
0.0
 10
382.8851366229279
 20
-42.70000000252124
 30
0.0
 10
382.899754773226
 20
-42.7000000025213
 30
0.0
 10
382.9237675759668
 20
-42.70000000252134
 30
0.0
 10
382.9591175855878
 20
-42.70000000252125
 30
0.0
 10
382.9857654609306
 20
-42.70000000252118
 30
0.0
 10
383.0004693625518
 20
-42.70000000252117
 30
0.0
 11
382.8766712856287
 21
-42.70000000252118
 31
0.0
 11
382.884319249466
 21
-42.70000000252118
 31
0.0
 11
382.8944193336882
 21
-42.70000000252117
 31
0.0
 11
382.9205257365224
 21
-42.70000000252118
 31
0.0
 11
382.9563576576878
 21
-42.70000000252119
 31
0.0
 11
383.0004693625518
 21
-42.70000000252117
 31
0.0
  0
SPLINE
  5
271
330
76
100
AcDbEntity
  8
0
  6
Continuous
 62
     7
100
AcDbSpline
210
0.0
220
0.0
230
1.0
 70
  1080
 71
     3
 72
    11
 73
     7
 74
     5
 42
0.000000001
 43
0.0000000001
 44
0.00000001
 40
0.0
 40
0.0
 40
0.0
 40
0.0
 40
0.0499999999999758
 40
0.099999999999973
 40
0.1499999999999915
 40
0.1999999999999886
 40
0.1999999999999886
 40
0.1999999999999886
 40
0.1999999999999886
 10
377.4068832963718
 20
-42.50000000252118
 30
0.0
 10
377.4068832963719
 20
-42.51666666918783
 30
0.0
 10
377.406883296372
 20
-42.55000000252117
 30
0.0
 10
377.406883296372
 20
-42.60000000252117
 30
0.0
 10
377.4068832963719
 20
-42.65000000252117
 30
0.0
 10
377.4068832963719
 20
-42.68333333585451
 30
0.0
 10
377.4068832963718
 20
-42.70000000252117
 30
0.0
 11
377.4068832963718
 21
-42.50000000252118
 31
0.0
 11
377.4068832963718
 21
-42.55000000252117
 31
0.0
 11
377.4068832963718
 21
-42.60000000252117
 31
0.0
 11
377.4068832963718
 21
-42.65000000252118
 31
0.0
 11
377.4068832963718
 21
-42.70000000252117
 31
0.0
  0
SPLINE
  5
272
330
76
100
AcDbEntity
  8
0
  6
Continuous
 62
     7
100
AcDbSpline
210
0.0
220
0.0
230
1.0
 70
  1080
 71
     3
 72
    11
 73
     7
 74
     5
 42
0.000000001
 43
0.0000000001
 44
0.00000001
 40
0.0
 40
0.0
 40
0.0
 40
0.0
 40
0.0500000000000256
 40
0.1000000000000227
 40
0.1500000000000128
 40
0.2000000000000099
 40
0.2000000000000099
 40
0.2000000000000099
 40
0.2000000000000099
 10
379.0171681290624
 20
-42.70000000252117
 30
0.0
 10
379.0171681290623
 20
-42.68333333585449
 30
0.0
 10
379.0171681290622
 20
-42.65000000252117
 30
0.0
 10
379.0171681290623
 20
-42.60000000252114
 30
0.0
 10
379.0171681290625
 20
-42.55000000252117
 30
0.0
 10
379.0171681290624
 20
-42.51666666918782
 30
0.0
 10
379.0171681290624
 20
-42.50000000252116
 30
0.0
 11
379.0171681290624
 21
-42.70000000252117
 31
0.0
 11
379.0171681290624
 21
-42.65000000252117
 31
0.0
 11
379.0171681290624
 21
-42.60000000252117
 31
0.0
 11
379.0171681290623
 21
-42.55000000252117
 31
0.0
 11
379.0171681290624
 21
-42.50000000252116
 31
0.0
  0
ENDBLK
  5
78
330
76
100
AcDbEntity
  8
0
100
AcDbBlockEnd
  0
BLOCK
  5
7A
330
79
100
AcDbEntity
  8
0
100
AcDbBlockBegin
  2
Artikel-HL9-7-DA_1_1
 70
     0
 10
337.7499999999541
 20
-38.00000000252118
 30
0.0
  3
Artikel-HL9-7-DA_1_1
  1

  0
LINE
  5
273
330
79
100
AcDbEntity
  8
1
  6
DOT_CENTER
 62
     2
100
AcDbLine
 10
388.999999999955
 20
95.6572825663499
 30
0.0
 11
388.999999999955
 21
-44.3006338192658
 31
0.0
  0
LINE
  5
274
330
79
100
AcDbEntity
  8
0
  6
Continuous
 62
     7
100
AcDbLine
 10
344.2499999999541
 20
9.79999999747878
 30
0.0
 11
348.5499999999556
 21
35.99999999748222
 31
0.0
  0
LINE
  5
275
330
79
100
AcDbEntity
  8
0
  6
Continuous
 62
     7
100
AcDbLine
 10
348.54999999998
 20
89.78553390342063
 30
0.0
 11
343.999999999955
 21
85.23553390339441
 31
0.0
  0
LINE
  5
276
330
79
100
AcDbEntity
  8
0
  6
Continuous
 62
     7
100
AcDbLine
 10
350.999999999958
 20
26.85647551893487
 30
0.0
 11
348.5499999999556
 21
35.99999999748222
 31
0.0
  0
LINE
  5
277
330
79
100
AcDbEntity
  8
0
  6
Continuous
 62
     7
100
AcDbLine
 10
348.54999999998
 20
92.49999999748061
 30
0.0
 11
348.54999999998
 21
89.78553390342063
 31
0.0
  0
LINE
  5
278
330
79
100
AcDbEntity
  8
0
  6
Continuous
 62
     7
100
AcDbLine
 10
339.2499999999541
 20
-36.39807670441354
 30
0.0
 11
339.2499999999541
 21
-37.50000000252118
 31
0.0
  0
LINE
  5
279
330
79
100
AcDbEntity
  8
0
  6
Continuous
 62
     7
100
AcDbLine
 10
345.499999999955
 20
74.49999999748363
 30
0.0
 11
347.0499999999541
 21
74.49999999748363
 31
0.0
  0
LINE
  5
27A
330
79
100
AcDbEntity
  8
0
  6
Continuous
 62
     7
100
AcDbLine
 10
343.999999999955
 20
75.99999999748363
 30
0.0
 11
343.999999999955
 21
85.23553390339441
 31
0.0
  0
LINE
  5
27B
330
79
100
AcDbEntity
  8
0
  6
Continuous
 62
     7
100
AcDbLine
 10
348.5499999999541
 20
72.99999999748363
 30
0.0
 11
348.5499999999556
 21
35.99999999748222
 31
0.0
  0
LINE
  5
27C
330
79
100
AcDbEntity
  8
0
  6
Continuous
 62
     7
100
AcDbLine
 10
339.2499999999541
 20
-30.20000000252118
 30
0.0
 11
337.7499999999541
 21
-30.20000000252118
 31
0.0
  0
LINE
  5
27D
330
79
100
AcDbEntity
  8
0
  6
Continuous
 62
     7
100
AcDbLine
 10
337.7499999999541
 20
-30.20000000252118
 30
0.0
 11
337.7499999999541
 21
-33.26410210819764
 31
0.0
  0
LINE
  5
27E
330
79
100
AcDbEntity
  8
0
  6
Continuous
 62
     7
100
AcDbLine
 10
339.2499999999541
 20
-36.39807670441354
 30
0.0
 11
338.0179491923852
 21
-34.26410210819752
 31
0.0
  0
LINE
  5
27F
330
79
100
AcDbEntity
  8
0
  6
Continuous
 62
     7
100
AcDbLine
 10
438.749999999956
 20
-36.39807670441354
 30
0.0
 11
439.9820508075249
 21
-34.26410210819752
 31
0.0
  0
LINE
  5
280
330
79
100
AcDbEntity
  8
0
  6
Continuous
 62
     3
100
AcDbLine
 10
438.749999999956
 20
-37.50000000252118
 30
0.0
 11
339.2499999999541
 21
-37.50000000252118
 31
0.0
  0
LINE
  5
281
330
79
100
AcDbEntity
  8
0
  6
Continuous
 62
     7
100
AcDbLine
 10
348.5499999999556
 20
35.99999999748222
 30
0.0
 11
429.4499999999545
 21
35.99999999748434
 31
0.0
  0
LINE
  5
282
330
79
100
AcDbEntity
  8
0
  6
Continuous
 62
     7
100
AcDbLine
 10
405.499999999955
 20
26.85647551893491
 30
0.0
 11
405.499999999955
 21
33.24063183990451
 31
0.0
  0
LINE
  5
283
330
79
100
AcDbEntity
  8
0
  6
Continuous
 62
     7
100
AcDbLine
 10
372.499999999955
 20
33.24063183990442
 30
0.0
 11
372.499999999955
 21
26.85647551893493
 31
0.0
  0
LINE
  5
284
330
79
100
AcDbEntity
  8
0
  6
Continuous
 62
     7
100
AcDbLine
 10
370.499999999955
 20
35.34705584246447
 30
0.0
 11
370.499999999955
 21
26.85647551893487
 31
0.0
  0
LINE
  5
285
330
79
100
AcDbEntity
  8
0
  6
Continuous
 62
     7
100
AcDbLine
 10
372.499999999955
 20
26.85647551893493
 30
0.0
 11
405.499999999955
 21
26.85647551893491
 31
0.0
  0
LINE
  5
286
330
79
100
AcDbEntity
  8
0
  6
Continuous
 62
     7
100
AcDbLine
 10
350.999999999958
 20
26.85647551893487
 30
0.0
 11
370.499999999955
 21
26.85647551893487
 31
0.0
  0
LINE
  5
287
330
79
100
AcDbEntity
  8
0
  6
Continuous
 62
     7
100
AcDbLine
 10
407.499999999955
 20
26.85647551893487
 30
0.0
 11
407.4999999999551
 21
35.34705584246439
 31
0.0
  0
LINE
  5
288
330
79
100
AcDbEntity
  8
0
  6
Continuous
 62
     7
100
AcDbLine
 10
407.499999999955
 20
26.85647551893487
 30
0.0
 11
426.9999999999521
 21
26.85647551893487
 31
0.0
  0
LINE
  5
289
330
79
100
AcDbEntity
  8
0
  6
Continuous
 62
     7
100
AcDbLine
 10
433.7388254203892
 20
9.79999999747878
 30
0.0
 11
433.749999999956
 21
9.79999999747878
 31
0.0
  0
LINE
  5
28A
330
79
100
AcDbEntity
  8
0
  6
Continuous
 62
     7
100
AcDbLine
 10
372.499999999955
 20
9.79999999747878
 30
0.0
 11
405.499999999955
 21
9.79999999747878
 31
0.0
  0
LINE
  5
28B
330
79
100
AcDbEntity
  8
0
  6
Continuous
 62
     7
100
AcDbLine
 10
405.7999999999551
 20
9.79999999747878
 30
0.0
 11
407.199999999955
 21
9.79999999747878
 31
0.0
  0
LINE
  5
28C
330
79
100
AcDbEntity
  8
0
  6
Continuous
 62
     7
100
AcDbLine
 10
407.199999999955
 20
9.79999999747878
 30
0.0
 11
407.499999999955
 21
9.79999999747878
 31
0.0
  0
LINE
  5
28D
330
79
100
AcDbEntity
  8
0
  6
Continuous
 62
     7
100
AcDbLine
 10
407.499999999955
 20
9.79999999747878
 30
0.0
 11
427.9999999999521
 21
9.79999999747878
 31
0.0
  0
LINE
  5
28E
330
79
100
AcDbEntity
  8
0
  6
Continuous
 62
     7
100
AcDbLine
 10
427.9999999999521
 20
9.79999999747878
 30
0.0
 11
433.7388254203892
 21
9.79999999747878
 31
0.0
  0
LINE
  5
28F
330
79
100
AcDbEntity
  8
0
  6
Continuous
 62
     7
100
AcDbLine
 10
349.999999999958
 20
9.79999999747878
 30
0.0
 11
370.499999999955
 21
9.79999999747878
 31
0.0
  0
LINE
  5
290
330
79
100
AcDbEntity
  8
0
  6
Continuous
 62
     7
100
AcDbLine
 10
344.2499999999541
 20
9.79999999747878
 30
0.0
 11
349.999999999958
 21
9.79999999747878
 31
0.0
  0
LINE
  5
291
330
79
100
AcDbEntity
  8
0
  6
Continuous
 62
     7
100
AcDbLine
 10
370.7999999999551
 20
9.79999999747878
 30
0.0
 11
372.199999999955
 21
9.79999999747878
 31
0.0
  0
LINE
  5
292
330
79
100
AcDbEntity
  8
0
  6
Continuous
 62
     7
100
AcDbLine
 10
370.499999999955
 20
9.79999999747878
 30
0.0
 11
370.7999999999551
 21
9.79999999747878
 31
0.0
  0
LINE
  5
293
330
79
100
AcDbEntity
  8
0
  6
Continuous
 62
     7
100
AcDbLine
 10
372.199999999955
 20
9.79999999747878
 30
0.0
 11
372.499999999955
 21
9.79999999747878
 31
0.0
  0
LINE
  5
294
330
79
100
AcDbEntity
  8
0
  6
Continuous
 62
     7
100
AcDbLine
 10
405.499999999955
 20
9.79999999747878
 30
0.0
 11
405.7999999999551
 21
9.79999999747878
 31
0.0
  0
LINE
  5
295
330
79
100
AcDbEntity
  8
0
  6
Continuous
 62
     7
100
AcDbLine
 10
405.499999999955
 20
10.79999999747877
 30
0.0
 11
405.499999999955
 21
26.85647551893491
 31
0.0
  0
LINE
  5
296
330
79
100
AcDbEntity
  8
0
  6
Continuous
 62
     3
100
AcDbLine
 10
405.7999999999551
 20
9.79999999747878
 30
0.0
 11
405.7999999999551
 21
34.20350605637604
 31
0.0
  0
LINE
  5
297
330
79
100
AcDbEntity
  8
0
  6
Continuous
 62
     3
100
AcDbLine
 10
407.199999999955
 20
9.79999999747878
 30
0.0
 11
407.199999999955
 21
35.67104661756325
 31
0.0
  0
LINE
  5
298
330
79
100
AcDbEntity
  8
0
  6
Continuous
 62
     7
100
AcDbLine
 10
407.499999999955
 20
9.79999999747878
 30
0.0
 11
407.499999999955
 21
10.79999999747878
 31
0.0
  0
LINE
  5
299
330
79
100
AcDbEntity
  8
0
  6
Continuous
 62
     7
100
AcDbLine
 10
405.499999999955
 20
9.79999999747878
 30
0.0
 11
405.499999999955
 21
10.79999999747877
 31
0.0
  0
LINE
  5
29A
330
79
100
AcDbEntity
  8
0
  6
Continuous
 62
     3
100
AcDbLine
 10
370.7999999999551
 20
9.79999999747878
 30
0.0
 11
370.7999999999551
 21
35.67104661756325
 31
0.0
  0
LINE
  5
29B
330
79
100
AcDbEntity
  8
0
  6
Continuous
 62
     7
100
AcDbLine
 10
370.499999999955
 20
26.85647551893487
 30
0.0
 11
370.499999999955
 21
10.79999999747878
 31
0.0
  0
LINE
  5
29C
330
79
100
AcDbEntity
  8
0
  6
Continuous
 62
     7
100
AcDbLine
 10
350.999999999958
 20
26.85647551893487
 30
0.0
 11
350.999999999958
 21
10.79999999747878
 31
0.0
  0
LINE
  5
29D
330
79
100
AcDbEntity
  8
0
  6
Continuous
 62
     7
100
AcDbLine
 10
372.499999999955
 20
10.79999999747878
 30
0.0
 11
372.499999999955
 21
9.79999999747878
 31
0.0
  0
LINE
  5
29E
330
79
100
AcDbEntity
  8
0
  6
Continuous
 62
     3
100
AcDbLine
 10
372.499999999955
 20
10.79999999747878
 30
0.0
 11
405.499999999955
 21
10.79999999747877
 31
0.0
  0
LINE
  5
29F
330
79
100
AcDbEntity
  8
0
  6
Continuous
 62
     3
100
AcDbLine
 10
370.499999999955
 20
10.79999999747878
 30
0.0
 11
350.999999999958
 21
10.79999999747878
 31
0.0
  0
LINE
  5
2A0
330
79
100
AcDbEntity
  8
0
  6
Continuous
 62
     7
100
AcDbLine
 10
433.7500020491
 20
9.79998751199656
 30
0.0
 11
433.749999999956
 21
9.79999999747878
 31
0.0
  0
LINE
  5
2A1
330
79
100
AcDbEntity
  8
0
  6
Continuous
 62
     7
100
AcDbLine
 10
372.499999999955
 20
26.85647551893493
 30
0.0
 11
372.499999999955
 21
10.79999999747878
 31
0.0
  0
LINE
  5
2A2
330
79
100
AcDbEntity
  8
0
  6
Continuous
 62
     3
100
AcDbLine
 10
372.199999999955
 20
9.79999999747878
 30
0.0
 11
372.199999999955
 21
34.20350605637609
 31
0.0
  0
LINE
  5
2A3
330
79
100
AcDbEntity
  8
0
  6
Continuous
 62
     7
100
AcDbLine
 10
370.499999999955
 20
10.79999999747878
 30
0.0
 11
370.499999999955
 21
9.79999999747878
 31
0.0
  0
LINE
  5
2A4
330
79
100
AcDbEntity
  8
0
  6
Continuous
 62
     7
100
AcDbLine
 10
407.499999999955
 20
10.79999999747878
 30
0.0
 11
407.499999999955
 21
26.85647551893487
 31
0.0
  0
LINE
  5
2A5
330
79
100
AcDbEntity
  8
0
  6
Continuous
 62
     3
100
AcDbLine
 10
426.9999999999521
 20
10.79999999747878
 30
0.0
 11
407.499999999955
 21
10.79999999747878
 31
0.0
  0
LINE
  5
2A6
330
79
100
AcDbEntity
  8
0
  6
Continuous
 62
     7
100
AcDbLine
 10
426.9999999999521
 20
26.85647551893487
 30
0.0
 11
426.9999999999521
 21
10.79999999747878
 31
0.0
  0
LINE
  5
2A7
330
79
100
AcDbEntity
  8
0
  6
Continuous
 62
     3
100
AcDbLine
 10
339.2499999999541
 20
4.79999999747878
 30
0.0
 11
438.749999999956
 21
4.79999999747878
 31
0.0
  0
LINE
  5
2A8
330
79
100
AcDbEntity
  8
0
  6
Continuous
 62
     7
100
AcDbLine
 10
438.749999999956
 20
-36.39807670441354
 30
0.0
 11
438.749999999956
 21
-37.50000000252118
 31
0.0
  0
LINE
  5
2A9
330
79
100
AcDbEntity
  8
0
  6
Continuous
 62
     7
100
AcDbLine
 10
438.749999999956
 20
-30.20000000252118
 30
0.0
 11
339.2499999999541
 21
-30.20000000252118
 31
0.0
  0
LINE
  5
2AA
330
79
100
AcDbEntity
  8
0
  6
Continuous
 62
     7
100
AcDbLine
 10
435.499999999955
 20
-38.00000000252118
 30
0.0
 11
388.999999999955
 21
-38.00000000252118
 31
0.0
  0
LINE
  5
2AB
330
79
100
AcDbEntity
  8
0
  6
Continuous
 62
     7
100
AcDbLine
 10
388.999999999955
 20
-38.00000000252118
 30
0.0
 11
342.499999999955
 21
-38.00000000252118
 31
0.0
  0
LINE
  5
2AC
330
79
100
AcDbEntity
  8
0
  6
Continuous
 62
     7
100
AcDbLine
 10
342.499999999955
 20
-38.00000000252118
 30
0.0
 11
339.7499999999541
 21
-38.00000000252118
 31
0.0
  0
LINE
  5
2AD
330
79
100
AcDbEntity
  8
0
  6
Continuous
 62
     7
100
AcDbLine
 10
438.249999999956
 20
-38.00000000252118
 30
0.0
 11
435.499999999955
 21
-38.00000000252118
 31
0.0
  0
LINE
  5
2AE
330
79
100
AcDbEntity
  8
0
  6
Continuous
 62
     3
100
AcDbLine
 10
440.249999999956
 20
-33.26410210819764
 30
0.0
 11
337.7499999999541
 21
-33.26410210819764
 31
0.0
  0
LINE
  5
2AF
330
79
100
AcDbEntity
  8
0
  6
Continuous
 62
     3
100
AcDbLine
 10
439.9820508075249
 20
-34.26410210819752
 30
0.0
 11
338.0179491923852
 21
-34.26410210819752
 31
0.0
  0
LINE
  5
2B0
330
79
100
AcDbEntity
  8
0
  6
Continuous
 62
     3
100
AcDbLine
 10
348.5499999999541
 20
72.99999999748363
 30
0.0
 11
429.449999999956
 21
72.99999999748363
 31
0.0
  0
LINE
  5
2B1
330
79
100
AcDbEntity
  8
0
  6
Continuous
 62
     7
100
AcDbLine
 10
348.54999999998
 20
92.49999999748061
 30
0.0
 11
429.4499999999301
 21
92.49999999748061
 31
0.0
  0
LINE
  5
2B2
330
79
100
AcDbEntity
  8
0
  6
Continuous
 62
     7
100
AcDbLine
 10
429.449999999956
 20
72.99999999748363
 30
0.0
 11
429.4499999999545
 21
35.99999999748434
 31
0.0
  0
LINE
  5
2B3
330
79
100
AcDbEntity
  8
0
  6
Continuous
 62
     7
100
AcDbLine
 10
429.4499999999301
 20
89.78553390342063
 30
0.0
 11
433.999999999955
 21
85.23553390339441
 31
0.0
  0
LINE
  5
2B4
330
79
100
AcDbEntity
  8
0
  6
Continuous
 62
     7
100
AcDbLine
 10
426.9999999999521
 20
26.85647551893487
 30
0.0
 11
429.4499999999545
 21
35.99999999748434
 31
0.0
  0
LINE
  5
2B5
330
79
100
AcDbEntity
  8
0
  6
Continuous
 62
     7
100
AcDbLine
 10
429.4499999999301
 20
92.49999999748061
 30
0.0
 11
429.4499999999301
 21
89.78553390342063
 31
0.0
  0
LINE
  5
2B6
330
79
100
AcDbEntity
  8
0
  6
Continuous
 62
     7
100
AcDbLine
 10
433.999999999955
 20
75.99999999748363
 30
0.0
 11
433.999999999955
 21
85.23553390339441
 31
0.0
  0
LINE
  5
2B7
330
79
100
AcDbEntity
  8
0
  6
Continuous
 62
     7
100
AcDbLine
 10
430.949999999956
 20
74.49999999748363
 30
0.0
 11
432.499999999955
 21
74.49999999748363
 31
0.0
  0
LINE
  5
2B8
330
79
100
AcDbEntity
  8
0
  6
Continuous
 62
     7
100
AcDbLine
 10
440.249999999956
 20
-30.20000000252118
 30
0.0
 11
438.749999999956
 21
-30.20000000252118
 31
0.0
  0
LINE
  5
2B9
330
79
100
AcDbEntity
  8
0
  6
Continuous
 62
     7
100
AcDbLine
 10
440.249999999956
 20
-30.20000000252118
 30
0.0
 11
440.249999999956
 21
-33.26410210819764
 31
0.0
  0
LINE
  5
2BA
330
79
100
AcDbEntity
  8
0
  6
Continuous
 62
     7
100
AcDbLine
 10
348.54999999998
 20
89.78553390342063
 30
0.0
 11
429.4499999999301
 21
89.78553390342063
 31
0.0
  0
LINE
  5
2BB
330
79
100
AcDbEntity
  8
0
  6
Continuous
 62
     3
100
AcDbLine
 10
343.999999999955
 20
75.99999999748363
 30
0.0
 11
433.999999999955
 21
75.99999999748363
 31
0.0
  0
LINE
  5
2BC
330
79
100
AcDbEntity
  8
0
  6
Continuous
 62
     7
100
AcDbLine
 10
347.0499999999541
 20
74.49999999748363
 30
0.0
 11
430.949999999956
 21
74.49999999748363
 31
0.0
  0
LINE
  5
2BD
330
79
100
AcDbEntity
  8
0
  6
Continuous
 62
     7
100
AcDbLine
 10
429.4499999999545
 20
35.99999999748434
 30
0.0
 11
433.749999999956
 21
9.79999999747878
 31
0.0
  0
LINE
  5
2BE
330
79
100
AcDbEntity
  8
0
  6
Continuous
 62
     7
100
AcDbLine
 10
438.749999999956
 20
4.79999999747878
 30
0.0
 11
438.749999999956
 21
-30.20000000252118
 31
0.0
  0
LINE
  5
2BF
330
79
100
AcDbEntity
  8
0
  6
Continuous
 62
     7
100
AcDbLine
 10
438.749999999956
 20
-36.39807670441354
 30
0.0
 11
392.2277849955996
 21
-36.39807670441353
 31
0.0
  0
LINE
  5
2C0
330
79
100
AcDbEntity
  8
0
  6
Continuous
 62
     7
100
AcDbLine
 10
392.2277849955996
 20
-36.39807670441353
 30
0.0
 11
339.2499999999541
 21
-36.39807670441354
 31
0.0
  0
LINE
  5
2C1
330
79
100
AcDbEntity
  8
0
  6
Continuous
 62
     7
100
AcDbLine
 10
339.2499999999541
 20
4.79999999747878
 30
0.0
 11
339.2499999999541
 21
-30.20000000252118
 31
0.0
  0
LINE
  5
2C2
330
79
100
AcDbEntity
  8
0
  6
Continuous
 62
     7
100
AcDbLine
 10
433.999999999955
 20
85.23553390339441
 30
0.0
 11
343.999999999955
 21
85.23553390339441
 31
0.0
  0
ARC
  5
2C3
330
79
100
AcDbEntity
  8
0
  6
Continuous
 62
     7
100
AcDbCircle
 10
345.499999999955
 20
75.99999999748363
 30
0.0
 40
1.5
100
AcDbArc
 50
180.0
 51
270.0
  0
ARC
  5
2C4
330
79
100
AcDbEntity
  8
0
  6
Continuous
 62
     7
100
AcDbCircle
 10
339.7499999999541
 20
-37.50000000252118
 30
0.0
 40
0.5
100
AcDbArc
 50
180.0
 51
270.0
  0
ARC
  5
2C5
330
79
100
AcDbEntity
  8
0
  6
Continuous
 62
     7
100
AcDbCircle
 10
339.7499999999541
 20
-33.26410210819764
 30
0.0
 40
2.0
100
AcDbArc
 50
180.0
 51
209.9999999999959
  0
ARC
  5
2C6
330
79
100
AcDbEntity
  8
0
  6
Continuous
 62
     7
100
AcDbCircle
 10
438.249999999956
 20
-37.50000000252118
 30
0.0
 40
0.5
100
AcDbArc
 50
270.0
 51
0.0
  0
ARC
  5
2C7
330
79
100
AcDbEntity
  8
0
  6
Continuous
 62
     7
100
AcDbCircle
 10
344.2499999999541
 20
4.79999999747878
 30
0.0
 40
5.0
100
AcDbArc
 50
90.0
 51
180.0
  0
ARC
  5
2C8
330
79
100
AcDbEntity
  8
0
  6
Continuous
 62
     7
100
AcDbCircle
 10
427.9999999999521
 20
10.79999999747878
 30
0.0
 40
1.0
100
AcDbArc
 50
180.0
 51
270.0
  0
ARC
  5
2C9
330
79
100
AcDbEntity
  8
0
  6
Continuous
 62
     7
100
AcDbCircle
 10
433.749999999956
 20
4.79999999747878
 30
0.0
 40
5.0
100
AcDbArc
 50
0.0
 51
90.0
  0
ARC
  5
2CA
330
79
100
AcDbEntity
  8
0
  6
Continuous
 62
     7
100
AcDbCircle
 10
349.999999999958
 20
10.79999999747878
 30
0.0
 40
0.9999999999999982
100
AcDbArc
 50
270.0
 51
0.0
  0
ARC
  5
2CB
330
79
100
AcDbEntity
  8
0
  6
Continuous
 62
     7
100
AcDbCircle
 10
438.249999999956
 20
-33.26410210819764
 30
0.0
 40
1.999999999999956
100
AcDbArc
 50
330.0000000000033
 51
0.0
  0
ARC
  5
2CC
330
79
100
AcDbEntity
  8
0
  6
Continuous
 62
     7
100
AcDbCircle
 10
432.499999999955
 20
75.99999999748363
 30
0.0
 40
1.5
100
AcDbArc
 50
270.0
 51
0.0
  0
ARC
  5
2CD
330
79
100
AcDbEntity
  8
0
  6
Continuous
 62
     7
100
AcDbCircle
 10
430.949999999956
 20
72.99999999748363
 30
0.0
 40
1.5
100
AcDbArc
 50
90.0
 51
180.0
  0
ARC
  5
2CE
330
79
100
AcDbEntity
  8
0
  6
Continuous
 62
     7
100
AcDbCircle
 10
347.0499999999541
 20
72.99999999748363
 30
0.0
 40
1.5
100
AcDbArc
 50
0.0
 51
90.0
  0
SPLINE
  5
2CF
330
79
100
AcDbEntity
  8
0
  6
Continuous
 62
     7
100
AcDbSpline
210
0.0
220
0.0
230
1.0
 70
  1064
 71
     3
 72
    11
 73
     7
 74
     5
 42
0.000000001
 43
0.0000000001
 44
0.00000001
 40
0.0
 40
0.0
 40
0.0
 40
0.0
 40
0.5050311294530501
 40
1.015690379449865
 40
1.51879177302916
 40
2.02833407346926
 40
2.02833407346926
 40
2.02833407346926
 40
2.02833407346926
 10
405.7999999999551
 20
34.20350605637604
 30
0.0
 10
405.9181988780314
 20
34.32337742414523
 30
0.0
 10
406.1559138442867
 20
34.56445602947644
 30
0.0
 10
406.5067767896707
 20
34.92943459535194
 30
0.0
 10
406.8556945908685
 20
35.29834307717205
 30
0.0
 10
407.0847459079708
 20
35.54628642056741
 30
0.0
 10
407.199999999955
 20
35.67104661756325
 30
0.0
 11
405.7999999999551
 21
34.20350605637604
 31
0.0
 11
406.1538361923105
 21
34.56386197869153
 31
0.0
 11
406.5080183214717
 21
34.93173137004231
 31
0.0
 11
406.8535039192034
 21
35.29745081726347
 31
0.0
 11
407.199999999955
 21
35.67104661756325
 31
0.0
  0
SPLINE
  5
2D0
330
79
100
AcDbEntity
  8
0
  6
Continuous
 62
     7
100
AcDbSpline
210
0.0
220
0.0
230
1.0
 70
  1064
 71
     3
 72
    23
 73
    19
 74
    17
 42
0.000000001
 43
0.0000000001
 44
0.00000001
 40
0.0
 40
0.0
 40
0.0
 40
0.0
 40
0.0566984954918556
 40
0.1255326677096836
 40
0.1931201108910715
 40
0.2520969293826492
 40
0.3109088958118321
 40
0.3795462628452894
 40
0.4488298772168285
 40
0.5077753773002696
 40
0.6022556591204262
 40
0.7203317058875827
 40
0.7792231343469155
 40
0.8276176012423445
 40
0.8831143166704997
 40
0.9347286505096495
 40
0.9833799986167788
 40
1.027535707021312
 40
1.027535707021312
 40
1.027535707021312
 40
1.027535707021312
 10
405.499999999955
 20
33.24063183990451
 30
0.0
 10
405.5002136395613
 20
33.25953214243278
 30
0.0
 10
405.5006866570362
 20
33.30137814482541
 30
0.0
 10
405.5045654944525
 20
33.36566150752237
 30
0.0
 10
405.5107629454434
 20
33.43050920233348
 30
0.0
 10
405.5187255620729
 20
33.49179665929479
 30
0.0
 10
405.5285471239212
 20
33.55316605492033
 30
0.0
 10
405.5409490234175
 20
33.61757329534523
 30
0.0
 10
405.555539305401
 20
33.68156655163052
 30
0.0
 10
405.5743669630465
 20
33.7533865525861
 30
0.0
 10
405.6007999788633
 20
33.8399778280549
 30
0.0
 10
405.6324226217696
 20
33.92485385940104
 30
0.0
 10
405.6629131953481
 20
33.99353403415426
 30
0.0
 10
405.687055002188
 20
34.04214256738788
 30
0.0
 10
405.7122958605489
 20
34.08745686053128
 30
0.0
 10
405.7403510661268
 20
34.13116524263556
 30
0.0
 10
405.7688937331845
 20
34.17004491032772
 30
0.0
 10
405.7899715813674
 20
34.19271845274261
 30
0.0
 10
405.7999999999551
 20
34.20350605637604
 30
0.0
 11
405.499999999955
 21
33.24063183990451
 31
0.0
 11
405.5010587801939
 21
33.29732044009009
 31
0.0
 11
405.5049945351922
 21
33.36604200317268
 31
0.0
 11
405.5114416243433
 21
33.43332125466757
 31
0.0
 11
405.5190199616079
 21
33.49180915054623
 31
0.0
 11
405.5283105438402
 21
33.54988265992031
 31
0.0
 11
405.5412865328428
 21
33.6172823028291
 31
0.0
 11
405.5566958118874
 21
33.68483060651604
 31
0.0
 11
405.5716532065996
 21
33.74184681748044
 31
0.0
 11
405.599306445745
 21
33.83218962007131
 31
0.0
 11
405.6407985090774
 21
33.94273536362429
 31
0.0
 11
405.6647540025978
 21
33.99653438448468
 31
0.0
 11
405.6863174745633
 21
34.0398592165551
 31
0.0
 11
405.7134378732671
 21
34.08827790441008
 31
0.0
 11
405.7413502323352
 21
34.1316937943912
 31
0.0
 11
405.7705340789522
 21
34.17062009582916
 31
0.0
 11
405.7999999999551
 21
34.20350605637604
 31
0.0
  0
SPLINE
  5
2D1
330
79
100
AcDbEntity
  8
0
  6
Continuous
 62
     7
100
AcDbSpline
210
0.0
220
0.0
230
1.0
 70
  1064
 71
     3
 72
    23
 73
    19
 74
    17
 42
0.000000001
 43
0.0000000001
 44
0.00000001
 40
0.0
 40
0.0
 40
0.0
 40
0.0
 40
0.0440734351344857
 40
0.0926263928020161
 40
0.1397766569829027
 40
0.199808229387183
 40
0.2520801541358048
 40
0.3068889866557166
 40
0.3962025509097989
 40
0.5196296603695053
 40
0.5834900647329636
 40
0.6479308478119536
 40
0.7117947934207062
 40
0.7753920720606116
 40
0.8440708759027185
 40
0.9019763126764451
 40
0.9658095649541044
 40
1.02753730284683
 40
1.02753730284683
 40
1.02753730284683
 40
1.02753730284683
 10
372.199999999955
 20
34.20350605637609
 30
0.0
 10
372.2100104405598
 20
34.19273930501935
 30
0.0
 10
372.2310487441985
 20
34.17011148113905
 30
0.0
 10
372.2586805537218
 20
34.13248657876278
 30
0.0
 10
372.2868686308383
 20
34.08888093023862
 30
0.0
 10
372.3128529961372
 20
34.04246467529471
 30
0.0
 10
372.337554281645
 20
33.99252066211547
 30
0.0
 10
372.3640566107117
 20
33.93263987782037
 30
0.0
 10
372.3960419205548
 20
33.84933789854833
 30
0.0
 10
372.4236383546629
 20
33.76128087764838
 30
0.0
 10
372.4448231472993
 20
33.68007878105276
 30
0.0
 10
372.4589920446226
 20
33.61759845376867
 30
0.0
 10
372.4711645035547
 20
33.55478927113687
 30
0.0
 10
372.48157673204
 20
33.49023341341432
 30
0.0
 10
372.4895962511362
 20
33.42733349025073
 30
0.0
 10
372.4954694187986
 20
33.36412699218496
 30
0.0
 10
372.4992411805928
 20
33.30306472396848
 30
0.0
 10
372.4997499072574
 20
33.26120884293678
 30
0.0
 10
372.499999999955
 20
33.24063183990442
 30
0.0
 11
372.199999999955
 21
34.20350605637609
 31
0.0
 11
372.2294138182791
 21
34.1706838795002
 31
0.0
 11
372.2585468534471
 21
34.13184245656467
 31
0.0
 11
372.2841628798984
 21
34.09225752945136
 31
0.0
 11
372.3136314550556
 21
34.03995654775537
 31
0.0
 11
372.3368509390141
 21
33.99312483148789
 31
0.0
 11
372.3590794886474
 21
33.94302593252365
 31
0.0
 11
372.3912220243722
 21
33.85969664531034
 31
0.0
 11
372.4283113672505
 21
33.74197395449829
 31
0.0
 11
372.4444429477221
 21
33.68018460795756
 31
0.0
 11
372.4587011317759
 21
33.61734100282601
 31
0.0
 11
372.4708503866259
 21
33.55464332217515
 31
0.0
 11
372.4809731288606
 21
33.4918568271279
 31
0.0
 11
372.489628575304
 21
33.42372561977463
 31
0.0
 11
372.4950032905653
 21
33.36607015872323
 31
0.0
 11
372.4987487989648
 21
33.30234688696377
 31
0.0
 11
372.499999999955
 21
33.24063183990442
 31
0.0
  0
SPLINE
  5
2D2
330
79
100
AcDbEntity
  8
0
  6
Continuous
 62
     7
100
AcDbSpline
210
0.0
220
0.0
230
1.0
 70
  1064
 71
     3
 72
    11
 73
     7
 74
     5
 42
0.000000001
 43
0.0000000001
 44
0.00000001
 40
0.0
 40
0.0
 40
0.0
 40
0.0
 40
0.5050298131291441
 40
1.01569037945022
 40
1.51879914387493
 40
2.0283340734682
 40
2.0283340734682
 40
2.0283340734682
 40
2.0283340734682
 10
372.199999999955
 20
34.20350605637609
 30
0.0
 10
372.0818014292199
 20
34.32337711097442
 30
0.0
 10
371.8440864614865
 20
34.56445571482642
 30
0.0
 10
371.4932218083808
 20
34.92943604725306
 30
0.0
 10
371.1443037298637
 20
35.29834487104274
 30
0.0
 10
370.915252420715
 20
35.54628822166485
 30
0.0
 10
370.7999999999551
 20
35.67104661756325
 30
0.0
 11
372.199999999955
 21
34.20350605637609
 31
0.0
 11
371.8461647252061
 21
34.56386103489645
 31
0.0
 11
371.4919816784384
 21
34.93173137004231
 31
0.0
 11
371.1464910437469
 21
35.2974561986714
 31
0.0
 11
370.7999999999551
 21
35.67104661756325
 31
0.0
  0
SPLINE
  5
2D3
330
79
100
AcDbEntity
  8
0
  6
Continuous
 62
     7
100
AcDbSpline
210
0.0
220
0.0
230
1.0
 70
  1064
 71
     3
 72
    23
 73
    19
 74
    17
 42
0.000000001
 43
0.0000000001
 44
0.00000001
 40
0.0
 40
0.0
 40
0.0
 40
0.0
 40
0.0841450344081935
 40
0.1612673340459554
 40
0.1997108624670521
 40
0.2406827838082111
 40
0.2842892006974429
 40
0.3180474731697752
 40
0.3541498970639074
 40
0.3923050413017523
 40
0.4211301291897855
 40
0.4480144193554036
 40
0.4738403560861412
 40
0.5011551079616794
 40
0.5282770250438369
 40
0.5644270567406044
 40
0.5932102368346959
 40
0.6296487463722839
 40
0.6296487463722839
 40
0.6296487463722839
 40
0.6296487463722839
 10
370.499999999955
 20
35.34705584246447
 30
0.0
 10
370.5004710369589
 20
35.37510962205636
 30
0.0
 10
370.5013738117127
 20
35.42887581563998
 30
0.0
 10
370.5082612881176
 20
35.49519043868604
 30
0.0
 10
370.5169705580867
 20
35.5466531875132
 30
0.0
 10
370.5261305793757
 20
35.58665345392006
 30
0.0
 10
370.5378399700202
 20
35.62438082238968
 30
0.0
 10
370.5524374040442
 20
35.65933349780772
 30
0.0
 10
370.570038622013
 20
35.69085726786494
 30
0.0
 10
370.5918836644112
 20
35.71776707447349
 30
0.0
 10
370.6170529232739
 20
35.73686725213119
 30
0.0
 10
370.6426322921974
 20
35.74709890550304
 30
0.0
 10
370.6695380965909
 20
35.74958223777634
 30
0.0
 10
370.696153555126
 20
35.74489687979812
 30
0.0
 10
370.7242850613216
 20
35.73349417383623
 30
0.0
 10
370.7503069686023
 20
35.71694881201005
 30
0.0
 10
370.7764831221461
 20
35.6954867753614
 30
0.0
 10
370.7915707448207
 20
35.67980681234894
 30
0.0
 10
370.7999999999551
 20
35.67104661756325
 30
0.0
 11
370.499999999955
 21
35.34705584246447
 31
0.0
 11
370.5026814874997
 21
35.43115813671839
 31
0.0
 11
370.5106837143617
 21
35.50786415750604
 31
0.0
 11
370.5171801425659
 21
35.54575480750049
 31
0.0
 11
370.5264205100401
 21
35.5856711453701
 31
0.0
 11
370.5395443981539
 21
35.62725579717862
 31
0.0
 11
370.55269537068
 21
35.65834716189278
 31
0.0
 11
370.5705636075701
 21
35.68971770895236
 31
0.0
 11
370.5950829497074
 21
35.71895154244277
 31
0.0
 11
370.618253091998
 21
35.73609885346715
 31
0.0
 11
370.6432727828694
 21
35.74593654586221
 31
0.0
 11
370.66897962811
 21
35.748413876644
 31
0.0
 11
370.6959288951493
 21
35.74396048222876
 31
0.0
 11
370.7211573746126
 21
35.73400446669298
 31
0.0
 11
370.7518971757799
 21
35.71498107395024
 31
0.0
 11
370.7741647831165
 21
35.69674305959143
 31
0.0
 11
370.7999999999551
 21
35.67104661756325
 31
0.0
  0
SPLINE
  5
2D4
330
79
100
AcDbEntity
  8
0
  6
Continuous
 62
     7
100
AcDbSpline
210
0.0
220
0.0
230
1.0
 70
  1064
 71
     3
 72
    21
 73
    17
 74
    15
 42
0.000000001
 43
0.0000000001
 44
0.00000001
 40
0.0
 40
0.0
 40
0.0
 40
0.0
 40
0.034136075006121
 40
0.0652185408231505
 40
0.0986620282659579
 40
0.1284488560512902
 40
0.1558558900417365
 40
0.1817669959592752
 40
0.2085989791892128
 40
0.2373684620589177
 40
0.2720504774579153
 40
0.3116831867182626
 40
0.3832983631904253
 40
0.4681723911721348
 40
0.545341570866523
 40
0.6295441147360078
 40
0.6295441147360078
 40
0.6295441147360078
 40
0.6295441147360078
 10
407.199999999955
 20
35.67104661756325
 30
0.0
 10
407.2078851871589
 20
35.67926102320519
 30
0.0
 10
407.222950206194
 20
35.69495501649267
 30
0.0
 10
407.2483489499734
 20
35.71596077310524
 30
0.0
 10
407.2748908716092
 20
35.73302437574714
 30
0.0
 10
407.3029502481181
 20
35.74473991415216
 30
0.0
 10
407.3305077836162
 20
35.74959288607187
 30
0.0
 10
407.357456629894
 20
35.74707893722135
 30
0.0
 10
407.3830146951557
 20
35.7368217912347
 30
0.0
 10
407.40721676159
 20
35.71844130752078
 30
0.0
 10
407.4293503736773
 20
35.69183532787822
 30
0.0
 10
407.4533576382448
 20
35.64931215027822
 30
0.0
 10
407.4750905794135
 20
35.58725476141027
 30
0.0
 10
407.4901353123389
 20
35.51068228944172
 30
0.0
 10
407.4986217680438
 20
35.42893347108426
 30
0.0
 10
407.499527436143
 20
35.37513005692975
 30
0.0
 10
407.4999999999551
 20
35.34705584246439
 30
0.0
 11
407.199999999955
 21
35.67104661756325
 31
0.0
 11
407.2241279585671
 21
35.69519436646025
 31
0.0
 11
407.2481003823388
 21
35.71497927574939
 31
0.0
 11
407.276417960116
 21
35.73277201829954
 31
0.0
 11
407.3040285943956
 21
35.74394824421782
 31
0.0
 11
407.3310690722184
 21
35.74841569505706
 31
0.0
 11
407.3568582818523
 21
35.74590529100794
 31
0.0
 11
407.3818183065732
 21
35.7360588421658
 31
0.0
 11
407.4049358496911
 21
35.71893393569417
 31
0.0
 11
407.4274748478809
 21
35.69257419635102
 31
0.0
 11
407.4473379433833
 21
35.6582782898473
 31
0.0
 11
407.4720997878489
 21
35.59108018804405
 31
0.0
 11
407.4893011375119
 21
35.50796752642704
 31
0.0
 11
407.4973146972815
 21
35.43121555372986
 31
0.0
 11
407.4999999999551
 21
35.34705584246439
 31
0.0
  0
SPLINE
  5
2D5
330
79
100
AcDbEntity
  8
0
  6
Continuous
 62
     7
100
AcDbSpline
210
0.0
220
0.0
230
1.0
 70
  1064
 71
     3
 72
    11
 73
     7
 74
     5
 42
0.000000001
 43
0.0000000001
 44
0.00000001
 40
0.0
 40
0.0
 40
0.0
 40
0.0
 40
0.0027940578214747
 40
0.0055881156397507
 40
0.0083823767418829
 40
0.0111766378471538
 40
0.0111766378471538
 40
0.0111766378471538
 40
0.0111766378471538
 10
433.7500020491
 20
9.799987511996562
 30
0.0
 10
433.7490706984698
 20
9.799989444208226
 30
0.0
 10
433.7472079971814
 20
9.799993293631626
 30
0.0
 10
433.7444138739947
 20
9.799997091411106
 30
0.0
 10
433.7416196815353
 20
9.79999953653606
 30
0.0
 10
433.7397568407733
 20
9.799999848831225
 30
0.0
 10
433.7388254203892
 20
9.799999997478782
 30
0.0
 11
433.7500020491
 21
9.799987511996562
 31
0.0
 11
433.747207996615
 21
9.799992974223661
 31
0.0
 11
433.7444139415152
 21
9.799996875880362
 31
0.0
 11
433.7416196813882
 21
9.799999217079142
 31
0.0
 11
433.7388254203892
 21
9.799999997478782
 31
0.0
  0
ENDBLK
  5
7B
330
79
100
AcDbEntity
  8
0
100
AcDbBlockEnd
  0
BLOCK
  5
7F
330
7C
100
AcDbEntity
  8
0
100
AcDbBlockBegin
  2
HL9-7-8-Übergangsstück-WEB-Zeichnung
 70
     0
 10
337.7499999999541
 20
-42.70000000252122
 30
0.0
  3
HL9-7-8-Übergangsstück-WEB-Zeichnung
  1

  0
INSERT
  5
7D
330
7C
100
AcDbEntity
  8
0
100
AcDbBlockReference
  2
Gummisteckdichtung-SML-DN80
 10
339.499999999955
 20
-42.70000000252122
 30
0.0
  0
INSERT
  5
7E
330
7C
100
AcDbEntity
  8
0
100
AcDbBlockReference
  2
Artikel-HL9-7-DA_1_1
 10
337.7499999999541
 20
-38.00000000252118
 30
0.0
  0
ENDBLK
  5
80
330
7C
100
AcDbEntity
  8
0
100
AcDbBlockEnd
  0
BLOCK
  5
83
330
81
100
AcDbEntity
  8
0
100
AcDbBlockBegin
  2
Vordans1
 70
     0
 10
389.0
 20
25.0
 30
0.0
  3
Vordans1
  1

  0
INSERT
  5
82
330
81
100
AcDbEntity
  8
0
100
AcDbBlockReference
  2
HL9-7-8-Übergangsstück-WEB-Zeichnung
 10
337.7499999999541
 20
-42.70000000252122
 30
0.0
  0
LINE
  5
2D6
330
81
100
AcDbEntity
  8
1
  6
Continuous
 62
     7
100
AcDbLine
 10
428.999999999955
 20
-43.70000000252117
 30
0.0
 11
428.999999999955
 21
-44.70000000252117
 31
0.0
  0
LINE
  5
2D7
330
81
100
AcDbEntity
  8
1
  6
Continuous
 62
     7
100
AcDbLine
 10
348.999999999955
 20
-43.70000000252117
 30
0.0
 11
348.999999999955
 21
-44.70000000252117
 31
0.0
  0
MTEXT
  5
2D9
330
81
100
AcDbEntity
  8
1
 62
     1
100
AcDbMText
 10
388.999999999955
 20
-47.70000076546057
 30
0.0
 40
3.5
 41
0.0
 71
     2
 72
     1
  1
 
  7
CONVERTER_11
 73
     1
 44
1.32052821128451
  0
DIMENSION
  5
2E4
330
81
100
AcDbEntity
  8
1
100
AcDbDimension
  2
*D5
 10
348.999999999955
 20
-57.5833600382105
 30
0.0
 11
388.559135058929
 21
-53.8333600382105
 31
0.0
 70
    32
  1
<> (SML)
 71
     5
 42
-1.0
 53
0.00013888888889
  3
ME10_DIM_10
100
AcDbAlignedDimension
 13
428.999999999955
 23
-44.70000000252117
 33
0.0
 14
348.999999999955
 24
-44.70000000252117
 34
0.0
100
AcDbRotatedDimension
  0
DIMENSION
  5
2EF
330
81
100
AcDbEntity
  8
1
100
AcDbDimension
  2
*D6
 10
325.383832677171
 20
92.49999999748061
 30
0.0
 11
321.633832677171
 21
24.2712249461825
 31
0.0
 70
    32
  1
<>
 71
     5
 42
-1.0
 53
90.0
  3
ME10_DIM_11
100
AcDbAlignedDimension
 13
342.499999999955
 23
-42.50000000252118
 33
0.0
 14
348.54999999998
 24
92.49999999748061
 34
0.0
 50
90.0
100
AcDbRotatedDimension
  0
ENDBLK
  5
84
330
81
100
AcDbEntity
  8
0
100
AcDbBlockEnd
  0
BLOCK
  5
2E1
330
2DA
100
AcDbEntity
  8
0
100
AcDbBlockBegin
  2
*D5
 70
     1
 10
0.0
 20
0.0
 30
0.0
  3
*D5
  1

  0
LINE
  5
2DB
330
2DA
100
AcDbEntity
  8
1
  6
Continuous
 62
     4
100
AcDbLine
 10
348.999999999955
 20
-57.5833600382105
 30
0.0
 11
428.999999999955
 21
-57.5833600382105
 31
0.0
  0
LINE
  5
2DC
330
2DA
100
AcDbEntity
  8
1
  6
Continuous
 62
     4
100
AcDbLine
 10
348.999999999955
 20
-44.70000000252116
 30
0.0
 11
348.999999999955
 21
-59.5833600382105
 31
0.0
  0
LINE
  5
2DD
330
2DA
100
AcDbEntity
  8
1
  6
Continuous
 62
     4
100
AcDbLine
 10
428.999999999955
 20
-44.70000000252116
 30
0.0
 11
428.999999999955
 21
-59.5833600382105
 31
0.0
  0
SOLID
  5
2DE
330
2DA
100
AcDbEntity
  8
1
 62
     4
100
AcDbTrace
 10
352.499999999955
 20
-57.12257629665461
 30
0.0
 11
352.499999999955
 21
-58.04414377976639
 31
0.0
 12
348.999999999955
 22
-57.5833600382105
 32
0.0
 13
348.999999999955
 23
-57.5833600382105
 33
0.0
  0
SOLID
  5
2DF
330
2DA
100
AcDbEntity
  8
1
 62
     4
100
AcDbTrace
 10
425.499999999955
 20
-58.04414377976639
 30
0.0
 11
425.499999999955
 21
-57.12257629665461
 31
0.0
 12
428.999999999955
 22
-57.5833600382105
 32
0.0
 13
428.999999999955
 23
-57.5833600382105
 33
0.0
  0
MTEXT
  5
2E0
330
2DA
100
AcDbEntity
  8
1
 62
     1
100
AcDbMText
 10
375.6441350589458
 20
-55.58337395236315
 30
0.0
 40
3.5
 41
0.0
 71
     7
 72
     1
  1
\C1;DN\C1;80\C1; (SML)
  7
CONVERTER_11
 11
0.9999999999970619
 21
2.424068405545306E-6
 31
0.0
 73
     1
 44
0.60024009603842
  0
ENDBLK
  5
2E2
330
2DA
100
AcDbEntity
  8
0
100
AcDbBlockEnd
  0
BLOCK
  5
2EC
330
2E5
100
AcDbEntity
  8
0
100
AcDbBlockBegin
  2
*D6
 70
     1
 10
0.0
 20
0.0
 30
0.0
  3
*D6
  1

  0
LINE
  5
2E6
330
2E5
100
AcDbEntity
  8
1
  6
Continuous
 62
     4
100
AcDbLine
 10
325.383832677171
 20
92.49999999748061
 30
0.0
 11
325.383832677171
 21
-42.50000000252118
 31
0.0
  0
LINE
  5
2E7
330
2E5
100
AcDbEntity
  8
1
  6
Continuous
 62
     4
100
AcDbLine
 10
342.499999999955
 20
-42.50000000252118
 30
0.0
 11
323.383832677171
 21
-42.50000000252118
 31
0.0
  0
LINE
  5
2E8
330
2E5
100
AcDbEntity
  8
1
  6
Continuous
 62
     4
100
AcDbLine
 10
348.54999999998
 20
92.49999999748061
 30
0.0
 11
323.383832677171
 21
92.49999999748061
 31
0.0
  0
SOLID
  5
2E9
330
2E5
100
AcDbEntity
  8
1
 62
     4
100
AcDbTrace
 10
325.8446164187268
 20
88.99999999748061
 30
0.0
 11
324.9230489356151
 21
88.99999999748061
 31
0.0
 12
325.383832677171
 22
92.49999999748061
 32
0.0
 13
325.383832677171
 23
92.49999999748061
 33
0.0
  0
SOLID
  5
2EA
330
2E5
100
AcDbEntity
  8
1
 62
     4
100
AcDbTrace
 10
324.9230489356151
 20
-39.00000000252118
 30
0.0
 11
325.8446164187268
 21
-39.00000000252118
 31
0.0
 12
325.383832677171
 22
-42.50000000252118
 32
0.0
 13
325.383832677171
 23
-42.50000000252118
 33
0.0
  0
MTEXT
  5
2EB
330
2E5
100
AcDbEntity
  8
1
 62
     1
100
AcDbMText
 10
323.383832677171
 20
20.5962249461825
 30
0.0
 40
3.5
 41
0.0
 71
     7
 72
     1
  1
135
  7
CONVERTER_11
 11
0.0
 21
1.0
 31
0.0
 73
     1
 44
0.60024009603842
  0
ENDBLK
  5
2ED
330
2E5
100
AcDbEntity
  8
0
100
AcDbBlockEnd
  0
BLOCK
  5
2F9
330
2F2
100
AcDbEntity
  8
0
100
AcDbBlockBegin
  2
*D7
 70
     1
 10
0.0
 20
0.0
 30
0.0
  3
*D7
  1

  0
LINE
  5
2F3
330
2F2
100
AcDbEntity
  8
1
  6
Continuous
 62
     4
100
AcDbLine
 10
351.499999999955
 20
101.018496254287
 30
0.0
 11
426.499999999955
 21
101.018496254287
 31
0.0
  0
LINE
  5
2F4
330
2F2
100
AcDbEntity
  8
1
  6
Continuous
 62
     4
100
AcDbLine
 10
426.499999999955
 20
94.49999999748061
 30
0.0
 11
426.499999999955
 21
103.018496254287
 31
0.0
  0
LINE
  5
2F5
330
2F2
100
AcDbEntity
  8
1
  6
Continuous
 62
     4
100
AcDbLine
 10
351.499999999955
 20
94.49999999748061
 30
0.0
 11
351.499999999955
 21
103.018496254287
 31
0.0
  0
SOLID
  5
2F6
330
2F2
100
AcDbEntity
  8
1
 62
     4
100
AcDbTrace
 10
354.999999999955
 20
101.4792799958429
 30
0.0
 11
354.999999999955
 21
100.5577125127311
 31
0.0
 12
351.499999999955
 22
101.018496254287
 32
0.0
 13
351.499999999955
 23
101.018496254287
 33
0.0
  0
SOLID
  5
2F7
330
2F2
100
AcDbEntity
  8
1
 62
     4
100
AcDbTrace
 10
422.999999999955
 20
100.5577125127311
 30
0.0
 11
422.999999999955
 21
101.4792799958429
 31
0.0
 12
426.499999999955
 22
101.018496254287
 32
0.0
 13
426.499999999955
 23
101.018496254287
 33
0.0
  0
MTEXT
  5
2F8
330
2F2
100
AcDbEntity
  8
1
 62
     1
100
AcDbMText
 10
382.3867918096279
 20
103.0184823401344
 30
0.0
 40
3.5
 41
0.0
 71
     7
 72
     1
  1
\C1;DN\C1;75
  7
CONVERTER_11
 11
0.9999999999970619
 21
2.424068405545306E-6
 31
0.0
 73
     1
 44
0.60024009603842
  0
ENDBLK
  5
2FA
330
2F2
100
AcDbEntity
  8
0
100
AcDbBlockEnd
  0
ENDSEC
  0
SECTION
  2
ENTITIES
  0
INSERT
  5
85
330
1F
100
AcDbEntity
  8
0
100
AcDbBlockReference
  2
Vordans1
 10
389.0
 20
25.0
 30
0.0
  0
LINE
  5
2F0
330
1F
100
AcDbEntity
  8
1
  6
Continuous
 62
     7
100
AcDbLine
 10
426.499999999955
 20
93.49999999748061
 30
0.0
 11
426.499999999955
 21
94.49999999748061
 31
0.0
  0
LINE
  5
2F1
330
1F
100
AcDbEntity
  8
1
  6
Continuous
 62
     7
100
AcDbLine
 10
351.499999999955
 20
93.49999999748061
 30
0.0
 11
351.499999999955
 21
94.49999999748061
 31
0.0
  0
DIMENSION
  5
2FC
330
1F
100
AcDbEntity
  8
1
100
AcDbDimension
  2
*D7
 10
351.499999999955
 20
101.018496254287
 30
0.0
 11
386.901791809611
 21
104.768496254287
 31
0.0
 70
    32
  1
<>
 71
     5
 42
-1.0
 53
0.00013888888889
  3
ME10_DIM_12
100
AcDbAlignedDimension
 13
426.499999999955
 23
94.49999999748061
 33
0.0
 14
351.499999999955
 24
94.49999999748061
 34
0.0
100
AcDbRotatedDimension
  0
ENDSEC
  0
SECTION
  2
OBJECTS
  0
DICTIONARY
  5
C
330
0
100
AcDbDictionary
281
     1
  3
ACAD_GROUP
350
D
  3
ACAD_LAYOUT
350
1A
  3
ACAD_MATERIAL
350
43
  3
ACAD_MLEADERSTYLE
350
6B
  3
ACAD_MLINESTYLE
350
17
  3
ACAD_PLOTSETTINGS
350
19
  3
ACAD_PLOTSTYLENAME
350
E
  3
ACAD_SCALELIST
350
47
  3
ACAD_TABLESTYLE
350
69
  3
ACAD_VISUALSTYLE
350
2A
  3
AcDbVariableDictionary
350
2FD
  0
DICTIONARY
  5
304
330
8
100
AcDbDictionary
280
     1
281
     1
  3
ACAD_XREC_ROUNDTRIP
360
305
  0
DICTIONARY
  5
D
102
{ACAD_REACTORS
330
C
102
}
330
C
100
AcDbDictionary
281
     1
  0
DICTIONARY
  5
1A
102
{ACAD_REACTORS
330
C
102
}
330
C
100
AcDbDictionary
281
     1
  3
Layout1
350
1E
  3
Layout2
350
26
  3
Model
350
22
  0
DICTIONARY
  5
43
102
{ACAD_REACTORS
330
C
102
}
330
C
100
AcDbDictionary
281
     1
  3
ByBlock
350
45
  3
ByLayer
350
44
  3
Global
350
46
  0
DICTIONARY
  5
6B
102
{ACAD_REACTORS
330
C
102
}
330
C
100
AcDbDictionary
281
     1
  3
Standard
350
6C
  0
DICTIONARY
  5
17
102
{ACAD_REACTORS
330
C
102
}
330
C
100
AcDbDictionary
281
     1
  3
Standard
350
18
  0
DICTIONARY
  5
19
102
{ACAD_REACTORS
330
C
102
}
330
C
100
AcDbDictionary
281
     1
  0
ACDBDICTIONARYWDFLT
  5
E
102
{ACAD_REACTORS
330
C
102
}
330
C
100
AcDbDictionary
281
     1
  3
Normal
350
F
100
AcDbDictionaryWithDefault
340
F
  0
DICTIONARY
  5
47
102
{ACAD_REACTORS
330
C
102
}
330
C
100
AcDbDictionary
281
     1
  3
A0
350
48
  3
A1
350
49
  3
A2
350
4A
  3
A3
350
4B
  3
A4
350
4C
  3
A5
350
4D
  3
A6
350
4E
  3
A7
350
4F
  3
A8
350
50
  3
A9
350
51
  3
B0
350
52
  3
B1
350
53
  3
B2
350
54
  3
B3
350
55
  3
B4
350
56
  3
B5
350
57
  3
B6
350
58
  3
B7
350
59
  3
B8
350
5A
  3
B9
350
5B
  3
C0
350
5C
  3
C1
350
5D
  3
C2
350
5E
  3
C3
350
5F
  3
C4
350
60
  3
C5
350
61
  3
C6
350
62
  3
C7
350
63
  3
C8
350
64
  3
C9
350
65
  3
D0
350
66
  3
D1
350
67
  3
D2
350
68
  0
DICTIONARY
  5
69
102
{ACAD_REACTORS
330
C
102
}
330
C
100
AcDbDictionary
281
     1
  3
Standard
350
6A
  0
DICTIONARY
  5
2A
102
{ACAD_REACTORS
330
C
102
}
330
C
100
AcDbDictionary
281
     1
  3
2dWireframe
350
2F
  3
Basic
350
32
  3
Brighten
350
36
  3
ColorChange
350
3A
  3
Conceptual
350
34
  3
Dim
350
35
  3
EdgeColorOff
350
3D
  3
Facepattern
350
39
  3
Flat
350
2B
  3
FlatWithEdges
350
2C
  3
Gouraud
350
2D
  3
GouraudWithEdges
350
2E
  3
Hidden
350
31
  3
JitterOff
350
3B
  3
Linepattern
350
38
  3
OverhangOff
350
3C
  3
Realistic
350
33
  3
Shaded
350
42
  3
Shaded with edges
350
41
  3
Shades of Gray
350
3E
  3
Sketchy
350
3F
  3
Thicken
350
37
  3
Wireframe
350
30
  3
X-Ray
350
40
  0
DICTIONARY
  5
2FD
102
{ACAD_REACTORS
330
C
102
}
330
C
100
AcDbDictionary
281
     1
  3
CANNOSCALE
350
306
  3
CMLEADERSTYLE
350
2FF
  3
CTABLESTYLE
350
2FE
  3
DIMASSOC
350
302
  3
HIDETEXT
350
303
  3
MSLTSCALE
350
307
  0
XRECORD
  5
305
102
{ACAD_REACTORS
330
304
102
}
330
304
100
AcDbXrecord
280
     1
102
VTR_0.000_0.000_1.000_1.000_GRIDDISPLAY
 70
     3
102
VTR_0.000_0.000_1.000_1.000_GRIDMAJOR
 70
     5
102
VTR_0.000_0.000_1.000_1.000_DEFAULTLIGHTING
280
     1
102
VTR_0.000_0.000_1.000_1.000_DEFAULTLIGHTINGTYPE
 70
     1
102
VTR_0.000_0.000_1.000_1.000_BRIGHTNESS
141
0.0
102
VTR_0.000_0.000_1.000_1.000_CONTRAST
142
0.0
  0
LAYOUT
  5
1E
102
{ACAD_REACTORS
330
1A
102
}
330
1A
100
AcDbPlotSettings
  1

  2
none_device
  4

  6

 40
0.0
 41
0.0
 42
0.0
 43
0.0
 44
0.0
 45
0.0
 46
0.0
 47
0.0
 48
0.0
 49
0.0
140
0.0
141
0.0
142
1.0
143
1.0
 70
   688
 72
     0
 73
     0
 74
     5
  7

 75
    16
147
1.0
148
0.0
149
0.0
100
AcDbLayout
  1
Layout1
 70
     1
 71
     1
 10
0.0
 20
0.0
 11
12.0
 21
9.0
 12
0.0
 22
0.0
 32
0.0
 14
1.00000000000000E+20
 24
1.00000000000000E+20
 34
1.00000000000000E+20
 15
-1.00000000000000E+20
 25
-1.00000000000000E+20
 35
-1.00000000000000E+20
146
0.0
 13
0.0
 23
0.0
 33
0.0
 16
1.0
 26
0.0
 36
0.0
 17
0.0
 27
1.0
 37
0.0
 76
     0
330
1B
  0
LAYOUT
  5
26
102
{ACAD_REACTORS
330
1A
102
}
330
1A
100
AcDbPlotSettings
  1

  2
none_device
  4

  6

 40
0.0
 41
0.0
 42
0.0
 43
0.0
 44
0.0
 45
0.0
 46
0.0
 47
0.0
 48
0.0
 49
0.0
140
0.0
141
0.0
142
1.0
143
1.0
 70
   688
 72
     0
 73
     0
 74
     5
  7

 75
    16
147
1.0
148
0.0
149
0.0
100
AcDbLayout
  1
Layout2
 70
     1
 71
     2
 10
0.0
 20
0.0
 11
0.0
 21
0.0
 12
0.0
 22
0.0
 32
0.0
 14
0.0
 24
0.0
 34
0.0
 15
0.0
 25
0.0
 35
0.0
146
0.0
 13
0.0
 23
0.0
 33
0.0
 16
1.0
 26
0.0
 36
0.0
 17
0.0
 27
1.0
 37
0.0
 76
     0
330
23
  0
LAYOUT
  5
22
102
{ACAD_REACTORS
330
1A
102
}
330
1A
100
AcDbPlotSettings
  1

  2
none_device
  4
Letter_(8.50_x_11.00_Inches)
  6

 40
6.35
 41
6.35
 42
6.35000508
 43
6.35000508
 44
215.9
 45
279.4
 46
0.0
 47
0.0
 48
0.0
 49
0.0
140
0.0
141
0.0
142
1.0
143
1.0
 70
  1712
 72
     0
 73
     0
 74
     0
  7

 75
     0
147
1.0
148
0.0
149
0.0
100
AcDbLayout
  1
Model
 70
     1
 71
     0
 10
0.0
 20
0.0
 11
12.0
 21
9.0
 12
0.0
 22
0.0
 32
0.0
 14
319.883832677171
 24
-59.5833600382105
 34
0.0
 15
440.249999999956
 25
106.518496254287
 35
0.0
146
0.0
 13
0.0
 23
0.0
 33
0.0
 16
1.0
 26
0.0
 36
0.0
 17
0.0
 27
1.0
 37
0.0
 76
     0
330
1F
331
29
  0
MATERIAL
  5
45
102
{ACAD_REACTORS
330
43
102
}
102
{ACAD_XDICTIONARY
360
33A
102
}
330
43
100
AcDbMaterial
  1
ByBlock
  0
MATERIAL
  5
44
102
{ACAD_REACTORS
330
43
102
}
102
{ACAD_XDICTIONARY
360
338
102
}
330
43
100
AcDbMaterial
  1
ByLayer
  0
MATERIAL
  5
46
102
{ACAD_REACTORS
330
43
102
}
102
{ACAD_XDICTIONARY
360
33C
102
}
330
43
100
AcDbMaterial
  1
Global
  0
MLEADERSTYLE
  5
6C
102
{ACAD_REACTORS
330
6B
102
}
102
{ACAD_XDICTIONARY
360
33F
102
}
330
6B
100
AcDbMLeaderStyle
170
     2
171
     1
172
     0
 90
        2
 40
0.0
 41
0.0
173
     1
 91
-1056964608
340
14
 92
       -2
290
     1
 42
0.09
291
     1
 43
0.36
  3
Standard
341
0
 44
0.18
300

342
11
174
     1
178
     6
175
     1
176
     0
 93
-1056964608
 45
0.18
292
     0
297
     0
 46
0.18
343
0
 94
-1056964608
 47
1.0
 49
1.0
140
1.0
293
     1
141
0.0
294
     1
177
     0
142
1.0
295
     0
296
     0
143
0.125
1001
ACAD_MLEADERVER
1070
     2
  0
MLINESTYLE
  5
18
102
{ACAD_REACTORS
330
17
102
}
330
17
100
AcDbMlineStyle
  2
Standard
 70
     0
  3

 62
   256
 51
90.0
 52
90.0
 71
     2
 49
0.5
 62
   256
  6
BYLAYER
 49
-0.5
 62
   256
  6
BYLAYER
  0
ACDBPLACEHOLDER
  5
F
102
{ACAD_REACTORS
330
E
102
}
330
E
  0
SCALE
  5
48
102
{ACAD_REACTORS
330
47
102
}
330
47
100
AcDbScale
 70
     0
300
1:1
140
1.0
141
1.0
290
     1
  0
SCALE
  5
49
102
{ACAD_REACTORS
330
47
102
}
330
47
100
AcDbScale
 70
     0
300
1:2
140
1.0
141
2.0
290
     0
  0
SCALE
  5
4A
102
{ACAD_REACTORS
330
47
102
}
330
47
100
AcDbScale
 70
     0
300
1:4
140
1.0
141
4.0
290
     0
  0
SCALE
  5
4B
102
{ACAD_REACTORS
330
47
102
}
330
47
100
AcDbScale
 70
     0
300
1:5
140
1.0
141
5.0
290
     0
  0
SCALE
  5
4C
102
{ACAD_REACTORS
330
47
102
}
330
47
100
AcDbScale
 70
     0
300
1:8
140
1.0
141
8.0
290
     0
  0
SCALE
  5
4D
102
{ACAD_REACTORS
330
47
102
}
330
47
100
AcDbScale
 70
     0
300
1:10
140
1.0
141
10.0
290
     0
  0
SCALE
  5
4E
102
{ACAD_REACTORS
330
47
102
}
330
47
100
AcDbScale
 70
     0
300
1:16
140
1.0
141
16.0
290
     0
  0
SCALE
  5
4F
102
{ACAD_REACTORS
330
47
102
}
330
47
100
AcDbScale
 70
     0
300
1:20
140
1.0
141
20.0
290
     0
  0
SCALE
  5
50
102
{ACAD_REACTORS
330
47
102
}
330
47
100
AcDbScale
 70
     0
300
1:30
140
1.0
141
30.0
290
     0
  0
SCALE
  5
51
102
{ACAD_REACTORS
330
47
102
}
330
47
100
AcDbScale
 70
     0
300
1:40
140
1.0
141
40.0
290
     0
  0
SCALE
  5
52
102
{ACAD_REACTORS
330
47
102
}
330
47
100
AcDbScale
 70
     0
300
1:50
140
1.0
141
50.0
290
     0
  0
SCALE
  5
53
102
{ACAD_REACTORS
330
47
102
}
330
47
100
AcDbScale
 70
     0
300
1:100
140
1.0
141
100.0
290
     0
  0
SCALE
  5
54
102
{ACAD_REACTORS
330
47
102
}
330
47
100
AcDbScale
 70
     0
300
2:1
140
2.0
141
1.0
290
     0
  0
SCALE
  5
55
102
{ACAD_REACTORS
330
47
102
}
330
47
100
AcDbScale
 70
     0
300
4:1
140
4.0
141
1.0
290
     0
  0
SCALE
  5
56
102
{ACAD_REACTORS
330
47
102
}
330
47
100
AcDbScale
 70
     0
300
8:1
140
8.0
141
1.0
290
     0
  0
SCALE
  5
57
102
{ACAD_REACTORS
330
47
102
}
330
47
100
AcDbScale
 70
     0
300
10:1
140
10.0
141
1.0
290
     0
  0
SCALE
  5
58
102
{ACAD_REACTORS
330
47
102
}
330
47
100
AcDbScale
 70
     0
300
100:1
140
100.0
141
1.0
290
     0
  0
SCALE
  5
59
102
{ACAD_REACTORS
330
47
102
}
330
47
100
AcDbScale
 70
     0
300
1/128" = 1'-0"
140
0.0078125
141
12.0
290
     0
  0
SCALE
  5
5A
102
{ACAD_REACTORS
330
47
102
}
330
47
100
AcDbScale
 70
     0
300
1/64" = 1'-0"
140
0.015625
141
12.0
290
     0
  0
SCALE
  5
5B
102
{ACAD_REACTORS
330
47
102
}
330
47
100
AcDbScale
 70
     0
300
1/32" = 1'-0"
140
0.03125
141
12.0
290
     0
  0
SCALE
  5
5C
102
{ACAD_REACTORS
330
47
102
}
330
47
100
AcDbScale
 70
     0
300
1/16" = 1'-0"
140
0.0625
141
12.0
290
     0
  0
SCALE
  5
5D
102
{ACAD_REACTORS
330
47
102
}
330
47
100
AcDbScale
 70
     0
300
3/32" = 1'-0"
140
0.09375
141
12.0
290
     0
  0
SCALE
  5
5E
102
{ACAD_REACTORS
330
47
102
}
330
47
100
AcDbScale
 70
     0
300
1/8" = 1'-0"
140
0.125
141
12.0
290
     0
  0
SCALE
  5
5F
102
{ACAD_REACTORS
330
47
102
}
330
47
100
AcDbScale
 70
     0
300
3/16" = 1'-0"
140
0.1875
141
12.0
290
     0
  0
SCALE
  5
60
102
{ACAD_REACTORS
330
47
102
}
330
47
100
AcDbScale
 70
     0
300
1/4" = 1'-0"
140
0.25
141
12.0
290
     0
  0
SCALE
  5
61
102
{ACAD_REACTORS
330
47
102
}
330
47
100
AcDbScale
 70
     0
300
3/8" = 1'-0"
140
0.375
141
12.0
290
     0
  0
SCALE
  5
62
102
{ACAD_REACTORS
330
47
102
}
330
47
100
AcDbScale
 70
     0
300
1/2" = 1'-0"
140
0.5
141
12.0
290
     0
  0
SCALE
  5
63
102
{ACAD_REACTORS
330
47
102
}
330
47
100
AcDbScale
 70
     0
300
3/4" = 1'-0"
140
0.75
141
12.0
290
     0
  0
SCALE
  5
64
102
{ACAD_REACTORS
330
47
102
}
330
47
100
AcDbScale
 70
     0
300
1" = 1'-0"
140
1.0
141
12.0
290
     0
  0
SCALE
  5
65
102
{ACAD_REACTORS
330
47
102
}
330
47
100
AcDbScale
 70
     0
300
1-1/2" = 1'-0"
140
1.5
141
12.0
290
     0
  0
SCALE
  5
66
102
{ACAD_REACTORS
330
47
102
}
330
47
100
AcDbScale
 70
     0
300
3" = 1'-0"
140
3.0
141
12.0
290
     0
  0
SCALE
  5
67
102
{ACAD_REACTORS
330
47
102
}
330
47
100
AcDbScale
 70
     0
300
6" = 1'-0"
140
6.0
141
12.0
290
     0
  0
SCALE
  5
68
102
{ACAD_REACTORS
330
47
102
}
330
47
100
AcDbScale
 70
     0
300
1'-0" = 1'-0"
140
12.0
141
12.0
290
     0
  0
TABLESTYLE
  5
6A
102
{ACAD_REACTORS
330
69
102
}
330
69
100
AcDbTableStyle
  3
Standard
 70
     0
 71
     0
 40
0.06
 41
0.06
280
     0
281
     0
  7
Standard
140
0.18
170
     2
 62
     0
 63
   257
283
     0
274
    -2
284
     1
 64
     0
275
    -2
285
     1
 65
     0
276
    -2
286
     1
 66
     0
277
    -2
287
     1
 67
     0
278
    -2
288
     1
 68
     0
279
    -2
289
     1
 69
     0
  7
Standard
140
0.25
170
     5
 62
     0
 63
   257
283
     0
274
    -2
284
     1
 64
     0
275
    -2
285
     1
 65
     0
276
    -2
286
     1
 66
     0
277
    -2
287
     1
 67
     0
278
    -2
288
     1
 68
     0
279
    -2
289
     1
 69
     0
  7
Standard
140
0.18
170
     5
 62
     0
 63
   257
283
     0
274
    -2
284
     1
 64
     0
275
    -2
285
     1
 65
     0
276
    -2
286
     1
 66
     0
277
    -2
287
     1
 67
     0
278
    -2
288
     1
 68
     0
279
    -2
289
     1
 69
     0
  0
VISUALSTYLE
  5
2F
102
{ACAD_REACTORS
330
2A
102
}
102
{ACAD_XDICTIONARY
360
310
102
}
330
2A
100
AcDbVisualStyle
  2
2dWireframe
 70
     4
 71
     0
 72
     2
 73
     0
 90
        0
 40
0.6
 41
30.0
 62
     5
 63
     7
 74
     1
 91
        4
 64
     7
 65
   257
 75
     1
175
     1
 42
1.0
 92
        0
 66
   257
 43
1.0
 76
     1
 77
     6
 78
     2
 67
     7
 79
     5
170
     0
171
     0
290
     0
174
     0
 93
        1
 44
0.0
173
     0
291
     0
 45
0.0
1001
ACAD
1000
AcDbSavedByObjectVersion
1070
     0
  0
VISUALSTYLE
  5
32
102
{ACAD_REACTORS
330
2A
102
}
102
{ACAD_XDICTIONARY
360
316
102
}
330
2A
100
AcDbVisualStyle
  2
Basic
 70
     7
 71
     1
 72
     0
 73
     1
 90
        0
 40
0.6
 41
30.0
 62
     5
 63
     7
 74
     0
 91
        4
 64
     7
 65
   257
 75
     1
175
     1
 42
1.0
 92
        8
 66
     7
 43
1.0
 76
     1
 77
     6
 78
     2
 67
     7
 79
     5
170
     0
171
     0
290
     0
174
     0
 93
        1
 44
0.0
173
     0
291
     1
 45
0.0
1001
ACAD
1000
AcDbSavedByObjectVersion
1070
     0
  0
VISUALSTYLE
  5
36
102
{ACAD_REACTORS
330
2A
102
}
102
{ACAD_XDICTIONARY
360
31E
102
}
330
2A
100
AcDbVisualStyle
  2
Brighten
 70
    12
 71
     2
 72
     2
 73
     0
 90
        0
 40
0.6
 41
30.0
 62
     5
 63
     7
 74
     1
 91
        4
 64
     7
 65
   257
 75
     1
175
     1
 42
1.0
 92
        8
 66
     7
 43
1.0
 76
     1
 77
     6
 78
     2
 67
     7
 79
     5
170
     0
171
     0
290
     0
174
     0
 93
        1
 44
50.0
173
     0
291
     1
 45
0.0
1001
ACAD
1000
AcDbSavedByObjectVersion
1070
     0
  0
VISUALSTYLE
  5
3A
102
{ACAD_REACTORS
330
2A
102
}
102
{ACAD_XDICTIONARY
360
326
102
}
330
2A
100
AcDbVisualStyle
  2
ColorChange
 70
    16
 71
     2
 72
     2
 73
     3
 90
        0
 40
0.6
 41
30.0
 62
     5
 63
     8
 74
     1
 91
        4
 64
     7
 65
   257
 75
     1
175
     1
 42
1.0
 92
        8
 66
     8
 43
1.0
 76
     1
 77
     6
 78
     2
 67
     7
 79
     5
170
     0
171
     0
290
     0
174
     0
 93
        1
 44
0.0
173
     0
291
     1
 45
0.0
1001
ACAD
1000
AcDbSavedByObjectVersion
1070
     0
  0
VISUALSTYLE
  5
34
102
{ACAD_REACTORS
330
2A
102
}
102
{ACAD_XDICTIONARY
360
31A
102
}
330
2A
100
AcDbVisualStyle
  2
Conceptual
 70
     9
 71
     3
 72
     2
 73
     0
 90
        0
 40
0.6
 41
30.0
 62
     5
 63
     7
 74
     2
 91
        2
 64
     7
 65
   257
 75
     1
175
     1
 42
179.0
 92
        8
 66
     7
 43
1.0
 76
     1
 77
     6
 78
     2
 67
     7
 79
     3
170
     0
171
     0
290
     0
174
     0
 93
        1
 44
0.0
173
     0
291
     0
 45
0.0
1001
ACAD
1000
AcDbSavedByObjectVersion
1070
     0
  0
VISUALSTYLE
  5
35
102
{ACAD_REACTORS
330
2A
102
}
102
{ACAD_XDICTIONARY
360
31C
102
}
330
2A
100
AcDbVisualStyle
  2
Dim
 70
    11
 71
     2
 72
     2
 73
     0
 90
        0
 40
0.6
 41
30.0
 62
     5
 63
     7
 74
     1
 91
        4
 64
     7
 65
   257
 75
     1
175
     1
 42
1.0
 92
        8
 66
     7
 43
1.0
 76
     1
 77
     6
 78
     2
 67
     7
 79
     5
170
     0
171
     0
290
     0
174
     0
 93
        1
 44
-50.0
173
     0
291
     1
 45
0.0
1001
ACAD
1000
AcDbSavedByObjectVersion
1070
     0
  0
VISUALSTYLE
  5
3D
102
{ACAD_REACTORS
330
2A
102
}
102
{ACAD_XDICTIONARY
360
32C
102
}
330
2A
100
AcDbVisualStyle
  2
EdgeColorOff
 70
    22
 71
     2
 72
     2
 73
     0
 90
        0
 40
0.6
 41
30.0
 62
     5
 63
     7
 74
     1
 91
        4
 64
     7
 65
   257
 75
     1
175
     1
 42
1.0
 92
        8
 66
     7
 43
1.0
 76
     1
 77
     6
 78
     2
 67
     7
 79
     5
170
     0
171
     0
290
     0
174
     0
 93
        1
 44
0.0
173
     0
291
     1
 45
0.0
1001
ACAD
1000
AcDbSavedByObjectVersion
1070
     0
  0
VISUALSTYLE
  5
39
102
{ACAD_REACTORS
330
2A
102
}
102
{ACAD_XDICTIONARY
360
324
102
}
330
2A
100
AcDbVisualStyle
  2
Facepattern
 70
    15
 71
     2
 72
     2
 73
     0
 90
        0
 40
0.6
 41
30.0
 62
     5
 63
     7
 74
     1
 91
        4
 64
     7
 65
   257
 75
     1
175
     1
 42
1.0
 92
        8
 66
     7
 43
1.0
 76
     1
 77
     6
 78
     2
 67
     7
 79
     5
170
     0
171
     0
290
     0
174
     0
 93
        1
 44
0.0
173
     0
291
     1
 45
0.0
1001
ACAD
1000
AcDbSavedByObjectVersion
1070
     0
  0
VISUALSTYLE
  5
2B
102
{ACAD_REACTORS
330
2A
102
}
102
{ACAD_XDICTIONARY
360
308
102
}
330
2A
100
AcDbVisualStyle
  2
Flat
 70
     0
 71
     2
 72
     1
 73
     1
 90
        2
 40
0.6
 41
30.0
 62
     5
 63
     7
 74
     0
 91
        0
 64
     7
 65
   257
 75
     1
175
     1
 42
1.0
 92
        8
 66
     7
 43
1.0
 76
     1
 77
     6
 78
     2
 67
     7
 79
     5
170
     0
171
     0
290
     0
174
     0
 93
       13
 44
0.0
173
     0
291
     1
 45
0.0
1001
ACAD
1000
AcDbSavedByObjectVersion
1070
     0
  0
VISUALSTYLE
  5
2C
102
{ACAD_REACTORS
330
2A
102
}
102
{ACAD_XDICTIONARY
360
30A
102
}
330
2A
100
AcDbVisualStyle
  2
FlatWithEdges
 70
     1
 71
     2
 72
     1
 73
     1
 90
        2
 40
0.6
 41
30.0
 62
     5
 63
     7
 74
     1
 91
        0
 64
     7
 65
   257
 75
     1
175
     1
 42
1.0
 92
        0
 66
   257
 43
1.0
 76
     1
 77
     6
 78
     2
 67
     7
 79
     5
170
     0
171
     0
290
     0
174
     0
 93
       13
 44
0.0
173
     0
291
     1
 45
0.0
1001
ACAD
1000
AcDbSavedByObjectVersion
1070
     0
  0
VISUALSTYLE
  5
2D
102
{ACAD_REACTORS
330
2A
102
}
102
{ACAD_XDICTIONARY
360
30C
102
}
330
2A
100
AcDbVisualStyle
  2
Gouraud
 70
     2
 71
     2
 72
     2
 73
     1
 90
        2
 40
0.6
 41
30.0
 62
     5
 63
     7
 74
     0
 91
        0
 64
     7
 65
   257
 75
     1
175
     1
 42
1.0
 92
        0
 66
     7
 43
1.0
 76
     1
 77
     6
 78
     2
 67
     7
 79
     5
170
     0
171
     0
290
     0
174
     0
 93
       13
 44
0.0
173
     0
291
     1
 45
0.0
1001
ACAD
1000
AcDbSavedByObjectVersion
1070
     0
  0
VISUALSTYLE
  5
2E
102
{ACAD_REACTORS
330
2A
102
}
102
{ACAD_XDICTIONARY
360
30E
102
}
330
2A
100
AcDbVisualStyle
  2
GouraudWithEdges
 70
     3
 71
     2
 72
     2
 73
     1
 90
        2
 40
0.6
 41
30.0
 62
     5
 63
     7
 74
     1
 91
        0
 64
     7
 65
   257
 75
     1
175
     1
 42
1.0
 92
        0
 66
   257
 43
1.0
 76
     1
 77
     6
 78
     2
 67
     7
 79
     5
170
     0
171
     0
290
     0
174
     0
 93
       13
 44
0.0
173
     0
291
     1
 45
0.0
1001
ACAD
1000
AcDbSavedByObjectVersion
1070
     0
  0
VISUALSTYLE
  5
31
102
{ACAD_REACTORS
330
2A
102
}
102
{ACAD_XDICTIONARY
360
314
102
}
330
2A
100
AcDbVisualStyle
  2
Hidden
 70
     6
 71
     1
 72
     2
 73
     2
 90
        0
 40
0.6
 41
30.0
 62
     5
 63
     7
 74
     2
 91
        2
 64
     7
 65
   257
 75
     2
175
     1
 42
40.0
 92
        0
 66
   257
 43
1.0
 76
     1
 77
     6
 78
     2
 67
     7
 79
     3
170
     0
171
     0
290
     0
174
     0
 93
        1
 44
0.0
173
     0
291
     0
 45
0.0
1001
ACAD
1000
AcDbSavedByObjectVersion
1070
     0
  0
VISUALSTYLE
  5
3B
102
{ACAD_REACTORS
330
2A
102
}
102
{ACAD_XDICTIONARY
360
328
102
}
330
2A
100
AcDbVisualStyle
  2
JitterOff
 70
    20
 71
     2
 72
     2
 73
     0
 90
        0
 40
0.6
 41
30.0
 62
     5
 63
     7
 74
     1
 91
        4
 64
     7
 65
   257
 75
     1
175
     1
 42
1.0
 92
       10
 66
     7
 43
1.0
 76
     1
 77
     6
 78
     2
 67
     7
 79
     5
170
     0
171
     0
290
     0
174
     0
 93
        1
 44
0.0
173
     0
291
     1
 45
0.0
1001
ACAD
1000
AcDbSavedByObjectVersion
1070
     0
  0
VISUALSTYLE
  5
38
102
{ACAD_REACTORS
330
2A
102
}
102
{ACAD_XDICTIONARY
360
322
102
}
330
2A
100
AcDbVisualStyle
  2
Linepattern
 70
    14
 71
     2
 72
     2
 73
     0
 90
        0
 40
0.6
 41
30.0
 62
     5
 63
     7
 74
     1
 91
        4
 64
     7
 65
   257
 75
     7
175
     7
 42
1.0
 92
        8
 66
     7
 43
1.0
 76
     1
 77
     6
 78
     2
 67
     7
 79
     5
170
     0
171
     0
290
     0
174
     0
 93
        1
 44
0.0
173
     0
291
     1
 45
0.0
1001
ACAD
1000
AcDbSavedByObjectVersion
1070
     0
  0
VISUALSTYLE
  5
3C
102
{ACAD_REACTORS
330
2A
102
}
102
{ACAD_XDICTIONARY
360
32A
102
}
330
2A
100
AcDbVisualStyle
  2
OverhangOff
 70
    21
 71
     2
 72
     2
 73
     0
 90
        0
 40
0.6
 41
30.0
 62
     5
 63
     7
 74
     1
 91
        4
 64
     7
 65
   257
 75
     1
175
     1
 42
1.0
 92
        9
 66
     7
 43
1.0
 76
     1
 77
     6
 78
     2
 67
     7
 79
     5
170
     0
171
     0
290
     0
174
     0
 93
        1
 44
0.0
173
     0
291
     1
 45
0.0
1001
ACAD
1000
AcDbSavedByObjectVersion
1070
     0
  0
VISUALSTYLE
  5
33
102
{ACAD_REACTORS
330
2A
102
}
102
{ACAD_XDICTIONARY
360
318
102
}
330
2A
100
AcDbVisualStyle
  2
Realistic
 70
     8
 71
     2
 72
     3
 73
     0
 90
        2
 40
0.6
 41
30.0
 62
     5
 63
     7
 74
     0
 91
        0
 64
     7
 65
   257
 75
     1
175
     1
 42
1.0
 92
        8
 66
   257
 43
1.0
 76
     1
 77
     6
 78
     2
 67
     7
 79
     3
170
     0
171
     0
290
     0
174
     0
 93
       13
 44
0.0
173
     0
291
     0
 45
0.0
1001
ACAD
1000
AcDbSavedByObjectVersion
1070
     0
  0
VISUALSTYLE
  5
42
102
{ACAD_REACTORS
330
2A
102
}
102
{ACAD_XDICTIONARY
360
336
102
}
330
2A
100
AcDbVisualStyle
  2
Shaded
 70
    27
 71
     2
 72
     2
 73
     1
 90
        2
 40
0.6
 41
30.0
 62
     5
 63
     7
 74
     0
 91
        4
 64
     7
 65
   257
 75
     1
175
     1
 42
1.0
 92
        8
 66
   257
 43
1.0
 76
     1
 77
     6
 78
     2
 67
     8
 79
     3
170
     0
171
     0
290
     0
174
     0
 93
        5
 44
0.0
173
     0
291
     0
 45
0.0
1001
ACAD
1000
AcDbSavedByObjectVersion
1070
     0
  0
VISUALSTYLE
  5
41
102
{ACAD_REACTORS
330
2A
102
}
102
{ACAD_XDICTIONARY
360
334
102
}
330
2A
100
AcDbVisualStyle
  2
Shaded with edges
 70
    26
 71
     2
 72
     2
 73
     1
 90
        2
 40
0.6
 41
30.0
 62
     5
 63
     7
 74
     1
 91
       10
 64
     7
 65
   257
 75
     2
175
     1
 42
1.0
 92
        8
 66
   257
 43
1.0
 76
     1
 77
     6
 78
     2
 67
     7
 79
     3
170
     0
171
     0
290
     0
174
     0
 93
        5
 44
0.0
173
     0
291
     0
 45
0.0
1001
ACAD
1000
AcDbSavedByObjectVersion
1070
     0
  0
VISUALSTYLE
  5
3E
102
{ACAD_REACTORS
330
2A
102
}
102
{ACAD_XDICTIONARY
360
32E
102
}
330
2A
100
AcDbVisualStyle
  2
Shades of Gray
 70
    23
 71
     2
 72
     2
 73
     3
 90
        0
 40
0.6
 41
30.0
 62
     5
 63
     7
 74
     2
 91
        2
 64
     7
 65
     7
 75
     1
175
     1
 42
40.0
 92
        8
 66
     7
 43
1.0
 76
     1
 77
     6
 78
     2
 67
     7
 79
     3
170
     0
171
     0
290
     0
174
     0
 93
        1
 44
0.0
173
     0
291
     0
 45
0.0
1001
ACAD
1000
AcDbSavedByObjectVersion
1070
     0
  0
VISUALSTYLE
  5
3F
102
{ACAD_REACTORS
330
2A
102
}
102
{ACAD_XDICTIONARY
360
330
102
}
330
2A
100
AcDbVisualStyle
  2
Sketchy
 70
    24
 71
     1
 72
     2
 73
     2
 90
        0
 40
0.6
 41
30.0
 62
     5
 63
     7
 74
     2
 91
        2
 64
     7
 65
     7
 75
     1
175
     1
 42
40.0
 92
       11
 66
     7
 43
1.0
 76
     1
 77
     6
 78
     2
 67
     7
 79
     6
170
     0
171
     0
290
     0
174
     0
 93
        1
 44
0.0
173
     0
291
     0
 45
0.0
1001
ACAD
1000
AcDbSavedByObjectVersion
1070
     0
  0
VISUALSTYLE
  5
37
102
{ACAD_REACTORS
330
2A
102
}
102
{ACAD_XDICTIONARY
360
320
102
}
330
2A
100
AcDbVisualStyle
  2
Thicken
 70
    13
 71
     2
 72
     2
 73
     0
 90
        0
 40
0.6
 41
30.0
 62
     5
 63
     7
 74
     1
 91
        4
 64
     7
 65
   257
 75
     1
175
     1
 42
1.0
 92
       12
 66
     7
 43
1.0
 76
     1
 77
     6
 78
     2
 67
     7
 79
     5
170
     0
171
     0
290
     0
174
     0
 93
        1
 44
0.0
173
     0
291
     1
 45
0.0
1001
ACAD
1000
AcDbSavedByObjectVersion
1070
     0
  0
VISUALSTYLE
  5
30
102
{ACAD_REACTORS
330
2A
102
}
102
{ACAD_XDICTIONARY
360
312
102
}
330
2A
100
AcDbVisualStyle
  2
Wireframe
 70
     5
 71
     0
 72
     2
 73
     0
 90
        0
 40
0.6
 41
30.0
 62
     5
 63
     7
 74
     1
 91
        4
 64
     7
 65
   257
 75
     1
175
     1
 42
1.0
 92
        0
 66
   257
 43
1.0
 76
     1
 77
     6
 78
     2
 67
     7
 79
     3
170
     0
171
     0
290
     0
174
     0
 93
        1
 44
0.0
173
     0
291
     0
 45
0.0
1001
ACAD
1000
AcDbSavedByObjectVersion
1070
     0
  0
VISUALSTYLE
  5
40
102
{ACAD_REACTORS
330
2A
102
}
102
{ACAD_XDICTIONARY
360
332
102
}
330
2A
100
AcDbVisualStyle
  2
X-Ray
 70
    25
 71
     2
 72
     2
 73
     1
 90
        1
 40
0.5
 41
30.0
 62
     5
 63
     7
 74
     1
 91
        0
 64
     7
 65
   257
 75
     1
175
     1
 42
1.0
 92
        8
 66
     7
 43
1.0
 76
     1
 77
     6
 78
     2
 67
     7
 79
     3
170
     0
171
     0
290
     0
174
     0
 93
       13
 44
0.0
173
     0
291
     0
 45
0.0
1001
ACAD
1000
AcDbSavedByObjectVersion
1070
     0
  0
DICTIONARYVAR
  5
306
102
{ACAD_REACTORS
330
2FD
102
}
330
2FD
100
DictionaryVariables
280
     0
  1
1:1
  0
DICTIONARYVAR
  5
2FF
102
{ACAD_REACTORS
330
2FD
102
}
330
2FD
100
DictionaryVariables
280
     0
  1
Standard
  0
DICTIONARYVAR
  5
2FE
102
{ACAD_REACTORS
330
2FD
102
}
330
2FD
100
DictionaryVariables
280
     0
  1
Standard
  0
DICTIONARYVAR
  5
302
102
{ACAD_REACTORS
330
2FD
102
}
330
2FD
100
DictionaryVariables
280
     0
  1
2
  0
DICTIONARYVAR
  5
303
102
{ACAD_REACTORS
330
2FD
102
}
330
2FD
100
DictionaryVariables
280
     0
  1
1
  0
DICTIONARYVAR
  5
307
102
{ACAD_REACTORS
330
2FD
102
}
330
2FD
100
DictionaryVariables
280
     0
  1
1
  0
DICTIONARY
  5
33A
330
45
100
AcDbDictionary
280
     1
281
     1
  3
ACAD_XREC_ROUNDTRIP
360
33B
  0
DICTIONARY
  5
338
330
44
100
AcDbDictionary
280
     1
281
     1
  3
ACAD_XREC_ROUNDTRIP
360
339
  0
DICTIONARY
  5
33C
330
46
100
AcDbDictionary
280
     1
281
     1
  3
ACAD_XREC_ROUNDTRIP
360
33D
  0
DICTIONARY
  5
33F
330
6C
100
AcDbDictionary
280
     1
281
     1
  3
ACAD_XREC_ROUNDTRIP
360
340
  0
DICTIONARY
  5
310
330
2F
100
AcDbDictionary
280
     1
281
     1
  3
ACAD_XREC_ROUNDTRIP
360
311
  0
DICTIONARY
  5
316
330
32
100
AcDbDictionary
280
     1
281
     1
  3
ACAD_XREC_ROUNDTRIP
360
317
  0
DICTIONARY
  5
31E
330
36
100
AcDbDictionary
280
     1
281
     1
  3
ACAD_XREC_ROUNDTRIP
360
31F
  0
DICTIONARY
  5
326
330
3A
100
AcDbDictionary
280
     1
281
     1
  3
ACAD_XREC_ROUNDTRIP
360
327
  0
DICTIONARY
  5
31A
330
34
100
AcDbDictionary
280
     1
281
     1
  3
ACAD_XREC_ROUNDTRIP
360
31B
  0
DICTIONARY
  5
31C
330
35
100
AcDbDictionary
280
     1
281
     1
  3
ACAD_XREC_ROUNDTRIP
360
31D
  0
DICTIONARY
  5
32C
330
3D
100
AcDbDictionary
280
     1
281
     1
  3
ACAD_XREC_ROUNDTRIP
360
32D
  0
DICTIONARY
  5
324
330
39
100
AcDbDictionary
280
     1
281
     1
  3
ACAD_XREC_ROUNDTRIP
360
325
  0
DICTIONARY
  5
308
330
2B
100
AcDbDictionary
280
     1
281
     1
  3
ACAD_XREC_ROUNDTRIP
360
309
  0
DICTIONARY
  5
30A
330
2C
100
AcDbDictionary
280
     1
281
     1
  3
ACAD_XREC_ROUNDTRIP
360
30B
  0
DICTIONARY
  5
30C
330
2D
100
AcDbDictionary
280
     1
281
     1
  3
ACAD_XREC_ROUNDTRIP
360
30D
  0
DICTIONARY
  5
30E
330
2E
100
AcDbDictionary
280
     1
281
     1
  3
ACAD_XREC_ROUNDTRIP
360
30F
  0
DICTIONARY
  5
314
330
31
100
AcDbDictionary
280
     1
281
     1
  3
ACAD_XREC_ROUNDTRIP
360
315
  0
DICTIONARY
  5
328
330
3B
100
AcDbDictionary
280
     1
281
     1
  3
ACAD_XREC_ROUNDTRIP
360
329
  0
DICTIONARY
  5
322
330
38
100
AcDbDictionary
280
     1
281
     1
  3
ACAD_XREC_ROUNDTRIP
360
323
  0
DICTIONARY
  5
32A
330
3C
100
AcDbDictionary
280
     1
281
     1
  3
ACAD_XREC_ROUNDTRIP
360
32B
  0
DICTIONARY
  5
318
330
33
100
AcDbDictionary
280
     1
281
     1
  3
ACAD_XREC_ROUNDTRIP
360
319
  0
DICTIONARY
  5
336
330
42
100
AcDbDictionary
280
     1
281
     1
  3
ACAD_XREC_ROUNDTRIP
360
337
  0
DICTIONARY
  5
334
330
41
100
AcDbDictionary
280
     1
281
     1
  3
ACAD_XREC_ROUNDTRIP
360
335
  0
DICTIONARY
  5
32E
330
3E
100
AcDbDictionary
280
     1
281
     1
  3
ACAD_XREC_ROUNDTRIP
360
32F
  0
DICTIONARY
  5
330
330
3F
100
AcDbDictionary
280
     1
281
     1
  3
ACAD_XREC_ROUNDTRIP
360
331
  0
DICTIONARY
  5
320
330
37
100
AcDbDictionary
280
     1
281
     1
  3
ACAD_XREC_ROUNDTRIP
360
321
  0
DICTIONARY
  5
312
330
30
100
AcDbDictionary
280
     1
281
     1
  3
ACAD_XREC_ROUNDTRIP
360
313
  0
DICTIONARY
  5
332
330
40
100
AcDbDictionary
280
     1
281
     1
  3
ACAD_XREC_ROUNDTRIP
360
333
  0
XRECORD
  5
33B
102
{ACAD_REACTORS
330
33A
102
}
330
33A
100
AcDbXrecord
280
     1
102
MATERIAL
148
0.0
149
0.0
149
0.0
 93
        0
 94
      127
282
     0
 72
     1
 77
     1
171
     1
175
     1
179
     1
273
     0
  0
XRECORD
  5
339
102
{ACAD_REACTORS
330
338
102
}
330
338
100
AcDbXrecord
280
     1
102
MATERIAL
148
0.0
149
0.0
149
0.0
 93
        0
 94
      127
282
     0
 72
     1
 77
     1
171
     1
175
     1
179
     1
273
     0
  0
XRECORD
  5
33D
102
{ACAD_REACTORS
330
33C
102
}
330
33C
100
AcDbXrecord
280
     1
102
MATERIAL
148
0.0
149
0.0
149
0.0
 93
        0
 94
      127
282
     0
 72
     1
 77
     1
171
     1
175
     1
179
     1
273
     0
  0
XRECORD
  5
340
102
{ACAD_REACTORS
330
33F
102
}
330
33F
100
AcDbXrecord
280
     1
102
ACAD_ROUNDTRIP_2010_MLEADER_STYLE
  0
XRECORD
  5
311
102
{ACAD_REACTORS
330
310
102
}
330
310
100
AcDbXrecord
280
     1
102
RTVSPropertyOp0
 70
     1
102
RTVSPropertyOp1
 70
     1
102
RTVSPropertyOp2
 70
     1
102
RTVSPropertyOp3
 70
     1
102
RTVSPropertyOp4
 70
     1
102
RTVSPropertyOp5
 70
     1
102
RTVSPropertyOp6
 70
     1
102
RTVSPropertyOp7
 70
     1
102
RTVSPropertyOp8
 70
     1
102
RTVSPropertyOp9
 70
     1
102
RTVSPropertyOp10
 70
     1
102
RTVSPropertyOp11
 70
     1
102
RTVSPropertyOp12
 70
     1
102
RTVSPropertyOp13
 70
     1
102
RTVSPropertyOp14
 70
     1
102
RTVSPropertyOp15
 70
     1
102
RTVSPropertyOp16
 70
     1
102
RTVSPropertyOp17
 70
     1
102
RTVSPropertyOp18
 70
     1
102
RTVSPropertyOp19
 70
     1
102
RTVSPropertyOp20
 70
     1
102
RTVSPropertyOp21
 70
     1
102
RTVSPropertyOp22
 70
     1
102
RTVSPropertyOp23
 70
     1
102
RTVSPropertyOp24
 70
     1
102
RTVSPropertyOp25
 70
     1
102
RTVSPropertyOp26
 70
     1
102
RTVSPropertyOp27
 70
     1
102
RTVSPropertyOp28
 70
     1
102
RTVSPropertyOp29
 70
     1
102
RTVSPropertyOp30
 70
     1
102
RTVSPropertyOp31
 70
     1
102
RTVSPropertyOp32
 70
     1
102
RTVSPropertyOp33
 70
     1
102
RTVSPropertyOp34
 70
     1
102
RTVSPropertyOp35
 70
     1
102
RTVSPropertyOp36
 70
     1
102
RTVSPropertyOp37
 70
     1
102
RTVSPropertyOp38
 70
     1
102
RTVSPropertyOp39
 70
     1
102
RTVSPropertyOp40
 70
     1
102
RTVSPropertyOp41
 70
     1
102
RTVSPropertyOp42
 70
     1
102
RTVSPropertyOp43
 70
     1
102
RTVSPropertyOp44
 70
     1
102
RTVSPropertyOp45
 70
     1
102
RTVSPropertyOp46
 70
     1
102
RTVSPropertyOp47
 70
     1
102
RTVSPropertyOp48
 70
     1
102
RTVSPropertyOp49
 70
     1
102
RTVSPropertyOp50
 70
     1
102
RTVSPropertyOp51
 70
     0
102
RTVSPropertyOp52
 70
     0
102
RTVSPropertyOp53
 70
     1
102
RTVSPropertyOp54
 70
     1
102
RTVSPropertyOp55
 70
     1
102
RTVSPropertyOp56
 70
     1
102
RTVSPropertyOp57
 70
     1
102
RTVSPost2010Prop28
280
     1
102
RTVSPost2010PropOp28
 70
     1
102
RTVSPost2010Prop29
280
     1
102
RTVSPost2010PropOp29
 70
     1
102
RTVSPost2010Prop30
280
     0
102
RTVSPost2010PropOp30
 70
     1
102
RTVSPost2010Prop31
280
     0
102
RTVSPost2010PropOp31
 70
     1
102
RTVSPost2010Prop32
280
     0
102
RTVSPost2010PropOp32
 70
     1
102
RTVSPost2010Prop33
280
     0
102
RTVSPost2010PropOp33
 70
     1
102
RTVSPost2010Prop34
280
     0
102
RTVSPost2010PropOp34
 70
     1
102
RTVSPost2010Prop35
280
     0
102
RTVSPost2010PropOp35
 70
     1
102
RTVSPost2010Prop36
280
     0
102
RTVSPost2010PropOp36
 70
     1
102
RTVSPost2010Prop37
 90
       50
102
RTVSPost2010PropOp37
 70
     1
102
RTVSPost2010Prop38
140
0.0
102
RTVSPost2010PropOp38
 70
     1
102
RTVSPost2010Prop39
140
1.0
102
RTVSPost2010PropOp39
 70
     1
102
RTVSPost2010Prop40
 90
        0
102
RTVSPost2010PropOp40
 70
     1
102
RTVSPost2010Prop41ColorIndex
 90
       18
102
RTVSPost2010Prop41ColorRGB
 90
        0
102
RTVSPost2010PropOp41
 70
     1
102
RTVSPost2010Prop42
 90
       50
102
RTVSPost2010PropOp42
 70
     1
102
RTVSPost2010Prop43
 90
        3
102
RTVSPost2010PropOp43
 70
     1
102
RTVSPost2010Prop44ColorIndex
 90
        5
102
RTVSPost2010Prop44ColorRGB
 90
      255
102
RTVSPost2010PropOp44
 70
     1
102
RTVSPost2010Prop45
280
     0
102
RTVSPost2010PropOp45
 70
     1
102
RTVSPost2010Prop46
 90
       50
102
RTVSPost2010PropOp46
 70
     1
102
RTVSPost2010Prop47
 90
       50
102
RTVSPost2010PropOp47
 70
     1
102
RTVSPost2010Prop48
 90
       50
102
RTVSPost2010PropOp48
 70
     1
102
RTVSPost2010Prop49
280
     0
102
RTVSPost2010PropOp49
 70
     1
102
RTVSPost2010Prop50
 90
       50
102
RTVSPost2010PropOp50
 70
     1
102
RTVSPost2010Prop51ColorIndex
 90
      256
102
RTVSPost2010Prop51ColorRGB
 90
-16777216
102
RTVSPost2010PropOp51
 70
     0
102
RTVSPost2010Prop52
140
1.0
102
RTVSPost2010PropOp52
 70
     0
102
RTVSPost2010Prop53
 90
        2
102
RTVSPost2010PropOp53
 70
     1
102
RTVSPost2010Prop54
  1
strokes_ogs.tif
102
RTVSPost2010PropOp54
 70
     1
102
RTVSPost2010Prop55
280
     0
102
RTVSPost2010PropOp55
 70
     1
102
RTVSPost2010Prop56
140
1.0
102
RTVSPost2010PropOp56
 70
     1
102
RTVSPost2010Prop57
140
1.0
102
RTVSPost2010PropOp57
 70
     1
  0
XRECORD
  5
317
102
{ACAD_REACTORS
330
316
102
}
330
316
100
AcDbXrecord
280
     1
102
RTVSPropertyOp0
 70
     1
102
RTVSPropertyOp1
 70
     1
102
RTVSPropertyOp2
 70
     1
102
RTVSPropertyOp3
 70
     1
102
RTVSPropertyOp4
 70
     1
102
RTVSPropertyOp5
 70
     1
102
RTVSPropertyOp6
 70
     1
102
RTVSPropertyOp7
 70
     1
102
RTVSPropertyOp8
 70
     1
102
RTVSPropertyOp9
 70
     1
102
RTVSPropertyOp10
 70
     1
102
RTVSPropertyOp11
 70
     1
102
RTVSPropertyOp12
 70
     1
102
RTVSPropertyOp13
 70
     1
102
RTVSPropertyOp14
 70
     1
102
RTVSPropertyOp15
 70
     1
102
RTVSPropertyOp16
 70
     1
102
RTVSPropertyOp17
 70
     1
102
RTVSPropertyOp18
 70
     1
102
RTVSPropertyOp19
 70
     1
102
RTVSPropertyOp20
 70
     1
102
RTVSPropertyOp21
 70
     1
102
RTVSPropertyOp22
 70
     1
102
RTVSPropertyOp23
 70
     1
102
RTVSPropertyOp24
 70
     1
102
RTVSPropertyOp25
 70
     1
102
RTVSPropertyOp26
 70
     1
102
RTVSPropertyOp27
 70
     1
102
RTVSPropertyOp28
 70
     1
102
RTVSPropertyOp29
 70
     1
102
RTVSPropertyOp30
 70
     1
102
RTVSPropertyOp31
 70
     1
102
RTVSPropertyOp32
 70
     1
102
RTVSPropertyOp33
 70
     1
102
RTVSPropertyOp34
 70
     1
102
RTVSPropertyOp35
 70
     1
102
RTVSPropertyOp36
 70
     1
102
RTVSPropertyOp37
 70
     1
102
RTVSPropertyOp38
 70
     1
102
RTVSPropertyOp39
 70
     1
102
RTVSPropertyOp40
 70
     1
102
RTVSPropertyOp41
 70
     1
102
RTVSPropertyOp42
 70
     1
102
RTVSPropertyOp43
 70
     1
102
RTVSPropertyOp44
 70
     1
102
RTVSPropertyOp45
 70
     1
102
RTVSPropertyOp46
 70
     1
102
RTVSPropertyOp47
 70
     1
102
RTVSPropertyOp48
 70
     1
102
RTVSPropertyOp49
 70
     1
102
RTVSPropertyOp50
 70
     1
102
RTVSPropertyOp51
 70
     0
102
RTVSPropertyOp52
 70
     0
102
RTVSPropertyOp53
 70
     1
102
RTVSPropertyOp54
 70
     1
102
RTVSPropertyOp55
 70
     1
102
RTVSPropertyOp56
 70
     1
102
RTVSPropertyOp57
 70
     1
102
RTVSPost2010Prop28
280
     0
102
RTVSPost2010PropOp28
 70
     1
102
RTVSPost2010Prop29
280
     1
102
RTVSPost2010PropOp29
 70
     1
102
RTVSPost2010Prop30
280
     1
102
RTVSPost2010PropOp30
 70
     1
102
RTVSPost2010Prop31
280
     0
102
RTVSPost2010PropOp31
 70
     1
102
RTVSPost2010Prop32
280
     0
102
RTVSPost2010PropOp32
 70
     1
102
RTVSPost2010Prop33
280
     0
102
RTVSPost2010PropOp33
 70
     1
102
RTVSPost2010Prop34
280
     0
102
RTVSPost2010PropOp34
 70
     1
102
RTVSPost2010Prop35
280
     0
102
RTVSPost2010PropOp35
 70
     1
102
RTVSPost2010Prop36
280
     0
102
RTVSPost2010PropOp36
 70
     1
102
RTVSPost2010Prop37
 90
       50
102
RTVSPost2010PropOp37
 70
     1
102
RTVSPost2010Prop38
140
0.0
102
RTVSPost2010PropOp38
 70
     1
102
RTVSPost2010Prop39
140
1.0
102
RTVSPost2010PropOp39
 70
     1
102
RTVSPost2010Prop40
 90
        0
102
RTVSPost2010PropOp40
 70
     1
102
RTVSPost2010Prop41ColorIndex
 90
       18
102
RTVSPost2010Prop41ColorRGB
 90
        0
102
RTVSPost2010PropOp41
 70
     1
102
RTVSPost2010Prop42
 90
       50
102
RTVSPost2010PropOp42
 70
     1
102
RTVSPost2010Prop43
 90
        3
102
RTVSPost2010PropOp43
 70
     1
102
RTVSPost2010Prop44ColorIndex
 90
        5
102
RTVSPost2010Prop44ColorRGB
 90
      255
102
RTVSPost2010PropOp44
 70
     1
102
RTVSPost2010Prop45
280
     0
102
RTVSPost2010PropOp45
 70
     1
102
RTVSPost2010Prop46
 90
       50
102
RTVSPost2010PropOp46
 70
     1
102
RTVSPost2010Prop47
 90
       50
102
RTVSPost2010PropOp47
 70
     1
102
RTVSPost2010Prop48
 90
       50
102
RTVSPost2010PropOp48
 70
     1
102
RTVSPost2010Prop49
280
     0
102
RTVSPost2010PropOp49
 70
     1
102
RTVSPost2010Prop50
 90
       50
102
RTVSPost2010PropOp50
 70
     1
102
RTVSPost2010Prop51ColorIndex
 90
      256
102
RTVSPost2010Prop51ColorRGB
 90
-16777216
102
RTVSPost2010PropOp51
 70
     0
102
RTVSPost2010Prop52
140
1.0
102
RTVSPost2010PropOp52
 70
     0
102
RTVSPost2010Prop53
 90
        2
102
RTVSPost2010PropOp53
 70
     1
102
RTVSPost2010Prop54
  1
strokes_ogs.tif
102
RTVSPost2010PropOp54
 70
     1
102
RTVSPost2010Prop55
280
     0
102
RTVSPost2010PropOp55
 70
     1
102
RTVSPost2010Prop56
140
1.0
102
RTVSPost2010PropOp56
 70
     1
102
RTVSPost2010Prop57
140
1.0
102
RTVSPost2010PropOp57
 70
     1
  0
XRECORD
  5
31F
102
{ACAD_REACTORS
330
31E
102
}
330
31E
100
AcDbXrecord
280
     1
102
RTVSPropertyOp0
 70
     1
102
RTVSPropertyOp1
 70
     1
102
RTVSPropertyOp2
 70
     1
102
RTVSPropertyOp3
 70
     1
102
RTVSPropertyOp4
 70
     1
102
RTVSPropertyOp5
 70
     1
102
RTVSPropertyOp6
 70
     1
102
RTVSPropertyOp7
 70
     1
102
RTVSPropertyOp8
 70
     1
102
RTVSPropertyOp9
 70
     1
102
RTVSPropertyOp10
 70
     1
102
RTVSPropertyOp11
 70
     1
102
RTVSPropertyOp12
 70
     1
102
RTVSPropertyOp13
 70
     1
102
RTVSPropertyOp14
 70
     1
102
RTVSPropertyOp15
 70
     1
102
RTVSPropertyOp16
 70
     1
102
RTVSPropertyOp17
 70
     1
102
RTVSPropertyOp18
 70
     1
102
RTVSPropertyOp19
 70
     1
102
RTVSPropertyOp20
 70
     1
102
RTVSPropertyOp21
 70
     1
102
RTVSPropertyOp22
 70
     1
102
RTVSPropertyOp23
 70
     1
102
RTVSPropertyOp24
 70
     1
102
RTVSPropertyOp25
 70
     1
102
RTVSPropertyOp26
 70
     1
102
RTVSPropertyOp27
 70
     1
102
RTVSPropertyOp28
 70
     1
102
RTVSPropertyOp29
 70
     1
102
RTVSPropertyOp30
 70
     1
102
RTVSPropertyOp31
 70
     1
102
RTVSPropertyOp32
 70
     1
102
RTVSPropertyOp33
 70
     1
102
RTVSPropertyOp34
 70
     1
102
RTVSPropertyOp35
 70
     1
102
RTVSPropertyOp36
 70
     1
102
RTVSPropertyOp37
 70
     1
102
RTVSPropertyOp38
 70
     1
102
RTVSPropertyOp39
 70
     1
102
RTVSPropertyOp40
 70
     1
102
RTVSPropertyOp41
 70
     1
102
RTVSPropertyOp42
 70
     1
102
RTVSPropertyOp43
 70
     1
102
RTVSPropertyOp44
 70
     1
102
RTVSPropertyOp45
 70
     1
102
RTVSPropertyOp46
 70
     1
102
RTVSPropertyOp47
 70
     1
102
RTVSPropertyOp48
 70
     1
102
RTVSPropertyOp49
 70
     1
102
RTVSPropertyOp50
 70
     1
102
RTVSPropertyOp51
 70
     0
102
RTVSPropertyOp52
 70
     0
102
RTVSPropertyOp53
 70
     1
102
RTVSPropertyOp54
 70
     1
102
RTVSPropertyOp55
 70
     1
102
RTVSPropertyOp56
 70
     1
102
RTVSPropertyOp57
 70
     1
102
RTVSPost2010Prop28
280
     0
102
RTVSPost2010PropOp28
 70
     1
102
RTVSPost2010Prop29
280
     1
102
RTVSPost2010PropOp29
 70
     1
102
RTVSPost2010Prop30
280
     1
102
RTVSPost2010PropOp30
 70
     1
102
RTVSPost2010Prop31
280
     0
102
RTVSPost2010PropOp31
 70
     1
102
RTVSPost2010Prop32
280
     0
102
RTVSPost2010PropOp32
 70
     1
102
RTVSPost2010Prop33
280
     0
102
RTVSPost2010PropOp33
 70
     1
102
RTVSPost2010Prop34
280
     0
102
RTVSPost2010PropOp34
 70
     1
102
RTVSPost2010Prop35
280
     0
102
RTVSPost2010PropOp35
 70
     1
102
RTVSPost2010Prop36
280
     0
102
RTVSPost2010PropOp36
 70
     1
102
RTVSPost2010Prop37
 90
       50
102
RTVSPost2010PropOp37
 70
     1
102
RTVSPost2010Prop38
140
0.0
102
RTVSPost2010PropOp38
 70
     1
102
RTVSPost2010Prop39
140
1.0
102
RTVSPost2010PropOp39
 70
     1
102
RTVSPost2010Prop40
 90
        0
102
RTVSPost2010PropOp40
 70
     1
102
RTVSPost2010Prop41ColorIndex
 90
       18
102
RTVSPost2010Prop41ColorRGB
 90
        0
102
RTVSPost2010PropOp41
 70
     1
102
RTVSPost2010Prop42
 90
       50
102
RTVSPost2010PropOp42
 70
     1
102
RTVSPost2010Prop43
 90
        3
102
RTVSPost2010PropOp43
 70
     1
102
RTVSPost2010Prop44ColorIndex
 90
        5
102
RTVSPost2010Prop44ColorRGB
 90
      255
102
RTVSPost2010PropOp44
 70
     1
102
RTVSPost2010Prop45
280
     0
102
RTVSPost2010PropOp45
 70
     1
102
RTVSPost2010Prop46
 90
       50
102
RTVSPost2010PropOp46
 70
     1
102
RTVSPost2010Prop47
 90
       50
102
RTVSPost2010PropOp47
 70
     1
102
RTVSPost2010Prop48
 90
       50
102
RTVSPost2010PropOp48
 70
     1
102
RTVSPost2010Prop49
280
     0
102
RTVSPost2010PropOp49
 70
     1
102
RTVSPost2010Prop50
 90
       50
102
RTVSPost2010PropOp50
 70
     1
102
RTVSPost2010Prop51ColorIndex
 90
      256
102
RTVSPost2010Prop51ColorRGB
 90
-16777216
102
RTVSPost2010PropOp51
 70
     0
102
RTVSPost2010Prop52
140
1.0
102
RTVSPost2010PropOp52
 70
     0
102
RTVSPost2010Prop53
 90
        2
102
RTVSPost2010PropOp53
 70
     1
102
RTVSPost2010Prop54
  1
strokes_ogs.tif
102
RTVSPost2010PropOp54
 70
     1
102
RTVSPost2010Prop55
280
     0
102
RTVSPost2010PropOp55
 70
     1
102
RTVSPost2010Prop56
140
1.0
102
RTVSPost2010PropOp56
 70
     1
102
RTVSPost2010Prop57
140
1.0
102
RTVSPost2010PropOp57
 70
     1
  0
XRECORD
  5
327
102
{ACAD_REACTORS
330
326
102
}
330
326
100
AcDbXrecord
280
     1
102
RTVSPropertyOp0
 70
     1
102
RTVSPropertyOp1
 70
     1
102
RTVSPropertyOp2
 70
     1
102
RTVSPropertyOp3
 70
     1
102
RTVSPropertyOp4
 70
     1
102
RTVSPropertyOp5
 70
     1
102
RTVSPropertyOp6
 70
     1
102
RTVSPropertyOp7
 70
     1
102
RTVSPropertyOp8
 70
     1
102
RTVSPropertyOp9
 70
     1
102
RTVSPropertyOp10
 70
     1
102
RTVSPropertyOp11
 70
     1
102
RTVSPropertyOp12
 70
     1
102
RTVSPropertyOp13
 70
     1
102
RTVSPropertyOp14
 70
     1
102
RTVSPropertyOp15
 70
     1
102
RTVSPropertyOp16
 70
     1
102
RTVSPropertyOp17
 70
     1
102
RTVSPropertyOp18
 70
     1
102
RTVSPropertyOp19
 70
     1
102
RTVSPropertyOp20
 70
     1
102
RTVSPropertyOp21
 70
     1
102
RTVSPropertyOp22
 70
     1
102
RTVSPropertyOp23
 70
     1
102
RTVSPropertyOp24
 70
     1
102
RTVSPropertyOp25
 70
     1
102
RTVSPropertyOp26
 70
     1
102
RTVSPropertyOp27
 70
     1
102
RTVSPropertyOp28
 70
     1
102
RTVSPropertyOp29
 70
     1
102
RTVSPropertyOp30
 70
     1
102
RTVSPropertyOp31
 70
     1
102
RTVSPropertyOp32
 70
     1
102
RTVSPropertyOp33
 70
     1
102
RTVSPropertyOp34
 70
     1
102
RTVSPropertyOp35
 70
     1
102
RTVSPropertyOp36
 70
     1
102
RTVSPropertyOp37
 70
     1
102
RTVSPropertyOp38
 70
     1
102
RTVSPropertyOp39
 70
     1
102
RTVSPropertyOp40
 70
     1
102
RTVSPropertyOp41
 70
     1
102
RTVSPropertyOp42
 70
     1
102
RTVSPropertyOp43
 70
     1
102
RTVSPropertyOp44
 70
     1
102
RTVSPropertyOp45
 70
     1
102
RTVSPropertyOp46
 70
     1
102
RTVSPropertyOp47
 70
     1
102
RTVSPropertyOp48
 70
     1
102
RTVSPropertyOp49
 70
     1
102
RTVSPropertyOp50
 70
     1
102
RTVSPropertyOp51
 70
     0
102
RTVSPropertyOp52
 70
     0
102
RTVSPropertyOp53
 70
     1
102
RTVSPropertyOp54
 70
     1
102
RTVSPropertyOp55
 70
     1
102
RTVSPropertyOp56
 70
     1
102
RTVSPropertyOp57
 70
     1
102
RTVSPost2010Prop28
280
     0
102
RTVSPost2010PropOp28
 70
     1
102
RTVSPost2010Prop29
280
     1
102
RTVSPost2010PropOp29
 70
     1
102
RTVSPost2010Prop30
280
     1
102
RTVSPost2010PropOp30
 70
     1
102
RTVSPost2010Prop31
280
     0
102
RTVSPost2010PropOp31
 70
     1
102
RTVSPost2010Prop32
280
     0
102
RTVSPost2010PropOp32
 70
     1
102
RTVSPost2010Prop33
280
     0
102
RTVSPost2010PropOp33
 70
     1
102
RTVSPost2010Prop34
280
     0
102
RTVSPost2010PropOp34
 70
     1
102
RTVSPost2010Prop35
280
     0
102
RTVSPost2010PropOp35
 70
     1
102
RTVSPost2010Prop36
280
     0
102
RTVSPost2010PropOp36
 70
     1
102
RTVSPost2010Prop37
 90
       50
102
RTVSPost2010PropOp37
 70
     1
102
RTVSPost2010Prop38
140
0.0
102
RTVSPost2010PropOp38
 70
     1
102
RTVSPost2010Prop39
140
1.0
102
RTVSPost2010PropOp39
 70
     1
102
RTVSPost2010Prop40
 90
        0
102
RTVSPost2010PropOp40
 70
     1
102
RTVSPost2010Prop41ColorIndex
 90
       18
102
RTVSPost2010Prop41ColorRGB
 90
        0
102
RTVSPost2010PropOp41
 70
     1
102
RTVSPost2010Prop42
 90
       50
102
RTVSPost2010PropOp42
 70
     1
102
RTVSPost2010Prop43
 90
        3
102
RTVSPost2010PropOp43
 70
     1
102
RTVSPost2010Prop44ColorIndex
 90
        5
102
RTVSPost2010Prop44ColorRGB
 90
      255
102
RTVSPost2010PropOp44
 70
     1
102
RTVSPost2010Prop45
280
     0
102
RTVSPost2010PropOp45
 70
     1
102
RTVSPost2010Prop46
 90
       50
102
RTVSPost2010PropOp46
 70
     1
102
RTVSPost2010Prop47
 90
       50
102
RTVSPost2010PropOp47
 70
     1
102
RTVSPost2010Prop48
 90
       50
102
RTVSPost2010PropOp48
 70
     1
102
RTVSPost2010Prop49
280
     0
102
RTVSPost2010PropOp49
 70
     1
102
RTVSPost2010Prop50
 90
       50
102
RTVSPost2010PropOp50
 70
     1
102
RTVSPost2010Prop51ColorIndex
 90
      256
102
RTVSPost2010Prop51ColorRGB
 90
-16777216
102
RTVSPost2010PropOp51
 70
     0
102
RTVSPost2010Prop52
140
1.0
102
RTVSPost2010PropOp52
 70
     0
102
RTVSPost2010Prop53
 90
        2
102
RTVSPost2010PropOp53
 70
     1
102
RTVSPost2010Prop54
  1
strokes_ogs.tif
102
RTVSPost2010PropOp54
 70
     1
102
RTVSPost2010Prop55
280
     0
102
RTVSPost2010PropOp55
 70
     1
102
RTVSPost2010Prop56
140
1.0
102
RTVSPost2010PropOp56
 70
     1
102
RTVSPost2010Prop57
140
1.0
102
RTVSPost2010PropOp57
 70
     1
  0
XRECORD
  5
31B
102
{ACAD_REACTORS
330
31A
102
}
330
31A
100
AcDbXrecord
280
     1
102
RTVSPropertyOp0
 70
     1
102
RTVSPropertyOp1
 70
     1
102
RTVSPropertyOp2
 70
     1
102
RTVSPropertyOp3
 70
     1
102
RTVSPropertyOp4
 70
     1
102
RTVSPropertyOp5
 70
     1
102
RTVSPropertyOp6
 70
     1
102
RTVSPropertyOp7
 70
     1
102
RTVSPropertyOp8
 70
     1
102
RTVSPropertyOp9
 70
     1
102
RTVSPropertyOp10
 70
     1
102
RTVSPropertyOp11
 70
     1
102
RTVSPropertyOp12
 70
     1
102
RTVSPropertyOp13
 70
     1
102
RTVSPropertyOp14
 70
     1
102
RTVSPropertyOp15
 70
     1
102
RTVSPropertyOp16
 70
     1
102
RTVSPropertyOp17
 70
     1
102
RTVSPropertyOp18
 70
     1
102
RTVSPropertyOp19
 70
     1
102
RTVSPropertyOp20
 70
     1
102
RTVSPropertyOp21
 70
     1
102
RTVSPropertyOp22
 70
     1
102
RTVSPropertyOp23
 70
     1
102
RTVSPropertyOp24
 70
     1
102
RTVSPropertyOp25
 70
     1
102
RTVSPropertyOp26
 70
     1
102
RTVSPropertyOp27
 70
     1
102
RTVSPropertyOp28
 70
     1
102
RTVSPropertyOp29
 70
     1
102
RTVSPropertyOp30
 70
     1
102
RTVSPropertyOp31
 70
     1
102
RTVSPropertyOp32
 70
     1
102
RTVSPropertyOp33
 70
     1
102
RTVSPropertyOp34
 70
     1
102
RTVSPropertyOp35
 70
     1
102
RTVSPropertyOp36
 70
     1
102
RTVSPropertyOp37
 70
     1
102
RTVSPropertyOp38
 70
     1
102
RTVSPropertyOp39
 70
     1
102
RTVSPropertyOp40
 70
     1
102
RTVSPropertyOp41
 70
     1
102
RTVSPropertyOp42
 70
     1
102
RTVSPropertyOp43
 70
     1
102
RTVSPropertyOp44
 70
     1
102
RTVSPropertyOp45
 70
     1
102
RTVSPropertyOp46
 70
     1
102
RTVSPropertyOp47
 70
     1
102
RTVSPropertyOp48
 70
     1
102
RTVSPropertyOp49
 70
     1
102
RTVSPropertyOp50
 70
     1
102
RTVSPropertyOp51
 70
     0
102
RTVSPropertyOp52
 70
     0
102
RTVSPropertyOp53
 70
     1
102
RTVSPropertyOp54
 70
     1
102
RTVSPropertyOp55
 70
     1
102
RTVSPropertyOp56
 70
     1
102
RTVSPropertyOp57
 70
     1
102
RTVSPost2010Prop28
280
     0
102
RTVSPost2010PropOp28
 70
     1
102
RTVSPost2010Prop29
280
     1
102
RTVSPost2010PropOp29
 70
     1
102
RTVSPost2010Prop30
280
     1
102
RTVSPost2010PropOp30
 70
     1
102
RTVSPost2010Prop31
280
     0
102
RTVSPost2010PropOp31
 70
     1
102
RTVSPost2010Prop32
280
     0
102
RTVSPost2010PropOp32
 70
     1
102
RTVSPost2010Prop33
280
     0
102
RTVSPost2010PropOp33
 70
     1
102
RTVSPost2010Prop34
280
     0
102
RTVSPost2010PropOp34
 70
     1
102
RTVSPost2010Prop35
280
     0
102
RTVSPost2010PropOp35
 70
     1
102
RTVSPost2010Prop36
280
     0
102
RTVSPost2010PropOp36
 70
     1
102
RTVSPost2010Prop37
 90
       50
102
RTVSPost2010PropOp37
 70
     1
102
RTVSPost2010Prop38
140
0.0
102
RTVSPost2010PropOp38
 70
     1
102
RTVSPost2010Prop39
140
1.0
102
RTVSPost2010PropOp39
 70
     1
102
RTVSPost2010Prop40
 90
        0
102
RTVSPost2010PropOp40
 70
     1
102
RTVSPost2010Prop41ColorIndex
 90
       18
102
RTVSPost2010Prop41ColorRGB
 90
        0
102
RTVSPost2010PropOp41
 70
     1
102
RTVSPost2010Prop42
 90
       50
102
RTVSPost2010PropOp42
 70
     1
102
RTVSPost2010Prop43
 90
        3
102
RTVSPost2010PropOp43
 70
     1
102
RTVSPost2010Prop44ColorIndex
 90
        5
102
RTVSPost2010Prop44ColorRGB
 90
      255
102
RTVSPost2010PropOp44
 70
     1
102
RTVSPost2010Prop45
280
     0
102
RTVSPost2010PropOp45
 70
     1
102
RTVSPost2010Prop46
 90
       50
102
RTVSPost2010PropOp46
 70
     1
102
RTVSPost2010Prop47
 90
       50
102
RTVSPost2010PropOp47
 70
     1
102
RTVSPost2010Prop48
 90
       50
102
RTVSPost2010PropOp48
 70
     1
102
RTVSPost2010Prop49
280
     0
102
RTVSPost2010PropOp49
 70
     1
102
RTVSPost2010Prop50
 90
       50
102
RTVSPost2010PropOp50
 70
     1
102
RTVSPost2010Prop51ColorIndex
 90
      256
102
RTVSPost2010Prop51ColorRGB
 90
-16777216
102
RTVSPost2010PropOp51
 70
     0
102
RTVSPost2010Prop52
140
1.0
102
RTVSPost2010PropOp52
 70
     0
102
RTVSPost2010Prop53
 90
        2
102
RTVSPost2010PropOp53
 70
     1
102
RTVSPost2010Prop54
  1
strokes_ogs.tif
102
RTVSPost2010PropOp54
 70
     1
102
RTVSPost2010Prop55
280
     0
102
RTVSPost2010PropOp55
 70
     1
102
RTVSPost2010Prop56
140
1.0
102
RTVSPost2010PropOp56
 70
     1
102
RTVSPost2010Prop57
140
1.0
102
RTVSPost2010PropOp57
 70
     1
  0
XRECORD
  5
31D
102
{ACAD_REACTORS
330
31C
102
}
330
31C
100
AcDbXrecord
280
     1
102
RTVSPropertyOp0
 70
     1
102
RTVSPropertyOp1
 70
     1
102
RTVSPropertyOp2
 70
     1
102
RTVSPropertyOp3
 70
     1
102
RTVSPropertyOp4
 70
     1
102
RTVSPropertyOp5
 70
     1
102
RTVSPropertyOp6
 70
     1
102
RTVSPropertyOp7
 70
     1
102
RTVSPropertyOp8
 70
     1
102
RTVSPropertyOp9
 70
     1
102
RTVSPropertyOp10
 70
     1
102
RTVSPropertyOp11
 70
     1
102
RTVSPropertyOp12
 70
     1
102
RTVSPropertyOp13
 70
     1
102
RTVSPropertyOp14
 70
     1
102
RTVSPropertyOp15
 70
     1
102
RTVSPropertyOp16
 70
     1
102
RTVSPropertyOp17
 70
     1
102
RTVSPropertyOp18
 70
     1
102
RTVSPropertyOp19
 70
     1
102
RTVSPropertyOp20
 70
     1
102
RTVSPropertyOp21
 70
     1
102
RTVSPropertyOp22
 70
     1
102
RTVSPropertyOp23
 70
     1
102
RTVSPropertyOp24
 70
     1
102
RTVSPropertyOp25
 70
     1
102
RTVSPropertyOp26
 70
     1
102
RTVSPropertyOp27
 70
     1
102
RTVSPropertyOp28
 70
     1
102
RTVSPropertyOp29
 70
     1
102
RTVSPropertyOp30
 70
     1
102
RTVSPropertyOp31
 70
     1
102
RTVSPropertyOp32
 70
     1
102
RTVSPropertyOp33
 70
     1
102
RTVSPropertyOp34
 70
     1
102
RTVSPropertyOp35
 70
     1
102
RTVSPropertyOp36
 70
     1
102
RTVSPropertyOp37
 70
     1
102
RTVSPropertyOp38
 70
     1
102
RTVSPropertyOp39
 70
     1
102
RTVSPropertyOp40
 70
     1
102
RTVSPropertyOp41
 70
     1
102
RTVSPropertyOp42
 70
     1
102
RTVSPropertyOp43
 70
     1
102
RTVSPropertyOp44
 70
     1
102
RTVSPropertyOp45
 70
     1
102
RTVSPropertyOp46
 70
     1
102
RTVSPropertyOp47
 70
     1
102
RTVSPropertyOp48
 70
     1
102
RTVSPropertyOp49
 70
     1
102
RTVSPropertyOp50
 70
     1
102
RTVSPropertyOp51
 70
     0
102
RTVSPropertyOp52
 70
     0
102
RTVSPropertyOp53
 70
     1
102
RTVSPropertyOp54
 70
     1
102
RTVSPropertyOp55
 70
     1
102
RTVSPropertyOp56
 70
     1
102
RTVSPropertyOp57
 70
     1
102
RTVSPost2010Prop28
280
     0
102
RTVSPost2010PropOp28
 70
     1
102
RTVSPost2010Prop29
280
     1
102
RTVSPost2010PropOp29
 70
     1
102
RTVSPost2010Prop30
280
     1
102
RTVSPost2010PropOp30
 70
     1
102
RTVSPost2010Prop31
280
     0
102
RTVSPost2010PropOp31
 70
     1
102
RTVSPost2010Prop32
280
     0
102
RTVSPost2010PropOp32
 70
     1
102
RTVSPost2010Prop33
280
     0
102
RTVSPost2010PropOp33
 70
     1
102
RTVSPost2010Prop34
280
     0
102
RTVSPost2010PropOp34
 70
     1
102
RTVSPost2010Prop35
280
     0
102
RTVSPost2010PropOp35
 70
     1
102
RTVSPost2010Prop36
280
     0
102
RTVSPost2010PropOp36
 70
     1
102
RTVSPost2010Prop37
 90
       50
102
RTVSPost2010PropOp37
 70
     1
102
RTVSPost2010Prop38
140
0.0
102
RTVSPost2010PropOp38
 70
     1
102
RTVSPost2010Prop39
140
1.0
102
RTVSPost2010PropOp39
 70
     1
102
RTVSPost2010Prop40
 90
        0
102
RTVSPost2010PropOp40
 70
     1
102
RTVSPost2010Prop41ColorIndex
 90
       18
102
RTVSPost2010Prop41ColorRGB
 90
        0
102
RTVSPost2010PropOp41
 70
     1
102
RTVSPost2010Prop42
 90
       50
102
RTVSPost2010PropOp42
 70
     1
102
RTVSPost2010Prop43
 90
        3
102
RTVSPost2010PropOp43
 70
     1
102
RTVSPost2010Prop44ColorIndex
 90
        5
102
RTVSPost2010Prop44ColorRGB
 90
      255
102
RTVSPost2010PropOp44
 70
     1
102
RTVSPost2010Prop45
280
     0
102
RTVSPost2010PropOp45
 70
     1
102
RTVSPost2010Prop46
 90
       50
102
RTVSPost2010PropOp46
 70
     1
102
RTVSPost2010Prop47
 90
       50
102
RTVSPost2010PropOp47
 70
     1
102
RTVSPost2010Prop48
 90
       50
102
RTVSPost2010PropOp48
 70
     1
102
RTVSPost2010Prop49
280
     0
102
RTVSPost2010PropOp49
 70
     1
102
RTVSPost2010Prop50
 90
       50
102
RTVSPost2010PropOp50
 70
     1
102
RTVSPost2010Prop51ColorIndex
 90
      256
102
RTVSPost2010Prop51ColorRGB
 90
-16777216
102
RTVSPost2010PropOp51
 70
     0
102
RTVSPost2010Prop52
140
1.0
102
RTVSPost2010PropOp52
 70
     0
102
RTVSPost2010Prop53
 90
        2
102
RTVSPost2010PropOp53
 70
     1
102
RTVSPost2010Prop54
  1
strokes_ogs.tif
102
RTVSPost2010PropOp54
 70
     1
102
RTVSPost2010Prop55
280
     0
102
RTVSPost2010PropOp55
 70
     1
102
RTVSPost2010Prop56
140
1.0
102
RTVSPost2010PropOp56
 70
     1
102
RTVSPost2010Prop57
140
1.0
102
RTVSPost2010PropOp57
 70
     1
  0
XRECORD
  5
32D
102
{ACAD_REACTORS
330
32C
102
}
330
32C
100
AcDbXrecord
280
     1
102
RTVSPropertyOp0
 70
     0
102
RTVSPropertyOp1
 70
     0
102
RTVSPropertyOp2
 70
     0
102
RTVSPropertyOp3
 70
     0
102
RTVSPropertyOp4
 70
     0
102
RTVSPropertyOp5
 70
     0
102
RTVSPropertyOp6
 70
     0
102
RTVSPropertyOp7
 70
     0
102
RTVSPropertyOp8
 70
     0
102
RTVSPropertyOp9
 70
     0
102
RTVSPropertyOp10
 70
     0
102
RTVSPropertyOp11
 70
     0
102
RTVSPropertyOp12
 70
     0
102
RTVSPropertyOp13
 70
     0
102
RTVSPropertyOp14
 70
     2
102
RTVSPropertyOp15
 70
     0
102
RTVSPropertyOp16
 70
     0
102
RTVSPropertyOp17
 70
     0
102
RTVSPropertyOp18
 70
     0
102
RTVSPropertyOp19
 70
     0
102
RTVSPropertyOp20
 70
     0
102
RTVSPropertyOp21
 70
     0
102
RTVSPropertyOp22
 70
     0
102
RTVSPropertyOp23
 70
     0
102
RTVSPropertyOp24
 70
     0
102
RTVSPropertyOp25
 70
     0
102
RTVSPropertyOp26
 70
     0
102
RTVSPropertyOp27
 70
     0
102
RTVSPropertyOp28
 70
     0
102
RTVSPropertyOp29
 70
     0
102
RTVSPropertyOp30
 70
     0
102
RTVSPropertyOp31
 70
     0
102
RTVSPropertyOp32
 70
     0
102
RTVSPropertyOp33
 70
     0
102
RTVSPropertyOp34
 70
     0
102
RTVSPropertyOp35
 70
     0
102
RTVSPropertyOp36
 70
     0
102
RTVSPropertyOp37
 70
     0
102
RTVSPropertyOp38
 70
     0
102
RTVSPropertyOp39
 70
     0
102
RTVSPropertyOp40
 70
     0
102
RTVSPropertyOp41
 70
     0
102
RTVSPropertyOp42
 70
     0
102
RTVSPropertyOp43
 70
     0
102
RTVSPropertyOp44
 70
     0
102
RTVSPropertyOp45
 70
     0
102
RTVSPropertyOp46
 70
     0
102
RTVSPropertyOp47
 70
     0
102
RTVSPropertyOp48
 70
     0
102
RTVSPropertyOp49
 70
     0
102
RTVSPropertyOp50
 70
     0
102
RTVSPropertyOp51
 70
     0
102
RTVSPropertyOp52
 70
     0
102
RTVSPropertyOp53
 70
     0
102
RTVSPropertyOp54
 70
     0
102
RTVSPropertyOp55
 70
     0
102
RTVSPropertyOp56
 70
     0
102
RTVSPropertyOp57
 70
     0
102
RTVSPost2010Prop28
280
     0
102
RTVSPost2010PropOp28
 70
     0
102
RTVSPost2010Prop29
280
     1
102
RTVSPost2010PropOp29
 70
     0
102
RTVSPost2010Prop30
280
     1
102
RTVSPost2010PropOp30
 70
     0
102
RTVSPost2010Prop31
280
     0
102
RTVSPost2010PropOp31
 70
     0
102
RTVSPost2010Prop32
280
     0
102
RTVSPost2010PropOp32
 70
     0
102
RTVSPost2010Prop33
280
     0
102
RTVSPost2010PropOp33
 70
     0
102
RTVSPost2010Prop34
280
     0
102
RTVSPost2010PropOp34
 70
     0
102
RTVSPost2010Prop35
280
     0
102
RTVSPost2010PropOp35
 70
     0
102
RTVSPost2010Prop36
280
     0
102
RTVSPost2010PropOp36
 70
     0
102
RTVSPost2010Prop37
 90
       50
102
RTVSPost2010PropOp37
 70
     0
102
RTVSPost2010Prop38
140
0.0
102
RTVSPost2010PropOp38
 70
     0
102
RTVSPost2010Prop39
140
1.0
102
RTVSPost2010PropOp39
 70
     0
102
RTVSPost2010Prop40
 90
        0
102
RTVSPost2010PropOp40
 70
     0
102
RTVSPost2010Prop41ColorIndex
 90
       18
102
RTVSPost2010Prop41ColorRGB
 90
        0
102
RTVSPost2010PropOp41
 70
     0
102
RTVSPost2010Prop42
 90
       50
102
RTVSPost2010PropOp42
 70
     0
102
RTVSPost2010Prop43
 90
        3
102
RTVSPost2010PropOp43
 70
     0
102
RTVSPost2010Prop44ColorIndex
 90
        5
102
RTVSPost2010Prop44ColorRGB
 90
      255
102
RTVSPost2010PropOp44
 70
     0
102
RTVSPost2010Prop45
280
     0
102
RTVSPost2010PropOp45
 70
     0
102
RTVSPost2010Prop46
 90
       50
102
RTVSPost2010PropOp46
 70
     0
102
RTVSPost2010Prop47
 90
       50
102
RTVSPost2010PropOp47
 70
     0
102
RTVSPost2010Prop48
 90
       50
102
RTVSPost2010PropOp48
 70
     0
102
RTVSPost2010Prop49
280
     0
102
RTVSPost2010PropOp49
 70
     0
102
RTVSPost2010Prop50
 90
       50
102
RTVSPost2010PropOp50
 70
     0
102
RTVSPost2010Prop51ColorIndex
 90
      256
102
RTVSPost2010Prop51ColorRGB
 90
-16777216
102
RTVSPost2010PropOp51
 70
     0
102
RTVSPost2010Prop52
140
1.0
102
RTVSPost2010PropOp52
 70
     0
102
RTVSPost2010Prop53
 90
        2
102
RTVSPost2010PropOp53
 70
     0
102
RTVSPost2010Prop54
  1
strokes_ogs.tif
102
RTVSPost2010PropOp54
 70
     0
102
RTVSPost2010Prop55
280
     0
102
RTVSPost2010PropOp55
 70
     0
102
RTVSPost2010Prop56
140
1.0
102
RTVSPost2010PropOp56
 70
     0
102
RTVSPost2010Prop57
140
1.0
102
RTVSPost2010PropOp57
 70
     0
  0
XRECORD
  5
325
102
{ACAD_REACTORS
330
324
102
}
330
324
100
AcDbXrecord
280
     1
102
RTVSPropertyOp0
 70
     1
102
RTVSPropertyOp1
 70
     1
102
RTVSPropertyOp2
 70
     1
102
RTVSPropertyOp3
 70
     1
102
RTVSPropertyOp4
 70
     1
102
RTVSPropertyOp5
 70
     1
102
RTVSPropertyOp6
 70
     1
102
RTVSPropertyOp7
 70
     1
102
RTVSPropertyOp8
 70
     1
102
RTVSPropertyOp9
 70
     1
102
RTVSPropertyOp10
 70
     1
102
RTVSPropertyOp11
 70
     1
102
RTVSPropertyOp12
 70
     1
102
RTVSPropertyOp13
 70
     1
102
RTVSPropertyOp14
 70
     1
102
RTVSPropertyOp15
 70
     1
102
RTVSPropertyOp16
 70
     1
102
RTVSPropertyOp17
 70
     1
102
RTVSPropertyOp18
 70
     1
102
RTVSPropertyOp19
 70
     1
102
RTVSPropertyOp20
 70
     1
102
RTVSPropertyOp21
 70
     1
102
RTVSPropertyOp22
 70
     1
102
RTVSPropertyOp23
 70
     1
102
RTVSPropertyOp24
 70
     1
102
RTVSPropertyOp25
 70
     1
102
RTVSPropertyOp26
 70
     1
102
RTVSPropertyOp27
 70
     1
102
RTVSPropertyOp28
 70
     1
102
RTVSPropertyOp29
 70
     1
102
RTVSPropertyOp30
 70
     1
102
RTVSPropertyOp31
 70
     1
102
RTVSPropertyOp32
 70
     1
102
RTVSPropertyOp33
 70
     1
102
RTVSPropertyOp34
 70
     1
102
RTVSPropertyOp35
 70
     1
102
RTVSPropertyOp36
 70
     1
102
RTVSPropertyOp37
 70
     1
102
RTVSPropertyOp38
 70
     1
102
RTVSPropertyOp39
 70
     1
102
RTVSPropertyOp40
 70
     1
102
RTVSPropertyOp41
 70
     1
102
RTVSPropertyOp42
 70
     1
102
RTVSPropertyOp43
 70
     1
102
RTVSPropertyOp44
 70
     1
102
RTVSPropertyOp45
 70
     1
102
RTVSPropertyOp46
 70
     1
102
RTVSPropertyOp47
 70
     1
102
RTVSPropertyOp48
 70
     1
102
RTVSPropertyOp49
 70
     1
102
RTVSPropertyOp50
 70
     1
102
RTVSPropertyOp51
 70
     0
102
RTVSPropertyOp52
 70
     0
102
RTVSPropertyOp53
 70
     1
102
RTVSPropertyOp54
 70
     1
102
RTVSPropertyOp55
 70
     1
102
RTVSPropertyOp56
 70
     1
102
RTVSPropertyOp57
 70
     1
102
RTVSPost2010Prop28
280
     0
102
RTVSPost2010PropOp28
 70
     1
102
RTVSPost2010Prop29
280
     1
102
RTVSPost2010PropOp29
 70
     1
102
RTVSPost2010Prop30
280
     1
102
RTVSPost2010PropOp30
 70
     1
102
RTVSPost2010Prop31
280
     0
102
RTVSPost2010PropOp31
 70
     1
102
RTVSPost2010Prop32
280
     0
102
RTVSPost2010PropOp32
 70
     1
102
RTVSPost2010Prop33
280
     0
102
RTVSPost2010PropOp33
 70
     1
102
RTVSPost2010Prop34
280
     0
102
RTVSPost2010PropOp34
 70
     1
102
RTVSPost2010Prop35
280
     0
102
RTVSPost2010PropOp35
 70
     1
102
RTVSPost2010Prop36
280
     0
102
RTVSPost2010PropOp36
 70
     1
102
RTVSPost2010Prop37
 90
       50
102
RTVSPost2010PropOp37
 70
     1
102
RTVSPost2010Prop38
140
0.0
102
RTVSPost2010PropOp38
 70
     1
102
RTVSPost2010Prop39
140
1.0
102
RTVSPost2010PropOp39
 70
     1
102
RTVSPost2010Prop40
 90
        0
102
RTVSPost2010PropOp40
 70
     1
102
RTVSPost2010Prop41ColorIndex
 90
       18
102
RTVSPost2010Prop41ColorRGB
 90
        0
102
RTVSPost2010PropOp41
 70
     1
102
RTVSPost2010Prop42
 90
       50
102
RTVSPost2010PropOp42
 70
     1
102
RTVSPost2010Prop43
 90
        3
102
RTVSPost2010PropOp43
 70
     1
102
RTVSPost2010Prop44ColorIndex
 90
        5
102
RTVSPost2010Prop44ColorRGB
 90
      255
102
RTVSPost2010PropOp44
 70
     1
102
RTVSPost2010Prop45
280
     0
102
RTVSPost2010PropOp45
 70
     1
102
RTVSPost2010Prop46
 90
       50
102
RTVSPost2010PropOp46
 70
     1
102
RTVSPost2010Prop47
 90
       50
102
RTVSPost2010PropOp47
 70
     1
102
RTVSPost2010Prop48
 90
       50
102
RTVSPost2010PropOp48
 70
     1
102
RTVSPost2010Prop49
280
     0
102
RTVSPost2010PropOp49
 70
     1
102
RTVSPost2010Prop50
 90
       50
102
RTVSPost2010PropOp50
 70
     1
102
RTVSPost2010Prop51ColorIndex
 90
      256
102
RTVSPost2010Prop51ColorRGB
 90
-16777216
102
RTVSPost2010PropOp51
 70
     0
102
RTVSPost2010Prop52
140
1.0
102
RTVSPost2010PropOp52
 70
     0
102
RTVSPost2010Prop53
 90
        2
102
RTVSPost2010PropOp53
 70
     1
102
RTVSPost2010Prop54
  1
strokes_ogs.tif
102
RTVSPost2010PropOp54
 70
     1
102
RTVSPost2010Prop55
280
     0
102
RTVSPost2010PropOp55
 70
     1
102
RTVSPost2010Prop56
140
1.0
102
RTVSPost2010PropOp56
 70
     1
102
RTVSPost2010Prop57
140
1.0
102
RTVSPost2010PropOp57
 70
     1
  0
XRECORD
  5
309
102
{ACAD_REACTORS
330
308
102
}
330
308
100
AcDbXrecord
280
     1
102
RTVSPropertyOp0
 70
     1
102
RTVSPropertyOp1
 70
     1
102
RTVSPropertyOp2
 70
     1
102
RTVSPropertyOp3
 70
     1
102
RTVSPropertyOp4
 70
     1
102
RTVSPropertyOp5
 70
     1
102
RTVSPropertyOp6
 70
     1
102
RTVSPropertyOp7
 70
     1
102
RTVSPropertyOp8
 70
     1
102
RTVSPropertyOp9
 70
     1
102
RTVSPropertyOp10
 70
     1
102
RTVSPropertyOp11
 70
     1
102
RTVSPropertyOp12
 70
     1
102
RTVSPropertyOp13
 70
     1
102
RTVSPropertyOp14
 70
     1
102
RTVSPropertyOp15
 70
     1
102
RTVSPropertyOp16
 70
     1
102
RTVSPropertyOp17
 70
     1
102
RTVSPropertyOp18
 70
     1
102
RTVSPropertyOp19
 70
     1
102
RTVSPropertyOp20
 70
     1
102
RTVSPropertyOp21
 70
     1
102
RTVSPropertyOp22
 70
     1
102
RTVSPropertyOp23
 70
     1
102
RTVSPropertyOp24
 70
     1
102
RTVSPropertyOp25
 70
     1
102
RTVSPropertyOp26
 70
     1
102
RTVSPropertyOp27
 70
     1
102
RTVSPropertyOp28
 70
     1
102
RTVSPropertyOp29
 70
     1
102
RTVSPropertyOp30
 70
     1
102
RTVSPropertyOp31
 70
     1
102
RTVSPropertyOp32
 70
     1
102
RTVSPropertyOp33
 70
     1
102
RTVSPropertyOp34
 70
     1
102
RTVSPropertyOp35
 70
     1
102
RTVSPropertyOp36
 70
     1
102
RTVSPropertyOp37
 70
     1
102
RTVSPropertyOp38
 70
     1
102
RTVSPropertyOp39
 70
     1
102
RTVSPropertyOp40
 70
     1
102
RTVSPropertyOp41
 70
     1
102
RTVSPropertyOp42
 70
     1
102
RTVSPropertyOp43
 70
     1
102
RTVSPropertyOp44
 70
     1
102
RTVSPropertyOp45
 70
     1
102
RTVSPropertyOp46
 70
     1
102
RTVSPropertyOp47
 70
     1
102
RTVSPropertyOp48
 70
     1
102
RTVSPropertyOp49
 70
     1
102
RTVSPropertyOp50
 70
     1
102
RTVSPropertyOp51
 70
     0
102
RTVSPropertyOp52
 70
     0
102
RTVSPropertyOp53
 70
     1
102
RTVSPropertyOp54
 70
     1
102
RTVSPropertyOp55
 70
     1
102
RTVSPropertyOp56
 70
     1
102
RTVSPropertyOp57
 70
     1
102
RTVSPost2010Prop28
280
     0
102
RTVSPost2010PropOp28
 70
     1
102
RTVSPost2010Prop29
280
     1
102
RTVSPost2010PropOp29
 70
     1
102
RTVSPost2010Prop30
280
     1
102
RTVSPost2010PropOp30
 70
     1
102
RTVSPost2010Prop31
280
     0
102
RTVSPost2010PropOp31
 70
     1
102
RTVSPost2010Prop32
280
     0
102
RTVSPost2010PropOp32
 70
     1
102
RTVSPost2010Prop33
280
     0
102
RTVSPost2010PropOp33
 70
     1
102
RTVSPost2010Prop34
280
     0
102
RTVSPost2010PropOp34
 70
     1
102
RTVSPost2010Prop35
280
     0
102
RTVSPost2010PropOp35
 70
     1
102
RTVSPost2010Prop36
280
     0
102
RTVSPost2010PropOp36
 70
     1
102
RTVSPost2010Prop37
 90
       50
102
RTVSPost2010PropOp37
 70
     1
102
RTVSPost2010Prop38
140
0.0
102
RTVSPost2010PropOp38
 70
     1
102
RTVSPost2010Prop39
140
1.0
102
RTVSPost2010PropOp39
 70
     1
102
RTVSPost2010Prop40
 90
        0
102
RTVSPost2010PropOp40
 70
     1
102
RTVSPost2010Prop41ColorIndex
 90
       18
102
RTVSPost2010Prop41ColorRGB
 90
        0
102
RTVSPost2010PropOp41
 70
     1
102
RTVSPost2010Prop42
 90
       50
102
RTVSPost2010PropOp42
 70
     1
102
RTVSPost2010Prop43
 90
        3
102
RTVSPost2010PropOp43
 70
     1
102
RTVSPost2010Prop44ColorIndex
 90
        5
102
RTVSPost2010Prop44ColorRGB
 90
      255
102
RTVSPost2010PropOp44
 70
     1
102
RTVSPost2010Prop45
280
     0
102
RTVSPost2010PropOp45
 70
     1
102
RTVSPost2010Prop46
 90
       50
102
RTVSPost2010PropOp46
 70
     1
102
RTVSPost2010Prop47
 90
       50
102
RTVSPost2010PropOp47
 70
     1
102
RTVSPost2010Prop48
 90
       50
102
RTVSPost2010PropOp48
 70
     1
102
RTVSPost2010Prop49
280
     0
102
RTVSPost2010PropOp49
 70
     1
102
RTVSPost2010Prop50
 90
       50
102
RTVSPost2010PropOp50
 70
     1
102
RTVSPost2010Prop51ColorIndex
 90
      256
102
RTVSPost2010Prop51ColorRGB
 90
-16777216
102
RTVSPost2010PropOp51
 70
     0
102
RTVSPost2010Prop52
140
1.0
102
RTVSPost2010PropOp52
 70
     0
102
RTVSPost2010Prop53
 90
        2
102
RTVSPost2010PropOp53
 70
     1
102
RTVSPost2010Prop54
  1
strokes_ogs.tif
102
RTVSPost2010PropOp54
 70
     1
102
RTVSPost2010Prop55
280
     0
102
RTVSPost2010PropOp55
 70
     1
102
RTVSPost2010Prop56
140
1.0
102
RTVSPost2010PropOp56
 70
     1
102
RTVSPost2010Prop57
140
1.0
102
RTVSPost2010PropOp57
 70
     1
  0
XRECORD
  5
30B
102
{ACAD_REACTORS
330
30A
102
}
330
30A
100
AcDbXrecord
280
     1
102
RTVSPropertyOp0
 70
     1
102
RTVSPropertyOp1
 70
     1
102
RTVSPropertyOp2
 70
     1
102
RTVSPropertyOp3
 70
     1
102
RTVSPropertyOp4
 70
     1
102
RTVSPropertyOp5
 70
     1
102
RTVSPropertyOp6
 70
     1
102
RTVSPropertyOp7
 70
     1
102
RTVSPropertyOp8
 70
     1
102
RTVSPropertyOp9
 70
     1
102
RTVSPropertyOp10
 70
     1
102
RTVSPropertyOp11
 70
     1
102
RTVSPropertyOp12
 70
     1
102
RTVSPropertyOp13
 70
     1
102
RTVSPropertyOp14
 70
     1
102
RTVSPropertyOp15
 70
     1
102
RTVSPropertyOp16
 70
     1
102
RTVSPropertyOp17
 70
     1
102
RTVSPropertyOp18
 70
     1
102
RTVSPropertyOp19
 70
     1
102
RTVSPropertyOp20
 70
     1
102
RTVSPropertyOp21
 70
     1
102
RTVSPropertyOp22
 70
     1
102
RTVSPropertyOp23
 70
     1
102
RTVSPropertyOp24
 70
     1
102
RTVSPropertyOp25
 70
     1
102
RTVSPropertyOp26
 70
     1
102
RTVSPropertyOp27
 70
     1
102
RTVSPropertyOp28
 70
     1
102
RTVSPropertyOp29
 70
     1
102
RTVSPropertyOp30
 70
     1
102
RTVSPropertyOp31
 70
     1
102
RTVSPropertyOp32
 70
     1
102
RTVSPropertyOp33
 70
     1
102
RTVSPropertyOp34
 70
     1
102
RTVSPropertyOp35
 70
     1
102
RTVSPropertyOp36
 70
     1
102
RTVSPropertyOp37
 70
     1
102
RTVSPropertyOp38
 70
     1
102
RTVSPropertyOp39
 70
     1
102
RTVSPropertyOp40
 70
     1
102
RTVSPropertyOp41
 70
     1
102
RTVSPropertyOp42
 70
     1
102
RTVSPropertyOp43
 70
     1
102
RTVSPropertyOp44
 70
     1
102
RTVSPropertyOp45
 70
     1
102
RTVSPropertyOp46
 70
     1
102
RTVSPropertyOp47
 70
     1
102
RTVSPropertyOp48
 70
     1
102
RTVSPropertyOp49
 70
     1
102
RTVSPropertyOp50
 70
     1
102
RTVSPropertyOp51
 70
     0
102
RTVSPropertyOp52
 70
     0
102
RTVSPropertyOp53
 70
     1
102
RTVSPropertyOp54
 70
     1
102
RTVSPropertyOp55
 70
     1
102
RTVSPropertyOp56
 70
     1
102
RTVSPropertyOp57
 70
     1
102
RTVSPost2010Prop28
280
     0
102
RTVSPost2010PropOp28
 70
     1
102
RTVSPost2010Prop29
280
     1
102
RTVSPost2010PropOp29
 70
     1
102
RTVSPost2010Prop30
280
     1
102
RTVSPost2010PropOp30
 70
     1
102
RTVSPost2010Prop31
280
     0
102
RTVSPost2010PropOp31
 70
     1
102
RTVSPost2010Prop32
280
     0
102
RTVSPost2010PropOp32
 70
     1
102
RTVSPost2010Prop33
280
     0
102
RTVSPost2010PropOp33
 70
     1
102
RTVSPost2010Prop34
280
     0
102
RTVSPost2010PropOp34
 70
     1
102
RTVSPost2010Prop35
280
     0
102
RTVSPost2010PropOp35
 70
     1
102
RTVSPost2010Prop36
280
     0
102
RTVSPost2010PropOp36
 70
     1
102
RTVSPost2010Prop37
 90
       50
102
RTVSPost2010PropOp37
 70
     1
102
RTVSPost2010Prop38
140
0.0
102
RTVSPost2010PropOp38
 70
     1
102
RTVSPost2010Prop39
140
1.0
102
RTVSPost2010PropOp39
 70
     1
102
RTVSPost2010Prop40
 90
        0
102
RTVSPost2010PropOp40
 70
     1
102
RTVSPost2010Prop41ColorIndex
 90
       18
102
RTVSPost2010Prop41ColorRGB
 90
        0
102
RTVSPost2010PropOp41
 70
     1
102
RTVSPost2010Prop42
 90
       50
102
RTVSPost2010PropOp42
 70
     1
102
RTVSPost2010Prop43
 90
        3
102
RTVSPost2010PropOp43
 70
     1
102
RTVSPost2010Prop44ColorIndex
 90
        5
102
RTVSPost2010Prop44ColorRGB
 90
      255
102
RTVSPost2010PropOp44
 70
     1
102
RTVSPost2010Prop45
280
     0
102
RTVSPost2010PropOp45
 70
     1
102
RTVSPost2010Prop46
 90
       50
102
RTVSPost2010PropOp46
 70
     1
102
RTVSPost2010Prop47
 90
       50
102
RTVSPost2010PropOp47
 70
     1
102
RTVSPost2010Prop48
 90
       50
102
RTVSPost2010PropOp48
 70
     1
102
RTVSPost2010Prop49
280
     0
102
RTVSPost2010PropOp49
 70
     1
102
RTVSPost2010Prop50
 90
       50
102
RTVSPost2010PropOp50
 70
     1
102
RTVSPost2010Prop51ColorIndex
 90
      256
102
RTVSPost2010Prop51ColorRGB
 90
-16777216
102
RTVSPost2010PropOp51
 70
     0
102
RTVSPost2010Prop52
140
1.0
102
RTVSPost2010PropOp52
 70
     0
102
RTVSPost2010Prop53
 90
        2
102
RTVSPost2010PropOp53
 70
     1
102
RTVSPost2010Prop54
  1
strokes_ogs.tif
102
RTVSPost2010PropOp54
 70
     1
102
RTVSPost2010Prop55
280
     0
102
RTVSPost2010PropOp55
 70
     1
102
RTVSPost2010Prop56
140
1.0
102
RTVSPost2010PropOp56
 70
     1
102
RTVSPost2010Prop57
140
1.0
102
RTVSPost2010PropOp57
 70
     1
  0
XRECORD
  5
30D
102
{ACAD_REACTORS
330
30C
102
}
330
30C
100
AcDbXrecord
280
     1
102
RTVSPropertyOp0
 70
     1
102
RTVSPropertyOp1
 70
     1
102
RTVSPropertyOp2
 70
     1
102
RTVSPropertyOp3
 70
     1
102
RTVSPropertyOp4
 70
     1
102
RTVSPropertyOp5
 70
     1
102
RTVSPropertyOp6
 70
     1
102
RTVSPropertyOp7
 70
     1
102
RTVSPropertyOp8
 70
     1
102
RTVSPropertyOp9
 70
     1
102
RTVSPropertyOp10
 70
     1
102
RTVSPropertyOp11
 70
     1
102
RTVSPropertyOp12
 70
     1
102
RTVSPropertyOp13
 70
     1
102
RTVSPropertyOp14
 70
     1
102
RTVSPropertyOp15
 70
     1
102
RTVSPropertyOp16
 70
     1
102
RTVSPropertyOp17
 70
     1
102
RTVSPropertyOp18
 70
     1
102
RTVSPropertyOp19
 70
     1
102
RTVSPropertyOp20
 70
     1
102
RTVSPropertyOp21
 70
     1
102
RTVSPropertyOp22
 70
     1
102
RTVSPropertyOp23
 70
     1
102
RTVSPropertyOp24
 70
     1
102
RTVSPropertyOp25
 70
     1
102
RTVSPropertyOp26
 70
     1
102
RTVSPropertyOp27
 70
     1
102
RTVSPropertyOp28
 70
     1
102
RTVSPropertyOp29
 70
     1
102
RTVSPropertyOp30
 70
     1
102
RTVSPropertyOp31
 70
     1
102
RTVSPropertyOp32
 70
     1
102
RTVSPropertyOp33
 70
     1
102
RTVSPropertyOp34
 70
     1
102
RTVSPropertyOp35
 70
     1
102
RTVSPropertyOp36
 70
     1
102
RTVSPropertyOp37
 70
     1
102
RTVSPropertyOp38
 70
     1
102
RTVSPropertyOp39
 70
     1
102
RTVSPropertyOp40
 70
     1
102
RTVSPropertyOp41
 70
     1
102
RTVSPropertyOp42
 70
     1
102
RTVSPropertyOp43
 70
     1
102
RTVSPropertyOp44
 70
     1
102
RTVSPropertyOp45
 70
     1
102
RTVSPropertyOp46
 70
     1
102
RTVSPropertyOp47
 70
     1
102
RTVSPropertyOp48
 70
     1
102
RTVSPropertyOp49
 70
     1
102
RTVSPropertyOp50
 70
     1
102
RTVSPropertyOp51
 70
     0
102
RTVSPropertyOp52
 70
     0
102
RTVSPropertyOp53
 70
     1
102
RTVSPropertyOp54
 70
     1
102
RTVSPropertyOp55
 70
     1
102
RTVSPropertyOp56
 70
     1
102
RTVSPropertyOp57
 70
     1
102
RTVSPost2010Prop28
280
     0
102
RTVSPost2010PropOp28
 70
     1
102
RTVSPost2010Prop29
280
     1
102
RTVSPost2010PropOp29
 70
     1
102
RTVSPost2010Prop30
280
     1
102
RTVSPost2010PropOp30
 70
     1
102
RTVSPost2010Prop31
280
     0
102
RTVSPost2010PropOp31
 70
     1
102
RTVSPost2010Prop32
280
     0
102
RTVSPost2010PropOp32
 70
     1
102
RTVSPost2010Prop33
280
     0
102
RTVSPost2010PropOp33
 70
     1
102
RTVSPost2010Prop34
280
     0
102
RTVSPost2010PropOp34
 70
     1
102
RTVSPost2010Prop35
280
     0
102
RTVSPost2010PropOp35
 70
     1
102
RTVSPost2010Prop36
280
     0
102
RTVSPost2010PropOp36
 70
     1
102
RTVSPost2010Prop37
 90
       50
102
RTVSPost2010PropOp37
 70
     1
102
RTVSPost2010Prop38
140
0.0
102
RTVSPost2010PropOp38
 70
     1
102
RTVSPost2010Prop39
140
1.0
102
RTVSPost2010PropOp39
 70
     1
102
RTVSPost2010Prop40
 90
        0
102
RTVSPost2010PropOp40
 70
     1
102
RTVSPost2010Prop41ColorIndex
 90
       18
102
RTVSPost2010Prop41ColorRGB
 90
        0
102
RTVSPost2010PropOp41
 70
     1
102
RTVSPost2010Prop42
 90
       50
102
RTVSPost2010PropOp42
 70
     1
102
RTVSPost2010Prop43
 90
        3
102
RTVSPost2010PropOp43
 70
     1
102
RTVSPost2010Prop44ColorIndex
 90
        5
102
RTVSPost2010Prop44ColorRGB
 90
      255
102
RTVSPost2010PropOp44
 70
     1
102
RTVSPost2010Prop45
280
     0
102
RTVSPost2010PropOp45
 70
     1
102
RTVSPost2010Prop46
 90
       50
102
RTVSPost2010PropOp46
 70
     1
102
RTVSPost2010Prop47
 90
       50
102
RTVSPost2010PropOp47
 70
     1
102
RTVSPost2010Prop48
 90
       50
102
RTVSPost2010PropOp48
 70
     1
102
RTVSPost2010Prop49
280
     0
102
RTVSPost2010PropOp49
 70
     1
102
RTVSPost2010Prop50
 90
       50
102
RTVSPost2010PropOp50
 70
     1
102
RTVSPost2010Prop51ColorIndex
 90
      256
102
RTVSPost2010Prop51ColorRGB
 90
-16777216
102
RTVSPost2010PropOp51
 70
     0
102
RTVSPost2010Prop52
140
1.0
102
RTVSPost2010PropOp52
 70
     0
102
RTVSPost2010Prop53
 90
        2
102
RTVSPost2010PropOp53
 70
     1
102
RTVSPost2010Prop54
  1
strokes_ogs.tif
102
RTVSPost2010PropOp54
 70
     1
102
RTVSPost2010Prop55
280
     0
102
RTVSPost2010PropOp55
 70
     1
102
RTVSPost2010Prop56
140
1.0
102
RTVSPost2010PropOp56
 70
     1
102
RTVSPost2010Prop57
140
1.0
102
RTVSPost2010PropOp57
 70
     1
  0
XRECORD
  5
30F
102
{ACAD_REACTORS
330
30E
102
}
330
30E
100
AcDbXrecord
280
     1
102
RTVSPropertyOp0
 70
     1
102
RTVSPropertyOp1
 70
     1
102
RTVSPropertyOp2
 70
     1
102
RTVSPropertyOp3
 70
     1
102
RTVSPropertyOp4
 70
     1
102
RTVSPropertyOp5
 70
     1
102
RTVSPropertyOp6
 70
     1
102
RTVSPropertyOp7
 70
     1
102
RTVSPropertyOp8
 70
     1
102
RTVSPropertyOp9
 70
     1
102
RTVSPropertyOp10
 70
     1
102
RTVSPropertyOp11
 70
     1
102
RTVSPropertyOp12
 70
     1
102
RTVSPropertyOp13
 70
     1
102
RTVSPropertyOp14
 70
     1
102
RTVSPropertyOp15
 70
     1
102
RTVSPropertyOp16
 70
     1
102
RTVSPropertyOp17
 70
     1
102
RTVSPropertyOp18
 70
     1
102
RTVSPropertyOp19
 70
     1
102
RTVSPropertyOp20
 70
     1
102
RTVSPropertyOp21
 70
     1
102
RTVSPropertyOp22
 70
     1
102
RTVSPropertyOp23
 70
     1
102
RTVSPropertyOp24
 70
     1
102
RTVSPropertyOp25
 70
     1
102
RTVSPropertyOp26
 70
     1
102
RTVSPropertyOp27
 70
     1
102
RTVSPropertyOp28
 70
     1
102
RTVSPropertyOp29
 70
     1
102
RTVSPropertyOp30
 70
     1
102
RTVSPropertyOp31
 70
     1
102
RTVSPropertyOp32
 70
     1
102
RTVSPropertyOp33
 70
     1
102
RTVSPropertyOp34
 70
     1
102
RTVSPropertyOp35
 70
     1
102
RTVSPropertyOp36
 70
     1
102
RTVSPropertyOp37
 70
     1
102
RTVSPropertyOp38
 70
     1
102
RTVSPropertyOp39
 70
     1
102
RTVSPropertyOp40
 70
     1
102
RTVSPropertyOp41
 70
     1
102
RTVSPropertyOp42
 70
     1
102
RTVSPropertyOp43
 70
     1
102
RTVSPropertyOp44
 70
     1
102
RTVSPropertyOp45
 70
     1
102
RTVSPropertyOp46
 70
     1
102
RTVSPropertyOp47
 70
     1
102
RTVSPropertyOp48
 70
     1
102
RTVSPropertyOp49
 70
     1
102
RTVSPropertyOp50
 70
     1
102
RTVSPropertyOp51
 70
     0
102
RTVSPropertyOp52
 70
     0
102
RTVSPropertyOp53
 70
     1
102
RTVSPropertyOp54
 70
     1
102
RTVSPropertyOp55
 70
     1
102
RTVSPropertyOp56
 70
     1
102
RTVSPropertyOp57
 70
     1
102
RTVSPost2010Prop28
280
     0
102
RTVSPost2010PropOp28
 70
     1
102
RTVSPost2010Prop29
280
     1
102
RTVSPost2010PropOp29
 70
     1
102
RTVSPost2010Prop30
280
     1
102
RTVSPost2010PropOp30
 70
     1
102
RTVSPost2010Prop31
280
     0
102
RTVSPost2010PropOp31
 70
     1
102
RTVSPost2010Prop32
280
     0
102
RTVSPost2010PropOp32
 70
     1
102
RTVSPost2010Prop33
280
     0
102
RTVSPost2010PropOp33
 70
     1
102
RTVSPost2010Prop34
280
     0
102
RTVSPost2010PropOp34
 70
     1
102
RTVSPost2010Prop35
280
     0
102
RTVSPost2010PropOp35
 70
     1
102
RTVSPost2010Prop36
280
     0
102
RTVSPost2010PropOp36
 70
     1
102
RTVSPost2010Prop37
 90
       50
102
RTVSPost2010PropOp37
 70
     1
102
RTVSPost2010Prop38
140
0.0
102
RTVSPost2010PropOp38
 70
     1
102
RTVSPost2010Prop39
140
1.0
102
RTVSPost2010PropOp39
 70
     1
102
RTVSPost2010Prop40
 90
        0
102
RTVSPost2010PropOp40
 70
     1
102
RTVSPost2010Prop41ColorIndex
 90
       18
102
RTVSPost2010Prop41ColorRGB
 90
        0
102
RTVSPost2010PropOp41
 70
     1
102
RTVSPost2010Prop42
 90
       50
102
RTVSPost2010PropOp42
 70
     1
102
RTVSPost2010Prop43
 90
        3
102
RTVSPost2010PropOp43
 70
     1
102
RTVSPost2010Prop44ColorIndex
 90
        5
102
RTVSPost2010Prop44ColorRGB
 90
      255
102
RTVSPost2010PropOp44
 70
     1
102
RTVSPost2010Prop45
280
     0
102
RTVSPost2010PropOp45
 70
     1
102
RTVSPost2010Prop46
 90
       50
102
RTVSPost2010PropOp46
 70
     1
102
RTVSPost2010Prop47
 90
       50
102
RTVSPost2010PropOp47
 70
     1
102
RTVSPost2010Prop48
 90
       50
102
RTVSPost2010PropOp48
 70
     1
102
RTVSPost2010Prop49
280
     0
102
RTVSPost2010PropOp49
 70
     1
102
RTVSPost2010Prop50
 90
       50
102
RTVSPost2010PropOp50
 70
     1
102
RTVSPost2010Prop51ColorIndex
 90
      256
102
RTVSPost2010Prop51ColorRGB
 90
-16777216
102
RTVSPost2010PropOp51
 70
     0
102
RTVSPost2010Prop52
140
1.0
102
RTVSPost2010PropOp52
 70
     0
102
RTVSPost2010Prop53
 90
        2
102
RTVSPost2010PropOp53
 70
     1
102
RTVSPost2010Prop54
  1
strokes_ogs.tif
102
RTVSPost2010PropOp54
 70
     1
102
RTVSPost2010Prop55
280
     0
102
RTVSPost2010PropOp55
 70
     1
102
RTVSPost2010Prop56
140
1.0
102
RTVSPost2010PropOp56
 70
     1
102
RTVSPost2010Prop57
140
1.0
102
RTVSPost2010PropOp57
 70
     1
  0
XRECORD
  5
315
102
{ACAD_REACTORS
330
314
102
}
330
314
100
AcDbXrecord
280
     1
102
RTVSPropertyOp0
 70
     1
102
RTVSPropertyOp1
 70
     1
102
RTVSPropertyOp2
 70
     1
102
RTVSPropertyOp3
 70
     1
102
RTVSPropertyOp4
 70
     1
102
RTVSPropertyOp5
 70
     1
102
RTVSPropertyOp6
 70
     1
102
RTVSPropertyOp7
 70
     1
102
RTVSPropertyOp8
 70
     1
102
RTVSPropertyOp9
 70
     1
102
RTVSPropertyOp10
 70
     1
102
RTVSPropertyOp11
 70
     1
102
RTVSPropertyOp12
 70
     1
102
RTVSPropertyOp13
 70
     1
102
RTVSPropertyOp14
 70
     1
102
RTVSPropertyOp15
 70
     1
102
RTVSPropertyOp16
 70
     1
102
RTVSPropertyOp17
 70
     1
102
RTVSPropertyOp18
 70
     1
102
RTVSPropertyOp19
 70
     1
102
RTVSPropertyOp20
 70
     1
102
RTVSPropertyOp21
 70
     1
102
RTVSPropertyOp22
 70
     1
102
RTVSPropertyOp23
 70
     1
102
RTVSPropertyOp24
 70
     1
102
RTVSPropertyOp25
 70
     1
102
RTVSPropertyOp26
 70
     1
102
RTVSPropertyOp27
 70
     1
102
RTVSPropertyOp28
 70
     1
102
RTVSPropertyOp29
 70
     1
102
RTVSPropertyOp30
 70
     1
102
RTVSPropertyOp31
 70
     1
102
RTVSPropertyOp32
 70
     1
102
RTVSPropertyOp33
 70
     1
102
RTVSPropertyOp34
 70
     1
102
RTVSPropertyOp35
 70
     1
102
RTVSPropertyOp36
 70
     1
102
RTVSPropertyOp37
 70
     1
102
RTVSPropertyOp38
 70
     1
102
RTVSPropertyOp39
 70
     1
102
RTVSPropertyOp40
 70
     1
102
RTVSPropertyOp41
 70
     1
102
RTVSPropertyOp42
 70
     1
102
RTVSPropertyOp43
 70
     1
102
RTVSPropertyOp44
 70
     1
102
RTVSPropertyOp45
 70
     1
102
RTVSPropertyOp46
 70
     1
102
RTVSPropertyOp47
 70
     1
102
RTVSPropertyOp48
 70
     1
102
RTVSPropertyOp49
 70
     1
102
RTVSPropertyOp50
 70
     1
102
RTVSPropertyOp51
 70
     0
102
RTVSPropertyOp52
 70
     0
102
RTVSPropertyOp53
 70
     1
102
RTVSPropertyOp54
 70
     1
102
RTVSPropertyOp55
 70
     1
102
RTVSPropertyOp56
 70
     1
102
RTVSPropertyOp57
 70
     1
102
RTVSPost2010Prop28
280
     0
102
RTVSPost2010PropOp28
 70
     1
102
RTVSPost2010Prop29
280
     1
102
RTVSPost2010PropOp29
 70
     1
102
RTVSPost2010Prop30
280
     1
102
RTVSPost2010PropOp30
 70
     1
102
RTVSPost2010Prop31
280
     0
102
RTVSPost2010PropOp31
 70
     1
102
RTVSPost2010Prop32
280
     0
102
RTVSPost2010PropOp32
 70
     1
102
RTVSPost2010Prop33
280
     0
102
RTVSPost2010PropOp33
 70
     1
102
RTVSPost2010Prop34
280
     0
102
RTVSPost2010PropOp34
 70
     1
102
RTVSPost2010Prop35
280
     0
102
RTVSPost2010PropOp35
 70
     1
102
RTVSPost2010Prop36
280
     0
102
RTVSPost2010PropOp36
 70
     1
102
RTVSPost2010Prop37
 90
       50
102
RTVSPost2010PropOp37
 70
     1
102
RTVSPost2010Prop38
140
0.0
102
RTVSPost2010PropOp38
 70
     1
102
RTVSPost2010Prop39
140
1.0
102
RTVSPost2010PropOp39
 70
     1
102
RTVSPost2010Prop40
 90
        0
102
RTVSPost2010PropOp40
 70
     1
102
RTVSPost2010Prop41ColorIndex
 90
       18
102
RTVSPost2010Prop41ColorRGB
 90
        0
102
RTVSPost2010PropOp41
 70
     1
102
RTVSPost2010Prop42
 90
       50
102
RTVSPost2010PropOp42
 70
     1
102
RTVSPost2010Prop43
 90
        3
102
RTVSPost2010PropOp43
 70
     1
102
RTVSPost2010Prop44ColorIndex
 90
        5
102
RTVSPost2010Prop44ColorRGB
 90
      255
102
RTVSPost2010PropOp44
 70
     1
102
RTVSPost2010Prop45
280
     0
102
RTVSPost2010PropOp45
 70
     1
102
RTVSPost2010Prop46
 90
       50
102
RTVSPost2010PropOp46
 70
     1
102
RTVSPost2010Prop47
 90
       50
102
RTVSPost2010PropOp47
 70
     1
102
RTVSPost2010Prop48
 90
       50
102
RTVSPost2010PropOp48
 70
     1
102
RTVSPost2010Prop49
280
     0
102
RTVSPost2010PropOp49
 70
     1
102
RTVSPost2010Prop50
 90
       50
102
RTVSPost2010PropOp50
 70
     1
102
RTVSPost2010Prop51ColorIndex
 90
      256
102
RTVSPost2010Prop51ColorRGB
 90
-16777216
102
RTVSPost2010PropOp51
 70
     0
102
RTVSPost2010Prop52
140
1.0
102
RTVSPost2010PropOp52
 70
     0
102
RTVSPost2010Prop53
 90
        2
102
RTVSPost2010PropOp53
 70
     1
102
RTVSPost2010Prop54
  1
strokes_ogs.tif
102
RTVSPost2010PropOp54
 70
     1
102
RTVSPost2010Prop55
280
     0
102
RTVSPost2010PropOp55
 70
     1
102
RTVSPost2010Prop56
140
1.0
102
RTVSPost2010PropOp56
 70
     1
102
RTVSPost2010Prop57
140
1.0
102
RTVSPost2010PropOp57
 70
     1
  0
XRECORD
  5
329
102
{ACAD_REACTORS
330
328
102
}
330
328
100
AcDbXrecord
280
     1
102
RTVSPropertyOp0
 70
     0
102
RTVSPropertyOp1
 70
     0
102
RTVSPropertyOp2
 70
     0
102
RTVSPropertyOp3
 70
     0
102
RTVSPropertyOp4
 70
     0
102
RTVSPropertyOp5
 70
     0
102
RTVSPropertyOp6
 70
     0
102
RTVSPropertyOp7
 70
     0
102
RTVSPropertyOp8
 70
     0
102
RTVSPropertyOp9
 70
     0
102
RTVSPropertyOp10
 70
     0
102
RTVSPropertyOp11
 70
     0
102
RTVSPropertyOp12
 70
     0
102
RTVSPropertyOp13
 70
     0
102
RTVSPropertyOp14
 70
     2
102
RTVSPropertyOp15
 70
     0
102
RTVSPropertyOp16
 70
     0
102
RTVSPropertyOp17
 70
     0
102
RTVSPropertyOp18
 70
     0
102
RTVSPropertyOp19
 70
     0
102
RTVSPropertyOp20
 70
     0
102
RTVSPropertyOp21
 70
     0
102
RTVSPropertyOp22
 70
     0
102
RTVSPropertyOp23
 70
     0
102
RTVSPropertyOp24
 70
     0
102
RTVSPropertyOp25
 70
     0
102
RTVSPropertyOp26
 70
     0
102
RTVSPropertyOp27
 70
     0
102
RTVSPropertyOp28
 70
     0
102
RTVSPropertyOp29
 70
     0
102
RTVSPropertyOp30
 70
     0
102
RTVSPropertyOp31
 70
     0
102
RTVSPropertyOp32
 70
     0
102
RTVSPropertyOp33
 70
     0
102
RTVSPropertyOp34
 70
     0
102
RTVSPropertyOp35
 70
     0
102
RTVSPropertyOp36
 70
     0
102
RTVSPropertyOp37
 70
     0
102
RTVSPropertyOp38
 70
     0
102
RTVSPropertyOp39
 70
     0
102
RTVSPropertyOp40
 70
     0
102
RTVSPropertyOp41
 70
     0
102
RTVSPropertyOp42
 70
     0
102
RTVSPropertyOp43
 70
     0
102
RTVSPropertyOp44
 70
     0
102
RTVSPropertyOp45
 70
     0
102
RTVSPropertyOp46
 70
     0
102
RTVSPropertyOp47
 70
     0
102
RTVSPropertyOp48
 70
     0
102
RTVSPropertyOp49
 70
     0
102
RTVSPropertyOp50
 70
     0
102
RTVSPropertyOp51
 70
     0
102
RTVSPropertyOp52
 70
     0
102
RTVSPropertyOp53
 70
     0
102
RTVSPropertyOp54
 70
     0
102
RTVSPropertyOp55
 70
     0
102
RTVSPropertyOp56
 70
     0
102
RTVSPropertyOp57
 70
     0
102
RTVSPost2010Prop28
280
     0
102
RTVSPost2010PropOp28
 70
     0
102
RTVSPost2010Prop29
280
     1
102
RTVSPost2010PropOp29
 70
     0
102
RTVSPost2010Prop30
280
     1
102
RTVSPost2010PropOp30
 70
     0
102
RTVSPost2010Prop31
280
     0
102
RTVSPost2010PropOp31
 70
     0
102
RTVSPost2010Prop32
280
     0
102
RTVSPost2010PropOp32
 70
     0
102
RTVSPost2010Prop33
280
     0
102
RTVSPost2010PropOp33
 70
     0
102
RTVSPost2010Prop34
280
     0
102
RTVSPost2010PropOp34
 70
     0
102
RTVSPost2010Prop35
280
     0
102
RTVSPost2010PropOp35
 70
     0
102
RTVSPost2010Prop36
280
     0
102
RTVSPost2010PropOp36
 70
     0
102
RTVSPost2010Prop37
 90
       50
102
RTVSPost2010PropOp37
 70
     0
102
RTVSPost2010Prop38
140
0.0
102
RTVSPost2010PropOp38
 70
     0
102
RTVSPost2010Prop39
140
1.0
102
RTVSPost2010PropOp39
 70
     0
102
RTVSPost2010Prop40
 90
        0
102
RTVSPost2010PropOp40
 70
     0
102
RTVSPost2010Prop41ColorIndex
 90
       18
102
RTVSPost2010Prop41ColorRGB
 90
        0
102
RTVSPost2010PropOp41
 70
     0
102
RTVSPost2010Prop42
 90
       50
102
RTVSPost2010PropOp42
 70
     0
102
RTVSPost2010Prop43
 90
        3
102
RTVSPost2010PropOp43
 70
     0
102
RTVSPost2010Prop44ColorIndex
 90
        5
102
RTVSPost2010Prop44ColorRGB
 90
      255
102
RTVSPost2010PropOp44
 70
     0
102
RTVSPost2010Prop45
280
     0
102
RTVSPost2010PropOp45
 70
     0
102
RTVSPost2010Prop46
 90
       50
102
RTVSPost2010PropOp46
 70
     0
102
RTVSPost2010Prop47
 90
       50
102
RTVSPost2010PropOp47
 70
     0
102
RTVSPost2010Prop48
 90
       50
102
RTVSPost2010PropOp48
 70
     0
102
RTVSPost2010Prop49
280
     0
102
RTVSPost2010PropOp49
 70
     0
102
RTVSPost2010Prop50
 90
       50
102
RTVSPost2010PropOp50
 70
     0
102
RTVSPost2010Prop51ColorIndex
 90
      256
102
RTVSPost2010Prop51ColorRGB
 90
-16777216
102
RTVSPost2010PropOp51
 70
     0
102
RTVSPost2010Prop52
140
1.0
102
RTVSPost2010PropOp52
 70
     0
102
RTVSPost2010Prop53
 90
        2
102
RTVSPost2010PropOp53
 70
     0
102
RTVSPost2010Prop54
  1
strokes_ogs.tif
102
RTVSPost2010PropOp54
 70
     0
102
RTVSPost2010Prop55
280
     0
102
RTVSPost2010PropOp55
 70
     0
102
RTVSPost2010Prop56
140
1.0
102
RTVSPost2010PropOp56
 70
     0
102
RTVSPost2010Prop57
140
1.0
102
RTVSPost2010PropOp57
 70
     0
  0
XRECORD
  5
323
102
{ACAD_REACTORS
330
322
102
}
330
322
100
AcDbXrecord
280
     1
102
RTVSPropertyOp0
 70
     1
102
RTVSPropertyOp1
 70
     1
102
RTVSPropertyOp2
 70
     1
102
RTVSPropertyOp3
 70
     1
102
RTVSPropertyOp4
 70
     1
102
RTVSPropertyOp5
 70
     1
102
RTVSPropertyOp6
 70
     1
102
RTVSPropertyOp7
 70
     1
102
RTVSPropertyOp8
 70
     1
102
RTVSPropertyOp9
 70
     1
102
RTVSPropertyOp10
 70
     1
102
RTVSPropertyOp11
 70
     1
102
RTVSPropertyOp12
 70
     1
102
RTVSPropertyOp13
 70
     1
102
RTVSPropertyOp14
 70
     1
102
RTVSPropertyOp15
 70
     1
102
RTVSPropertyOp16
 70
     1
102
RTVSPropertyOp17
 70
     1
102
RTVSPropertyOp18
 70
     1
102
RTVSPropertyOp19
 70
     1
102
RTVSPropertyOp20
 70
     1
102
RTVSPropertyOp21
 70
     1
102
RTVSPropertyOp22
 70
     1
102
RTVSPropertyOp23
 70
     1
102
RTVSPropertyOp24
 70
     1
102
RTVSPropertyOp25
 70
     1
102
RTVSPropertyOp26
 70
     1
102
RTVSPropertyOp27
 70
     1
102
RTVSPropertyOp28
 70
     1
102
RTVSPropertyOp29
 70
     1
102
RTVSPropertyOp30
 70
     1
102
RTVSPropertyOp31
 70
     1
102
RTVSPropertyOp32
 70
     1
102
RTVSPropertyOp33
 70
     1
102
RTVSPropertyOp34
 70
     1
102
RTVSPropertyOp35
 70
     1
102
RTVSPropertyOp36
 70
     1
102
RTVSPropertyOp37
 70
     1
102
RTVSPropertyOp38
 70
     1
102
RTVSPropertyOp39
 70
     1
102
RTVSPropertyOp40
 70
     1
102
RTVSPropertyOp41
 70
     1
102
RTVSPropertyOp42
 70
     1
102
RTVSPropertyOp43
 70
     1
102
RTVSPropertyOp44
 70
     1
102
RTVSPropertyOp45
 70
     1
102
RTVSPropertyOp46
 70
     1
102
RTVSPropertyOp47
 70
     1
102
RTVSPropertyOp48
 70
     1
102
RTVSPropertyOp49
 70
     1
102
RTVSPropertyOp50
 70
     1
102
RTVSPropertyOp51
 70
     0
102
RTVSPropertyOp52
 70
     0
102
RTVSPropertyOp53
 70
     1
102
RTVSPropertyOp54
 70
     1
102
RTVSPropertyOp55
 70
     1
102
RTVSPropertyOp56
 70
     1
102
RTVSPropertyOp57
 70
     1
102
RTVSPost2010Prop28
280
     0
102
RTVSPost2010PropOp28
 70
     1
102
RTVSPost2010Prop29
280
     1
102
RTVSPost2010PropOp29
 70
     1
102
RTVSPost2010Prop30
280
     1
102
RTVSPost2010PropOp30
 70
     1
102
RTVSPost2010Prop31
280
     0
102
RTVSPost2010PropOp31
 70
     1
102
RTVSPost2010Prop32
280
     0
102
RTVSPost2010PropOp32
 70
     1
102
RTVSPost2010Prop33
280
     0
102
RTVSPost2010PropOp33
 70
     1
102
RTVSPost2010Prop34
280
     0
102
RTVSPost2010PropOp34
 70
     1
102
RTVSPost2010Prop35
280
     0
102
RTVSPost2010PropOp35
 70
     1
102
RTVSPost2010Prop36
280
     0
102
RTVSPost2010PropOp36
 70
     1
102
RTVSPost2010Prop37
 90
       50
102
RTVSPost2010PropOp37
 70
     1
102
RTVSPost2010Prop38
140
0.0
102
RTVSPost2010PropOp38
 70
     1
102
RTVSPost2010Prop39
140
1.0
102
RTVSPost2010PropOp39
 70
     1
102
RTVSPost2010Prop40
 90
        0
102
RTVSPost2010PropOp40
 70
     1
102
RTVSPost2010Prop41ColorIndex
 90
       18
102
RTVSPost2010Prop41ColorRGB
 90
        0
102
RTVSPost2010PropOp41
 70
     1
102
RTVSPost2010Prop42
 90
       50
102
RTVSPost2010PropOp42
 70
     1
102
RTVSPost2010Prop43
 90
        3
102
RTVSPost2010PropOp43
 70
     1
102
RTVSPost2010Prop44ColorIndex
 90
        5
102
RTVSPost2010Prop44ColorRGB
 90
      255
102
RTVSPost2010PropOp44
 70
     1
102
RTVSPost2010Prop45
280
     0
102
RTVSPost2010PropOp45
 70
     1
102
RTVSPost2010Prop46
 90
       50
102
RTVSPost2010PropOp46
 70
     1
102
RTVSPost2010Prop47
 90
       50
102
RTVSPost2010PropOp47
 70
     1
102
RTVSPost2010Prop48
 90
       50
102
RTVSPost2010PropOp48
 70
     1
102
RTVSPost2010Prop49
280
     0
102
RTVSPost2010PropOp49
 70
     1
102
RTVSPost2010Prop50
 90
       50
102
RTVSPost2010PropOp50
 70
     1
102
RTVSPost2010Prop51ColorIndex
 90
      256
102
RTVSPost2010Prop51ColorRGB
 90
-16777216
102
RTVSPost2010PropOp51
 70
     0
102
RTVSPost2010Prop52
140
1.0
102
RTVSPost2010PropOp52
 70
     0
102
RTVSPost2010Prop53
 90
        2
102
RTVSPost2010PropOp53
 70
     1
102
RTVSPost2010Prop54
  1
strokes_ogs.tif
102
RTVSPost2010PropOp54
 70
     1
102
RTVSPost2010Prop55
280
     0
102
RTVSPost2010PropOp55
 70
     1
102
RTVSPost2010Prop56
140
1.0
102
RTVSPost2010PropOp56
 70
     1
102
RTVSPost2010Prop57
140
1.0
102
RTVSPost2010PropOp57
 70
     1
  0
XRECORD
  5
32B
102
{ACAD_REACTORS
330
32A
102
}
330
32A
100
AcDbXrecord
280
     1
102
RTVSPropertyOp0
 70
     0
102
RTVSPropertyOp1
 70
     0
102
RTVSPropertyOp2
 70
     0
102
RTVSPropertyOp3
 70
     0
102
RTVSPropertyOp4
 70
     0
102
RTVSPropertyOp5
 70
     0
102
RTVSPropertyOp6
 70
     0
102
RTVSPropertyOp7
 70
     0
102
RTVSPropertyOp8
 70
     0
102
RTVSPropertyOp9
 70
     0
102
RTVSPropertyOp10
 70
     0
102
RTVSPropertyOp11
 70
     0
102
RTVSPropertyOp12
 70
     0
102
RTVSPropertyOp13
 70
     0
102
RTVSPropertyOp14
 70
     2
102
RTVSPropertyOp15
 70
     0
102
RTVSPropertyOp16
 70
     0
102
RTVSPropertyOp17
 70
     0
102
RTVSPropertyOp18
 70
     0
102
RTVSPropertyOp19
 70
     0
102
RTVSPropertyOp20
 70
     0
102
RTVSPropertyOp21
 70
     0
102
RTVSPropertyOp22
 70
     0
102
RTVSPropertyOp23
 70
     0
102
RTVSPropertyOp24
 70
     0
102
RTVSPropertyOp25
 70
     0
102
RTVSPropertyOp26
 70
     0
102
RTVSPropertyOp27
 70
     0
102
RTVSPropertyOp28
 70
     0
102
RTVSPropertyOp29
 70
     0
102
RTVSPropertyOp30
 70
     0
102
RTVSPropertyOp31
 70
     0
102
RTVSPropertyOp32
 70
     0
102
RTVSPropertyOp33
 70
     0
102
RTVSPropertyOp34
 70
     0
102
RTVSPropertyOp35
 70
     0
102
RTVSPropertyOp36
 70
     0
102
RTVSPropertyOp37
 70
     0
102
RTVSPropertyOp38
 70
     0
102
RTVSPropertyOp39
 70
     0
102
RTVSPropertyOp40
 70
     0
102
RTVSPropertyOp41
 70
     0
102
RTVSPropertyOp42
 70
     0
102
RTVSPropertyOp43
 70
     0
102
RTVSPropertyOp44
 70
     0
102
RTVSPropertyOp45
 70
     0
102
RTVSPropertyOp46
 70
     0
102
RTVSPropertyOp47
 70
     0
102
RTVSPropertyOp48
 70
     0
102
RTVSPropertyOp49
 70
     0
102
RTVSPropertyOp50
 70
     0
102
RTVSPropertyOp51
 70
     0
102
RTVSPropertyOp52
 70
     0
102
RTVSPropertyOp53
 70
     0
102
RTVSPropertyOp54
 70
     0
102
RTVSPropertyOp55
 70
     0
102
RTVSPropertyOp56
 70
     0
102
RTVSPropertyOp57
 70
     0
102
RTVSPost2010Prop28
280
     0
102
RTVSPost2010PropOp28
 70
     0
102
RTVSPost2010Prop29
280
     1
102
RTVSPost2010PropOp29
 70
     0
102
RTVSPost2010Prop30
280
     1
102
RTVSPost2010PropOp30
 70
     0
102
RTVSPost2010Prop31
280
     0
102
RTVSPost2010PropOp31
 70
     0
102
RTVSPost2010Prop32
280
     0
102
RTVSPost2010PropOp32
 70
     0
102
RTVSPost2010Prop33
280
     0
102
RTVSPost2010PropOp33
 70
     0
102
RTVSPost2010Prop34
280
     0
102
RTVSPost2010PropOp34
 70
     0
102
RTVSPost2010Prop35
280
     0
102
RTVSPost2010PropOp35
 70
     0
102
RTVSPost2010Prop36
280
     0
102
RTVSPost2010PropOp36
 70
     0
102
RTVSPost2010Prop37
 90
       50
102
RTVSPost2010PropOp37
 70
     0
102
RTVSPost2010Prop38
140
0.0
102
RTVSPost2010PropOp38
 70
     0
102
RTVSPost2010Prop39
140
1.0
102
RTVSPost2010PropOp39
 70
     0
102
RTVSPost2010Prop40
 90
        0
102
RTVSPost2010PropOp40
 70
     0
102
RTVSPost2010Prop41ColorIndex
 90
       18
102
RTVSPost2010Prop41ColorRGB
 90
        0
102
RTVSPost2010PropOp41
 70
     0
102
RTVSPost2010Prop42
 90
       50
102
RTVSPost2010PropOp42
 70
     0
102
RTVSPost2010Prop43
 90
        3
102
RTVSPost2010PropOp43
 70
     0
102
RTVSPost2010Prop44ColorIndex
 90
        5
102
RTVSPost2010Prop44ColorRGB
 90
      255
102
RTVSPost2010PropOp44
 70
     0
102
RTVSPost2010Prop45
280
     0
102
RTVSPost2010PropOp45
 70
     0
102
RTVSPost2010Prop46
 90
       50
102
RTVSPost2010PropOp46
 70
     0
102
RTVSPost2010Prop47
 90
       50
102
RTVSPost2010PropOp47
 70
     0
102
RTVSPost2010Prop48
 90
       50
102
RTVSPost2010PropOp48
 70
     0
102
RTVSPost2010Prop49
280
     0
102
RTVSPost2010PropOp49
 70
     0
102
RTVSPost2010Prop50
 90
       50
102
RTVSPost2010PropOp50
 70
     0
102
RTVSPost2010Prop51ColorIndex
 90
      256
102
RTVSPost2010Prop51ColorRGB
 90
-16777216
102
RTVSPost2010PropOp51
 70
     0
102
RTVSPost2010Prop52
140
1.0
102
RTVSPost2010PropOp52
 70
     0
102
RTVSPost2010Prop53
 90
        2
102
RTVSPost2010PropOp53
 70
     0
102
RTVSPost2010Prop54
  1
strokes_ogs.tif
102
RTVSPost2010PropOp54
 70
     0
102
RTVSPost2010Prop55
280
     0
102
RTVSPost2010PropOp55
 70
     0
102
RTVSPost2010Prop56
140
1.0
102
RTVSPost2010PropOp56
 70
     0
102
RTVSPost2010Prop57
140
1.0
102
RTVSPost2010PropOp57
 70
     0
  0
XRECORD
  5
319
102
{ACAD_REACTORS
330
318
102
}
330
318
100
AcDbXrecord
280
     1
102
RTVSPropertyOp0
 70
     1
102
RTVSPropertyOp1
 70
     1
102
RTVSPropertyOp2
 70
     1
102
RTVSPropertyOp3
 70
     1
102
RTVSPropertyOp4
 70
     1
102
RTVSPropertyOp5
 70
     1
102
RTVSPropertyOp6
 70
     1
102
RTVSPropertyOp7
 70
     1
102
RTVSPropertyOp8
 70
     1
102
RTVSPropertyOp9
 70
     1
102
RTVSPropertyOp10
 70
     1
102
RTVSPropertyOp11
 70
     1
102
RTVSPropertyOp12
 70
     1
102
RTVSPropertyOp13
 70
     1
102
RTVSPropertyOp14
 70
     1
102
RTVSPropertyOp15
 70
     1
102
RTVSPropertyOp16
 70
     1
102
RTVSPropertyOp17
 70
     1
102
RTVSPropertyOp18
 70
     1
102
RTVSPropertyOp19
 70
     1
102
RTVSPropertyOp20
 70
     1
102
RTVSPropertyOp21
 70
     1
102
RTVSPropertyOp22
 70
     1
102
RTVSPropertyOp23
 70
     1
102
RTVSPropertyOp24
 70
     1
102
RTVSPropertyOp25
 70
     1
102
RTVSPropertyOp26
 70
     1
102
RTVSPropertyOp27
 70
     1
102
RTVSPropertyOp28
 70
     1
102
RTVSPropertyOp29
 70
     1
102
RTVSPropertyOp30
 70
     1
102
RTVSPropertyOp31
 70
     1
102
RTVSPropertyOp32
 70
     1
102
RTVSPropertyOp33
 70
     1
102
RTVSPropertyOp34
 70
     1
102
RTVSPropertyOp35
 70
     1
102
RTVSPropertyOp36
 70
     1
102
RTVSPropertyOp37
 70
     1
102
RTVSPropertyOp38
 70
     1
102
RTVSPropertyOp39
 70
     1
102
RTVSPropertyOp40
 70
     1
102
RTVSPropertyOp41
 70
     1
102
RTVSPropertyOp42
 70
     1
102
RTVSPropertyOp43
 70
     1
102
RTVSPropertyOp44
 70
     1
102
RTVSPropertyOp45
 70
     1
102
RTVSPropertyOp46
 70
     1
102
RTVSPropertyOp47
 70
     1
102
RTVSPropertyOp48
 70
     1
102
RTVSPropertyOp49
 70
     1
102
RTVSPropertyOp50
 70
     1
102
RTVSPropertyOp51
 70
     0
102
RTVSPropertyOp52
 70
     0
102
RTVSPropertyOp53
 70
     1
102
RTVSPropertyOp54
 70
     1
102
RTVSPropertyOp55
 70
     1
102
RTVSPropertyOp56
 70
     1
102
RTVSPropertyOp57
 70
     1
102
RTVSPost2010Prop28
280
     0
102
RTVSPost2010PropOp28
 70
     1
102
RTVSPost2010Prop29
280
     1
102
RTVSPost2010PropOp29
 70
     1
102
RTVSPost2010Prop30
280
     1
102
RTVSPost2010PropOp30
 70
     1
102
RTVSPost2010Prop31
280
     0
102
RTVSPost2010PropOp31
 70
     1
102
RTVSPost2010Prop32
280
     0
102
RTVSPost2010PropOp32
 70
     1
102
RTVSPost2010Prop33
280
     0
102
RTVSPost2010PropOp33
 70
     1
102
RTVSPost2010Prop34
280
     0
102
RTVSPost2010PropOp34
 70
     1
102
RTVSPost2010Prop35
280
     0
102
RTVSPost2010PropOp35
 70
     1
102
RTVSPost2010Prop36
280
     0
102
RTVSPost2010PropOp36
 70
     1
102
RTVSPost2010Prop37
 90
       50
102
RTVSPost2010PropOp37
 70
     1
102
RTVSPost2010Prop38
140
0.0
102
RTVSPost2010PropOp38
 70
     1
102
RTVSPost2010Prop39
140
1.0
102
RTVSPost2010PropOp39
 70
     1
102
RTVSPost2010Prop40
 90
        0
102
RTVSPost2010PropOp40
 70
     1
102
RTVSPost2010Prop41ColorIndex
 90
       18
102
RTVSPost2010Prop41ColorRGB
 90
        0
102
RTVSPost2010PropOp41
 70
     1
102
RTVSPost2010Prop42
 90
       50
102
RTVSPost2010PropOp42
 70
     1
102
RTVSPost2010Prop43
 90
        3
102
RTVSPost2010PropOp43
 70
     1
102
RTVSPost2010Prop44ColorIndex
 90
        5
102
RTVSPost2010Prop44ColorRGB
 90
      255
102
RTVSPost2010PropOp44
 70
     1
102
RTVSPost2010Prop45
280
     0
102
RTVSPost2010PropOp45
 70
     1
102
RTVSPost2010Prop46
 90
       50
102
RTVSPost2010PropOp46
 70
     1
102
RTVSPost2010Prop47
 90
       50
102
RTVSPost2010PropOp47
 70
     1
102
RTVSPost2010Prop48
 90
       50
102
RTVSPost2010PropOp48
 70
     1
102
RTVSPost2010Prop49
280
     0
102
RTVSPost2010PropOp49
 70
     1
102
RTVSPost2010Prop50
 90
       50
102
RTVSPost2010PropOp50
 70
     1
102
RTVSPost2010Prop51ColorIndex
 90
      256
102
RTVSPost2010Prop51ColorRGB
 90
-16777216
102
RTVSPost2010PropOp51
 70
     0
102
RTVSPost2010Prop52
140
1.0
102
RTVSPost2010PropOp52
 70
     0
102
RTVSPost2010Prop53
 90
        2
102
RTVSPost2010PropOp53
 70
     1
102
RTVSPost2010Prop54
  1
strokes_ogs.tif
102
RTVSPost2010PropOp54
 70
     1
102
RTVSPost2010Prop55
280
     0
102
RTVSPost2010PropOp55
 70
     1
102
RTVSPost2010Prop56
140
1.0
102
RTVSPost2010PropOp56
 70
     1
102
RTVSPost2010Prop57
140
1.0
102
RTVSPost2010PropOp57
 70
     1
  0
XRECORD
  5
337
102
{ACAD_REACTORS
330
336
102
}
330
336
100
AcDbXrecord
280
     1
102
RTVSPropertyOp0
 70
     1
102
RTVSPropertyOp1
 70
     1
102
RTVSPropertyOp2
 70
     1
102
RTVSPropertyOp3
 70
     1
102
RTVSPropertyOp4
 70
     1
102
RTVSPropertyOp5
 70
     1
102
RTVSPropertyOp6
 70
     1
102
RTVSPropertyOp7
 70
     1
102
RTVSPropertyOp8
 70
     1
102
RTVSPropertyOp9
 70
     1
102
RTVSPropertyOp10
 70
     1
102
RTVSPropertyOp11
 70
     1
102
RTVSPropertyOp12
 70
     1
102
RTVSPropertyOp13
 70
     1
102
RTVSPropertyOp14
 70
     1
102
RTVSPropertyOp15
 70
     1
102
RTVSPropertyOp16
 70
     1
102
RTVSPropertyOp17
 70
     1
102
RTVSPropertyOp18
 70
     1
102
RTVSPropertyOp19
 70
     1
102
RTVSPropertyOp20
 70
     1
102
RTVSPropertyOp21
 70
     1
102
RTVSPropertyOp22
 70
     1
102
RTVSPropertyOp23
 70
     1
102
RTVSPropertyOp24
 70
     1
102
RTVSPropertyOp25
 70
     1
102
RTVSPropertyOp26
 70
     1
102
RTVSPropertyOp27
 70
     1
102
RTVSPropertyOp28
 70
     1
102
RTVSPropertyOp29
 70
     1
102
RTVSPropertyOp30
 70
     1
102
RTVSPropertyOp31
 70
     1
102
RTVSPropertyOp32
 70
     1
102
RTVSPropertyOp33
 70
     1
102
RTVSPropertyOp34
 70
     1
102
RTVSPropertyOp35
 70
     1
102
RTVSPropertyOp36
 70
     1
102
RTVSPropertyOp37
 70
     1
102
RTVSPropertyOp38
 70
     1
102
RTVSPropertyOp39
 70
     1
102
RTVSPropertyOp40
 70
     1
102
RTVSPropertyOp41
 70
     1
102
RTVSPropertyOp42
 70
     1
102
RTVSPropertyOp43
 70
     1
102
RTVSPropertyOp44
 70
     1
102
RTVSPropertyOp45
 70
     1
102
RTVSPropertyOp46
 70
     1
102
RTVSPropertyOp47
 70
     1
102
RTVSPropertyOp48
 70
     1
102
RTVSPropertyOp49
 70
     1
102
RTVSPropertyOp50
 70
     1
102
RTVSPropertyOp51
 70
     0
102
RTVSPropertyOp52
 70
     0
102
RTVSPropertyOp53
 70
     1
102
RTVSPropertyOp54
 70
     1
102
RTVSPropertyOp55
 70
     1
102
RTVSPropertyOp56
 70
     1
102
RTVSPropertyOp57
 70
     1
102
RTVSPost2010Prop28
280
     0
102
RTVSPost2010PropOp28
 70
     1
102
RTVSPost2010Prop29
280
     1
102
RTVSPost2010PropOp29
 70
     1
102
RTVSPost2010Prop30
280
     1
102
RTVSPost2010PropOp30
 70
     1
102
RTVSPost2010Prop31
280
     0
102
RTVSPost2010PropOp31
 70
     1
102
RTVSPost2010Prop32
280
     0
102
RTVSPost2010PropOp32
 70
     1
102
RTVSPost2010Prop33
280
     0
102
RTVSPost2010PropOp33
 70
     1
102
RTVSPost2010Prop34
280
     0
102
RTVSPost2010PropOp34
 70
     1
102
RTVSPost2010Prop35
280
     0
102
RTVSPost2010PropOp35
 70
     1
102
RTVSPost2010Prop36
280
     0
102
RTVSPost2010PropOp36
 70
     1
102
RTVSPost2010Prop37
 90
       50
102
RTVSPost2010PropOp37
 70
     1
102
RTVSPost2010Prop38
140
0.0
102
RTVSPost2010PropOp38
 70
     1
102
RTVSPost2010Prop39
140
1.0
102
RTVSPost2010PropOp39
 70
     1
102
RTVSPost2010Prop40
 90
        0
102
RTVSPost2010PropOp40
 70
     1
102
RTVSPost2010Prop41ColorIndex
 90
       18
102
RTVSPost2010Prop41ColorRGB
 90
        0
102
RTVSPost2010PropOp41
 70
     1
102
RTVSPost2010Prop42
 90
       50
102
RTVSPost2010PropOp42
 70
     1
102
RTVSPost2010Prop43
 90
        3
102
RTVSPost2010PropOp43
 70
     1
102
RTVSPost2010Prop44ColorIndex
 90
        5
102
RTVSPost2010Prop44ColorRGB
 90
      255
102
RTVSPost2010PropOp44
 70
     1
102
RTVSPost2010Prop45
280
     0
102
RTVSPost2010PropOp45
 70
     1
102
RTVSPost2010Prop46
 90
       50
102
RTVSPost2010PropOp46
 70
     1
102
RTVSPost2010Prop47
 90
       50
102
RTVSPost2010PropOp47
 70
     1
102
RTVSPost2010Prop48
 90
       50
102
RTVSPost2010PropOp48
 70
     1
102
RTVSPost2010Prop49
280
     0
102
RTVSPost2010PropOp49
 70
     1
102
RTVSPost2010Prop50
 90
       50
102
RTVSPost2010PropOp50
 70
     1
102
RTVSPost2010Prop51ColorIndex
 90
      256
102
RTVSPost2010Prop51ColorRGB
 90
-16777216
102
RTVSPost2010PropOp51
 70
     0
102
RTVSPost2010Prop52
140
1.0
102
RTVSPost2010PropOp52
 70
     0
102
RTVSPost2010Prop53
 90
        2
102
RTVSPost2010PropOp53
 70
     1
102
RTVSPost2010Prop54
  1
strokes_ogs.tif
102
RTVSPost2010PropOp54
 70
     1
102
RTVSPost2010Prop55
280
     0
102
RTVSPost2010PropOp55
 70
     1
102
RTVSPost2010Prop56
140
1.0
102
RTVSPost2010PropOp56
 70
     1
102
RTVSPost2010Prop57
140
1.0
102
RTVSPost2010PropOp57
 70
     1
  0
XRECORD
  5
335
102
{ACAD_REACTORS
330
334
102
}
330
334
100
AcDbXrecord
280
     1
102
RTVSPropertyOp0
 70
     1
102
RTVSPropertyOp1
 70
     1
102
RTVSPropertyOp2
 70
     1
102
RTVSPropertyOp3
 70
     1
102
RTVSPropertyOp4
 70
     1
102
RTVSPropertyOp5
 70
     1
102
RTVSPropertyOp6
 70
     1
102
RTVSPropertyOp7
 70
     1
102
RTVSPropertyOp8
 70
     1
102
RTVSPropertyOp9
 70
     1
102
RTVSPropertyOp10
 70
     1
102
RTVSPropertyOp11
 70
     1
102
RTVSPropertyOp12
 70
     1
102
RTVSPropertyOp13
 70
     1
102
RTVSPropertyOp14
 70
     1
102
RTVSPropertyOp15
 70
     1
102
RTVSPropertyOp16
 70
     1
102
RTVSPropertyOp17
 70
     1
102
RTVSPropertyOp18
 70
     1
102
RTVSPropertyOp19
 70
     1
102
RTVSPropertyOp20
 70
     1
102
RTVSPropertyOp21
 70
     1
102
RTVSPropertyOp22
 70
     1
102
RTVSPropertyOp23
 70
     1
102
RTVSPropertyOp24
 70
     1
102
RTVSPropertyOp25
 70
     1
102
RTVSPropertyOp26
 70
     1
102
RTVSPropertyOp27
 70
     1
102
RTVSPropertyOp28
 70
     1
102
RTVSPropertyOp29
 70
     1
102
RTVSPropertyOp30
 70
     1
102
RTVSPropertyOp31
 70
     1
102
RTVSPropertyOp32
 70
     1
102
RTVSPropertyOp33
 70
     1
102
RTVSPropertyOp34
 70
     1
102
RTVSPropertyOp35
 70
     1
102
RTVSPropertyOp36
 70
     1
102
RTVSPropertyOp37
 70
     1
102
RTVSPropertyOp38
 70
     1
102
RTVSPropertyOp39
 70
     1
102
RTVSPropertyOp40
 70
     1
102
RTVSPropertyOp41
 70
     1
102
RTVSPropertyOp42
 70
     1
102
RTVSPropertyOp43
 70
     1
102
RTVSPropertyOp44
 70
     1
102
RTVSPropertyOp45
 70
     1
102
RTVSPropertyOp46
 70
     1
102
RTVSPropertyOp47
 70
     1
102
RTVSPropertyOp48
 70
     1
102
RTVSPropertyOp49
 70
     1
102
RTVSPropertyOp50
 70
     1
102
RTVSPropertyOp51
 70
     0
102
RTVSPropertyOp52
 70
     0
102
RTVSPropertyOp53
 70
     1
102
RTVSPropertyOp54
 70
     1
102
RTVSPropertyOp55
 70
     1
102
RTVSPropertyOp56
 70
     1
102
RTVSPropertyOp57
 70
     1
102
RTVSPost2010Prop28
280
     0
102
RTVSPost2010PropOp28
 70
     1
102
RTVSPost2010Prop29
280
     1
102
RTVSPost2010PropOp29
 70
     1
102
RTVSPost2010Prop30
280
     1
102
RTVSPost2010PropOp30
 70
     1
102
RTVSPost2010Prop31
280
     0
102
RTVSPost2010PropOp31
 70
     1
102
RTVSPost2010Prop32
280
     0
102
RTVSPost2010PropOp32
 70
     1
102
RTVSPost2010Prop33
280
     0
102
RTVSPost2010PropOp33
 70
     1
102
RTVSPost2010Prop34
280
     0
102
RTVSPost2010PropOp34
 70
     1
102
RTVSPost2010Prop35
280
     0
102
RTVSPost2010PropOp35
 70
     1
102
RTVSPost2010Prop36
280
     0
102
RTVSPost2010PropOp36
 70
     1
102
RTVSPost2010Prop37
 90
       50
102
RTVSPost2010PropOp37
 70
     1
102
RTVSPost2010Prop38
140
0.0
102
RTVSPost2010PropOp38
 70
     1
102
RTVSPost2010Prop39
140
1.0
102
RTVSPost2010PropOp39
 70
     1
102
RTVSPost2010Prop40
 90
        0
102
RTVSPost2010PropOp40
 70
     1
102
RTVSPost2010Prop41ColorIndex
 90
       18
102
RTVSPost2010Prop41ColorRGB
 90
        0
102
RTVSPost2010PropOp41
 70
     1
102
RTVSPost2010Prop42
 90
       50
102
RTVSPost2010PropOp42
 70
     1
102
RTVSPost2010Prop43
 90
        3
102
RTVSPost2010PropOp43
 70
     1
102
RTVSPost2010Prop44ColorIndex
 90
        5
102
RTVSPost2010Prop44ColorRGB
 90
      255
102
RTVSPost2010PropOp44
 70
     1
102
RTVSPost2010Prop45
280
     0
102
RTVSPost2010PropOp45
 70
     1
102
RTVSPost2010Prop46
 90
       50
102
RTVSPost2010PropOp46
 70
     1
102
RTVSPost2010Prop47
 90
       50
102
RTVSPost2010PropOp47
 70
     1
102
RTVSPost2010Prop48
 90
       50
102
RTVSPost2010PropOp48
 70
     1
102
RTVSPost2010Prop49
280
     0
102
RTVSPost2010PropOp49
 70
     1
102
RTVSPost2010Prop50
 90
       50
102
RTVSPost2010PropOp50
 70
     1
102
RTVSPost2010Prop51ColorIndex
 90
      256
102
RTVSPost2010Prop51ColorRGB
 90
-16777216
102
RTVSPost2010PropOp51
 70
     0
102
RTVSPost2010Prop52
140
1.0
102
RTVSPost2010PropOp52
 70
     0
102
RTVSPost2010Prop53
 90
        2
102
RTVSPost2010PropOp53
 70
     1
102
RTVSPost2010Prop54
  1
strokes_ogs.tif
102
RTVSPost2010PropOp54
 70
     1
102
RTVSPost2010Prop55
280
     0
102
RTVSPost2010PropOp55
 70
     1
102
RTVSPost2010Prop56
140
1.0
102
RTVSPost2010PropOp56
 70
     1
102
RTVSPost2010Prop57
140
1.0
102
RTVSPost2010PropOp57
 70
     1
  0
XRECORD
  5
32F
102
{ACAD_REACTORS
330
32E
102
}
330
32E
100
AcDbXrecord
280
     1
102
RTVSPropertyOp0
 70
     1
102
RTVSPropertyOp1
 70
     1
102
RTVSPropertyOp2
 70
     1
102
RTVSPropertyOp3
 70
     1
102
RTVSPropertyOp4
 70
     1
102
RTVSPropertyOp5
 70
     1
102
RTVSPropertyOp6
 70
     1
102
RTVSPropertyOp7
 70
     1
102
RTVSPropertyOp8
 70
     1
102
RTVSPropertyOp9
 70
     1
102
RTVSPropertyOp10
 70
     1
102
RTVSPropertyOp11
 70
     1
102
RTVSPropertyOp12
 70
     1
102
RTVSPropertyOp13
 70
     1
102
RTVSPropertyOp14
 70
     1
102
RTVSPropertyOp15
 70
     1
102
RTVSPropertyOp16
 70
     1
102
RTVSPropertyOp17
 70
     1
102
RTVSPropertyOp18
 70
     1
102
RTVSPropertyOp19
 70
     1
102
RTVSPropertyOp20
 70
     1
102
RTVSPropertyOp21
 70
     1
102
RTVSPropertyOp22
 70
     1
102
RTVSPropertyOp23
 70
     1
102
RTVSPropertyOp24
 70
     1
102
RTVSPropertyOp25
 70
     1
102
RTVSPropertyOp26
 70
     1
102
RTVSPropertyOp27
 70
     1
102
RTVSPropertyOp28
 70
     1
102
RTVSPropertyOp29
 70
     1
102
RTVSPropertyOp30
 70
     1
102
RTVSPropertyOp31
 70
     1
102
RTVSPropertyOp32
 70
     1
102
RTVSPropertyOp33
 70
     1
102
RTVSPropertyOp34
 70
     1
102
RTVSPropertyOp35
 70
     1
102
RTVSPropertyOp36
 70
     1
102
RTVSPropertyOp37
 70
     1
102
RTVSPropertyOp38
 70
     1
102
RTVSPropertyOp39
 70
     1
102
RTVSPropertyOp40
 70
     1
102
RTVSPropertyOp41
 70
     1
102
RTVSPropertyOp42
 70
     1
102
RTVSPropertyOp43
 70
     1
102
RTVSPropertyOp44
 70
     1
102
RTVSPropertyOp45
 70
     1
102
RTVSPropertyOp46
 70
     1
102
RTVSPropertyOp47
 70
     1
102
RTVSPropertyOp48
 70
     1
102
RTVSPropertyOp49
 70
     1
102
RTVSPropertyOp50
 70
     1
102
RTVSPropertyOp51
 70
     0
102
RTVSPropertyOp52
 70
     0
102
RTVSPropertyOp53
 70
     1
102
RTVSPropertyOp54
 70
     1
102
RTVSPropertyOp55
 70
     1
102
RTVSPropertyOp56
 70
     1
102
RTVSPropertyOp57
 70
     1
102
RTVSPost2010Prop28
280
     0
102
RTVSPost2010PropOp28
 70
     1
102
RTVSPost2010Prop29
280
     1
102
RTVSPost2010PropOp29
 70
     1
102
RTVSPost2010Prop30
280
     1
102
RTVSPost2010PropOp30
 70
     1
102
RTVSPost2010Prop31
280
     0
102
RTVSPost2010PropOp31
 70
     1
102
RTVSPost2010Prop32
280
     0
102
RTVSPost2010PropOp32
 70
     1
102
RTVSPost2010Prop33
280
     0
102
RTVSPost2010PropOp33
 70
     1
102
RTVSPost2010Prop34
280
     0
102
RTVSPost2010PropOp34
 70
     1
102
RTVSPost2010Prop35
280
     0
102
RTVSPost2010PropOp35
 70
     1
102
RTVSPost2010Prop36
280
     0
102
RTVSPost2010PropOp36
 70
     1
102
RTVSPost2010Prop37
 90
       50
102
RTVSPost2010PropOp37
 70
     1
102
RTVSPost2010Prop38
140
0.0
102
RTVSPost2010PropOp38
 70
     1
102
RTVSPost2010Prop39
140
1.0
102
RTVSPost2010PropOp39
 70
     1
102
RTVSPost2010Prop40
 90
        0
102
RTVSPost2010PropOp40
 70
     1
102
RTVSPost2010Prop41ColorIndex
 90
       18
102
RTVSPost2010Prop41ColorRGB
 90
        0
102
RTVSPost2010PropOp41
 70
     1
102
RTVSPost2010Prop42
 90
       50
102
RTVSPost2010PropOp42
 70
     1
102
RTVSPost2010Prop43
 90
        3
102
RTVSPost2010PropOp43
 70
     1
102
RTVSPost2010Prop44ColorIndex
 90
        5
102
RTVSPost2010Prop44ColorRGB
 90
      255
102
RTVSPost2010PropOp44
 70
     1
102
RTVSPost2010Prop45
280
     0
102
RTVSPost2010PropOp45
 70
     1
102
RTVSPost2010Prop46
 90
       50
102
RTVSPost2010PropOp46
 70
     1
102
RTVSPost2010Prop47
 90
       50
102
RTVSPost2010PropOp47
 70
     1
102
RTVSPost2010Prop48
 90
       50
102
RTVSPost2010PropOp48
 70
     1
102
RTVSPost2010Prop49
280
     0
102
RTVSPost2010PropOp49
 70
     1
102
RTVSPost2010Prop50
 90
       50
102
RTVSPost2010PropOp50
 70
     1
102
RTVSPost2010Prop51ColorIndex
 90
      256
102
RTVSPost2010Prop51ColorRGB
 90
-16777216
102
RTVSPost2010PropOp51
 70
     0
102
RTVSPost2010Prop52
140
1.0
102
RTVSPost2010PropOp52
 70
     0
102
RTVSPost2010Prop53
 90
        2
102
RTVSPost2010PropOp53
 70
     1
102
RTVSPost2010Prop54
  1
strokes_ogs.tif
102
RTVSPost2010PropOp54
 70
     1
102
RTVSPost2010Prop55
280
     0
102
RTVSPost2010PropOp55
 70
     1
102
RTVSPost2010Prop56
140
1.0
102
RTVSPost2010PropOp56
 70
     1
102
RTVSPost2010Prop57
140
1.0
102
RTVSPost2010PropOp57
 70
     1
  0
XRECORD
  5
331
102
{ACAD_REACTORS
330
330
102
}
330
330
100
AcDbXrecord
280
     1
102
RTVSPropertyOp0
 70
     1
102
RTVSPropertyOp1
 70
     1
102
RTVSPropertyOp2
 70
     1
102
RTVSPropertyOp3
 70
     1
102
RTVSPropertyOp4
 70
     1
102
RTVSPropertyOp5
 70
     1
102
RTVSPropertyOp6
 70
     1
102
RTVSPropertyOp7
 70
     1
102
RTVSPropertyOp8
 70
     1
102
RTVSPropertyOp9
 70
     1
102
RTVSPropertyOp10
 70
     1
102
RTVSPropertyOp11
 70
     1
102
RTVSPropertyOp12
 70
     1
102
RTVSPropertyOp13
 70
     1
102
RTVSPropertyOp14
 70
     1
102
RTVSPropertyOp15
 70
     1
102
RTVSPropertyOp16
 70
     1
102
RTVSPropertyOp17
 70
     1
102
RTVSPropertyOp18
 70
     1
102
RTVSPropertyOp19
 70
     1
102
RTVSPropertyOp20
 70
     1
102
RTVSPropertyOp21
 70
     1
102
RTVSPropertyOp22
 70
     1
102
RTVSPropertyOp23
 70
     1
102
RTVSPropertyOp24
 70
     1
102
RTVSPropertyOp25
 70
     1
102
RTVSPropertyOp26
 70
     1
102
RTVSPropertyOp27
 70
     1
102
RTVSPropertyOp28
 70
     1
102
RTVSPropertyOp29
 70
     1
102
RTVSPropertyOp30
 70
     1
102
RTVSPropertyOp31
 70
     1
102
RTVSPropertyOp32
 70
     1
102
RTVSPropertyOp33
 70
     1
102
RTVSPropertyOp34
 70
     1
102
RTVSPropertyOp35
 70
     1
102
RTVSPropertyOp36
 70
     1
102
RTVSPropertyOp37
 70
     1
102
RTVSPropertyOp38
 70
     1
102
RTVSPropertyOp39
 70
     1
102
RTVSPropertyOp40
 70
     1
102
RTVSPropertyOp41
 70
     1
102
RTVSPropertyOp42
 70
     1
102
RTVSPropertyOp43
 70
     1
102
RTVSPropertyOp44
 70
     1
102
RTVSPropertyOp45
 70
     1
102
RTVSPropertyOp46
 70
     1
102
RTVSPropertyOp47
 70
     1
102
RTVSPropertyOp48
 70
     1
102
RTVSPropertyOp49
 70
     1
102
RTVSPropertyOp50
 70
     1
102
RTVSPropertyOp51
 70
     0
102
RTVSPropertyOp52
 70
     0
102
RTVSPropertyOp53
 70
     1
102
RTVSPropertyOp54
 70
     1
102
RTVSPropertyOp55
 70
     1
102
RTVSPropertyOp56
 70
     1
102
RTVSPropertyOp57
 70
     1
102
RTVSPost2010Prop28
280
     0
102
RTVSPost2010PropOp28
 70
     1
102
RTVSPost2010Prop29
280
     1
102
RTVSPost2010PropOp29
 70
     1
102
RTVSPost2010Prop30
280
     1
102
RTVSPost2010PropOp30
 70
     1
102
RTVSPost2010Prop31
280
     0
102
RTVSPost2010PropOp31
 70
     1
102
RTVSPost2010Prop32
280
     0
102
RTVSPost2010PropOp32
 70
     1
102
RTVSPost2010Prop33
280
     0
102
RTVSPost2010PropOp33
 70
     1
102
RTVSPost2010Prop34
280
     0
102
RTVSPost2010PropOp34
 70
     1
102
RTVSPost2010Prop35
280
     0
102
RTVSPost2010PropOp35
 70
     1
102
RTVSPost2010Prop36
280
     0
102
RTVSPost2010PropOp36
 70
     1
102
RTVSPost2010Prop37
 90
       50
102
RTVSPost2010PropOp37
 70
     1
102
RTVSPost2010Prop38
140
0.0
102
RTVSPost2010PropOp38
 70
     1
102
RTVSPost2010Prop39
140
1.0
102
RTVSPost2010PropOp39
 70
     1
102
RTVSPost2010Prop40
 90
        0
102
RTVSPost2010PropOp40
 70
     1
102
RTVSPost2010Prop41ColorIndex
 90
       18
102
RTVSPost2010Prop41ColorRGB
 90
        0
102
RTVSPost2010PropOp41
 70
     1
102
RTVSPost2010Prop42
 90
       50
102
RTVSPost2010PropOp42
 70
     1
102
RTVSPost2010Prop43
 90
        3
102
RTVSPost2010PropOp43
 70
     1
102
RTVSPost2010Prop44ColorIndex
 90
        5
102
RTVSPost2010Prop44ColorRGB
 90
      255
102
RTVSPost2010PropOp44
 70
     1
102
RTVSPost2010Prop45
280
     0
102
RTVSPost2010PropOp45
 70
     1
102
RTVSPost2010Prop46
 90
       50
102
RTVSPost2010PropOp46
 70
     1
102
RTVSPost2010Prop47
 90
       50
102
RTVSPost2010PropOp47
 70
     1
102
RTVSPost2010Prop48
 90
       50
102
RTVSPost2010PropOp48
 70
     1
102
RTVSPost2010Prop49
280
     0
102
RTVSPost2010PropOp49
 70
     1
102
RTVSPost2010Prop50
 90
       50
102
RTVSPost2010PropOp50
 70
     1
102
RTVSPost2010Prop51ColorIndex
 90
      256
102
RTVSPost2010Prop51ColorRGB
 90
-16777216
102
RTVSPost2010PropOp51
 70
     0
102
RTVSPost2010Prop52
140
1.0
102
RTVSPost2010PropOp52
 70
     0
102
RTVSPost2010Prop53
 90
        2
102
RTVSPost2010PropOp53
 70
     1
102
RTVSPost2010Prop54
  1
strokes_ogs.tif
102
RTVSPost2010PropOp54
 70
     1
102
RTVSPost2010Prop55
280
     0
102
RTVSPost2010PropOp55
 70
     1
102
RTVSPost2010Prop56
140
1.0
102
RTVSPost2010PropOp56
 70
     1
102
RTVSPost2010Prop57
140
1.0
102
RTVSPost2010PropOp57
 70
     1
  0
XRECORD
  5
321
102
{ACAD_REACTORS
330
320
102
}
330
320
100
AcDbXrecord
280
     1
102
RTVSPropertyOp0
 70
     1
102
RTVSPropertyOp1
 70
     1
102
RTVSPropertyOp2
 70
     1
102
RTVSPropertyOp3
 70
     1
102
RTVSPropertyOp4
 70
     1
102
RTVSPropertyOp5
 70
     1
102
RTVSPropertyOp6
 70
     1
102
RTVSPropertyOp7
 70
     1
102
RTVSPropertyOp8
 70
     1
102
RTVSPropertyOp9
 70
     1
102
RTVSPropertyOp10
 70
     1
102
RTVSPropertyOp11
 70
     1
102
RTVSPropertyOp12
 70
     1
102
RTVSPropertyOp13
 70
     1
102
RTVSPropertyOp14
 70
     1
102
RTVSPropertyOp15
 70
     1
102
RTVSPropertyOp16
 70
     1
102
RTVSPropertyOp17
 70
     1
102
RTVSPropertyOp18
 70
     1
102
RTVSPropertyOp19
 70
     1
102
RTVSPropertyOp20
 70
     1
102
RTVSPropertyOp21
 70
     1
102
RTVSPropertyOp22
 70
     1
102
RTVSPropertyOp23
 70
     1
102
RTVSPropertyOp24
 70
     1
102
RTVSPropertyOp25
 70
     1
102
RTVSPropertyOp26
 70
     1
102
RTVSPropertyOp27
 70
     1
102
RTVSPropertyOp28
 70
     1
102
RTVSPropertyOp29
 70
     1
102
RTVSPropertyOp30
 70
     1
102
RTVSPropertyOp31
 70
     1
102
RTVSPropertyOp32
 70
     1
102
RTVSPropertyOp33
 70
     1
102
RTVSPropertyOp34
 70
     1
102
RTVSPropertyOp35
 70
     1
102
RTVSPropertyOp36
 70
     1
102
RTVSPropertyOp37
 70
     1
102
RTVSPropertyOp38
 70
     1
102
RTVSPropertyOp39
 70
     1
102
RTVSPropertyOp40
 70
     1
102
RTVSPropertyOp41
 70
     1
102
RTVSPropertyOp42
 70
     1
102
RTVSPropertyOp43
 70
     1
102
RTVSPropertyOp44
 70
     1
102
RTVSPropertyOp45
 70
     1
102
RTVSPropertyOp46
 70
     1
102
RTVSPropertyOp47
 70
     1
102
RTVSPropertyOp48
 70
     1
102
RTVSPropertyOp49
 70
     1
102
RTVSPropertyOp50
 70
     1
102
RTVSPropertyOp51
 70
     0
102
RTVSPropertyOp52
 70
     0
102
RTVSPropertyOp53
 70
     1
102
RTVSPropertyOp54
 70
     1
102
RTVSPropertyOp55
 70
     1
102
RTVSPropertyOp56
 70
     1
102
RTVSPropertyOp57
 70
     1
102
RTVSPost2010Prop28
280
     0
102
RTVSPost2010PropOp28
 70
     1
102
RTVSPost2010Prop29
280
     1
102
RTVSPost2010PropOp29
 70
     1
102
RTVSPost2010Prop30
280
     1
102
RTVSPost2010PropOp30
 70
     1
102
RTVSPost2010Prop31
280
     0
102
RTVSPost2010PropOp31
 70
     1
102
RTVSPost2010Prop32
280
     0
102
RTVSPost2010PropOp32
 70
     1
102
RTVSPost2010Prop33
280
     0
102
RTVSPost2010PropOp33
 70
     1
102
RTVSPost2010Prop34
280
     0
102
RTVSPost2010PropOp34
 70
     1
102
RTVSPost2010Prop35
280
     0
102
RTVSPost2010PropOp35
 70
     1
102
RTVSPost2010Prop36
280
     0
102
RTVSPost2010PropOp36
 70
     1
102
RTVSPost2010Prop37
 90
       50
102
RTVSPost2010PropOp37
 70
     1
102
RTVSPost2010Prop38
140
0.0
102
RTVSPost2010PropOp38
 70
     1
102
RTVSPost2010Prop39
140
1.0
102
RTVSPost2010PropOp39
 70
     1
102
RTVSPost2010Prop40
 90
        0
102
RTVSPost2010PropOp40
 70
     1
102
RTVSPost2010Prop41ColorIndex
 90
       18
102
RTVSPost2010Prop41ColorRGB
 90
        0
102
RTVSPost2010PropOp41
 70
     1
102
RTVSPost2010Prop42
 90
       50
102
RTVSPost2010PropOp42
 70
     1
102
RTVSPost2010Prop43
 90
        3
102
RTVSPost2010PropOp43
 70
     1
102
RTVSPost2010Prop44ColorIndex
 90
        5
102
RTVSPost2010Prop44ColorRGB
 90
      255
102
RTVSPost2010PropOp44
 70
     1
102
RTVSPost2010Prop45
280
     0
102
RTVSPost2010PropOp45
 70
     1
102
RTVSPost2010Prop46
 90
       50
102
RTVSPost2010PropOp46
 70
     1
102
RTVSPost2010Prop47
 90
       50
102
RTVSPost2010PropOp47
 70
     1
102
RTVSPost2010Prop48
 90
       50
102
RTVSPost2010PropOp48
 70
     1
102
RTVSPost2010Prop49
280
     0
102
RTVSPost2010PropOp49
 70
     1
102
RTVSPost2010Prop50
 90
       50
102
RTVSPost2010PropOp50
 70
     1
102
RTVSPost2010Prop51ColorIndex
 90
      256
102
RTVSPost2010Prop51ColorRGB
 90
-16777216
102
RTVSPost2010PropOp51
 70
     0
102
RTVSPost2010Prop52
140
1.0
102
RTVSPost2010PropOp52
 70
     0
102
RTVSPost2010Prop53
 90
        2
102
RTVSPost2010PropOp53
 70
     1
102
RTVSPost2010Prop54
  1
strokes_ogs.tif
102
RTVSPost2010PropOp54
 70
     1
102
RTVSPost2010Prop55
280
     0
102
RTVSPost2010PropOp55
 70
     1
102
RTVSPost2010Prop56
140
1.0
102
RTVSPost2010PropOp56
 70
     1
102
RTVSPost2010Prop57
140
1.0
102
RTVSPost2010PropOp57
 70
     1
  0
XRECORD
  5
313
102
{ACAD_REACTORS
330
312
102
}
330
312
100
AcDbXrecord
280
     1
102
RTVSPropertyOp0
 70
     1
102
RTVSPropertyOp1
 70
     1
102
RTVSPropertyOp2
 70
     1
102
RTVSPropertyOp3
 70
     1
102
RTVSPropertyOp4
 70
     1
102
RTVSPropertyOp5
 70
     1
102
RTVSPropertyOp6
 70
     1
102
RTVSPropertyOp7
 70
     1
102
RTVSPropertyOp8
 70
     1
102
RTVSPropertyOp9
 70
     1
102
RTVSPropertyOp10
 70
     1
102
RTVSPropertyOp11
 70
     1
102
RTVSPropertyOp12
 70
     1
102
RTVSPropertyOp13
 70
     1
102
RTVSPropertyOp14
 70
     1
102
RTVSPropertyOp15
 70
     1
102
RTVSPropertyOp16
 70
     1
102
RTVSPropertyOp17
 70
     1
102
RTVSPropertyOp18
 70
     1
102
RTVSPropertyOp19
 70
     1
102
RTVSPropertyOp20
 70
     1
102
RTVSPropertyOp21
 70
     1
102
RTVSPropertyOp22
 70
     1
102
RTVSPropertyOp23
 70
     1
102
RTVSPropertyOp24
 70
     1
102
RTVSPropertyOp25
 70
     1
102
RTVSPropertyOp26
 70
     1
102
RTVSPropertyOp27
 70
     1
102
RTVSPropertyOp28
 70
     1
102
RTVSPropertyOp29
 70
     1
102
RTVSPropertyOp30
 70
     1
102
RTVSPropertyOp31
 70
     1
102
RTVSPropertyOp32
 70
     1
102
RTVSPropertyOp33
 70
     1
102
RTVSPropertyOp34
 70
     1
102
RTVSPropertyOp35
 70
     1
102
RTVSPropertyOp36
 70
     1
102
RTVSPropertyOp37
 70
     1
102
RTVSPropertyOp38
 70
     1
102
RTVSPropertyOp39
 70
     1
102
RTVSPropertyOp40
 70
     1
102
RTVSPropertyOp41
 70
     1
102
RTVSPropertyOp42
 70
     1
102
RTVSPropertyOp43
 70
     1
102
RTVSPropertyOp44
 70
     1
102
RTVSPropertyOp45
 70
     1
102
RTVSPropertyOp46
 70
     1
102
RTVSPropertyOp47
 70
     1
102
RTVSPropertyOp48
 70
     1
102
RTVSPropertyOp49
 70
     1
102
RTVSPropertyOp50
 70
     1
102
RTVSPropertyOp51
 70
     0
102
RTVSPropertyOp52
 70
     0
102
RTVSPropertyOp53
 70
     1
102
RTVSPropertyOp54
 70
     1
102
RTVSPropertyOp55
 70
     1
102
RTVSPropertyOp56
 70
     1
102
RTVSPropertyOp57
 70
     1
102
RTVSPost2010Prop28
280
     0
102
RTVSPost2010PropOp28
 70
     1
102
RTVSPost2010Prop29
280
     1
102
RTVSPost2010PropOp29
 70
     1
102
RTVSPost2010Prop30
280
     1
102
RTVSPost2010PropOp30
 70
     1
102
RTVSPost2010Prop31
280
     0
102
RTVSPost2010PropOp31
 70
     1
102
RTVSPost2010Prop32
280
     0
102
RTVSPost2010PropOp32
 70
     1
102
RTVSPost2010Prop33
280
     0
102
RTVSPost2010PropOp33
 70
     1
102
RTVSPost2010Prop34
280
     0
102
RTVSPost2010PropOp34
 70
     1
102
RTVSPost2010Prop35
280
     0
102
RTVSPost2010PropOp35
 70
     1
102
RTVSPost2010Prop36
280
     0
102
RTVSPost2010PropOp36
 70
     1
102
RTVSPost2010Prop37
 90
       50
102
RTVSPost2010PropOp37
 70
     1
102
RTVSPost2010Prop38
140
0.0
102
RTVSPost2010PropOp38
 70
     1
102
RTVSPost2010Prop39
140
1.0
102
RTVSPost2010PropOp39
 70
     1
102
RTVSPost2010Prop40
 90
        0
102
RTVSPost2010PropOp40
 70
     1
102
RTVSPost2010Prop41ColorIndex
 90
       18
102
RTVSPost2010Prop41ColorRGB
 90
        0
102
RTVSPost2010PropOp41
 70
     1
102
RTVSPost2010Prop42
 90
       50
102
RTVSPost2010PropOp42
 70
     1
102
RTVSPost2010Prop43
 90
        3
102
RTVSPost2010PropOp43
 70
     1
102
RTVSPost2010Prop44ColorIndex
 90
        5
102
RTVSPost2010Prop44ColorRGB
 90
      255
102
RTVSPost2010PropOp44
 70
     1
102
RTVSPost2010Prop45
280
     0
102
RTVSPost2010PropOp45
 70
     1
102
RTVSPost2010Prop46
 90
       50
102
RTVSPost2010PropOp46
 70
     1
102
RTVSPost2010Prop47
 90
       50
102
RTVSPost2010PropOp47
 70
     1
102
RTVSPost2010Prop48
 90
       50
102
RTVSPost2010PropOp48
 70
     1
102
RTVSPost2010Prop49
280
     0
102
RTVSPost2010PropOp49
 70
     1
102
RTVSPost2010Prop50
 90
       50
102
RTVSPost2010PropOp50
 70
     1
102
RTVSPost2010Prop51ColorIndex
 90
      256
102
RTVSPost2010Prop51ColorRGB
 90
-16777216
102
RTVSPost2010PropOp51
 70
     0
102
RTVSPost2010Prop52
140
1.0
102
RTVSPost2010PropOp52
 70
     0
102
RTVSPost2010Prop53
 90
        2
102
RTVSPost2010PropOp53
 70
     1
102
RTVSPost2010Prop54
  1
strokes_ogs.tif
102
RTVSPost2010PropOp54
 70
     1
102
RTVSPost2010Prop55
280
     0
102
RTVSPost2010PropOp55
 70
     1
102
RTVSPost2010Prop56
140
1.0
102
RTVSPost2010PropOp56
 70
     1
102
RTVSPost2010Prop57
140
1.0
102
RTVSPost2010PropOp57
 70
     1
  0
XRECORD
  5
333
102
{ACAD_REACTORS
330
332
102
}
330
332
100
AcDbXrecord
280
     1
102
RTVSPropertyOp0
 70
     1
102
RTVSPropertyOp1
 70
     1
102
RTVSPropertyOp2
 70
     1
102
RTVSPropertyOp3
 70
     1
102
RTVSPropertyOp4
 70
     1
102
RTVSPropertyOp5
 70
     1
102
RTVSPropertyOp6
 70
     1
102
RTVSPropertyOp7
 70
     1
102
RTVSPropertyOp8
 70
     1
102
RTVSPropertyOp9
 70
     1
102
RTVSPropertyOp10
 70
     1
102
RTVSPropertyOp11
 70
     1
102
RTVSPropertyOp12
 70
     1
102
RTVSPropertyOp13
 70
     1
102
RTVSPropertyOp14
 70
     1
102
RTVSPropertyOp15
 70
     1
102
RTVSPropertyOp16
 70
     1
102
RTVSPropertyOp17
 70
     1
102
RTVSPropertyOp18
 70
     1
102
RTVSPropertyOp19
 70
     1
102
RTVSPropertyOp20
 70
     1
102
RTVSPropertyOp21
 70
     1
102
RTVSPropertyOp22
 70
     1
102
RTVSPropertyOp23
 70
     1
102
RTVSPropertyOp24
 70
     1
102
RTVSPropertyOp25
 70
     1
102
RTVSPropertyOp26
 70
     1
102
RTVSPropertyOp27
 70
     1
102
RTVSPropertyOp28
 70
     1
102
RTVSPropertyOp29
 70
     1
102
RTVSPropertyOp30
 70
     1
102
RTVSPropertyOp31
 70
     1
102
RTVSPropertyOp32
 70
     1
102
RTVSPropertyOp33
 70
     1
102
RTVSPropertyOp34
 70
     1
102
RTVSPropertyOp35
 70
     1
102
RTVSPropertyOp36
 70
     1
102
RTVSPropertyOp37
 70
     1
102
RTVSPropertyOp38
 70
     1
102
RTVSPropertyOp39
 70
     1
102
RTVSPropertyOp40
 70
     1
102
RTVSPropertyOp41
 70
     1
102
RTVSPropertyOp42
 70
     1
102
RTVSPropertyOp43
 70
     1
102
RTVSPropertyOp44
 70
     1
102
RTVSPropertyOp45
 70
     1
102
RTVSPropertyOp46
 70
     1
102
RTVSPropertyOp47
 70
     1
102
RTVSPropertyOp48
 70
     1
102
RTVSPropertyOp49
 70
     1
102
RTVSPropertyOp50
 70
     1
102
RTVSPropertyOp51
 70
     0
102
RTVSPropertyOp52
 70
     0
102
RTVSPropertyOp53
 70
     1
102
RTVSPropertyOp54
 70
     1
102
RTVSPropertyOp55
 70
     1
102
RTVSPropertyOp56
 70
     1
102
RTVSPropertyOp57
 70
     1
102
RTVSPost2010Prop28
280
     0
102
RTVSPost2010PropOp28
 70
     1
102
RTVSPost2010Prop29
280
     1
102
RTVSPost2010PropOp29
 70
     1
102
RTVSPost2010Prop30
280
     1
102
RTVSPost2010PropOp30
 70
     1
102
RTVSPost2010Prop31
280
     0
102
RTVSPost2010PropOp31
 70
     1
102
RTVSPost2010Prop32
280
     0
102
RTVSPost2010PropOp32
 70
     1
102
RTVSPost2010Prop33
280
     0
102
RTVSPost2010PropOp33
 70
     1
102
RTVSPost2010Prop34
280
     0
102
RTVSPost2010PropOp34
 70
     1
102
RTVSPost2010Prop35
280
     0
102
RTVSPost2010PropOp35
 70
     1
102
RTVSPost2010Prop36
280
     0
102
RTVSPost2010PropOp36
 70
     1
102
RTVSPost2010Prop37
 90
       50
102
RTVSPost2010PropOp37
 70
     1
102
RTVSPost2010Prop38
140
0.0
102
RTVSPost2010PropOp38
 70
     1
102
RTVSPost2010Prop39
140
1.0
102
RTVSPost2010PropOp39
 70
     1
102
RTVSPost2010Prop40
 90
        0
102
RTVSPost2010PropOp40
 70
     1
102
RTVSPost2010Prop41ColorIndex
 90
       18
102
RTVSPost2010Prop41ColorRGB
 90
        0
102
RTVSPost2010PropOp41
 70
     1
102
RTVSPost2010Prop42
 90
       50
102
RTVSPost2010PropOp42
 70
     1
102
RTVSPost2010Prop43
 90
        3
102
RTVSPost2010PropOp43
 70
     1
102
RTVSPost2010Prop44ColorIndex
 90
        5
102
RTVSPost2010Prop44ColorRGB
 90
      255
102
RTVSPost2010PropOp44
 70
     1
102
RTVSPost2010Prop45
280
     0
102
RTVSPost2010PropOp45
 70
     1
102
RTVSPost2010Prop46
 90
       50
102
RTVSPost2010PropOp46
 70
     1
102
RTVSPost2010Prop47
 90
       50
102
RTVSPost2010PropOp47
 70
     1
102
RTVSPost2010Prop48
 90
       50
102
RTVSPost2010PropOp48
 70
     1
102
RTVSPost2010Prop49
280
     0
102
RTVSPost2010PropOp49
 70
     1
102
RTVSPost2010Prop50
 90
       50
102
RTVSPost2010PropOp50
 70
     1
102
RTVSPost2010Prop51ColorIndex
 90
      256
102
RTVSPost2010Prop51ColorRGB
 90
-16777216
102
RTVSPost2010PropOp51
 70
     0
102
RTVSPost2010Prop52
140
1.0
102
RTVSPost2010PropOp52
 70
     0
102
RTVSPost2010Prop53
 90
        2
102
RTVSPost2010PropOp53
 70
     1
102
RTVSPost2010Prop54
  1
strokes_ogs.tif
102
RTVSPost2010PropOp54
 70
     1
102
RTVSPost2010Prop55
280
     0
102
RTVSPost2010PropOp55
 70
     1
102
RTVSPost2010Prop56
140
1.0
102
RTVSPost2010PropOp56
 70
     1
102
RTVSPost2010Prop57
140
1.0
102
RTVSPost2010PropOp57
 70
     1
  0
ENDSEC
  0
EOF
